999
DXF file: 1476435-7_A.dxf
999
Pro/ENGINEER 2019030 by Parametric Technology Corporation
  0
SECTION
  2
HEADER
  9
$ACADVER
  1
AC1015
  9
$DWGCODEPAGE
  3
ANSI_1252
  9
$EXTMAX
 10
44.0
 20
34.0
 30
0.0
  9
$EXTMIN
 10
0.0
 20
0.0
 30
0.0
  9
$LIMMIN
 10
0.0
 20
0.0
  9
$LIMMAX
 10
44.0
 20
34.0
  9
$VIEWCTR
 10
22.0
 20
17.0
  9
$VIEWSIZE
 40
34.0
  9
$CLAYER
  8
0
  9
$LTSCALE
 40
2.42
  9
$CELTYPE
  6
BYLAYER
  9
$DIMSCALE
 40
1.0
  9
$DIMASZ
 40
0.1875
  9
$DIMEXO
 40
0.0625
  9
$DIMDLI
 40
1.672
  9
$DIMEXE
 40
0.125
  9
$DIMCEN
 40
0.396
  9
$DIMLFAC
 40
1.0
  9
$DIMBLK
  1
_FILLED
  9
$DIMALT
 70
1
  9
$DIMALTD
 70
2
  9
$DIMALTTD
 70
2
  9
$DIMALTF
 40
25.4
  9
$DIMTXT
 40
0.15625
  9
$DIMTOL
 70
1
  9
$DIMLIM
 70
0
  9
$DIMTFAC
 40
1.0
  9
$DIMTP
 40
0.01
  9
$DIMTM
 40
0.01
  9
$DIMGAP
 40
0.09
  9
$DIMDSEP
 70
46
  9
$AUNITS
 70
0
  9
$PDMODE
 70
3
  9
$PDSIZE
 40
0.3125
  9
$HANDSEED
  5
372
  9
$TILEMODE
 70
1
  9
$MEASUREMENT
 70
0
  9
$INSUNITS
 70
1
  0
ENDSEC
  0
SECTION
  2
CLASSES
  0
CLASS
  1
ACDBDICTIONARYWDFLT
  2
AcDbDictionaryWithDefault
  3
AutoCAD 2000
 90
0
280
0
281
0
  0
CLASS
  1
ACDBPLACEHOLDER
  2
AcDbPlaceHolder
  3
AutoCAD 2000
 90
0
280
0
281
0
  0
CLASS
  1
LAYOUT
  2
AcDbLayout
  3
AutoCAD 2000
 90
0
280
0
281
0
  0
ENDSEC
  0
SECTION
  2
TABLES
  0
TABLE
  2
VPORT
  5
8
100
AcDbSymbolTable
 70
2
  0
VPORT
  5
1F4
100
AcDbSymbolTableRecord
100
AcDbViewportTableRecord
  2
*ACTIVE
 70
0
 10
0.0
 20
0.0
 11
1.0
 21
1.0
 12
22.0
 22
17.0
 13
0.0
 23
0.0
 14
1.0
 24
1.0
 15
0.0
 25
0.0
 16
0.0
 26
0.0
 36
1.0
 17
0.0
 27
0.0
 37
0.0
 40
34.0
 41
1.2941176471
 42
50.0
 43
0.0
 44
0.0
 50
0.0
 51
0.0
 71
0
 72
100
 73
1
 74
1
 75
0
 76
0
 77
0
 78
0
  0
ENDTAB
  0
TABLE
  2
LTYPE
  5
5
100
AcDbSymbolTable
 70
6
  0
LTYPE
  5
14
100
AcDbSymbolTableRecord
100
AcDbLinetypeTableRecord
  2
BYBLOCK
 70
0
  3

 72
65
 73
0
 40
0.0
  0
LTYPE
  5
15
100
AcDbSymbolTableRecord
100
AcDbLinetypeTableRecord
  2
BYLAYER
 70
0
  3

 72
65
 73
0
 40
0.0
  0
LTYPE
  5
16
100
AcDbSymbolTableRecord
100
AcDbLinetypeTableRecord
  2
CONTINUOUS
 70
64
  3
Solid line
 72
65
 73
0
 40
0.0
  0
LTYPE
  5
1F5
100
AcDbSymbolTableRecord
100
AcDbLinetypeTableRecord
  2
CENTER
 70
64
  3
____ _ ____ _ ____ _ ____ _ ____ _ ____ _ ____
 72
65
 73
4
 40
0.6
 49
0.375
 74
0
 49
-0.075
 74
0
 49
0.075
 74
0
 49
-0.075
 74
0
  0
LTYPE
  5
1F6
100
AcDbSymbolTableRecord
100
AcDbLinetypeTableRecord
  2
HIDDEN
 70
64
  3
- - - - - - - - - - - - - - - - - - - -
 72
65
 73
2
 40
0.2
 49
0.1
 74
0
 49
-0.1
 74
0
  0
LTYPE
  5
1F7
100
AcDbSymbolTableRecord
100
AcDbLinetypeTableRecord
  2
PHANTOM
 70
64
  3
_____ _ _ _____ _ _ _____ _ _ _____
 72
65
 73
6
 40
0.8
 49
0.45
 74
0
 49
-0.05
 74
0
 49
0.1
 74
0
 49
-0.05
 74
0
 49
0.1
 74
0
 49
-0.05
 74
0
  0
LTYPE
  5
1F8
100
AcDbSymbolTableRecord
100
AcDbLinetypeTableRecord
  2
DOT
 70
64
  3
. . . . . . . . . . . . . . . . . . . .
 72
65
 73
2
 40
0.2
 49
0.1
 74
0
 49
-0.1
 74
0
  0
LTYPE
  5
1F9
100
AcDbSymbolTableRecord
100
AcDbLinetypeTableRecord
  2
DASHED
 70
64
  3
- - - - - - - - - - - - - - - - - - - -
 72
65
 73
2
 40
0.2
 49
0.1
 74
0
 49
-0.1
 74
0
  0
ENDTAB
  0
TABLE
  2
LAYER
  5
2
100
AcDbSymbolTable
 70
36
  0
LAYER
  5
10
100
AcDbSymbolTableRecord
100
AcDbLayerTableRecord
  2
0
 70
0
 62
7
  6
CONTINUOUS
370
-3
390
F
  0
LAYER
  5
1FA
100
AcDbSymbolTableRecord
100
AcDbLayerTableRecord
  2
DEFAULT_1
 70
0
 62
7
  6
CENTER
370
-3
390
F
  0
LAYER
  5
1FB
100
AcDbSymbolTableRecord
100
AcDbLayerTableRecord
  2
DEFAULT_2
 70
0
 62
8
  6
HIDDEN
370
-3
390
F
  0
LAYER
  5
1FC
100
AcDbSymbolTableRecord
100
AcDbLayerTableRecord
  2
DEFAULT_3
 70
0
 62
7
  6
PHANTOM
370
-3
390
F
  0
LAYER
  5
1FD
100
AcDbSymbolTableRecord
100
AcDbLayerTableRecord
  2
DATUMS
 70
0
 62
7
  6
CONTINUOUS
370
-3
390
F
  0
LAYER
  5
1FE
100
AcDbSymbolTableRecord
100
AcDbLayerTableRecord
  2
DATUM_AXIS
 70
0
 62
7
  6
CONTINUOUS
370
-3
390
F
  0
LAYER
  5
1FF
100
AcDbSymbolTableRecord
100
AcDbLayerTableRecord
  2
DATUM_CSYS
 70
0
 62
7
  6
CONTINUOUS
370
-3
390
F
  0
LAYER
  5
200
100
AcDbSymbolTableRecord
100
AcDbLayerTableRecord
  2
DATUM_PLANE
 70
0
 62
7
  6
CONTINUOUS
370
-3
390
F
  0
LAYER
  5
201
100
AcDbSymbolTableRecord
100
AcDbLayerTableRecord
  2
DATUM_POINT
 70
0
 62
7
  6
CONTINUOUS
370
-3
390
F
  0
LAYER
  5
202
100
AcDbSymbolTableRecord
100
AcDbLayerTableRecord
  2
_CURVE
 70
0
 62
7
  6
CONTINUOUS
370
-3
390
F
  0
LAYER
  5
203
100
AcDbSymbolTableRecord
100
AcDbLayerTableRecord
  2
_SURFACE
 70
0
 62
7
  6
CONTINUOUS
370
-3
390
F
  0
LAYER
  5
204
100
AcDbSymbolTableRecord
100
AcDbLayerTableRecord
  2
__REF_CURVE
 70
0
 62
7
  6
CONTINUOUS
370
-3
390
F
  0
LAYER
  5
205
100
AcDbSymbolTableRecord
100
AcDbLayerTableRecord
  2
__REF_SURFACE
 70
0
 62
7
  6
CONTINUOUS
370
-3
390
F
  0
LAYER
  5
206
100
AcDbSymbolTableRecord
100
AcDbLayerTableRecord
  2
___NOTE
 70
0
 62
7
  6
CONTINUOUS
370
-3
390
F
  0
LAYER
  5
207
100
AcDbSymbolTableRecord
100
AcDbLayerTableRecord
  2
___SYMBOL
 70
0
 62
7
  6
CONTINUOUS
370
-3
390
F
  0
ENDTAB
  0
TABLE
  2
STYLE
  5
3
100
AcDbSymbolTable
 70
1
  0
STYLE
  5
11
100
AcDbSymbolTableRecord
100
AcDbTextStyleTableRecord
  2
STANDARD
 70
0
 40
0.0
 41
0.8
 50
0.0
 71
0
 42
0.2
  3
txt
  4

  0
STYLE
  5
208
100
AcDbSymbolTableRecord
100
AcDbTextStyleTableRecord
  2
TEXTSTYLE_1
 70
0
 40
0.0
 41
0.8
 50
0.0
 71
0
 42
0.2
  3
gdt
  4

  0
STYLE
  5
209
100
AcDbSymbolTableRecord
100
AcDbTextStyleTableRecord
  2
TEXTSTYLE_2
 70
0
 40
0.0
 41
1.0
 50
0.0
 71
0
 42
0.2
  3
txt
  4

  0
ENDTAB
  0
TABLE
  2
VIEW
  5
6
100
AcDbSymbolTable
 70
0
  0
ENDTAB
  0
TABLE
  2
UCS
  5
7
100
AcDbSymbolTable
 70
0
  0
ENDTAB
  0
TABLE
  2
APPID
  5
9
100
AcDbSymbolTable
 70
1
  0
APPID
  5
20A
100
AcDbSymbolTableRecord
100
AcDbRegAppTableRecord
  2
ACAD
 70
0
  0
ENDTAB
  0
TABLE
  2
BLOCK_RECORD
  5
1
100
AcDbSymbolTable
 70
0
  0
BLOCK_RECORD
  5
20B
100
AcDbSymbolTableRecord
100
AcDbBlockTableRecord
  2
*Model_Space
  0
BLOCK_RECORD
  5
20C
100
AcDbSymbolTableRecord
100
AcDbBlockTableRecord
  2
*Paper_Space
  0
BLOCK_RECORD
  5
20D
100
AcDbSymbolTableRecord
100
AcDbBlockTableRecord
  2
_FILLED
  0
BLOCK_RECORD
  5
20E
100
AcDbSymbolTableRecord
100
AcDbBlockTableRecord
  2
*D0
  0
BLOCK_RECORD
  5
20F
100
AcDbSymbolTableRecord
100
AcDbBlockTableRecord
  2
*D1
  0
BLOCK_RECORD
  5
210
100
AcDbSymbolTableRecord
100
AcDbBlockTableRecord
  2
*D2
  0
BLOCK_RECORD
  5
211
100
AcDbSymbolTableRecord
100
AcDbBlockTableRecord
  2
*D3
  0
BLOCK_RECORD
  5
212
100
AcDbSymbolTableRecord
100
AcDbBlockTableRecord
  2
*D4
  0
BLOCK_RECORD
  5
213
100
AcDbSymbolTableRecord
100
AcDbBlockTableRecord
  2
*D5
  0
BLOCK_RECORD
  5
214
100
AcDbSymbolTableRecord
100
AcDbBlockTableRecord
  2
SCISSORS_BL3
  0
BLOCK_RECORD
  5
215
100
AcDbSymbolTableRecord
100
AcDbBlockTableRecord
  2
SCISSORS_BL2
  0
BLOCK_RECORD
  5
216
100
AcDbSymbolTableRecord
100
AcDbBlockTableRecord
  2
COPYRIGHT_YEAR_BL1
  0
BLOCK_RECORD
  5
217
100
AcDbSymbolTableRecord
100
AcDbBlockTableRecord
  2
PLOTTING_TEMPLATE_NOTE_BL0
  0
ENDTAB
  0
TABLE
  2
DIMSTYLE
  5
A
100
AcDbSymbolTable
 70
1
100
AcDbDimStyleTable
 71
0
  0
DIMSTYLE
105
218
100
AcDbSymbolTableRecord
100
AcDbDimStyleTableRecord
  2
STANDARD
 70
0
  3

  4

 40
1.0
 41
0.1875
 42
0.0625
 43
0.38
 44
0.125
 45
0.0
 46
0.0
 47
0.01
 48
0.01
140
0.15625
141
0.09
142
0.0
143
2.54
144
1.0
145
0.0
146
1.0
147
0.09
 71
1.0
 72
0.0
 73
1
 74
1
 75
0
 76
0
 77
0
 78
4
 79
1
170
1
171
2
172
0
173
0
174
0
175
0
176
0
177
0
178
0
270
2
179
3
271
3
272
3
273
2
274
2
275
0
280
0
281
0
282
0
283
1
284
4
285
0
286
0
287
3
288
0
340
11
278
46
341
20D
342
20D
343
20D
344
20D
  0
DIMSTYLE
105
219
100
AcDbSymbolTableRecord
100
AcDbDimStyleTableRecord
  2
DIMSTYLE_1
 70
0
  3

  4

 40
1.0
 41
0.1875
 42
0.0625
 43
0.38
 44
0.125
 45
0.0
 46
0.0
 47
0.01
 48
0.01
140
0.15625
141
0.09
142
0.0
143
2.54
144
1.0
145
0.0
146
1.0
147
0.078125
 71
0.0
 72
0.0
 73
1
 74
1
 75
0
 76
0
 77
0
 78
4
 79
1
170
1
171
1
172
0
173
0
174
0
175
0
176
0
177
0
178
0
270
2
179
3
271
5
272
32
273
2
274
1
275
0
280
0
281
0
282
0
283
1
284
4
285
0
286
0
287
3
288
0
340
11
278
46
341
20D
342
20D
343
20D
344
20D
  0
DIMSTYLE
105
21A
100
AcDbSymbolTableRecord
100
AcDbDimStyleTableRecord
  2
DIMSTYLE_2
 70
0
  3
<>
  4

 40
1.0
 41
0.1875
 42
0.0625
 43
0.38
 44
0.125
 45
0.0
 46
0.0
 47
0.01
 48
0.01
140
0.15625
141
0.09
142
0.0
143
2.54
144
1.0
145
0.0
146
1.0
147
0.09
 71
0.0
 72
0.0
 73
1
 74
1
 75
0
 76
0
 77
0
 78
4
 79
1
170
1
171
1
172
0
173
0
174
0
175
0
176
0
177
0
178
0
270
2
179
3
271
2
272
2
273
2
274
1
275
0
280
0
281
0
282
0
283
1
284
4
285
0
286
0
287
3
288
0
340
11
278
46
341
20D
342
20D
343
20D
344
20D
  0
ENDTAB
  0
ENDSEC
  0
SECTION
  2
BLOCKS
  0
BLOCK
  5
20
100
AcDbEntity
  8
0
100
AcDbBlockBegin
  2
*Model_Space
 70
0
 10
0.0
 20
0.0
 30
0.0
  3
*Model_Space
  1

  0
ENDBLK
  5
21
100
AcDbEntity
  8
0
100
AcDbBlockEnd
  0
BLOCK
  5
1C
100
AcDbEntity
  8
0
100
AcDbBlockBegin
  2
*Paper_Space
 70
0
 10
0.0
 20
0.0
 30
0.0
  3
*Paper_Space
  1

  0
ENDBLK
  5
1D
100
AcDbEntity
  8
0
100
AcDbBlockEnd
  0
BLOCK
  5
21B
100
AcDbEntity
  8
___SYMBOL
100
AcDbBlockBegin
 62
2
  6
CONTINUOUS
  2
SCISSORS_BL3
 70
64
 10
36.2887764867
 20
15.644904534
  3
SCISSORS_BL3
  1

  0
LINE
  5
21C
100
AcDbEntity
  8
___SYMBOL
100
AcDbLine
 62
7
  6
CONTINUOUS
 10
36.23113522
 20
15.7066030548
 11
36.1190554468
 21
16.2602613565
  0
LINE
  5
21D
100
AcDbEntity
  8
___SYMBOL
100
AcDbLine
 62
7
  6
CONTINUOUS
 10
36.1827555608
 20
15.6771019793
 11
36.1190554468
 21
16.2602613565
  0
LINE
  5
21E
100
AcDbEntity
  8
___SYMBOL
100
AcDbLine
 62
7
  6
CONTINUOUS
 10
36.2583973252
 20
15.6109190628
 11
36.2568297113
 21
15.6617724697
  0
LINE
  5
21F
100
AcDbEntity
  8
___SYMBOL
100
AcDbLine
 62
7
  6
CONTINUOUS
 10
36.2732074126
 20
15.6624524591
 11
36.2747858133
 21
15.6112491283
  0
LINE
  5
220
100
AcDbEntity
  8
___SYMBOL
100
AcDbLine
 62
7
  6
CONTINUOUS
 10
36.2672893297
 20
15.8398219089
 11
36.4550037193
 21
16.2505258755
  0
LINE
  5
221
100
AcDbEntity
  8
___SYMBOL
100
AcDbLine
 62
7
  6
CONTINUOUS
 10
36.1531805079
 20
15.5815518083
 11
36.1857096018
 21
15.6429643763
  0
LINE
  5
222
100
AcDbEntity
  8
___SYMBOL
100
AcDbLine
 62
7
  6
CONTINUOUS
 10
36.3344365752
 20
15.649370507
 11
36.4550037193
 21
16.0350591198
  0
LINE
  5
223
100
AcDbEntity
  8
___SYMBOL
100
AcDbLine
 62
7
  6
CONTINUOUS
 10
36.3050679597
 20
15.7326694412
 11
36.23113522
 21
15.7066030548
  0
LINE
  5
224
100
AcDbEntity
  8
___SYMBOL
100
AcDbLine
 62
7
  6
CONTINUOUS
 10
36.359048599
 20
15.5795628117
 11
36.3017617973
 21
15.441298289
  0
LINE
  5
225
100
AcDbEntity
  8
___SYMBOL
100
AcDbLine
 62
7
  6
CONTINUOUS
 10
36.2070222709
 20
15.4458098987
 11
36.2510995461
 21
15.4916091005
  0
LINE
  5
226
100
AcDbEntity
  8
___SYMBOL
100
AcDbLine
 62
7
  6
CONTINUOUS
 10
36.1190554468
 20
16.2602613565
 11
36.359048599
 21
15.5795628117
  0
LINE
  5
227
100
AcDbEntity
  8
___SYMBOL
100
AcDbLine
 62
7
  6
CONTINUOUS
 10
36.2070222709
 20
15.4458098987
 11
36.1531805079
 21
15.5815518083
  0
ARC
  5
228
100
AcDbEntity
  8
___SYMBOL
100
AcDbCircle
 62
7
  6
CONTINUOUS
 10
36.1103697199
 20
16.1427924976
 40
0.3610804262
100
AcDbArc
 50
342.6406360869
 51
17.3593639131
  0
ARC
  5
229
100
AcDbEntity
  8
___SYMBOL
100
AcDbCircle
 62
7
  6
CONTINUOUS
 10
36.4954075294
 20
15.6869601871
 40
0.3128073492
100
AcDbArc
 50
181.8059909349
 51
231.752660067
  0
CIRCLE
  5
22A
100
AcDbEntity
  8
___SYMBOL
100
AcDbCircle
 62
7
  6
CONTINUOUS
 10
36.2660775423
 20
15.6366066794
 40
0.0268111801
  0
ARC
  5
22B
100
AcDbEntity
  8
___SYMBOL
100
AcDbCircle
 62
7
  6
CONTINUOUS
 10
36.4255353527
 20
15.2642890819
 40
0.0146088562
100
AcDbArc
 50
185.3133793157
 51
314.0675041521
  0
ARC
  5
22C
100
AcDbEntity
  8
___SYMBOL
100
AcDbCircle
 62
7
  6
CONTINUOUS
 10
36.0908737577
 20
15.2567685127
 40
0.0146087357
100
AcDbArc
 50
233.3109272841
 51
359.4467240969
  0
SPLINE
  5
22D
100
AcDbEntity
  8
___SYMBOL
100
AcDbSpline
 62
7
  6
CONTINUOUS
 70
0
 71
3
 72
12
 73
8
 74
0
 42
0.0000001
 43
0.0000001
 44
0.0000000001
 40
0.0
 40
0.0
 40
0.0
 40
0.0
 40
0.4884256058
 40
0.6683914397
 40
0.8669439281
 40
0.9099489479
 40
1.0
 40
1.0
 40
1.0
 40
1.0
 10
36.3877912245
 20
15.0295477115
 30
0.0
 10
36.3645628763
 20
15.097590999
 30
0.0
 10
36.3595931342
 20
15.1986154655
 30
0.0
 10
36.3611844727
 20
15.3254888911
 30
0.0
 10
36.3563004824
 20
15.3883064047
 30
0.0
 10
36.3377549817
 20
15.4341984682
 30
0.0
 10
36.3148295765
 20
15.4435241712
 30
0.0
 10
36.3017617973
 20
15.441298289
 30
0.0
  0
SPLINE
  5
22E
100
AcDbEntity
  8
___SYMBOL
100
AcDbSpline
 62
7
  6
CONTINUOUS
 70
0
 71
3
 72
14
 73
10
 74
0
 42
0.0000001
 43
0.0000001
 44
0.0000000001
 40
0.0
 40
0.0
 40
0.0
 40
0.0
 40
0.0469735811
 40
0.2606095073
 40
0.5805460666
 40
0.7382389988
 40
0.8401572415
 40
0.925087268
 40
1.0
 40
1.0
 40
1.0
 40
1.0
 10
36.4109892692
 20
15.2629362566
 30
0.0
 10
36.4105148663
 20
15.2680372139
 30
0.0
 10
36.4085563792
 20
15.2964456613
 30
0.0
 10
36.4112404288
 20
15.3589863557
 30
0.0
 10
36.4170827106
 20
15.4384698642
 30
0.0
 10
36.3831301871
 20
15.4928690562
 30
0.0
 10
36.362096931
 20
15.5249299814
 30
0.0
 10
36.3604134888
 20
15.5541103306
 30
0.0
 10
36.3602802559
 20
15.5714861506
 30
0.0
 10
36.359048599
 20
15.5795628117
 30
0.0
  0
SPLINE
  5
22F
100
AcDbEntity
  8
___SYMBOL
100
AcDbSpline
 62
7
  6
CONTINUOUS
 70
0
 71
3
 72
12
 73
8
 74
0
 42
0.0000001
 43
0.0000001
 44
0.0000000001
 40
0.0
 40
0.0
 40
0.0
 40
0.0
 40
0.2870411994
 40
0.5613888029
 40
0.7613462239
 40
0.9013972407
 40
1.0
 40
1.0
 40
1.0
 40
1.0
 10
36.14835923
 20
15.0682042949
 30
0.0
 10
36.1575607192
 20
15.1048914404
 30
0.0
 10
36.1613709097
 20
15.1795859264
 30
0.0
 10
36.1550745083
 20
15.28024337
 30
0.0
 10
36.1626581524
 20
15.359587556
 30
0.0
 10
36.1667341826
 20
15.4204687268
 30
0.0
 10
36.1945377685
 20
15.4422109221
 30
0.0
 10
36.2070222709
 20
15.4458098987
 30
0.0
  0
SPLINE
  5
230
100
AcDbEntity
  8
___SYMBOL
100
AcDbSpline
 62
7
  6
CONTINUOUS
 70
0
 71
3
 72
13
 73
9
 74
0
 42
0.0000001
 43
0.0000001
 44
0.0000000001
 40
0.0
 40
0.0
 40
0.0
 40
0.0
 40
0.0902051637
 40
0.4170421866
 40
0.6587388922
 40
0.9356437381
 40
0.9595034934
 40
1.0
 40
1.0
 40
1.0
 40
1.0
 10
36.1054818122
 20
15.2566274458
 30
0.0
 10
36.1055781576
 20
15.2666044024
 30
0.0
 10
36.105293353
 20
15.3126649191
 30
0.0
 10
36.1031712436
 20
15.3864213912
 30
0.0
 10
36.1185592194
 20
15.4767948897
 30
0.0
 10
36.163123812
 20
15.535160249
 30
0.0
 10
36.1479915867
 20
15.5701248442
 30
0.0
 10
36.1499362317
 20
15.5784633981
 30
0.0
 10
36.1531805079
 20
15.5815518083
 30
0.0
  0
ELLIPSE
  5
231
100
AcDbEntity
  8
___SYMBOL
100
AcDbEllipse
 62
7
  6
CONTINUOUS
 10
36.5074221655
 20
15.1015643475
 30
0.0
 11
0.0060666775
 21
-0.1237602215
 31
0.0
 40
0.774293327
 41
0.0
 42
6.2831853072
  0
ELLIPSE
  5
232
100
AcDbEntity
  8
___SYMBOL
100
AcDbEllipse
 62
7
  6
CONTINUOUS
 10
36.5074221655
 20
15.1015643475
 30
0.0
 11
-0.0030333388
 21
-0.1844269968
 31
0.0
 40
0.700902774
 41
5.1250505418
 42
10.0362700851
  0
ELLIPSE
  5
233
100
AcDbEntity
  8
___SYMBOL
100
AcDbEllipse
 62
7
  6
CONTINUOUS
 10
36.0159219289
 20
15.1144176388
 30
0.0
 11
0.0151666938
 21
-0.1228502199
 31
0.0
 40
0.7501188416
 41
0.0
 42
6.2831853072
  0
ELLIPSE
  5
234
100
AcDbEntity
  8
___SYMBOL
100
AcDbEllipse
 62
7
  6
CONTINUOUS
 10
36.0181969329
 20
15.0939426022
 30
0.0
 11
0.0022750041
 21
-0.1736586442
 31
0.0
 40
0.7569683881
 41
2.6163261196
 42
7.6953125801
  0
ENDBLK
  5
235
100
AcDbEntity
  8
0
  6
BYBLOCK
 62
0
100
AcDbBlockEnd
  0
BLOCK
  5
236
100
AcDbEntity
  8
___SYMBOL
100
AcDbBlockBegin
 62
2
  6
CONTINUOUS
  2
SCISSORS_BL2
 70
64
 10
37.7778068432
 20
19.5139369218
  3
SCISSORS_BL2
  1

  0
LINE
  5
237
100
AcDbEntity
  8
___SYMBOL
100
AcDbLine
 62
7
  6
CONTINUOUS
 10
37.7201655766
 20
19.5756354426
 11
37.6080858034
 21
20.1292937443
  0
LINE
  5
238
100
AcDbEntity
  8
___SYMBOL
100
AcDbLine
 62
7
  6
CONTINUOUS
 10
37.6717859174
 20
19.5461343671
 11
37.6080858034
 21
20.1292937443
  0
LINE
  5
239
100
AcDbEntity
  8
___SYMBOL
100
AcDbLine
 62
7
  6
CONTINUOUS
 10
37.7474276818
 20
19.4799514506
 11
37.7458600679
 21
19.5308048575
  0
LINE
  5
23A
100
AcDbEntity
  8
___SYMBOL
100
AcDbLine
 62
7
  6
CONTINUOUS
 10
37.7622377691
 20
19.5314848469
 11
37.7638161699
 21
19.4802815161
  0
LINE
  5
23B
100
AcDbEntity
  8
___SYMBOL
100
AcDbLine
 62
7
  6
CONTINUOUS
 10
37.7563196862
 20
19.7088542967
 11
37.9440340758
 21
20.1195582633
  0
LINE
  5
23C
100
AcDbEntity
  8
___SYMBOL
100
AcDbLine
 62
7
  6
CONTINUOUS
 10
37.6422108644
 20
19.4505841961
 11
37.6747399584
 21
19.5119967641
  0
LINE
  5
23D
100
AcDbEntity
  8
___SYMBOL
100
AcDbLine
 62
7
  6
CONTINUOUS
 10
37.8234669317
 20
19.5184028947
 11
37.9440340758
 21
19.9040915076
  0
LINE
  5
23E
100
AcDbEntity
  8
___SYMBOL
100
AcDbLine
 62
7
  6
CONTINUOUS
 10
37.7940983163
 20
19.601701829
 11
37.7201655766
 21
19.5756354426
  0
LINE
  5
23F
100
AcDbEntity
  8
___SYMBOL
100
AcDbLine
 62
7
  6
CONTINUOUS
 10
37.8480789556
 20
19.4485951995
 11
37.7907921539
 21
19.3103306768
  0
LINE
  5
240
100
AcDbEntity
  8
___SYMBOL
100
AcDbLine
 62
7
  6
CONTINUOUS
 10
37.6960526275
 20
19.3148422865
 11
37.7401299026
 21
19.3606414883
  0
LINE
  5
241
100
AcDbEntity
  8
___SYMBOL
100
AcDbLine
 62
7
  6
CONTINUOUS
 10
37.6080858034
 20
20.1292937443
 11
37.8480789556
 21
19.4485951995
  0
LINE
  5
242
100
AcDbEntity
  8
___SYMBOL
100
AcDbLine
 62
7
  6
CONTINUOUS
 10
37.6960526275
 20
19.3148422865
 11
37.6422108644
 21
19.4505841961
  0
ARC
  5
243
100
AcDbEntity
  8
___SYMBOL
100
AcDbCircle
 62
7
  6
CONTINUOUS
 10
37.5994000765
 20
20.0118248854
 40
0.3610804262
100
AcDbArc
 50
342.6406360869
 51
17.3593639131
  0
ARC
  5
244
100
AcDbEntity
  8
___SYMBOL
100
AcDbCircle
 62
7
  6
CONTINUOUS
 10
37.984437886
 20
19.5559925749
 40
0.3128073492
100
AcDbArc
 50
181.8059909349
 51
231.752660067
  0
CIRCLE
  5
245
100
AcDbEntity
  8
___SYMBOL
100
AcDbCircle
 62
7
  6
CONTINUOUS
 10
37.7551078989
 20
19.5056390671
 40
0.0268111801
  0
ARC
  5
246
100
AcDbEntity
  8
___SYMBOL
100
AcDbCircle
 62
7
  6
CONTINUOUS
 10
37.9145657092
 20
19.1333214697
 40
0.0146088562
100
AcDbArc
 50
185.3133793157
 51
314.0675041521
  0
ARC
  5
247
100
AcDbEntity
  8
___SYMBOL
100
AcDbCircle
 62
7
  6
CONTINUOUS
 10
37.5799041142
 20
19.1258009005
 40
0.0146087357
100
AcDbArc
 50
233.3109272841
 51
359.4467240969
  0
SPLINE
  5
248
100
AcDbEntity
  8
___SYMBOL
100
AcDbSpline
 62
7
  6
CONTINUOUS
 70
0
 71
3
 72
12
 73
8
 74
0
 42
0.0000001
 43
0.0000001
 44
0.0000000001
 40
0.0
 40
0.0
 40
0.0
 40
0.0
 40
0.4884256058
 40
0.6683914397
 40
0.8669439281
 40
0.9099489479
 40
1.0
 40
1.0
 40
1.0
 40
1.0
 10
37.8768215811
 20
18.8985800992
 30
0.0
 10
37.8535932329
 20
18.9666233868
 30
0.0
 10
37.8486234907
 20
19.0676478532
 30
0.0
 10
37.8502148292
 20
19.1945212789
 30
0.0
 10
37.8453308389
 20
19.2573387924
 30
0.0
 10
37.8267853383
 20
19.3032308559
 30
0.0
 10
37.8038599331
 20
19.312556559
 30
0.0
 10
37.7907921539
 20
19.3103306768
 30
0.0
  0
SPLINE
  5
249
100
AcDbEntity
  8
___SYMBOL
100
AcDbSpline
 62
7
  6
CONTINUOUS
 70
0
 71
3
 72
14
 73
10
 74
0
 42
0.0000001
 43
0.0000001
 44
0.0000000001
 40
0.0
 40
0.0
 40
0.0
 40
0.0
 40
0.0469735811
 40
0.2606095073
 40
0.5805460666
 40
0.7382389988
 40
0.8401572415
 40
0.925087268
 40
1.0
 40
1.0
 40
1.0
 40
1.0
 10
37.9000196258
 20
19.1319686444
 30
0.0
 10
37.8995452229
 20
19.1370696017
 30
0.0
 10
37.8975867358
 20
19.1654780491
 30
0.0
 10
37.9002707853
 20
19.2280187435
 30
0.0
 10
37.9061130671
 20
19.307502252
 30
0.0
 10
37.8721605437
 20
19.361901444
 30
0.0
 10
37.8511272876
 20
19.3939623691
 30
0.0
 10
37.8494438454
 20
19.4231427184
 30
0.0
 10
37.8493106124
 20
19.4405185383
 30
0.0
 10
37.8480789556
 20
19.4485951995
 30
0.0
  0
SPLINE
  5
24A
100
AcDbEntity
  8
___SYMBOL
100
AcDbSpline
 62
7
  6
CONTINUOUS
 70
0
 71
3
 72
12
 73
8
 74
0
 42
0.0000001
 43
0.0000001
 44
0.0000000001
 40
0.0
 40
0.0
 40
0.0
 40
0.0
 40
0.2870411994
 40
0.5613888029
 40
0.7613462239
 40
0.9013972407
 40
1.0
 40
1.0
 40
1.0
 40
1.0
 10
37.6373895865
 20
18.9372366826
 30
0.0
 10
37.6465910757
 20
18.9739238282
 30
0.0
 10
37.6504012663
 20
19.0486183142
 30
0.0
 10
37.6441048649
 20
19.1492757578
 30
0.0
 10
37.6516885089
 20
19.2286199438
 30
0.0
 10
37.6557645392
 20
19.2895011146
 30
0.0
 10
37.683568125
 20
19.3112433099
 30
0.0
 10
37.6960526275
 20
19.3148422865
 30
0.0
  0
SPLINE
  5
24B
100
AcDbEntity
  8
___SYMBOL
100
AcDbSpline
 62
7
  6
CONTINUOUS
 70
0
 71
3
 72
13
 73
9
 74
0
 42
0.0000001
 43
0.0000001
 44
0.0000000001
 40
0.0
 40
0.0
 40
0.0
 40
0.0
 40
0.0902051637
 40
0.4170421866
 40
0.6587388922
 40
0.9356437381
 40
0.9595034934
 40
1.0
 40
1.0
 40
1.0
 40
1.0
 10
37.5945121688
 20
19.1256598336
 30
0.0
 10
37.5946085141
 20
19.1356367902
 30
0.0
 10
37.5943237095
 20
19.1816973069
 30
0.0
 10
37.5922016002
 20
19.2554537789
 30
0.0
 10
37.6075895759
 20
19.3458272774
 30
0.0
 10
37.6521541685
 20
19.4041926368
 30
0.0
 10
37.6370219433
 20
19.439157232
 30
0.0
 10
37.6389665882
 20
19.4474957859
 30
0.0
 10
37.6422108644
 20
19.4505841961
 30
0.0
  0
ELLIPSE
  5
24C
100
AcDbEntity
  8
___SYMBOL
100
AcDbEllipse
 62
7
  6
CONTINUOUS
 10
37.996452522
 20
18.9705967353
 30
0.0
 11
0.0060666775
 21
-0.1237602215
 31
0.0
 40
0.774293327
 41
0.0
 42
6.2831853072
  0
ELLIPSE
  5
24D
100
AcDbEntity
  8
___SYMBOL
100
AcDbEllipse
 62
7
  6
CONTINUOUS
 10
37.996452522
 20
18.9705967353
 30
0.0
 11
-0.0030333388
 21
-0.1844269968
 31
0.0
 40
0.700902774
 41
5.1250505418
 42
10.0362700851
  0
ELLIPSE
  5
24E
100
AcDbEntity
  8
___SYMBOL
100
AcDbEllipse
 62
7
  6
CONTINUOUS
 10
37.5049522854
 20
18.9834500266
 30
0.0
 11
0.0151666938
 21
-0.1228502199
 31
0.0
 40
0.7501188416
 41
0.0
 42
6.2831853072
  0
ELLIPSE
  5
24F
100
AcDbEntity
  8
___SYMBOL
100
AcDbEllipse
 62
7
  6
CONTINUOUS
 10
37.5072272895
 20
18.96297499
 30
0.0
 11
0.0022750041
 21
-0.1736586442
 31
0.0
 40
0.7569683881
 41
2.6163261196
 42
7.6953125801
  0
ENDBLK
  5
250
100
AcDbEntity
  8
0
  6
BYBLOCK
 62
0
100
AcDbBlockEnd
  0
BLOCK
  5
251
100
AcDbEntity
  8
___SYMBOL
100
AcDbBlockBegin
 62
2
  6
CONTINUOUS
  2
COPYRIGHT_YEAR_BL1
 70
64
 10
31.6822490439
 20
9.9372972715
  3
COPYRIGHT_YEAR_BL1
  1

  0
TEXT
  5
252
100
AcDbEntity
  8
___SYMBOL
100
AcDbText
 62
2
  6
CONTINUOUS
 10
30.8871604788
 20
9.862247006
  7
STANDARD
 40
0.15
  1
2021 KOHLER CO.
 41
0.8
 72
0
100
AcDbText
  0
TEXT
  5
253
100
AcDbEntity
  8
___SYMBOL
100
AcDbText
 62
7
  6
CONTINUOUS
 10
30.7168929276
 20
9.8973214745
  7
TEXTSTYLE_2
 40
0.0897606372
  1
C
 41
1.0
 72
0
100
AcDbText
  0
CIRCLE
  5
254
100
AcDbEntity
  8
___SYMBOL
100
AcDbCircle
 62
7
  6
CONTINUOUS
 10
30.7471801613
 20
9.9425049846
 40
0.0698425524
  0
ENDBLK
  5
255
100
AcDbEntity
  8
0
  6
BYBLOCK
 62
0
100
AcDbBlockEnd
  0
BLOCK
  5
256
100
AcDbEntity
  8
___SYMBOL
100
AcDbBlockBegin
 62
2
  6
CONTINUOUS
  2
PLOTTING_TEMPLATE_NOTE_BL0
 70
64
 10
26.5070006725
 20
11.3817216132
  3
PLOTTING_TEMPLATE_NOTE_BL0
  1

  0
TEXT
  5
257
100
AcDbEntity
  8
___SYMBOL
100
AcDbText
 62
2
  6
CONTINUOUS
 10
23.1945006725
 20
12.5926591132
  7
STANDARD
 40
0.15625
  1
WHEN PLOTTING TEMPLATE FULL SIZE:
 41
0.8
 72
0
100
AcDbText
  0
TEXT
  5
258
100
AcDbEntity
  8
___SYMBOL
100
AcDbText
 62
2
  6
CONTINUOUS
 10
23.1945006725
 20
12.3582841132
  7
STANDARD
 40
0.15625
  1
Make sure horizontal and vertical dimensions
 41
0.8
 72
0
100
AcDbText
  0
TEXT
  5
259
100
AcDbEntity
  8
___SYMBOL
100
AcDbText
 62
2
  6
CONTINUOUS
 10
23.1945006725
 20
12.1239091132
  7
STANDARD
 40
0.15625
  1
match the dimensions labeled on the template.
 41
0.8
 72
0
100
AcDbText
  0
TEXT
  5
25A
100
AcDbEntity
  8
___SYMBOL
100
AcDbText
 62
2
  6
CONTINUOUS
 10
23.1945006725
 20
11.8895341132
  7
STANDARD
 40
0.15625
  1
 
 41
0.8
 72
0
100
AcDbText
  0
TEXT
  5
25B
100
AcDbEntity
  8
___SYMBOL
100
AcDbText
 62
2
  6
CONTINUOUS
 10
23.1945006725
 20
11.6551591132
  7
STANDARD
 40
0.15625
  1
AL TRAZAR LA PLANTILLA A ESCALA,
 41
0.8
 72
0
100
AcDbText
  0
TEXT
  5
25C
100
AcDbEntity
  8
___SYMBOL
100
AcDbText
 62
2
  6
CONTINUOUS
 10
23.1945006725
 20
11.4207841132
  7
STANDARD
 40
0.15625
  1
asegúrese de que las dimensiones horizontales
 41
0.8
 72
0
100
AcDbText
  0
TEXT
  5
25D
100
AcDbEntity
  8
___SYMBOL
100
AcDbText
 62
2
  6
CONTINUOUS
 10
23.1945006725
 20
11.1864091132
  7
STANDARD
 40
0.15625
  1
y verticales concuerden con las dimensiones marcadas
 41
0.8
 72
0
100
AcDbText
  0
TEXT
  5
25E
100
AcDbEntity
  8
___SYMBOL
100
AcDbText
 62
2
  6
CONTINUOUS
 10
23.1945006725
 20
10.9520341132
  7
STANDARD
 40
0.15625
  1
en la plantilla.
 41
0.8
 72
0
100
AcDbText
  0
TEXT
  5
25F
100
AcDbEntity
  8
___SYMBOL
100
AcDbText
 62
2
  6
CONTINUOUS
 10
23.1945006725
 20
10.7176591132
  7
STANDARD
 40
0.15625
  1
 
 41
0.8
 72
0
100
AcDbText
  0
TEXT
  5
260
100
AcDbEntity
  8
___SYMBOL
100
AcDbText
 62
2
  6
CONTINUOUS
 10
23.1945006725
 20
10.4832841132
  7
STANDARD
 40
0.15625
  1
AU MOMENT DE TRACER LA DÉCOUPE À L'ÉCHELLE,
 41
0.8
 72
0
100
AcDbText
  0
TEXT
  5
261
100
AcDbEntity
  8
___SYMBOL
100
AcDbText
 62
2
  6
CONTINUOUS
 10
23.1945006725
 20
10.2489091132
  7
STANDARD
 40
0.15625
  1
Assurez vos que les dimensions horizotales et
 41
0.8
 72
0
100
AcDbText
  0
TEXT
  5
262
100
AcDbEntity
  8
___SYMBOL
100
AcDbText
 62
2
  6
CONTINUOUS
 10
23.1945006725
 20
10.0145341132
  7
STANDARD
 40
0.15625
  1
verticales correspondent avec les dimensions du plan.
 41
0.8
 72
0
100
AcDbText
  0
ENDBLK
  5
263
100
AcDbEntity
  8
0
  6
BYBLOCK
 62
0
100
AcDbBlockEnd
  0
BLOCK
  5
264
100
AcDbEntity
  8
0
100
AcDbBlockBegin
  2
_FILLED
 70
64
 10
0.0
 20
0.0
  3
_FILLED
  1

  0
SOLID
  5
265
100
AcDbEntity
  8
0
  6
BYBLOCK
 62
0
100
AcDbTrace
 10
0.0
 20
0.0
 11
-1.0
 21
0.1666666667
 12
-1.0
 22
-0.1666666667
 13
-1.0
 23
-0.1666666667
  0
ENDBLK
  5
266
100
AcDbEntity
  8
0
  6
BYBLOCK
 62
0
100
AcDbBlockEnd
  0
BLOCK
  5
267
100
AcDbEntity
  8
0
100
AcDbBlockBegin
 62
2
  6
CONTINUOUS
  2
*D0
 70
65
 10
0.0
 20
0.0
  3
*D0
  1

  0
MTEXT
  5
268
100
AcDbEntity
  8
0
100
AcDbMText
 62
2
  6
CONTINUOUS
  7
STANDARD
 71
2
 72
1
 10
13.838025204
 20
18.2023390964
 30
0.0
 11
1.0
 21
0.0
 31
0.0
 73
2
 44
0.9
  1
32-1/2"\P[82,6]
 40
0.15625
 41
0.875
  0
LINE
  5
269
100
AcDbEntity
  8
0
100
AcDbLine
 62
2
  6
CONTINUOUS
 10
37.7590284842
 20
18.1242140964
 11
14.353650204
 21
18.1242140964
  0
LINE
  5
26A
100
AcDbEntity
  8
0
100
AcDbLine
 62
2
  6
CONTINUOUS
 10
5.2590284842
 20
18.1242140964
 11
13.322400204
 21
18.1242140964
  0
INSERT
  5
26B
100
AcDbEntity
  8
0
100
AcDbBlockReference
 62
2
  6
CONTINUOUS
  2
_FILLED
 10
37.7590284842
 20
18.1242140964
 41
0.1875
 42
0.1875
 43
0.1875
  0
INSERT
  5
26C
100
AcDbEntity
  8
0
100
AcDbBlockReference
 62
2
  6
CONTINUOUS
  2
_FILLED
 10
5.2590284842
 20
18.1242140964
 41
0.1875
 42
0.1875
 43
0.1875
 50
180.0
  0
ENDBLK
  5
26D
100
AcDbEntity
  8
0
  6
BYBLOCK
 62
0
100
AcDbBlockEnd
  0
BLOCK
  5
26E
100
AcDbEntity
  8
0
100
AcDbBlockBegin
 62
2
  6
CONTINUOUS
  2
*D1
 70
65
 10
0.0
 20
0.0
  3
*D1
  1

  0
MTEXT
  5
26F
100
AcDbEntity
  8
0
100
AcDbMText
 62
2
  6
CONTINUOUS
  7
STANDARD
 71
2
 72
1
 10
24.7640484814
 20
17.743456011
 30
0.0
 11
1.0
 21
0.0
 31
0.0
 73
2
 44
0.9
  1
29-9/16"\P[75,1]
 40
0.15625
 41
1.0
  0
LINE
  5
270
100
AcDbEntity
  8
0
100
AcDbLine
 62
2
  6
CONTINUOUS
 10
6.7340284842
 20
17.665331011
 11
24.1859234814
 21
17.665331011
  0
LINE
  5
271
100
AcDbEntity
  8
0
100
AcDbLine
 62
2
  6
CONTINUOUS
 10
36.2840284842
 20
17.665331011
 11
25.3421734814
 21
17.665331011
  0
INSERT
  5
272
100
AcDbEntity
  8
0
100
AcDbBlockReference
 62
2
  6
CONTINUOUS
  2
_FILLED
 10
6.7340284842
 20
17.665331011
 41
0.1875
 42
0.1875
 43
0.1875
 50
180.0
  0
INSERT
  5
273
100
AcDbEntity
  8
0
100
AcDbBlockReference
 62
2
  6
CONTINUOUS
  2
_FILLED
 10
36.2840284842
 20
17.665331011
 41
0.1875
 42
0.1875
 43
0.1875
  0
ENDBLK
  5
274
100
AcDbEntity
  8
0
  6
BYBLOCK
 62
0
100
AcDbBlockEnd
  0
BLOCK
  5
275
100
AcDbEntity
  8
0
100
AcDbBlockBegin
 62
2
  6
CONTINUOUS
  2
*D2
 70
65
 10
0.0
 20
0.0
  3
*D2
  1

  0
MTEXT
  5
276
100
AcDbEntity
  8
0
100
AcDbMText
 62
2
  6
CONTINUOUS
  7
STANDARD
 71
2
 72
1
 10
18.2599577819
 20
15.2128837469
 30
0.0
 11
1.0
 21
0.0
 31
0.0
 73
2
 44
0.9
  1
21-1/2"\P[54,6]
 40
0.15625
 41
0.875
  0
LINE
  5
277
100
AcDbEntity
  8
0
100
AcDbLine
 62
2
  6
CONTINUOUS
 10
18.2599577819
 20
29.3684003052
 11
18.2599577819
 21
15.2910087469
  0
LINE
  5
278
100
AcDbEntity
  8
0
100
AcDbLine
 62
2
  6
CONTINUOUS
 10
18.2599577819
 20
7.8684003052
 11
18.2599577819
 21
14.7441337469
  0
INSERT
  5
279
100
AcDbEntity
  8
0
100
AcDbBlockReference
 62
2
  6
CONTINUOUS
  2
_FILLED
 10
18.2599577819
 20
29.3684003052
 41
0.1875
 42
0.1875
 43
0.1875
 50
90.0
  0
INSERT
  5
27A
100
AcDbEntity
  8
0
100
AcDbBlockReference
 62
2
  6
CONTINUOUS
  2
_FILLED
 10
18.2599577819
 20
7.8684003052
 41
0.1875
 42
0.1875
 43
0.1875
 50
270.0
  0
ENDBLK
  5
27B
100
AcDbEntity
  8
0
  6
BYBLOCK
 62
0
100
AcDbBlockEnd
  0
BLOCK
  5
27C
100
AcDbEntity
  8
0
100
AcDbBlockBegin
 62
2
  6
CONTINUOUS
  2
*D3
 70
65
 10
0.0
 20
0.0
  3
*D3
  1

  0
MTEXT
  5
27D
100
AcDbEntity
  8
0
100
AcDbMText
 62
2
  6
CONTINUOUS
  7
STANDARD
 71
2
 72
1
 10
19.6618662683
 20
13.3967750259
 30
0.0
 11
1.0
 21
0.0
 31
0.0
 73
2
 44
0.9
  1
15-3/4"\P[40]
 40
0.15625
 41
0.875
  0
LINE
  5
27E
100
AcDbEntity
  8
0
100
AcDbLine
 62
2
  6
CONTINUOUS
 10
19.6618662683
 20
25.0884003052
 11
19.6618662683
 21
13.4749000259
  0
LINE
  5
27F
100
AcDbEntity
  8
0
100
AcDbLine
 62
2
  6
CONTINUOUS
 10
19.6618662683
 20
9.3484003052
 11
19.6618662683
 21
12.9280250259
  0
INSERT
  5
280
100
AcDbEntity
  8
0
100
AcDbBlockReference
 62
2
  6
CONTINUOUS
  2
_FILLED
 10
19.6618662683
 20
25.0884003052
 41
0.1875
 42
0.1875
 43
0.1875
 50
90.0
  0
INSERT
  5
281
100
AcDbEntity
  8
0
100
AcDbBlockReference
 62
2
  6
CONTINUOUS
  2
_FILLED
 10
19.6618662683
 20
9.3484003052
 41
0.1875
 42
0.1875
 43
0.1875
 50
270.0
  0
ENDBLK
  5
282
100
AcDbEntity
  8
0
  6
BYBLOCK
 62
0
100
AcDbBlockEnd
  0
BLOCK
  5
283
100
AcDbEntity
  8
0
100
AcDbBlockBegin
 62
2
  6
CONTINUOUS
  2
*D4
 70
65
 10
0.0
 20
0.0
  3
*D4
  1

  0
MTEXT
  5
284
100
AcDbEntity
  8
0
100
AcDbMText
 62
2
  6
CONTINUOUS
  7
STANDARD
 71
3
 72
1
 10
36.5980033159
 20
28.5731421612
 30
0.0
 11
1.0
 21
0.0
 31
0.0
 73
2
 44
0.9
  1
4X R.50{\ftxt.shx;\W1.600000;\H0.156250; }"\P[1,3]
 40
0.15625
 41
1.25
  0
LINE
  5
285
100
AcDbEntity
  8
0
100
AcDbLine
 62
2
  6
CONTINUOUS
 10
37.6291222359
 20
29.2046005655
 11
36.8480033159
 21
28.4950171612
  0
LINE
  5
286
100
AcDbEntity
  8
0
100
AcDbLine
 62
2
  6
CONTINUOUS
 10
36.8480033159
 20
28.4950171612
 11
36.6761283159
 21
28.4950171612
  0
INSERT
  5
287
100
AcDbEntity
  8
0
100
AcDbBlockReference
 62
2
  6
CONTINUOUS
  2
_FILLED
 10
37.6291222359
 20
29.2046005655
 41
0.1875
 42
0.1875
 43
0.1875
 50
42.2526095798
  0
ENDBLK
  5
288
100
AcDbEntity
  8
0
  6
BYBLOCK
 62
0
100
AcDbBlockEnd
  0
BLOCK
  5
289
100
AcDbEntity
  8
0
100
AcDbBlockBegin
 62
2
  6
CONTINUOUS
  2
*D5
 70
65
 10
0.0
 20
0.0
  3
*D5
  1

  0
MTEXT
  5
28A
100
AcDbEntity
  8
0
100
AcDbMText
 62
2
  6
CONTINUOUS
  7
STANDARD
 71
3
 72
1
 10
33.9663427444
 20
11.7473998031
 30
0.0
 11
1.0
 21
0.0
 31
0.0
 73
2
 44
0.9
  1
4X R3.00{\ftxt.shx;\W0.800000;\H0.156250; }"\P[7,6]
 40
0.15625
 41
1.25
  0
LINE
  5
28B
100
AcDbEntity
  8
0
100
AcDbLine
 62
2
  6
CONTINUOUS
 10
35.7089013993
 20
10.5820505816
 11
34.2163427444
 21
11.6692748031
  0
LINE
  5
28C
100
AcDbEntity
  8
0
100
AcDbLine
 62
2
  6
CONTINUOUS
 10
34.2163427444
 20
11.6692748031
 11
34.0444677444
 21
11.6692748031
  0
INSERT
  5
28D
100
AcDbEntity
  8
0
100
AcDbBlockReference
 62
2
  6
CONTINUOUS
  2
_FILLED
 10
35.7089013993
 20
10.5820505816
 41
0.1875
 42
0.1875
 43
0.1875
 50
323.9292892316
  0
ENDBLK
  5
28E
100
AcDbEntity
  8
0
  6
BYBLOCK
 62
0
100
AcDbBlockEnd
  0
ENDSEC
  0
SECTION
  2
ENTITIES
  0
SOLID
  5
28F
100
AcDbEntity
  8
0
100
AcDbTrace
 62
2
  6
CONTINUOUS
 10
10.4199834611
 20
24.1789394733
 11
10.5577476278
 21
24.342760663
 12
10.7498094399
 22
24.342760663
 13
10.7498094399
 23
24.342760663
  0
SOLID
  5
290
100
AcDbEntity
  8
0
100
AcDbTrace
 62
2
  6
CONTINUOUS
 10
10.7498094399
 20
24.342760663
 11
10.536505988
 21
24.08911239
 12
10.4199834611
 22
24.1789394733
 13
10.4199834611
 23
24.1789394733
  0
SOLID
  5
291
100
AcDbEntity
  8
0
100
AcDbTrace
 62
2
  6
CONTINUOUS
 10
10.4199834611
 20
23.9583468476
 11
10.536505988
 21
24.08911239
 12
10.5737214012
 22
23.7568470136
 13
10.5737214012
 23
23.7568470136
  0
SOLID
  5
292
100
AcDbEntity
  8
0
100
AcDbTrace
 62
2
  6
CONTINUOUS
 10
10.536505988
 20
24.08911239
 11
10.7900138227
 21
23.7568470136
 12
10.5737214012
 22
23.7568470136
 13
10.5737214012
 23
23.7568470136
  0
SOLID
  5
293
100
AcDbEntity
  8
0
100
AcDbTrace
 62
2
  6
CONTINUOUS
 10
10.4199834611
 20
23.7568470136
 11
10.2454832341
 21
23.7568230101
 12
10.4199834611
 22
23.9583468476
 13
10.4199834611
 23
23.9583468476
  0
SOLID
  5
294
100
AcDbEntity
  8
0
100
AcDbTrace
 62
2
  6
CONTINUOUS
 10
10.536505988
 20
24.08911239
 11
10.4199834611
 21
23.9583468476
 12
10.4199834611
 22
24.1789394733
 13
10.4199834611
 23
24.1789394733
  0
SOLID
  5
295
100
AcDbEntity
  8
0
100
AcDbTrace
 62
2
  6
CONTINUOUS
 10
10.4199834611
 20
23.9583468476
 11
10.2454832341
 21
23.7568230101
 12
10.4199834611
 22
24.1789394733
 13
10.4199834611
 23
24.1789394733
  0
SOLID
  5
296
100
AcDbEntity
  8
0
100
AcDbTrace
 62
2
  6
CONTINUOUS
 10
10.4199834611
 20
24.1789394733
 11
10.2454832341
 21
23.7568230101
 12
10.4199834611
 22
24.342760663
 13
10.4199834611
 23
24.342760663
  0
SOLID
  5
297
100
AcDbEntity
  8
0
100
AcDbTrace
 62
2
  6
CONTINUOUS
 10
10.2454832341
 20
23.7568230101
 11
10.2454832341
 21
24.342760663
 12
10.4199834611
 22
24.342760663
 13
10.4199834611
 23
24.342760663
  0
SOLID
  5
298
100
AcDbEntity
  8
0
100
AcDbTrace
 62
2
  6
CONTINUOUS
 10
10.8744181075
 20
24.3321512495
 11
10.9353672619
 21
24.3451063922
 12
10.9976780568
 22
24.3451063922
 13
10.9976780568
 23
24.3451063922
  0
SOLID
  5
299
100
AcDbEntity
  8
0
100
AcDbTrace
 62
2
  6
CONTINUOUS
 10
10.9976780568
 20
24.3451063922
 11
11.0586272113
 21
24.3321512495
 12
10.8744181075
 22
24.3321512495
 13
10.8744181075
 23
24.3321512495
  0
SOLID
  5
29A
100
AcDbEntity
  8
0
100
AcDbTrace
 62
2
  6
CONTINUOUS
 10
10.8174943639
 20
24.306807166
 11
10.8744181075
 21
24.3321512495
 12
11.0586272113
 22
24.3321512495
 13
11.0586272113
 23
24.3321512495
  0
SOLID
  5
29B
100
AcDbEntity
  8
0
100
AcDbTrace
 62
2
  6
CONTINUOUS
 10
11.0586272113
 20
24.3321512495
 11
11.1155509548
 21
24.306807166
 12
10.8174943639
 22
24.306807166
 13
10.8174943639
 23
24.306807166
  0
SOLID
  5
29C
100
AcDbEntity
  8
0
100
AcDbTrace
 62
2
  6
CONTINUOUS
 10
10.7670838719
 20
24.2701817997
 11
10.8174943639
 21
24.306807166
 12
11.1155509548
 22
24.306807166
 13
11.1155509548
 23
24.306807166
  0
SOLID
  5
29D
100
AcDbEntity
  8
0
100
AcDbTrace
 62
2
  6
CONTINUOUS
 10
11.1155509548
 20
24.306807166
 11
11.1659614468
 21
24.2701817997
 12
10.7670838719
 22
24.2701817997
 13
10.7670838719
 23
24.2701817997
  0
SOLID
  5
29E
100
AcDbEntity
  8
0
100
AcDbTrace
 62
2
  6
CONTINUOUS
 10
10.725389812
 20
24.223875855
 11
10.7670838719
 21
24.2701817997
 12
11.1659614468
 22
24.2701817997
 13
11.1659614468
 23
24.2701817997
  0
SOLID
  5
29F
100
AcDbEntity
  8
0
100
AcDbTrace
 62
2
  6
CONTINUOUS
 10
11.1659614468
 20
24.2701817997
 11
11.2076555067
 21
24.223875855
 12
10.725389812
 22
24.223875855
 13
10.725389812
 23
24.223875855
  0
SOLID
  5
2A0
100
AcDbEntity
  8
0
100
AcDbTrace
 62
2
  6
CONTINUOUS
 10
10.9665226594
 20
24.1734520015
 11
10.6942344145
 21
24.1699131237
 12
11.2076555067
 22
24.223875855
 13
11.2076555067
 23
24.223875855
  0
SOLID
  5
2A1
100
AcDbEntity
  8
0
100
AcDbTrace
 62
2
  6
CONTINUOUS
 10
10.6942344145
 20
24.1699131237
 11
10.725389812
 21
24.223875855
 12
11.2076555067
 22
24.223875855
 13
11.2076555067
 23
24.223875855
  0
SOLID
  5
2A2
100
AcDbEntity
  8
0
100
AcDbTrace
 62
2
  6
CONTINUOUS
 10
11.2076555067
 20
24.223875855
 11
11.2388109042
 21
24.1699131237
 12
10.9665226594
 22
24.1734520015
 13
10.9665226594
 23
24.1734520015
  0
SOLID
  5
2A3
100
AcDbEntity
  8
0
100
AcDbTrace
 62
2
  6
CONTINUOUS
 10
10.9665226594
 20
24.1734520015
 11
10.9279667897
 21
24.1673453517
 12
10.6942344145
 22
24.1699131237
 13
10.6942344145
 23
24.1699131237
  0
SOLID
  5
2A4
100
AcDbEntity
  8
0
100
AcDbTrace
 62
2
  6
CONTINUOUS
 10
11.005078529
 20
24.1673453517
 11
10.9665226594
 21
24.1734520015
 12
11.2388109042
 22
24.1699131237
 13
11.2388109042
 23
24.1699131237
  0
SOLID
  5
2A5
100
AcDbEntity
  8
0
100
AcDbTrace
 62
2
  6
CONTINUOUS
 10
10.8655820822
 20
24.1220202086
 11
10.67497932
 21
24.1106520362
 12
10.8931850372
 22
24.1496231636
 13
10.8931850372
 23
24.1496231636
  0
SOLID
  5
2A6
100
AcDbEntity
  8
0
100
AcDbTrace
 62
2
  6
CONTINUOUS
 10
10.8931850372
 20
24.1496231636
 11
10.67497932
 21
24.1106520362
 12
10.9279667897
 22
24.1673453517
 13
10.9279667897
 23
24.1673453517
  0
SOLID
  5
2A7
100
AcDbEntity
  8
0
100
AcDbTrace
 62
2
  6
CONTINUOUS
 10
10.67497932
 20
24.1106520362
 11
10.6942344145
 21
24.1699131237
 12
10.9279667897
 22
24.1673453517
 13
10.9279667897
 23
24.1673453517
  0
SOLID
  5
2A8
100
AcDbEntity
  8
0
100
AcDbTrace
 62
2
  6
CONTINUOUS
 10
11.005078529
 20
24.1673453517
 11
11.2388109042
 21
24.1699131237
 12
11.0398602815
 22
24.1496231636
 13
11.0398602815
 23
24.1496231636
  0
SOLID
  5
2A9
100
AcDbEntity
  8
0
100
AcDbTrace
 62
2
  6
CONTINUOUS
 10
11.0398602815
 20
24.1496231636
 11
11.2388109042
 21
24.1699131237
 12
11.0674632365
 22
24.1220202086
 13
11.0674632365
 23
24.1220202086
  0
SOLID
  5
2AA
100
AcDbEntity
  8
0
100
AcDbTrace
 62
2
  6
CONTINUOUS
 10
11.2388109042
 20
24.1699131237
 11
11.2580659987
 21
24.1106520362
 12
11.0674632365
 22
24.1220202086
 13
11.0674632365
 23
24.1220202086
  0
SOLID
  5
2AB
100
AcDbEntity
  8
0
100
AcDbTrace
 62
2
  6
CONTINUOUS
 10
10.8655820822
 20
24.1220202086
 11
10.8478598941
 21
24.0872384561
 12
10.67497932
 22
24.1106520362
 13
10.67497932
 23
24.1106520362
  0
SOLID
  5
2AC
100
AcDbEntity
  8
0
100
AcDbTrace
 62
2
  6
CONTINUOUS
 10
11.0851854246
 20
24.0872384561
 11
11.0674632365
 21
24.1220202086
 12
11.2580659987
 22
24.1106520362
 13
11.2580659987
 23
24.1106520362
  0
SOLID
  5
2AD
100
AcDbEntity
  8
0
100
AcDbTrace
 62
2
  6
CONTINUOUS
 10
10.6684660684
 20
24.0486825864
 11
10.67497932
 21
24.1106520362
 12
10.8478598941
 22
24.0872384561
 13
10.8478598941
 23
24.0872384561
  0
SOLID
  5
2AE
100
AcDbEntity
  8
0
100
AcDbTrace
 62
2
  6
CONTINUOUS
 10
10.8478598941
 20
24.0872384561
 11
10.8417532443
 21
24.0486825864
 12
10.6684660684
 22
24.0486825864
 13
10.6684660684
 23
24.0486825864
  0
SOLID
  5
2AF
100
AcDbEntity
  8
0
100
AcDbTrace
 62
2
  6
CONTINUOUS
 10
11.0851854246
 20
24.0872384561
 11
11.2580659987
 21
24.1106520362
 12
11.0912920744
 22
24.0486825864
 13
11.0912920744
 23
24.0486825864
  0
SOLID
  5
2B0
100
AcDbEntity
  8
0
100
AcDbTrace
 62
2
  6
CONTINUOUS
 10
11.2580659987
 20
24.1106520362
 11
11.2645792503
 21
24.0486825864
 12
11.0912920744
 22
24.0486825864
 13
11.0912920744
 23
24.0486825864
  0
SOLID
  5
2B1
100
AcDbEntity
  8
0
100
AcDbTrace
 62
2
  6
CONTINUOUS
 10
11.0851854246
 20
24.0101267168
 11
11.0912920744
 21
24.0486825864
 12
11.2645792503
 22
24.0486825864
 13
11.2645792503
 23
24.0486825864
  0
SOLID
  5
2B2
100
AcDbEntity
  8
0
100
AcDbTrace
 62
2
  6
CONTINUOUS
 10
10.8478598941
 20
24.0101267168
 11
10.67497932
 21
23.9867131366
 12
10.8417532443
 22
24.0486825864
 13
10.8417532443
 23
24.0486825864
  0
SOLID
  5
2B3
100
AcDbEntity
  8
0
100
AcDbTrace
 62
2
  6
CONTINUOUS
 10
10.67497932
 20
23.9867131366
 11
10.6684660684
 21
24.0486825864
 12
10.8417532443
 22
24.0486825864
 13
10.8417532443
 23
24.0486825864
  0
SOLID
  5
2B4
100
AcDbEntity
  8
0
100
AcDbTrace
 62
2
  6
CONTINUOUS
 10
11.2645792503
 20
24.0486825864
 11
11.2580659987
 21
23.9867131366
 12
11.0851854246
 22
24.0101267168
 13
11.0851854246
 23
24.0101267168
  0
SOLID
  5
2B5
100
AcDbEntity
  8
0
100
AcDbTrace
 62
2
  6
CONTINUOUS
 10
10.8478598941
 20
24.0101267168
 11
10.8655820822
 21
23.9753449643
 12
10.67497932
 22
23.9867131366
 13
10.67497932
 23
23.9867131366
  0
SOLID
  5
2B6
100
AcDbEntity
  8
0
100
AcDbTrace
 62
2
  6
CONTINUOUS
 10
11.0674632365
 20
23.9753449643
 11
11.0851854246
 21
24.0101267168
 12
11.2580659987
 22
23.9867131366
 13
11.2580659987
 23
23.9867131366
  0
SOLID
  5
2B7
100
AcDbEntity
  8
0
100
AcDbTrace
 62
2
  6
CONTINUOUS
 10
10.9279667897
 20
23.9300198212
 11
10.6942344145
 21
23.9274520492
 12
10.8931850372
 22
23.9477420093
 13
10.8931850372
 23
23.9477420093
  0
SOLID
  5
2B8
100
AcDbEntity
  8
0
100
AcDbTrace
 62
2
  6
CONTINUOUS
 10
10.8931850372
 20
23.9477420093
 11
10.6942344145
 21
23.9274520492
 12
10.8655820822
 22
23.9753449643
 13
10.8655820822
 23
23.9753449643
  0
SOLID
  5
2B9
100
AcDbEntity
  8
0
100
AcDbTrace
 62
2
  6
CONTINUOUS
 10
10.6942344145
 20
23.9274520492
 11
10.67497932
 21
23.9867131366
 12
10.8655820822
 22
23.9753449643
 13
10.8655820822
 23
23.9753449643
  0
SOLID
  5
2BA
100
AcDbEntity
  8
0
100
AcDbTrace
 62
2
  6
CONTINUOUS
 10
11.0674632365
 20
23.9753449643
 11
11.2580659987
 21
23.9867131366
 12
11.0398602815
 22
23.9477420093
 13
11.0398602815
 23
23.9477420093
  0
SOLID
  5
2BB
100
AcDbEntity
  8
0
100
AcDbTrace
 62
2
  6
CONTINUOUS
 10
11.0398602815
 20
23.9477420093
 11
11.2580659987
 21
23.9867131366
 12
11.005078529
 22
23.9300198212
 13
11.005078529
 23
23.9300198212
  0
SOLID
  5
2BC
100
AcDbEntity
  8
0
100
AcDbTrace
 62
2
  6
CONTINUOUS
 10
11.2580659987
 20
23.9867131366
 11
11.2388109042
 21
23.9274520492
 12
11.005078529
 22
23.9300198212
 13
11.005078529
 23
23.9300198212
  0
SOLID
  5
2BD
100
AcDbEntity
  8
0
100
AcDbTrace
 62
2
  6
CONTINUOUS
 10
10.9279667897
 20
23.9300198212
 11
10.9665226594
 21
23.9239131714
 12
10.6942344145
 22
23.9274520492
 13
10.6942344145
 23
23.9274520492
  0
SOLID
  5
2BE
100
AcDbEntity
  8
0
100
AcDbTrace
 62
2
  6
CONTINUOUS
 10
10.9665226594
 20
23.9239131714
 11
11.005078529
 21
23.9300198212
 12
11.2388109042
 22
23.9274520492
 13
11.2388109042
 23
23.9274520492
  0
SOLID
  5
2BF
100
AcDbEntity
  8
0
100
AcDbTrace
 62
2
  6
CONTINUOUS
 10
10.725389812
 20
23.8734893179
 11
10.6942344145
 21
23.9274520492
 12
10.9665226594
 22
23.9239131714
 13
10.9665226594
 23
23.9239131714
  0
SOLID
  5
2C0
100
AcDbEntity
  8
0
100
AcDbTrace
 62
2
  6
CONTINUOUS
 10
10.9665226594
 20
23.9239131714
 11
11.2388109042
 21
23.9274520492
 12
10.725389812
 22
23.8734893179
 13
10.725389812
 23
23.8734893179
  0
SOLID
  5
2C1
100
AcDbEntity
  8
0
100
AcDbTrace
 62
2
  6
CONTINUOUS
 10
11.2388109042
 20
23.9274520492
 11
11.2076555067
 21
23.8734893179
 12
10.725389812
 22
23.8734893179
 13
10.725389812
 23
23.8734893179
  0
SOLID
  5
2C2
100
AcDbEntity
  8
0
100
AcDbTrace
 62
2
  6
CONTINUOUS
 10
10.7670838719
 20
23.8271833731
 11
10.725389812
 21
23.8734893179
 12
11.2076555067
 22
23.8734893179
 13
11.2076555067
 23
23.8734893179
  0
SOLID
  5
2C3
100
AcDbEntity
  8
0
100
AcDbTrace
 62
2
  6
CONTINUOUS
 10
11.2076555067
 20
23.8734893179
 11
11.1659614468
 21
23.8271833731
 12
10.7670838719
 22
23.8271833731
 13
10.7670838719
 23
23.8271833731
  0
SOLID
  5
2C4
100
AcDbEntity
  8
0
100
AcDbTrace
 62
2
  6
CONTINUOUS
 10
10.8174943639
 20
23.7905580069
 11
10.7670838719
 21
23.8271833731
 12
11.1659614468
 22
23.8271833731
 13
11.1659614468
 23
23.8271833731
  0
SOLID
  5
2C5
100
AcDbEntity
  8
0
100
AcDbTrace
 62
2
  6
CONTINUOUS
 10
11.1659614468
 20
23.8271833731
 11
11.1155509548
 21
23.7905580069
 12
10.8174943639
 22
23.7905580069
 13
10.8174943639
 23
23.7905580069
  0
SOLID
  5
2C6
100
AcDbEntity
  8
0
100
AcDbTrace
 62
2
  6
CONTINUOUS
 10
10.8744181075
 20
23.7652139233
 11
10.8174943639
 21
23.7905580069
 12
11.1155509548
 22
23.7905580069
 13
11.1155509548
 23
23.7905580069
  0
SOLID
  5
2C7
100
AcDbEntity
  8
0
100
AcDbTrace
 62
2
  6
CONTINUOUS
 10
11.1155509548
 20
23.7905580069
 11
11.0586272113
 21
23.7652139233
 12
10.8744181075
 22
23.7652139233
 13
10.8744181075
 23
23.7652139233
  0
SOLID
  5
2C8
100
AcDbEntity
  8
0
100
AcDbTrace
 62
2
  6
CONTINUOUS
 10
10.9353672619
 20
23.7522587806
 11
10.8744181075
 21
23.7652139233
 12
11.0586272113
 22
23.7652139233
 13
11.0586272113
 23
23.7652139233
  0
SOLID
  5
2C9
100
AcDbEntity
  8
0
100
AcDbTrace
 62
2
  6
CONTINUOUS
 10
11.0586272113
 20
23.7652139233
 11
10.9976780568
 21
23.7522587806
 12
10.9353672619
 22
23.7522587806
 13
10.9353672619
 23
23.7522587806
  0
SOLID
  5
2CA
100
AcDbEntity
  8
0
100
AcDbTrace
 62
2
  6
CONTINUOUS
 10
11.5944249887
 20
24.1223769033
 11
11.5944249887
 21
24.342760663
 12
11.7591586686
 22
24.342760663
 13
11.7591586686
 23
24.342760663
  0
SOLID
  5
2CB
100
AcDbEntity
  8
0
100
AcDbTrace
 62
2
  6
CONTINUOUS
 10
11.5944249887
 20
24.1223769033
 11
11.4464281776
 21
23.9851716234
 12
11.4464281776
 22
24.1223769033
 13
11.4464281776
 23
24.1223769033
  0
SOLID
  5
2CC
100
AcDbEntity
  8
0
100
AcDbTrace
 62
2
  6
CONTINUOUS
 10
11.4464281776
 20
23.9851716234
 11
11.2816944977
 21
23.7568470136
 12
11.4464281776
 22
24.1223769033
 13
11.4464281776
 23
24.1223769033
  0
SOLID
  5
2CD
100
AcDbEntity
  8
0
100
AcDbTrace
 62
2
  6
CONTINUOUS
 10
11.4464281776
 20
24.1223769033
 11
11.2816944977
 21
23.7568470136
 12
11.4464281776
 22
24.342760663
 13
11.4464281776
 23
24.342760663
  0
SOLID
  5
2CE
100
AcDbEntity
  8
0
100
AcDbTrace
 62
2
  6
CONTINUOUS
 10
11.2816944977
 20
23.7568470136
 11
11.2816944977
 21
24.342760663
 12
11.4464281776
 22
24.342760663
 13
11.4464281776
 23
24.342760663
  0
SOLID
  5
2CF
100
AcDbEntity
  8
0
100
AcDbTrace
 62
2
  6
CONTINUOUS
 10
11.4464281776
 20
23.9851716234
 11
11.4464281776
 21
23.7568470136
 12
11.2816944977
 22
23.7568470136
 13
11.2816944977
 23
23.7568470136
  0
SOLID
  5
2D0
100
AcDbEntity
  8
0
100
AcDbTrace
 62
2
  6
CONTINUOUS
 10
11.4464281776
 20
23.9851716234
 11
11.5944249887
 21
24.1223769033
 12
11.5944249887
 22
23.9851716234
 13
11.5944249887
 23
23.9851716234
  0
SOLID
  5
2D1
100
AcDbEntity
  8
0
100
AcDbTrace
 62
2
  6
CONTINUOUS
 10
11.5944249887
 20
24.1223769033
 11
11.7591586686
 21
24.342760663
 12
11.5944249887
 22
23.9851716234
 13
11.5944249887
 23
23.9851716234
  0
SOLID
  5
2D2
100
AcDbEntity
  8
0
100
AcDbTrace
 62
2
  6
CONTINUOUS
 10
11.5944249887
 20
23.9851716234
 11
11.7591586686
 21
24.342760663
 12
11.5944249887
 22
23.7568470136
 13
11.5944249887
 23
23.7568470136
  0
SOLID
  5
2D3
100
AcDbEntity
  8
0
100
AcDbTrace
 62
2
  6
CONTINUOUS
 10
11.7591586686
 20
24.342760663
 11
11.7591586686
 21
23.7568470136
 12
11.5944249887
 22
23.7568470136
 13
11.5944249887
 23
23.7568470136
  0
SOLID
  5
2D4
100
AcDbEntity
  8
0
100
AcDbTrace
 62
2
  6
CONTINUOUS
 10
12.1169336455
 20
23.8980737708
 11
11.8042035128
 21
23.7568470136
 12
11.9542495755
 22
23.8980737708
 13
11.9542495755
 23
23.8980737708
  0
SOLID
  5
2D5
100
AcDbEntity
  8
0
100
AcDbTrace
 62
2
  6
CONTINUOUS
 10
11.9542495755
 20
23.8980737708
 11
11.8042035128
 21
23.7568470136
 12
11.9542495755
 22
24.342760663
 13
11.9542495755
 23
24.342760663
  0
SOLID
  5
2D6
100
AcDbEntity
  8
0
100
AcDbTrace
 62
2
  6
CONTINUOUS
 10
11.8042035128
 20
23.7568470136
 11
11.8042035128
 21
24.342760663
 12
11.9542495755
 22
24.342760663
 13
11.9542495755
 23
24.342760663
  0
SOLID
  5
2D7
100
AcDbEntity
  8
0
100
AcDbTrace
 62
2
  6
CONTINUOUS
 10
11.8042035128
 20
23.7568470136
 11
12.1169336455
 21
23.8980737708
 12
11.9542495755
 22
23.7568470136
 13
11.9542495755
 23
23.7568470136
  0
SOLID
  5
2D8
100
AcDbEntity
  8
0
100
AcDbTrace
 62
2
  6
CONTINUOUS
 10
12.1169336455
 20
23.8980737708
 11
12.1169336455
 21
23.7568470136
 12
11.9542495755
 22
23.7568470136
 13
11.9542495755
 23
23.7568470136
  0
SOLID
  5
2D9
100
AcDbEntity
  8
0
100
AcDbTrace
 62
2
  6
CONTINUOUS
 10
12.4551855595
 20
24.342760663
 11
12.4551855595
 21
24.2000012662
 12
12.3043280361
 22
24.2000012662
 13
12.3043280361
 23
24.2000012662
  0
SOLID
  5
2DA
100
AcDbEntity
  8
0
100
AcDbTrace
 62
2
  6
CONTINUOUS
 10
12.4551855595
 20
24.1223769033
 11
12.4551855595
 21
23.9779953018
 12
12.3043280361
 22
23.9779953018
 13
12.3043280361
 23
23.9779953018
  0
SOLID
  5
2DB
100
AcDbEntity
  8
0
100
AcDbTrace
 62
2
  6
CONTINUOUS
 10
12.4551855595
 20
23.8980737708
 11
12.1460813841
 21
23.7568470136
 12
12.3043280361
 22
23.8980737708
 13
12.3043280361
 23
23.8980737708
  0
SOLID
  5
2DC
100
AcDbEntity
  8
0
100
AcDbTrace
 62
2
  6
CONTINUOUS
 10
12.3043280361
 20
23.8980737708
 11
12.1460813841
 21
23.7568470136
 12
12.3043280361
 22
23.9779953018
 13
12.3043280361
 23
23.9779953018
  0
SOLID
  5
2DD
100
AcDbEntity
  8
0
100
AcDbTrace
 62
2
  6
CONTINUOUS
 10
12.4551855595
 20
24.1223769033
 11
12.3043280361
 21
23.9779953018
 12
12.3043280361
 22
24.1223769033
 13
12.3043280361
 23
24.1223769033
  0
SOLID
  5
2DE
100
AcDbEntity
  8
0
100
AcDbTrace
 62
2
  6
CONTINUOUS
 10
12.3043280361
 20
23.9779953018
 11
12.1460813841
 21
23.7568470136
 12
12.3043280361
 22
24.1223769033
 13
12.3043280361
 23
24.1223769033
  0
SOLID
  5
2DF
100
AcDbEntity
  8
0
100
AcDbTrace
 62
2
  6
CONTINUOUS
 10
12.3043280361
 20
24.1223769033
 11
12.1460813841
 21
23.7568470136
 12
12.3043280361
 22
24.2000012662
 13
12.3043280361
 23
24.2000012662
  0
SOLID
  5
2E0
100
AcDbEntity
  8
0
100
AcDbTrace
 62
2
  6
CONTINUOUS
 10
12.4551855595
 20
24.342760663
 11
12.3043280361
 21
24.2000012662
 12
12.3185323594
 22
24.342760663
 13
12.3185323594
 23
24.342760663
  0
SOLID
  5
2E1
100
AcDbEntity
  8
0
100
AcDbTrace
 62
2
  6
CONTINUOUS
 10
12.3043280361
 20
24.2000012662
 11
12.1460813841
 21
23.7568470136
 12
12.3185323594
 22
24.342760663
 13
12.3185323594
 23
24.342760663
  0
SOLID
  5
2E2
100
AcDbEntity
  8
0
100
AcDbTrace
 62
2
  6
CONTINUOUS
 10
12.1460813841
 20
23.7568470136
 11
12.1460813841
 21
24.342760663
 12
12.3185323594
 22
24.342760663
 13
12.3185323594
 23
24.342760663
  0
SOLID
  5
2E3
100
AcDbEntity
  8
0
100
AcDbTrace
 62
2
  6
CONTINUOUS
 10
12.4551855595
 20
23.8980737708
 11
12.4551855595
 21
23.7568470136
 12
12.1460813841
 22
23.7568470136
 13
12.1460813841
 23
23.7568470136
  0
SOLID
  5
2E4
100
AcDbEntity
  8
0
100
AcDbTrace
 62
2
  6
CONTINUOUS
 10
12.7335534748
 20
24.3427677686
 11
12.7804864984
 21
24.3363575201
 12
12.5000057742
 22
24.342760663
 13
12.5000057742
 23
24.342760663
  0
SOLID
  5
2E5
100
AcDbEntity
  8
0
100
AcDbTrace
 62
2
  6
CONTINUOUS
 10
12.6506615968
 20
24.2001818296
 11
12.9046013378
 21
24.2048111652
 12
12.7065914782
 22
24.2001818296
 13
12.7065914782
 23
24.2001818296
  0
SOLID
  5
2E6
100
AcDbEntity
  8
0
100
AcDbTrace
 62
2
  6
CONTINUOUS
 10
12.7065914782
 20
24.2001818296
 11
12.9046013378
 21
24.2048111652
 12
12.7303140598
 22
24.1946476613
 13
12.7303140598
 23
24.1946476613
  0
SOLID
  5
2E7
100
AcDbEntity
  8
0
100
AcDbTrace
 62
2
  6
CONTINUOUS
 10
12.7303140598
 20
24.1946476613
 11
12.9046013378
 21
24.2048111652
 12
12.7491390475
 22
24.1791877863
 13
12.7491390475
 23
24.1791877863
  0
SOLID
  5
2E8
100
AcDbEntity
  8
0
100
AcDbTrace
 62
2
  6
CONTINUOUS
 10
12.9046013378
 20
24.2048111652
 11
12.9082745843
 21
24.1575850363
 12
12.7491390475
 22
24.1791877863
 13
12.7491390475
 23
24.1791877863
  0
SOLID
  5
2E9
100
AcDbEntity
  8
0
100
AcDbTrace
 62
2
  6
CONTINUOUS
 10
12.759179986
 20
24.1569939256
 11
12.7491390475
 21
24.1791877863
 12
12.9082745843
 22
24.1575850363
 13
12.9082745843
 23
24.1575850363
  0
SOLID
  5
2EA
100
AcDbEntity
  8
0
100
AcDbTrace
 62
2
  6
CONTINUOUS
 10
12.759179986
 20
24.1569939256
 11
12.9082745843
 21
24.1575850363
 12
12.7583639043
 22
24.1326480449
 13
12.7583639043
 23
24.1326480449
  0
SOLID
  5
2EB
100
AcDbEntity
  8
0
100
AcDbTrace
 62
2
  6
CONTINUOUS
 10
12.7583639043
 20
24.1326480449
 11
12.9082745843
 21
24.1575850363
 12
12.746859284
 22
24.1111763983
 13
12.746859284
 23
24.1111763983
  0
SOLID
  5
2EC
100
AcDbEntity
  8
0
100
AcDbTrace
 62
2
  6
CONTINUOUS
 10
12.9082745843
 20
24.1575850363
 11
12.8991489806
 21
24.1111036063
 12
12.746859284
 22
24.1111763983
 13
12.746859284
 23
24.1111763983
  0
SOLID
  5
2ED
100
AcDbEntity
  8
0
100
AcDbTrace
 62
2
  6
CONTINUOUS
 10
12.7270412762
 20
24.0970118488
 11
12.746859284
 21
24.1111763983
 12
12.8991489806
 22
24.1111036063
 13
12.8991489806
 23
24.1111036063
  0
SOLID
  5
2EE
100
AcDbEntity
  8
0
100
AcDbTrace
 62
2
  6
CONTINUOUS
 10
12.7270412762
 20
24.0970118488
 11
12.8991489806
 21
24.1111036063
 12
12.7030013469
 22
24.0930786951
 13
12.7030013469
 23
24.0930786951
  0
SOLID
  5
2EF
100
AcDbEntity
  8
0
100
AcDbTrace
 62
2
  6
CONTINUOUS
 10
12.8991489806
 20
24.1111036063
 11
12.8778930049
 21
24.0687717804
 12
12.7030013469
 22
24.0930786951
 13
12.7030013469
 23
24.0930786951
  0
SOLID
  5
2F0
100
AcDbEntity
  8
0
100
AcDbTrace
 62
2
  6
CONTINUOUS
 10
12.8059927225
 20
24.0084295549
 11
12.6506615968
 21
23.9538033844
 12
12.8460637218
 22
24.0336904931
 13
12.8460637218
 23
24.0336904931
  0
SOLID
  5
2F1
100
AcDbEntity
  8
0
100
AcDbTrace
 62
2
  6
CONTINUOUS
 10
12.8460637218
 20
24.0336904931
 11
12.6506615968
 21
23.9538033844
 12
12.8778930049
 22
24.0687717804
 13
12.8778930049
 23
24.0687717804
  0
SOLID
  5
2F2
100
AcDbEntity
  8
0
100
AcDbTrace
 62
2
  6
CONTINUOUS
 10
12.8778930049
 20
24.0687717804
 11
12.6506615968
 21
23.9538033844
 12
12.7030013469
 22
24.0930786951
 13
12.7030013469
 23
24.0930786951
  0
SOLID
  5
2F3
100
AcDbEntity
  8
0
100
AcDbTrace
 62
2
  6
CONTINUOUS
 10
12.6506615968
 20
23.9538033844
 11
12.5000057742
 21
23.7568470136
 12
12.7030013469
 22
24.0930786951
 13
12.7030013469
 23
24.0930786951
  0
SOLID
  5
2F4
100
AcDbEntity
  8
0
100
AcDbTrace
 62
2
  6
CONTINUOUS
 10
12.7030013469
 20
24.0930786951
 11
12.5000057742
 21
23.7568470136
 12
12.6506615968
 22
24.0930786951
 13
12.6506615968
 23
24.0930786951
  0
SOLID
  5
2F5
100
AcDbEntity
  8
0
100
AcDbTrace
 62
2
  6
CONTINUOUS
 10
12.6506615968
 20
24.0930786951
 11
12.5000057742
 21
23.7568470136
 12
12.6506615968
 22
24.2001818296
 13
12.6506615968
 23
24.2001818296
  0
SOLID
  5
2F6
100
AcDbEntity
  8
0
100
AcDbTrace
 62
2
  6
CONTINUOUS
 10
12.9046013378
 20
24.2048111652
 11
12.6506615968
 21
24.2001818296
 12
12.8883983177
 22
24.2493225359
 13
12.8883983177
 23
24.2493225359
  0
SOLID
  5
2F7
100
AcDbEntity
  8
0
100
AcDbTrace
 62
2
  6
CONTINUOUS
 10
12.8883983177
 20
24.2493225359
 11
12.6506615968
 21
24.2001818296
 12
12.8608524442
 22
24.2878585558
 13
12.8608524442
 23
24.2878585558
  0
SOLID
  5
2F8
100
AcDbEntity
  8
0
100
AcDbTrace
 62
2
  6
CONTINUOUS
 10
12.8608524442
 20
24.2878585558
 11
12.6506615968
 21
24.2001818296
 12
12.8239815359
 22
24.3175963449
 13
12.8239815359
 23
24.3175963449
  0
SOLID
  5
2F9
100
AcDbEntity
  8
0
100
AcDbTrace
 62
2
  6
CONTINUOUS
 10
12.8239815359
 20
24.3175963449
 11
12.6506615968
 21
24.2001818296
 12
12.7804864984
 22
24.3363575201
 13
12.7804864984
 23
24.3363575201
  0
SOLID
  5
2FA
100
AcDbEntity
  8
0
100
AcDbTrace
 62
2
  6
CONTINUOUS
 10
12.7804864984
 20
24.3363575201
 11
12.6506615968
 21
24.2001818296
 12
12.5000057742
 22
24.342760663
 13
12.5000057742
 23
24.342760663
  0
SOLID
  5
2FB
100
AcDbEntity
  8
0
100
AcDbTrace
 62
2
  6
CONTINUOUS
 10
12.5000057742
 20
23.7568470136
 11
12.5000057742
 21
24.342760663
 12
12.6506615968
 22
24.2001818296
 13
12.6506615968
 23
24.2001818296
  0
SOLID
  5
2FC
100
AcDbEntity
  8
0
100
AcDbTrace
 62
2
  6
CONTINUOUS
 10
12.6506615968
 20
23.9538033844
 11
12.6506615968
 21
23.7568470136
 12
12.5000057742
 22
23.7568470136
 13
12.5000057742
 23
23.7568470136
  0
SOLID
  5
2FD
100
AcDbEntity
  8
0
100
AcDbTrace
 62
2
  6
CONTINUOUS
 10
12.6506615968
 20
23.9538033844
 11
12.8059927225
 21
24.0084295549
 12
12.7754850259
 22
23.7568470136
 13
12.7754850259
 23
23.7568470136
  0
SOLID
  5
2FE
100
AcDbEntity
  8
0
100
AcDbTrace
 62
2
  6
CONTINUOUS
 10
12.8059927225
 20
24.0084295549
 11
12.9654359655
 21
23.7568470136
 12
12.7754850259
 22
23.7568470136
 13
12.7754850259
 23
23.7568470136
  0
DIMENSION
  5
2FF
100
AcDbEntity
  8
0
100
AcDbDimension
 62
2
  6
CONTINUOUS
  2
*D0
 10
5.2590284842
 20
18.1242140964
 11
13.838025204
 21
18.0070265964
 70
160
 71
2
 72
2
 41
0.9
 42
32.5
  1
<>"\P[]
  3
DIMSTYLE_1
100
AcDbAlignedDimension
 13
37.7590284842
 23
8.3684003052
 14
5.2590284842
 24
8.3684003052
 50
180.0
100
AcDbRotatedDimension
  0
DIMENSION
  5
300
100
AcDbEntity
  8
0
100
AcDbDimension
 62
2
  6
CONTINUOUS
  2
*D1
 10
36.2840284842
 20
17.665331011
 11
24.7640484814
 21
17.548143511
 70
160
 71
2
 72
2
 41
0.9
 42
29.55
  1
<>"\P[]
  3
DIMSTYLE_1
100
AcDbAlignedDimension
 13
6.7340284842
 23
22.0884003052
 14
36.2840284842
 24
22.0884003052
100
AcDbRotatedDimension
  0
DIMENSION
  5
301
100
AcDbEntity
  8
0
100
AcDbDimension
 62
2
  6
CONTINUOUS
  2
*D2
 10
18.2599577819
 20
7.8684003052
 11
18.2599577819
 21
15.0175712469
 70
160
 71
2
 72
2
 41
0.9
 42
21.5
  1
<>"\P[]
  3
DIMSTYLE_1
100
AcDbAlignedDimension
 13
5.7590284842
 23
29.3684003052
 14
5.7590284842
 24
7.8684003052
 50
270.0
100
AcDbRotatedDimension
  0
DIMENSION
  5
302
100
AcDbEntity
  8
0
100
AcDbDimension
 62
2
  6
CONTINUOUS
  2
*D3
 10
19.6618662683
 20
9.3484003052
 11
19.6618662683
 21
13.2014625259
 70
160
 71
2
 72
2
 41
0.9
 42
15.74
  1
<>"\P[]
  3
DIMSTYLE_1
100
AcDbAlignedDimension
 13
9.7340284842
 23
25.0884003052
 14
9.7340284842
 24
9.3484003052
 50
270.0
100
AcDbRotatedDimension
  0
DIMENSION
  5
303
100
AcDbEntity
  8
0
100
AcDbDimension
 62
2
  6
CONTINUOUS
  2
*D4
 10
37.2590284842
 20
28.8684003052
 11
35.9730033159
 21
28.3778296612
 70
164
 71
3
 72
2
 41
0.9
 42
0.5
  1
4X R<>"\P[]
  3
DIMSTYLE_2
100
AcDbRadialDimension
 15
37.6291222359
 25
29.2046005655
  0
DIMENSION
  5
304
100
AcDbEntity
  8
0
100
AcDbDimension
 62
2
  6
CONTINUOUS
  2
*D5
 10
33.2840284842
 20
12.3484003052
 11
33.3413427444
 21
11.5520873031
 70
164
 71
3
 72
2
 41
0.9
 42
3.0
  1
4X R<>"\P[]
  3
DIMSTYLE_2
100
AcDbRadialDimension
 15
35.7089013993
 25
10.5820505816
  0
MTEXT
  5
305
100
AcDbEntity
  8
___NOTE
100
AcDbMText
 62
2
  6
CONTINUOUS
  7
STANDARD
 71
2
 72
1
 10
11.3494359953
 20
11.0869077685
 30
0.0
 11
1.0
 21
0.0
 31
0.0
 73
2
 44
0.9
  1
1476435-7-A\P \P \P \P \P \P \P \P \P1476435-7-A
 40
0.2
 41
1.76
  0
MTEXT
  5
306
100
AcDbEntity
  8
___NOTE
100
AcDbMText
 62
2
  6
CONTINUOUS
  7
STANDARD
 71
1
 72
1
 10
10.2565444375
 20
23.2726145936
 30
0.0
 11
1.0
 21
0.0
 31
0.0
 73
2
 44
0.9
  1
CUT-OUT TEMPLATE\PTOP-MOUNT / UNDER-MOUNT SINK\PPLANTILLA DE CORTE\PFREGADERO DE MONTAJE POR ARRIBA / DE MONTAJE POR ABAJO\PGABARIT DE DÉCOUPE\PÉVIER À MONTAGE EN SURFACE/À MONTAGE SOUS PLAN\P 
 40
0.15625
 41
6.75
  0
MTEXT
  5
307
100
AcDbEntity
  8
___NOTE
100
AcDbMText
 62
2
  6
CONTINUOUS
  7
STANDARD
 71
1
 72
1
 10
10.2501264026
 20
21.2995094614
 30
0.0
 11
1.0
 21
0.0
 31
0.0
 73
2
 44
0.9
  1
28197
 40
0.15625
 41
0.625
  0
LEADER
  5
308
100
AcDbEntity
  8
___NOTE
100
AcDbLeader
 62
2
  6
CONTINUOUS
  3
STANDARD
 71
1
 72
0
 73
0
 75
0
 40
0.15625
 41
1.375
 76
3
 10
5.0090284842
 20
11.8305594581
 30
0.0
 10
8.2297140351
 20
13.8399626666
 30
0.0
 10
8.4797140351
 20
13.8399626666
 30
0.0
340
309
1001
ACAD
1000
DSTYLE
1002
{
1070
77
1070
0
1002
}
  0
MTEXT
  5
309
102
{ACAD_REACTORS
330
308
102
}
100
AcDbEntity
  8
___NOTE
100
AcDbMText
 62
2
  6
CONTINUOUS
  7
STANDARD
 71
1
 72
1
 10
8.4797140351
 20
13.9180876666
 30
0.0
 11
1.0
 21
0.0
 31
0.0
 73
2
 44
0.9
  1
RIM OF SINK\PREBORD DE L'ÉVIER\PBORDE DEL FREGADERO
 40
0.15625
 41
2.375
  0
LEADER
  5
30A
100
AcDbEntity
  8
___NOTE
100
AcDbLeader
 62
2
  6
CONTINUOUS
  3
STANDARD
 71
1
 72
0
 73
0
 75
0
 40
0.15625
 41
3.5
 76
3
 10
36.2840284842
 20
13.2051227709
 30
0.0
 10
34.7433935202
 20
14.9197396274
 30
0.0
 10
34.4933935202
 20
14.9197396274
 30
0.0
340
30B
1001
ACAD
1000
DSTYLE
1002
{
1070
77
1070
0
1002
}
  0
MTEXT
  5
30B
102
{ACAD_REACTORS
330
30A
102
}
100
AcDbEntity
  8
___NOTE
100
AcDbMText
 62
2
  6
CONTINUOUS
  7
STANDARD
 71
3
 72
1
 10
34.4933935202
 20
14.9978646274
 30
0.0
 11
1.0
 21
0.0
 31
0.0
 73
2
 44
0.9
  1
FOR UNDER-MOUNT INSTALLATION\PCUT ALONG THIS LINE\PPARA INSTALACIÓN DE MONTAJE POR ABAJO\PCORTE A LO LARGO DE ESTA LÍNEA\PPOUR INSTALLATION À MONTAGE SOUS PLAN\PCOUPER LE LONG DE CETTE LIGNE\P 
 40
0.15625
 41
4.625
  0
LEADER
  5
30C
100
AcDbEntity
  8
___NOTE
100
AcDbLeader
 62
2
  6
CONTINUOUS
  3
STANDARD
 71
1
 72
0
 73
0
 75
0
 40
0.15625
 41
3.25
 76
3
 10
37.7590284842
 20
20.6979050716
 30
0.0
 10
34.6751608198
 20
21.7459132392
 30
0.0
 10
34.4251608198
 20
21.7459132392
 30
0.0
340
30D
1001
ACAD
1000
DSTYLE
1002
{
1070
77
1070
0
1002
}
  0
MTEXT
  5
30D
102
{ACAD_REACTORS
330
30C
102
}
100
AcDbEntity
  8
___NOTE
100
AcDbMText
 62
2
  6
CONTINUOUS
  7
STANDARD
 71
3
 72
1
 10
34.4251608198
 20
21.8240382392
 30
0.0
 11
1.0
 21
0.0
 31
0.0
 73
2
 44
0.9
  1
FOR TOP-MOUNT INSTALLATION\PCUT ALONG THIS LINE\PPARA INSTALACIONES DE MONTAJE POR ARRIBA\PCORTE A LO LARGO DE ESTA LÍNEA\PPOUR INSTALLATION À MONTAGE EN SURFACE\PCOUPER LE LONG DE CETTE LIGNE\P 
 40
0.15625
 41
5.0
  0
LEADER
  5
30E
100
AcDbEntity
  8
___NOTE
100
AcDbLeader
 62
2
  6
CONTINUOUS
  3
STANDARD
 71
1
 72
0
 73
0
 75
0
 40
0.15625
 41
2.0
 76
3
 10
22.1563746158
 20
26.8566548386
 30
0.0
 10
24.3383126616
 20
24.2496126376
 30
0.0
 10
24.5883126616
 20
24.2496126376
 30
0.0
340
30F
1001
ACAD
1000
DSTYLE
1002
{
1070
77
1070
0
1002
}
  0
MTEXT
  5
30F
102
{ACAD_REACTORS
330
30E
102
}
100
AcDbEntity
  8
___NOTE
100
AcDbMText
 62
2
  6
CONTINUOUS
  7
STANDARD
 71
1
 72
1
 10
24.5883126616
 20
24.3277376376
 30
0.0
 11
1.0
 21
0.0
 31
0.0
 73
2
 44
0.9
  3
1-7/16" DIAMETER\P(TO BE DRILLED IN COUNTERTOP FOR UNDERMOUNT INSTALLATION ONLY)\P3,7 cm DIAMÈTRE\P(À PERCER DANS LE COMPTOIR POUR INSTALLATION PAR DESSOUS SEULEMENT)\P3,7 cm DIÁMETRO\P(A TALADRAR EN LA CUBIERTA PARA INSTALACIÓN BAJO CUBIERTA SOLAMEN
  1
TE)
 40
0.15625
 41
8.5
  0
INSERT
  5
310
100
AcDbEntity
  8
___SYMBOL
100
AcDbBlockReference
 62
2
  6
CONTINUOUS
  2
PLOTTING_TEMPLATE_NOTE_BL0
 10
26.5070006725
 20
11.3817216132
  0
INSERT
  5
311
100
AcDbEntity
  8
___SYMBOL
100
AcDbBlockReference
 62
2
  6
CONTINUOUS
  2
COPYRIGHT_YEAR_BL1
 10
31.6822490439
 20
9.9372972715
  0
INSERT
  5
312
100
AcDbEntity
  8
___SYMBOL
100
AcDbBlockReference
 62
2
  6
CONTINUOUS
  2
SCISSORS_BL2
 10
37.7778068432
 20
19.5139369218
  0
INSERT
  5
313
100
AcDbEntity
  8
___SYMBOL
100
AcDbBlockReference
 62
2
  6
CONTINUOUS
  2
SCISSORS_BL3
 10
36.2887764867
 20
15.644904534
  0
LINE
  5
314
100
AcDbEntity
  8
0
100
AcDbLine
 62
2
  6
CONTINUOUS
 10
10.5577476278
 20
24.342760663
 11
10.4172245298
 21
23.939053546
  0
LINE
  5
315
100
AcDbEntity
  8
0
100
AcDbLine
 62
2
  6
CONTINUOUS
 10
10.7498094399
 20
24.342760663
 11
10.536505988
 21
24.08911239
  0
LINE
  5
316
100
AcDbEntity
  8
0
100
AcDbLine
 62
2
  6
CONTINUOUS
 10
10.2454832341
 20
24.342760663
 11
10.2454832341
 21
23.7568230101
  0
LINE
  5
317
100
AcDbEntity
  8
0
100
AcDbLine
 62
2
  6
CONTINUOUS
 10
10.4199834611
 20
24.342760663
 11
10.4199834611
 21
24.1789394733
  0
LINE
  5
318
100
AcDbEntity
  8
0
100
AcDbLine
 62
2
  6
CONTINUOUS
 10
10.4199834611
 20
23.9583468476
 11
10.4199834611
 21
23.7568470136
  0
LINE
  5
319
100
AcDbEntity
  8
0
100
AcDbLine
 62
2
  6
CONTINUOUS
 10
11.2816944977
 20
24.342760663
 11
11.2816944977
 21
23.7568470136
  0
LINE
  5
31A
100
AcDbEntity
  8
0
100
AcDbLine
 62
2
  6
CONTINUOUS
 10
11.4464281776
 20
24.342760663
 11
11.4464281776
 21
24.1223769033
  0
LINE
  5
31B
100
AcDbEntity
  8
0
100
AcDbLine
 62
2
  6
CONTINUOUS
 10
11.4464281776
 20
23.9851716234
 11
11.4464281776
 21
23.7568470136
  0
LINE
  5
31C
100
AcDbEntity
  8
0
100
AcDbLine
 62
2
  6
CONTINUOUS
 10
11.5944249887
 20
24.342760663
 11
11.5944249887
 21
24.1223769033
  0
LINE
  5
31D
100
AcDbEntity
  8
0
100
AcDbLine
 62
2
  6
CONTINUOUS
 10
11.5944249887
 20
23.9851716234
 11
11.5944249887
 21
23.7568470136
  0
LINE
  5
31E
100
AcDbEntity
  8
0
100
AcDbLine
 62
2
  6
CONTINUOUS
 10
11.7591586686
 20
24.342760663
 11
11.7591586686
 21
23.7568470136
  0
LINE
  5
31F
100
AcDbEntity
  8
0
100
AcDbLine
 62
2
  6
CONTINUOUS
 10
11.8042035128
 20
23.7568470136
 11
11.8042035128
 21
24.342760663
  0
LINE
  5
320
100
AcDbEntity
  8
0
100
AcDbLine
 62
2
  6
CONTINUOUS
 10
11.9542495755
 20
24.342760663
 11
11.9542495755
 21
23.8980737708
  0
LINE
  5
321
100
AcDbEntity
  8
0
100
AcDbLine
 62
2
  6
CONTINUOUS
 10
12.1169336455
 20
23.8980737708
 11
12.1169336455
 21
23.7568470136
  0
LINE
  5
322
100
AcDbEntity
  8
0
100
AcDbLine
 62
2
  6
CONTINUOUS
 10
12.1460813841
 20
23.7568470136
 11
12.1460813841
 21
24.342760663
  0
LINE
  5
323
100
AcDbEntity
  8
0
100
AcDbLine
 62
2
  6
CONTINUOUS
 10
12.3043280361
 20
24.2000012662
 11
12.3043280361
 21
24.1223769033
  0
LINE
  5
324
100
AcDbEntity
  8
0
100
AcDbLine
 62
2
  6
CONTINUOUS
 10
12.3043280361
 20
23.9779953018
 11
12.3043280361
 21
23.8980737708
  0
LINE
  5
325
100
AcDbEntity
  8
0
100
AcDbLine
 62
2
  6
CONTINUOUS
 10
12.4551855595
 20
23.7568470136
 11
12.4551855595
 21
23.8980737708
  0
LINE
  5
326
100
AcDbEntity
  8
0
100
AcDbLine
 62
2
  6
CONTINUOUS
 10
12.4551855595
 20
23.9779953018
 11
12.4551855595
 21
24.1223769033
  0
LINE
  5
327
100
AcDbEntity
  8
0
100
AcDbLine
 62
2
  6
CONTINUOUS
 10
12.4551855595
 20
24.2000012662
 11
12.4551855595
 21
24.342760663
  0
LINE
  5
328
100
AcDbEntity
  8
0
100
AcDbLine
 62
2
  6
CONTINUOUS
 10
12.5000057742
 20
23.7568470136
 11
12.5000057742
 21
24.342760663
  0
LINE
  5
329
100
AcDbEntity
  8
0
100
AcDbLine
 62
2
  6
CONTINUOUS
 10
12.6506615968
 20
24.2001818296
 11
12.6506615968
 21
24.0930786951
  0
LINE
  5
32A
100
AcDbEntity
  8
0
100
AcDbLine
 62
2
  6
CONTINUOUS
 10
12.6506615968
 20
23.9538033844
 11
12.6506615968
 21
23.7568470136
  0
LINE
  5
32B
100
AcDbEntity
  8
0
100
AcDbLine
 62
2
  6
CONTINUOUS
 10
13.0903199407
 20
23.7240063228
 11
13.0903199407
 21
23.7899725217
  0
LINE
  5
32C
100
AcDbEntity
  8
0
100
AcDbLine
 62
2
  6
CONTINUOUS
 10
10.5737214012
 20
23.7568470136
 11
10.4199834611
 21
23.9583468476
  0
LINE
  5
32D
100
AcDbEntity
  8
0
100
AcDbLine
 62
2
  6
CONTINUOUS
 10
10.7900138227
 20
23.7568470136
 11
10.536505988
 21
24.08911239
  0
LINE
  5
32E
100
AcDbEntity
  8
0
100
AcDbLine
 62
2
  6
CONTINUOUS
 10
12.7754850259
 20
23.7568470136
 11
12.6506615968
 21
23.9538033844
  0
LINE
  5
32F
100
AcDbEntity
  8
0
100
AcDbLine
 62
2
  6
CONTINUOUS
 10
12.9654359655
 20
23.7568470136
 11
12.8059927225
 21
24.0084295549
  0
LINE
  5
330
100
AcDbEntity
  8
0
100
AcDbLine
 62
2
  6
CONTINUOUS
 10
13.1019179169
 20
23.7563092642
 11
13.1337859296
 21
23.7240063228
  0
LINE
  5
331
100
AcDbEntity
  8
0
100
AcDbLine
 62
2
  6
CONTINUOUS
 10
10.4143978093
 20
23.7574343233
 11
10.2454832341
 21
23.7568230101
  0
LINE
  5
332
100
AcDbEntity
  8
0
100
AcDbLine
 62
2
  6
CONTINUOUS
 10
13.1145992736
 20
23.7563092642
 11
13.0903199407
 21
23.7563092642
  0
LINE
  5
333
100
AcDbEntity
  8
0
100
AcDbLine
 62
2
  6
CONTINUOUS
 10
11.7591586686
 20
23.7568470136
 11
11.5944249887
 21
23.7568470136
  0
LINE
  5
334
100
AcDbEntity
  8
0
100
AcDbLine
 62
2
  6
CONTINUOUS
 10
11.4464281776
 20
23.7568470136
 11
11.2816944977
 21
23.7568470136
  0
LINE
  5
335
100
AcDbEntity
  8
0
100
AcDbLine
 62
2
  6
CONTINUOUS
 10
10.5737214012
 20
23.7568470136
 11
10.7900138227
 21
23.7568470136
  0
LINE
  5
336
100
AcDbEntity
  8
0
100
AcDbLine
 62
2
  6
CONTINUOUS
 10
11.8042035128
 20
23.7568470136
 11
12.1169336455
 21
23.7568470136
  0
LINE
  5
337
100
AcDbEntity
  8
0
100
AcDbLine
 62
2
  6
CONTINUOUS
 10
12.1460813841
 20
23.7568470136
 11
12.4551855595
 21
23.7568470136
  0
LINE
  5
338
100
AcDbEntity
  8
0
100
AcDbLine
 62
2
  6
CONTINUOUS
 10
12.5000057742
 20
23.7568470136
 11
12.6506615968
 21
23.7568470136
  0
LINE
  5
339
100
AcDbEntity
  8
0
100
AcDbLine
 62
2
  6
CONTINUOUS
 10
12.7754850259
 20
23.7568470136
 11
12.9654359655
 21
23.7568470136
  0
LINE
  5
33A
100
AcDbEntity
  8
0
100
AcDbLine
 62
2
  6
CONTINUOUS
 10
13.0903199407
 20
23.7899725217
 11
13.1145992736
 21
23.7899725217
  0
LINE
  5
33B
100
AcDbEntity
  8
0
100
AcDbLine
 62
2
  6
CONTINUOUS
 10
11.9542495755
 20
23.8980737708
 11
12.1169336455
 21
23.8980737708
  0
LINE
  5
33C
100
AcDbEntity
  8
0
100
AcDbLine
 62
2
  6
CONTINUOUS
 10
12.3043280361
 20
23.8980737708
 11
12.4551855595
 21
23.8980737708
  0
LINE
  5
33D
100
AcDbEntity
  8
0
100
AcDbLine
 62
2
  6
CONTINUOUS
 10
12.3043280361
 20
23.9779953018
 11
12.4551855595
 21
23.9779953018
  0
LINE
  5
33E
100
AcDbEntity
  8
0
100
AcDbLine
 62
2
  6
CONTINUOUS
 10
11.4464281776
 20
23.9851716234
 11
11.5944249887
 21
23.9851716234
  0
LINE
  5
33F
100
AcDbEntity
  8
0
100
AcDbLine
 62
2
  6
CONTINUOUS
 10
12.6506615968
 20
24.0930786951
 11
12.7030013469
 21
24.0930786951
  0
LINE
  5
340
100
AcDbEntity
  8
0
100
AcDbLine
 62
2
  6
CONTINUOUS
 10
11.4464281776
 20
24.1223769033
 11
11.5944249887
 21
24.1223769033
  0
LINE
  5
341
100
AcDbEntity
  8
0
100
AcDbLine
 62
2
  6
CONTINUOUS
 10
12.3043280361
 20
24.2000012662
 11
12.4551855595
 21
24.2000012662
  0
LINE
  5
342
100
AcDbEntity
  8
0
100
AcDbLine
 62
2
  6
CONTINUOUS
 10
12.7065914782
 20
24.2001818296
 11
12.6506615968
 21
24.2001818296
  0
LINE
  5
343
100
AcDbEntity
  8
0
100
AcDbLine
 62
2
  6
CONTINUOUS
 10
10.2454832341
 20
24.342760663
 11
10.4199834611
 21
24.342760663
  0
LINE
  5
344
100
AcDbEntity
  8
0
100
AcDbLine
 62
2
  6
CONTINUOUS
 10
10.5577476278
 20
24.342760663
 11
10.7498094399
 21
24.342760663
  0
LINE
  5
345
100
AcDbEntity
  8
0
100
AcDbLine
 62
2
  6
CONTINUOUS
 10
11.2816944977
 20
24.342760663
 11
11.4464281776
 21
24.342760663
  0
LINE
  5
346
100
AcDbEntity
  8
0
100
AcDbLine
 62
2
  6
CONTINUOUS
 10
11.5944249887
 20
24.342760663
 11
11.7591586686
 21
24.342760663
  0
LINE
  5
347
100
AcDbEntity
  8
0
100
AcDbLine
 62
2
  6
CONTINUOUS
 10
11.8042035128
 20
24.342760663
 11
11.9542495755
 21
24.342760663
  0
LINE
  5
348
100
AcDbEntity
  8
0
100
AcDbLine
 62
2
  6
CONTINUOUS
 10
12.1460813841
 20
24.342760663
 11
12.4551855595
 21
24.342760663
  0
LINE
  5
349
100
AcDbEntity
  8
0
100
AcDbLine
 62
2
  6
CONTINUOUS
 10
12.5000057742
 20
24.342760663
 11
12.7335534748
 21
24.342760663
  0
LINE
  5
34A
100
AcDbEntity
  8
0
100
AcDbLine
 62
2
  6
CONTINUOUS
 10
12.2501113908
 20
24.1287194531
 11
12.4551855595
 21
24.1223769033
  0
LINE
  5
34B
100
AcDbEntity
  8
_CURVE
100
AcDbLine
 62
8
  6
DASHED
 10
5.0090284842
 20
29.1184003052
 11
5.0090284842
 21
8.1184003052
  0
LINE
  5
34C
100
AcDbEntity
  8
_CURVE
100
AcDbLine
 62
7
  6
CONTINUOUS
 10
5.2590284842
 20
28.8684003052
 11
5.2590284842
 21
8.3684003052
  0
LINE
  5
34D
100
AcDbEntity
  8
_CURVE
100
AcDbLine
 62
7
  6
CONTINUOUS
 10
6.7340284842
 20
22.0884003052
 11
6.7340284842
 21
12.3484003052
  0
LINE
  5
34E
100
AcDbEntity
  8
_CURVE
100
AcDbLine
 62
8
  6
DASHED
 10
5.5090284842
 20
7.6184003052
 11
37.5090284842
 21
7.6184003052
  0
LINE
  5
34F
100
AcDbEntity
  8
_CURVE
100
AcDbLine
 62
7
  6
CONTINUOUS
 10
5.7590284842
 20
7.8684003052
 11
37.2590284842
 21
7.8684003052
  0
LINE
  5
350
100
AcDbEntity
  8
_CURVE
100
AcDbLine
 62
7
  6
CONTINUOUS
 10
9.7340284842
 20
9.3484003052
 11
33.2840284842
 21
9.3484003052
  0
LINE
  5
351
100
AcDbEntity
  8
_CURVE
100
AcDbLine
 62
2
  6
CENTER
 10
2.5090284842
 20
17.2184003052
 11
7.5090284842
 21
17.2184003052
  0
LINE
  5
352
100
AcDbEntity
  8
_CURVE
100
AcDbLine
 62
2
  6
CENTER
 10
35.5090284842
 20
17.2184003052
 11
40.5090284842
 21
17.2184003052
  0
LINE
  5
353
100
AcDbEntity
  8
_CURVE
100
AcDbLine
 62
2
  6
CENTER
 10
21.5090284842
 20
5.2184003052
 11
21.5090284842
 21
10.2184003052
  0
LINE
  5
354
100
AcDbEntity
  8
_CURVE
100
AcDbLine
 62
7
  6
CENTER
 10
21.5090284842
 20
25.7934003052
 11
21.5090284842
 21
27.2184003052
  0
LINE
  5
355
100
AcDbEntity
  8
_CURVE
100
AcDbLine
 62
2
  6
CENTER
 10
21.5090284842
 20
27.2184003052
 11
21.5090284842
 21
32.2184003052
  0
LINE
  5
356
100
AcDbEntity
  8
_CURVE
100
AcDbLine
 62
7
  6
CONTINUOUS
 10
33.2840284842
 20
25.0884003052
 11
9.7340284842
 21
25.0884003052
  0
LINE
  5
357
100
AcDbEntity
  8
_CURVE
100
AcDbLine
 62
7
  6
CENTER
 10
20.2590284842
 20
27.1684003052
 11
23.0090284842
 21
27.1684003052
  0
LINE
  5
358
100
AcDbEntity
  8
_CURVE
100
AcDbLine
 62
7
  6
CONTINUOUS
 10
37.2590284842
 20
29.3684003052
 11
5.7590284842
 21
29.3684003052
  0
LINE
  5
359
100
AcDbEntity
  8
_CURVE
100
AcDbLine
 62
8
  6
DASHED
 10
37.5090284842
 20
29.6184003052
 11
5.5090284842
 21
29.6184003052
  0
LINE
  5
35A
100
AcDbEntity
  8
_CURVE
100
AcDbLine
 62
7
  6
CONTINUOUS
 10
36.2840284842
 20
12.3484003052
 11
36.2840284842
 21
22.0884003052
  0
LINE
  5
35B
100
AcDbEntity
  8
_CURVE
100
AcDbLine
 62
7
  6
CONTINUOUS
 10
37.7590284842
 20
8.3684003052
 11
37.7590284842
 21
28.8684003052
  0
LINE
  5
35C
100
AcDbEntity
  8
_CURVE
100
AcDbLine
 62
8
  6
DASHED
 10
38.0090284842
 20
8.1184003052
 11
38.0090284842
 21
29.1184003052
  0
CIRCLE
  5
35D
100
AcDbEntity
  8
0
100
AcDbCircle
 62
2
  6
CONTINUOUS
 10
10.9665226594
 20
24.0486825864
 40
0.298056591
  0
ARC
  5
35E
100
AcDbEntity
  8
0
100
AcDbCircle
 62
2
  6
CONTINUOUS
 10
12.7335534748
 20
24.1677511523
 40
0.1750166163
100
AcDbArc
 50
294.4500166359
 51
90.0
  0
CIRCLE
  5
35F
100
AcDbEntity
  8
0
100
AcDbCircle
 62
2
  6
CONTINUOUS
 10
10.9665226594
 20
24.0486825864
 40
0.1247694151
  0
CIRCLE
  5
360
100
AcDbEntity
  8
0
100
AcDbCircle
 62
2
  6
CONTINUOUS
 10
13.1062059401
 20
23.7568470136
 40
0.0653578721
  0
ARC
  5
361
100
AcDbEntity
  8
0
100
AcDbCircle
 62
2
  6
CONTINUOUS
 10
12.7065913763
 20
24.1465700946
 40
0.053611735
100
AcDbArc
 50
266.1604009902
 51
89.9998910512
  0
ARC
  5
362
100
AcDbEntity
  8
0
100
AcDbCircle
 62
2
  6
CONTINUOUS
 10
13.1145992736
 20
23.7731410721
 40
0.0168314496
100
AcDbArc
 50
270.0
 51
90.0
  0
ARC
  5
363
100
AcDbEntity
  8
_CURVE
100
AcDbCircle
 62
7
  6
CONTINUOUS
 10
9.7340284842
 20
12.3484003052
 40
3.0
100
AcDbArc
 50
180.0
 51
270.0
  0
ARC
  5
364
100
AcDbEntity
  8
_CURVE
100
AcDbCircle
 62
7
  6
CONTINUOUS
 10
33.2840284842
 20
12.3484003052
 40
3.0
100
AcDbArc
 50
270.0
 51
360.0
  0
ARC
  5
365
100
AcDbEntity
  8
_CURVE
100
AcDbCircle
 62
7
  6
CONTINUOUS
 10
33.2840284842
 20
22.0884003052
 40
3.0
100
AcDbArc
 50
0.0
 51
90.0
  0
ARC
  5
366
100
AcDbEntity
  8
_CURVE
100
AcDbCircle
 62
7
  6
CONTINUOUS
 10
9.7340284842
 20
22.0884003052
 40
3.0
100
AcDbArc
 50
90.0
 51
180.0
  0
CIRCLE
  5
367
100
AcDbEntity
  8
_CURVE
100
AcDbCircle
 62
7
  6
CONTINUOUS
 10
21.5090284842
 20
27.1684003052
 40
0.7185
  0
ARC
  5
368
100
AcDbEntity
  8
_CURVE
100
AcDbCircle
 62
8
  6
DASHED
 10
5.5090284842
 20
29.1184003052
 40
0.5
100
AcDbArc
 50
90.0
 51
180.0
  0
ARC
  5
369
100
AcDbEntity
  8
_CURVE
100
AcDbCircle
 62
8
  6
DASHED
 10
5.5090284842
 20
8.1184003052
 40
0.5
100
AcDbArc
 50
180.0
 51
270.0
  0
ARC
  5
36A
100
AcDbEntity
  8
_CURVE
100
AcDbCircle
 62
8
  6
DASHED
 10
37.5090284842
 20
8.1184003052
 40
0.5
100
AcDbArc
 50
270.0
 51
360.0
  0
ARC
  5
36B
100
AcDbEntity
  8
_CURVE
100
AcDbCircle
 62
8
  6
DASHED
 10
37.5090284842
 20
29.1184003052
 40
0.5
100
AcDbArc
 50
0.0
 51
90.0
  0
ARC
  5
36C
100
AcDbEntity
  8
_CURVE
100
AcDbCircle
 62
7
  6
CONTINUOUS
 10
5.7590284842
 20
28.8684003052
 40
0.5
100
AcDbArc
 50
90.0
 51
180.0
  0
ARC
  5
36D
100
AcDbEntity
  8
_CURVE
100
AcDbCircle
 62
7
  6
CONTINUOUS
 10
5.7590284842
 20
8.3684003052
 40
0.5
100
AcDbArc
 50
180.0
 51
270.0
  0
ARC
  5
36E
100
AcDbEntity
  8
_CURVE
100
AcDbCircle
 62
7
  6
CONTINUOUS
 10
37.2590284842
 20
8.3684003052
 40
0.5
100
AcDbArc
 50
270.0
 51
360.0
  0
ARC
  5
36F
100
AcDbEntity
  8
_CURVE
100
AcDbCircle
 62
7
  6
CONTINUOUS
 10
37.2590284842
 20
28.8684003052
 40
0.5
100
AcDbArc
 50
0.0
 51
90.0
  0
ENDSEC
  0
SECTION
  2
OBJECTS
  0
DICTIONARY
  5
C
100
AcDbDictionary
280
0
281
1
  3
ACAD_GROUP
350
D
  3
ACAD_MLINESTYLE
350
17
  3
ACAD_LAYOUT
350
1A
  3
ACAD_PLOTSETTINGS
350
19
  3
ACAD_PLOTSTYLENAME
350
E
  0
DICTIONARY
  5
D
102
{ACAD_REACTORS
330
C
102
}
100
AcDbDictionary
280
0
281
1
  0
ACDBDICTIONARYWDFLT
  5
E
102
{ACAD_REACTORS
330
C
102
}
100
AcDbDictionary
281
1
  3
Normal
350
F
100
AcDbDictionaryWithDefault
340
F
  0
DICTIONARY
  5
17
102
{ACAD_REACTORS
330
C
102
}
100
AcDbDictionary
280
0
281
1
  3
Standard
350
18
  0
DICTIONARY
  5
19
102
{ACAD_REACTORS
330
C
102
}
100
AcDbDictionary
281
1
  0
DICTIONARY
  5
1A
102
{ACAD_REACTORS
330
C
102
}
100
AcDbDictionary
281
1
  3
Model
350
370
  3
Layout1
350
371
  0
ACDBPLACEHOLDER
  5
F
102
{ACAD_REACTORS
330
E
102
}
  0
MLINESTYLE
  5
18
102
{ACAD_REACTORS
330
17
102
}
100
AcDbMlineStyle
  2
STANDARD
 70
0
  3

 62
256
 51
90.0
 52
90.0
 71
2
 49
0.5
 62
256
  6
BYLAYER
 49
-0.5
 62
256
  6
BYLAYER
  0
LAYOUT
  5
370
102
{ACAD_REACTORS
330
1A
102
}
100
AcDbPlotSettings
  1

  2
none_device
  4
ANSI_E_(44.00_x_34.00_Inches)
  6

 40
0.0
 41
0.0
 42
0.0
 43
0.0
 44
1117.6
 45
863.6
 46
0.0
 47
0.0
 48
0.0
 49
0.0
140
0.0
141
0.0
142
1.0
143
1.0
 70
1024
 72
0
 73
0
 74
0
  7

 75
0
147
1.0
148
0.0
149
0.0
100
AcDbLayout
  1
Model
 70
0
 71
0
 10
0.0
 20
0.0
 11
44.0
 21
34.0
 12
0.0
 22
0.0
 32
0.0
 14
0.0
 24
0.0
 34
0.0
 15
0.0
 25
0.0
 35
0.0
146
0.0
 13
0.0
 23
0.0
 33
0.0
 16
1.0
 26
0.0
 36
0.0
 17
0.0
 27
1.0
 37
0.0
 76
0
330
20B
345
0
346
0
  0
LAYOUT
  5
371
102
{ACAD_REACTORS
330
1A
102
}
100
AcDbPlotSettings
  1

  2
none_device
  4
ANSI_E_(44.00_x_34.00_Inches)
  6

 40
0.0
 41
0.0
 42
0.0
 43
0.0
 44
1117.6
 45
863.6
 46
0.0
 47
0.0
 48
0.0
 49
0.0
140
0.0
141
0.0
142
1.0
143
1.0
 70
0
 72
0
 73
0
 74
0
  7

 75
0
147
1.0
148
0.0
149
0.0
100
AcDbLayout
  1
Layout1
 70
0
 71
1
 10
0.0
 20
0.0
 11
44.0
 21
34.0
 12
0.0
 22
0.0
 32
0.0
 14
0.0
 24
0.0
 34
0.0
 15
0.0
 25
0.0
 35
0.0
146
0.0
 13
0.0
 23
0.0
 33
0.0
 16
1.0
 26
0.0
 36
0.0
 17
0.0
 27
1.0
 37
0.0
 76
0
330
20C
345
0
346
0
  0
ENDSEC
  0
EOF
