999
DXF file: 1357118-7.dxf
999
Pro/ENGINEER 2016130 by Parametric Technology Corporation
  0
SECTION
  2
HEADER
  9
$ACADVER
  1
AC1014
  9
$DWGCODEPAGE
  3
ANSI_1252
  9
$EXTMAX
 10
44.0
 20
34.0
 30
0.0
  9
$EXTMIN
 10
0.0
 20
0.0
 30
0.0
  9
$LIMMIN
 10
0.0
 20
0.0
  9
$LIMMAX
 10
44.0
 20
34.0
  9
$VIEWCTR
 10
22.0
 20
17.0
  9
$VIEWSIZE
 40
34.0
  9
$CLAYER
  8
0
  9
$LTSCALE
 40
2.42
  9
$CELTYPE
  6
BYLAYER
  9
$DIMSCALE
 40
1.0
  9
$DIMASZ
 40
0.1875
  9
$DIMEXO
 40
0.0625
  9
$DIMDLI
 40
1.672
  9
$DIMEXE
 40
0.125
  9
$DIMCEN
 40
0.396
  9
$DIMLFAC
 40
1.0
  9
$DIMBLK
  1
_ARROW_FILLED
  9
$DIMALT
 70
0
  9
$DIMALTF
 40
25.4
  9
$DIMTXT
 40
0.15625
  9
$DIMTOL
 70
1
  9
$DIMLIM
 70
0
  9
$DIMTFAC
 40
1.0
  9
$DIMTP
 40
0.01
  9
$DIMTM
 40
0.01
  9
$DIMGAP
 40
0.09
  9
$AUNITS
 70
0
  9
$PDMODE
 70
3
  9
$PDSIZE
 40
0.3125
  9
$HANDSEED
  5
345
  9
$TILEMODE
 70
1
  9
$MEASUREMENT
 70
0
  0
ENDSEC
  0
SECTION
  2
CLASSES
  0
ENDSEC
  0
SECTION
  2
TABLES
  0
TABLE
  2
VPORT
  5
8
100
AcDbSymbolTable
 70
2
  0
VPORT
  5
1F4
100
AcDbSymbolTableRecord
100
AcDbViewportTableRecord
  2
*ACTIVE
 70
0
 10
0.0
 20
0.0
 11
1.0
 21
1.0
 12
22.0
 22
17.0
 13
0.0
 23
0.0
 14
1.0
 24
1.0
 15
0.0
 25
0.0
 16
0.0
 26
0.0
 36
1.0
 17
0.0
 27
0.0
 37
0.0
 40
34.0
 41
1.2941176471
 42
50.0
 43
0.0
 44
0.0
 50
0.0
 51
0.0
 71
0
 72
100
 73
1
 74
1
 75
0
 76
0
 77
0
 78
0
  0
ENDTAB
  0
TABLE
  2
LTYPE
  5
5
100
AcDbSymbolTable
 70
6
  0
LTYPE
  5
14
100
AcDbSymbolTableRecord
100
AcDbLinetypeTableRecord
  2
BYBLOCK
 70
0
  3

 72
65
 73
0
 40
0.0
  0
LTYPE
  5
15
100
AcDbSymbolTableRecord
100
AcDbLinetypeTableRecord
  2
BYLAYER
 70
0
  3

 72
65
 73
0
 40
0.0
  0
LTYPE
  5
16
100
AcDbSymbolTableRecord
100
AcDbLinetypeTableRecord
  2
CONTINUOUS
 70
64
  3
Solid line
 72
65
 73
0
 40
0.0
  0
LTYPE
  5
1F5
100
AcDbSymbolTableRecord
100
AcDbLinetypeTableRecord
  2
CENTER
 70
64
  3
____ _ ____ _ ____ _ ____ _ ____ _ ____ _ ____
 72
65
 73
4
 40
0.6
 49
0.375
 74
0
 49
-0.075
 74
0
 49
0.075
 74
0
 49
-0.075
 74
0
  0
LTYPE
  5
1F6
100
AcDbSymbolTableRecord
100
AcDbLinetypeTableRecord
  2
HIDDEN
 70
64
  3
- - - - - - - - - - - - - - - - - - - -
 72
65
 73
2
 40
0.2
 49
0.1
 74
0
 49
-0.1
 74
0
  0
LTYPE
  5
1F7
100
AcDbSymbolTableRecord
100
AcDbLinetypeTableRecord
  2
PHANTOM
 70
64
  3
_____ _ _ _____ _ _ _____ _ _ _____
 72
65
 73
6
 40
0.8
 49
0.45
 74
0
 49
-0.05
 74
0
 49
0.1
 74
0
 49
-0.05
 74
0
 49
0.1
 74
0
 49
-0.05
 74
0
  0
LTYPE
  5
1F8
100
AcDbSymbolTableRecord
100
AcDbLinetypeTableRecord
  2
DOT
 70
64
  3
. . . . . . . . . . . . . . . . . . . .
 72
65
 73
2
 40
0.2
 49
0.1
 74
0
 49
-0.1
 74
0
  0
LTYPE
  5
1F9
100
AcDbSymbolTableRecord
100
AcDbLinetypeTableRecord
  2
DASHED
 70
64
  3
- - - - - - - - - - - - - - - - - - - -
 72
65
 73
2
 40
0.2
 49
0.1
 74
0
 49
-0.1
 74
0
  0
ENDTAB
  0
TABLE
  2
LAYER
  5
2
100
AcDbSymbolTable
 70
36
  0
LAYER
  5
10
100
AcDbSymbolTableRecord
100
AcDbLayerTableRecord
  2
0
 70
0
 62
7
  6
CONTINUOUS
  0
LAYER
  5
1FA
100
AcDbSymbolTableRecord
100
AcDbLayerTableRecord
  2
DEFAULT_1
 70
0
 62
7
  6
CENTER
  0
LAYER
  5
1FB
100
AcDbSymbolTableRecord
100
AcDbLayerTableRecord
  2
DEFAULT_2
 70
0
 62
8
  6
HIDDEN
  0
LAYER
  5
1FC
100
AcDbSymbolTableRecord
100
AcDbLayerTableRecord
  2
DEFAULT_3
 70
0
 62
7
  6
PHANTOM
  0
LAYER
  5
1FD
100
AcDbSymbolTableRecord
100
AcDbLayerTableRecord
  2
DATUMS
 70
0
 62
7
  6
CONTINUOUS
  0
LAYER
  5
1FE
100
AcDbSymbolTableRecord
100
AcDbLayerTableRecord
  2
DATUM_AXIS
 70
0
 62
7
  6
CONTINUOUS
  0
LAYER
  5
1FF
100
AcDbSymbolTableRecord
100
AcDbLayerTableRecord
  2
DATUM_CSYS
 70
0
 62
7
  6
CONTINUOUS
  0
LAYER
  5
200
100
AcDbSymbolTableRecord
100
AcDbLayerTableRecord
  2
DATUM_PLANE
 70
0
 62
7
  6
CONTINUOUS
  0
LAYER
  5
201
100
AcDbSymbolTableRecord
100
AcDbLayerTableRecord
  2
DATUM_POINT
 70
0
 62
7
  6
CONTINUOUS
  0
LAYER
  5
202
100
AcDbSymbolTableRecord
100
AcDbLayerTableRecord
  2
_CURVE
 70
0
 62
7
  6
CONTINUOUS
  0
LAYER
  5
203
100
AcDbSymbolTableRecord
100
AcDbLayerTableRecord
  2
_SURFACE
 70
0
 62
7
  6
CONTINUOUS
  0
LAYER
  5
204
100
AcDbSymbolTableRecord
100
AcDbLayerTableRecord
  2
__REF_CURVE
 70
0
 62
7
  6
CONTINUOUS
  0
LAYER
  5
205
100
AcDbSymbolTableRecord
100
AcDbLayerTableRecord
  2
__REF_SURFACE
 70
0
 62
7
  6
CONTINUOUS
  0
LAYER
  5
206
100
AcDbSymbolTableRecord
100
AcDbLayerTableRecord
  2
___NOTE
 70
0
 62
7
  6
CONTINUOUS
  0
LAYER
  5
207
100
AcDbSymbolTableRecord
100
AcDbLayerTableRecord
  2
___SYMBOL
 70
0
 62
7
  6
CONTINUOUS
  0
ENDTAB
  0
TABLE
  2
STYLE
  5
3
100
AcDbSymbolTable
 70
1
  0
STYLE
  5
11
100
AcDbSymbolTableRecord
100
AcDbTextStyleTableRecord
  2
STANDARD
 70
0
 40
0.0
 41
0.8
 50
0.0
 71
0
 42
0.2
  3
txt
  4

  0
STYLE
  5
208
100
AcDbSymbolTableRecord
100
AcDbTextStyleTableRecord
  2
TEXTSTYLE_1
 70
0
 40
0.0
 41
0.8
 50
0.0
 71
0
 42
0.2
  3
gdt
  4

  0
STYLE
  5
209
100
AcDbSymbolTableRecord
100
AcDbTextStyleTableRecord
  2
TEXTSTYLE_2
 70
0
 40
0.0
 41
1.0
 50
0.0
 71
0
 42
0.2
  3
txt
  4

  0
ENDTAB
  0
TABLE
  2
VIEW
  5
6
100
AcDbSymbolTable
 70
0
  0
ENDTAB
  0
TABLE
  2
UCS
  5
7
100
AcDbSymbolTable
 70
0
  0
ENDTAB
  0
TABLE
  2
APPID
  5
9
100
AcDbSymbolTable
 70
1
  0
APPID
  5
20A
100
AcDbSymbolTableRecord
100
AcDbRegAppTableRecord
  2
ACAD
 70
0
  0
ENDTAB
  0
TABLE
  2
BLOCK_RECORD
  5
1
100
AcDbSymbolTable
 70
0
  0
BLOCK_RECORD
  5
1F
100
AcDbSymbolTableRecord
100
AcDbBlockTableRecord
  2
*MODEL_SPACE
  0
BLOCK_RECORD
  5
1B
100
AcDbSymbolTableRecord
100
AcDbBlockTableRecord
  2
*PAPER_SPACE
  0
BLOCK_RECORD
  5
20B
100
AcDbSymbolTableRecord
100
AcDbBlockTableRecord
  2
_ARROW_FILLED
  0
BLOCK_RECORD
  5
20C
100
AcDbSymbolTableRecord
100
AcDbBlockTableRecord
  2
*D0
  0
BLOCK_RECORD
  5
20D
100
AcDbSymbolTableRecord
100
AcDbBlockTableRecord
  2
*D1
  0
BLOCK_RECORD
  5
20E
100
AcDbSymbolTableRecord
100
AcDbBlockTableRecord
  2
*D2
  0
BLOCK_RECORD
  5
20F
100
AcDbSymbolTableRecord
100
AcDbBlockTableRecord
  2
WHEN_PLOTTING_TEMPLATE_N_BL4
  0
BLOCK_RECORD
  5
210
100
AcDbSymbolTableRecord
100
AcDbBlockTableRecord
  2
TEMPLATE_NUMBER_BL3
  0
BLOCK_RECORD
  5
211
100
AcDbSymbolTableRecord
100
AcDbBlockTableRecord
  2
TEMPLATE_NUMBER_BL2
  0
BLOCK_RECORD
  5
212
100
AcDbSymbolTableRecord
100
AcDbBlockTableRecord
  2
COPYRIGHT_YEAR_BL1
  0
BLOCK_RECORD
  5
213
100
AcDbSymbolTableRecord
100
AcDbBlockTableRecord
  2
SCISSORS_BL0
  0
ENDTAB
  0
TABLE
  2
DIMSTYLE
  5
A
100
AcDbSymbolTable
 70
1
  0
DIMSTYLE
105
214
100
AcDbSymbolTableRecord
100
AcDbDimStyleTableRecord
  2
STANDARD
 70
0
  3

  4

  5
_ARROW_FILLED
  6
_ARROW_FILLED
  7
_ARROW_FILLED
 40
1.0
 41
0.1875
 42
0.0625
 43
0.38
 44
0.125
 45
0.0
 46
0.0
 47
0.01
 48
0.01
140
0.15625
141
0.09
142
0.0
143
25.4
144
1.0
145
0.0
146
1.0
147
0.09
 71
1.0
 72
0.0
 73
1
 74
1
 75
0
 76
0
 77
0
 78
4
170
0
171
2
172
0
173
0
174
0
175
0
176
0
177
0
178
0
270
2
271
3
272
3
273
2
274
2
275
0
280
0
281
0
282
0
283
1
284
4
285
0
286
0
287
3
288
0
340
11
  0
DIMSTYLE
105
215
100
AcDbSymbolTableRecord
100
AcDbDimStyleTableRecord
  2
DIMSTYLE_1
 70
0
  3

  4

  5
_ARROW_FILLED
  6
_ARROW_FILLED
  7
_ARROW_FILLED
 40
1.0
 41
0.1875
 42
0.0625
 43
0.38
 44
0.125
 45
0.0
 46
0.0
 47
0.0000000001
 48
0.0000000001
140
0.15625
141
0.09
142
0.0
143
25.4
144
1.0
145
0.0
146
1.0
147
0.078125
 71
0.0
 72
0.0
 73
1
 74
1
 75
0
 76
0
 77
0
 78
4
170
0
171
2
172
0
173
0
174
0
175
0
176
0
177
0
178
0
270
2
271
4
272
4
273
2
274
2
275
0
280
0
281
0
282
0
283
1
284
4
285
0
286
0
287
3
288
0
340
11
  0
DIMSTYLE
105
216
100
AcDbSymbolTableRecord
100
AcDbDimStyleTableRecord
  2
DIMSTYLE_2
 70
0
  3

  4

  5
_ARROW_FILLED
  6
_ARROW_FILLED
  7
_ARROW_FILLED
 40
1.0
 41
0.1875
 42
0.0625
 43
0.38
 44
0.125
 45
0.0
 46
0.0
 47
0.0625
 48
0.0625
140
0.15625
141
0.09
142
0.0
143
25.4
144
1.0
145
0.0
146
1.0
147
0.078125
 71
0.0
 72
0.0
 73
1
 74
1
 75
0
 76
0
 77
0
 78
4
170
0
171
2
172
0
173
0
174
0
175
0
176
0
177
0
178
0
270
2
271
4
272
4
273
2
274
2
275
0
280
0
281
0
282
0
283
1
284
4
285
0
286
0
287
3
288
0
340
11
  0
ENDTAB
  0
ENDSEC
  0
SECTION
  2
BLOCKS
  0
BLOCK
  5
20
100
AcDbEntity
  8
0
100
AcDbBlockBegin
  2
*MODEL_SPACE
 70
0
 10
0.0
 20
0.0
 30
0.0
  3
*MODEL_SPACE
  1

  0
ENDBLK
  5
21
100
AcDbEntity
  8
0
100
AcDbBlockEnd
  0
BLOCK
  5
1C
100
AcDbEntity
  8
0
100
AcDbBlockBegin
  2
*PAPER_SPACE
 70
0
 10
0.0
 20
0.0
 30
0.0
  3
*PAPER_SPACE
  1

  0
ENDBLK
  5
1D
100
AcDbEntity
  8
0
100
AcDbBlockEnd
  0
BLOCK
  5
217
100
AcDbEntity
  8
___SYMBOL
100
AcDbBlockBegin
 62
2
  6
CONTINUOUS
  2
WHEN_PLOTTING_TEMPLATE_N_BL4
 70
64
 10
13.3666771582
 20
14.1498850408
  3
WHEN_PLOTTING_TEMPLATE_N_BL4
  1

  0
TEXT
  5
218
100
AcDbEntity
  8
___SYMBOL
100
AcDbText
 62
2
  6
CONTINUOUS
 10
10.0541769258
 20
15.3608226258
  7
STANDARD
 40
0.156250011
  1
WHEN PLOTTING TEMPLATE FULL SIZE:
 41
0.8
 72
0
100
AcDbText
  0
TEXT
  5
219
100
AcDbEntity
  8
___SYMBOL
100
AcDbText
 62
2
  6
CONTINUOUS
 10
10.0541769258
 20
15.1264476093
  7
STANDARD
 40
0.156250011
  1
Make sure horizontal and vertical dimensions
 41
0.8
 72
0
100
AcDbText
  0
TEXT
  5
21A
100
AcDbEntity
  8
___SYMBOL
100
AcDbText
 62
2
  6
CONTINUOUS
 10
10.0541769258
 20
14.8920725929
  7
STANDARD
 40
0.156250011
  1
match the dimensions labeled on the template.
 41
0.8
 72
0
100
AcDbText
  0
TEXT
  5
21B
100
AcDbEntity
  8
___SYMBOL
100
AcDbText
 62
2
  6
CONTINUOUS
 10
10.0541769258
 20
14.6576975764
  7
STANDARD
 40
0.156250011
  1
 
 41
0.8
 72
0
100
AcDbText
  0
TEXT
  5
21C
100
AcDbEntity
  8
___SYMBOL
100
AcDbText
 62
2
  6
CONTINUOUS
 10
10.0541769258
 20
14.42332256
  7
STANDARD
 40
0.156250011
  1
AL TRAZAR LA PLANTILLA A ESCALA,
 41
0.8
 72
0
100
AcDbText
  0
TEXT
  5
21D
100
AcDbEntity
  8
___SYMBOL
100
AcDbText
 62
2
  6
CONTINUOUS
 10
10.0541769258
 20
14.1889475436
  7
STANDARD
 40
0.156250011
  1
asegúrese de que las dimensiones horizontales
 41
0.8
 72
0
100
AcDbText
  0
TEXT
  5
21E
100
AcDbEntity
  8
___SYMBOL
100
AcDbText
 62
2
  6
CONTINUOUS
 10
10.0541769258
 20
13.9545725271
  7
STANDARD
 40
0.156250011
  1
y verticales concuerden con las dimensiones marcadas
 41
0.8
 72
0
100
AcDbText
  0
TEXT
  5
21F
100
AcDbEntity
  8
___SYMBOL
100
AcDbText
 62
2
  6
CONTINUOUS
 10
10.0541769258
 20
13.7201975107
  7
STANDARD
 40
0.156250011
  1
en la plantilla.
 41
0.8
 72
0
100
AcDbText
  0
TEXT
  5
220
100
AcDbEntity
  8
___SYMBOL
100
AcDbText
 62
2
  6
CONTINUOUS
 10
10.0541769258
 20
13.4858224942
  7
STANDARD
 40
0.156250011
  1
 
 41
0.8
 72
0
100
AcDbText
  0
TEXT
  5
221
100
AcDbEntity
  8
___SYMBOL
100
AcDbText
 62
2
  6
CONTINUOUS
 10
10.0541769258
 20
13.2514474778
  7
STANDARD
 40
0.156250011
  1
AU MOMENT DE TRACER LA DÉCOUPE À L'ÉCHELLE,
 41
0.8
 72
0
100
AcDbText
  0
TEXT
  5
222
100
AcDbEntity
  8
___SYMBOL
100
AcDbText
 62
2
  6
CONTINUOUS
 10
10.0541769258
 20
13.0170724613
  7
STANDARD
 40
0.156250011
  1
Assurez vos que les dimensions horizotales et
 41
0.8
 72
0
100
AcDbText
  0
TEXT
  5
223
100
AcDbEntity
  8
___SYMBOL
100
AcDbText
 62
2
  6
CONTINUOUS
 10
10.0541769258
 20
12.7826974449
  7
STANDARD
 40
0.156250011
  1
verticales correspondent avec les dimensions du plan.
 41
0.8
 72
0
100
AcDbText
  0
ENDBLK
  5
224
100
AcDbEntity
  8
0
  6
BYBLOCK
 62
0
100
AcDbBlockEnd
  0
BLOCK
  5
225
100
AcDbEntity
  8
___SYMBOL
100
AcDbBlockBegin
 62
2
  6
CONTINUOUS
  2
TEMPLATE_NUMBER_BL3
 70
64
 10
11.4256126068
 20
8.8179173456
  3
TEMPLATE_NUMBER_BL3
  1

  0
TEXT
  5
226
100
AcDbEntity
  8
___SYMBOL
100
AcDbText
 62
2
  6
CONTINUOUS
 10
10.7381126068
 20
8.7397923456
  7
STANDARD
 40
0.15625
  1
1357118-7
 41
0.8
 72
0
100
AcDbText
  0
TEXT
  5
227
100
AcDbEntity
  8
___SYMBOL
100
AcDbText
 62
2
  6
CONTINUOUS
 10
11.8631126068
 20
8.7397923456
  7
STANDARD
 40
0.15625
  1
-A
 41
0.8
 72
0
100
AcDbText
  0
ENDBLK
  5
228
100
AcDbEntity
  8
0
  6
BYBLOCK
 62
0
100
AcDbBlockEnd
  0
BLOCK
  5
229
100
AcDbEntity
  8
___SYMBOL
100
AcDbBlockBegin
 62
2
  6
CONTINUOUS
  2
TEMPLATE_NUMBER_BL2
 70
64
 10
11.3829021156
 20
10.3196355922
  3
TEMPLATE_NUMBER_BL2
  1

  0
TEXT
  5
22A
100
AcDbEntity
  8
___SYMBOL
100
AcDbText
 62
2
  6
CONTINUOUS
 10
10.6954021156
 20
10.2415105922
  7
STANDARD
 40
0.15625
  1
1357118-7
 41
0.8
 72
0
100
AcDbText
  0
TEXT
  5
22B
100
AcDbEntity
  8
___SYMBOL
100
AcDbText
 62
2
  6
CONTINUOUS
 10
11.8204021156
 20
10.2415105922
  7
STANDARD
 40
0.15625
  1
-A
 41
0.8
 72
0
100
AcDbText
  0
ENDBLK
  5
22C
100
AcDbEntity
  8
0
  6
BYBLOCK
 62
0
100
AcDbBlockEnd
  0
BLOCK
  5
22D
100
AcDbEntity
  8
___SYMBOL
100
AcDbBlockBegin
 62
2
  6
CONTINUOUS
  2
COPYRIGHT_YEAR_BL1
 70
64
 10
29.4983514796
 20
10.3884523336
  3
COPYRIGHT_YEAR_BL1
  1

  0
TEXT
  5
22E
100
AcDbEntity
  8
___SYMBOL
100
AcDbText
 62
2
  6
CONTINUOUS
 10
28.7163635077
 20
10.3083644072
  7
STANDARD
 40
0.1562499562
  1
2018 KOHLER CO.
 41
0.8
 72
0
100
AcDbText
  0
TEXT
  5
22F
100
AcDbEntity
  8
___SYMBOL
100
AcDbText
 62
7
  6
CONTINUOUS
 10
28.4590415808
 20
10.3106931565
  7
TEXTSTYLE_2
 40
0.1562499562
  1
C
 41
1.0
 72
0
100
AcDbText
  0
CIRCLE
  5
230
100
AcDbEntity
  8
___SYMBOL
100
AcDbCircle
 62
7
  6
CONTINUOUS
 10
28.5376969769
 20
10.3884523336
 40
0.132357
  0
ENDBLK
  5
231
100
AcDbEntity
  8
0
  6
BYBLOCK
 62
0
100
AcDbBlockEnd
  0
BLOCK
  5
232
100
AcDbEntity
  8
___SYMBOL
100
AcDbBlockBegin
 62
2
  6
CONTINUOUS
  2
SCISSORS_BL0
 70
64
 10
36.5885453662
 20
14.5739146761
  3
SCISSORS_BL0
  1

  0
LINE
  5
233
100
AcDbEntity
  8
___SYMBOL
100
AcDbLine
 62
7
  6
CONTINUOUS
 10
36.5501178551
 20
14.6150470233
 11
36.4753980063
 21
14.9841525578
  0
LINE
  5
234
100
AcDbEntity
  8
___SYMBOL
100
AcDbLine
 62
7
  6
CONTINUOUS
 10
36.517864749
 20
14.5953796397
 11
36.4753980063
 21
14.9841525578
  0
LINE
  5
235
100
AcDbEntity
  8
___SYMBOL
100
AcDbLine
 62
7
  6
CONTINUOUS
 10
36.5682925919
 20
14.5512576953
 11
36.567247516
 21
14.5851599666
  0
LINE
  5
236
100
AcDbEntity
  8
___SYMBOL
100
AcDbLine
 62
7
  6
CONTINUOUS
 10
36.5781659835
 20
14.5856132928
 11
36.5792182506
 21
14.551477739
  0
LINE
  5
237
100
AcDbEntity
  8
___SYMBOL
100
AcDbLine
 62
7
  6
CONTINUOUS
 10
36.5742205949
 20
14.7038595927
 11
36.6993635213
 21
14.9776622371
  0
LINE
  5
238
100
AcDbEntity
  8
___SYMBOL
100
AcDbLine
 62
7
  6
CONTINUOUS
 10
36.498148047
 20
14.5316795257
 11
36.5198341096
 21
14.5726212376
  0
LINE
  5
239
100
AcDbEntity
  8
___SYMBOL
100
AcDbLine
 62
7
  6
CONTINUOUS
 10
36.6189854252
 20
14.5768919914
 11
36.6993635213
 21
14.8340177333
  0
LINE
  5
23A
100
AcDbEntity
  8
___SYMBOL
100
AcDbLine
 62
7
  6
CONTINUOUS
 10
36.5994063482
 20
14.6324246142
 11
36.5501178551
 21
14.6150470233
  0
LINE
  5
23B
100
AcDbEntity
  8
___SYMBOL
100
AcDbLine
 62
7
  6
CONTINUOUS
 10
36.6353934411
 20
14.5303535279
 11
36.59720224
 21
14.4381771794
  0
LINE
  5
23C
100
AcDbEntity
  8
___SYMBOL
100
AcDbLine
 62
7
  6
CONTINUOUS
 10
36.5340425557
 20
14.4411849192
 11
36.5634274058
 21
14.4717177205
  0
LINE
  5
23D
100
AcDbEntity
  8
___SYMBOL
100
AcDbLine
 62
7
  6
CONTINUOUS
 10
36.4753980063
 20
14.9841525578
 11
36.6353934411
 21
14.5303535279
  0
LINE
  5
23E
100
AcDbEntity
  8
___SYMBOL
100
AcDbLine
 62
7
  6
CONTINUOUS
 10
36.5340425557
 20
14.4411849192
 11
36.498148047
 21
14.5316795257
  0
ARC
  5
23F
100
AcDbEntity
  8
___SYMBOL
100
AcDbCircle
 62
7
  6
CONTINUOUS
 10
36.4696075217
 20
14.9058399852
 40
0.2407202841
100
AcDbArc
 50
342.6406360869
 51
17.3593639131
  0
ARC
  5
240
100
AcDbEntity
  8
___SYMBOL
100
AcDbCircle
 62
7
  6
CONTINUOUS
 10
36.7262993947
 20
14.6019517782
 40
0.2085382328
100
AcDbArc
 50
181.8059909349
 51
231.752660067
  0
CIRCLE
  5
241
100
AcDbEntity
  8
___SYMBOL
100
AcDbCircle
 62
7
  6
CONTINUOUS
 10
36.5734127366
 20
14.568382773
 40
0.0178741201
  0
ARC
  5
242
100
AcDbEntity
  8
___SYMBOL
100
AcDbCircle
 62
7
  6
CONTINUOUS
 10
36.6797179435
 20
14.3201710414
 40
0.0097392375
100
AcDbArc
 50
185.3133793157
 51
314.0675041521
  0
ARC
  5
243
100
AcDbEntity
  8
___SYMBOL
100
AcDbCircle
 62
7
  6
CONTINUOUS
 10
36.4566102135
 20
14.3151573286
 40
0.0097391571
100
AcDbArc
 50
233.3109272841
 51
359.4467240969
  0
SPLINE
  5
244
100
AcDbEntity
  8
___SYMBOL
100
AcDbSpline
 62
7
  6
CONTINUOUS
 70
0
 71
3
 72
12
 73
8
 74
0
 42
0.0000001
 43
0.0000001
 44
0.0000000001
 40
0.0
 40
0.0
 40
0.0
 40
0.0
 40
0.4884256058
 40
0.6683914397
 40
0.8669439281
 40
0.9099489479
 40
1.0
 40
1.0
 40
1.0
 40
1.0
 10
36.6545551915
 20
14.1636767944
 30
0.0
 10
36.639069626
 20
14.2090389861
 30
0.0
 10
36.6357564645
 20
14.2763886304
 30
0.0
 10
36.6368173569
 20
14.3609709141
 30
0.0
 10
36.6335613633
 20
14.4028492565
 30
0.0
 10
36.6211976963
 20
14.4334439655
 30
0.0
 10
36.6059140928
 20
14.4396611009
 30
0.0
 10
36.59720224
 20
14.4381771794
 30
0.0
  0
SPLINE
  5
245
100
AcDbEntity
  8
___SYMBOL
100
AcDbSpline
 62
7
  6
CONTINUOUS
 70
0
 71
3
 72
14
 73
10
 74
0
 42
0.0000001
 43
0.0000001
 44
0.0000000001
 40
0.0
 40
0.0
 40
0.0
 40
0.0
 40
0.0469735811
 40
0.2606095073
 40
0.5805460666
 40
0.7382389988
 40
0.8401572415
 40
0.925087268
 40
1.0
 40
1.0
 40
1.0
 40
1.0
 10
36.6700205546
 20
14.3192691578
 30
0.0
 10
36.669704286
 20
14.322669796
 30
0.0
 10
36.6683986279
 20
14.341608761
 30
0.0
 10
36.6701879943
 20
14.3833025573
 30
0.0
 10
36.6740828488
 20
14.4362915629
 30
0.0
 10
36.6514478332
 20
14.4725576909
 30
0.0
 10
36.6374256624
 20
14.493931641
 30
0.0
 10
36.6363033676
 20
14.5133852072
 30
0.0
 10
36.6362145457
 20
14.5249690871
 30
0.0
 10
36.6353934411
 20
14.5303535279
 30
0.0
  0
SPLINE
  5
246
100
AcDbEntity
  8
___SYMBOL
100
AcDbSpline
 62
7
  6
CONTINUOUS
 70
0
 71
3
 72
12
 73
8
 74
0
 42
0.0000001
 43
0.0000001
 44
0.0000000001
 40
0.0
 40
0.0
 40
0.0
 40
0.0
 40
0.2870411994
 40
0.5613888029
 40
0.7613462239
 40
0.9013972407
 40
1.0
 40
1.0
 40
1.0
 40
1.0
 10
36.4949338617
 20
14.18944785
 30
0.0
 10
36.5010681879
 20
14.213905947
 30
0.0
 10
36.5036083149
 20
14.263702271
 30
0.0
 10
36.499410714
 20
14.3308072335
 30
0.0
 10
36.5044664767
 20
14.3837033574
 30
0.0
 10
36.5071838302
 20
14.4242908046
 30
0.0
 10
36.5257195541
 20
14.4387856015
 30
0.0
 10
36.5340425557
 20
14.4411849192
 30
0.0
  0
SPLINE
  5
247
100
AcDbEntity
  8
___SYMBOL
100
AcDbSpline
 62
7
  6
CONTINUOUS
 70
0
 71
3
 72
13
 73
9
 74
0
 42
0.0000001
 43
0.0000001
 44
0.0000000001
 40
0.0
 40
0.0
 40
0.0
 40
0.0
 40
0.0902051637
 40
0.4170421866
 40
0.6587388922
 40
0.9356437381
 40
0.9595034934
 40
1.0
 40
1.0
 40
1.0
 40
1.0
 10
36.4663489166
 20
14.315063284
 30
0.0
 10
36.4664131468
 20
14.3217145884
 30
0.0
 10
36.4662232771
 20
14.3524215995
 30
0.0
 10
36.4648085375
 20
14.4015925809
 30
0.0
 10
36.475067188
 20
14.4618415799
 30
0.0
 10
36.5047769164
 20
14.5007518194
 30
0.0
 10
36.4946887662
 20
14.5240615496
 30
0.0
 10
36.4959851962
 20
14.5296205855
 30
0.0
 10
36.498148047
 20
14.5316795257
 30
0.0
  0
ELLIPSE
  5
248
100
AcDbEntity
  8
___SYMBOL
100
AcDbEllipse
 62
7
  6
CONTINUOUS
 10
36.7343091521
 20
14.2116878851
 30
0.0
 11
0.0040444517
 21
-0.0825068144
 31
0.0
 40
0.774293327
 41
0.0
 42
6.2831853072
  0
ELLIPSE
  5
249
100
AcDbEntity
  8
___SYMBOL
100
AcDbEllipse
 62
7
  6
CONTINUOUS
 10
36.7343091521
 20
14.2116878851
 30
0.0
 11
-0.0020222258
 21
-0.1229513312
 31
0.0
 40
0.700902774
 41
5.1250505418
 42
10.0362700851
  0
ELLIPSE
  5
24A
100
AcDbEntity
  8
___SYMBOL
100
AcDbEllipse
 62
7
  6
CONTINUOUS
 10
36.4066423277
 20
14.220256746
 30
0.0
 11
0.0101111292
 21
-0.0819001466
 31
0.0
 40
0.7501188416
 41
0.0
 42
6.2831853072
  0
ELLIPSE
  5
24B
100
AcDbEntity
  8
___SYMBOL
100
AcDbEllipse
 62
7
  6
CONTINUOUS
 10
36.4081589971
 20
14.2066067216
 30
0.0
 11
0.0015166694
 21
-0.1157724295
 31
0.0
 40
0.7569683881
 41
2.6163261196
 42
7.6953125801
  0
ENDBLK
  5
24C
100
AcDbEntity
  8
0
  6
BYBLOCK
 62
0
100
AcDbBlockEnd
  0
BLOCK
  5
24D
100
AcDbEntity
  8
0
100
AcDbBlockBegin
  2
_ARROW_FILLED
 70
64
 10
0.0
 20
0.0
  3
_ARROW_FILLED
  1

  0
SOLID
  5
24E
100
AcDbEntity
  8
0
  6
BYBLOCK
 62
0
100
AcDbTrace
 10
0.0
 20
0.0
 11
-1.0
 21
0.1666666667
 12
-1.0
 22
-0.1666666667
 13
-1.0
 23
-0.1666666667
  0
ENDBLK
  5
24F
100
AcDbEntity
  8
0
  6
BYBLOCK
 62
0
100
AcDbBlockEnd
  0
BLOCK
  5
250
100
AcDbEntity
  8
0
100
AcDbBlockBegin
 62
2
  6
CONTINUOUS
  2
*D0
 70
65
 10
0.0
 20
0.0
  3
*D0
  1

  0
MTEXT
  5
251
100
AcDbEntity
  8
0
100
AcDbMText
 62
2
  6
CONTINUOUS
  7
STANDARD
 71
2
 72
1
 10
17.2576088235
 20
21.125455543
 30
0.0
 11
1.0
 21
0.0
 31
0.0
  1
18-7/16\P[46.8]
 40
0.15625
 41
0.875
  0
LINE
  5
252
100
AcDbEntity
  8
0
100
AcDbLine
 62
2
  6
CONTINUOUS
 10
17.2576088235
 20
28.540708913
 11
17.2576088235
 21
21.203580543
  0
LINE
  5
253
100
AcDbEntity
  8
0
100
AcDbLine
 62
2
  6
CONTINUOUS
 10
17.2576088235
 20
10.0797381974
 11
17.2576088235
 21
20.656705543
  0
INSERT
  5
254
100
AcDbEntity
  8
0
100
AcDbBlockReference
 62
2
  6
CONTINUOUS
  2
_ARROW_FILLED
 10
17.2576088235
 20
28.540708913
 41
0.1875
 42
0.1875
 43
0.1875
 50
90.0
  0
INSERT
  5
255
100
AcDbEntity
  8
0
100
AcDbBlockReference
 62
2
  6
CONTINUOUS
  2
_ARROW_FILLED
 10
17.2576088235
 20
10.0797381974
 41
0.1875
 42
0.1875
 43
0.1875
 50
270.0
  0
ENDBLK
  5
256
100
AcDbEntity
  8
0
  6
BYBLOCK
 62
0
100
AcDbBlockEnd
  0
BLOCK
  5
257
100
AcDbEntity
  8
0
100
AcDbBlockBegin
 62
2
  6
CONTINUOUS
  2
*D1
 70
65
 10
0.0
 20
0.0
  3
*D1
  1

  0
MTEXT
  5
258
100
AcDbEntity
  8
0
100
AcDbMText
 62
2
  6
CONTINUOUS
  7
STANDARD
 71
2
 72
1
 10
27.2615587817
 20
18.0133485268
 30
0.0
 11
1.0
 21
0.0
 31
0.0
  1
15-11/16\P[39.8]
 40
0.15625
 41
1.0
  0
LINE
  5
259
100
AcDbEntity
  8
0
100
AcDbLine
 62
2
  6
CONTINUOUS
 10
27.483394676
 20
25.7907088563
 11
27.1365587817
 21
25.7907088563
  0
LINE
  5
25A
100
AcDbEntity
  8
0
100
AcDbLine
 62
2
  6
CONTINUOUS
 10
27.5293410533
 20
10.0797381974
 11
27.1365587817
 21
10.0797381974
  0
LINE
  5
25B
100
AcDbEntity
  8
0
100
AcDbLine
 62
2
  6
CONTINUOUS
 10
27.2615587817
 20
25.7907088563
 11
27.2615587817
 21
18.0914735268
  0
LINE
  5
25C
100
AcDbEntity
  8
0
100
AcDbLine
 62
2
  6
CONTINUOUS
 10
27.2615587817
 20
10.0797381974
 11
27.2615587817
 21
17.5445985268
  0
INSERT
  5
25D
100
AcDbEntity
  8
0
100
AcDbBlockReference
 62
2
  6
CONTINUOUS
  2
_ARROW_FILLED
 10
27.2615587817
 20
25.7907088563
 41
0.1875
 42
0.1875
 43
0.1875
 50
90.0
  0
INSERT
  5
25E
100
AcDbEntity
  8
0
100
AcDbBlockReference
 62
2
  6
CONTINUOUS
  2
_ARROW_FILLED
 10
27.2615587817
 20
10.0797381974
 41
0.1875
 42
0.1875
 43
0.1875
 50
270.0
  0
ENDBLK
  5
25F
100
AcDbEntity
  8
0
  6
BYBLOCK
 62
0
100
AcDbBlockEnd
  0
BLOCK
  5
260
100
AcDbEntity
  8
0
100
AcDbBlockBegin
 62
2
  6
CONTINUOUS
  2
*D2
 70
65
 10
0.0
 20
0.0
  3
*D2
  1

  0
MTEXT
  5
261
100
AcDbEntity
  8
0
100
AcDbMText
 62
2
  6
CONTINUOUS
  7
STANDARD
 71
2
 72
1
 10
14.3605478847
 20
19.9582367528
 30
0.0
 11
1.0
 21
0.0
 31
0.0
  1
29-7/16\P[74.8]
 40
0.15625
 41
0.875
  0
LINE
  5
262
100
AcDbEntity
  8
0
100
AcDbLine
 62
2
  6
CONTINUOUS
 10
7.1741260172
 20
19.5927235455
 11
7.1741260172
 21
20.0051117528
  0
LINE
  5
263
100
AcDbEntity
  8
0
100
AcDbLine
 62
2
  6
CONTINUOUS
 10
36.620144606
 20
19.6050985455
 11
36.620144606
 21
20.0051117528
  0
LINE
  5
264
100
AcDbEntity
  8
0
100
AcDbLine
 62
2
  6
CONTINUOUS
 10
7.1741260172
 20
19.8801117528
 11
13.8449228847
 21
19.8801117528
  0
LINE
  5
265
100
AcDbEntity
  8
0
100
AcDbLine
 62
2
  6
CONTINUOUS
 10
36.620144606
 20
19.8801117528
 11
14.8761728847
 21
19.8801117528
  0
INSERT
  5
266
100
AcDbEntity
  8
0
100
AcDbBlockReference
 62
2
  6
CONTINUOUS
  2
_ARROW_FILLED
 10
7.1741260172
 20
19.8801117528
 41
0.1875
 42
0.1875
 43
0.1875
 50
180.0
  0
INSERT
  5
267
100
AcDbEntity
  8
0
100
AcDbBlockReference
 62
2
  6
CONTINUOUS
  2
_ARROW_FILLED
 10
36.620144606
 20
19.8801117528
 41
0.1875
 42
0.1875
 43
0.1875
  0
ENDBLK
  5
268
100
AcDbEntity
  8
0
  6
BYBLOCK
 62
0
100
AcDbBlockEnd
  0
ENDSEC
  0
SECTION
  2
ENTITIES
  0
SOLID
  5
269
100
AcDbEntity
  8
0
100
AcDbTrace
 62
2
  6
CONTINUOUS
 10
9.3677014555
 20
25.8741200734
 11
9.5054656222
 21
26.0379412631
 12
9.6975274343
 22
26.0379412631
 13
9.6975274343
 23
26.0379412631
  0
SOLID
  5
26A
100
AcDbEntity
  8
0
100
AcDbTrace
 62
2
  6
CONTINUOUS
 10
9.6975274343
 20
26.0379412631
 11
9.4842239824
 21
25.7842929901
 12
9.3677014555
 22
25.8741200734
 13
9.3677014555
 23
25.8741200734
  0
SOLID
  5
26B
100
AcDbEntity
  8
0
100
AcDbTrace
 62
2
  6
CONTINUOUS
 10
9.3677014555
 20
25.6535274477
 11
9.4842239824
 21
25.7842929901
 12
9.5214393956
 22
25.4520276137
 13
9.5214393956
 23
25.4520276137
  0
SOLID
  5
26C
100
AcDbEntity
  8
0
100
AcDbTrace
 62
2
  6
CONTINUOUS
 10
9.4842239824
 20
25.7842929901
 11
9.7377318171
 21
25.4520276137
 12
9.5214393956
 22
25.4520276137
 13
9.5214393956
 23
25.4520276137
  0
SOLID
  5
26D
100
AcDbEntity
  8
0
100
AcDbTrace
 62
2
  6
CONTINUOUS
 10
9.3677014555
 20
25.4520276137
 11
9.1932012286
 21
25.4520036102
 12
9.3677014555
 22
25.6535274477
 13
9.3677014555
 23
25.6535274477
  0
SOLID
  5
26E
100
AcDbEntity
  8
0
100
AcDbTrace
 62
2
  6
CONTINUOUS
 10
9.4842239824
 20
25.7842929901
 11
9.3677014555
 21
25.6535274477
 12
9.3677014555
 22
25.8741200734
 13
9.3677014555
 23
25.8741200734
  0
SOLID
  5
26F
100
AcDbEntity
  8
0
100
AcDbTrace
 62
2
  6
CONTINUOUS
 10
9.3677014555
 20
25.6535274477
 11
9.1932012286
 21
25.4520036102
 12
9.3677014555
 22
25.8741200734
 13
9.3677014555
 23
25.8741200734
  0
SOLID
  5
270
100
AcDbEntity
  8
0
100
AcDbTrace
 62
2
  6
CONTINUOUS
 10
9.3677014555
 20
25.8741200734
 11
9.1932012286
 21
25.4520036102
 12
9.3677014555
 22
26.0379412631
 13
9.3677014555
 23
26.0379412631
  0
SOLID
  5
271
100
AcDbEntity
  8
0
100
AcDbTrace
 62
2
  6
CONTINUOUS
 10
9.1932012286
 20
25.4520036102
 11
9.1932012286
 21
26.0379412631
 12
9.3677014555
 22
26.0379412631
 13
9.3677014555
 23
26.0379412631
  0
SOLID
  5
272
100
AcDbEntity
  8
0
100
AcDbTrace
 62
2
  6
CONTINUOUS
 10
9.8221361019
 20
26.0273318496
 11
9.8830852563
 21
26.0402869923
 12
9.9453960512
 22
26.0402869923
 13
9.9453960512
 23
26.0402869923
  0
SOLID
  5
273
100
AcDbEntity
  8
0
100
AcDbTrace
 62
2
  6
CONTINUOUS
 10
9.9453960512
 20
26.0402869923
 11
10.0063452057
 21
26.0273318496
 12
9.8221361019
 22
26.0273318496
 13
9.8221361019
 23
26.0273318496
  0
SOLID
  5
274
100
AcDbEntity
  8
0
100
AcDbTrace
 62
2
  6
CONTINUOUS
 10
9.7652123583
 20
26.0019877661
 11
9.8221361019
 21
26.0273318496
 12
10.0063452057
 22
26.0273318496
 13
10.0063452057
 23
26.0273318496
  0
SOLID
  5
275
100
AcDbEntity
  8
0
100
AcDbTrace
 62
2
  6
CONTINUOUS
 10
10.0063452057
 20
26.0273318496
 11
10.0632689493
 21
26.0019877661
 12
9.7652123583
 22
26.0019877661
 13
9.7652123583
 23
26.0019877661
  0
SOLID
  5
276
100
AcDbEntity
  8
0
100
AcDbTrace
 62
2
  6
CONTINUOUS
 10
9.7148018663
 20
25.9653623998
 11
9.7652123583
 21
26.0019877661
 12
10.0632689493
 22
26.0019877661
 13
10.0632689493
 23
26.0019877661
  0
SOLID
  5
277
100
AcDbEntity
  8
0
100
AcDbTrace
 62
2
  6
CONTINUOUS
 10
10.0632689493
 20
26.0019877661
 11
10.1136794412
 21
25.9653623998
 12
9.7148018663
 22
25.9653623998
 13
9.7148018663
 23
25.9653623998
  0
SOLID
  5
278
100
AcDbEntity
  8
0
100
AcDbTrace
 62
2
  6
CONTINUOUS
 10
9.6731078064
 20
25.9190564551
 11
9.7148018663
 21
25.9653623998
 12
10.1136794412
 22
25.9653623998
 13
10.1136794412
 23
25.9653623998
  0
SOLID
  5
279
100
AcDbEntity
  8
0
100
AcDbTrace
 62
2
  6
CONTINUOUS
 10
10.1136794412
 20
25.9653623998
 11
10.1553735012
 21
25.9190564551
 12
9.6731078064
 22
25.9190564551
 13
9.6731078064
 23
25.9190564551
  0
SOLID
  5
27A
100
AcDbEntity
  8
0
100
AcDbTrace
 62
2
  6
CONTINUOUS
 10
9.9142406538
 20
25.8686326016
 11
9.6419524089
 21
25.8650937238
 12
10.1553735012
 22
25.9190564551
 13
10.1553735012
 23
25.9190564551
  0
SOLID
  5
27B
100
AcDbEntity
  8
0
100
AcDbTrace
 62
2
  6
CONTINUOUS
 10
9.6419524089
 20
25.8650937238
 11
9.6731078064
 21
25.9190564551
 12
10.1553735012
 22
25.9190564551
 13
10.1553735012
 23
25.9190564551
  0
SOLID
  5
27C
100
AcDbEntity
  8
0
100
AcDbTrace
 62
2
  6
CONTINUOUS
 10
10.1553735012
 20
25.9190564551
 11
10.1865288986
 21
25.8650937238
 12
9.9142406538
 22
25.8686326016
 13
9.9142406538
 23
25.8686326016
  0
SOLID
  5
27D
100
AcDbEntity
  8
0
100
AcDbTrace
 62
2
  6
CONTINUOUS
 10
9.9142406538
 20
25.8686326016
 11
9.8756847841
 21
25.8625259518
 12
9.6419524089
 22
25.8650937238
 13
9.6419524089
 23
25.8650937238
  0
SOLID
  5
27E
100
AcDbEntity
  8
0
100
AcDbTrace
 62
2
  6
CONTINUOUS
 10
9.9527965234
 20
25.8625259518
 11
9.9142406538
 21
25.8686326016
 12
10.1865288986
 22
25.8650937238
 13
10.1865288986
 23
25.8650937238
  0
SOLID
  5
27F
100
AcDbEntity
  8
0
100
AcDbTrace
 62
2
  6
CONTINUOUS
 10
9.8133000766
 20
25.8172008086
 11
9.6226973144
 21
25.8058326363
 12
9.8409030316
 22
25.8448037637
 13
9.8409030316
 23
25.8448037637
  0
SOLID
  5
280
100
AcDbEntity
  8
0
100
AcDbTrace
 62
2
  6
CONTINUOUS
 10
9.8409030316
 20
25.8448037637
 11
9.6226973144
 21
25.8058326363
 12
9.8756847841
 22
25.8625259518
 13
9.8756847841
 23
25.8625259518
  0
SOLID
  5
281
100
AcDbEntity
  8
0
100
AcDbTrace
 62
2
  6
CONTINUOUS
 10
9.6226973144
 20
25.8058326363
 11
9.6419524089
 21
25.8650937238
 12
9.8756847841
 22
25.8625259518
 13
9.8756847841
 23
25.8625259518
  0
SOLID
  5
282
100
AcDbEntity
  8
0
100
AcDbTrace
 62
2
  6
CONTINUOUS
 10
9.9527965234
 20
25.8625259518
 11
10.1865288986
 21
25.8650937238
 12
9.9875782759
 22
25.8448037637
 13
9.9875782759
 23
25.8448037637
  0
SOLID
  5
283
100
AcDbEntity
  8
0
100
AcDbTrace
 62
2
  6
CONTINUOUS
 10
9.9875782759
 20
25.8448037637
 11
10.1865288986
 21
25.8650937238
 12
10.0151812309
 22
25.8172008086
 13
10.0151812309
 23
25.8172008086
  0
SOLID
  5
284
100
AcDbEntity
  8
0
100
AcDbTrace
 62
2
  6
CONTINUOUS
 10
10.1865288986
 20
25.8650937238
 11
10.2057839931
 21
25.8058326363
 12
10.0151812309
 22
25.8172008086
 13
10.0151812309
 23
25.8172008086
  0
SOLID
  5
285
100
AcDbEntity
  8
0
100
AcDbTrace
 62
2
  6
CONTINUOUS
 10
9.8133000766
 20
25.8172008086
 11
9.7955778885
 21
25.7824190562
 12
9.6226973144
 22
25.8058326363
 13
9.6226973144
 23
25.8058326363
  0
SOLID
  5
286
100
AcDbEntity
  8
0
100
AcDbTrace
 62
2
  6
CONTINUOUS
 10
10.032903419
 20
25.7824190562
 11
10.0151812309
 21
25.8172008086
 12
10.2057839931
 22
25.8058326363
 13
10.2057839931
 23
25.8058326363
  0
SOLID
  5
287
100
AcDbEntity
  8
0
100
AcDbTrace
 62
2
  6
CONTINUOUS
 10
9.6161840628
 20
25.7438631865
 11
9.6226973144
 21
25.8058326363
 12
9.7955778885
 22
25.7824190562
 13
9.7955778885
 23
25.7824190562
  0
SOLID
  5
288
100
AcDbEntity
  8
0
100
AcDbTrace
 62
2
  6
CONTINUOUS
 10
9.7955778885
 20
25.7824190562
 11
9.7894712387
 21
25.7438631865
 12
9.6161840628
 22
25.7438631865
 13
9.6161840628
 23
25.7438631865
  0
SOLID
  5
289
100
AcDbEntity
  8
0
100
AcDbTrace
 62
2
  6
CONTINUOUS
 10
10.032903419
 20
25.7824190562
 11
10.2057839931
 21
25.8058326363
 12
10.0390100688
 22
25.7438631865
 13
10.0390100688
 23
25.7438631865
  0
SOLID
  5
28A
100
AcDbEntity
  8
0
100
AcDbTrace
 62
2
  6
CONTINUOUS
 10
10.2057839931
 20
25.8058326363
 11
10.2122972448
 21
25.7438631865
 12
10.0390100688
 22
25.7438631865
 13
10.0390100688
 23
25.7438631865
  0
SOLID
  5
28B
100
AcDbEntity
  8
0
100
AcDbTrace
 62
2
  6
CONTINUOUS
 10
10.032903419
 20
25.7053073169
 11
10.0390100688
 21
25.7438631865
 12
10.2122972448
 22
25.7438631865
 13
10.2122972448
 23
25.7438631865
  0
SOLID
  5
28C
100
AcDbEntity
  8
0
100
AcDbTrace
 62
2
  6
CONTINUOUS
 10
9.7955778885
 20
25.7053073169
 11
9.6226973144
 21
25.6818937367
 12
9.7894712387
 22
25.7438631865
 13
9.7894712387
 23
25.7438631865
  0
SOLID
  5
28D
100
AcDbEntity
  8
0
100
AcDbTrace
 62
2
  6
CONTINUOUS
 10
9.6226973144
 20
25.6818937367
 11
9.6161840628
 21
25.7438631865
 12
9.7894712387
 22
25.7438631865
 13
9.7894712387
 23
25.7438631865
  0
SOLID
  5
28E
100
AcDbEntity
  8
0
100
AcDbTrace
 62
2
  6
CONTINUOUS
 10
10.2122972448
 20
25.7438631865
 11
10.2057839931
 21
25.6818937367
 12
10.032903419
 22
25.7053073169
 13
10.032903419
 23
25.7053073169
  0
SOLID
  5
28F
100
AcDbEntity
  8
0
100
AcDbTrace
 62
2
  6
CONTINUOUS
 10
9.7955778885
 20
25.7053073169
 11
9.8133000766
 21
25.6705255644
 12
9.6226973144
 22
25.6818937367
 13
9.6226973144
 23
25.6818937367
  0
SOLID
  5
290
100
AcDbEntity
  8
0
100
AcDbTrace
 62
2
  6
CONTINUOUS
 10
10.0151812309
 20
25.6705255644
 11
10.032903419
 21
25.7053073169
 12
10.2057839931
 22
25.6818937367
 13
10.2057839931
 23
25.6818937367
  0
SOLID
  5
291
100
AcDbEntity
  8
0
100
AcDbTrace
 62
2
  6
CONTINUOUS
 10
9.8756847841
 20
25.6252004213
 11
9.6419524089
 21
25.6226326493
 12
9.8409030316
 22
25.6429226094
 13
9.8409030316
 23
25.6429226094
  0
SOLID
  5
292
100
AcDbEntity
  8
0
100
AcDbTrace
 62
2
  6
CONTINUOUS
 10
9.8409030316
 20
25.6429226094
 11
9.6419524089
 21
25.6226326493
 12
9.8133000766
 22
25.6705255644
 13
9.8133000766
 23
25.6705255644
  0
SOLID
  5
293
100
AcDbEntity
  8
0
100
AcDbTrace
 62
2
  6
CONTINUOUS
 10
9.6419524089
 20
25.6226326493
 11
9.6226973144
 21
25.6818937367
 12
9.8133000766
 22
25.6705255644
 13
9.8133000766
 23
25.6705255644
  0
SOLID
  5
294
100
AcDbEntity
  8
0
100
AcDbTrace
 62
2
  6
CONTINUOUS
 10
10.0151812309
 20
25.6705255644
 11
10.2057839931
 21
25.6818937367
 12
9.9875782759
 22
25.6429226094
 13
9.9875782759
 23
25.6429226094
  0
SOLID
  5
295
100
AcDbEntity
  8
0
100
AcDbTrace
 62
2
  6
CONTINUOUS
 10
9.9875782759
 20
25.6429226094
 11
10.2057839931
 21
25.6818937367
 12
9.9527965234
 22
25.6252004213
 13
9.9527965234
 23
25.6252004213
  0
SOLID
  5
296
100
AcDbEntity
  8
0
100
AcDbTrace
 62
2
  6
CONTINUOUS
 10
10.2057839931
 20
25.6818937367
 11
10.1865288986
 21
25.6226326493
 12
9.9527965234
 22
25.6252004213
 13
9.9527965234
 23
25.6252004213
  0
SOLID
  5
297
100
AcDbEntity
  8
0
100
AcDbTrace
 62
2
  6
CONTINUOUS
 10
9.8756847841
 20
25.6252004213
 11
9.9142406538
 21
25.6190937714
 12
9.6419524089
 22
25.6226326493
 13
9.6419524089
 23
25.6226326493
  0
SOLID
  5
298
100
AcDbEntity
  8
0
100
AcDbTrace
 62
2
  6
CONTINUOUS
 10
9.9142406538
 20
25.6190937714
 11
9.9527965234
 21
25.6252004213
 12
10.1865288986
 22
25.6226326493
 13
10.1865288986
 23
25.6226326493
  0
SOLID
  5
299
100
AcDbEntity
  8
0
100
AcDbTrace
 62
2
  6
CONTINUOUS
 10
9.6731078064
 20
25.568669918
 11
9.6419524089
 21
25.6226326493
 12
9.9142406538
 22
25.6190937714
 13
9.9142406538
 23
25.6190937714
  0
SOLID
  5
29A
100
AcDbEntity
  8
0
100
AcDbTrace
 62
2
  6
CONTINUOUS
 10
9.9142406538
 20
25.6190937714
 11
10.1865288986
 21
25.6226326493
 12
9.6731078064
 22
25.568669918
 13
9.6731078064
 23
25.568669918
  0
SOLID
  5
29B
100
AcDbEntity
  8
0
100
AcDbTrace
 62
2
  6
CONTINUOUS
 10
10.1865288986
 20
25.6226326493
 11
10.1553735012
 21
25.568669918
 12
9.6731078064
 22
25.568669918
 13
9.6731078064
 23
25.568669918
  0
SOLID
  5
29C
100
AcDbEntity
  8
0
100
AcDbTrace
 62
2
  6
CONTINUOUS
 10
9.7148018663
 20
25.5223639732
 11
9.6731078064
 21
25.568669918
 12
10.1553735012
 22
25.568669918
 13
10.1553735012
 23
25.568669918
  0
SOLID
  5
29D
100
AcDbEntity
  8
0
100
AcDbTrace
 62
2
  6
CONTINUOUS
 10
10.1553735012
 20
25.568669918
 11
10.1136794412
 21
25.5223639732
 12
9.7148018663
 22
25.5223639732
 13
9.7148018663
 23
25.5223639732
  0
SOLID
  5
29E
100
AcDbEntity
  8
0
100
AcDbTrace
 62
2
  6
CONTINUOUS
 10
9.7652123583
 20
25.485738607
 11
9.7148018663
 21
25.5223639732
 12
10.1136794412
 22
25.5223639732
 13
10.1136794412
 23
25.5223639732
  0
SOLID
  5
29F
100
AcDbEntity
  8
0
100
AcDbTrace
 62
2
  6
CONTINUOUS
 10
10.1136794412
 20
25.5223639732
 11
10.0632689493
 21
25.485738607
 12
9.7652123583
 22
25.485738607
 13
9.7652123583
 23
25.485738607
  0
SOLID
  5
2A0
100
AcDbEntity
  8
0
100
AcDbTrace
 62
2
  6
CONTINUOUS
 10
9.8221361019
 20
25.4603945234
 11
9.7652123583
 21
25.485738607
 12
10.0632689493
 22
25.485738607
 13
10.0632689493
 23
25.485738607
  0
SOLID
  5
2A1
100
AcDbEntity
  8
0
100
AcDbTrace
 62
2
  6
CONTINUOUS
 10
10.0632689493
 20
25.485738607
 11
10.0063452057
 21
25.4603945234
 12
9.8221361019
 22
25.4603945234
 13
9.8221361019
 23
25.4603945234
  0
SOLID
  5
2A2
100
AcDbEntity
  8
0
100
AcDbTrace
 62
2
  6
CONTINUOUS
 10
9.8830852563
 20
25.4474393807
 11
9.8221361019
 21
25.4603945234
 12
10.0063452057
 22
25.4603945234
 13
10.0063452057
 23
25.4603945234
  0
SOLID
  5
2A3
100
AcDbEntity
  8
0
100
AcDbTrace
 62
2
  6
CONTINUOUS
 10
10.0063452057
 20
25.4603945234
 11
9.9453960512
 21
25.4474393807
 12
9.8830852563
 22
25.4474393807
 13
9.8830852563
 23
25.4474393807
  0
SOLID
  5
2A4
100
AcDbEntity
  8
0
100
AcDbTrace
 62
2
  6
CONTINUOUS
 10
10.5421429831
 20
25.8175575034
 11
10.5421429831
 21
26.0379412631
 12
10.706876663
 22
26.0379412631
 13
10.706876663
 23
26.0379412631
  0
SOLID
  5
2A5
100
AcDbEntity
  8
0
100
AcDbTrace
 62
2
  6
CONTINUOUS
 10
10.5421429831
 20
25.8175575034
 11
10.394146172
 21
25.6803522235
 12
10.394146172
 22
25.8175575034
 13
10.394146172
 23
25.8175575034
  0
SOLID
  5
2A6
100
AcDbEntity
  8
0
100
AcDbTrace
 62
2
  6
CONTINUOUS
 10
10.394146172
 20
25.6803522235
 11
10.2294124922
 21
25.4520276137
 12
10.394146172
 22
25.8175575034
 13
10.394146172
 23
25.8175575034
  0
SOLID
  5
2A7
100
AcDbEntity
  8
0
100
AcDbTrace
 62
2
  6
CONTINUOUS
 10
10.394146172
 20
25.8175575034
 11
10.2294124922
 21
25.4520276137
 12
10.394146172
 22
26.0379412631
 13
10.394146172
 23
26.0379412631
  0
SOLID
  5
2A8
100
AcDbEntity
  8
0
100
AcDbTrace
 62
2
  6
CONTINUOUS
 10
10.2294124922
 20
25.4520276137
 11
10.2294124922
 21
26.0379412631
 12
10.394146172
 22
26.0379412631
 13
10.394146172
 23
26.0379412631
  0
SOLID
  5
2A9
100
AcDbEntity
  8
0
100
AcDbTrace
 62
2
  6
CONTINUOUS
 10
10.394146172
 20
25.6803522235
 11
10.394146172
 21
25.4520276137
 12
10.2294124922
 22
25.4520276137
 13
10.2294124922
 23
25.4520276137
  0
SOLID
  5
2AA
100
AcDbEntity
  8
0
100
AcDbTrace
 62
2
  6
CONTINUOUS
 10
10.394146172
 20
25.6803522235
 11
10.5421429831
 21
25.8175575034
 12
10.5421429831
 22
25.6803522235
 13
10.5421429831
 23
25.6803522235
  0
SOLID
  5
2AB
100
AcDbEntity
  8
0
100
AcDbTrace
 62
2
  6
CONTINUOUS
 10
10.5421429831
 20
25.8175575034
 11
10.706876663
 21
26.0379412631
 12
10.5421429831
 22
25.6803522235
 13
10.5421429831
 23
25.6803522235
  0
SOLID
  5
2AC
100
AcDbEntity
  8
0
100
AcDbTrace
 62
2
  6
CONTINUOUS
 10
10.5421429831
 20
25.6803522235
 11
10.706876663
 21
26.0379412631
 12
10.5421429831
 22
25.4520276137
 13
10.5421429831
 23
25.4520276137
  0
SOLID
  5
2AD
100
AcDbEntity
  8
0
100
AcDbTrace
 62
2
  6
CONTINUOUS
 10
10.706876663
 20
26.0379412631
 11
10.706876663
 21
25.4520276137
 12
10.5421429831
 22
25.4520276137
 13
10.5421429831
 23
25.4520276137
  0
SOLID
  5
2AE
100
AcDbEntity
  8
0
100
AcDbTrace
 62
2
  6
CONTINUOUS
 10
11.0646516399
 20
25.5932543709
 11
10.7519215072
 21
25.4520276137
 12
10.9019675699
 22
25.5932543709
 13
10.9019675699
 23
25.5932543709
  0
SOLID
  5
2AF
100
AcDbEntity
  8
0
100
AcDbTrace
 62
2
  6
CONTINUOUS
 10
10.9019675699
 20
25.5932543709
 11
10.7519215072
 21
25.4520276137
 12
10.9019675699
 22
26.0379412631
 13
10.9019675699
 23
26.0379412631
  0
SOLID
  5
2B0
100
AcDbEntity
  8
0
100
AcDbTrace
 62
2
  6
CONTINUOUS
 10
10.7519215072
 20
25.4520276137
 11
10.7519215072
 21
26.0379412631
 12
10.9019675699
 22
26.0379412631
 13
10.9019675699
 23
26.0379412631
  0
SOLID
  5
2B1
100
AcDbEntity
  8
0
100
AcDbTrace
 62
2
  6
CONTINUOUS
 10
10.7519215072
 20
25.4520276137
 11
11.0646516399
 21
25.5932543709
 12
10.9019675699
 22
25.4520276137
 13
10.9019675699
 23
25.4520276137
  0
SOLID
  5
2B2
100
AcDbEntity
  8
0
100
AcDbTrace
 62
2
  6
CONTINUOUS
 10
11.0646516399
 20
25.5932543709
 11
11.0646516399
 21
25.4520276137
 12
10.9019675699
 22
25.4520276137
 13
10.9019675699
 23
25.4520276137
  0
SOLID
  5
2B3
100
AcDbEntity
  8
0
100
AcDbTrace
 62
2
  6
CONTINUOUS
 10
11.4029035539
 20
26.0379412631
 11
11.4029035539
 21
25.8951818663
 12
11.2520460305
 22
25.8951818663
 13
11.2520460305
 23
25.8951818663
  0
SOLID
  5
2B4
100
AcDbEntity
  8
0
100
AcDbTrace
 62
2
  6
CONTINUOUS
 10
11.4029035539
 20
25.8175575034
 11
11.4029035539
 21
25.6731759019
 12
11.2520460305
 22
25.6731759019
 13
11.2520460305
 23
25.6731759019
  0
SOLID
  5
2B5
100
AcDbEntity
  8
0
100
AcDbTrace
 62
2
  6
CONTINUOUS
 10
11.4029035539
 20
25.5932543709
 11
11.0937993786
 21
25.4520276137
 12
11.2520460305
 22
25.5932543709
 13
11.2520460305
 23
25.5932543709
  0
SOLID
  5
2B6
100
AcDbEntity
  8
0
100
AcDbTrace
 62
2
  6
CONTINUOUS
 10
11.2520460305
 20
25.5932543709
 11
11.0937993786
 21
25.4520276137
 12
11.2520460305
 22
25.6731759019
 13
11.2520460305
 23
25.6731759019
  0
SOLID
  5
2B7
100
AcDbEntity
  8
0
100
AcDbTrace
 62
2
  6
CONTINUOUS
 10
11.4029035539
 20
25.8175575034
 11
11.2520460305
 21
25.6731759019
 12
11.2520460305
 22
25.8175575034
 13
11.2520460305
 23
25.8175575034
  0
SOLID
  5
2B8
100
AcDbEntity
  8
0
100
AcDbTrace
 62
2
  6
CONTINUOUS
 10
11.2520460305
 20
25.6731759019
 11
11.0937993786
 21
25.4520276137
 12
11.2520460305
 22
25.8175575034
 13
11.2520460305
 23
25.8175575034
  0
SOLID
  5
2B9
100
AcDbEntity
  8
0
100
AcDbTrace
 62
2
  6
CONTINUOUS
 10
11.2520460305
 20
25.8175575034
 11
11.0937993786
 21
25.4520276137
 12
11.2520460305
 22
25.8951818663
 13
11.2520460305
 23
25.8951818663
  0
SOLID
  5
2BA
100
AcDbEntity
  8
0
100
AcDbTrace
 62
2
  6
CONTINUOUS
 10
11.4029035539
 20
26.0379412631
 11
11.2520460305
 21
25.8951818663
 12
11.2662503539
 22
26.0379412631
 13
11.2662503539
 23
26.0379412631
  0
SOLID
  5
2BB
100
AcDbEntity
  8
0
100
AcDbTrace
 62
2
  6
CONTINUOUS
 10
11.2520460305
 20
25.8951818663
 11
11.0937993786
 21
25.4520276137
 12
11.2662503539
 22
26.0379412631
 13
11.2662503539
 23
26.0379412631
  0
SOLID
  5
2BC
100
AcDbEntity
  8
0
100
AcDbTrace
 62
2
  6
CONTINUOUS
 10
11.0937993786
 20
25.4520276137
 11
11.0937993786
 21
26.0379412631
 12
11.2662503539
 22
26.0379412631
 13
11.2662503539
 23
26.0379412631
  0
SOLID
  5
2BD
100
AcDbEntity
  8
0
100
AcDbTrace
 62
2
  6
CONTINUOUS
 10
11.4029035539
 20
25.5932543709
 11
11.4029035539
 21
25.4520276137
 12
11.0937993786
 22
25.4520276137
 13
11.0937993786
 23
25.4520276137
  0
SOLID
  5
2BE
100
AcDbEntity
  8
0
100
AcDbTrace
 62
2
  6
CONTINUOUS
 10
11.6812714693
 20
26.0379483687
 11
11.7282044928
 21
26.0315381202
 12
11.4477237686
 22
26.0379412631
 13
11.4477237686
 23
26.0379412631
  0
SOLID
  5
2BF
100
AcDbEntity
  8
0
100
AcDbTrace
 62
2
  6
CONTINUOUS
 10
11.5983795912
 20
25.8953624297
 11
11.8523193323
 21
25.8999917652
 12
11.6543094726
 22
25.8953624297
 13
11.6543094726
 23
25.8953624297
  0
SOLID
  5
2C0
100
AcDbEntity
  8
0
100
AcDbTrace
 62
2
  6
CONTINUOUS
 10
11.6543094726
 20
25.8953624297
 11
11.8523193323
 21
25.8999917652
 12
11.6780320542
 22
25.8898282614
 13
11.6780320542
 23
25.8898282614
  0
SOLID
  5
2C1
100
AcDbEntity
  8
0
100
AcDbTrace
 62
2
  6
CONTINUOUS
 10
11.6780320542
 20
25.8898282614
 11
11.8523193323
 21
25.8999917652
 12
11.6968570419
 22
25.8743683864
 13
11.6968570419
 23
25.8743683864
  0
SOLID
  5
2C2
100
AcDbEntity
  8
0
100
AcDbTrace
 62
2
  6
CONTINUOUS
 10
11.8523193323
 20
25.8999917652
 11
11.8559925787
 21
25.8527656364
 12
11.6968570419
 22
25.8743683864
 13
11.6968570419
 23
25.8743683864
  0
SOLID
  5
2C3
100
AcDbEntity
  8
0
100
AcDbTrace
 62
2
  6
CONTINUOUS
 10
11.7068979805
 20
25.8521745257
 11
11.6968570419
 21
25.8743683864
 12
11.8559925787
 22
25.8527656364
 13
11.8559925787
 23
25.8527656364
  0
SOLID
  5
2C4
100
AcDbEntity
  8
0
100
AcDbTrace
 62
2
  6
CONTINUOUS
 10
11.7068979805
 20
25.8521745257
 11
11.8559925787
 21
25.8527656364
 12
11.7060818988
 22
25.827828645
 13
11.7060818988
 23
25.827828645
  0
SOLID
  5
2C5
100
AcDbEntity
  8
0
100
AcDbTrace
 62
2
  6
CONTINUOUS
 10
11.7060818988
 20
25.827828645
 11
11.8559925787
 21
25.8527656364
 12
11.6945772784
 22
25.8063569984
 13
11.6945772784
 23
25.8063569984
  0
SOLID
  5
2C6
100
AcDbEntity
  8
0
100
AcDbTrace
 62
2
  6
CONTINUOUS
 10
11.8559925787
 20
25.8527656364
 11
11.846866975
 21
25.8062842064
 12
11.6945772784
 22
25.8063569984
 13
11.6945772784
 23
25.8063569984
  0
SOLID
  5
2C7
100
AcDbEntity
  8
0
100
AcDbTrace
 62
2
  6
CONTINUOUS
 10
11.6747592706
 20
25.7921924489
 11
11.6945772784
 21
25.8063569984
 12
11.846866975
 22
25.8062842064
 13
11.846866975
 23
25.8062842064
  0
SOLID
  5
2C8
100
AcDbEntity
  8
0
100
AcDbTrace
 62
2
  6
CONTINUOUS
 10
11.6747592706
 20
25.7921924489
 11
11.846866975
 21
25.8062842064
 12
11.6507193414
 22
25.7882592952
 13
11.6507193414
 23
25.7882592952
  0
SOLID
  5
2C9
100
AcDbEntity
  8
0
100
AcDbTrace
 62
2
  6
CONTINUOUS
 10
11.846866975
 20
25.8062842064
 11
11.8256109993
 21
25.7639523805
 12
11.6507193414
 22
25.7882592952
 13
11.6507193414
 23
25.7882592952
  0
SOLID
  5
2CA
100
AcDbEntity
  8
0
100
AcDbTrace
 62
2
  6
CONTINUOUS
 10
11.7537107169
 20
25.703610155
 11
11.5983795912
 21
25.6489839845
 12
11.7937817162
 22
25.7288710932
 13
11.7937817162
 23
25.7288710932
  0
SOLID
  5
2CB
100
AcDbEntity
  8
0
100
AcDbTrace
 62
2
  6
CONTINUOUS
 10
11.7937817162
 20
25.7288710932
 11
11.5983795912
 21
25.6489839845
 12
11.8256109993
 22
25.7639523805
 13
11.8256109993
 23
25.7639523805
  0
SOLID
  5
2CC
100
AcDbEntity
  8
0
100
AcDbTrace
 62
2
  6
CONTINUOUS
 10
11.8256109993
 20
25.7639523805
 11
11.5983795912
 21
25.6489839845
 12
11.6507193414
 22
25.7882592952
 13
11.6507193414
 23
25.7882592952
  0
SOLID
  5
2CD
100
AcDbEntity
  8
0
100
AcDbTrace
 62
2
  6
CONTINUOUS
 10
11.5983795912
 20
25.6489839845
 11
11.4477237686
 21
25.4520276137
 12
11.6507193414
 22
25.7882592952
 13
11.6507193414
 23
25.7882592952
  0
SOLID
  5
2CE
100
AcDbEntity
  8
0
100
AcDbTrace
 62
2
  6
CONTINUOUS
 10
11.6507193414
 20
25.7882592952
 11
11.4477237686
 21
25.4520276137
 12
11.5983795912
 22
25.7882592952
 13
11.5983795912
 23
25.7882592952
  0
SOLID
  5
2CF
100
AcDbEntity
  8
0
100
AcDbTrace
 62
2
  6
CONTINUOUS
 10
11.5983795912
 20
25.7882592952
 11
11.4477237686
 21
25.4520276137
 12
11.5983795912
 22
25.8953624297
 13
11.5983795912
 23
25.8953624297
  0
SOLID
  5
2D0
100
AcDbEntity
  8
0
100
AcDbTrace
 62
2
  6
CONTINUOUS
 10
11.8523193323
 20
25.8999917652
 11
11.5983795912
 21
25.8953624297
 12
11.8361163121
 22
25.944503136
 13
11.8361163121
 23
25.944503136
  0
SOLID
  5
2D1
100
AcDbEntity
  8
0
100
AcDbTrace
 62
2
  6
CONTINUOUS
 10
11.8361163121
 20
25.944503136
 11
11.5983795912
 21
25.8953624297
 12
11.8085704386
 22
25.9830391559
 13
11.8085704386
 23
25.9830391559
  0
SOLID
  5
2D2
100
AcDbEntity
  8
0
100
AcDbTrace
 62
2
  6
CONTINUOUS
 10
11.8085704386
 20
25.9830391559
 11
11.5983795912
 21
25.8953624297
 12
11.7716995303
 22
26.012776945
 13
11.7716995303
 23
26.012776945
  0
SOLID
  5
2D3
100
AcDbEntity
  8
0
100
AcDbTrace
 62
2
  6
CONTINUOUS
 10
11.7716995303
 20
26.012776945
 11
11.5983795912
 21
25.8953624297
 12
11.7282044928
 22
26.0315381202
 13
11.7282044928
 23
26.0315381202
  0
SOLID
  5
2D4
100
AcDbEntity
  8
0
100
AcDbTrace
 62
2
  6
CONTINUOUS
 10
11.7282044928
 20
26.0315381202
 11
11.5983795912
 21
25.8953624297
 12
11.4477237686
 22
26.0379412631
 13
11.4477237686
 23
26.0379412631
  0
SOLID
  5
2D5
100
AcDbEntity
  8
0
100
AcDbTrace
 62
2
  6
CONTINUOUS
 10
11.4477237686
 20
25.4520276137
 11
11.4477237686
 21
26.0379412631
 12
11.5983795912
 22
25.8953624297
 13
11.5983795912
 23
25.8953624297
  0
SOLID
  5
2D6
100
AcDbEntity
  8
0
100
AcDbTrace
 62
2
  6
CONTINUOUS
 10
11.5983795912
 20
25.6489839845
 11
11.5983795912
 21
25.4520276137
 12
11.4477237686
 22
25.4520276137
 13
11.4477237686
 23
25.4520276137
  0
SOLID
  5
2D7
100
AcDbEntity
  8
0
100
AcDbTrace
 62
2
  6
CONTINUOUS
 10
11.5983795912
 20
25.6489839845
 11
11.7537107169
 21
25.703610155
 12
11.7232030203
 22
25.4520276137
 13
11.7232030203
 23
25.4520276137
  0
SOLID
  5
2D8
100
AcDbEntity
  8
0
100
AcDbTrace
 62
2
  6
CONTINUOUS
 10
11.7537107169
 20
25.703610155
 11
11.9131539599
 21
25.4520276137
 12
11.7232030203
 22
25.4520276137
 13
11.7232030203
 23
25.4520276137
  0
DIMENSION
  5
2D9
100
AcDbEntity
  8
0
100
AcDbDimension
 62
2
  6
CONTINUOUS
  2
*D0
 10
17.2576088235
 20
10.0797381974
 11
17.2576088235
 21
20.930143043
 70
160
  1
<>\P[46.8]
  3
DIMSTYLE_1
100
AcDbAlignedDimension
 13
17.9199162794
 23
28.540708913
 14
10.6393044357
 24
10.0797381974
 50
270.0
100
AcDbRotatedDimension
  0
DIMENSION
  5
2DA
100
AcDbEntity
  8
0
100
AcDbDimension
 62
2
  6
CONTINUOUS
  2
*D1
 10
27.2615587817
 20
10.0797381974
 11
27.2615587817
 21
17.8180360268
 70
160
  1
<>\P[39.8]
  3
DIMSTYLE_2
100
AcDbAlignedDimension
 13
27.545894676
 23
25.7907088563
 14
27.5918410533
 24
10.0797381974
 50
270.0
100
AcDbRotatedDimension
  0
DIMENSION
  5
2DB
100
AcDbEntity
  8
0
100
AcDbDimension
 62
2
  6
CONTINUOUS
  2
*D2
 10
36.620144606
 20
19.8801117528
 11
14.3605478847
 21
19.7629242528
 70
160
  1
<>\P[74.8]
  3
DIMSTYLE_2
100
AcDbAlignedDimension
 13
7.1741260172
 23
19.5302235455
 14
36.620144606
 24
19.5425985455
100
AcDbRotatedDimension
  0
MTEXT
  5
2DC
100
AcDbEntity
  8
___NOTE
100
AcDbMText
 62
2
  6
CONTINUOUS
  7
STANDARD
 71
1
 72
1
 10
9.1700156054
 20
25.0477361043
 30
0.0
 11
1.0
 21
0.0
 31
0.0
  1
FOR UNDER-MOUNT INSTALLATION\PCUT ALONG THIS LINE\PPARA INSTALACIÓN DE MONTAJE POR ABAJO\PCORTE A LO LARGO DE ESTA LÍNEA\PPOUR INSTALLATION À MONTAGE SOUS PLAN\PCOUPER LE LONG DE CETTE LIGNE\P \P 
 40
0.2
 41
5.92
  0
MTEXT
  5
2DD
100
AcDbEntity
  8
___NOTE
100
AcDbMText
 62
2
  6
CONTINUOUS
  7
STANDARD
 71
1
 72
1
 10
9.2580809443
 20
22.7014128232
 30
0.0
 11
1.0
 21
0.0
 31
0.0
  1
5691
 40
0.2
 41
0.64
  0
LEADER
  5
2DE
100
AcDbEntity
  8
___NOTE
100
AcDbLeader
 62
2
  6
CONTINUOUS
  3
STANDARD
 71
1
 72
0
 73
0
 75
0
 40
0.15625
 41
1.375
 76
3
 10
37.6596113279
 20
21.6645740131
 30
0.0
 10
34.3826809639
 20
23.2046151604
 30
0.0
 10
34.1326809639
 20
23.2046151604
 30
0.0
340
2DF
1001
ACAD
1000
DSTYLE
1002
{
1070
77
1070
0
1002
}
  0
MTEXT
  5
2DF
102
{ACAD_REACTORS
330
2DE
102
}
100
AcDbEntity
  8
___NOTE
100
AcDbMText
 62
2
  6
CONTINUOUS
  7
STANDARD
 71
3
 72
1
 10
34.1326809639
 20
23.2827401604
 30
0.0
 11
1.0
 21
0.0
 31
0.0
  1
RIM OF SINK\PREBORDE DE FREGADERO\PREBORD D'ÉVIER
 40
0.15625
 41
2.5
  0
LEADER
  5
2E0
100
AcDbEntity
  8
___NOTE
100
AcDbLeader
 62
2
  6
CONTINUOUS
  3
STANDARD
 71
1
 72
0
 73
0
 75
0
 40
0.15625
 41
3.5
 76
3
 10
36.5885645959
 20
15.509873661
 30
0.0
 10
35.5333831816
 20
16.9168202155
 30
0.0
 10
35.2833831816
 20
16.9168202155
 30
0.0
340
2E1
1001
ACAD
1000
DSTYLE
1002
{
1070
77
1070
0
1002
}
  0
MTEXT
  5
2E1
102
{ACAD_REACTORS
330
2E0
102
}
100
AcDbEntity
  8
___NOTE
100
AcDbMText
 62
2
  6
CONTINUOUS
  7
STANDARD
 71
3
 72
1
 10
35.2833831816
 20
16.9949452155
 30
0.0
 11
1.0
 21
0.0
 31
0.0
  1
FOR UNDER-MOUNT INSTALLATION\PCUT ALONG THIS LINE\PPARA INSTALACIÓN DE MONTAJE POR ABAJO\PCORTE A LO LARGO DE ESTA LÍNEA\PPOUR INSTALLATION À MONTAGE SOUS PLAN\PCOUPER LE LONG DE CETTE LIGNE\P 
 40
0.15625
 41
4.625
  0
INSERT
  5
2E2
100
AcDbEntity
  8
___SYMBOL
100
AcDbBlockReference
 62
2
  6
CONTINUOUS
  2
SCISSORS_BL0
 10
36.5885453662
 20
14.5739146761
  0
INSERT
  5
2E3
100
AcDbEntity
  8
___SYMBOL
100
AcDbBlockReference
 62
2
  6
CONTINUOUS
  2
COPYRIGHT_YEAR_BL1
 10
29.4983514796
 20
10.3884523336
  0
INSERT
  5
2E4
100
AcDbEntity
  8
___SYMBOL
100
AcDbBlockReference
 62
2
  6
CONTINUOUS
  2
TEMPLATE_NUMBER_BL2
 10
11.3829021156
 20
10.3196355922
  0
INSERT
  5
2E5
100
AcDbEntity
  8
___SYMBOL
100
AcDbBlockReference
 62
2
  6
CONTINUOUS
  2
TEMPLATE_NUMBER_BL3
 10
11.4256126068
 20
8.8179173456
  0
INSERT
  5
2E6
100
AcDbEntity
  8
___SYMBOL
100
AcDbBlockReference
 62
2
  6
CONTINUOUS
  2
WHEN_PLOTTING_TEMPLATE_N_BL4
 10
13.3666771582
 20
14.1498850408
  0
LINE
  5
2E7
100
AcDbEntity
  8
0
100
AcDbLine
 62
2
  6
CONTINUOUS
 10
9.5054656222
 20
26.0379412631
 11
9.3677014555
 21
25.8741200734
  0
LINE
  5
2E8
100
AcDbEntity
  8
0
100
AcDbLine
 62
2
  6
CONTINUOUS
 10
9.6975274343
 20
26.0379412631
 11
9.4842239824
 21
25.7842929901
  0
LINE
  5
2E9
100
AcDbEntity
  8
0
100
AcDbLine
 62
2
  6
CONTINUOUS
 10
9.1932012286
 20
26.0379412631
 11
9.1932012286
 21
25.4520036102
  0
LINE
  5
2EA
100
AcDbEntity
  8
0
100
AcDbLine
 62
2
  6
CONTINUOUS
 10
9.3677014555
 20
26.0379412631
 11
9.3677014555
 21
25.8741200734
  0
LINE
  5
2EB
100
AcDbEntity
  8
0
100
AcDbLine
 62
2
  6
CONTINUOUS
 10
9.3677014555
 20
25.6535274477
 11
9.3677014555
 21
25.4520276137
  0
LINE
  5
2EC
100
AcDbEntity
  8
0
100
AcDbLine
 62
2
  6
CONTINUOUS
 10
10.2294124922
 20
26.0379412631
 11
10.2294124922
 21
25.4520276137
  0
LINE
  5
2ED
100
AcDbEntity
  8
0
100
AcDbLine
 62
2
  6
CONTINUOUS
 10
10.394146172
 20
26.0379412631
 11
10.394146172
 21
25.8175575034
  0
LINE
  5
2EE
100
AcDbEntity
  8
0
100
AcDbLine
 62
2
  6
CONTINUOUS
 10
10.394146172
 20
25.6803522235
 11
10.394146172
 21
25.4520276137
  0
LINE
  5
2EF
100
AcDbEntity
  8
0
100
AcDbLine
 62
2
  6
CONTINUOUS
 10
10.5421429831
 20
26.0379412631
 11
10.5421429831
 21
25.8175575034
  0
LINE
  5
2F0
100
AcDbEntity
  8
0
100
AcDbLine
 62
2
  6
CONTINUOUS
 10
10.5421429831
 20
25.6803522235
 11
10.5421429831
 21
25.4520276137
  0
LINE
  5
2F1
100
AcDbEntity
  8
0
100
AcDbLine
 62
2
  6
CONTINUOUS
 10
10.706876663
 20
26.0379412631
 11
10.706876663
 21
25.4520276137
  0
LINE
  5
2F2
100
AcDbEntity
  8
0
100
AcDbLine
 62
2
  6
CONTINUOUS
 10
10.7519215072
 20
25.4520276137
 11
10.7519215072
 21
26.0379412631
  0
LINE
  5
2F3
100
AcDbEntity
  8
0
100
AcDbLine
 62
2
  6
CONTINUOUS
 10
10.9019675699
 20
26.0379412631
 11
10.9019675699
 21
25.5932543709
  0
LINE
  5
2F4
100
AcDbEntity
  8
0
100
AcDbLine
 62
2
  6
CONTINUOUS
 10
11.0646516399
 20
25.5932543709
 11
11.0646516399
 21
25.4520276137
  0
LINE
  5
2F5
100
AcDbEntity
  8
0
100
AcDbLine
 62
2
  6
CONTINUOUS
 10
11.0937993786
 20
25.4520276137
 11
11.0937993786
 21
26.0379412631
  0
LINE
  5
2F6
100
AcDbEntity
  8
0
100
AcDbLine
 62
2
  6
CONTINUOUS
 10
11.2520460305
 20
25.8951818663
 11
11.2520460305
 21
25.8175575034
  0
LINE
  5
2F7
100
AcDbEntity
  8
0
100
AcDbLine
 62
2
  6
CONTINUOUS
 10
11.2520460305
 20
25.6731759019
 11
11.2520460305
 21
25.5932543709
  0
LINE
  5
2F8
100
AcDbEntity
  8
0
100
AcDbLine
 62
2
  6
CONTINUOUS
 10
11.4029035539
 20
25.4520276137
 11
11.4029035539
 21
25.5932543709
  0
LINE
  5
2F9
100
AcDbEntity
  8
0
100
AcDbLine
 62
2
  6
CONTINUOUS
 10
11.4029035539
 20
25.6731759019
 11
11.4029035539
 21
25.8175575034
  0
LINE
  5
2FA
100
AcDbEntity
  8
0
100
AcDbLine
 62
2
  6
CONTINUOUS
 10
11.4029035539
 20
25.8951818663
 11
11.4029035539
 21
26.0379412631
  0
LINE
  5
2FB
100
AcDbEntity
  8
0
100
AcDbLine
 62
2
  6
CONTINUOUS
 10
11.4477237686
 20
25.4520276137
 11
11.4477237686
 21
26.0379412631
  0
LINE
  5
2FC
100
AcDbEntity
  8
0
100
AcDbLine
 62
2
  6
CONTINUOUS
 10
11.5983795912
 20
25.8953624297
 11
11.5983795912
 21
25.7882592952
  0
LINE
  5
2FD
100
AcDbEntity
  8
0
100
AcDbLine
 62
2
  6
CONTINUOUS
 10
11.5983795912
 20
25.6489839845
 11
11.5983795912
 21
25.4520276137
  0
LINE
  5
2FE
100
AcDbEntity
  8
0
100
AcDbLine
 62
2
  6
CONTINUOUS
 10
12.0380379351
 20
25.4191869229
 11
12.0380379351
 21
25.4851531218
  0
LINE
  5
2FF
100
AcDbEntity
  8
0
100
AcDbLine
 62
2
  6
CONTINUOUS
 10
9.5214393956
 20
25.4520276137
 11
9.3677014555
 21
25.6535274477
  0
LINE
  5
300
100
AcDbEntity
  8
0
100
AcDbLine
 62
2
  6
CONTINUOUS
 10
9.7377318171
 20
25.4520276137
 11
9.4842239824
 21
25.7842929901
  0
LINE
  5
301
100
AcDbEntity
  8
0
100
AcDbLine
 62
2
  6
CONTINUOUS
 10
11.7232030203
 20
25.4520276137
 11
11.5983795912
 21
25.6489839845
  0
LINE
  5
302
100
AcDbEntity
  8
0
100
AcDbLine
 62
2
  6
CONTINUOUS
 10
11.9131539599
 20
25.4520276137
 11
11.7537107169
 21
25.703610155
  0
LINE
  5
303
100
AcDbEntity
  8
0
100
AcDbLine
 62
2
  6
CONTINUOUS
 10
12.0496359113
 20
25.4514898643
 11
12.081503924
 21
25.4191869229
  0
LINE
  5
304
100
AcDbEntity
  8
0
100
AcDbLine
 62
2
  6
CONTINUOUS
 10
10.394146172
 20
25.8175575034
 11
10.5484595705
 21
25.7366110723
  0
LINE
  5
305
100
AcDbEntity
  8
0
100
AcDbLine
 62
2
  6
CONTINUOUS
 10
9.3677014555
 20
25.4520276137
 11
9.1932012286
 21
25.4520036102
  0
LINE
  5
306
100
AcDbEntity
  8
0
100
AcDbLine
 62
2
  6
CONTINUOUS
 10
12.0623172681
 20
25.4514898643
 11
12.0380379351
 21
25.4514898643
  0
LINE
  5
307
100
AcDbEntity
  8
0
100
AcDbLine
 62
2
  6
CONTINUOUS
 10
10.706876663
 20
25.4520276137
 11
10.5421429831
 21
25.4520276137
  0
LINE
  5
308
100
AcDbEntity
  8
0
100
AcDbLine
 62
2
  6
CONTINUOUS
 10
10.394146172
 20
25.4520276137
 11
10.2294124922
 21
25.4520276137
  0
LINE
  5
309
100
AcDbEntity
  8
0
100
AcDbLine
 62
2
  6
CONTINUOUS
 10
9.5214393956
 20
25.4520276137
 11
9.7377318171
 21
25.4520276137
  0
LINE
  5
30A
100
AcDbEntity
  8
0
100
AcDbLine
 62
2
  6
CONTINUOUS
 10
10.7519215072
 20
25.4520276137
 11
11.0646516399
 21
25.4520276137
  0
LINE
  5
30B
100
AcDbEntity
  8
0
100
AcDbLine
 62
2
  6
CONTINUOUS
 10
11.0937993786
 20
25.4520276137
 11
11.4029035539
 21
25.4520276137
  0
LINE
  5
30C
100
AcDbEntity
  8
0
100
AcDbLine
 62
2
  6
CONTINUOUS
 10
11.4477237686
 20
25.4520276137
 11
11.5983795912
 21
25.4520276137
  0
LINE
  5
30D
100
AcDbEntity
  8
0
100
AcDbLine
 62
2
  6
CONTINUOUS
 10
11.7232030203
 20
25.4520276137
 11
11.9131539599
 21
25.4520276137
  0
LINE
  5
30E
100
AcDbEntity
  8
0
100
AcDbLine
 62
2
  6
CONTINUOUS
 10
12.0380379351
 20
25.4851531218
 11
12.0623172681
 21
25.4851531218
  0
LINE
  5
30F
100
AcDbEntity
  8
0
100
AcDbLine
 62
2
  6
CONTINUOUS
 10
10.9019675699
 20
25.5932543709
 11
11.0646516399
 21
25.5932543709
  0
LINE
  5
310
100
AcDbEntity
  8
0
100
AcDbLine
 62
2
  6
CONTINUOUS
 10
11.2520460305
 20
25.5932543709
 11
11.4029035539
 21
25.5932543709
  0
LINE
  5
311
100
AcDbEntity
  8
0
100
AcDbLine
 62
2
  6
CONTINUOUS
 10
11.2520460305
 20
25.6731759019
 11
11.4029035539
 21
25.6731759019
  0
LINE
  5
312
100
AcDbEntity
  8
0
100
AcDbLine
 62
2
  6
CONTINUOUS
 10
10.394146172
 20
25.6803522235
 11
10.5421429831
 21
25.6803522235
  0
LINE
  5
313
100
AcDbEntity
  8
0
100
AcDbLine
 62
2
  6
CONTINUOUS
 10
11.5983795912
 20
25.7882592952
 11
11.6507193414
 21
25.7882592952
  0
LINE
  5
314
100
AcDbEntity
  8
0
100
AcDbLine
 62
2
  6
CONTINUOUS
 10
11.2520460305
 20
25.8951818663
 11
11.4029035539
 21
25.8951818663
  0
LINE
  5
315
100
AcDbEntity
  8
0
100
AcDbLine
 62
2
  6
CONTINUOUS
 10
11.6543094726
 20
25.8953624297
 11
11.5983795912
 21
25.8953624297
  0
LINE
  5
316
100
AcDbEntity
  8
0
100
AcDbLine
 62
2
  6
CONTINUOUS
 10
9.1932012286
 20
26.0379412631
 11
9.3677014555
 21
26.0379412631
  0
LINE
  5
317
100
AcDbEntity
  8
0
100
AcDbLine
 62
2
  6
CONTINUOUS
 10
9.5054656222
 20
26.0379412631
 11
9.6975274343
 21
26.0379412631
  0
LINE
  5
318
100
AcDbEntity
  8
0
100
AcDbLine
 62
2
  6
CONTINUOUS
 10
10.2294124922
 20
26.0379412631
 11
10.394146172
 21
26.0379412631
  0
LINE
  5
319
100
AcDbEntity
  8
0
100
AcDbLine
 62
2
  6
CONTINUOUS
 10
10.5421429831
 20
26.0379412631
 11
10.706876663
 21
26.0379412631
  0
LINE
  5
31A
100
AcDbEntity
  8
0
100
AcDbLine
 62
2
  6
CONTINUOUS
 10
10.7519215072
 20
26.0379412631
 11
10.9019675699
 21
26.0379412631
  0
LINE
  5
31B
100
AcDbEntity
  8
0
100
AcDbLine
 62
2
  6
CONTINUOUS
 10
11.0937993786
 20
26.0379412631
 11
11.4029035539
 21
26.0379412631
  0
LINE
  5
31C
100
AcDbEntity
  8
0
100
AcDbLine
 62
2
  6
CONTINUOUS
 10
11.4477237686
 20
26.0379412631
 11
11.6812714693
 21
26.0379412631
  0
LINE
  5
31D
100
AcDbEntity
  8
0
100
AcDbLine
 62
2
  6
CONTINUOUS
 10
11.1978293852
 20
25.8239000531
 11
11.4029035539
 21
25.8175575034
  0
LINE
  5
31E
100
AcDbEntity
  8
_CURVE
100
AcDbLine
 62
8
  6
PHANTOM
 10
7.6530045467
 20
29.5692235455
 11
6.1486113279
 21
28.0648303267
  0
LINE
  5
31F
100
AcDbEntity
  8
_CURVE
100
AcDbLine
 62
8
  6
PHANTOM
 10
6.1486113279
 20
10.5646167643
 11
7.6530045467
 21
9.0602235455
  0
LINE
  5
320
100
AcDbEntity
  8
_CURVE
100
AcDbLine
 62
8
  6
PHANTOM
 10
6.1486113279
 20
10.5646167643
 11
6.1486113279
 21
28.0648303267
  0
LINE
  5
321
100
AcDbEntity
  8
_CURVE
100
AcDbLine
 62
8
  6
PHANTOM
 10
36.1552181091
 20
9.0602235455
 11
7.6530045467
 21
9.0602235455
  0
LINE
  5
322
100
AcDbEntity
  8
_CURVE
100
AcDbLine
 62
7
  6
CONTINUOUS
 10
10.6393044357
 20
10.0797381974
 11
33.2691194851
 21
10.0797381974
  0
LINE
  5
323
100
AcDbEntity
  8
_CURVE
100
AcDbLine
 62
7
  6
CENTER
 10
21.9046113279
 20
10.2192606595
 11
21.9046113279
 21
8.1004892445
  0
LINE
  5
324
100
AcDbEntity
  8
_CURVE
100
AcDbLine
 62
7
  6
CENTER
 10
21.9046113279
 20
25.7130914024
 11
21.9046113279
 21
27.8318628175
  0
LINE
  5
325
100
AcDbEntity
  8
_CURVE
100
AcDbLine
 62
7
  6
CENTER
 10
7.523382743
 20
19.3102235455
 11
5.4046113279
 21
19.3102235455
  0
LINE
  5
326
100
AcDbEntity
  8
_CURVE
100
AcDbLine
 62
7
  6
CENTER
 10
36.5180893893
 20
19.3102235455
 11
38.6368608043
 21
19.3102235455
  0
LINE
  5
327
100
AcDbEntity
  8
_CURVE
100
AcDbLine
 62
8
  6
PHANTOM
 10
21.2555287636
 20
28.2131949671
 11
21.6431503272
 21
27.1482134738
  0
LINE
  5
328
100
AcDbEntity
  8
_CURVE
100
AcDbLine
 62
7
  6
CONTINUOUS
 10
21.7516326049
 20
25.7907088563
 11
33.2677416898
 21
25.7907088563
  0
LINE
  5
329
100
AcDbEntity
  8
_CURVE
100
AcDbLine
 62
8
  6
PHANTOM
 10
22.1129966376
 20
26.8192235455
 11
36.1552181091
 21
26.8192235455
  0
LINE
  5
32A
100
AcDbEntity
  8
_CURVE
100
AcDbLine
 62
8
  6
PHANTOM
 10
19.25679933
 20
29.5022362474
 11
21.0356824532
 21
28.4751975974
  0
LINE
  5
32B
100
AcDbEntity
  8
_CURVE
100
AcDbLine
 62
7
  6
CONTINUOUS
 10
17.9199162794
 20
28.540708913
 11
10.6393063764
 21
28.540708913
  0
LINE
  5
32C
100
AcDbEntity
  8
_CURVE
100
AcDbLine
 62
8
  6
PHANTOM
 10
7.6530045467
 20
29.5692235455
 11
19.00679933
 21
29.5692235455
  0
LINE
  5
32D
100
AcDbEntity
  8
_CURVE
100
AcDbLine
 62
8
  6
PHANTOM
 10
37.6596113279
 20
25.3148303267
 11
37.6596113279
 21
10.5646167643
  0
LINE
  5
32E
100
AcDbEntity
  8
_CURVE
100
AcDbLine
 62
8
  6
PHANTOM
 10
37.6596113279
 20
25.3148303267
 11
36.1552181091
 21
26.8192235455
  0
LINE
  5
32F
100
AcDbEntity
  8
_CURVE
100
AcDbLine
 62
8
  6
PHANTOM
 10
36.1552181091
 20
9.0602235455
 11
37.6596113279
 21
10.5646167643
  0
CIRCLE
  5
330
100
AcDbEntity
  8
0
100
AcDbCircle
 62
2
  6
CONTINUOUS
 10
9.9142406538
 20
25.7438631865
 40
0.298056591
  0
ARC
  5
331
100
AcDbEntity
  8
0
100
AcDbCircle
 62
2
  6
CONTINUOUS
 10
11.6812714693
 20
25.8629317524
 40
0.1750166163
100
AcDbArc
 50
294.4500166359
 51
90.0
  0
CIRCLE
  5
332
100
AcDbEntity
  8
0
100
AcDbCircle
 62
2
  6
CONTINUOUS
 10
9.9142406538
 20
25.7438631865
 40
0.1247694151
  0
CIRCLE
  5
333
100
AcDbEntity
  8
0
100
AcDbCircle
 62
2
  6
CONTINUOUS
 10
12.0539239345
 20
25.4520276137
 40
0.0653578721
  0
ARC
  5
334
100
AcDbEntity
  8
0
100
AcDbCircle
 62
2
  6
CONTINUOUS
 10
11.6543093707
 20
25.8417506947
 40
0.053611735
100
AcDbArc
 50
266.1604009902
 51
89.9998910512
  0
ARC
  5
335
100
AcDbEntity
  8
0
100
AcDbCircle
 62
2
  6
CONTINUOUS
 10
12.0623172681
 20
25.4683216722
 40
0.0168314496
100
AcDbArc
 50
270.0
 51
90.0
  0
ARC
  5
336
100
AcDbEntity
  8
_CURVE
100
AcDbCircle
 62
7
  6
CONTINUOUS
 10
70.4046113279
 20
19.3102235455
 40
63.2304853108
100
AcDbArc
 50
175.255493805
 51
184.7444947295
  0
ARC
  5
337
100
AcDbEntity
  8
_CURVE
100
AcDbCircle
 62
7
  6
CONTINUOUS
 10
-26.5953886721
 20
17.9352235455
 40
63.2304853108
100
AcDbArc
 50
356.5731051482
 51
3.4268951378
  0
ARC
  5
338
100
AcDbEntity
  8
_CURVE
100
AcDbCircle
 62
7
  6
CONTINUOUS
 10
21.7516326049
 20
26.7907088563
 40
1.0
100
AcDbArc
 50
198.810804469
 51
270.0
  0
ARC
  5
339
100
AcDbEntity
  8
_CURVE
100
AcDbCircle
 62
8
  6
PHANTOM
 10
22.1129966376
 20
27.3192235455
 40
0.5
100
AcDbArc
 50
200.0
 51
270.0
  0
ARC
  5
33A
100
AcDbEntity
  8
_CURVE
100
AcDbCircle
 62
8
  6
PHANTOM
 10
20.7856824532
 20
28.0421848955
 40
0.5
100
AcDbArc
 50
20.0
 51
60.0
  0
ARC
  5
33B
100
AcDbEntity
  8
_CURVE
100
AcDbCircle
 62
8
  6
PHANTOM
 10
19.00679933
 20
29.0692235455
 40
0.5
100
AcDbArc
 50
60.0
 51
90.0
  0
SPLINE
  5
33C
100
AcDbEntity
  8
_CURVE
100
AcDbSpline
 62
7
  6
CONTINUOUS
 70
0
 71
3
 72
33
 73
29
 74
0
 42
0.0000001
 43
0.0000001
 44
0.0000000001
 40
0.0
 40
0.0
 40
0.0
 40
0.0
 40
0.0435102591
 40
0.0828180058
 40
0.1186534884
 40
0.1517771992
 40
0.1827893749
 40
0.2120734378
 40
0.2399949572
 40
0.2669081691
 40
0.2931538367
 40
0.3190205439
 40
0.3447903964
 40
0.3707350694
 40
0.3971362612
 40
0.4243070467
 40
0.452567998
 40
0.4822780812
 40
0.5138270997
 40
0.5477029921
 40
0.5844571035
 40
0.6247399178
 40
0.6693592006
 40
0.7193133281
 40
0.7758256351
 40
0.840358499
 40
0.9145741029
 40
1.0
 40
1.0
 40
1.0
 40
1.0
 10
10.6393064226
 20
28.5407064499
 30
0.0
 10
10.5550172945
 20
28.5407288167
 30
0.0
 10
10.3945374039
 20
28.53670313
 30
0.0
 10
10.1653048264
 20
28.5182718012
 30
0.0
 10
9.9574116441
 20
28.4896612209
 30
0.0
 10
9.7672979406
 20
28.4521567136
 30
0.0
 10
9.5920326668
 20
28.4066222324
 30
0.0
 10
9.4294221888
 20
28.3537091279
 30
0.0
 10
9.277746958
 20
28.2938488981
 30
0.0
 10
9.1354112925
 20
28.2271866043
 30
0.0
 10
9.0010291775
 20
28.153641036
 30
0.0
 10
8.8734166884
 20
28.0729654003
 30
0.0
 10
8.7516224421
 20
27.9847388836
 30
0.0
 10
8.6348408022
 20
27.8883414007
 30
0.0
 10
8.5223811228
 20
27.7829242464
 30
0.0
 10
8.4136538792
 20
27.6674160277
 30
0.0
 10
8.3081862056
 20
27.540468514
 30
0.0
 10
8.2056604239
 20
27.4004686522
 30
0.0
 10
8.1058514345
 20
27.2454073817
 30
0.0
 10
8.0086658315
 20
27.0728353812
 30
0.0
 10
7.9141557095
 20
26.8797453849
 30
0.0
 10
7.8225466645
 20
26.6624730745
 30
0.0
 10
7.7342873571
 20
26.416453493
 30
0.0
 10
7.650097964
 20
26.1359999194
 30
0.0
 10
7.5710555481
 20
25.8141636789
 30
0.0
 10
7.4988584996
 20
25.4427066746
 30
0.0
 10
7.4358591235
 20
25.0128811487
 30
0.0
 10
7.4044651881
 20
24.7051077678
 30
0.0
 10
7.3907916164
 20
24.5401845025
 30
0.0
  0
SPLINE
  5
33D
100
AcDbEntity
  8
_CURVE
100
AcDbSpline
 62
7
  6
CONTINUOUS
 70
0
 71
3
 72
33
 73
29
 74
0
 42
0.0000001
 43
0.0000001
 44
0.0000000001
 40
0.0
 40
0.0
 40
0.0
 40
0.0
 40
0.0853710966
 40
0.1595432319
 40
0.2240457077
 40
0.2805876742
 40
0.3305901523
 40
0.3752353018
 40
0.4155248541
 40
0.4522827763
 40
0.4861617508
 40
0.5177141705
 40
0.5474293654
 40
0.5756988039
 40
0.6028819421
 40
0.6292963097
 40
0.6552498294
 40
0.6810168794
 40
0.7068644975
 40
0.7330844504
 40
0.7599815622
 40
0.7879126248
 40
0.817242057
 40
0.8483232601
 40
0.8815069582
 40
0.917356228
 40
0.956619072
 40
1.0
 40
1.0
 40
1.0
 40
1.0
 10
7.3907905536
 20
14.0802751638
 30
0.0
 10
7.4044559494
 20
13.9154576232
 30
0.0
 10
7.4358412172
 20
13.6078752488
 30
0.0
 10
7.4987394943
 20
13.1782868183
 30
0.0
 10
7.5709031489
 20
12.8069097383
 30
0.0
 10
7.6499559782
 20
12.4849809377
 30
0.0
 10
7.7341842894
 20
12.2043286693
 30
0.0
 10
7.8224804536
 20
11.9581553654
 30
0.0
 10
7.9141050578
 20
11.7408127814
 30
0.0
 10
8.0086191942
 20
11.547695095
 30
0.0
 10
8.1058096939
 20
11.3751027414
 30
0.0
 10
8.2056282676
 20
11.2200206906
 30
0.0
 10
8.308173203
 20
11.0799937993
 30
0.0
 10
8.413674006
 20
10.9530082139
 30
0.0
 10
8.5224483535
 20
10.8374535689
 30
0.0
 10
8.6349590212
 20
10.7319932136
 30
0.0
 10
8.751770957
 20
10.6355737118
 30
0.0
 10
8.8735474183
 20
10.5473654381
 30
0.0
 10
9.001085755
 20
10.4667449546
 30
0.0
 10
9.1353694015
 20
10.3932648732
 30
0.0
 10
9.2776576691
 20
10.3266481176
 30
0.0
 10
9.4294134571
 20
10.2667867014
 30
0.0
 10
9.5922614176
 20
10.2138265194
 30
0.0
 10
9.7678600738
 20
10.1682320367
 30
0.0
 10
9.9582441204
 20
10.1306688915
 30
0.0
 10
10.1661947647
 20
10.1020579135
 30
0.0
 10
10.3951228813
 20
10.0837121938
 30
0.0
 10
10.5552648825
 20
10.0797174208
 30
0.0
 10
10.6393035292
 20
10.0797406367
 30
0.0
  0
SPLINE
  5
33E
100
AcDbEntity
  8
_CURVE
100
AcDbSpline
 62
7
  6
CONTINUOUS
 70
0
 71
3
 72
34
 73
30
 74
0
 42
0.0000001
 43
0.0000001
 44
0.0000000001
 40
0.0
 40
0.0
 40
0.0
 40
0.0
 40
0.0429942858
 40
0.0820204904
 40
0.1175535377
 40
0.150328672
 40
0.1809378718
 40
0.2097495056
 40
0.2371147896
 40
0.2633728139
 40
0.2888553017
 40
0.3138347219
 40
0.3385731704
 40
0.3633209723
 40
0.3883282012
 40
0.4138711455
 40
0.4402308871
 40
0.4677129503
 40
0.4966432674
 40
0.527412933
 40
0.5604725173
 40
0.5963490308
 40
0.6356490771
 40
0.6791478752
 40
0.727777794
 40
0.7826759019
 40
0.8452782077
 40
0.9172472609
 40
1.0
 40
1.0
 40
1.0
 40
1.0
 10
33.2691194851
 20
10.0797380526
 30
0.0
 10
33.3538472458
 20
10.0797380526
 30
0.0
 10
33.5155216882
 20
10.0836808137
 30
0.0
 10
33.7465914271
 20
10.1016420388
 30
0.0
 10
33.9563716732
 20
10.1295593903
 30
0.0
 10
34.1479551597
 20
10.1661064768
 30
0.0
 10
34.3242666866
 20
10.2104002408
 30
0.0
 10
34.4875058333
 20
10.2617534854
 30
0.0
 10
34.6393833849
 20
10.3196800634
 30
0.0
 10
34.7815075837
 20
10.3839665128
 30
0.0
 10
34.9152779988
 20
10.4546236885
 30
0.0
 10
35.0418958115
 20
10.531808186
 30
0.0
 10
35.1623236731
 20
10.6158274747
 30
0.0
 10
35.277373622
 20
10.7071608463
 30
0.0
 10
35.3877401662
 20
10.8064883374
 30
0.0
 10
35.4940187314
 20
10.9146790297
 30
0.0
 10
35.5967033733
 20
11.0328301951
 30
0.0
 10
35.696139408
 20
11.1622572339
 30
0.0
 10
35.7925663603
 20
11.3045731634
 30
0.0
 10
35.8861133551
 20
11.4617409369
 30
0.0
 10
35.9767945803
 20
11.6361702532
 30
0.0
 10
36.0644473045
 20
11.8307451915
 30
0.0
 10
36.1487485996
 20
12.0490140469
 30
0.0
 10
36.2291351154
 20
12.2953500246
 30
0.0
 10
36.3047792958
 20
12.5751696786
 30
0.0
 10
36.3744973443
 20
12.8951794728
 30
0.0
 10
36.4365280789
 20
13.2635101353
 30
0.0
 10
36.4884215695
 20
13.6887639212
 30
0.0
 10
36.5122991606
 20
13.9928372238
 30
0.0
 10
36.5220329001
 20
14.1556247947
 30
0.0
  0
SPLINE
  5
33F
100
AcDbEntity
  8
_CURVE
100
AcDbSpline
 62
7
  6
CONTINUOUS
 70
0
 71
3
 72
34
 73
30
 74
0
 42
0.0000001
 43
0.0000001
 44
0.0000000001
 40
0.0
 40
0.0
 40
0.0
 40
0.0
 40
0.0827334861
 40
0.154685746
 40
0.2172734445
 40
0.2721587431
 40
0.3207773155
 40
0.3642659649
 40
0.4035568425
 40
0.4394249865
 40
0.4724768588
 40
0.5032393469
 40
0.5321629161
 40
0.5596385695
 40
0.5859921635
 40
0.6115291511
 40
0.6365305488
 40
0.6612725803
 40
0.686005261
 40
0.7109788579
 40
0.7364554054
 40
0.7627073094
 40
0.7900662156
 40
0.8188711351
 40
0.8494732023
 40
0.8822407001
 40
0.9177654692
 40
0.9567825836
 40
1.0
 40
1.0
 40
1.0
 40
1.0
 10
36.5220328813
 20
21.7148226117
 30
0.0
 10
36.5122991376
 20
21.8776102701
 30
0.0
 10
36.488421523
 20
22.1816836386
 30
0.0
 10
36.4365280047
 20
22.6069374711
 30
0.0
 10
36.3744972556
 20
22.9752680779
 30
0.0
 10
36.3047791954
 20
23.2952778245
 30
0.0
 10
36.2291350047
 20
23.5750974381
 30
0.0
 10
36.1487484797
 20
23.8214333812
 30
0.0
 10
36.0644471761
 20
24.0397022069
 30
0.0
 10
35.9767944438
 20
24.2342771197
 30
0.0
 10
35.8861132106
 20
24.4087064138
 30
0.0
 10
35.7925662077
 20
24.5658741679
 30
0.0
 10
35.6961392469
 20
24.7081900803
 30
0.0
 10
35.5967032032
 20
24.8376171041
 30
0.0
 10
35.4940185516
 20
24.955768256
 30
0.0
 10
35.3877399757
 20
25.0639589361
 30
0.0
 10
35.2773734195
 20
25.163286416
 30
0.0
 10
35.162323457
 20
25.2546197773
 30
0.0
 10
35.0418955801
 20
25.3386390562
 30
0.0
 10
34.9152777499
 20
25.4158235441
 30
0.0
 10
34.7815073147
 20
25.48648071
 30
0.0
 10
34.6393830927
 20
25.5507671495
 30
0.0
 10
34.487505514
 20
25.6086937168
 30
0.0
 10
34.324266336
 20
25.6600469495
 30
0.0
 10
34.1479547727
 20
25.7043406998
 30
0.0
 10
33.9563712435
 20
25.7408877706
 30
0.0
 10
33.7465909453
 20
25.7688051025
 30
0.0
 10
33.5150627554
 20
25.7868019393
 30
0.0
 10
33.3529273145
 20
25.7907313915
 30
0.0
 10
33.2677401963
 20
25.7907088559
 30
0.0
  0
SPLINE
  5
340
100
AcDbEntity
  8
_CURVE
100
AcDbSpline
 62
7
  6
CONTINUOUS
 70
0
 71
3
 72
28
 73
24
 74
0
 42
0.0000001
 43
0.0000001
 44
0.0000000001
 40
0.0
 40
0.0
 40
0.0
 40
0.0
 40
0.055714317
 40
0.1166012306
 40
0.1721545587
 40
0.2233574987
 40
0.2710434014
 40
0.3159497788
 40
0.3586658136
 40
0.3997340779
 40
0.439639112
 40
0.4788541244
 40
0.517804898
 40
0.5569020661
 40
0.5965720274
 40
0.6372509729
 40
0.6794539611
 40
0.7237164147
 40
0.7705908869
 40
0.820656915
 40
0.8748217486
 40
0.9342348609
 40
1.0
 40
1.0
 40
1.0
 40
1.0
 10
20.8050441324
 20
26.4682646537
 30
0.0
 10
20.7820163509
 20
26.5358665283
 30
0.0
 10
20.7308335972
 20
26.6763296809
 30
0.0
 10
20.6450669463
 20
26.8797453849
 30
0.0
 10
20.5505568243
 20
27.0728353812
 30
0.0
 10
20.4533712213
 20
27.2454073817
 30
0.0
 10
20.353562232
 20
27.4004686522
 30
0.0
 10
20.2510364503
 20
27.540468514
 30
0.0
 10
20.1455687766
 20
27.6674160277
 30
0.0
 10
20.036841533
 20
27.7829242464
 30
0.0
 10
19.9243818536
 20
27.8883414007
 30
0.0
 10
19.8076002138
 20
27.9847388836
 30
0.0
 10
19.6858059674
 20
28.0729654003
 30
0.0
 10
19.5581934783
 20
28.153641036
 30
0.0
 10
19.4238113633
 20
28.2271866043
 30
0.0
 10
19.2814756978
 20
28.2938488981
 30
0.0
 10
19.129800467
 20
28.3537091279
 30
0.0
 10
18.967189989
 20
28.4066222324
 30
0.0
 10
18.7919247152
 20
28.4521567136
 30
0.0
 10
18.6018110117
 20
28.4896612209
 30
0.0
 10
18.3939178294
 20
28.5182718012
 30
0.0
 10
18.1646852675
 20
28.5367031287
 30
0.0
 10
18.0042053926
 20
28.5407288159
 30
0.0
 10
17.9199162801
 20
28.5407064499
 30
0.0
  0
ENDSEC
  0
SECTION
  2
OBJECTS
  0
DICTIONARY
  5
341
100
AcDbDictionary
  3
ACAD_GROUP
350
342
  3
ACAD_MLINESTYLE
350
343
  0
DICTIONARY
  5
342
102
{ACAD_REACTORS
330
341
102
}
100
AcDbDictionary
  0
DICTIONARY
  5
343
102
{ACAD_REACTORS
330
341
102
}
100
AcDbDictionary
  3
STANDARD
350
344
  0
MLINESTYLE
  5
344
102
{ACAD_REACTORS
330
343
102
}
100
AcDbMlineStyle
  2
STANDARD
 70
0
  3

 62
256
 51
90.0
 52
90.0
 71
2
 49
0.5
 62
256
  6
BYLAYER
 49
-0.5
 62
256
  6
BYLAYER
  0
ENDSEC
  0
EOF
