999
DXF file: 1315847-7.dxf
999
Pro/ENGINEER 2016130 by Parametric Technology Corporation
  0
SECTION
  2
HEADER
  9
$ACADVER
  1
AC1014
  9
$DWGCODEPAGE
  3
ANSI_1252
  9
$EXTMAX
 10
44.0
 20
34.0
 30
0.0
  9
$EXTMIN
 10
0.0
 20
0.0
 30
0.0
  9
$LIMMIN
 10
0.0
 20
0.0
  9
$LIMMAX
 10
44.0
 20
34.0
  9
$VIEWCTR
 10
22.0
 20
17.0
  9
$VIEWSIZE
 40
34.0
  9
$CLAYER
  8
0
  9
$LTSCALE
 40
2.42
  9
$CELTYPE
  6
BYLAYER
  9
$DIMSCALE
 40
1.0
  9
$DIMASZ
 40
0.1875
  9
$DIMEXO
 40
0.0625
  9
$DIMDLI
 40
1.672
  9
$DIMEXE
 40
0.125
  9
$DIMCEN
 40
0.396
  9
$DIMLFAC
 40
1.0
  9
$DIMBLK
  1
_ARROW_FILLED
  9
$DIMALT
 70
0
  9
$DIMALTF
 40
25.4
  9
$DIMTXT
 40
0.15625
  9
$DIMTOL
 70
1
  9
$DIMLIM
 70
0
  9
$DIMTFAC
 40
1.0
  9
$DIMTP
 40
0.01
  9
$DIMTM
 40
0.01
  9
$DIMGAP
 40
0.09
  9
$AUNITS
 70
0
  9
$PDMODE
 70
3
  9
$PDSIZE
 40
0.3125
  9
$HANDSEED
  5
357
  9
$TILEMODE
 70
1
  9
$MEASUREMENT
 70
0
  0
ENDSEC
  0
SECTION
  2
CLASSES
  0
ENDSEC
  0
SECTION
  2
TABLES
  0
TABLE
  2
VPORT
  5
8
100
AcDbSymbolTable
 70
2
  0
VPORT
  5
1F4
100
AcDbSymbolTableRecord
100
AcDbViewportTableRecord
  2
*ACTIVE
 70
0
 10
0.0
 20
0.0
 11
1.0
 21
1.0
 12
22.0
 22
17.0
 13
0.0
 23
0.0
 14
1.0
 24
1.0
 15
0.0
 25
0.0
 16
0.0
 26
0.0
 36
1.0
 17
0.0
 27
0.0
 37
0.0
 40
34.0
 41
1.2941176471
 42
50.0
 43
0.0
 44
0.0
 50
0.0
 51
0.0
 71
0
 72
100
 73
1
 74
1
 75
0
 76
0
 77
0
 78
0
  0
ENDTAB
  0
TABLE
  2
LTYPE
  5
5
100
AcDbSymbolTable
 70
6
  0
LTYPE
  5
14
100
AcDbSymbolTableRecord
100
AcDbLinetypeTableRecord
  2
BYBLOCK
 70
0
  3

 72
65
 73
0
 40
0.0
  0
LTYPE
  5
15
100
AcDbSymbolTableRecord
100
AcDbLinetypeTableRecord
  2
BYLAYER
 70
0
  3

 72
65
 73
0
 40
0.0
  0
LTYPE
  5
16
100
AcDbSymbolTableRecord
100
AcDbLinetypeTableRecord
  2
CONTINUOUS
 70
64
  3
Solid line
 72
65
 73
0
 40
0.0
  0
LTYPE
  5
1F5
100
AcDbSymbolTableRecord
100
AcDbLinetypeTableRecord
  2
CENTER
 70
64
  3
____ _ ____ _ ____ _ ____ _ ____ _ ____ _ ____
 72
65
 73
4
 40
0.6
 49
0.375
 74
0
 49
-0.075
 74
0
 49
0.075
 74
0
 49
-0.075
 74
0
  0
LTYPE
  5
1F6
100
AcDbSymbolTableRecord
100
AcDbLinetypeTableRecord
  2
HIDDEN
 70
64
  3
- - - - - - - - - - - - - - - - - - - -
 72
65
 73
2
 40
0.2
 49
0.1
 74
0
 49
-0.1
 74
0
  0
LTYPE
  5
1F7
100
AcDbSymbolTableRecord
100
AcDbLinetypeTableRecord
  2
PHANTOM
 70
64
  3
_____ _ _ _____ _ _ _____ _ _ _____
 72
65
 73
6
 40
0.8
 49
0.45
 74
0
 49
-0.05
 74
0
 49
0.1
 74
0
 49
-0.05
 74
0
 49
0.1
 74
0
 49
-0.05
 74
0
  0
LTYPE
  5
1F8
100
AcDbSymbolTableRecord
100
AcDbLinetypeTableRecord
  2
DOT
 70
64
  3
. . . . . . . . . . . . . . . . . . . .
 72
65
 73
2
 40
0.2
 49
0.1
 74
0
 49
-0.1
 74
0
  0
LTYPE
  5
1F9
100
AcDbSymbolTableRecord
100
AcDbLinetypeTableRecord
  2
DASHED
 70
64
  3
- - - - - - - - - - - - - - - - - - - -
 72
65
 73
2
 40
0.2
 49
0.1
 74
0
 49
-0.1
 74
0
  0
ENDTAB
  0
TABLE
  2
LAYER
  5
2
100
AcDbSymbolTable
 70
36
  0
LAYER
  5
10
100
AcDbSymbolTableRecord
100
AcDbLayerTableRecord
  2
0
 70
0
 62
7
  6
CONTINUOUS
  0
LAYER
  5
1FA
100
AcDbSymbolTableRecord
100
AcDbLayerTableRecord
  2
DEFAULT_1
 70
0
 62
7
  6
CENTER
  0
LAYER
  5
1FB
100
AcDbSymbolTableRecord
100
AcDbLayerTableRecord
  2
DEFAULT_2
 70
0
 62
8
  6
HIDDEN
  0
LAYER
  5
1FC
100
AcDbSymbolTableRecord
100
AcDbLayerTableRecord
  2
DEFAULT_3
 70
0
 62
7
  6
PHANTOM
  0
LAYER
  5
1FD
100
AcDbSymbolTableRecord
100
AcDbLayerTableRecord
  2
DATUMS
 70
0
 62
7
  6
CONTINUOUS
  0
LAYER
  5
1FE
100
AcDbSymbolTableRecord
100
AcDbLayerTableRecord
  2
DATUM_AXIS
 70
0
 62
7
  6
CONTINUOUS
  0
LAYER
  5
1FF
100
AcDbSymbolTableRecord
100
AcDbLayerTableRecord
  2
DATUM_CSYS
 70
0
 62
7
  6
CONTINUOUS
  0
LAYER
  5
200
100
AcDbSymbolTableRecord
100
AcDbLayerTableRecord
  2
DATUM_PLANE
 70
0
 62
7
  6
CONTINUOUS
  0
LAYER
  5
201
100
AcDbSymbolTableRecord
100
AcDbLayerTableRecord
  2
DATUM_POINT
 70
0
 62
7
  6
CONTINUOUS
  0
LAYER
  5
202
100
AcDbSymbolTableRecord
100
AcDbLayerTableRecord
  2
_CURVE
 70
0
 62
7
  6
CONTINUOUS
  0
LAYER
  5
203
100
AcDbSymbolTableRecord
100
AcDbLayerTableRecord
  2
_SURFACE
 70
0
 62
7
  6
CONTINUOUS
  0
LAYER
  5
204
100
AcDbSymbolTableRecord
100
AcDbLayerTableRecord
  2
__REF_CURVE
 70
0
 62
7
  6
CONTINUOUS
  0
LAYER
  5
205
100
AcDbSymbolTableRecord
100
AcDbLayerTableRecord
  2
__REF_SURFACE
 70
0
 62
7
  6
CONTINUOUS
  0
LAYER
  5
206
100
AcDbSymbolTableRecord
100
AcDbLayerTableRecord
  2
___NOTE
 70
0
 62
7
  6
CONTINUOUS
  0
LAYER
  5
207
100
AcDbSymbolTableRecord
100
AcDbLayerTableRecord
  2
___SYMBOL
 70
0
 62
7
  6
CONTINUOUS
  0
ENDTAB
  0
TABLE
  2
STYLE
  5
3
100
AcDbSymbolTable
 70
1
  0
STYLE
  5
11
100
AcDbSymbolTableRecord
100
AcDbTextStyleTableRecord
  2
STANDARD
 70
0
 40
0.0
 41
0.8
 50
0.0
 71
0
 42
0.2
  3
txt
  4

  0
STYLE
  5
208
100
AcDbSymbolTableRecord
100
AcDbTextStyleTableRecord
  2
TEXTSTYLE_1
 70
0
 40
0.0
 41
0.8
 50
0.0
 71
0
 42
0.2
  3
gdt
  4

  0
STYLE
  5
209
100
AcDbSymbolTableRecord
100
AcDbTextStyleTableRecord
  2
TEXTSTYLE_2
 70
0
 40
0.0
 41
1.0
 50
0.0
 71
0
 42
0.2
  3
txt
  4

  0
ENDTAB
  0
TABLE
  2
VIEW
  5
6
100
AcDbSymbolTable
 70
0
  0
ENDTAB
  0
TABLE
  2
UCS
  5
7
100
AcDbSymbolTable
 70
0
  0
ENDTAB
  0
TABLE
  2
APPID
  5
9
100
AcDbSymbolTable
 70
1
  0
APPID
  5
20A
100
AcDbSymbolTableRecord
100
AcDbRegAppTableRecord
  2
ACAD
 70
0
  0
ENDTAB
  0
TABLE
  2
BLOCK_RECORD
  5
1
100
AcDbSymbolTable
 70
0
  0
BLOCK_RECORD
  5
1F
100
AcDbSymbolTableRecord
100
AcDbBlockTableRecord
  2
*MODEL_SPACE
  0
BLOCK_RECORD
  5
1B
100
AcDbSymbolTableRecord
100
AcDbBlockTableRecord
  2
*PAPER_SPACE
  0
BLOCK_RECORD
  5
20B
100
AcDbSymbolTableRecord
100
AcDbBlockTableRecord
  2
_ARROW_FILLED
  0
BLOCK_RECORD
  5
20C
100
AcDbSymbolTableRecord
100
AcDbBlockTableRecord
  2
*D0
  0
BLOCK_RECORD
  5
20D
100
AcDbSymbolTableRecord
100
AcDbBlockTableRecord
  2
*D1
  0
BLOCK_RECORD
  5
20E
100
AcDbSymbolTableRecord
100
AcDbBlockTableRecord
  2
*D2
  0
BLOCK_RECORD
  5
20F
100
AcDbSymbolTableRecord
100
AcDbBlockTableRecord
  2
WHEN_PLOTTING_TEMPLATE_N_BL4
  0
BLOCK_RECORD
  5
210
100
AcDbSymbolTableRecord
100
AcDbBlockTableRecord
  2
TEMPLATE_NUMBER_BL3
  0
BLOCK_RECORD
  5
211
100
AcDbSymbolTableRecord
100
AcDbBlockTableRecord
  2
TEMPLATE_NUMBER_BL2
  0
BLOCK_RECORD
  5
212
100
AcDbSymbolTableRecord
100
AcDbBlockTableRecord
  2
COPYRIGHT_YEAR_BL1
  0
BLOCK_RECORD
  5
213
100
AcDbSymbolTableRecord
100
AcDbBlockTableRecord
  2
SCISSORS_BL0
  0
ENDTAB
  0
TABLE
  2
DIMSTYLE
  5
A
100
AcDbSymbolTable
 70
1
  0
DIMSTYLE
105
214
100
AcDbSymbolTableRecord
100
AcDbDimStyleTableRecord
  2
STANDARD
 70
0
  3

  4

  5
_ARROW_FILLED
  6
_ARROW_FILLED
  7
_ARROW_FILLED
 40
1.0
 41
0.1875
 42
0.0625
 43
0.38
 44
0.125
 45
0.0
 46
0.0
 47
0.01
 48
0.01
140
0.15625
141
0.09
142
0.0
143
25.4
144
1.0
145
0.0
146
1.0
147
0.09
 71
1.0
 72
0.0
 73
1
 74
1
 75
0
 76
0
 77
0
 78
4
170
0
171
2
172
0
173
0
174
0
175
0
176
0
177
0
178
0
270
2
271
3
272
3
273
2
274
2
275
0
280
0
281
0
282
0
283
1
284
4
285
0
286
0
287
3
288
0
340
11
  0
DIMSTYLE
105
215
100
AcDbSymbolTableRecord
100
AcDbDimStyleTableRecord
  2
DIMSTYLE_1
 70
0
  3

  4

  5
_ARROW_FILLED
  6
_ARROW_FILLED
  7
_ARROW_FILLED
 40
1.0
 41
0.1875
 42
0.0625
 43
0.38
 44
0.125
 45
0.0
 46
0.0
 47
0.0000000001
 48
0.0000000001
140
0.15625
141
0.09
142
0.0
143
25.4
144
1.0
145
0.0
146
1.0
147
0.078125
 71
0.0
 72
0.0
 73
1
 74
1
 75
0
 76
0
 77
0
 78
4
170
0
171
2
172
0
173
0
174
0
175
0
176
0
177
0
178
0
270
2
271
4
272
4
273
2
274
2
275
0
280
0
281
0
282
0
283
1
284
4
285
0
286
0
287
3
288
0
340
11
  0
DIMSTYLE
105
216
100
AcDbSymbolTableRecord
100
AcDbDimStyleTableRecord
  2
DIMSTYLE_2
 70
0
  3

  4

  5
_ARROW_FILLED
  6
_ARROW_FILLED
  7
_ARROW_FILLED
 40
1.0
 41
0.1875
 42
0.0625
 43
0.38
 44
0.125
 45
0.0
 46
0.0
 47
0.0625
 48
0.0625
140
0.15625
141
0.09
142
0.0
143
25.4
144
1.0
145
0.0
146
1.0
147
0.078125
 71
0.0
 72
0.0
 73
1
 74
1
 75
0
 76
0
 77
0
 78
4
170
0
171
2
172
0
173
0
174
0
175
0
176
0
177
0
178
0
270
2
271
4
272
4
273
2
274
2
275
0
280
0
281
0
282
0
283
1
284
4
285
0
286
0
287
3
288
0
340
11
  0
ENDTAB
  0
ENDSEC
  0
SECTION
  2
BLOCKS
  0
BLOCK
  5
20
100
AcDbEntity
  8
0
100
AcDbBlockBegin
  2
*MODEL_SPACE
 70
0
 10
0.0
 20
0.0
 30
0.0
  3
*MODEL_SPACE
  1

  0
ENDBLK
  5
21
100
AcDbEntity
  8
0
100
AcDbBlockEnd
  0
BLOCK
  5
1C
100
AcDbEntity
  8
0
100
AcDbBlockBegin
  2
*PAPER_SPACE
 70
0
 10
0.0
 20
0.0
 30
0.0
  3
*PAPER_SPACE
  1

  0
ENDBLK
  5
1D
100
AcDbEntity
  8
0
100
AcDbBlockEnd
  0
BLOCK
  5
217
100
AcDbEntity
  8
___SYMBOL
100
AcDbBlockBegin
 62
2
  6
CONTINUOUS
  2
WHEN_PLOTTING_TEMPLATE_N_BL4
 70
64
 10
13.3666771582
 20
14.1498850408
  3
WHEN_PLOTTING_TEMPLATE_N_BL4
  1

  0
TEXT
  5
218
100
AcDbEntity
  8
___SYMBOL
100
AcDbText
 62
2
  6
CONTINUOUS
 10
10.0541769258
 20
15.3608226258
  7
STANDARD
 40
0.156250011
  1
WHEN PLOTTING TEMPLATE FULL SIZE:
 41
0.8
 72
0
100
AcDbText
  0
TEXT
  5
219
100
AcDbEntity
  8
___SYMBOL
100
AcDbText
 62
2
  6
CONTINUOUS
 10
10.0541769258
 20
15.1264476093
  7
STANDARD
 40
0.156250011
  1
Make sure horizontal and vertical dimensions
 41
0.8
 72
0
100
AcDbText
  0
TEXT
  5
21A
100
AcDbEntity
  8
___SYMBOL
100
AcDbText
 62
2
  6
CONTINUOUS
 10
10.0541769258
 20
14.8920725929
  7
STANDARD
 40
0.156250011
  1
match the dimensions labeled on the template.
 41
0.8
 72
0
100
AcDbText
  0
TEXT
  5
21B
100
AcDbEntity
  8
___SYMBOL
100
AcDbText
 62
2
  6
CONTINUOUS
 10
10.0541769258
 20
14.6576975764
  7
STANDARD
 40
0.156250011
  1
 
 41
0.8
 72
0
100
AcDbText
  0
TEXT
  5
21C
100
AcDbEntity
  8
___SYMBOL
100
AcDbText
 62
2
  6
CONTINUOUS
 10
10.0541769258
 20
14.42332256
  7
STANDARD
 40
0.156250011
  1
AL TRAZAR LA PLANTILLA A ESCALA,
 41
0.8
 72
0
100
AcDbText
  0
TEXT
  5
21D
100
AcDbEntity
  8
___SYMBOL
100
AcDbText
 62
2
  6
CONTINUOUS
 10
10.0541769258
 20
14.1889475436
  7
STANDARD
 40
0.156250011
  1
asegúrese de que las dimensiones horizontales
 41
0.8
 72
0
100
AcDbText
  0
TEXT
  5
21E
100
AcDbEntity
  8
___SYMBOL
100
AcDbText
 62
2
  6
CONTINUOUS
 10
10.0541769258
 20
13.9545725271
  7
STANDARD
 40
0.156250011
  1
y verticales concuerden con las dimensiones marcadas
 41
0.8
 72
0
100
AcDbText
  0
TEXT
  5
21F
100
AcDbEntity
  8
___SYMBOL
100
AcDbText
 62
2
  6
CONTINUOUS
 10
10.0541769258
 20
13.7201975107
  7
STANDARD
 40
0.156250011
  1
en la plantilla.
 41
0.8
 72
0
100
AcDbText
  0
TEXT
  5
220
100
AcDbEntity
  8
___SYMBOL
100
AcDbText
 62
2
  6
CONTINUOUS
 10
10.0541769258
 20
13.4858224942
  7
STANDARD
 40
0.156250011
  1
 
 41
0.8
 72
0
100
AcDbText
  0
TEXT
  5
221
100
AcDbEntity
  8
___SYMBOL
100
AcDbText
 62
2
  6
CONTINUOUS
 10
10.0541769258
 20
13.2514474778
  7
STANDARD
 40
0.156250011
  1
AU MOMENT DE TRACER LA DÉCOUPE À L'ÉCHELLE,
 41
0.8
 72
0
100
AcDbText
  0
TEXT
  5
222
100
AcDbEntity
  8
___SYMBOL
100
AcDbText
 62
2
  6
CONTINUOUS
 10
10.0541769258
 20
13.0170724613
  7
STANDARD
 40
0.156250011
  1
Assurez vos que les dimensions horizotales et
 41
0.8
 72
0
100
AcDbText
  0
TEXT
  5
223
100
AcDbEntity
  8
___SYMBOL
100
AcDbText
 62
2
  6
CONTINUOUS
 10
10.0541769258
 20
12.7826974449
  7
STANDARD
 40
0.156250011
  1
verticales correspondent avec les dimensions du plan.
 41
0.8
 72
0
100
AcDbText
  0
ENDBLK
  5
224
100
AcDbEntity
  8
0
  6
BYBLOCK
 62
0
100
AcDbBlockEnd
  0
BLOCK
  5
225
100
AcDbEntity
  8
___SYMBOL
100
AcDbBlockBegin
 62
2
  6
CONTINUOUS
  2
TEMPLATE_NUMBER_BL3
 70
64
 10
11.4256126068
 20
8.8179173456
  3
TEMPLATE_NUMBER_BL3
  1

  0
TEXT
  5
226
100
AcDbEntity
  8
___SYMBOL
100
AcDbText
 62
2
  6
CONTINUOUS
 10
10.7381126068
 20
8.7397923456
  7
STANDARD
 40
0.15625
  1
1315847-7
 41
0.8
 72
0
100
AcDbText
  0
TEXT
  5
227
100
AcDbEntity
  8
___SYMBOL
100
AcDbText
 62
2
  6
CONTINUOUS
 10
11.8631126068
 20
8.7397923456
  7
STANDARD
 40
0.15625
  1
-A
 41
0.8
 72
0
100
AcDbText
  0
ENDBLK
  5
228
100
AcDbEntity
  8
0
  6
BYBLOCK
 62
0
100
AcDbBlockEnd
  0
BLOCK
  5
229
100
AcDbEntity
  8
___SYMBOL
100
AcDbBlockBegin
 62
2
  6
CONTINUOUS
  2
TEMPLATE_NUMBER_BL2
 70
64
 10
11.3829021156
 20
10.3196355922
  3
TEMPLATE_NUMBER_BL2
  1

  0
TEXT
  5
22A
100
AcDbEntity
  8
___SYMBOL
100
AcDbText
 62
2
  6
CONTINUOUS
 10
10.6954021156
 20
10.2415105922
  7
STANDARD
 40
0.15625
  1
1315847-7
 41
0.8
 72
0
100
AcDbText
  0
TEXT
  5
22B
100
AcDbEntity
  8
___SYMBOL
100
AcDbText
 62
2
  6
CONTINUOUS
 10
11.8204021156
 20
10.2415105922
  7
STANDARD
 40
0.15625
  1
-A
 41
0.8
 72
0
100
AcDbText
  0
ENDBLK
  5
22C
100
AcDbEntity
  8
0
  6
BYBLOCK
 62
0
100
AcDbBlockEnd
  0
BLOCK
  5
22D
100
AcDbEntity
  8
___SYMBOL
100
AcDbBlockBegin
 62
2
  6
CONTINUOUS
  2
COPYRIGHT_YEAR_BL1
 70
64
 10
29.4983514796
 20
10.3884523336
  3
COPYRIGHT_YEAR_BL1
  1

  0
TEXT
  5
22E
100
AcDbEntity
  8
___SYMBOL
100
AcDbText
 62
2
  6
CONTINUOUS
 10
28.7163635077
 20
10.3083644072
  7
STANDARD
 40
0.1562499562
  1
2017 KOHLER CO.
 41
0.8
 72
0
100
AcDbText
  0
TEXT
  5
22F
100
AcDbEntity
  8
___SYMBOL
100
AcDbText
 62
7
  6
CONTINUOUS
 10
28.4590415808
 20
10.3106931565
  7
TEXTSTYLE_2
 40
0.1562499562
  1
C
 41
1.0
 72
0
100
AcDbText
  0
CIRCLE
  5
230
100
AcDbEntity
  8
___SYMBOL
100
AcDbCircle
 62
7
  6
CONTINUOUS
 10
28.5376969769
 20
10.3884523336
 40
0.132357
  0
ENDBLK
  5
231
100
AcDbEntity
  8
0
  6
BYBLOCK
 62
0
100
AcDbBlockEnd
  0
BLOCK
  5
232
100
AcDbEntity
  8
___SYMBOL
100
AcDbBlockBegin
 62
2
  6
CONTINUOUS
  2
SCISSORS_BL0
 70
64
 10
36.5885453662
 20
14.5739146761
  3
SCISSORS_BL0
  1

  0
LINE
  5
233
100
AcDbEntity
  8
___SYMBOL
100
AcDbLine
 62
7
  6
CONTINUOUS
 10
36.5501178551
 20
14.6150470233
 11
36.4753980063
 21
14.9841525578
  0
LINE
  5
234
100
AcDbEntity
  8
___SYMBOL
100
AcDbLine
 62
7
  6
CONTINUOUS
 10
36.517864749
 20
14.5953796397
 11
36.4753980063
 21
14.9841525578
  0
LINE
  5
235
100
AcDbEntity
  8
___SYMBOL
100
AcDbLine
 62
7
  6
CONTINUOUS
 10
36.5682925919
 20
14.5512576953
 11
36.567247516
 21
14.5851599666
  0
LINE
  5
236
100
AcDbEntity
  8
___SYMBOL
100
AcDbLine
 62
7
  6
CONTINUOUS
 10
36.5781659835
 20
14.5856132928
 11
36.5792182506
 21
14.551477739
  0
LINE
  5
237
100
AcDbEntity
  8
___SYMBOL
100
AcDbLine
 62
7
  6
CONTINUOUS
 10
36.5742205949
 20
14.7038595927
 11
36.6993635213
 21
14.9776622371
  0
LINE
  5
238
100
AcDbEntity
  8
___SYMBOL
100
AcDbLine
 62
7
  6
CONTINUOUS
 10
36.498148047
 20
14.5316795257
 11
36.5198341096
 21
14.5726212376
  0
LINE
  5
239
100
AcDbEntity
  8
___SYMBOL
100
AcDbLine
 62
7
  6
CONTINUOUS
 10
36.6189854252
 20
14.5768919914
 11
36.6993635213
 21
14.8340177333
  0
LINE
  5
23A
100
AcDbEntity
  8
___SYMBOL
100
AcDbLine
 62
7
  6
CONTINUOUS
 10
36.5994063482
 20
14.6324246142
 11
36.5501178551
 21
14.6150470233
  0
LINE
  5
23B
100
AcDbEntity
  8
___SYMBOL
100
AcDbLine
 62
7
  6
CONTINUOUS
 10
36.6353934411
 20
14.5303535279
 11
36.59720224
 21
14.4381771794
  0
LINE
  5
23C
100
AcDbEntity
  8
___SYMBOL
100
AcDbLine
 62
7
  6
CONTINUOUS
 10
36.5340425557
 20
14.4411849192
 11
36.5634274058
 21
14.4717177205
  0
LINE
  5
23D
100
AcDbEntity
  8
___SYMBOL
100
AcDbLine
 62
7
  6
CONTINUOUS
 10
36.4753980063
 20
14.9841525578
 11
36.6353934411
 21
14.5303535279
  0
LINE
  5
23E
100
AcDbEntity
  8
___SYMBOL
100
AcDbLine
 62
7
  6
CONTINUOUS
 10
36.5340425557
 20
14.4411849192
 11
36.498148047
 21
14.5316795257
  0
ARC
  5
23F
100
AcDbEntity
  8
___SYMBOL
100
AcDbCircle
 62
7
  6
CONTINUOUS
 10
36.4696075217
 20
14.9058399852
 40
0.2407202841
100
AcDbArc
 50
342.6406360869
 51
17.3593639131
  0
ARC
  5
240
100
AcDbEntity
  8
___SYMBOL
100
AcDbCircle
 62
7
  6
CONTINUOUS
 10
36.7262993947
 20
14.6019517782
 40
0.2085382328
100
AcDbArc
 50
181.8059909349
 51
231.752660067
  0
CIRCLE
  5
241
100
AcDbEntity
  8
___SYMBOL
100
AcDbCircle
 62
7
  6
CONTINUOUS
 10
36.5734127366
 20
14.568382773
 40
0.0178741201
  0
ARC
  5
242
100
AcDbEntity
  8
___SYMBOL
100
AcDbCircle
 62
7
  6
CONTINUOUS
 10
36.6797179435
 20
14.3201710414
 40
0.0097392375
100
AcDbArc
 50
185.3133793157
 51
314.0675041521
  0
ARC
  5
243
100
AcDbEntity
  8
___SYMBOL
100
AcDbCircle
 62
7
  6
CONTINUOUS
 10
36.4566102135
 20
14.3151573286
 40
0.0097391571
100
AcDbArc
 50
233.3109272841
 51
359.4467240969
  0
SPLINE
  5
244
100
AcDbEntity
  8
___SYMBOL
100
AcDbSpline
 62
7
  6
CONTINUOUS
 70
0
 71
3
 72
12
 73
8
 74
0
 42
0.0000001
 43
0.0000001
 44
0.0000000001
 40
0.0
 40
0.0
 40
0.0
 40
0.0
 40
0.4884256058
 40
0.6683914397
 40
0.8669439281
 40
0.9099489479
 40
1.0
 40
1.0
 40
1.0
 40
1.0
 10
36.6545551915
 20
14.1636767944
 30
0.0
 10
36.639069626
 20
14.2090389861
 30
0.0
 10
36.6357564645
 20
14.2763886304
 30
0.0
 10
36.6368173569
 20
14.3609709141
 30
0.0
 10
36.6335613633
 20
14.4028492565
 30
0.0
 10
36.6211976963
 20
14.4334439655
 30
0.0
 10
36.6059140928
 20
14.4396611009
 30
0.0
 10
36.59720224
 20
14.4381771794
 30
0.0
  0
SPLINE
  5
245
100
AcDbEntity
  8
___SYMBOL
100
AcDbSpline
 62
7
  6
CONTINUOUS
 70
0
 71
3
 72
14
 73
10
 74
0
 42
0.0000001
 43
0.0000001
 44
0.0000000001
 40
0.0
 40
0.0
 40
0.0
 40
0.0
 40
0.0469735811
 40
0.2606095073
 40
0.5805460666
 40
0.7382389988
 40
0.8401572415
 40
0.925087268
 40
1.0
 40
1.0
 40
1.0
 40
1.0
 10
36.6700205546
 20
14.3192691578
 30
0.0
 10
36.669704286
 20
14.322669796
 30
0.0
 10
36.6683986279
 20
14.341608761
 30
0.0
 10
36.6701879943
 20
14.3833025573
 30
0.0
 10
36.6740828488
 20
14.4362915629
 30
0.0
 10
36.6514478332
 20
14.4725576909
 30
0.0
 10
36.6374256624
 20
14.493931641
 30
0.0
 10
36.6363033676
 20
14.5133852072
 30
0.0
 10
36.6362145457
 20
14.5249690871
 30
0.0
 10
36.6353934411
 20
14.5303535279
 30
0.0
  0
SPLINE
  5
246
100
AcDbEntity
  8
___SYMBOL
100
AcDbSpline
 62
7
  6
CONTINUOUS
 70
0
 71
3
 72
12
 73
8
 74
0
 42
0.0000001
 43
0.0000001
 44
0.0000000001
 40
0.0
 40
0.0
 40
0.0
 40
0.0
 40
0.2870411994
 40
0.5613888029
 40
0.7613462239
 40
0.9013972407
 40
1.0
 40
1.0
 40
1.0
 40
1.0
 10
36.4949338617
 20
14.18944785
 30
0.0
 10
36.5010681879
 20
14.213905947
 30
0.0
 10
36.5036083149
 20
14.263702271
 30
0.0
 10
36.499410714
 20
14.3308072335
 30
0.0
 10
36.5044664767
 20
14.3837033574
 30
0.0
 10
36.5071838302
 20
14.4242908046
 30
0.0
 10
36.5257195541
 20
14.4387856015
 30
0.0
 10
36.5340425557
 20
14.4411849192
 30
0.0
  0
SPLINE
  5
247
100
AcDbEntity
  8
___SYMBOL
100
AcDbSpline
 62
7
  6
CONTINUOUS
 70
0
 71
3
 72
13
 73
9
 74
0
 42
0.0000001
 43
0.0000001
 44
0.0000000001
 40
0.0
 40
0.0
 40
0.0
 40
0.0
 40
0.0902051637
 40
0.4170421866
 40
0.6587388922
 40
0.9356437381
 40
0.9595034934
 40
1.0
 40
1.0
 40
1.0
 40
1.0
 10
36.4663489166
 20
14.315063284
 30
0.0
 10
36.4664131468
 20
14.3217145884
 30
0.0
 10
36.4662232771
 20
14.3524215995
 30
0.0
 10
36.4648085375
 20
14.4015925809
 30
0.0
 10
36.475067188
 20
14.4618415799
 30
0.0
 10
36.5047769164
 20
14.5007518194
 30
0.0
 10
36.4946887662
 20
14.5240615496
 30
0.0
 10
36.4959851962
 20
14.5296205855
 30
0.0
 10
36.498148047
 20
14.5316795257
 30
0.0
  0
ELLIPSE
  5
248
100
AcDbEntity
  8
___SYMBOL
100
AcDbEllipse
 62
7
  6
CONTINUOUS
 10
36.7343091521
 20
14.2116878851
 30
0.0
 11
0.0040444517
 21
-0.0825068144
 31
0.0
 40
0.774293327
 41
0.0
 42
6.2831853072
  0
ELLIPSE
  5
249
100
AcDbEntity
  8
___SYMBOL
100
AcDbEllipse
 62
7
  6
CONTINUOUS
 10
36.7343091521
 20
14.2116878851
 30
0.0
 11
-0.0020222258
 21
-0.1229513312
 31
0.0
 40
0.700902774
 41
5.1250505418
 42
10.0362700851
  0
ELLIPSE
  5
24A
100
AcDbEntity
  8
___SYMBOL
100
AcDbEllipse
 62
7
  6
CONTINUOUS
 10
36.4066423277
 20
14.220256746
 30
0.0
 11
0.0101111292
 21
-0.0819001466
 31
0.0
 40
0.7501188416
 41
0.0
 42
6.2831853072
  0
ELLIPSE
  5
24B
100
AcDbEntity
  8
___SYMBOL
100
AcDbEllipse
 62
7
  6
CONTINUOUS
 10
36.4081589971
 20
14.2066067216
 30
0.0
 11
0.0015166694
 21
-0.1157724295
 31
0.0
 40
0.7569683881
 41
2.6163261196
 42
7.6953125801
  0
ENDBLK
  5
24C
100
AcDbEntity
  8
0
  6
BYBLOCK
 62
0
100
AcDbBlockEnd
  0
BLOCK
  5
24D
100
AcDbEntity
  8
0
100
AcDbBlockBegin
  2
_ARROW_FILLED
 70
64
 10
0.0
 20
0.0
  3
_ARROW_FILLED
  1

  0
SOLID
  5
24E
100
AcDbEntity
  8
0
  6
BYBLOCK
 62
0
100
AcDbTrace
 10
0.0
 20
0.0
 11
-1.0
 21
0.1666666667
 12
-1.0
 22
-0.1666666667
 13
-1.0
 23
-0.1666666667
  0
ENDBLK
  5
24F
100
AcDbEntity
  8
0
  6
BYBLOCK
 62
0
100
AcDbBlockEnd
  0
BLOCK
  5
250
100
AcDbEntity
  8
0
100
AcDbBlockBegin
 62
2
  6
CONTINUOUS
  2
*D0
 70
65
 10
0.0
 20
0.0
  3
*D0
  1

  0
MTEXT
  5
251
100
AcDbEntity
  8
0
100
AcDbMText
 62
2
  6
CONTINUOUS
  7
STANDARD
 71
2
 72
1
 10
17.2576088235
 20
21.125455543
 30
0.0
 11
1.0
 21
0.0
 31
0.0
  1
18-7/16\P[46.8]
 40
0.15625
 41
0.875
  0
LINE
  5
252
100
AcDbEntity
  8
0
100
AcDbLine
 62
2
  6
CONTINUOUS
 10
17.2576088235
 20
28.540708913
 11
17.2576088235
 21
21.203580543
  0
LINE
  5
253
100
AcDbEntity
  8
0
100
AcDbLine
 62
2
  6
CONTINUOUS
 10
17.2576088235
 20
10.0797381974
 11
17.2576088235
 21
20.656705543
  0
INSERT
  5
254
100
AcDbEntity
  8
0
100
AcDbBlockReference
 62
2
  6
CONTINUOUS
  2
_ARROW_FILLED
 10
17.2576088235
 20
28.540708913
 41
0.1875
 42
0.1875
 43
0.1875
 50
90.0
  0
INSERT
  5
255
100
AcDbEntity
  8
0
100
AcDbBlockReference
 62
2
  6
CONTINUOUS
  2
_ARROW_FILLED
 10
17.2576088235
 20
10.0797381974
 41
0.1875
 42
0.1875
 43
0.1875
 50
270.0
  0
ENDBLK
  5
256
100
AcDbEntity
  8
0
  6
BYBLOCK
 62
0
100
AcDbBlockEnd
  0
BLOCK
  5
257
100
AcDbEntity
  8
0
100
AcDbBlockBegin
 62
2
  6
CONTINUOUS
  2
*D1
 70
65
 10
0.0
 20
0.0
  3
*D1
  1

  0
MTEXT
  5
258
100
AcDbEntity
  8
0
100
AcDbMText
 62
2
  6
CONTINUOUS
  7
STANDARD
 71
2
 72
1
 10
27.2615587817
 20
18.0133485268
 30
0.0
 11
1.0
 21
0.0
 31
0.0
  1
15-11/16\P[38.9]
 40
0.15625
 41
1.0
  0
LINE
  5
259
100
AcDbEntity
  8
0
100
AcDbLine
 62
2
  6
CONTINUOUS
 10
27.483394676
 20
25.7907088563
 11
27.1365587817
 21
25.7907088563
  0
LINE
  5
25A
100
AcDbEntity
  8
0
100
AcDbLine
 62
2
  6
CONTINUOUS
 10
27.5293410533
 20
10.0797381974
 11
27.1365587817
 21
10.0797381974
  0
LINE
  5
25B
100
AcDbEntity
  8
0
100
AcDbLine
 62
2
  6
CONTINUOUS
 10
27.2615587817
 20
25.7907088563
 11
27.2615587817
 21
18.0914735268
  0
LINE
  5
25C
100
AcDbEntity
  8
0
100
AcDbLine
 62
2
  6
CONTINUOUS
 10
27.2615587817
 20
10.0797381974
 11
27.2615587817
 21
17.5445985268
  0
INSERT
  5
25D
100
AcDbEntity
  8
0
100
AcDbBlockReference
 62
2
  6
CONTINUOUS
  2
_ARROW_FILLED
 10
27.2615587817
 20
25.7907088563
 41
0.1875
 42
0.1875
 43
0.1875
 50
90.0
  0
INSERT
  5
25E
100
AcDbEntity
  8
0
100
AcDbBlockReference
 62
2
  6
CONTINUOUS
  2
_ARROW_FILLED
 10
27.2615587817
 20
10.0797381974
 41
0.1875
 42
0.1875
 43
0.1875
 50
270.0
  0
ENDBLK
  5
25F
100
AcDbEntity
  8
0
  6
BYBLOCK
 62
0
100
AcDbBlockEnd
  0
BLOCK
  5
260
100
AcDbEntity
  8
0
100
AcDbBlockBegin
 62
2
  6
CONTINUOUS
  2
*D2
 70
65
 10
0.0
 20
0.0
  3
*D2
  1

  0
MTEXT
  5
261
100
AcDbEntity
  8
0
100
AcDbMText
 62
2
  6
CONTINUOUS
  7
STANDARD
 71
2
 72
1
 10
14.3605478847
 20
19.9582367528
 30
0.0
 11
1.0
 21
0.0
 31
0.0
  1
29-7/16\P[74.8]
 40
0.15625
 41
0.875
  0
LINE
  5
262
100
AcDbEntity
  8
0
100
AcDbLine
 62
2
  6
CONTINUOUS
 10
7.1741260172
 20
19.5927235455
 11
7.1741260172
 21
20.0051117528
  0
LINE
  5
263
100
AcDbEntity
  8
0
100
AcDbLine
 62
2
  6
CONTINUOUS
 10
36.620144606
 20
19.6050985455
 11
36.620144606
 21
20.0051117528
  0
LINE
  5
264
100
AcDbEntity
  8
0
100
AcDbLine
 62
2
  6
CONTINUOUS
 10
7.1741260172
 20
19.8801117528
 11
13.8449228847
 21
19.8801117528
  0
LINE
  5
265
100
AcDbEntity
  8
0
100
AcDbLine
 62
2
  6
CONTINUOUS
 10
36.620144606
 20
19.8801117528
 11
14.8761728847
 21
19.8801117528
  0
INSERT
  5
266
100
AcDbEntity
  8
0
100
AcDbBlockReference
 62
2
  6
CONTINUOUS
  2
_ARROW_FILLED
 10
7.1741260172
 20
19.8801117528
 41
0.1875
 42
0.1875
 43
0.1875
 50
180.0
  0
INSERT
  5
267
100
AcDbEntity
  8
0
100
AcDbBlockReference
 62
2
  6
CONTINUOUS
  2
_ARROW_FILLED
 10
36.620144606
 20
19.8801117528
 41
0.1875
 42
0.1875
 43
0.1875
  0
ENDBLK
  5
268
100
AcDbEntity
  8
0
  6
BYBLOCK
 62
0
100
AcDbBlockEnd
  0
ENDSEC
  0
SECTION
  2
ENTITIES
  0
SPLINE
  5
269
100
AcDbEntity
  8
0
100
AcDbSpline
 62
2
  6
CONTINUOUS
 70
0
 71
1
 72
7
 73
5
 74
0
 42
0.0000001
 43
0.0000001
 44
0.0000000001
 40
0.0
 40
0.0
 40
0.6323375
 40
4.1135388889
 40
4.7458763889
 40
8.2270777778
 40
8.2270777778
 10
9.1285733643
 20
25.6942584775
 30
0.0
 10
9.1285733643
 20
26.3265959775
 30
0.0
 10
12.6097747532
 20
26.3265959775
 30
0.0
 10
12.6097747532
 20
25.6942584775
 30
0.0
 10
9.1285733643
 20
25.6942584775
 30
0.0
  0
SPLINE
  5
26A
100
AcDbEntity
  8
0
100
AcDbSpline
 62
2
  6
CONTINUOUS
 70
0
 71
1
 72
11
 73
9
 74
0
 42
0.0000001
 43
0.0000001
 44
0.0000000001
 40
0.0
 40
0.0
 40
0.1134275086
 40
0.1216747308
 40
0.1564300811
 40
0.1991078933
 40
0.2343111597
 40
0.2421375485
 40
0.3533508685
 40
0.3556574216
 40
0.3556574216
 10
11.2800428087
 20
25.671077922
 30
0.0
 10
11.3225303087
 20
25.5659084775
 30
0.0
 10
11.3142830865
 20
25.5659084775
 30
0.0
 10
11.3015747532
 20
25.5982570886
 30
0.0
 10
11.2588969754
 20
25.5983112553
 30
0.0
 10
11.2451372532
 20
25.5659084775
 30
0.0
 10
11.2373108643
 20
25.5659084775
 30
0.0
 10
11.2792219754
 20
25.6689223664
 30
0.0
 10
11.2800428087
 20
25.671077922
 30
0.0
  0
SPLINE
  5
26B
100
AcDbEntity
  8
0
100
AcDbSpline
 62
2
  6
CONTINUOUS
 70
0
 71
1
 72
11
 73
9
 74
0
 42
0.0000001
 43
0.0000001
 44
0.0000000001
 40
0.0
 40
0.0
 40
0.11343011
 40
0.1213787211
 40
0.1562542199
 40
0.1988986988
 40
0.2341150074
 40
0.2419275074
 40
0.3531303621
 40
0.3554489868
 40
0.3554489868
 10
12.3874303087
 20
25.671077922
 30
0.0
 10
12.4299247532
 20
25.5659084775
 30
0.0
 10
12.4219761421
 20
25.5659084775
 30
0.0
 10
12.4089428087
 20
25.5982570886
 30
0.0
 10
12.3662983643
 20
25.5983112553
 30
0.0
 10
12.3525053087
 20
25.5659084775
 30
0.0
 10
12.3446928087
 20
25.5659084775
 30
0.0
 10
12.3865761421
 20
25.6689223664
 30
0.0
 10
12.3874303087
 20
25.671077922
 30
0.0
  0
SPLINE
  5
26C
100
AcDbEntity
  8
0
100
AcDbSpline
 62
2
  6
CONTINUOUS
 70
0
 71
3
 72
23
 73
19
 74
0
 42
0.0000001
 43
0.0000001
 44
0.0000000001
 40
0.0381944444
 40
0.0381944444
 40
0.0381944444
 40
0.0381944444
 40
0.0486388889
 40
0.0486388889
 40
0.0486388889
 40
1.0486388889
 40
1.0486388889
 40
1.0486388889
 40
2.0486388889
 40
2.0486388889
 40
2.0486388889
 40
3.0486388889
 40
3.0486388889
 40
3.0486388889
 40
4.0486388889
 40
4.0486388889
 40
4.0486388889
 40
4.0580652778
 40
4.0580652778
 40
4.0580652778
 40
4.0580652778
 10
12.3200608643
 20
25.6203793109
 30
0.0
 10
12.3235423458
 20
25.6203793109
 30
0.0
 10
12.3270238273
 20
25.6203793109
 30
0.0
 10
12.3305053087
 20
25.6203793109
 30
0.0
 10
12.3371247532
 20
25.6203793109
 30
0.0
 10
12.3425186315
 20
25.6211748875
 30
0.0
 10
12.347215031
 20
25.6255195886
 30
0.0
 10
12.351202531
 20
25.6292084775
 30
0.0
 10
12.3532914199
 20
25.6339556997
 30
0.0
 10
12.3532914199
 20
25.6395709775
 30
0.0
 10
12.3532914199
 20
25.645877922
 30
0.0
 10
12.350517456
 20
25.651461576
 30
0.0
 10
12.3461844754
 20
25.654815422
 30
0.0
 10
12.3413289199
 20
25.6585737553
 30
0.0
 10
12.3347094754
 20
25.6585737553
 30
0.0
 10
12.3294872532
 20
25.6585737553
 30
0.0
 10
12.3263451236
 20
25.6585737553
 30
0.0
 10
12.3232029939
 20
25.6585737553
 30
0.0
 10
12.3200608643
 20
25.6585737553
 30
0.0
  0
SPLINE
  5
26D
100
AcDbEntity
  8
0
100
AcDbSpline
 62
2
  6
CONTINUOUS
 70
0
 71
3
 72
17
 73
13
 74
0
 42
0.0000001
 43
0.0000001
 44
0.0000000001
 40
0.0237625
 40
0.0237625
 40
0.0237625
 40
0.0237625
 40
0.0333111111
 40
0.0333111111
 40
0.0333111111
 40
1.0333111111
 40
1.0333111111
 40
1.0333111111
 40
2.0333111111
 40
2.0333111111
 40
2.0333111111
 40
2.0428597222
 40
2.0428597222
 40
2.0428597222
 40
2.0428597222
 10
11.8992178087
 20
25.613827922
 30
0.0
 10
11.9024006791
 20
25.613827922
 30
0.0
 10
11.9055835495
 20
25.613827922
 30
0.0
 10
11.9087664199
 20
25.613827922
 30
0.0
 10
11.9152622532
 20
25.613827922
 30
0.0
 10
11.9206066976
 20
25.619090422
 30
0.0
 10
11.9206066976
 20
25.6256418109
 30
0.0
 10
11.9206066976
 20
25.6322334775
 30
0.0
 10
11.9152622532
 20
25.637590422
 30
0.0
 10
11.9087664199
 20
25.637590422
 30
0.0
 10
11.9055835495
 20
25.637590422
 30
0.0
 10
11.9024006791
 20
25.637590422
 30
0.0
 10
11.8992178087
 20
25.637590422
 30
0.0
  0
SPLINE
  5
26E
100
AcDbEntity
  8
0
100
AcDbSpline
 62
2
  6
CONTINUOUS
 70
0
 71
3
 72
11
 73
7
 74
0
 42
0.0000001
 43
0.0000001
 44
0.0000000001
 40
0.3382728571
 40
0.3382728571
 40
0.3382728571
 40
0.3382728571
 40
0.380549246
 40
0.380549246
 40
0.380549246
 40
1.380549246
 40
1.380549246
 40
1.380549246
 40
1.380549246
 10
11.8662858643
 20
25.6661681997
 30
0.0
 10
11.8803779939
 20
25.6661681997
 30
0.0
 10
11.8944701236
 20
25.6661681997
 30
0.0
 10
11.9085622532
 20
25.6661681997
 30
0.0
 10
11.9456719754
 20
25.6661681997
 30
0.0
 10
11.9693539199
 20
25.619577922
 30
0.0
 10
11.9285011421
 20
25.5921126442
 30
0.0
  0
SPLINE
  5
26F
100
AcDbEntity
  8
0
100
AcDbSpline
 62
2
  6
CONTINUOUS
 70
0
 71
1
 72
15
 73
13
 74
0
 42
0.0000001
 43
0.0000001
 44
0.0000000001
 40
0.0
 40
0.0
 40
0.0284416667
 40
0.0623097655
 40
0.0817742218
 40
0.1130783884
 40
0.1407200551
 40
0.1719297773
 40
0.1907561662
 40
0.2249367218
 40
0.2538811662
 40
0.3225672773
 40
0.4459394995
 40
0.5143672773
 40
0.5143672773
 10
11.8571164199
 20
25.6661681997
 30
0.0
 10
11.8571164199
 20
25.6377265331
 30
0.0
 10
11.8232483643
 20
25.6376723664
 30
0.0
 10
11.8230997532
 20
25.6182084775
 30
0.0
 10
11.8544039199
 20
25.6182084775
 30
0.0
 10
11.8544039199
 20
25.5905668109
 30
0.0
 10
11.8231941976
 20
25.5905668109
 30
0.0
 10
11.8231941976
 20
25.571740422
 30
0.0
 10
11.8573747532
 20
25.571740422
 30
0.0
 10
11.8573747532
 20
25.5427959775
 30
0.0
 10
11.7886886421
 20
25.5427959775
 30
0.0
 10
11.7886886421
 20
25.6661681997
 30
0.0
 10
11.8571164199
 20
25.6661681997
 30
0.0
  0
SPLINE
  5
270
100
AcDbEntity
  8
0
100
AcDbSpline
 62
2
  6
CONTINUOUS
 70
0
 71
1
 72
16
 73
14
 74
0
 42
0.0000001
 43
0.0000001
 44
0.0000000001
 40
0.0
 40
0.0
 40
0.0762702112
 40
0.1616203838
 40
0.2062773801
 40
0.2642685662
 40
0.2643296773
 40
0.3082893996
 40
0.3420074551
 40
0.4653796773
 40
0.4990977329
 40
0.5360574551
 40
0.536321344
 40
0.5852365517
 40
0.6289171073
 40
0.6289171073
 10
11.4791594754
 20
25.6661140331
 30
0.0
 10
11.4304803087
 20
25.6073987553
 30
0.0
 10
11.4861789199
 20
25.542727922
 30
0.0
 10
11.4415219754
 20
25.5427959775
 30
0.0
 10
11.4036997532
 20
25.5867556997
 30
0.0
 10
11.4036386421
 20
25.5867556997
 30
0.0
 10
11.4036386421
 20
25.5427959775
 30
0.0
 10
11.3699205865
 20
25.5427959775
 30
0.0
 10
11.3699205865
 20
25.6661681997
 30
0.0
 10
11.4036386421
 20
25.6661681997
 30
0.0
 10
11.4036386421
 20
25.6292084775
 30
0.0
 10
11.4033747532
 20
25.6292084775
 30
0.0
 10
11.4354789199
 20
25.6661140331
 30
0.0
 10
11.4791594754
 20
25.6661140331
 30
0.0
  0
SPLINE
  5
271
100
AcDbEntity
  8
0
100
AcDbSpline
 62
2
  6
CONTINUOUS
 70
0
 71
1
 72
15
 73
13
 74
0
 42
0.0000001
 43
0.0000001
 44
0.0000000001
 40
0.0
 40
0.0
 40
0.1233722222
 40
0.1570361111
 40
0.2003027778
 40
0.2343472222
 40
0.2776138889
 40
0.3112708333
 40
0.4346430556
 40
0.4683
 40
0.5141986111
 40
0.5482430556
 40
0.5941416667
 40
0.6278055556
 40
0.6278055556
 10
11.5970594754
 20
25.5427959775
 30
0.0
 10
11.5970594754
 20
25.6661681997
 30
0.0
 10
11.6307233643
 20
25.6661681997
 30
0.0
 10
11.6307233643
 20
25.6229015331
 30
0.0
 10
11.6647678087
 20
25.6229015331
 30
0.0
 10
11.6647678087
 20
25.6661681997
 30
0.0
 10
11.6984247532
 20
25.6661681997
 30
0.0
 10
11.6984247532
 20
25.5427959775
 30
0.0
 10
11.6647678087
 20
25.5427959775
 30
0.0
 10
11.6647678087
 20
25.5886945886
 30
0.0
 10
11.6307233643
 20
25.5886945886
 30
0.0
 10
11.6307233643
 20
25.5427959775
 30
0.0
 10
11.5970594754
 20
25.5427959775
 30
0.0
  0
SPLINE
  5
272
100
AcDbEntity
  8
0
100
AcDbSpline
 62
2
  6
CONTINUOUS
 70
0
 71
1
 72
9
 73
7
 74
0
 42
0.0000001
 43
0.0000001
 44
0.0000000001
 40
0.0
 40
0.0
 40
0.1233722222
 40
0.1570916667
 40
0.2489694444
 40
0.286825
 40
0.3183194444
 40
0.3898944444
 40
0.3898944444
 10
11.708190031
 20
25.5427959775
 30
0.0
 10
11.708190031
 20
25.6661681997
 30
0.0
 10
11.7419094754
 20
25.6661681997
 30
0.0
 10
11.7419094754
 20
25.574290422
 30
0.0
 10
11.779765031
 20
25.574290422
 30
0.0
 10
11.779765031
 20
25.5427959775
 30
0.0
 10
11.708190031
 20
25.5427959775
 30
0.0
  0
SPLINE
  5
273
100
AcDbEntity
  8
0
100
AcDbSpline
 62
2
  6
CONTINUOUS
 70
0
 71
3
 72
8
 73
4
 74
0
 42
0.0000001
 43
0.0000001
 44
0.0000000001
 40
0.0506940081
 40
0.0506940081
 40
0.0506940081
 40
0.0506940081
 40
0.1856215675
 40
0.1856215675
 40
0.1856215675
 40
0.1856215675
 10
12.043327531
 20
25.5722695886
 30
0.0
 10
11.9850731536
 20
25.5751265052
 30
0.0
 10
11.9849540396
 20
25.6587552911
 30
0.0
 10
12.043327531
 20
25.6598612553
 30
0.0
  0
SPLINE
  5
274
100
AcDbEntity
  8
0
100
AcDbSpline
 62
2
  6
CONTINUOUS
 70
0
 71
3
 72
14
 73
10
 74
0
 42
0.0000001
 43
0.0000001
 44
0.0000000001
 40
0.0
 40
0.0
 40
0.0
 40
0.0
 40
0.0987956343
 40
0.0987956343
 40
0.1968605605
 40
0.1968605605
 40
0.2954509101
 40
0.2954509101
 40
0.3933711843
 40
0.3933711843
 40
0.3933711843
 40
0.3933711843
 10
11.4629511421
 20
25.6055265331
 30
0.0
 10
11.4627794599
 20
25.6408341788
 30
0.0
 10
11.4907865957
 20
25.669937158
 30
0.0
 10
11.5617172661
 20
25.6696460508
 30
0.0
 10
11.5900186226
 20
25.6405507294
 30
0.0
 10
11.5902517867
 20
25.5701098584
 30
0.0
 10
11.5621740524
 20
25.5410641616
 30
0.0
 10
11.4912485546
 20
25.5413786778
 30
0.0
 10
11.4627407572
 20
25.5701852941
 30
0.0
 10
11.4629511421
 20
25.6055265331
 30
0.0
  0
SPLINE
  5
275
100
AcDbEntity
  8
0
100
AcDbSpline
 62
2
  6
CONTINUOUS
 70
0
 71
3
 72
17
 73
13
 74
0
 42
0.0000001
 43
0.0000001
 44
0.0000000001
 40
0.0
 40
0.0
 40
0.0
 40
0.0
 40
0.0032416667
 40
0.0032416667
 40
0.0032416667
 40
1.0032416667
 40
1.0032416667
 40
1.0032416667
 40
2.0032416667
 40
2.0032416667
 40
2.0032416667
 40
3.0032416667
 40
3.0032416667
 40
3.0032416667
 40
3.0032416667
 10
12.4629511421
 20
25.8736265331
 30
0.0
 10
12.4640316976
 20
25.8736265331
 30
0.0
 10
12.4651122532
 20
25.8736265331
 30
0.0
 10
12.4661928087
 20
25.8736265331
 30
0.0
 10
12.4698955865
 20
25.8736265331
 30
0.0
 10
12.4730289199
 20
25.8749695886
 30
0.0
 10
12.4730289199
 20
25.8784348664
 30
0.0
 10
12.4730289199
 20
25.8809043109
 30
0.0
 10
12.4712386421
 20
25.8833723664
 30
0.0
 10
12.4661928087
 20
25.8833723664
 30
0.0
 10
12.4647414199
 20
25.8833723664
 30
0.0
 10
12.4637386421
 20
25.8832501442
 30
0.0
 10
12.4629511421
 20
25.8831348664
 30
0.0
  0
SPLINE
  5
276
100
AcDbEntity
  8
0
100
AcDbSpline
 62
2
  6
CONTINUOUS
 70
0
 71
3
 72
17
 73
13
 74
0
 42
0.0000001
 43
0.0000001
 44
0.0000000001
 40
0.0325722222
 40
0.0325722222
 40
0.0325722222
 40
0.0325722222
 40
1.0325722222
 40
1.0325722222
 40
1.0325722222
 40
2.0325722222
 40
2.0325722222
 40
2.0325722222
 40
3.0325722222
 40
3.0325722222
 40
3.0325722222
 40
4.0325722222
 40
4.0325722222
 40
4.0325722222
 40
4.0325722222
 10
12.4584761421
 20
25.8861598664
 30
0.0
 10
12.4608219754
 20
25.8865056997
 30
0.0
 10
12.4630594754
 20
25.8868306997
 30
0.0
 10
12.4664233643
 20
25.8868306997
 30
0.0
 10
12.4706830865
 20
25.8868306997
 30
0.0
 10
12.4734810095
 20
25.8859428956
 30
0.0
 10
12.4751580865
 20
25.8847084775
 30
0.0
 10
12.4768261421
 20
25.8834806997
 30
0.0
 10
12.4777358643
 20
25.8815681997
 30
0.0
 10
12.4777358643
 20
25.8788890331
 30
0.0
 10
12.4777358643
 20
25.8751931997
 30
0.0
 10
12.4752664199
 20
25.8729487553
 30
0.0
 10
12.4722428087
 20
25.8720598664
 30
0.0
  0
SPLINE
  5
277
100
AcDbEntity
  8
0
100
AcDbSpline
 62
2
  6
CONTINUOUS
 70
0
 71
3
 72
12
 73
8
 74
0
 42
0.0000001
 43
0.0000001
 44
0.0000000001
 40
0.039009476
 40
0.039009476
 40
0.039009476
 40
0.039009476
 40
0.0793449376
 40
0.0793449376
 40
0.1196515026
 40
0.1196515026
 40
0.1957701011
 40
0.1957701011
 40
0.1957701011
 40
0.1957701011
 10
12.4925066976
 20
25.8727320886
 30
0.0
 10
12.4928400968
 20
25.8549208064
 30
0.0
 10
12.485520638
 20
25.8474630065
 30
0.0
 10
12.4499098324
 20
25.8474234163
 30
0.0
 10
12.4428824815
 20
25.8550443611
 30
0.0
 10
12.4423612204
 20
25.905826743
 30
0.0
 10
12.4929568252
 20
25.905932232
 30
0.0
 10
12.4925066976
 20
25.8727320886
 30
0.0
  0
SPLINE
  5
278
100
AcDbEntity
  8
0
100
AcDbSpline
 62
2
  6
CONTINUOUS
 70
0
 71
1
 72
7
 73
5
 74
0
 42
0.0000001
 43
0.0000001
 44
0.0000000001
 40
0.0
 40
0.0
 40
0.5096027778
 40
3.8794430556
 40
4.3890458333
 40
7.7588861111
 40
7.7588861111
 10
12.5528636421
 20
26.2787168109
 30
0.0
 10
12.5528636421
 20
25.7691140331
 30
0.0
 10
9.1830233643
 20
25.7691140331
 30
0.0
 10
9.1830233643
 20
26.2787168109
 30
0.0
 10
12.5528636421
 20
26.2787168109
 30
0.0
  0
SPLINE
  5
279
100
AcDbEntity
  8
0
100
AcDbSpline
 62
2
  6
CONTINUOUS
 70
0
 71
1
 72
7
 73
5
 74
0
 42
0.0000001
 43
0.0000001
 44
0.0000000001
 40
0.0
 40
0.0
 40
0.496175
 40
3.8525736111
 40
4.3487486111
 40
7.7051472222
 40
7.7051472222
 10
12.5461358643
 20
26.272002922
 30
0.0
 10
12.5461358643
 20
25.775827922
 30
0.0
 10
9.1897372532
 20
25.775827922
 30
0.0
 10
9.1897372532
 20
26.272002922
 30
0.0
 10
12.5461358643
 20
26.272002922
 30
0.0
  0
SPLINE
  5
27A
100
AcDbEntity
  8
0
100
AcDbSpline
 62
2
  6
CONTINUOUS
 70
0
 71
1
 72
7
 73
5
 74
0
 42
0.0000001
 43
0.0000001
 44
0.0000000001
 40
0.0
 40
0.0
 40
0.6142111111
 40
4.0886777778
 40
4.7028888889
 40
8.1773555556
 40
8.1773555556
 10
9.1306969754
 20
26.3310251442
 30
0.0
 10
9.1306969754
 20
25.7168140331
 30
0.0
 10
12.6051636421
 20
25.7168140331
 30
0.0
 10
12.6051636421
 20
26.3310251442
 30
0.0
 10
9.1306969754
 20
26.3310251442
 30
0.0
  0
SPLINE
  5
27B
100
AcDbEntity
  8
0
100
AcDbSpline
 62
2
  6
CONTINUOUS
 70
0
 71
3
 72
14
 73
10
 74
0
 42
0.0000001
 43
0.0000001
 44
0.0000000001
 40
0.1363871571
 40
0.1363871571
 40
0.1363871571
 40
0.1363871571
 40
1.1363871571
 40
1.1363871571
 40
1.1363871571
 40
2.1363871571
 40
2.1363871571
 40
2.1363871571
 40
3.1363871571
 40
3.1363871571
 40
3.1363871571
 40
3.1363871571
 10
12.2456122532
 20
26.1659848664
 30
0.0
 10
12.1325747532
 20
26.1659848664
 30
0.0
 10
12.046352531
 20
26.1129181997
 30
0.0
 10
12.046352531
 20
26.0291584775
 30
0.0
 10
12.046352531
 20
25.945390422
 30
0.0
 10
12.1390983643
 20
25.8819209775
 30
0.0
 10
12.2535872532
 20
25.8819209775
 30
0.0
 10
12.2869261421
 20
25.8819209775
 30
0.0
 10
12.321702531
 20
25.885040422
 30
0.0
 10
12.3543094754
 20
25.8917945886
 30
0.0
  0
SPLINE
  5
27C
100
AcDbEntity
  8
0
100
AcDbSpline
 62
2
  6
CONTINUOUS
 70
0
 71
3
 72
11
 73
7
 74
0
 42
0.0000001
 43
0.0000001
 44
0.0000000001
 40
3.1363871571
 40
3.1363871571
 40
3.1363871571
 40
3.1363871571
 40
3.2113121571
 40
3.2113121571
 40
3.2113121571
 40
4.2113121571
 40
4.2113121571
 40
4.2113121571
 40
4.2113121571
 10
12.3543094754
 20
25.8917945886
 30
0.0
 10
12.3543094754
 20
25.9167695886
 30
0.0
 10
12.3543094754
 20
25.9417445886
 30
0.0
 10
12.3543094754
 20
25.9667195886
 30
0.0
 10
12.3543094754
 20
25.9906584775
 30
0.0
 10
12.3535761421
 20
26.0161445886
 30
0.0
 10
12.3209830865
 20
26.0255098664
 30
0.0
  0
SPLINE
  5
27D
100
AcDbEntity
  8
0
100
AcDbSpline
 62
2
  6
CONTINUOUS
 70
0
 71
3
 72
17
 73
13
 74
0
 42
0.0000001
 43
0.0000001
 44
0.0000000001
 40
4.4917022773
 40
4.4917022773
 40
4.4917022773
 40
4.4917022773
 40
5.4917022773
 40
5.4917022773
 40
5.4917022773
 40
6.4917022773
 40
6.4917022773
 40
6.4917022773
 40
7.4917022773
 40
7.4917022773
 40
7.4917022773
 40
8.4917022773
 40
8.4917022773
 40
8.4917022773
 40
8.4917022773
 10
12.4318372532
 20
25.8600570886
 30
0.0
 10
12.3738803087
 20
25.8522709775
 30
0.0
 10
12.3173622532
 20
25.8444459775
 30
0.0
 10
12.2586733643
 20
25.8444459775
 30
0.0
 10
12.0731678087
 20
25.8444459775
 30
0.0
 10
11.9637511421
 20
25.9173015331
 30
0.0
 10
11.9637511421
 20
26.0218612553
 30
0.0
 10
11.9637511421
 20
26.1337251442
 30
0.0
 10
12.087652531
 20
26.2034543109
 30
0.0
 10
12.2630136421
 20
26.2034543109
 30
0.0
 10
12.3014122532
 20
26.2034543109
 30
0.0
 10
12.3390914199
 20
26.200327922
 30
0.0
 10
12.3767691976
 20
26.1946043109
 30
0.0
  0
SPLINE
  5
27E
100
AcDbEntity
  8
0
100
AcDbSpline
 62
2
  6
CONTINUOUS
 70
0
 71
3
 72
14
 73
10
 74
0
 42
0.0000001
 43
0.0000001
 44
0.0000000001
 40
0.1313958333
 40
0.1313958333
 40
0.1313958333
 40
0.1313958333
 40
1.1313958333
 40
1.1313958333
 40
1.1313958333
 40
1.3390027778
 40
1.3390027778
 40
1.3390027778
 40
2.3390027778
 40
2.3390027778
 40
2.3390027778
 40
2.3390027778
 10
11.4579733643
 20
25.8543473664
 30
0.0
 10
11.4963789199
 20
25.8704598664
 30
0.0
 10
11.4963789199
 20
25.8912862553
 30
0.0
 10
11.4963789199
 20
25.9204140331
 30
0.0
 10
11.4963789199
 20
25.9896163479
 30
0.0
 10
11.4963789199
 20
26.0588186627
 30
0.0
 10
11.4963789199
 20
26.1280209775
 30
0.0
 10
11.4963789199
 20
26.1571487553
 30
0.0
 10
11.4963789199
 20
26.1779681997
 30
0.0
 10
11.4586997532
 20
26.1935668109
 30
0.0
  0
SPLINE
  5
27F
100
AcDbEntity
  8
0
100
AcDbSpline
 62
2
  6
CONTINUOUS
 70
0
 71
3
 72
11
 73
7
 74
0
 42
0.0000001
 43
0.0000001
 44
0.0000000001
 40
3.819343998
 40
3.819343998
 40
3.819343998
 40
3.819343998
 40
4.0165481647
 40
4.0165481647
 40
4.0165481647
 40
5.0165481647
 40
5.0165481647
 40
5.0165481647
 40
5.0165481647
 10
11.850715031
 20
25.9308168109
 30
0.0
 10
11.850715031
 20
25.9965515331
 30
0.0
 10
11.850715031
 20
26.0622862553
 30
0.0
 10
11.850715031
 20
26.1280209775
 30
0.0
 10
11.850715031
 20
26.1571487553
 30
0.0
 10
11.8514330865
 20
26.1779681997
 30
0.0
 10
11.8130358643
 20
26.1935668109
 30
0.0
  0
SPLINE
  5
280
100
AcDbEntity
  8
0
100
AcDbSpline
 62
2
  6
CONTINUOUS
 70
0
 71
3
 72
11
 73
7
 74
0
 42
0.0000001
 43
0.0000001
 44
0.0000000001
 40
5.1472176091
 40
5.1472176091
 40
5.1472176091
 40
5.1472176091
 40
6.1472176091
 40
6.1472176091
 40
6.1472176091
 40
6.4391078869
 40
6.4391078869
 40
6.4391078869
 40
6.4391078869
 10
11.9405719754
 20
26.1935668109
 30
0.0
 10
11.9028789199
 20
26.1779681997
 30
0.0
 10
11.9028789199
 20
26.1571487553
 30
0.0
 10
11.9028789199
 20
26.1280209775
 30
0.0
 10
11.9028789199
 20
26.0307242183
 30
0.0
 10
11.9028789199
 20
25.933427459
 30
0.0
 10
11.9028789199
 20
25.8361306997
 30
0.0
  0
SPLINE
  5
281
100
AcDbEntity
  8
0
100
AcDbSpline
 62
2
  6
CONTINUOUS
 70
0
 71
3
 72
11
 73
7
 74
0
 42
0.0000001
 43
0.0000001
 44
0.0000000001
 40
6.8979254112
 40
6.8979254112
 40
6.8979254112
 40
6.8979254112
 40
7.0992740223
 40
7.0992740223
 40
7.0992740223
 40
8.0992740223
 40
8.0992740223
 40
8.0992740223
 40
8.0992740223
 10
11.5485566976
 20
26.1217626442
 30
0.0
 10
11.5485566976
 20
26.0546464405
 30
0.0
 10
11.5485566976
 20
25.9875302368
 30
0.0
 10
11.5485566976
 20
25.9204140331
 30
0.0
 10
11.5485566976
 20
25.8912862553
 30
0.0
 10
11.5478316976
 20
25.8704598664
 30
0.0
 10
11.5862219754
 20
25.8543473664
 30
0.0
  0
SPLINE
  5
282
100
AcDbEntity
  8
0
100
AcDbSpline
 62
2
  6
CONTINUOUS
 70
0
 71
3
 72
14
 73
10
 74
0
 42
0.0000001
 43
0.0000001
 44
0.0000000001
 40
0.1408208333
 40
0.1408208333
 40
0.1408208333
 40
0.1408208333
 40
1.1408208333
 40
1.1408208333
 40
1.1408208333
 40
1.3369611111
 40
1.3369611111
 40
1.3369611111
 40
2.3369611111
 40
2.3369611111
 40
2.3369611111
 40
2.3369611111
 10
11.381177531
 20
26.1935668109
 30
0.0
 10
11.3449566976
 20
26.1836793109
 30
0.0
 10
11.349277531
 20
26.1451793109
 30
0.0
 10
11.349277531
 20
26.1217626442
 30
0.0
 10
11.349277531
 20
26.0563825516
 30
0.0
 10
11.349277531
 20
25.991002459
 30
0.0
 10
11.349277531
 20
25.9256223664
 30
0.0
 10
11.349277531
 20
25.9022181997
 30
0.0
 10
11.3449566976
 20
25.8642348664
 30
0.0
 10
11.381177531
 20
25.8543473664
 30
0.0
  0
SPLINE
  5
283
100
AcDbEntity
  8
0
100
AcDbSpline
 62
2
  6
CONTINUOUS
 70
0
 71
3
 72
14
 73
10
 74
0
 42
0.0000001
 43
0.0000001
 44
0.0000000001
 40
2.4777958333
 40
2.4777958333
 40
2.4777958333
 40
2.4777958333
 40
3.4777958333
 40
3.4777958333
 40
3.4777958333
 40
3.6739361111
 40
3.6739361111
 40
3.6739361111
 40
4.6739361111
 40
4.6739361111
 40
4.6739361111
 40
4.6739361111
 10
11.243490031
 20
25.8543473664
 30
0.0
 10
11.2797233643
 20
25.8637056997
 30
0.0
 10
11.275377531
 20
25.9022181997
 30
0.0
 10
11.275377531
 20
25.9256223664
 30
0.0
 10
11.275377531
 20
25.991002459
 30
0.0
 10
11.275377531
 20
26.0563825516
 30
0.0
 10
11.275377531
 20
26.1217626442
 30
0.0
 10
11.275377531
 20
26.1457015331
 30
0.0
 10
11.2804566976
 20
26.1836793109
 30
0.0
 10
11.243490031
 20
26.1935668109
 30
0.0
  0
SPLINE
  5
284
100
AcDbEntity
  8
0
100
AcDbSpline
 62
2
  6
CONTINUOUS
 70
0
 71
3
 72
14
 73
10
 74
0
 42
0.0000001
 43
0.0000001
 44
0.0000000001
 40
0.3803437494
 40
0.3803437494
 40
0.3803437494
 40
0.3803437494
 40
1.3803437494
 40
1.3803437494
 40
1.3803437494
 40
1.5764840272
 40
1.5764840272
 40
1.5764840272
 40
2.5764840272
 40
2.5764840272
 40
2.5764840272
 40
2.5764840272
 10
10.878302531
 20
25.8543473664
 30
0.0
 10
10.9152553087
 20
25.8637056997
 30
0.0
 10
10.9109094754
 20
25.9022181997
 30
0.0
 10
10.9109094754
 20
25.9256223664
 30
0.0
 10
10.9109094754
 20
25.991002459
 30
0.0
 10
10.9109094754
 20
26.0563825516
 30
0.0
 10
10.9109094754
 20
26.1217626442
 30
0.0
 10
10.9109094754
 20
26.1457015331
 30
0.0
 10
10.9152553087
 20
26.1836793109
 30
0.0
 10
10.878302531
 20
26.1935668109
 30
0.0
  0
SPLINE
  5
285
100
AcDbEntity
  8
0
100
AcDbSpline
 62
2
  6
CONTINUOUS
 70
0
 71
3
 72
11
 73
7
 74
0
 42
0.0000001
 43
0.0000001
 44
0.0000000001
 40
2.7180173605
 40
2.7180173605
 40
2.7180173605
 40
2.7180173605
 40
3.7180173605
 40
3.7180173605
 40
3.7180173605
 40
3.9448520827
 40
3.9448520827
 40
3.9448520827
 40
3.9448520827
 10
11.016702531
 20
26.1935668109
 30
0.0
 10
10.9797497532
 20
26.1836793109
 30
0.0
 10
10.9848219754
 20
26.1451793109
 30
0.0
 10
10.9848219754
 20
26.1217626442
 30
0.0
 10
10.9848219754
 20
26.0461510701
 30
0.0
 10
10.9848219754
 20
25.970539496
 30
0.0
 10
10.9848219754
 20
25.894927922
 30
0.0
  0
SPLINE
  5
286
100
AcDbEntity
  8
0
100
AcDbSpline
 62
2
  6
CONTINUOUS
 70
0
 71
3
 72
8
 73
4
 74
0
 42
0.0000001
 43
0.0000001
 44
0.0000000001
 40
3.9448520827
 40
3.9448520827
 40
3.9448520827
 40
3.9448520827
 40
4.1770975516
 40
4.1770975516
 40
4.1770975516
 40
4.1770975516
 10
10.9848219754
 20
25.894927922
 30
0.0
 10
11.062949705
 20
25.8912181982
 30
0.0
 10
11.1353971083
 20
25.8763104315
 30
0.0
 10
11.2116219754
 20
25.9219598664
 30
0.0
  0
SPLINE
  5
287
100
AcDbEntity
  8
0
100
AcDbSpline
 62
2
  6
CONTINUOUS
 70
0
 71
3
 72
11
 73
7
 74
0
 42
0.0000001
 43
0.0000001
 44
0.0000000001
 40
0.0
 40
0.0
 40
0.0
 40
0.0
 40
0.140550031
 40
0.140550031
 40
0.140550031
 40
1.140550031
 40
1.140550031
 40
1.140550031
 40
1.140550031
 10
10.6406386421
 20
26.0197862553
 30
0.0
 10
10.6754196606
 20
25.9883982923
 30
0.0
 10
10.7102006791
 20
25.9570103294
 30
0.0
 10
10.7449816976
 20
25.9256223664
 30
0.0
 10
10.7754108643
 20
25.8985570886
 30
0.0
 10
10.8210580865
 20
25.8715043109
 30
0.0
 10
10.8623719754
 20
25.8527737553
 30
0.0
  0
SPLINE
  5
288
100
AcDbEntity
  8
0
100
AcDbSpline
 62
2
  6
CONTINUOUS
 70
0
 71
3
 72
14
 73
10
 74
0
 42
0.0000001
 43
0.0000001
 44
0.0000000001
 40
1.5143546326
 40
1.5143546326
 40
1.5143546326
 40
1.5143546326
 40
2.0459541232
 40
2.0459541232
 40
2.5487056352
 40
2.5487056352
 40
3.0207171483
 40
3.0207171483
 40
3.5638184132
 40
3.5638184132
 40
3.5638184132
 40
3.5638184132
 10
10.5565789199
 20
26.0307181997
 30
0.0
 10
10.5842501117
 20
26.0336962058
 30
0.0
 10
10.610627601
 20
26.0383573951
 30
0.0
 10
10.6609508567
 20
26.0606715174
 30
0.0
 10
10.6860188871
 20
26.0800304919
 30
0.0
 10
10.6772258311
 20
26.1411353427
 30
0.0
 10
10.6457711673
 20
26.1554574132
 30
0.0
 10
10.5932465745
 20
26.1659288476
 30
0.0
 10
10.5666834037
 20
26.1623395266
 30
0.0
 10
10.5391914199
 20
26.1587084775
 30
0.0
  0
SPLINE
  5
289
100
AcDbEntity
  8
0
100
AcDbSpline
 62
2
  6
CONTINUOUS
 70
0
 71
3
 72
11
 73
7
 74
0
 42
0.0000001
 43
0.0000001
 44
0.0000000001
 40
3.5638184132
 40
3.5638184132
 40
3.5638184132
 40
3.5638184132
 40
3.7969045243
 40
3.7969045243
 40
3.7969045243
 40
4.7969045243
 40
4.7969045243
 40
4.7969045243
 40
4.7969045243
 10
10.5391914199
 20
26.1587084775
 30
0.0
 10
10.5391914199
 20
26.0810131072
 30
0.0
 10
10.5391914199
 20
26.0033177368
 30
0.0
 10
10.5391914199
 20
25.9256223664
 30
0.0
 10
10.5391914199
 20
25.901690422
 30
0.0
 10
10.5348441976
 20
25.8637056997
 30
0.0
 10
10.5717969754
 20
25.8543473664
 30
0.0
  0
SPLINE
  5
28A
100
AcDbEntity
  8
0
100
AcDbSpline
 62
2
  6
CONTINUOUS
 70
0
 71
3
 72
14
 73
10
 74
0
 42
0.0000001
 43
0.0000001
 44
0.0000000001
 40
4.9384517465
 40
4.9384517465
 40
4.9384517465
 40
4.9384517465
 40
5.9384517465
 40
5.9384517465
 40
5.9384517465
 40
6.1345920243
 40
6.1345920243
 40
6.1345920243
 40
7.1345920243
 40
7.1345920243
 40
7.1345920243
 40
7.1345920243
 10
10.4333969754
 20
25.8543473664
 30
0.0
 10
10.4703497532
 20
25.8637056997
 30
0.0
 10
10.4652844754
 20
25.9022181997
 30
0.0
 10
10.4652844754
 20
25.9256223664
 30
0.0
 10
10.4652844754
 20
25.991002459
 30
0.0
 10
10.4652844754
 20
26.0563825516
 30
0.0
 10
10.4652844754
 20
26.1217626442
 30
0.0
 10
10.4652844754
 20
26.1457015331
 30
0.0
 10
10.4703497532
 20
26.1836793109
 30
0.0
 10
10.4333969754
 20
26.1935668109
 30
0.0
  0
SPLINE
  5
28B
100
AcDbEntity
  8
0
100
AcDbSpline
 62
2
  6
CONTINUOUS
 70
0
 71
3
 72
14
 73
10
 74
0
 42
0.0000001
 43
0.0000001
 44
0.0000000001
 40
7.136158691
 40
7.136158691
 40
7.136158691
 40
7.136158691
 40
7.3086100798
 40
7.3086100798
 40
7.3086100798
 40
8.3086100798
 40
8.3086100798
 40
8.3086100798
 40
9.3086100798
 40
9.3086100798
 40
9.3086100798
 40
9.3086100798
 10
10.4333969754
 20
26.1951334775
 30
0.0
 10
10.4908807717
 20
26.1951334775
 30
0.0
 10
10.548364568
 20
26.1951334775
 30
0.0
 10
10.6058483643
 20
26.1951334775
 30
0.0
 10
10.7029553087
 20
26.1951334775
 30
0.0
 10
10.755852531
 20
26.1587084775
 30
0.0
 10
10.755852531
 20
26.1113584775
 30
0.0
 10
10.755852531
 20
26.0655820886
 30
0.0
 10
10.7000594754
 20
26.0296806997
 30
0.0
 10
10.6406386421
 20
26.0197862553
 30
0.0
  0
SPLINE
  5
28C
100
AcDbEntity
  8
0
100
AcDbSpline
 62
2
  6
CONTINUOUS
 70
0
 71
3
 72
8
 73
4
 74
0
 42
0.0000001
 43
0.0000001
 44
0.0000000001
 40
0.0
 40
0.0
 40
0.0
 40
0.0
 40
0.2313461135
 40
0.2313461135
 40
0.2313461135
 40
0.2313461135
 10
10.1797955865
 20
25.8964751442
 30
0.0
 10
10.2577231673
 20
25.8912023445
 30
0.0
 10
10.3294992206
 20
25.8764102677
 30
0.0
 10
10.4058705865
 20
25.9209431997
 30
0.0
  0
SPLINE
  5
28D
100
AcDbEntity
  8
0
100
AcDbSpline
 62
2
  6
CONTINUOUS
 70
0
 71
3
 72
14
 73
10
 74
0
 42
0.0000001
 43
0.0000001
 44
0.0000000001
 40
0.6128133373
 40
0.6128133373
 40
0.6128133373
 40
0.6128133373
 40
1.6128133373
 40
1.6128133373
 40
1.6128133373
 40
1.8089536151
 40
1.8089536151
 40
1.8089536151
 40
2.8089536151
 40
2.8089536151
 40
2.8089536151
 40
2.8089536151
 10
10.0732761421
 20
25.8543473664
 30
0.0
 10
10.1102289199
 20
25.8637056997
 30
0.0
 10
10.1058816976
 20
25.9022181997
 30
0.0
 10
10.1058816976
 20
25.9256223664
 30
0.0
 10
10.1058816976
 20
25.991002459
 30
0.0
 10
10.1058816976
 20
26.0563825516
 30
0.0
 10
10.1058816976
 20
26.1217626442
 30
0.0
 10
10.1058816976
 20
26.1457015331
 30
0.0
 10
10.1102289199
 20
26.1836793109
 30
0.0
 10
10.0732761421
 20
26.1935668109
 30
0.0
  0
SPLINE
  5
28E
100
AcDbEntity
  8
0
100
AcDbSpline
 62
2
  6
CONTINUOUS
 70
0
 71
3
 72
11
 73
7
 74
0
 42
0.0000001
 43
0.0000001
 44
0.0000000001
 40
3.5799535043
 40
3.5799535043
 40
3.5799535043
 40
3.5799535043
 40
4.5799535043
 40
4.5799535043
 40
4.5799535043
 40
4.6335771155
 40
4.6335771155
 40
4.6335771155
 40
4.6335771155
 10
10.2979053087
 20
26.0052320886
 30
0.0
 10
10.2863094754
 20
26.020315422
 30
0.0
 10
10.2558789199
 20
26.0197862553
 30
0.0
 10
10.2334191976
 20
26.0197862553
 30
0.0
 10
10.2155446606
 20
26.0197862553
 30
0.0
 10
10.1976701236
 20
26.0197862553
 30
0.0
 10
10.1797955865
 20
26.0197862553
 30
0.0
  0
SPLINE
  5
28F
100
AcDbEntity
  8
0
100
AcDbSpline
 62
2
  6
CONTINUOUS
 70
0
 71
3
 72
11
 73
7
 74
0
 42
0.0000001
 43
0.0000001
 44
0.0000000001
 40
0.1466138889
 40
0.1466138889
 40
0.1466138889
 40
0.1466138889
 40
1.1466138889
 40
1.1466138889
 40
1.1466138889
 40
1.3786625
 40
1.3786625
 40
1.3786625
 40
1.3786625
 10
9.766777531
 20
25.8543473664
 30
0.0
 10
9.8029983643
 20
25.8642348664
 30
0.0
 10
9.7986441976
 20
25.9022181997
 30
0.0
 10
9.7986441976
 20
25.9256223664
 30
0.0
 10
9.7986441976
 20
26.0029719035
 30
0.0
 10
9.7986441976
 20
26.0803214405
 30
0.0
 10
9.7986441976
 20
26.1576709775
 30
0.0
  0
SPLINE
  5
290
100
AcDbEntity
  8
0
100
AcDbSpline
 62
2
  6
CONTINUOUS
 70
0
 71
3
 72
11
 73
7
 74
0
 42
0.0000001
 43
0.0000001
 44
0.0000000001
 40
2.0235770463
 40
2.0235770463
 40
2.0235770463
 40
2.0235770463
 40
3.0235770463
 40
3.0235770463
 40
3.0235770463
 40
3.0888034352
 40
3.0888034352
 40
3.0888034352
 40
3.0888034352
 10
10.0000941976
 20
26.1368445886
 30
0.0
 10
9.9906816976
 20
26.155052922
 30
0.0
 10
9.961690031
 20
26.1576709775
 30
0.0
 10
9.9377844754
 20
26.1576709775
 30
0.0
 10
9.9160423458
 20
26.1576709775
 30
0.0
 10
9.8943002161
 20
26.1576709775
 30
0.0
 10
9.8725580865
 20
26.1576709775
 30
0.0
  0
SPLINE
  5
291
100
AcDbEntity
  8
0
100
AcDbSpline
 62
2
  6
CONTINUOUS
 70
0
 71
3
 72
11
 73
7
 74
0
 42
0.0000001
 43
0.0000001
 44
0.0000000001
 40
3.0888034352
 40
3.0888034352
 40
3.0888034352
 40
3.0888034352
 40
3.3260603796
 40
3.3260603796
 40
3.3260603796
 40
4.3260603796
 40
4.3260603796
 40
4.3260603796
 40
4.3260603796
 10
9.8725580865
 20
26.1576709775
 30
0.0
 10
9.8725580865
 20
26.0785853294
 30
0.0
 10
9.8725580865
 20
25.9994996812
 30
0.0
 10
9.8725580865
 20
25.9204140331
 30
0.0
 10
9.8725580865
 20
25.8907570886
 30
0.0
 10
9.871840031
 20
25.8704598664
 30
0.0
 10
9.9102441976
 20
25.8543473664
 30
0.0
  0
SPLINE
  5
292
100
AcDbEntity
  8
0
100
AcDbSpline
 62
2
  6
CONTINUOUS
 70
0
 71
3
 72
18
 73
14
 74
0
 42
0.0000001
 43
0.0000001
 44
0.0000000001
 40
0.0
 40
0.0
 40
0.0
 40
0.0
 40
0.5032108973
 40
0.5032108973
 40
0.8324923635
 40
0.8324923635
 40
1.151976252
 40
1.151976252
 40
1.6605310342
 40
1.6605310342
 40
3.0490484198
 40
3.0490484198
 40
4.1196841171
 40
4.1196841171
 40
4.1196841171
 40
4.1196841171
 10
9.5921497532
 20
26.1332237553
 30
0.0
 10
9.5576341559
 20
26.1550112838
 30
0.0
 10
9.5235191197
 20
26.1651079885
 30
0.0
 10
9.4560813657
 20
26.1664848841
 30
0.0
 10
9.3894075618
 20
26.1617153116
 30
0.0
 10
9.3809495573
 20
26.0844276213
 30
0.0
 10
9.4483602093
 20
26.0652367877
 30
0.0
 10
9.5077259524
 20
26.045027936
 30
0.0
 10
9.5447803151
 20
26.0349898216
 30
0.0
 10
9.674661842
 20
25.9696313657
 30
0.0
 10
9.6268934515
 20
25.8885683221
 30
0.0
 10
9.4707412369
 20
25.8368727625
 30
0.0
 10
9.3771999468
 20
25.8423683338
 30
0.0
 10
9.3102747532
 20
25.8600570886
 30
0.0
  0
SPLINE
  5
293
100
AcDbEntity
  8
0
100
AcDbSpline
 62
2
  6
CONTINUOUS
 70
0
 71
3
 72
18
 73
14
 74
0
 42
0.0000001
 43
0.0000001
 44
0.0000000001
 40
4.1880291668
 40
4.1880291668
 40
4.1880291668
 40
4.1880291668
 40
5.1629619988
 40
5.1629619988
 40
5.8465018609
 40
5.8465018609
 40
6.3921468543
 40
6.3921468543
 40
6.8466935936
 40
6.8466935936
 40
7.3975710712
 40
7.3975710712
 40
8.3539434147
 40
8.3539434147
 40
8.3539434147
 40
8.3539434147
 10
9.2892664199
 20
25.9250931997
 30
0.0
 10
9.3488304957
 20
25.8900985093
 30
0.0
 10
9.4478776746
 20
25.8646291498
 30
0.0
 10
9.5659875711
 20
25.9183872534
 30
0.0
 10
9.5579081181
 20
25.9594390529
 30
0.0
 10
9.4771968135
 20
26.00035594
 30
0.0
 10
9.4385722792
 20
26.0089258486
 30
0.0
 10
9.3702871276
 20
26.0332955259
 30
0.0
 10
9.3215948197
 20
26.0517080703
 30
0.0
 10
9.2888757782
 20
26.1337168716
 30
0.0
 10
9.319662777
 20
26.165155208
 30
0.0
 10
9.4241243428
 20
26.2107168362
 30
0.0
 10
9.5254078676
 20
26.2069803509
 30
0.0
 10
9.5921497532
 20
26.1920001442
 30
0.0
  0
SPLINE
  5
294
100
AcDbEntity
  8
0
100
AcDbSpline
 62
2
  6
CONTINUOUS
 70
0
 71
1
 72
7
 73
5
 74
0
 42
0.0000001
 43
0.0000001
 44
0.0000000001
 40
0.0
 40
0.0
 40
3.4446958333
 40
4.0226375
 40
7.4673333333
 40
8.045275
 40
8.045275
 10
9.1448428087
 20
25.7360612553
 30
0.0
 10
12.5895386421
 20
25.7360612553
 30
0.0
 10
12.5895386421
 20
26.314002922
 30
0.0
 10
9.1448428087
 20
26.314002922
 30
0.0
 10
9.1448428087
 20
25.7360612553
 30
0.0
  0
DIMENSION
  5
295
100
AcDbEntity
  8
0
100
AcDbDimension
 62
2
  6
CONTINUOUS
  2
*D0
 10
17.2576088235
 20
10.0797381974
 11
17.2576088235
 21
20.930143043
 70
160
  1
<>\P[46.8]
  3
DIMSTYLE_1
100
AcDbAlignedDimension
 13
17.9199162794
 23
28.540708913
 14
10.6393044357
 24
10.0797381974
 50
270.0
100
AcDbRotatedDimension
  0
DIMENSION
  5
296
100
AcDbEntity
  8
0
100
AcDbDimension
 62
2
  6
CONTINUOUS
  2
*D1
 10
27.2615587817
 20
10.0797381974
 11
27.2615587817
 21
17.8180360268
 70
160
  1
<>\P[38.9]
  3
DIMSTYLE_2
100
AcDbAlignedDimension
 13
27.545894676
 23
25.7907088563
 14
27.5918410533
 24
10.0797381974
 50
270.0
100
AcDbRotatedDimension
  0
DIMENSION
  5
297
100
AcDbEntity
  8
0
100
AcDbDimension
 62
2
  6
CONTINUOUS
  2
*D2
 10
36.620144606
 20
19.8801117528
 11
14.3605478847
 21
19.7629242528
 70
160
  1
<>\P[74.8]
  3
DIMSTYLE_2
100
AcDbAlignedDimension
 13
7.1741260172
 23
19.5302235455
 14
36.620144606
 24
19.5425985455
100
AcDbRotatedDimension
  0
MTEXT
  5
298
100
AcDbEntity
  8
___NOTE
100
AcDbMText
 62
2
  6
CONTINUOUS
  7
STANDARD
 71
1
 72
1
 10
9.1700156054
 20
25.0477361043
 30
0.0
 11
1.0
 21
0.0
 31
0.0
  1
CUT-OUT TEMPLATE\PUNDERCOUNTER SINK\PGABARIT DE DÉCOUPE\PÉVIER SOUS COMPTOIR\PPLANTILLA DE CORTE\PFREGADERO DE\PINSTALACIÓN BAJO CUBIERTA\P 
 40
0.2
 41
4.0
  0
MTEXT
  5
299
100
AcDbEntity
  8
___NOTE
100
AcDbMText
 62
2
  6
CONTINUOUS
  7
STANDARD
 71
1
 72
1
 10
9.2580809443
 20
22.7014128232
 30
0.0
 11
1.0
 21
0.0
 31
0.0
  1
11409\P \P96029
 40
0.2
 41
0.8
  0
LEADER
  5
29A
100
AcDbEntity
  8
___NOTE
100
AcDbLeader
 62
2
  6
CONTINUOUS
  3
STANDARD
 71
1
 72
0
 73
0
 75
0
 40
0.15625
 41
1.375
 76
3
 10
37.6596113279
 20
21.6645740131
 30
0.0
 10
34.3826809639
 20
23.2046151604
 30
0.0
 10
34.1326809639
 20
23.2046151604
 30
0.0
340
29B
1001
ACAD
1000
DSTYLE
1002
{
1070
77
1070
0
1002
}
  0
MTEXT
  5
29B
102
{ACAD_REACTORS
330
29A
102
}
100
AcDbEntity
  8
___NOTE
100
AcDbMText
 62
2
  6
CONTINUOUS
  7
STANDARD
 71
3
 72
1
 10
34.1326809639
 20
23.2827401604
 30
0.0
 11
1.0
 21
0.0
 31
0.0
  1
RIM OF SINK\PREBORDE DE FREGADERO\PREBORD D'ÉVIER
 40
0.15625
 41
2.5
  0
LEADER
  5
29C
100
AcDbEntity
  8
___NOTE
100
AcDbLeader
 62
2
  6
CONTINUOUS
  3
STANDARD
 71
1
 72
0
 73
0
 75
0
 40
0.15625
 41
3.5
 76
3
 10
36.5885645959
 20
15.509873661
 30
0.0
 10
35.5333831816
 20
16.9168202155
 30
0.0
 10
35.2833831816
 20
16.9168202155
 30
0.0
340
29D
1001
ACAD
1000
DSTYLE
1002
{
1070
77
1070
0
1002
}
  0
MTEXT
  5
29D
102
{ACAD_REACTORS
330
29C
102
}
100
AcDbEntity
  8
___NOTE
100
AcDbMText
 62
2
  6
CONTINUOUS
  7
STANDARD
 71
3
 72
1
 10
35.2833831816
 20
16.9949452155
 30
0.0
 11
1.0
 21
0.0
 31
0.0
  1
FOR UNDER-MOUNT INSTALLATION\PCUT ALONG THIS LINE\PPARA INSTALACIÓN DE MONTAJE POR ABAJO\PCORTE A LO LARGO DE ESTA LÍNEA\PPOUR INSTALLATION À MONTAGE SOUS PLAN\PCOUPER LE LONG DE CETTE LIGNE\P 
 40
0.15625
 41
4.625
  0
INSERT
  5
29E
100
AcDbEntity
  8
___SYMBOL
100
AcDbBlockReference
 62
2
  6
CONTINUOUS
  2
SCISSORS_BL0
 10
36.5885453662
 20
14.5739146761
  0
INSERT
  5
29F
100
AcDbEntity
  8
___SYMBOL
100
AcDbBlockReference
 62
2
  6
CONTINUOUS
  2
COPYRIGHT_YEAR_BL1
 10
29.4983514796
 20
10.3884523336
  0
INSERT
  5
2A0
100
AcDbEntity
  8
___SYMBOL
100
AcDbBlockReference
 62
2
  6
CONTINUOUS
  2
TEMPLATE_NUMBER_BL2
 10
11.3829021156
 20
10.3196355922
  0
INSERT
  5
2A1
100
AcDbEntity
  8
___SYMBOL
100
AcDbBlockReference
 62
2
  6
CONTINUOUS
  2
TEMPLATE_NUMBER_BL3
 10
11.4256126068
 20
8.8179173456
  0
INSERT
  5
2A2
100
AcDbEntity
  8
___SYMBOL
100
AcDbBlockReference
 62
2
  6
CONTINUOUS
  2
WHEN_PLOTTING_TEMPLATE_N_BL4
 10
13.3666771582
 20
14.1498850408
  0
LINE
  5
2A3
100
AcDbEntity
  8
0
100
AcDbLine
 62
2
  6
CONTINUOUS
 10
10.0254511421
 20
26.1987751442
 11
10.0022719754
 21
26.1368445886
  0
LINE
  5
2A4
100
AcDbEntity
  8
0
100
AcDbLine
 62
2
  6
CONTINUOUS
 10
9.6464844754
 20
26.1368445886
 11
9.6718539199
 21
26.1987751442
  0
LINE
  5
2A5
100
AcDbEntity
  8
0
100
AcDbLine
 62
2
  6
CONTINUOUS
 10
10.408040031
 20
25.9209431997
 11
10.3754344754
 21
25.8527737553
  0
LINE
  5
2A6
100
AcDbEntity
  8
0
100
AcDbLine
 62
2
  6
CONTINUOUS
 10
11.2137928087
 20
25.9219598664
 11
11.176127531
 21
25.8527737553
  0
LINE
  5
2A7
100
AcDbEntity
  8
0
100
AcDbLine
 62
2
  6
CONTINUOUS
 10
9.5921497532
 20
26.1920001442
 11
9.5921497532
 21
26.1332237553
  0
LINE
  5
2A8
100
AcDbEntity
  8
0
100
AcDbLine
 62
2
  6
CONTINUOUS
 10
9.766777531
 20
25.8527737553
 11
9.766777531
 21
25.8543473664
  0
LINE
  5
2A9
100
AcDbEntity
  8
0
100
AcDbLine
 62
2
  6
CONTINUOUS
 10
9.9102441976
 20
25.8543473664
 11
9.9102441976
 21
25.8527737553
  0
LINE
  5
2AA
100
AcDbEntity
  8
0
100
AcDbLine
 62
2
  6
CONTINUOUS
 10
12.2811344754
 20
25.6717834775
 11
12.2445136421
 21
25.5814251442
  0
LINE
  5
2AB
100
AcDbEntity
  8
0
100
AcDbLine
 62
2
  6
CONTINUOUS
 10
12.2445136421
 20
25.5610793109
 11
12.2787747532
 21
25.6456070886
  0
LINE
  5
2AC
100
AcDbEntity
  8
0
100
AcDbLine
 62
2
  6
CONTINUOUS
 10
12.3874303087
 20
25.6502445886
 11
12.3694053087
 21
25.6060015331
  0
LINE
  5
2AD
100
AcDbEntity
  8
0
100
AcDbLine
 62
2
  6
CONTINUOUS
 10
11.2800428087
 20
25.650190422
 11
11.2620303087
 21
25.6060015331
  0
LINE
  5
2AE
100
AcDbEntity
  8
0
100
AcDbLine
 62
2
  6
CONTINUOUS
 10
12.5727872532
 20
25.6089181997
 11
12.6062886421
 21
25.6663043109
  0
LINE
  5
2AF
100
AcDbEntity
  8
0
100
AcDbLine
 62
2
  6
CONTINUOUS
 10
12.5977719754
 20
25.6663043109
 11
12.5687858643
 21
25.6172862553
  0
LINE
  5
2B0
100
AcDbEntity
  8
0
100
AcDbLine
 62
2
  6
CONTINUOUS
 10
12.077277531
 20
25.588952922
 11
12.0755955865
 21
25.5869320886
  0
LINE
  5
2B1
100
AcDbEntity
  8
0
100
AcDbLine
 62
2
  6
CONTINUOUS
 10
10.0732761421
 20
25.8527737553
 11
10.0732761421
 21
25.8543473664
  0
LINE
  5
2B2
100
AcDbEntity
  8
0
100
AcDbLine
 62
2
  6
CONTINUOUS
 10
10.0732761421
 20
26.1935668109
 11
10.0732761421
 21
26.1951334775
  0
LINE
  5
2B3
100
AcDbEntity
  8
0
100
AcDbLine
 62
2
  6
CONTINUOUS
 10
10.1797955865
 20
26.1540362553
 11
10.1797955865
 21
26.0572612553
  0
LINE
  5
2B4
100
AcDbEntity
  8
0
100
AcDbLine
 62
2
  6
CONTINUOUS
 10
10.1797955865
 20
26.0197862553
 11
10.1797955865
 21
25.8964751442
  0
LINE
  5
2B5
100
AcDbEntity
  8
0
100
AcDbLine
 62
2
  6
CONTINUOUS
 10
10.3000830865
 20
26.0603737553
 11
10.3000830865
 21
26.0052320886
  0
LINE
  5
2B6
100
AcDbEntity
  8
0
100
AcDbLine
 62
2
  6
CONTINUOUS
 10
10.3413830865
 20
26.1977237553
 11
10.3413830865
 21
26.1368445886
  0
LINE
  5
2B7
100
AcDbEntity
  8
0
100
AcDbLine
 62
2
  6
CONTINUOUS
 10
10.4333969754
 20
25.8527737553
 11
10.4333969754
 21
25.8543473664
  0
LINE
  5
2B8
100
AcDbEntity
  8
0
100
AcDbLine
 62
2
  6
CONTINUOUS
 10
10.4333969754
 20
26.1935668109
 11
10.4333969754
 21
26.1951334775
  0
LINE
  5
2B9
100
AcDbEntity
  8
0
100
AcDbLine
 62
2
  6
CONTINUOUS
 10
10.5717969754
 20
25.8543473664
 11
10.5717969754
 21
25.8527737553
  0
LINE
  5
2BA
100
AcDbEntity
  8
0
100
AcDbLine
 62
2
  6
CONTINUOUS
 10
10.878302531
 20
25.8527737553
 11
10.878302531
 21
25.8543473664
  0
LINE
  5
2BB
100
AcDbEntity
  8
0
100
AcDbLine
 62
2
  6
CONTINUOUS
 10
10.878302531
 20
26.1935668109
 11
10.878302531
 21
26.1951334775
  0
LINE
  5
2BC
100
AcDbEntity
  8
0
100
AcDbLine
 62
2
  6
CONTINUOUS
 10
11.016702531
 20
26.1951334775
 11
11.016702531
 21
26.1935668109
  0
LINE
  5
2BD
100
AcDbEntity
  8
0
100
AcDbLine
 62
2
  6
CONTINUOUS
 10
11.243490031
 20
25.8527737553
 11
11.243490031
 21
25.8543473664
  0
LINE
  5
2BE
100
AcDbEntity
  8
0
100
AcDbLine
 62
2
  6
CONTINUOUS
 10
11.243490031
 20
26.1935668109
 11
11.243490031
 21
26.1951334775
  0
LINE
  5
2BF
100
AcDbEntity
  8
0
100
AcDbLine
 62
2
  6
CONTINUOUS
 10
11.381177531
 20
26.1951334775
 11
11.381177531
 21
26.1935668109
  0
LINE
  5
2C0
100
AcDbEntity
  8
0
100
AcDbLine
 62
2
  6
CONTINUOUS
 10
11.381177531
 20
25.8543473664
 11
11.381177531
 21
25.8527737553
  0
LINE
  5
2C1
100
AcDbEntity
  8
0
100
AcDbLine
 62
2
  6
CONTINUOUS
 10
11.4579733643
 20
25.8527737553
 11
11.4579733643
 21
25.8543473664
  0
LINE
  5
2C2
100
AcDbEntity
  8
0
100
AcDbLine
 62
2
  6
CONTINUOUS
 10
11.4586997532
 20
26.1935668109
 11
11.4586997532
 21
26.1951334775
  0
LINE
  5
2C3
100
AcDbEntity
  8
0
100
AcDbLine
 62
2
  6
CONTINUOUS
 10
12.4318372532
 20
26.0255098664
 11
12.428215031
 21
26.0031362553
  0
LINE
  5
2C4
100
AcDbEntity
  8
0
100
AcDbLine
 62
2
  6
CONTINUOUS
 10
12.1939622532
 20
25.5659084775
 11
12.2103747532
 21
25.6456070886
  0
LINE
  5
2C5
100
AcDbEntity
  8
0
100
AcDbLine
 62
2
  6
CONTINUOUS
 10
12.2080414199
 20
25.6717834775
 11
12.1860011421
 21
25.5659084775
  0
LINE
  5
2C6
100
AcDbEntity
  8
0
100
AcDbLine
 62
2
  6
CONTINUOUS
 10
12.0755955865
 20
25.5869320886
 11
12.043327531
 21
25.5722695886
  0
LINE
  5
2C7
100
AcDbEntity
  8
0
100
AcDbLine
 62
2
  6
CONTINUOUS
 10
11.5644872532
 20
26.1951334775
 11
11.5644872532
 21
26.1946043109
  0
LINE
  5
2C8
100
AcDbEntity
  8
0
100
AcDbLine
 62
2
  6
CONTINUOUS
 10
11.5862219754
 20
25.8543473664
 11
11.5862219754
 21
25.8527737553
  0
LINE
  5
2C9
100
AcDbEntity
  8
0
100
AcDbLine
 62
2
  6
CONTINUOUS
 10
11.8130358643
 20
26.1935668109
 11
11.8130358643
 21
26.1951334775
  0
LINE
  5
2CA
100
AcDbEntity
  8
0
100
AcDbLine
 62
2
  6
CONTINUOUS
 10
11.8662858643
 20
25.542877922
 11
11.8662858643
 21
25.6661681997
  0
LINE
  5
2CB
100
AcDbEntity
  8
0
100
AcDbLine
 62
2
  6
CONTINUOUS
 10
11.8992178087
 20
25.637590422
 11
11.8992178087
 21
25.613827922
  0
LINE
  5
2CC
100
AcDbEntity
  8
0
100
AcDbLine
 62
2
  6
CONTINUOUS
 10
11.8992719754
 20
25.5806515331
 11
11.8992719754
 21
25.542877922
  0
LINE
  5
2CD
100
AcDbEntity
  8
0
100
AcDbLine
 62
2
  6
CONTINUOUS
 10
11.9405719754
 20
26.1951334775
 11
11.9405719754
 21
26.1935668109
  0
LINE
  5
2CE
100
AcDbEntity
  8
0
100
AcDbLine
 62
2
  6
CONTINUOUS
 10
12.077277531
 20
25.586402922
 11
12.077277531
 21
25.588952922
  0
LINE
  5
2CF
100
AcDbEntity
  8
0
100
AcDbLine
 62
2
  6
CONTINUOUS
 10
12.077277531
 20
25.6426362553
 11
12.077277531
 21
25.6538390331
  0
LINE
  5
2D0
100
AcDbEntity
  8
0
100
AcDbLine
 62
2
  6
CONTINUOUS
 10
12.3119372532
 20
25.5659084775
 11
12.3119372532
 21
25.6663043109
  0
LINE
  5
2D1
100
AcDbEntity
  8
0
100
AcDbLine
 62
2
  6
CONTINUOUS
 10
12.3200608643
 20
25.6585737553
 11
12.3200608643
 21
25.6203793109
  0
LINE
  5
2D2
100
AcDbEntity
  8
0
100
AcDbLine
 62
2
  6
CONTINUOUS
 10
12.3200608643
 20
25.6126612553
 11
12.3200608643
 21
25.5659084775
  0
LINE
  5
2D3
100
AcDbEntity
  8
0
100
AcDbLine
 62
2
  6
CONTINUOUS
 10
12.3209830865
 20
26.0255098664
 11
12.3209830865
 21
26.0270626442
  0
LINE
  5
2D4
100
AcDbEntity
  8
0
100
AcDbLine
 62
2
  6
CONTINUOUS
 10
12.3767691976
 20
26.1946043109
 11
12.3767691976
 21
26.1347695886
  0
LINE
  5
2D5
100
AcDbEntity
  8
0
100
AcDbLine
 62
2
  6
CONTINUOUS
 10
12.428215031
 20
26.0031362553
 11
12.428215031
 21
25.8834737553
  0
LINE
  5
2D6
100
AcDbEntity
  8
0
100
AcDbLine
 62
2
  6
CONTINUOUS
 10
12.4318372532
 20
26.0270626442
 11
12.4318372532
 21
26.0255098664
  0
LINE
  5
2D7
100
AcDbEntity
  8
0
100
AcDbLine
 62
2
  6
CONTINUOUS
 10
12.4353233643
 20
25.6689223664
 11
12.4353233643
 21
25.5659084775
  0
LINE
  5
2D8
100
AcDbEntity
  8
0
100
AcDbLine
 62
2
  6
CONTINUOUS
 10
12.4434205865
 20
25.5659084775
 11
12.4434205865
 21
25.6491334775
  0
LINE
  5
2D9
100
AcDbEntity
  8
0
100
AcDbLine
 62
2
  6
CONTINUOUS
 10
12.4584761421
 20
25.8580626442
 11
12.4584761421
 21
25.8861598664
  0
LINE
  5
2DA
100
AcDbEntity
  8
0
100
AcDbLine
 62
2
  6
CONTINUOUS
 10
12.4629511421
 20
25.8831348664
 11
12.4629511421
 21
25.8736265331
  0
LINE
  5
2DB
100
AcDbEntity
  8
0
100
AcDbLine
 62
2
  6
CONTINUOUS
 10
12.4629511421
 20
25.8701612553
 11
12.4629511421
 21
25.8580626442
  0
LINE
  5
2DC
100
AcDbEntity
  8
0
100
AcDbLine
 62
2
  6
CONTINUOUS
 10
12.4722428087
 20
25.8720598664
 11
12.4722428087
 21
25.8718362553
  0
LINE
  5
2DD
100
AcDbEntity
  8
0
100
AcDbLine
 62
2
  6
CONTINUOUS
 10
12.5180733643
 20
25.6663043109
 11
12.5180733643
 21
25.5816140331
  0
LINE
  5
2DE
100
AcDbEntity
  8
0
100
AcDbLine
 62
2
  6
CONTINUOUS
 10
12.5261705865
 20
25.5612293109
 11
12.5261705865
 21
25.6663043109
  0
LINE
  5
2DF
100
AcDbEntity
  8
0
100
AcDbLine
 62
2
  6
CONTINUOUS
 10
12.5727872532
 20
25.5659084775
 11
12.5727872532
 21
25.6089181997
  0
LINE
  5
2E0
100
AcDbEntity
  8
0
100
AcDbLine
 62
2
  6
CONTINUOUS
 10
12.5648122532
 20
25.6084293109
 11
12.5646636421
 21
25.5659084775
  0
LINE
  5
2E1
100
AcDbEntity
  8
0
100
AcDbLine
 62
2
  6
CONTINUOUS
 10
12.0769247532
 20
25.5770570886
 11
12.077277531
 21
25.586402922
  0
LINE
  5
2E2
100
AcDbEntity
  8
0
100
AcDbLine
 62
2
  6
CONTINUOUS
 10
9.3102747532
 20
25.8600570886
 11
9.2892664199
 21
25.9250931997
  0
LINE
  5
2E3
100
AcDbEntity
  8
0
100
AcDbLine
 62
2
  6
CONTINUOUS
 10
12.3031483643
 20
25.5659084775
 11
12.2811344754
 21
25.6717834775
  0
LINE
  5
2E4
100
AcDbEntity
  8
0
100
AcDbLine
 62
2
  6
CONTINUOUS
 10
12.2787747532
 20
25.6456070886
 11
12.2952539199
 21
25.5659084775
  0
LINE
  5
2E5
100
AcDbEntity
  8
0
100
AcDbLine
 62
2
  6
CONTINUOUS
 10
12.428215031
 20
25.8834737553
 11
12.4318372532
 21
25.8600570886
  0
LINE
  5
2E6
100
AcDbEntity
  8
0
100
AcDbLine
 62
2
  6
CONTINUOUS
 10
11.2978178087
 20
25.6060015331
 11
11.2800428087
 21
25.650190422
  0
LINE
  5
2E7
100
AcDbEntity
  8
0
100
AcDbLine
 62
2
  6
CONTINUOUS
 10
12.4740330865
 20
25.8580626442
 11
12.4721344754
 21
25.8652251442
  0
LINE
  5
2E8
100
AcDbEntity
  8
0
100
AcDbLine
 62
2
  6
CONTINUOUS
 10
12.4722428087
 20
25.8718362553
 11
12.4787261421
 21
25.8580626442
  0
LINE
  5
2E9
100
AcDbEntity
  8
0
100
AcDbLine
 62
2
  6
CONTINUOUS
 10
12.2103747532
 20
25.6456070886
 11
12.2445136421
 21
25.5610793109
  0
LINE
  5
2EA
100
AcDbEntity
  8
0
100
AcDbLine
 62
2
  6
CONTINUOUS
 10
12.2445136421
 20
25.5814251442
 11
12.2080414199
 21
25.6717834775
  0
LINE
  5
2EB
100
AcDbEntity
  8
0
100
AcDbLine
 62
2
  6
CONTINUOUS
 10
12.4051983643
 20
25.6060015331
 11
12.3874303087
 21
25.6502445886
  0
LINE
  5
2EC
100
AcDbEntity
  8
0
100
AcDbLine
 62
2
  6
CONTINUOUS
 10
11.9267914199
 20
25.5427959775
 11
11.8992719754
 21
25.5806515331
  0
LINE
  5
2ED
100
AcDbEntity
  8
0
100
AcDbLine
 62
2
  6
CONTINUOUS
 10
11.9285011421
 20
25.5921126442
 11
11.9636164199
 21
25.542727922
  0
LINE
  5
2EE
100
AcDbEntity
  8
0
100
AcDbLine
 62
2
  6
CONTINUOUS
 10
12.5311747532
 20
25.6663043109
 11
12.5648122532
 21
25.6084293109
  0
LINE
  5
2EF
100
AcDbEntity
  8
0
100
AcDbLine
 62
2
  6
CONTINUOUS
 10
12.5687858643
 20
25.6172862553
 11
12.540452531
 21
25.6663043109
  0
LINE
  5
2F0
100
AcDbEntity
  8
0
100
AcDbLine
 62
2
  6
CONTINUOUS
 10
10.6232497532
 20
25.9573543109
 11
10.5565789199
 21
26.0307181997
  0
LINE
  5
2F1
100
AcDbEntity
  8
0
100
AcDbLine
 62
2
  6
CONTINUOUS
 10
11.5644872532
 20
26.1946043109
 11
11.5753719754
 21
26.1815973664
  0
LINE
  5
2F2
100
AcDbEntity
  8
0
100
AcDbLine
 62
2
  6
CONTINUOUS
 10
10.7116428087
 20
25.8787876442
 11
10.6232497532
 21
25.9573543109
  0
LINE
  5
2F3
100
AcDbEntity
  8
0
100
AcDbLine
 62
2
  6
CONTINUOUS
 10
11.5855039199
 20
26.1711931997
 11
11.850715031
 21
25.9308168109
  0
LINE
  5
2F4
100
AcDbEntity
  8
0
100
AcDbLine
 62
2
  6
CONTINUOUS
 10
11.7970844754
 20
25.8954376442
 11
11.5485566976
 21
26.1217626442
  0
LINE
  5
2F5
100
AcDbEntity
  8
0
100
AcDbLine
 62
2
  6
CONTINUOUS
 10
11.5753719754
 20
26.1815973664
 11
11.5855039199
 21
26.1711931997
  0
LINE
  5
2F6
100
AcDbEntity
  8
0
100
AcDbLine
 62
2
  6
CONTINUOUS
 10
12.5180733643
 20
25.5816140331
 11
12.4353233643
 21
25.6689223664
  0
LINE
  5
2F7
100
AcDbEntity
  8
0
100
AcDbLine
 62
2
  6
CONTINUOUS
 10
12.4434205865
 20
25.6491334775
 11
12.5261705865
 21
25.5612293109
  0
LINE
  5
2F8
100
AcDbEntity
  8
0
100
AcDbLine
 62
2
  6
CONTINUOUS
 10
12.043327531
 20
25.6598612553
 11
12.077277531
 21
25.6426362553
  0
LINE
  5
2F9
100
AcDbEntity
  8
0
100
AcDbLine
 62
2
  6
CONTINUOUS
 10
12.4721344754
 20
25.8652251442
 11
12.4629511421
 21
25.8701612553
  0
LINE
  5
2FA
100
AcDbEntity
  8
0
100
AcDbLine
 62
2
  6
CONTINUOUS
 10
9.6740178087
 20
26.1987751442
 11
9.701565031
 21
26.1951334775
  0
LINE
  5
2FB
100
AcDbEntity
  8
0
100
AcDbLine
 62
2
  6
CONTINUOUS
 10
11.8992719754
 20
25.542877922
 11
11.8662858643
 21
25.542877922
  0
LINE
  5
2FC
100
AcDbEntity
  8
0
100
AcDbLine
 62
2
  6
CONTINUOUS
 10
12.3200608643
 20
25.5659084775
 11
12.3119372532
 21
25.5659084775
  0
LINE
  5
2FD
100
AcDbEntity
  8
0
100
AcDbLine
 62
2
  6
CONTINUOUS
 10
12.1860011421
 20
25.5659084775
 11
12.1939622532
 21
25.5659084775
  0
LINE
  5
2FE
100
AcDbEntity
  8
0
100
AcDbLine
 62
2
  6
CONTINUOUS
 10
12.2952539199
 20
25.5659084775
 11
12.3031483643
 21
25.5659084775
  0
LINE
  5
2FF
100
AcDbEntity
  8
0
100
AcDbLine
 62
2
  6
CONTINUOUS
 10
12.4353233643
 20
25.5659084775
 11
12.4434205865
 21
25.5659084775
  0
LINE
  5
300
100
AcDbEntity
  8
0
100
AcDbLine
 62
2
  6
CONTINUOUS
 10
12.5646636421
 20
25.5659084775
 11
12.5727872532
 21
25.5659084775
  0
LINE
  5
301
100
AcDbEntity
  8
0
100
AcDbLine
 62
2
  6
CONTINUOUS
 10
11.2620303087
 20
25.6060015331
 11
11.2978178087
 21
25.6060015331
  0
LINE
  5
302
100
AcDbEntity
  8
0
100
AcDbLine
 62
2
  6
CONTINUOUS
 10
12.3694053087
 20
25.6060015331
 11
12.4051983643
 21
25.6060015331
  0
LINE
  5
303
100
AcDbEntity
  8
0
100
AcDbLine
 62
2
  6
CONTINUOUS
 10
12.3302469754
 20
25.6126612553
 11
12.3200608643
 21
25.6126612553
  0
LINE
  5
304
100
AcDbEntity
  8
0
100
AcDbLine
 62
2
  6
CONTINUOUS
 10
12.6062886421
 20
25.6663043109
 11
12.5977719754
 21
25.6663043109
  0
LINE
  5
305
100
AcDbEntity
  8
0
100
AcDbLine
 62
2
  6
CONTINUOUS
 10
12.540452531
 20
25.6663043109
 11
12.5311747532
 21
25.6663043109
  0
LINE
  5
306
100
AcDbEntity
  8
0
100
AcDbLine
 62
2
  6
CONTINUOUS
 10
12.5261705865
 20
25.6663043109
 11
12.5180733643
 21
25.6663043109
  0
LINE
  5
307
100
AcDbEntity
  8
0
100
AcDbLine
 62
2
  6
CONTINUOUS
 10
12.3119372532
 20
25.6663043109
 11
12.3302469754
 21
25.6663043109
  0
LINE
  5
308
100
AcDbEntity
  8
0
100
AcDbLine
 62
2
  6
CONTINUOUS
 10
11.5862219754
 20
25.8527737553
 11
11.4579733643
 21
25.8527737553
  0
LINE
  5
309
100
AcDbEntity
  8
0
100
AcDbLine
 62
2
  6
CONTINUOUS
 10
11.381177531
 20
25.8527737553
 11
11.243490031
 21
25.8527737553
  0
LINE
  5
30A
100
AcDbEntity
  8
0
100
AcDbLine
 62
2
  6
CONTINUOUS
 10
11.176127531
 20
25.8527737553
 11
10.878302531
 21
25.8527737553
  0
LINE
  5
30B
100
AcDbEntity
  8
0
100
AcDbLine
 62
2
  6
CONTINUOUS
 10
10.8623719754
 20
25.8527737553
 11
10.7957011421
 21
25.8527737553
  0
LINE
  5
30C
100
AcDbEntity
  8
0
100
AcDbLine
 62
2
  6
CONTINUOUS
 10
10.5717969754
 20
25.8527737553
 11
10.4333969754
 21
25.8527737553
  0
LINE
  5
30D
100
AcDbEntity
  8
0
100
AcDbLine
 62
2
  6
CONTINUOUS
 10
10.3754344754
 20
25.8527737553
 11
10.0732761421
 21
25.8527737553
  0
LINE
  5
30E
100
AcDbEntity
  8
0
100
AcDbLine
 62
2
  6
CONTINUOUS
 10
9.9102441976
 20
25.8527737553
 11
9.766777531
 21
25.8527737553
  0
LINE
  5
30F
100
AcDbEntity
  8
0
100
AcDbLine
 62
2
  6
CONTINUOUS
 10
12.4629511421
 20
25.8580626442
 11
12.4584761421
 21
25.8580626442
  0
LINE
  5
310
100
AcDbEntity
  8
0
100
AcDbLine
 62
2
  6
CONTINUOUS
 10
12.4787261421
 20
25.8580626442
 11
12.4740330865
 21
25.8580626442
  0
LINE
  5
311
100
AcDbEntity
  8
0
100
AcDbLine
 62
2
  6
CONTINUOUS
 10
10.4058705865
 20
25.9209431997
 11
10.408040031
 21
25.9209431997
  0
LINE
  5
312
100
AcDbEntity
  8
0
100
AcDbLine
 62
2
  6
CONTINUOUS
 10
11.2116219754
 20
25.9219598664
 11
11.2137928087
 21
25.9219598664
  0
LINE
  5
313
100
AcDbEntity
  8
0
100
AcDbLine
 62
2
  6
CONTINUOUS
 10
10.3000830865
 20
26.0052320886
 11
10.2979053087
 21
26.0052320886
  0
LINE
  5
314
100
AcDbEntity
  8
0
100
AcDbLine
 62
2
  6
CONTINUOUS
 10
12.3209830865
 20
26.0270626442
 11
12.4318372532
 21
26.0270626442
  0
LINE
  5
315
100
AcDbEntity
  8
0
100
AcDbLine
 62
2
  6
CONTINUOUS
 10
10.1797955865
 20
26.0572612553
 11
10.2660178087
 21
26.0572612553
  0
LINE
  5
316
100
AcDbEntity
  8
0
100
AcDbLine
 62
2
  6
CONTINUOUS
 10
10.2979053087
 20
26.0603737553
 11
10.3000830865
 21
26.0603737553
  0
LINE
  5
317
100
AcDbEntity
  8
0
100
AcDbLine
 62
2
  6
CONTINUOUS
 10
12.3767691976
 20
26.1347695886
 11
12.3745997532
 21
26.1347695886
  0
LINE
  5
318
100
AcDbEntity
  8
0
100
AcDbLine
 62
2
  6
CONTINUOUS
 10
10.3413830865
 20
26.1368445886
 11
10.3392066976
 21
26.1368445886
  0
LINE
  5
319
100
AcDbEntity
  8
0
100
AcDbLine
 62
2
  6
CONTINUOUS
 10
10.0022719754
 20
26.1368445886
 11
10.0000941976
 21
26.1368445886
  0
LINE
  5
31A
100
AcDbEntity
  8
0
100
AcDbLine
 62
2
  6
CONTINUOUS
 10
9.6486608643
 20
26.1368445886
 11
9.6464844754
 21
26.1368445886
  0
LINE
  5
31B
100
AcDbEntity
  8
0
100
AcDbLine
 62
2
  6
CONTINUOUS
 10
9.7986441976
 20
26.1576709775
 11
9.7348830865
 21
26.1576709775
  0
LINE
  5
31C
100
AcDbEntity
  8
0
100
AcDbLine
 62
2
  6
CONTINUOUS
 10
9.701565031
 20
26.1951334775
 11
9.9899566976
 21
26.1951334775
  0
LINE
  5
31D
100
AcDbEntity
  8
0
100
AcDbLine
 62
2
  6
CONTINUOUS
 10
10.0732761421
 20
26.1951334775
 11
10.3051553087
 21
26.1951334775
  0
LINE
  5
31E
100
AcDbEntity
  8
0
100
AcDbLine
 62
2
  6
CONTINUOUS
 10
10.878302531
 20
26.1951334775
 11
11.016702531
 21
26.1951334775
  0
LINE
  5
31F
100
AcDbEntity
  8
0
100
AcDbLine
 62
2
  6
CONTINUOUS
 10
11.243490031
 20
26.1951334775
 11
11.381177531
 21
26.1951334775
  0
LINE
  5
320
100
AcDbEntity
  8
0
100
AcDbLine
 62
2
  6
CONTINUOUS
 10
11.4586997532
 20
26.1951334775
 11
11.5644872532
 21
26.1951334775
  0
LINE
  5
321
100
AcDbEntity
  8
0
100
AcDbLine
 62
2
  6
CONTINUOUS
 10
11.8130358643
 20
26.1951334775
 11
11.9405719754
 21
26.1951334775
  0
LINE
  5
322
100
AcDbEntity
  8
0
100
AcDbLine
 62
2
  6
CONTINUOUS
 10
10.3392066976
 20
26.1977237553
 11
10.3413830865
 21
26.1977237553
  0
LINE
  5
323
100
AcDbEntity
  8
0
100
AcDbLine
 62
2
  6
CONTINUOUS
 10
9.6718539199
 20
26.1987751442
 11
9.6740178087
 21
26.1987751442
  0
LINE
  5
324
100
AcDbEntity
  8
0
100
AcDbLine
 62
2
  6
CONTINUOUS
 10
10.0232816976
 20
26.1987751442
 11
10.0254511421
 21
26.1987751442
  0
LINE
  5
325
100
AcDbEntity
  8
0
100
AcDbLine
 62
2
  6
CONTINUOUS
 10
11.9636164199
 20
25.542727922
 11
11.9267914199
 21
25.5427959775
  0
LINE
  5
326
100
AcDbEntity
  8
0
100
AcDbLine
 62
2
  6
CONTINUOUS
 10
9.9899566976
 20
26.1951334775
 11
10.0232816976
 21
26.1987751442
  0
LINE
  5
327
100
AcDbEntity
  8
0
100
AcDbLine
 62
2
  6
CONTINUOUS
 10
10.2660178087
 20
26.0572612553
 11
10.2979053087
 21
26.0603737553
  0
LINE
  5
328
100
AcDbEntity
  8
0
100
AcDbLine
 62
2
  6
CONTINUOUS
 10
10.3051553087
 20
26.1951334775
 11
10.3392066976
 21
26.1977237553
  0
LINE
  5
329
100
AcDbEntity
  8
0
100
AcDbLine
 62
2
  6
CONTINUOUS
 10
10.253702531
 20
26.1576709775
 11
10.1797955865
 21
26.1540362553
  0
LINE
  5
32A
100
AcDbEntity
  8
_CURVE
100
AcDbLine
 62
8
  6
PHANTOM
 10
7.6530045467
 20
29.5692235455
 11
6.1486113279
 21
28.0648303267
  0
LINE
  5
32B
100
AcDbEntity
  8
_CURVE
100
AcDbLine
 62
8
  6
PHANTOM
 10
6.1486113279
 20
10.5646167643
 11
7.6530045467
 21
9.0602235455
  0
LINE
  5
32C
100
AcDbEntity
  8
_CURVE
100
AcDbLine
 62
8
  6
PHANTOM
 10
6.1486113279
 20
10.5646167643
 11
6.1486113279
 21
28.0648303267
  0
LINE
  5
32D
100
AcDbEntity
  8
_CURVE
100
AcDbLine
 62
8
  6
PHANTOM
 10
36.1552181091
 20
9.0602235455
 11
7.6530045467
 21
9.0602235455
  0
LINE
  5
32E
100
AcDbEntity
  8
_CURVE
100
AcDbLine
 62
7
  6
CONTINUOUS
 10
10.6393044357
 20
10.0797381974
 11
33.2691194851
 21
10.0797381974
  0
LINE
  5
32F
100
AcDbEntity
  8
_CURVE
100
AcDbLine
 62
7
  6
CENTER
 10
21.9046113279
 20
10.2192606595
 11
21.9046113279
 21
8.1004892445
  0
LINE
  5
330
100
AcDbEntity
  8
_CURVE
100
AcDbLine
 62
7
  6
CENTER
 10
21.9046113279
 20
25.7130914024
 11
21.9046113279
 21
27.8318628175
  0
LINE
  5
331
100
AcDbEntity
  8
_CURVE
100
AcDbLine
 62
7
  6
CENTER
 10
7.523382743
 20
19.3102235455
 11
5.4046113279
 21
19.3102235455
  0
LINE
  5
332
100
AcDbEntity
  8
_CURVE
100
AcDbLine
 62
7
  6
CENTER
 10
36.5180893893
 20
19.3102235455
 11
38.6368608043
 21
19.3102235455
  0
LINE
  5
333
100
AcDbEntity
  8
_CURVE
100
AcDbLine
 62
8
  6
PHANTOM
 10
21.2555287636
 20
28.2131949671
 11
21.6431503272
 21
27.1482134738
  0
LINE
  5
334
100
AcDbEntity
  8
_CURVE
100
AcDbLine
 62
7
  6
CONTINUOUS
 10
21.7516326049
 20
25.7907088563
 11
33.2677416898
 21
25.7907088563
  0
LINE
  5
335
100
AcDbEntity
  8
_CURVE
100
AcDbLine
 62
8
  6
PHANTOM
 10
22.1129966376
 20
26.8192235455
 11
36.1552181091
 21
26.8192235455
  0
LINE
  5
336
100
AcDbEntity
  8
_CURVE
100
AcDbLine
 62
8
  6
PHANTOM
 10
19.25679933
 20
29.5022362474
 11
21.0356824532
 21
28.4751975974
  0
LINE
  5
337
100
AcDbEntity
  8
_CURVE
100
AcDbLine
 62
7
  6
CONTINUOUS
 10
17.9199162794
 20
28.540708913
 11
10.6393063764
 21
28.540708913
  0
LINE
  5
338
100
AcDbEntity
  8
_CURVE
100
AcDbLine
 62
8
  6
PHANTOM
 10
7.6530045467
 20
29.5692235455
 11
19.00679933
 21
29.5692235455
  0
LINE
  5
339
100
AcDbEntity
  8
_CURVE
100
AcDbLine
 62
8
  6
PHANTOM
 10
37.6596113279
 20
25.3148303267
 11
37.6596113279
 21
10.5646167643
  0
LINE
  5
33A
100
AcDbEntity
  8
_CURVE
100
AcDbLine
 62
8
  6
PHANTOM
 10
37.6596113279
 20
25.3148303267
 11
36.1552181091
 21
26.8192235455
  0
LINE
  5
33B
100
AcDbEntity
  8
_CURVE
100
AcDbLine
 62
8
  6
PHANTOM
 10
36.1552181091
 20
9.0602235455
 11
37.6596113279
 21
10.5646167643
  0
ARC
  5
33C
100
AcDbEntity
  8
0
100
AcDbCircle
 62
2
  6
CONTINUOUS
 10
12.2596462244
 20
25.9418677675
 40
0.2245560651
100
AcDbArc
 50
59.208555199
 51
93.5831215674
  0
ARC
  5
33D
100
AcDbEntity
  8
0
100
AcDbCircle
 62
2
  6
CONTINUOUS
 10
11.945195968
 20
26.0356317494
 40
0.2039397004
100
AcDbArc
 50
223.4269507726
 51
258.0242403069
  0
ARC
  5
33E
100
AcDbEntity
  8
0
100
AcDbCircle
 62
2
  6
CONTINUOUS
 10
9.7278129099
 20
25.998046632
 40
0.1597808471
100
AcDbArc
 50
87.4638787987
 51
119.6947324667
  0
ARC
  5
33F
100
AcDbEntity
  8
0
100
AcDbCircle
 62
2
  6
CONTINUOUS
 10
10.2680535933
 20
26.0306554451
 40
0.1278237007
100
AcDbArc
 50
56.1755396367
 51
96.4463209909
  0
ARC
  5
340
100
AcDbEntity
  8
0
100
AcDbCircle
 62
2
  6
CONTINUOUS
 10
10.784845775
 20
25.9665121841
 40
0.1142552807
100
AcDbArc
 50
230.1562195028
 51
275.4518816802
  0
ARC
  5
341
100
AcDbEntity
  8
0
100
AcDbCircle
 62
2
  6
CONTINUOUS
 10
12.0431774063
 20
25.6164976091
 40
0.0519079771
100
AcDbArc
 50
180.5675053294
 51
310.5520051654
  0
CIRCLE
  5
342
100
AcDbEntity
  8
0
100
AcDbCircle
 62
2
  6
CONTINUOUS
 10
12.1355561231
 20
25.6160661164
 40
0.0514756023
  0
ARC
  5
343
100
AcDbEntity
  8
0
100
AcDbCircle
 62
2
  6
CONTINUOUS
 10
12.0426024159
 20
25.6159913042
 40
0.0513304411
100
AcDbArc
 50
47.5048873671
 51
180.0087362707
  0
CIRCLE
  5
344
100
AcDbEntity
  8
0
100
AcDbCircle
 62
2
  6
CONTINUOUS
 10
12.135124685
 20
25.616065422
 40
0.043795935
  0
CIRCLE
  5
345
100
AcDbEntity
  8
0
100
AcDbCircle
 62
2
  6
CONTINUOUS
 10
11.5297244921
 20
25.6055063942
 40
0.0317997452
  0
ARC
  5
346
100
AcDbEntity
  8
0
100
AcDbCircle
 62
2
  6
CONTINUOUS
 10
12.3347455989
 20
25.6394827831
 40
0.0271961756
100
AcDbArc
 50
260.4787245939
 51
99.5212754061
  0
CIRCLE
  5
347
100
AcDbEntity
  8
0
100
AcDbCircle
 62
2
  6
CONTINUOUS
 10
12.4677122532
 20
25.8737652077
 40
0.0202280646
  0
ARC
  5
348
100
AcDbEntity
  8
_CURVE
100
AcDbCircle
 62
7
  6
CONTINUOUS
 10
70.4046113279
 20
19.3102235455
 40
63.2304853108
100
AcDbArc
 50
175.255493805
 51
184.7444947295
  0
ARC
  5
349
100
AcDbEntity
  8
_CURVE
100
AcDbCircle
 62
7
  6
CONTINUOUS
 10
-26.5953886721
 20
17.9352235455
 40
63.2304853108
100
AcDbArc
 50
356.5731051482
 51
3.4268951378
  0
ARC
  5
34A
100
AcDbEntity
  8
_CURVE
100
AcDbCircle
 62
7
  6
CONTINUOUS
 10
21.7516326049
 20
26.7907088563
 40
1.0
100
AcDbArc
 50
198.810804469
 51
270.0
  0
ARC
  5
34B
100
AcDbEntity
  8
_CURVE
100
AcDbCircle
 62
8
  6
PHANTOM
 10
22.1129966376
 20
27.3192235455
 40
0.5
100
AcDbArc
 50
200.0
 51
270.0
  0
ARC
  5
34C
100
AcDbEntity
  8
_CURVE
100
AcDbCircle
 62
8
  6
PHANTOM
 10
20.7856824532
 20
28.0421848955
 40
0.5
100
AcDbArc
 50
20.0
 51
60.0
  0
ARC
  5
34D
100
AcDbEntity
  8
_CURVE
100
AcDbCircle
 62
8
  6
PHANTOM
 10
19.00679933
 20
29.0692235455
 40
0.5
100
AcDbArc
 50
60.0
 51
90.0
  0
SPLINE
  5
34E
100
AcDbEntity
  8
_CURVE
100
AcDbSpline
 62
7
  6
CONTINUOUS
 70
0
 71
3
 72
33
 73
29
 74
0
 42
0.0000001
 43
0.0000001
 44
0.0000000001
 40
0.0
 40
0.0
 40
0.0
 40
0.0
 40
0.0435102591
 40
0.0828180058
 40
0.1186534884
 40
0.1517771992
 40
0.1827893749
 40
0.2120734378
 40
0.2399949572
 40
0.2669081691
 40
0.2931538367
 40
0.3190205439
 40
0.3447903964
 40
0.3707350694
 40
0.3971362612
 40
0.4243070467
 40
0.452567998
 40
0.4822780812
 40
0.5138270997
 40
0.5477029921
 40
0.5844571035
 40
0.6247399178
 40
0.6693592006
 40
0.7193133281
 40
0.7758256351
 40
0.840358499
 40
0.9145741029
 40
1.0
 40
1.0
 40
1.0
 40
1.0
 10
10.6393064226
 20
28.5407064499
 30
0.0
 10
10.5550172945
 20
28.5407288167
 30
0.0
 10
10.3945374039
 20
28.53670313
 30
0.0
 10
10.1653048264
 20
28.5182718012
 30
0.0
 10
9.9574116441
 20
28.4896612209
 30
0.0
 10
9.7672979406
 20
28.4521567136
 30
0.0
 10
9.5920326668
 20
28.4066222324
 30
0.0
 10
9.4294221888
 20
28.3537091279
 30
0.0
 10
9.277746958
 20
28.2938488981
 30
0.0
 10
9.1354112925
 20
28.2271866043
 30
0.0
 10
9.0010291775
 20
28.153641036
 30
0.0
 10
8.8734166884
 20
28.0729654003
 30
0.0
 10
8.7516224421
 20
27.9847388836
 30
0.0
 10
8.6348408022
 20
27.8883414007
 30
0.0
 10
8.5223811228
 20
27.7829242464
 30
0.0
 10
8.4136538792
 20
27.6674160277
 30
0.0
 10
8.3081862056
 20
27.540468514
 30
0.0
 10
8.2056604239
 20
27.4004686522
 30
0.0
 10
8.1058514345
 20
27.2454073817
 30
0.0
 10
8.0086658315
 20
27.0728353812
 30
0.0
 10
7.9141557095
 20
26.8797453849
 30
0.0
 10
7.8225466645
 20
26.6624730745
 30
0.0
 10
7.7342873571
 20
26.416453493
 30
0.0
 10
7.650097964
 20
26.1359999194
 30
0.0
 10
7.5710555481
 20
25.8141636789
 30
0.0
 10
7.4988584996
 20
25.4427066746
 30
0.0
 10
7.4358591235
 20
25.0128811487
 30
0.0
 10
7.4044651881
 20
24.7051077678
 30
0.0
 10
7.3907916164
 20
24.5401845025
 30
0.0
  0
SPLINE
  5
34F
100
AcDbEntity
  8
_CURVE
100
AcDbSpline
 62
7
  6
CONTINUOUS
 70
0
 71
3
 72
33
 73
29
 74
0
 42
0.0000001
 43
0.0000001
 44
0.0000000001
 40
0.0
 40
0.0
 40
0.0
 40
0.0
 40
0.0853710966
 40
0.1595432319
 40
0.2240457077
 40
0.2805876742
 40
0.3305901523
 40
0.3752353018
 40
0.4155248541
 40
0.4522827763
 40
0.4861617508
 40
0.5177141705
 40
0.5474293654
 40
0.5756988039
 40
0.6028819421
 40
0.6292963097
 40
0.6552498294
 40
0.6810168794
 40
0.7068644975
 40
0.7330844504
 40
0.7599815622
 40
0.7879126248
 40
0.817242057
 40
0.8483232601
 40
0.8815069582
 40
0.917356228
 40
0.956619072
 40
1.0
 40
1.0
 40
1.0
 40
1.0
 10
7.3907905536
 20
14.0802751638
 30
0.0
 10
7.4044559494
 20
13.9154576232
 30
0.0
 10
7.4358412172
 20
13.6078752488
 30
0.0
 10
7.4987394943
 20
13.1782868183
 30
0.0
 10
7.5709031489
 20
12.8069097383
 30
0.0
 10
7.6499559782
 20
12.4849809377
 30
0.0
 10
7.7341842894
 20
12.2043286693
 30
0.0
 10
7.8224804536
 20
11.9581553654
 30
0.0
 10
7.9141050578
 20
11.7408127814
 30
0.0
 10
8.0086191942
 20
11.547695095
 30
0.0
 10
8.1058096939
 20
11.3751027414
 30
0.0
 10
8.2056282676
 20
11.2200206906
 30
0.0
 10
8.308173203
 20
11.0799937993
 30
0.0
 10
8.413674006
 20
10.9530082139
 30
0.0
 10
8.5224483535
 20
10.8374535689
 30
0.0
 10
8.6349590212
 20
10.7319932136
 30
0.0
 10
8.751770957
 20
10.6355737118
 30
0.0
 10
8.8735474183
 20
10.5473654381
 30
0.0
 10
9.001085755
 20
10.4667449546
 30
0.0
 10
9.1353694015
 20
10.3932648732
 30
0.0
 10
9.2776576691
 20
10.3266481176
 30
0.0
 10
9.4294134571
 20
10.2667867014
 30
0.0
 10
9.5922614176
 20
10.2138265194
 30
0.0
 10
9.7678600738
 20
10.1682320367
 30
0.0
 10
9.9582441204
 20
10.1306688915
 30
0.0
 10
10.1661947647
 20
10.1020579135
 30
0.0
 10
10.3951228813
 20
10.0837121938
 30
0.0
 10
10.5552648825
 20
10.0797174208
 30
0.0
 10
10.6393035292
 20
10.0797406367
 30
0.0
  0
SPLINE
  5
350
100
AcDbEntity
  8
_CURVE
100
AcDbSpline
 62
7
  6
CONTINUOUS
 70
0
 71
3
 72
34
 73
30
 74
0
 42
0.0000001
 43
0.0000001
 44
0.0000000001
 40
0.0
 40
0.0
 40
0.0
 40
0.0
 40
0.0429942858
 40
0.0820204904
 40
0.1175535377
 40
0.150328672
 40
0.1809378718
 40
0.2097495056
 40
0.2371147896
 40
0.2633728139
 40
0.2888553017
 40
0.3138347219
 40
0.3385731704
 40
0.3633209723
 40
0.3883282012
 40
0.4138711455
 40
0.4402308871
 40
0.4677129503
 40
0.4966432674
 40
0.527412933
 40
0.5604725173
 40
0.5963490308
 40
0.6356490771
 40
0.6791478752
 40
0.727777794
 40
0.7826759019
 40
0.8452782077
 40
0.9172472609
 40
1.0
 40
1.0
 40
1.0
 40
1.0
 10
33.2691194851
 20
10.0797380526
 30
0.0
 10
33.3538472458
 20
10.0797380526
 30
0.0
 10
33.5155216882
 20
10.0836808137
 30
0.0
 10
33.7465914271
 20
10.1016420388
 30
0.0
 10
33.9563716732
 20
10.1295593903
 30
0.0
 10
34.1479551597
 20
10.1661064768
 30
0.0
 10
34.3242666866
 20
10.2104002408
 30
0.0
 10
34.4875058333
 20
10.2617534854
 30
0.0
 10
34.6393833849
 20
10.3196800634
 30
0.0
 10
34.7815075837
 20
10.3839665128
 30
0.0
 10
34.9152779988
 20
10.4546236885
 30
0.0
 10
35.0418958115
 20
10.531808186
 30
0.0
 10
35.1623236731
 20
10.6158274747
 30
0.0
 10
35.277373622
 20
10.7071608463
 30
0.0
 10
35.3877401662
 20
10.8064883374
 30
0.0
 10
35.4940187314
 20
10.9146790297
 30
0.0
 10
35.5967033733
 20
11.0328301951
 30
0.0
 10
35.696139408
 20
11.1622572339
 30
0.0
 10
35.7925663603
 20
11.3045731634
 30
0.0
 10
35.8861133551
 20
11.4617409369
 30
0.0
 10
35.9767945803
 20
11.6361702532
 30
0.0
 10
36.0644473045
 20
11.8307451915
 30
0.0
 10
36.1487485996
 20
12.0490140469
 30
0.0
 10
36.2291351154
 20
12.2953500246
 30
0.0
 10
36.3047792958
 20
12.5751696786
 30
0.0
 10
36.3744973443
 20
12.8951794728
 30
0.0
 10
36.4365280789
 20
13.2635101353
 30
0.0
 10
36.4884215695
 20
13.6887639212
 30
0.0
 10
36.5122991606
 20
13.9928372238
 30
0.0
 10
36.5220329001
 20
14.1556247947
 30
0.0
  0
SPLINE
  5
351
100
AcDbEntity
  8
_CURVE
100
AcDbSpline
 62
7
  6
CONTINUOUS
 70
0
 71
3
 72
34
 73
30
 74
0
 42
0.0000001
 43
0.0000001
 44
0.0000000001
 40
0.0
 40
0.0
 40
0.0
 40
0.0
 40
0.0827334861
 40
0.154685746
 40
0.2172734445
 40
0.2721587431
 40
0.3207773155
 40
0.3642659649
 40
0.4035568425
 40
0.4394249865
 40
0.4724768588
 40
0.5032393469
 40
0.5321629161
 40
0.5596385695
 40
0.5859921635
 40
0.6115291511
 40
0.6365305488
 40
0.6612725803
 40
0.686005261
 40
0.7109788579
 40
0.7364554054
 40
0.7627073094
 40
0.7900662156
 40
0.8188711351
 40
0.8494732023
 40
0.8822407001
 40
0.9177654692
 40
0.9567825836
 40
1.0
 40
1.0
 40
1.0
 40
1.0
 10
36.5220328813
 20
21.7148226117
 30
0.0
 10
36.5122991376
 20
21.8776102701
 30
0.0
 10
36.488421523
 20
22.1816836386
 30
0.0
 10
36.4365280047
 20
22.6069374711
 30
0.0
 10
36.3744972556
 20
22.9752680779
 30
0.0
 10
36.3047791954
 20
23.2952778245
 30
0.0
 10
36.2291350047
 20
23.5750974381
 30
0.0
 10
36.1487484797
 20
23.8214333812
 30
0.0
 10
36.0644471761
 20
24.0397022069
 30
0.0
 10
35.9767944438
 20
24.2342771197
 30
0.0
 10
35.8861132106
 20
24.4087064138
 30
0.0
 10
35.7925662077
 20
24.5658741679
 30
0.0
 10
35.6961392469
 20
24.7081900803
 30
0.0
 10
35.5967032032
 20
24.8376171041
 30
0.0
 10
35.4940185516
 20
24.955768256
 30
0.0
 10
35.3877399757
 20
25.0639589361
 30
0.0
 10
35.2773734195
 20
25.163286416
 30
0.0
 10
35.162323457
 20
25.2546197773
 30
0.0
 10
35.0418955801
 20
25.3386390562
 30
0.0
 10
34.9152777499
 20
25.4158235441
 30
0.0
 10
34.7815073147
 20
25.48648071
 30
0.0
 10
34.6393830927
 20
25.5507671495
 30
0.0
 10
34.487505514
 20
25.6086937168
 30
0.0
 10
34.324266336
 20
25.6600469495
 30
0.0
 10
34.1479547727
 20
25.7043406998
 30
0.0
 10
33.9563712435
 20
25.7408877706
 30
0.0
 10
33.7465909453
 20
25.7688051025
 30
0.0
 10
33.5150627554
 20
25.7868019393
 30
0.0
 10
33.3529273145
 20
25.7907313915
 30
0.0
 10
33.2677401963
 20
25.7907088559
 30
0.0
  0
SPLINE
  5
352
100
AcDbEntity
  8
_CURVE
100
AcDbSpline
 62
7
  6
CONTINUOUS
 70
0
 71
3
 72
28
 73
24
 74
0
 42
0.0000001
 43
0.0000001
 44
0.0000000001
 40
0.0
 40
0.0
 40
0.0
 40
0.0
 40
0.055714317
 40
0.1166012306
 40
0.1721545587
 40
0.2233574987
 40
0.2710434014
 40
0.3159497788
 40
0.3586658136
 40
0.3997340779
 40
0.439639112
 40
0.4788541244
 40
0.517804898
 40
0.5569020661
 40
0.5965720274
 40
0.6372509729
 40
0.6794539611
 40
0.7237164147
 40
0.7705908869
 40
0.820656915
 40
0.8748217486
 40
0.9342348609
 40
1.0
 40
1.0
 40
1.0
 40
1.0
 10
20.8050441324
 20
26.4682646537
 30
0.0
 10
20.7820163509
 20
26.5358665283
 30
0.0
 10
20.7308335972
 20
26.6763296809
 30
0.0
 10
20.6450669463
 20
26.8797453849
 30
0.0
 10
20.5505568243
 20
27.0728353812
 30
0.0
 10
20.4533712213
 20
27.2454073817
 30
0.0
 10
20.353562232
 20
27.4004686522
 30
0.0
 10
20.2510364503
 20
27.540468514
 30
0.0
 10
20.1455687766
 20
27.6674160277
 30
0.0
 10
20.036841533
 20
27.7829242464
 30
0.0
 10
19.9243818536
 20
27.8883414007
 30
0.0
 10
19.8076002138
 20
27.9847388836
 30
0.0
 10
19.6858059674
 20
28.0729654003
 30
0.0
 10
19.5581934783
 20
28.153641036
 30
0.0
 10
19.4238113633
 20
28.2271866043
 30
0.0
 10
19.2814756978
 20
28.2938488981
 30
0.0
 10
19.129800467
 20
28.3537091279
 30
0.0
 10
18.967189989
 20
28.4066222324
 30
0.0
 10
18.7919247152
 20
28.4521567136
 30
0.0
 10
18.6018110117
 20
28.4896612209
 30
0.0
 10
18.3939178294
 20
28.5182718012
 30
0.0
 10
18.1646852675
 20
28.5367031287
 30
0.0
 10
18.0042053926
 20
28.5407288159
 30
0.0
 10
17.9199162801
 20
28.5407064499
 30
0.0
  0
ENDSEC
  0
SECTION
  2
OBJECTS
  0
DICTIONARY
  5
353
100
AcDbDictionary
  3
ACAD_GROUP
350
354
  3
ACAD_MLINESTYLE
350
355
  0
DICTIONARY
  5
354
102
{ACAD_REACTORS
330
353
102
}
100
AcDbDictionary
  0
DICTIONARY
  5
355
102
{ACAD_REACTORS
330
353
102
}
100
AcDbDictionary
  3
STANDARD
350
356
  0
MLINESTYLE
  5
356
102
{ACAD_REACTORS
330
355
102
}
100
AcDbMlineStyle
  2
STANDARD
 70
0
  3

 62
256
 51
90.0
 52
90.0
 71
2
 49
0.5
 62
256
  6
BYLAYER
 49
-0.5
 62
256
  6
BYLAYER
  0
ENDSEC
  0
EOF
