999
DXF file: 1315846-7.dxf
999
Pro/ENGINEER 2016130 by Parametric Technology Corporation
  0
SECTION
  2
HEADER
  9
$ACADVER
  1
AC1014
  9
$DWGCODEPAGE
  3
ANSI_1252
  9
$EXTMAX
 10
44.0
 20
34.0
 30
0.0
  9
$EXTMIN
 10
0.0
 20
0.0
 30
0.0
  9
$LIMMIN
 10
0.0
 20
0.0
  9
$LIMMAX
 10
44.0
 20
34.0
  9
$VIEWCTR
 10
22.0
 20
17.0
  9
$VIEWSIZE
 40
34.0
  9
$CLAYER
  8
0
  9
$LTSCALE
 40
2.42
  9
$CELTYPE
  6
BYLAYER
  9
$DIMSCALE
 40
1.0
  9
$DIMASZ
 40
0.1875
  9
$DIMEXO
 40
0.0625
  9
$DIMDLI
 40
1.672
  9
$DIMEXE
 40
0.125
  9
$DIMCEN
 40
0.396
  9
$DIMLFAC
 40
1.0
  9
$DIMBLK
  1
_ARROW_FILLED
  9
$DIMALT
 70
0
  9
$DIMALTF
 40
25.4
  9
$DIMTXT
 40
0.15625
  9
$DIMTOL
 70
1
  9
$DIMLIM
 70
0
  9
$DIMTFAC
 40
1.0
  9
$DIMTP
 40
0.01
  9
$DIMTM
 40
0.01
  9
$DIMGAP
 40
0.09
  9
$AUNITS
 70
0
  9
$PDMODE
 70
3
  9
$PDSIZE
 40
0.3125
  9
$HANDSEED
  5
34A
  9
$TILEMODE
 70
1
  9
$MEASUREMENT
 70
0
  0
ENDSEC
  0
SECTION
  2
CLASSES
  0
ENDSEC
  0
SECTION
  2
TABLES
  0
TABLE
  2
VPORT
  5
8
100
AcDbSymbolTable
 70
2
  0
VPORT
  5
1F4
100
AcDbSymbolTableRecord
100
AcDbViewportTableRecord
  2
*ACTIVE
 70
0
 10
0.0
 20
0.0
 11
1.0
 21
1.0
 12
22.0
 22
17.0
 13
0.0
 23
0.0
 14
1.0
 24
1.0
 15
0.0
 25
0.0
 16
0.0
 26
0.0
 36
1.0
 17
0.0
 27
0.0
 37
0.0
 40
34.0
 41
1.2941176471
 42
50.0
 43
0.0
 44
0.0
 50
0.0
 51
0.0
 71
0
 72
100
 73
1
 74
1
 75
0
 76
0
 77
0
 78
0
  0
ENDTAB
  0
TABLE
  2
LTYPE
  5
5
100
AcDbSymbolTable
 70
6
  0
LTYPE
  5
14
100
AcDbSymbolTableRecord
100
AcDbLinetypeTableRecord
  2
BYBLOCK
 70
0
  3

 72
65
 73
0
 40
0.0
  0
LTYPE
  5
15
100
AcDbSymbolTableRecord
100
AcDbLinetypeTableRecord
  2
BYLAYER
 70
0
  3

 72
65
 73
0
 40
0.0
  0
LTYPE
  5
16
100
AcDbSymbolTableRecord
100
AcDbLinetypeTableRecord
  2
CONTINUOUS
 70
64
  3
Solid line
 72
65
 73
0
 40
0.0
  0
LTYPE
  5
1F5
100
AcDbSymbolTableRecord
100
AcDbLinetypeTableRecord
  2
CENTER
 70
64
  3
____ _ ____ _ ____ _ ____ _ ____ _ ____ _ ____
 72
65
 73
4
 40
0.6
 49
0.375
 74
0
 49
-0.075
 74
0
 49
0.075
 74
0
 49
-0.075
 74
0
  0
LTYPE
  5
1F6
100
AcDbSymbolTableRecord
100
AcDbLinetypeTableRecord
  2
HIDDEN
 70
64
  3
- - - - - - - - - - - - - - - - - - - -
 72
65
 73
2
 40
0.2
 49
0.1
 74
0
 49
-0.1
 74
0
  0
LTYPE
  5
1F7
100
AcDbSymbolTableRecord
100
AcDbLinetypeTableRecord
  2
PHANTOM
 70
64
  3
_____ _ _ _____ _ _ _____ _ _ _____
 72
65
 73
6
 40
0.8
 49
0.45
 74
0
 49
-0.05
 74
0
 49
0.1
 74
0
 49
-0.05
 74
0
 49
0.1
 74
0
 49
-0.05
 74
0
  0
LTYPE
  5
1F8
100
AcDbSymbolTableRecord
100
AcDbLinetypeTableRecord
  2
DOT
 70
64
  3
. . . . . . . . . . . . . . . . . . . .
 72
65
 73
2
 40
0.2
 49
0.1
 74
0
 49
-0.1
 74
0
  0
LTYPE
  5
1F9
100
AcDbSymbolTableRecord
100
AcDbLinetypeTableRecord
  2
DASHED
 70
64
  3
- - - - - - - - - - - - - - - - - - - -
 72
65
 73
2
 40
0.2
 49
0.1
 74
0
 49
-0.1
 74
0
  0
ENDTAB
  0
TABLE
  2
LAYER
  5
2
100
AcDbSymbolTable
 70
36
  0
LAYER
  5
10
100
AcDbSymbolTableRecord
100
AcDbLayerTableRecord
  2
0
 70
0
 62
7
  6
CONTINUOUS
  0
LAYER
  5
1FA
100
AcDbSymbolTableRecord
100
AcDbLayerTableRecord
  2
DEFAULT_1
 70
0
 62
7
  6
CENTER
  0
LAYER
  5
1FB
100
AcDbSymbolTableRecord
100
AcDbLayerTableRecord
  2
DEFAULT_2
 70
0
 62
8
  6
HIDDEN
  0
LAYER
  5
1FC
100
AcDbSymbolTableRecord
100
AcDbLayerTableRecord
  2
DEFAULT_3
 70
0
 62
7
  6
PHANTOM
  0
LAYER
  5
1FD
100
AcDbSymbolTableRecord
100
AcDbLayerTableRecord
  2
DATUMS
 70
0
 62
7
  6
CONTINUOUS
  0
LAYER
  5
1FE
100
AcDbSymbolTableRecord
100
AcDbLayerTableRecord
  2
DATUM_AXIS
 70
0
 62
7
  6
CONTINUOUS
  0
LAYER
  5
1FF
100
AcDbSymbolTableRecord
100
AcDbLayerTableRecord
  2
DATUM_CSYS
 70
0
 62
7
  6
CONTINUOUS
  0
LAYER
  5
200
100
AcDbSymbolTableRecord
100
AcDbLayerTableRecord
  2
DATUM_PLANE
 70
0
 62
7
  6
CONTINUOUS
  0
LAYER
  5
201
100
AcDbSymbolTableRecord
100
AcDbLayerTableRecord
  2
DATUM_POINT
 70
0
 62
7
  6
CONTINUOUS
  0
LAYER
  5
202
100
AcDbSymbolTableRecord
100
AcDbLayerTableRecord
  2
_CURVE
 70
0
 62
7
  6
CONTINUOUS
  0
LAYER
  5
203
100
AcDbSymbolTableRecord
100
AcDbLayerTableRecord
  2
_SURFACE
 70
0
 62
7
  6
CONTINUOUS
  0
LAYER
  5
204
100
AcDbSymbolTableRecord
100
AcDbLayerTableRecord
  2
__REF_CURVE
 70
0
 62
7
  6
CONTINUOUS
  0
LAYER
  5
205
100
AcDbSymbolTableRecord
100
AcDbLayerTableRecord
  2
__REF_SURFACE
 70
0
 62
7
  6
CONTINUOUS
  0
LAYER
  5
206
100
AcDbSymbolTableRecord
100
AcDbLayerTableRecord
  2
___NOTE
 70
0
 62
7
  6
CONTINUOUS
  0
LAYER
  5
207
100
AcDbSymbolTableRecord
100
AcDbLayerTableRecord
  2
___SYMBOL
 70
0
 62
7
  6
CONTINUOUS
  0
ENDTAB
  0
TABLE
  2
STYLE
  5
3
100
AcDbSymbolTable
 70
1
  0
STYLE
  5
11
100
AcDbSymbolTableRecord
100
AcDbTextStyleTableRecord
  2
STANDARD
 70
0
 40
0.0
 41
0.8
 50
0.0
 71
0
 42
0.2
  3
txt
  4

  0
STYLE
  5
208
100
AcDbSymbolTableRecord
100
AcDbTextStyleTableRecord
  2
TEXTSTYLE_1
 70
0
 40
0.0
 41
0.8
 50
0.0
 71
0
 42
0.2
  3
gdt
  4

  0
STYLE
  5
209
100
AcDbSymbolTableRecord
100
AcDbTextStyleTableRecord
  2
TEXTSTYLE_2
 70
0
 40
0.0
 41
1.0
 50
0.0
 71
0
 42
0.2
  3
txt
  4

  0
ENDTAB
  0
TABLE
  2
VIEW
  5
6
100
AcDbSymbolTable
 70
0
  0
ENDTAB
  0
TABLE
  2
UCS
  5
7
100
AcDbSymbolTable
 70
0
  0
ENDTAB
  0
TABLE
  2
APPID
  5
9
100
AcDbSymbolTable
 70
1
  0
APPID
  5
20A
100
AcDbSymbolTableRecord
100
AcDbRegAppTableRecord
  2
ACAD
 70
0
  0
ENDTAB
  0
TABLE
  2
BLOCK_RECORD
  5
1
100
AcDbSymbolTable
 70
0
  0
BLOCK_RECORD
  5
1F
100
AcDbSymbolTableRecord
100
AcDbBlockTableRecord
  2
*MODEL_SPACE
  0
BLOCK_RECORD
  5
1B
100
AcDbSymbolTableRecord
100
AcDbBlockTableRecord
  2
*PAPER_SPACE
  0
BLOCK_RECORD
  5
20B
100
AcDbSymbolTableRecord
100
AcDbBlockTableRecord
  2
_ARROW_FILLED
  0
BLOCK_RECORD
  5
20C
100
AcDbSymbolTableRecord
100
AcDbBlockTableRecord
  2
*D0
  0
BLOCK_RECORD
  5
20D
100
AcDbSymbolTableRecord
100
AcDbBlockTableRecord
  2
*D1
  0
BLOCK_RECORD
  5
20E
100
AcDbSymbolTableRecord
100
AcDbBlockTableRecord
  2
*D2
  0
BLOCK_RECORD
  5
20F
100
AcDbSymbolTableRecord
100
AcDbBlockTableRecord
  2
SCISSORS_BL4
  0
BLOCK_RECORD
  5
210
100
AcDbSymbolTableRecord
100
AcDbBlockTableRecord
  2
COPYRIGHT_YEAR_BL3
  0
BLOCK_RECORD
  5
211
100
AcDbSymbolTableRecord
100
AcDbBlockTableRecord
  2
TEMPLATE_NUMBER_BL2
  0
BLOCK_RECORD
  5
212
100
AcDbSymbolTableRecord
100
AcDbBlockTableRecord
  2
TEMPLATE_NUMBER_BL1
  0
BLOCK_RECORD
  5
213
100
AcDbSymbolTableRecord
100
AcDbBlockTableRecord
  2
PLOTTING_TEMPLATE_NOTE_BL0
  0
ENDTAB
  0
TABLE
  2
DIMSTYLE
  5
A
100
AcDbSymbolTable
 70
1
  0
DIMSTYLE
105
214
100
AcDbSymbolTableRecord
100
AcDbDimStyleTableRecord
  2
STANDARD
 70
0
  3

  4

  5
_ARROW_FILLED
  6
_ARROW_FILLED
  7
_ARROW_FILLED
 40
1.0
 41
0.1875
 42
0.0625
 43
0.38
 44
0.125
 45
0.0
 46
0.0
 47
0.01
 48
0.01
140
0.15625
141
0.09
142
0.0
143
25.4
144
1.0
145
0.0
146
1.0
147
0.09
 71
1.0
 72
0.0
 73
1
 74
1
 75
0
 76
0
 77
0
 78
4
170
0
171
2
172
0
173
0
174
0
175
0
176
0
177
0
178
0
270
2
271
3
272
3
273
2
274
2
275
0
280
0
281
0
282
0
283
1
284
4
285
0
286
0
287
3
288
0
340
11
  0
DIMSTYLE
105
215
100
AcDbSymbolTableRecord
100
AcDbDimStyleTableRecord
  2
DIMSTYLE_1
 70
0
  3
<>
  4

  5
_ARROW_FILLED
  6
_ARROW_FILLED
  7
_ARROW_FILLED
 40
1.0
 41
0.1875
 42
0.0625
 43
0.38
 44
0.125
 45
0.0
 46
0.0
 47
0.0
 48
0.0
140
0.15625
141
0.09
142
0.0
143
25.4
144
1.0
145
0.0
146
1.0
147
0.09
 71
0.0
 72
0.0
 73
1
 74
1
 75
0
 76
0
 77
0
 78
4
170
0
171
2
172
0
173
0
174
0
175
0
176
0
177
0
178
0
270
2
271
2
272
2
273
2
274
2
275
0
280
0
281
0
282
0
283
1
284
4
285
0
286
0
287
3
288
0
340
11
  0
DIMSTYLE
105
216
100
AcDbSymbolTableRecord
100
AcDbDimStyleTableRecord
  2
DIMSTYLE_2
 70
0
  3

  4

  5
_ARROW_FILLED
  6
_ARROW_FILLED
  7
_ARROW_FILLED
 40
1.0
 41
0.1875
 42
0.0625
 43
0.38
 44
0.125
 45
0.0
 46
0.0
 47
0.0625
 48
0.0625
140
0.15625
141
0.09
142
0.0
143
25.4
144
1.0
145
0.0
146
1.0
147
0.078125
 71
0.0
 72
0.0
 73
1
 74
1
 75
0
 76
0
 77
0
 78
4
170
0
171
2
172
0
173
0
174
0
175
0
176
0
177
0
178
0
270
2
271
4
272
4
273
2
274
2
275
0
280
0
281
0
282
0
283
1
284
4
285
0
286
0
287
3
288
0
340
11
  0
ENDTAB
  0
ENDSEC
  0
SECTION
  2
BLOCKS
  0
BLOCK
  5
20
100
AcDbEntity
  8
0
100
AcDbBlockBegin
  2
*MODEL_SPACE
 70
0
 10
0.0
 20
0.0
 30
0.0
  3
*MODEL_SPACE
  1

  0
ENDBLK
  5
21
100
AcDbEntity
  8
0
100
AcDbBlockEnd
  0
BLOCK
  5
1C
100
AcDbEntity
  8
0
100
AcDbBlockBegin
  2
*PAPER_SPACE
 70
0
 10
0.0
 20
0.0
 30
0.0
  3
*PAPER_SPACE
  1

  0
ENDBLK
  5
1D
100
AcDbEntity
  8
0
100
AcDbBlockEnd
  0
BLOCK
  5
217
100
AcDbEntity
  8
___SYMBOL
100
AcDbBlockBegin
 62
2
  6
CONTINUOUS
  2
SCISSORS_BL4
 70
64
 10
37.2595589305
 20
20.8048021925
  3
SCISSORS_BL4
  1

  0
LINE
  5
218
100
AcDbEntity
  8
___SYMBOL
100
AcDbLine
 62
7
  6
CONTINUOUS
 10
37.2211314195
 20
20.8459345397
 11
37.1464115706
 21
21.2150400741
  0
LINE
  5
219
100
AcDbEntity
  8
___SYMBOL
100
AcDbLine
 62
7
  6
CONTINUOUS
 10
37.1888783133
 20
20.826267156
 11
37.1464115706
 21
21.2150400741
  0
LINE
  5
21A
100
AcDbEntity
  8
___SYMBOL
100
AcDbLine
 62
7
  6
CONTINUOUS
 10
37.2393061563
 20
20.7821452117
 11
37.2382610803
 21
20.8160474829
  0
LINE
  5
21B
100
AcDbEntity
  8
___SYMBOL
100
AcDbLine
 62
7
  6
CONTINUOUS
 10
37.2491795478
 20
20.8165008092
 11
37.250231815
 21
20.7823652554
  0
LINE
  5
21C
100
AcDbEntity
  8
___SYMBOL
100
AcDbLine
 62
7
  6
CONTINUOUS
 10
37.2452341592
 20
20.9347471091
 11
37.3703770856
 21
21.2085497535
  0
LINE
  5
21D
100
AcDbEntity
  8
___SYMBOL
100
AcDbLine
 62
7
  6
CONTINUOUS
 10
37.1691616114
 20
20.762567042
 11
37.190847674
 21
20.803508754
  0
LINE
  5
21E
100
AcDbEntity
  8
___SYMBOL
100
AcDbLine
 62
7
  6
CONTINUOUS
 10
37.2899989896
 20
20.8077795078
 11
37.3703770856
 21
21.0649052496
  0
LINE
  5
21F
100
AcDbEntity
  8
___SYMBOL
100
AcDbLine
 62
7
  6
CONTINUOUS
 10
37.2704199126
 20
20.8633121306
 11
37.2211314195
 21
20.8459345397
  0
LINE
  5
220
100
AcDbEntity
  8
___SYMBOL
100
AcDbLine
 62
7
  6
CONTINUOUS
 10
37.3064070055
 20
20.7612410443
 11
37.2682158043
 21
20.6690646958
  0
LINE
  5
221
100
AcDbEntity
  8
___SYMBOL
100
AcDbLine
 62
7
  6
CONTINUOUS
 10
37.2050561201
 20
20.6720724356
 11
37.2344409702
 21
20.7026052368
  0
LINE
  5
222
100
AcDbEntity
  8
___SYMBOL
100
AcDbLine
 62
7
  6
CONTINUOUS
 10
37.1464115706
 20
21.2150400741
 11
37.3064070055
 21
20.7612410443
  0
LINE
  5
223
100
AcDbEntity
  8
___SYMBOL
100
AcDbLine
 62
7
  6
CONTINUOUS
 10
37.2050561201
 20
20.6720724356
 11
37.1691616114
 21
20.762567042
  0
ARC
  5
224
100
AcDbEntity
  8
___SYMBOL
100
AcDbCircle
 62
7
  6
CONTINUOUS
 10
37.1406210861
 20
21.1367275015
 40
0.2407202841
100
AcDbArc
 50
342.6406360869
 51
17.3593639131
  0
ARC
  5
225
100
AcDbEntity
  8
___SYMBOL
100
AcDbCircle
 62
7
  6
CONTINUOUS
 10
37.3973129591
 20
20.8328392945
 40
0.2085382328
100
AcDbArc
 50
181.8059909349
 51
231.752660067
  0
CIRCLE
  5
226
100
AcDbEntity
  8
___SYMBOL
100
AcDbCircle
 62
7
  6
CONTINUOUS
 10
37.244426301
 20
20.7992702894
 40
0.0178741201
  0
ARC
  5
227
100
AcDbEntity
  8
___SYMBOL
100
AcDbCircle
 62
7
  6
CONTINUOUS
 10
37.3507315079
 20
20.5510585578
 40
0.0097392375
100
AcDbArc
 50
185.3133793157
 51
314.0675041521
  0
ARC
  5
228
100
AcDbEntity
  8
___SYMBOL
100
AcDbCircle
 62
7
  6
CONTINUOUS
 10
37.1276237779
 20
20.5460448449
 40
0.0097391571
100
AcDbArc
 50
233.3109272841
 51
359.4467240969
  0
SPLINE
  5
229
100
AcDbEntity
  8
___SYMBOL
100
AcDbSpline
 62
7
  6
CONTINUOUS
 70
0
 71
3
 72
12
 73
8
 74
0
 42
0.0000001
 43
0.0000001
 44
0.0000000001
 40
0.0
 40
0.0
 40
0.0
 40
0.0
 40
0.4884256058
 40
0.6683914397
 40
0.8669439281
 40
0.9099489479
 40
1.0
 40
1.0
 40
1.0
 40
1.0
 10
37.3255687558
 20
20.3945643108
 30
0.0
 10
37.3100831903
 20
20.4399265025
 30
0.0
 10
37.3067700289
 20
20.5072761468
 30
0.0
 10
37.3078309212
 20
20.5918584305
 30
0.0
 10
37.3045749277
 20
20.6337367729
 30
0.0
 10
37.2922112606
 20
20.6643314819
 30
0.0
 10
37.2769276571
 20
20.6705486173
 30
0.0
 10
37.2682158043
 20
20.6690646958
 30
0.0
  0
SPLINE
  5
22A
100
AcDbEntity
  8
___SYMBOL
100
AcDbSpline
 62
7
  6
CONTINUOUS
 70
0
 71
3
 72
14
 73
10
 74
0
 42
0.0000001
 43
0.0000001
 44
0.0000000001
 40
0.0
 40
0.0
 40
0.0
 40
0.0
 40
0.0469735811
 40
0.2606095073
 40
0.5805460666
 40
0.7382389988
 40
0.8401572415
 40
0.925087268
 40
1.0
 40
1.0
 40
1.0
 40
1.0
 10
37.3410341189
 20
20.5501566742
 30
0.0
 10
37.3407178503
 20
20.5535573124
 30
0.0
 10
37.3394121923
 20
20.5724962774
 30
0.0
 10
37.3412015586
 20
20.6141900736
 30
0.0
 10
37.3450964132
 20
20.6671790793
 30
0.0
 10
37.3224613975
 20
20.7034452073
 30
0.0
 10
37.3084392268
 20
20.7248191574
 30
0.0
 10
37.307316932
 20
20.7442727235
 30
0.0
 10
37.30722811
 20
20.7558566035
 30
0.0
 10
37.3064070055
 20
20.7612410443
 30
0.0
  0
SPLINE
  5
22B
100
AcDbEntity
  8
___SYMBOL
100
AcDbSpline
 62
7
  6
CONTINUOUS
 70
0
 71
3
 72
12
 73
8
 74
0
 42
0.0000001
 43
0.0000001
 44
0.0000000001
 40
0.0
 40
0.0
 40
0.0
 40
0.0
 40
0.2870411994
 40
0.5613888029
 40
0.7613462239
 40
0.9013972407
 40
1.0
 40
1.0
 40
1.0
 40
1.0
 10
37.1659474261
 20
20.4203353664
 30
0.0
 10
37.1720817522
 20
20.4447934634
 30
0.0
 10
37.1746218793
 20
20.4945897874
 30
0.0
 10
37.1704242783
 20
20.5616947498
 30
0.0
 10
37.175480041
 20
20.6145908738
 30
0.0
 10
37.1781973945
 20
20.655178321
 30
0.0
 10
37.1967331184
 20
20.6696731179
 30
0.0
 10
37.2050561201
 20
20.6720724356
 30
0.0
  0
SPLINE
  5
22C
100
AcDbEntity
  8
___SYMBOL
100
AcDbSpline
 62
7
  6
CONTINUOUS
 70
0
 71
3
 72
13
 73
9
 74
0
 42
0.0000001
 43
0.0000001
 44
0.0000000001
 40
0.0
 40
0.0
 40
0.0
 40
0.0
 40
0.0902051637
 40
0.4170421866
 40
0.6587388922
 40
0.9356437381
 40
0.9595034934
 40
1.0
 40
1.0
 40
1.0
 40
1.0
 10
37.1373624809
 20
20.5459508003
 30
0.0
 10
37.1374267112
 20
20.5526021047
 30
0.0
 10
37.1372368414
 20
20.5833091159
 30
0.0
 10
37.1358221018
 20
20.6324800972
 30
0.0
 10
37.1460807524
 20
20.6927290962
 30
0.0
 10
37.1757904808
 20
20.7316393358
 30
0.0
 10
37.1657023306
 20
20.7549490659
 30
0.0
 10
37.1669987606
 20
20.7605081019
 30
0.0
 10
37.1691616114
 20
20.762567042
 30
0.0
  0
ELLIPSE
  5
22D
100
AcDbEntity
  8
___SYMBOL
100
AcDbEllipse
 62
7
  6
CONTINUOUS
 10
37.4053227164
 20
20.4425754015
 30
0.0
 11
0.0040444517
 21
-0.0825068144
 31
0.0
 40
0.774293327
 41
0.0
 42
6.2831853072
  0
ELLIPSE
  5
22E
100
AcDbEntity
  8
___SYMBOL
100
AcDbEllipse
 62
7
  6
CONTINUOUS
 10
37.4053227164
 20
20.4425754015
 30
0.0
 11
-0.0020222258
 21
-0.1229513312
 31
0.0
 40
0.700902774
 41
5.1250505418
 42
10.0362700851
  0
ELLIPSE
  5
22F
100
AcDbEntity
  8
___SYMBOL
100
AcDbEllipse
 62
7
  6
CONTINUOUS
 10
37.077655892
 20
20.4511442624
 30
0.0
 11
0.0101111292
 21
-0.0819001466
 31
0.0
 40
0.7501188416
 41
0.0
 42
6.2831853072
  0
ELLIPSE
  5
230
100
AcDbEntity
  8
___SYMBOL
100
AcDbEllipse
 62
7
  6
CONTINUOUS
 10
37.0791725614
 20
20.4374942379
 30
0.0
 11
0.0015166694
 21
-0.1157724295
 31
0.0
 40
0.7569683881
 41
2.6163261196
 42
7.6953125801
  0
ENDBLK
  5
231
100
AcDbEntity
  8
0
  6
BYBLOCK
 62
0
100
AcDbBlockEnd
  0
BLOCK
  5
232
100
AcDbEntity
  8
___SYMBOL
100
AcDbBlockBegin
 62
2
  6
CONTINUOUS
  2
COPYRIGHT_YEAR_BL3
 70
64
 10
29.2644687226
 20
10.7838135973
  3
COPYRIGHT_YEAR_BL3
  1

  0
TEXT
  5
233
100
AcDbEntity
  8
___SYMBOL
100
AcDbText
 62
2
  6
CONTINUOUS
 10
28.4824807507
 20
10.7037256709
  7
STANDARD
 40
0.1562499562
  1
2017 KOHLER CO.
 41
0.8
 72
0
100
AcDbText
  0
TEXT
  5
234
100
AcDbEntity
  8
___SYMBOL
100
AcDbText
 62
7
  6
CONTINUOUS
 10
28.2251588238
 20
10.7060544202
  7
TEXTSTYLE_2
 40
0.1562499562
  1
C
 41
1.0
 72
0
100
AcDbText
  0
CIRCLE
  5
235
100
AcDbEntity
  8
___SYMBOL
100
AcDbCircle
 62
7
  6
CONTINUOUS
 10
28.3038142199
 20
10.7838135973
 40
0.132357
  0
ENDBLK
  5
236
100
AcDbEntity
  8
0
  6
BYBLOCK
 62
0
100
AcDbBlockEnd
  0
BLOCK
  5
237
100
AcDbEntity
  8
___SYMBOL
100
AcDbBlockBegin
 62
2
  6
CONTINUOUS
  2
TEMPLATE_NUMBER_BL2
 70
64
 10
11.9240176865
 20
8.7717106239
  3
TEMPLATE_NUMBER_BL2
  1

  0
TEXT
  5
238
100
AcDbEntity
  8
___SYMBOL
100
AcDbText
 62
2
  6
CONTINUOUS
 10
11.2365176865
 20
8.6935856239
  7
STANDARD
 40
0.15625
  1
1315846-7
 41
0.8
 72
0
100
AcDbText
  0
TEXT
  5
239
100
AcDbEntity
  8
___SYMBOL
100
AcDbText
 62
2
  6
CONTINUOUS
 10
12.3615176865
 20
8.6935856239
  7
STANDARD
 40
0.15625
  1
-A
 41
0.8
 72
0
100
AcDbText
  0
ENDBLK
  5
23A
100
AcDbEntity
  8
0
  6
BYBLOCK
 62
0
100
AcDbBlockEnd
  0
BLOCK
  5
23B
100
AcDbEntity
  8
___SYMBOL
100
AcDbBlockBegin
 62
2
  6
CONTINUOUS
  2
TEMPLATE_NUMBER_BL1
 70
64
 10
11.9114064581
 20
10.7939009697
  3
TEMPLATE_NUMBER_BL1
  1

  0
TEXT
  5
23C
100
AcDbEntity
  8
___SYMBOL
100
AcDbText
 62
2
  6
CONTINUOUS
 10
11.2239064581
 20
10.7157759697
  7
STANDARD
 40
0.15625
  1
1315846-7
 41
0.8
 72
0
100
AcDbText
  0
TEXT
  5
23D
100
AcDbEntity
  8
___SYMBOL
100
AcDbText
 62
2
  6
CONTINUOUS
 10
12.3489064581
 20
10.7157759697
  7
STANDARD
 40
0.15625
  1
-A
 41
0.8
 72
0
100
AcDbText
  0
ENDBLK
  5
23E
100
AcDbEntity
  8
0
  6
BYBLOCK
 62
0
100
AcDbBlockEnd
  0
BLOCK
  5
23F
100
AcDbEntity
  8
___SYMBOL
100
AcDbBlockBegin
 62
2
  6
CONTINUOUS
  2
PLOTTING_TEMPLATE_NOTE_BL0
 70
64
 10
32.3528376936
 20
13.8878720301
  3
PLOTTING_TEMPLATE_NOTE_BL0
  1

  0
TEXT
  5
240
100
AcDbEntity
  8
___SYMBOL
100
AcDbText
 62
2
  6
CONTINUOUS
 10
29.4778376936
 20
15.2159970301
  7
STANDARD
 40
0.15625
  1
WHEN PLOTTING TEMPLATE FULL SIZE:
 41
0.8
 72
0
100
AcDbText
  0
TEXT
  5
241
100
AcDbEntity
  8
___SYMBOL
100
AcDbText
 62
2
  6
CONTINUOUS
 10
29.4778376936
 20
14.9816220301
  7
STANDARD
 40
0.15625
  1
Make sure horizontal and vertical dimensions
 41
0.8
 72
0
100
AcDbText
  0
TEXT
  5
242
100
AcDbEntity
  8
___SYMBOL
100
AcDbText
 62
2
  6
CONTINUOUS
 10
29.4778376936
 20
14.7472470301
  7
STANDARD
 40
0.15625
  1
match the dimensions labeled on the template.
 41
0.8
 72
0
100
AcDbText
  0
TEXT
  5
243
100
AcDbEntity
  8
___SYMBOL
100
AcDbText
 62
2
  6
CONTINUOUS
 10
29.4778376936
 20
14.5128720301
  7
STANDARD
 40
0.15625
  1
 
 41
0.8
 72
0
100
AcDbText
  0
TEXT
  5
244
100
AcDbEntity
  8
___SYMBOL
100
AcDbText
 62
2
  6
CONTINUOUS
 10
29.4778376936
 20
14.2784970301
  7
STANDARD
 40
0.15625
  1
LORS DU TRACÉ DU GABARIT À L'ÉCHELLE: 
 41
0.8
 72
0
100
AcDbText
  0
TEXT
  5
245
100
AcDbEntity
  8
___SYMBOL
100
AcDbText
 62
2
  6
CONTINUOUS
 10
29.4778376936
 20
14.0441220301
  7
STANDARD
 40
0.15625
  1
s'assurer que les dimensions horizontales et
 41
0.8
 72
0
100
AcDbText
  0
TEXT
  5
246
100
AcDbEntity
  8
___SYMBOL
100
AcDbText
 62
2
  6
CONTINUOUS
 10
29.4778376936
 20
13.8097470301
  7
STANDARD
 40
0.15625
  1
verticales correspondent à celles marquées sur
 41
0.8
 72
0
100
AcDbText
  0
TEXT
  5
247
100
AcDbEntity
  8
___SYMBOL
100
AcDbText
 62
2
  6
CONTINUOUS
 10
29.4778376936
 20
13.5753720301
  7
STANDARD
 40
0.15625
  1
le gabarit.
 41
0.8
 72
0
100
AcDbText
  0
TEXT
  5
248
100
AcDbEntity
  8
___SYMBOL
100
AcDbText
 62
2
  6
CONTINUOUS
 10
29.4778376936
 20
13.3409970301
  7
STANDARD
 40
0.15625
  1
 
 41
0.8
 72
0
100
AcDbText
  0
TEXT
  5
249
100
AcDbEntity
  8
___SYMBOL
100
AcDbText
 62
2
  6
CONTINUOUS
 10
29.4778376936
 20
13.1066220301
  7
STANDARD
 40
0.15625
  1
AL TRAZAR LA PLANTILLA A ESCALA COMPLETA:
 41
0.8
 72
0
100
AcDbText
  0
TEXT
  5
24A
100
AcDbEntity
  8
___SYMBOL
100
AcDbText
 62
2
  6
CONTINUOUS
 10
29.4778376936
 20
12.8722470301
  7
STANDARD
 40
0.15625
  1
asegúrese de que la dimensión horizontal y
 41
0.8
 72
0
100
AcDbText
  0
TEXT
  5
24B
100
AcDbEntity
  8
___SYMBOL
100
AcDbText
 62
2
  6
CONTINUOUS
 10
29.4778376936
 20
12.6378720301
  7
STANDARD
 40
0.15625
  1
la dimensión vertical sean iguales a las
 41
0.8
 72
0
100
AcDbText
  0
TEXT
  5
24C
100
AcDbEntity
  8
___SYMBOL
100
AcDbText
 62
2
  6
CONTINUOUS
 10
29.4778376936
 20
12.4034970301
  7
STANDARD
 40
0.15625
  1
dimensiones indicadas en la plantilla.
 41
0.8
 72
0
100
AcDbText
  0
ENDBLK
  5
24D
100
AcDbEntity
  8
0
  6
BYBLOCK
 62
0
100
AcDbBlockEnd
  0
BLOCK
  5
24E
100
AcDbEntity
  8
0
100
AcDbBlockBegin
  2
_ARROW_FILLED
 70
64
 10
0.0
 20
0.0
  3
_ARROW_FILLED
  1

  0
SOLID
  5
24F
100
AcDbEntity
  8
0
  6
BYBLOCK
 62
0
100
AcDbTrace
 10
0.0
 20
0.0
 11
-1.0
 21
0.1666666667
 12
-1.0
 22
-0.1666666667
 13
-1.0
 23
-0.1666666667
  0
ENDBLK
  5
250
100
AcDbEntity
  8
0
  6
BYBLOCK
 62
0
100
AcDbBlockEnd
  0
BLOCK
  5
251
100
AcDbEntity
  8
0
100
AcDbBlockBegin
 62
2
  6
CONTINUOUS
  2
*D0
 70
65
 10
0.0
 20
0.0
  3
*D0
  1

  0
MTEXT
  5
252
100
AcDbEntity
  8
0
100
AcDbMText
 62
2
  6
CONTINUOUS
  7
STANDARD
 71
1
 72
1
 10
9.9740326467
 20
12.7658887776
 30
0.0
 11
1.0
 21
0.0
 31
0.0
  1
R2.98\P[7.6]
 40
0.15625
 41
0.625
  0
LINE
  5
253
100
AcDbEntity
  8
0
100
AcDbLine
 62
2
  6
CONTINUOUS
 10
8.3213337823
 20
11.6448287321
 11
9.7240326467
 21
12.6877637776
  0
LINE
  5
254
100
AcDbEntity
  8
0
100
AcDbLine
 62
2
  6
CONTINUOUS
 10
9.7240326467
 20
12.6877637776
 11
9.8959076467
 21
12.6877637776
  0
INSERT
  5
255
100
AcDbEntity
  8
0
100
AcDbBlockReference
 62
2
  6
CONTINUOUS
  2
_ARROW_FILLED
 10
8.3213337823
 20
11.6448287321
 41
0.1875
 42
0.1875
 43
0.1875
 50
216.63155072
  0
ENDBLK
  5
256
100
AcDbEntity
  8
0
  6
BYBLOCK
 62
0
100
AcDbBlockEnd
  0
BLOCK
  5
257
100
AcDbEntity
  8
0
100
AcDbBlockBegin
 62
2
  6
CONTINUOUS
  2
*D1
 70
65
 10
0.0
 20
0.0
  3
*D1
  1

  0
MTEXT
  5
258
100
AcDbEntity
  8
0
100
AcDbMText
 62
2
  6
CONTINUOUS
  7
STANDARD
 71
2
 72
1
 10
20.4923063867
 20
18.8811269889
 30
0.0
 11
1.0
 21
0.0
 31
0.0
  1
15-11/16\P[29.9]
 40
0.15625
 41
1.0
  0
LINE
  5
259
100
AcDbEntity
  8
0
100
AcDbLine
 62
2
  6
CONTINUOUS
 10
20.4923063867
 20
26.1523986117
 11
20.4923063867
 21
18.9592519889
  0
LINE
  5
25A
100
AcDbEntity
  8
0
100
AcDbLine
 62
2
  6
CONTINUOUS
 10
20.4923063867
 20
10.4430216404
 11
20.4923063867
 21
18.4123769889
  0
INSERT
  5
25B
100
AcDbEntity
  8
0
100
AcDbBlockReference
 62
2
  6
CONTINUOUS
  2
_ARROW_FILLED
 10
20.4923063867
 20
26.1523986117
 41
0.1875
 42
0.1875
 43
0.1875
 50
90.0
  0
INSERT
  5
25C
100
AcDbEntity
  8
0
100
AcDbBlockReference
 62
2
  6
CONTINUOUS
  2
_ARROW_FILLED
 10
20.4923063867
 20
10.4430216404
 41
0.1875
 42
0.1875
 43
0.1875
 50
270.0
  0
ENDBLK
  5
25D
100
AcDbEntity
  8
0
  6
BYBLOCK
 62
0
100
AcDbBlockEnd
  0
BLOCK
  5
25E
100
AcDbEntity
  8
0
100
AcDbBlockBegin
 62
2
  6
CONTINUOUS
  2
*D2
 70
65
 10
0.0
 20
0.0
  3
*D2
  1

  0
MTEXT
  5
25F
100
AcDbEntity
  8
0
100
AcDbMText
 62
2
  6
CONTINUOUS
  7
STANDARD
 71
2
 72
1
 10
23.7083231694
 20
17.5603677842
 30
0.0
 11
1.0
 21
0.0
 31
0.0
  1
29-1/2\P[75]
 40
0.15625
 41
0.75
  0
LINE
  5
260
100
AcDbEntity
  8
0
100
AcDbLine
 62
2
  6
CONTINUOUS
 10
7.7328126309
 20
17.4822427842
 11
23.2551981694
 21
17.4822427842
  0
LINE
  5
261
100
AcDbEntity
  8
0
100
AcDbLine
 62
2
  6
CONTINUOUS
 10
37.2421896023
 20
17.4822427842
 11
24.1614481694
 21
17.4822427842
  0
INSERT
  5
262
100
AcDbEntity
  8
0
100
AcDbBlockReference
 62
2
  6
CONTINUOUS
  2
_ARROW_FILLED
 10
7.7328126309
 20
17.4822427842
 41
0.1875
 42
0.1875
 43
0.1875
 50
180.0
  0
INSERT
  5
263
100
AcDbEntity
  8
0
100
AcDbBlockReference
 62
2
  6
CONTINUOUS
  2
_ARROW_FILLED
 10
37.2421896023
 20
17.4822427842
 41
0.1875
 42
0.1875
 43
0.1875
 50
0.0
  0
ENDBLK
  5
264
100
AcDbEntity
  8
0
  6
BYBLOCK
 62
0
100
AcDbBlockEnd
  0
ENDSEC
  0
SECTION
  2
ENTITIES
  0
SPLINE
  5
265
100
AcDbEntity
  8
0
100
AcDbSpline
 62
2
  6
CONTINUOUS
 70
0
 71
1
 72
7
 73
5
 74
0
 42
0.0000001
 43
0.0000001
 44
0.0000000001
 40
0.0
 40
0.0
 40
0.6323375
 40
4.1135388889
 40
4.7458763889
 40
8.2270777778
 40
8.2270777778
 10
9.8176127789
 20
24.0567426698
 30
0.0
 10
9.8176127789
 20
24.6890801698
 30
0.0
 10
13.2988141678
 20
24.6890801698
 30
0.0
 10
13.2988141678
 20
24.0567426698
 30
0.0
 10
9.8176127789
 20
24.0567426698
 30
0.0
  0
SPLINE
  5
266
100
AcDbEntity
  8
0
100
AcDbSpline
 62
2
  6
CONTINUOUS
 70
0
 71
1
 72
11
 73
9
 74
0
 42
0.0000001
 43
0.0000001
 44
0.0000000001
 40
0.0
 40
0.0
 40
0.1134275086
 40
0.1216747308
 40
0.1564300811
 40
0.1991078933
 40
0.2343111597
 40
0.2421375485
 40
0.3533508685
 40
0.3556574216
 40
0.3556574216
 10
11.9690822234
 20
24.0335621143
 30
0.0
 10
12.0115697234
 20
23.9283926698
 30
0.0
 10
12.0033225011
 20
23.9283926698
 30
0.0
 10
11.9906141678
 20
23.9607412809
 30
0.0
 10
11.94793639
 20
23.9607954476
 30
0.0
 10
11.9341766678
 20
23.9283926698
 30
0.0
 10
11.9263502789
 20
23.9283926698
 30
0.0
 10
11.96826139
 20
24.0314065587
 30
0.0
 10
11.9690822234
 20
24.0335621143
 30
0.0
  0
SPLINE
  5
267
100
AcDbEntity
  8
0
100
AcDbSpline
 62
2
  6
CONTINUOUS
 70
0
 71
1
 72
11
 73
9
 74
0
 42
0.0000001
 43
0.0000001
 44
0.0000000001
 40
0.0
 40
0.0
 40
0.11343011
 40
0.1213787211
 40
0.1562542199
 40
0.1988986988
 40
0.2341150074
 40
0.2419275074
 40
0.3531303621
 40
0.3554489868
 40
0.3554489868
 10
13.0764697234
 20
24.0335621143
 30
0.0
 10
13.1189641678
 20
23.9283926698
 30
0.0
 10
13.1110155567
 20
23.9283926698
 30
0.0
 10
13.0979822234
 20
23.9607412809
 30
0.0
 10
13.0553377789
 20
23.9607954476
 30
0.0
 10
13.0415447234
 20
23.9283926698
 30
0.0
 10
13.0337322234
 20
23.9283926698
 30
0.0
 10
13.0756155567
 20
24.0314065587
 30
0.0
 10
13.0764697234
 20
24.0335621143
 30
0.0
  0
SPLINE
  5
268
100
AcDbEntity
  8
0
100
AcDbSpline
 62
2
  6
CONTINUOUS
 70
0
 71
3
 72
23
 73
19
 74
0
 42
0.0000001
 43
0.0000001
 44
0.0000000001
 40
0.0381944444
 40
0.0381944444
 40
0.0381944444
 40
0.0381944444
 40
0.0486388889
 40
0.0486388889
 40
0.0486388889
 40
1.0486388889
 40
1.0486388889
 40
1.0486388889
 40
2.0486388889
 40
2.0486388889
 40
2.0486388889
 40
3.0486388889
 40
3.0486388889
 40
3.0486388889
 40
4.0486388889
 40
4.0486388889
 40
4.0486388889
 40
4.0580652778
 40
4.0580652778
 40
4.0580652778
 40
4.0580652778
 10
13.0091002789
 20
23.9828635032
 30
0.0
 10
13.0125817604
 20
23.9828635032
 30
0.0
 10
13.0160632419
 20
23.9828635032
 30
0.0
 10
13.0195447234
 20
23.9828635032
 30
0.0
 10
13.0261641678
 20
23.9828635032
 30
0.0
 10
13.0315580461
 20
23.9836590798
 30
0.0
 10
13.0362544456
 20
23.9880037809
 30
0.0
 10
13.0402419456
 20
23.9916926698
 30
0.0
 10
13.0423308345
 20
23.996439892
 30
0.0
 10
13.0423308345
 20
24.0020551698
 30
0.0
 10
13.0423308345
 20
24.0083621143
 30
0.0
 10
13.0395568706
 20
24.0139457683
 30
0.0
 10
13.03522389
 20
24.0172996143
 30
0.0
 10
13.0303683345
 20
24.0210579476
 30
0.0
 10
13.02374889
 20
24.0210579476
 30
0.0
 10
13.0185266678
 20
24.0210579476
 30
0.0
 10
13.0153845382
 20
24.0210579476
 30
0.0
 10
13.0122424085
 20
24.0210579476
 30
0.0
 10
13.0091002789
 20
24.0210579476
 30
0.0
  0
SPLINE
  5
269
100
AcDbEntity
  8
0
100
AcDbSpline
 62
2
  6
CONTINUOUS
 70
0
 71
3
 72
17
 73
13
 74
0
 42
0.0000001
 43
0.0000001
 44
0.0000000001
 40
0.0237625
 40
0.0237625
 40
0.0237625
 40
0.0237625
 40
0.0333111111
 40
0.0333111111
 40
0.0333111111
 40
1.0333111111
 40
1.0333111111
 40
1.0333111111
 40
2.0333111111
 40
2.0333111111
 40
2.0333111111
 40
2.0428597222
 40
2.0428597222
 40
2.0428597222
 40
2.0428597222
 10
12.5882572234
 20
23.9763121143
 30
0.0
 10
12.5914400937
 20
23.9763121143
 30
0.0
 10
12.5946229641
 20
23.9763121143
 30
0.0
 10
12.5978058345
 20
23.9763121143
 30
0.0
 10
12.6043016678
 20
23.9763121143
 30
0.0
 10
12.6096461123
 20
23.9815746143
 30
0.0
 10
12.6096461123
 20
23.9881260032
 30
0.0
 10
12.6096461123
 20
23.9947176698
 30
0.0
 10
12.6043016678
 20
24.0000746143
 30
0.0
 10
12.5978058345
 20
24.0000746143
 30
0.0
 10
12.5946229641
 20
24.0000746143
 30
0.0
 10
12.5914400937
 20
24.0000746143
 30
0.0
 10
12.5882572234
 20
24.0000746143
 30
0.0
  0
SPLINE
  5
26A
100
AcDbEntity
  8
0
100
AcDbSpline
 62
2
  6
CONTINUOUS
 70
0
 71
3
 72
11
 73
7
 74
0
 42
0.0000001
 43
0.0000001
 44
0.0000000001
 40
0.3382728571
 40
0.3382728571
 40
0.3382728571
 40
0.3382728571
 40
0.380549246
 40
0.380549246
 40
0.380549246
 40
1.380549246
 40
1.380549246
 40
1.380549246
 40
1.380549246
 10
12.5553252789
 20
24.028652392
 30
0.0
 10
12.5694174085
 20
24.028652392
 30
0.0
 10
12.5835095382
 20
24.028652392
 30
0.0
 10
12.5976016678
 20
24.028652392
 30
0.0
 10
12.63471139
 20
24.028652392
 30
0.0
 10
12.6583933345
 20
23.9820621143
 30
0.0
 10
12.6175405567
 20
23.9545968365
 30
0.0
  0
SPLINE
  5
26B
100
AcDbEntity
  8
0
100
AcDbSpline
 62
2
  6
CONTINUOUS
 70
0
 71
1
 72
15
 73
13
 74
0
 42
0.0000001
 43
0.0000001
 44
0.0000000001
 40
0.0
 40
0.0
 40
0.0284416667
 40
0.0623097655
 40
0.0817742218
 40
0.1130783884
 40
0.1407200551
 40
0.1719297773
 40
0.1907561662
 40
0.2249367218
 40
0.2538811662
 40
0.3225672773
 40
0.4459394995
 40
0.5143672773
 40
0.5143672773
 10
12.5461558345
 20
24.028652392
 30
0.0
 10
12.5461558345
 20
24.0002107254
 30
0.0
 10
12.5122877789
 20
24.0001565587
 30
0.0
 10
12.5121391678
 20
23.9806926698
 30
0.0
 10
12.5434433345
 20
23.9806926698
 30
0.0
 10
12.5434433345
 20
23.9530510032
 30
0.0
 10
12.5122336123
 20
23.9530510032
 30
0.0
 10
12.5122336123
 20
23.9342246143
 30
0.0
 10
12.5464141678
 20
23.9342246143
 30
0.0
 10
12.5464141678
 20
23.9052801698
 30
0.0
 10
12.4777280567
 20
23.9052801698
 30
0.0
 10
12.4777280567
 20
24.028652392
 30
0.0
 10
12.5461558345
 20
24.028652392
 30
0.0
  0
SPLINE
  5
26C
100
AcDbEntity
  8
0
100
AcDbSpline
 62
2
  6
CONTINUOUS
 70
0
 71
1
 72
16
 73
14
 74
0
 42
0.0000001
 43
0.0000001
 44
0.0000000001
 40
0.0
 40
0.0
 40
0.0762702112
 40
0.1616203838
 40
0.2062773801
 40
0.2642685662
 40
0.2643296773
 40
0.3082893996
 40
0.3420074551
 40
0.4653796773
 40
0.4990977329
 40
0.5360574551
 40
0.536321344
 40
0.5852365517
 40
0.6289171073
 40
0.6289171073
 10
12.16819889
 20
24.0285982254
 30
0.0
 10
12.1195197234
 20
23.9698829476
 30
0.0
 10
12.1752183345
 20
23.9052121143
 30
0.0
 10
12.13056139
 20
23.9052801698
 30
0.0
 10
12.0927391678
 20
23.949239892
 30
0.0
 10
12.0926780567
 20
23.949239892
 30
0.0
 10
12.0926780567
 20
23.9052801698
 30
0.0
 10
12.0589600011
 20
23.9052801698
 30
0.0
 10
12.0589600011
 20
24.028652392
 30
0.0
 10
12.0926780567
 20
24.028652392
 30
0.0
 10
12.0926780567
 20
23.9916926698
 30
0.0
 10
12.0924141678
 20
23.9916926698
 30
0.0
 10
12.1245183345
 20
24.0285982254
 30
0.0
 10
12.16819889
 20
24.0285982254
 30
0.0
  0
SPLINE
  5
26D
100
AcDbEntity
  8
0
100
AcDbSpline
 62
2
  6
CONTINUOUS
 70
0
 71
1
 72
15
 73
13
 74
0
 42
0.0000001
 43
0.0000001
 44
0.0000000001
 40
0.0
 40
0.0
 40
0.1233722222
 40
0.1570361111
 40
0.2003027778
 40
0.2343472222
 40
0.2776138889
 40
0.3112708333
 40
0.4346430556
 40
0.4683
 40
0.5141986111
 40
0.5482430556
 40
0.5941416667
 40
0.6278055556
 40
0.6278055556
 10
12.28609889
 20
23.9052801698
 30
0.0
 10
12.28609889
 20
24.028652392
 30
0.0
 10
12.3197627789
 20
24.028652392
 30
0.0
 10
12.3197627789
 20
23.9853857254
 30
0.0
 10
12.3538072234
 20
23.9853857254
 30
0.0
 10
12.3538072234
 20
24.028652392
 30
0.0
 10
12.3874641678
 20
24.028652392
 30
0.0
 10
12.3874641678
 20
23.9052801698
 30
0.0
 10
12.3538072234
 20
23.9052801698
 30
0.0
 10
12.3538072234
 20
23.9511787809
 30
0.0
 10
12.3197627789
 20
23.9511787809
 30
0.0
 10
12.3197627789
 20
23.9052801698
 30
0.0
 10
12.28609889
 20
23.9052801698
 30
0.0
  0
SPLINE
  5
26E
100
AcDbEntity
  8
0
100
AcDbSpline
 62
2
  6
CONTINUOUS
 70
0
 71
1
 72
9
 73
7
 74
0
 42
0.0000001
 43
0.0000001
 44
0.0000000001
 40
0.0
 40
0.0
 40
0.1233722222
 40
0.1570916667
 40
0.2489694444
 40
0.286825
 40
0.3183194444
 40
0.3898944444
 40
0.3898944444
 10
12.3972294456
 20
23.9052801698
 30
0.0
 10
12.3972294456
 20
24.028652392
 30
0.0
 10
12.43094889
 20
24.028652392
 30
0.0
 10
12.43094889
 20
23.9367746143
 30
0.0
 10
12.4688044456
 20
23.9367746143
 30
0.0
 10
12.4688044456
 20
23.9052801698
 30
0.0
 10
12.3972294456
 20
23.9052801698
 30
0.0
  0
SPLINE
  5
26F
100
AcDbEntity
  8
0
100
AcDbSpline
 62
2
  6
CONTINUOUS
 70
0
 71
3
 72
8
 73
4
 74
0
 42
0.0000001
 43
0.0000001
 44
0.0000000001
 40
0.0506940081
 40
0.0506940081
 40
0.0506940081
 40
0.0506940081
 40
0.1856215675
 40
0.1856215675
 40
0.1856215675
 40
0.1856215675
 10
12.7323669456
 20
23.9347537809
 30
0.0
 10
12.6741125682
 20
23.9376106975
 30
0.0
 10
12.6739934542
 20
24.0212394834
 30
0.0
 10
12.7323669456
 20
24.0223454476
 30
0.0
  0
SPLINE
  5
270
100
AcDbEntity
  8
0
100
AcDbSpline
 62
2
  6
CONTINUOUS
 70
0
 71
3
 72
14
 73
10
 74
0
 42
0.0000001
 43
0.0000001
 44
0.0000000001
 40
0.0
 40
0.0
 40
0.0
 40
0.0
 40
0.0987956343
 40
0.0987956343
 40
0.1968605605
 40
0.1968605605
 40
0.2954509101
 40
0.2954509101
 40
0.3933711843
 40
0.3933711843
 40
0.3933711843
 40
0.3933711843
 10
12.1519905567
 20
23.9680107254
 30
0.0
 10
12.1518188746
 20
24.0033183711
 30
0.0
 10
12.1798260103
 20
24.0324213503
 30
0.0
 10
12.2507566807
 20
24.0321302431
 30
0.0
 10
12.2790580373
 20
24.0030349217
 30
0.0
 10
12.2792912013
 20
23.9325940507
 30
0.0
 10
12.251213467
 20
23.9035483539
 30
0.0
 10
12.1802879692
 20
23.9038628701
 30
0.0
 10
12.1517801718
 20
23.9326694864
 30
0.0
 10
12.1519905567
 20
23.9680107254
 30
0.0
  0
SPLINE
  5
271
100
AcDbEntity
  8
0
100
AcDbSpline
 62
2
  6
CONTINUOUS
 70
0
 71
3
 72
17
 73
13
 74
0
 42
0.0000001
 43
0.0000001
 44
0.0000000001
 40
0.0
 40
0.0
 40
0.0
 40
0.0
 40
0.0032416667
 40
0.0032416667
 40
0.0032416667
 40
1.0032416667
 40
1.0032416667
 40
1.0032416667
 40
2.0032416667
 40
2.0032416667
 40
2.0032416667
 40
3.0032416667
 40
3.0032416667
 40
3.0032416667
 40
3.0032416667
 10
13.1519905567
 20
24.2361107254
 30
0.0
 10
13.1530711123
 20
24.2361107254
 30
0.0
 10
13.1541516678
 20
24.2361107254
 30
0.0
 10
13.1552322234
 20
24.2361107254
 30
0.0
 10
13.1589350011
 20
24.2361107254
 30
0.0
 10
13.1620683345
 20
24.2374537809
 30
0.0
 10
13.1620683345
 20
24.2409190587
 30
0.0
 10
13.1620683345
 20
24.2433885032
 30
0.0
 10
13.1602780567
 20
24.2458565587
 30
0.0
 10
13.1552322234
 20
24.2458565587
 30
0.0
 10
13.1537808345
 20
24.2458565587
 30
0.0
 10
13.1527780567
 20
24.2457343365
 30
0.0
 10
13.1519905567
 20
24.2456190587
 30
0.0
  0
SPLINE
  5
272
100
AcDbEntity
  8
0
100
AcDbSpline
 62
2
  6
CONTINUOUS
 70
0
 71
3
 72
17
 73
13
 74
0
 42
0.0000001
 43
0.0000001
 44
0.0000000001
 40
0.0325722222
 40
0.0325722222
 40
0.0325722222
 40
0.0325722222
 40
1.0325722222
 40
1.0325722222
 40
1.0325722222
 40
2.0325722222
 40
2.0325722222
 40
2.0325722222
 40
3.0325722222
 40
3.0325722222
 40
3.0325722222
 40
4.0325722222
 40
4.0325722222
 40
4.0325722222
 40
4.0325722222
 10
13.1475155567
 20
24.2486440587
 30
0.0
 10
13.14986139
 20
24.248989892
 30
0.0
 10
13.15209889
 20
24.249314892
 30
0.0
 10
13.1554627789
 20
24.249314892
 30
0.0
 10
13.1597225011
 20
24.249314892
 30
0.0
 10
13.1625204241
 20
24.2484270879
 30
0.0
 10
13.1641975011
 20
24.2471926698
 30
0.0
 10
13.1658655567
 20
24.245964892
 30
0.0
 10
13.1667752789
 20
24.244052392
 30
0.0
 10
13.1667752789
 20
24.2413732254
 30
0.0
 10
13.1667752789
 20
24.237677392
 30
0.0
 10
13.1643058345
 20
24.2354329476
 30
0.0
 10
13.1612822234
 20
24.2345440587
 30
0.0
  0
SPLINE
  5
273
100
AcDbEntity
  8
0
100
AcDbSpline
 62
2
  6
CONTINUOUS
 70
0
 71
3
 72
12
 73
8
 74
0
 42
0.0000001
 43
0.0000001
 44
0.0000000001
 40
0.039009476
 40
0.039009476
 40
0.039009476
 40
0.039009476
 40
0.0793449376
 40
0.0793449376
 40
0.1196515026
 40
0.1196515026
 40
0.1957701011
 40
0.1957701011
 40
0.1957701011
 40
0.1957701011
 10
13.1815461123
 20
24.2352162809
 30
0.0
 10
13.1818795114
 20
24.2174049987
 30
0.0
 10
13.1745600526
 20
24.2099471988
 30
0.0
 10
13.138949247
 20
24.2099076086
 30
0.0
 10
13.1319218961
 20
24.2175285534
 30
0.0
 10
13.131400635
 20
24.2683109353
 30
0.0
 10
13.1819962398
 20
24.2684164243
 30
0.0
 10
13.1815461123
 20
24.2352162809
 30
0.0
  0
SPLINE
  5
274
100
AcDbEntity
  8
0
100
AcDbSpline
 62
2
  6
CONTINUOUS
 70
0
 71
1
 72
7
 73
5
 74
0
 42
0.0000001
 43
0.0000001
 44
0.0000000001
 40
0.0
 40
0.0
 40
0.5096027778
 40
3.8794430556
 40
4.3890458333
 40
7.7588861111
 40
7.7588861111
 10
13.2419030567
 20
24.6412010032
 30
0.0
 10
13.2419030567
 20
24.1315982254
 30
0.0
 10
9.8720627789
 20
24.1315982254
 30
0.0
 10
9.8720627789
 20
24.6412010032
 30
0.0
 10
13.2419030567
 20
24.6412010032
 30
0.0
  0
SPLINE
  5
275
100
AcDbEntity
  8
0
100
AcDbSpline
 62
2
  6
CONTINUOUS
 70
0
 71
1
 72
7
 73
5
 74
0
 42
0.0000001
 43
0.0000001
 44
0.0000000001
 40
0.0
 40
0.0
 40
0.496175
 40
3.8525736111
 40
4.3487486111
 40
7.7051472222
 40
7.7051472222
 10
13.2351752789
 20
24.6344871143
 30
0.0
 10
13.2351752789
 20
24.1383121143
 30
0.0
 10
9.8787766678
 20
24.1383121143
 30
0.0
 10
9.8787766678
 20
24.6344871143
 30
0.0
 10
13.2351752789
 20
24.6344871143
 30
0.0
  0
SPLINE
  5
276
100
AcDbEntity
  8
0
100
AcDbSpline
 62
2
  6
CONTINUOUS
 70
0
 71
1
 72
7
 73
5
 74
0
 42
0.0000001
 43
0.0000001
 44
0.0000000001
 40
0.0
 40
0.0
 40
0.6142111111
 40
4.0886777778
 40
4.7028888889
 40
8.1773555556
 40
8.1773555556
 10
9.81973639
 20
24.6935093365
 30
0.0
 10
9.81973639
 20
24.0792982254
 30
0.0
 10
13.2942030567
 20
24.0792982254
 30
0.0
 10
13.2942030567
 20
24.6935093365
 30
0.0
 10
9.81973639
 20
24.6935093365
 30
0.0
  0
SPLINE
  5
277
100
AcDbEntity
  8
0
100
AcDbSpline
 62
2
  6
CONTINUOUS
 70
0
 71
3
 72
14
 73
10
 74
0
 42
0.0000001
 43
0.0000001
 44
0.0000000001
 40
0.1363871571
 40
0.1363871571
 40
0.1363871571
 40
0.1363871571
 40
1.1363871571
 40
1.1363871571
 40
1.1363871571
 40
2.1363871571
 40
2.1363871571
 40
2.1363871571
 40
3.1363871571
 40
3.1363871571
 40
3.1363871571
 40
3.1363871571
 10
12.9346516678
 20
24.5284690587
 30
0.0
 10
12.8216141678
 20
24.5284690587
 30
0.0
 10
12.7353919456
 20
24.475402392
 30
0.0
 10
12.7353919456
 20
24.3916426698
 30
0.0
 10
12.7353919456
 20
24.3078746143
 30
0.0
 10
12.8281377789
 20
24.2444051698
 30
0.0
 10
12.9426266678
 20
24.2444051698
 30
0.0
 10
12.9759655567
 20
24.2444051698
 30
0.0
 10
13.0107419456
 20
24.2475246143
 30
0.0
 10
13.04334889
 20
24.2542787809
 30
0.0
  0
SPLINE
  5
278
100
AcDbEntity
  8
0
100
AcDbSpline
 62
2
  6
CONTINUOUS
 70
0
 71
3
 72
11
 73
7
 74
0
 42
0.0000001
 43
0.0000001
 44
0.0000000001
 40
3.1363871571
 40
3.1363871571
 40
3.1363871571
 40
3.1363871571
 40
3.2113121571
 40
3.2113121571
 40
3.2113121571
 40
4.2113121571
 40
4.2113121571
 40
4.2113121571
 40
4.2113121571
 10
13.04334889
 20
24.2542787809
 30
0.0
 10
13.04334889
 20
24.2792537809
 30
0.0
 10
13.04334889
 20
24.3042287809
 30
0.0
 10
13.04334889
 20
24.3292037809
 30
0.0
 10
13.04334889
 20
24.3531426698
 30
0.0
 10
13.0426155567
 20
24.3786287809
 30
0.0
 10
13.0100225011
 20
24.3879940587
 30
0.0
  0
SPLINE
  5
279
100
AcDbEntity
  8
0
100
AcDbSpline
 62
2
  6
CONTINUOUS
 70
0
 71
3
 72
17
 73
13
 74
0
 42
0.0000001
 43
0.0000001
 44
0.0000000001
 40
4.4917022773
 40
4.4917022773
 40
4.4917022773
 40
4.4917022773
 40
5.4917022773
 40
5.4917022773
 40
5.4917022773
 40
6.4917022773
 40
6.4917022773
 40
6.4917022773
 40
7.4917022773
 40
7.4917022773
 40
7.4917022773
 40
8.4917022773
 40
8.4917022773
 40
8.4917022773
 40
8.4917022773
 10
13.1208766678
 20
24.2225412809
 30
0.0
 10
13.0629197234
 20
24.2147551698
 30
0.0
 10
13.0064016678
 20
24.2069301698
 30
0.0
 10
12.9477127789
 20
24.2069301698
 30
0.0
 10
12.7622072234
 20
24.2069301698
 30
0.0
 10
12.6527905567
 20
24.2797857254
 30
0.0
 10
12.6527905567
 20
24.3843454476
 30
0.0
 10
12.6527905567
 20
24.4962093365
 30
0.0
 10
12.7766919456
 20
24.5659385032
 30
0.0
 10
12.9520530567
 20
24.5659385032
 30
0.0
 10
12.9904516678
 20
24.5659385032
 30
0.0
 10
13.0281308345
 20
24.5628121143
 30
0.0
 10
13.0658086123
 20
24.5570885032
 30
0.0
  0
SPLINE
  5
27A
100
AcDbEntity
  8
0
100
AcDbSpline
 62
2
  6
CONTINUOUS
 70
0
 71
3
 72
14
 73
10
 74
0
 42
0.0000001
 43
0.0000001
 44
0.0000000001
 40
0.1313958333
 40
0.1313958333
 40
0.1313958333
 40
0.1313958333
 40
1.1313958333
 40
1.1313958333
 40
1.1313958333
 40
1.3390027778
 40
1.3390027778
 40
1.3390027778
 40
2.3390027778
 40
2.3390027778
 40
2.3390027778
 40
2.3390027778
 10
12.1470127789
 20
24.2168315587
 30
0.0
 10
12.1854183345
 20
24.2329440587
 30
0.0
 10
12.1854183345
 20
24.2537704476
 30
0.0
 10
12.1854183345
 20
24.2828982254
 30
0.0
 10
12.1854183345
 20
24.3521005402
 30
0.0
 10
12.1854183345
 20
24.421302855
 30
0.0
 10
12.1854183345
 20
24.4905051698
 30
0.0
 10
12.1854183345
 20
24.5196329476
 30
0.0
 10
12.1854183345
 20
24.540452392
 30
0.0
 10
12.1477391678
 20
24.5560510032
 30
0.0
  0
SPLINE
  5
27B
100
AcDbEntity
  8
0
100
AcDbSpline
 62
2
  6
CONTINUOUS
 70
0
 71
3
 72
11
 73
7
 74
0
 42
0.0000001
 43
0.0000001
 44
0.0000000001
 40
3.819343998
 40
3.819343998
 40
3.819343998
 40
3.819343998
 40
4.0165481647
 40
4.0165481647
 40
4.0165481647
 40
5.0165481647
 40
5.0165481647
 40
5.0165481647
 40
5.0165481647
 10
12.5397544456
 20
24.2933010032
 30
0.0
 10
12.5397544456
 20
24.3590357254
 30
0.0
 10
12.5397544456
 20
24.4247704476
 30
0.0
 10
12.5397544456
 20
24.4905051698
 30
0.0
 10
12.5397544456
 20
24.5196329476
 30
0.0
 10
12.5404725011
 20
24.540452392
 30
0.0
 10
12.5020752789
 20
24.5560510032
 30
0.0
  0
SPLINE
  5
27C
100
AcDbEntity
  8
0
100
AcDbSpline
 62
2
  6
CONTINUOUS
 70
0
 71
3
 72
11
 73
7
 74
0
 42
0.0000001
 43
0.0000001
 44
0.0000000001
 40
5.1472176091
 40
5.1472176091
 40
5.1472176091
 40
5.1472176091
 40
6.1472176091
 40
6.1472176091
 40
6.1472176091
 40
6.4391078869
 40
6.4391078869
 40
6.4391078869
 40
6.4391078869
 10
12.62961139
 20
24.5560510032
 30
0.0
 10
12.5919183345
 20
24.540452392
 30
0.0
 10
12.5919183345
 20
24.5196329476
 30
0.0
 10
12.5919183345
 20
24.4905051698
 30
0.0
 10
12.5919183345
 20
24.3932084106
 30
0.0
 10
12.5919183345
 20
24.2959116513
 30
0.0
 10
12.5919183345
 20
24.198614892
 30
0.0
  0
SPLINE
  5
27D
100
AcDbEntity
  8
0
100
AcDbSpline
 62
2
  6
CONTINUOUS
 70
0
 71
3
 72
11
 73
7
 74
0
 42
0.0000001
 43
0.0000001
 44
0.0000000001
 40
6.8979254112
 40
6.8979254112
 40
6.8979254112
 40
6.8979254112
 40
7.0992740223
 40
7.0992740223
 40
7.0992740223
 40
8.0992740223
 40
8.0992740223
 40
8.0992740223
 40
8.0992740223
 10
12.2375961123
 20
24.4842468365
 30
0.0
 10
12.2375961123
 20
24.4171306328
 30
0.0
 10
12.2375961123
 20
24.3500144291
 30
0.0
 10
12.2375961123
 20
24.2828982254
 30
0.0
 10
12.2375961123
 20
24.2537704476
 30
0.0
 10
12.2368711123
 20
24.2329440587
 30
0.0
 10
12.27526139
 20
24.2168315587
 30
0.0
  0
SPLINE
  5
27E
100
AcDbEntity
  8
0
100
AcDbSpline
 62
2
  6
CONTINUOUS
 70
0
 71
3
 72
14
 73
10
 74
0
 42
0.0000001
 43
0.0000001
 44
0.0000000001
 40
0.1408208333
 40
0.1408208333
 40
0.1408208333
 40
0.1408208333
 40
1.1408208333
 40
1.1408208333
 40
1.1408208333
 40
1.3369611111
 40
1.3369611111
 40
1.3369611111
 40
2.3369611111
 40
2.3369611111
 40
2.3369611111
 40
2.3369611111
 10
12.0702169456
 20
24.5560510032
 30
0.0
 10
12.0339961123
 20
24.5461635032
 30
0.0
 10
12.0383169456
 20
24.5076635032
 30
0.0
 10
12.0383169456
 20
24.4842468365
 30
0.0
 10
12.0383169456
 20
24.4188667439
 30
0.0
 10
12.0383169456
 20
24.3534866513
 30
0.0
 10
12.0383169456
 20
24.2881065587
 30
0.0
 10
12.0383169456
 20
24.264702392
 30
0.0
 10
12.0339961123
 20
24.2267190587
 30
0.0
 10
12.0702169456
 20
24.2168315587
 30
0.0
  0
SPLINE
  5
27F
100
AcDbEntity
  8
0
100
AcDbSpline
 62
2
  6
CONTINUOUS
 70
0
 71
3
 72
14
 73
10
 74
0
 42
0.0000001
 43
0.0000001
 44
0.0000000001
 40
2.4777958333
 40
2.4777958333
 40
2.4777958333
 40
2.4777958333
 40
3.4777958333
 40
3.4777958333
 40
3.4777958333
 40
3.6739361111
 40
3.6739361111
 40
3.6739361111
 40
4.6739361111
 40
4.6739361111
 40
4.6739361111
 40
4.6739361111
 10
11.9325294456
 20
24.2168315587
 30
0.0
 10
11.9687627789
 20
24.226189892
 30
0.0
 10
11.9644169456
 20
24.264702392
 30
0.0
 10
11.9644169456
 20
24.2881065587
 30
0.0
 10
11.9644169456
 20
24.3534866513
 30
0.0
 10
11.9644169456
 20
24.4188667439
 30
0.0
 10
11.9644169456
 20
24.4842468365
 30
0.0
 10
11.9644169456
 20
24.5081857254
 30
0.0
 10
11.9694961123
 20
24.5461635032
 30
0.0
 10
11.9325294456
 20
24.5560510032
 30
0.0
  0
SPLINE
  5
280
100
AcDbEntity
  8
0
100
AcDbSpline
 62
2
  6
CONTINUOUS
 70
0
 71
3
 72
14
 73
10
 74
0
 42
0.0000001
 43
0.0000001
 44
0.0000000001
 40
0.3803437494
 40
0.3803437494
 40
0.3803437494
 40
0.3803437494
 40
1.3803437494
 40
1.3803437494
 40
1.3803437494
 40
1.5764840272
 40
1.5764840272
 40
1.5764840272
 40
2.5764840272
 40
2.5764840272
 40
2.5764840272
 40
2.5764840272
 10
11.5673419456
 20
24.2168315587
 30
0.0
 10
11.6042947234
 20
24.226189892
 30
0.0
 10
11.59994889
 20
24.264702392
 30
0.0
 10
11.59994889
 20
24.2881065587
 30
0.0
 10
11.59994889
 20
24.3534866513
 30
0.0
 10
11.59994889
 20
24.4188667439
 30
0.0
 10
11.59994889
 20
24.4842468365
 30
0.0
 10
11.59994889
 20
24.5081857254
 30
0.0
 10
11.6042947234
 20
24.5461635032
 30
0.0
 10
11.5673419456
 20
24.5560510032
 30
0.0
  0
SPLINE
  5
281
100
AcDbEntity
  8
0
100
AcDbSpline
 62
2
  6
CONTINUOUS
 70
0
 71
3
 72
11
 73
7
 74
0
 42
0.0000001
 43
0.0000001
 44
0.0000000001
 40
2.7180173605
 40
2.7180173605
 40
2.7180173605
 40
2.7180173605
 40
3.7180173605
 40
3.7180173605
 40
3.7180173605
 40
3.9448520827
 40
3.9448520827
 40
3.9448520827
 40
3.9448520827
 10
11.7057419456
 20
24.5560510032
 30
0.0
 10
11.6687891678
 20
24.5461635032
 30
0.0
 10
11.67386139
 20
24.5076635032
 30
0.0
 10
11.67386139
 20
24.4842468365
 30
0.0
 10
11.67386139
 20
24.4086352624
 30
0.0
 10
11.67386139
 20
24.3330236883
 30
0.0
 10
11.67386139
 20
24.2574121143
 30
0.0
  0
SPLINE
  5
282
100
AcDbEntity
  8
0
100
AcDbSpline
 62
2
  6
CONTINUOUS
 70
0
 71
3
 72
8
 73
4
 74
0
 42
0.0000001
 43
0.0000001
 44
0.0000000001
 40
3.9448520827
 40
3.9448520827
 40
3.9448520827
 40
3.9448520827
 40
4.1770975516
 40
4.1770975516
 40
4.1770975516
 40
4.1770975516
 10
11.67386139
 20
24.2574121143
 30
0.0
 10
11.7519891196
 20
24.2537023905
 30
0.0
 10
11.824436523
 20
24.2387946238
 30
0.0
 10
11.90066139
 20
24.2844440587
 30
0.0
  0
SPLINE
  5
283
100
AcDbEntity
  8
0
100
AcDbSpline
 62
2
  6
CONTINUOUS
 70
0
 71
3
 72
11
 73
7
 74
0
 42
0.0000001
 43
0.0000001
 44
0.0000000001
 40
0.0
 40
0.0
 40
0.0
 40
0.0
 40
0.140550031
 40
0.140550031
 40
0.140550031
 40
1.140550031
 40
1.140550031
 40
1.140550031
 40
1.140550031
 10
11.3296780567
 20
24.3822704476
 30
0.0
 10
11.3644590752
 20
24.3508824846
 30
0.0
 10
11.3992400937
 20
24.3194945217
 30
0.0
 10
11.4340211123
 20
24.2881065587
 30
0.0
 10
11.4644502789
 20
24.2610412809
 30
0.0
 10
11.5100975011
 20
24.2339885032
 30
0.0
 10
11.55141139
 20
24.2152579476
 30
0.0
  0
SPLINE
  5
284
100
AcDbEntity
  8
0
100
AcDbSpline
 62
2
  6
CONTINUOUS
 70
0
 71
3
 72
14
 73
10
 74
0
 42
0.0000001
 43
0.0000001
 44
0.0000000001
 40
1.5143546326
 40
1.5143546326
 40
1.5143546326
 40
1.5143546326
 40
2.0459541232
 40
2.0459541232
 40
2.5487056352
 40
2.5487056352
 40
3.0207171483
 40
3.0207171483
 40
3.5638184132
 40
3.5638184132
 40
3.5638184132
 40
3.5638184132
 10
11.2456183345
 20
24.393202392
 30
0.0
 10
11.2732895263
 20
24.3961803981
 30
0.0
 10
11.2996670156
 20
24.4008415874
 30
0.0
 10
11.3499902713
 20
24.4231557097
 30
0.0
 10
11.3750583018
 20
24.4425146842
 30
0.0
 10
11.3662652457
 20
24.503619535
 30
0.0
 10
11.334810582
 20
24.5179416055
 30
0.0
 10
11.2822859891
 20
24.5284130399
 30
0.0
 10
11.2557228183
 20
24.5248237189
 30
0.0
 10
11.2282308345
 20
24.5211926698
 30
0.0
  0
SPLINE
  5
285
100
AcDbEntity
  8
0
100
AcDbSpline
 62
2
  6
CONTINUOUS
 70
0
 71
3
 72
11
 73
7
 74
0
 42
0.0000001
 43
0.0000001
 44
0.0000000001
 40
3.5638184132
 40
3.5638184132
 40
3.5638184132
 40
3.5638184132
 40
3.7969045243
 40
3.7969045243
 40
3.7969045243
 40
4.7969045243
 40
4.7969045243
 40
4.7969045243
 40
4.7969045243
 10
11.2282308345
 20
24.5211926698
 30
0.0
 10
11.2282308345
 20
24.4434972995
 30
0.0
 10
11.2282308345
 20
24.3658019291
 30
0.0
 10
11.2282308345
 20
24.2881065587
 30
0.0
 10
11.2282308345
 20
24.2641746143
 30
0.0
 10
11.2238836123
 20
24.226189892
 30
0.0
 10
11.26083639
 20
24.2168315587
 30
0.0
  0
SPLINE
  5
286
100
AcDbEntity
  8
0
100
AcDbSpline
 62
2
  6
CONTINUOUS
 70
0
 71
3
 72
14
 73
10
 74
0
 42
0.0000001
 43
0.0000001
 44
0.0000000001
 40
4.9384517465
 40
4.9384517465
 40
4.9384517465
 40
4.9384517465
 40
5.9384517465
 40
5.9384517465
 40
5.9384517465
 40
6.1345920243
 40
6.1345920243
 40
6.1345920243
 40
7.1345920243
 40
7.1345920243
 40
7.1345920243
 40
7.1345920243
 10
11.12243639
 20
24.2168315587
 30
0.0
 10
11.1593891678
 20
24.226189892
 30
0.0
 10
11.15432389
 20
24.264702392
 30
0.0
 10
11.15432389
 20
24.2881065587
 30
0.0
 10
11.15432389
 20
24.3534866513
 30
0.0
 10
11.15432389
 20
24.4188667439
 30
0.0
 10
11.15432389
 20
24.4842468365
 30
0.0
 10
11.15432389
 20
24.5081857254
 30
0.0
 10
11.1593891678
 20
24.5461635032
 30
0.0
 10
11.12243639
 20
24.5560510032
 30
0.0
  0
SPLINE
  5
287
100
AcDbEntity
  8
0
100
AcDbSpline
 62
2
  6
CONTINUOUS
 70
0
 71
3
 72
14
 73
10
 74
0
 42
0.0000001
 43
0.0000001
 44
0.0000000001
 40
7.136158691
 40
7.136158691
 40
7.136158691
 40
7.136158691
 40
7.3086100798
 40
7.3086100798
 40
7.3086100798
 40
8.3086100798
 40
8.3086100798
 40
8.3086100798
 40
9.3086100798
 40
9.3086100798
 40
9.3086100798
 40
9.3086100798
 10
11.12243639
 20
24.5576176698
 30
0.0
 10
11.1799201863
 20
24.5576176698
 30
0.0
 10
11.2374039826
 20
24.5576176698
 30
0.0
 10
11.2948877789
 20
24.5576176698
 30
0.0
 10
11.3919947234
 20
24.5576176698
 30
0.0
 10
11.4448919456
 20
24.5211926698
 30
0.0
 10
11.4448919456
 20
24.4738426698
 30
0.0
 10
11.4448919456
 20
24.4280662809
 30
0.0
 10
11.38909889
 20
24.392164892
 30
0.0
 10
11.3296780567
 20
24.3822704476
 30
0.0
  0
SPLINE
  5
288
100
AcDbEntity
  8
0
100
AcDbSpline
 62
2
  6
CONTINUOUS
 70
0
 71
3
 72
8
 73
4
 74
0
 42
0.0000001
 43
0.0000001
 44
0.0000000001
 40
0.0
 40
0.0
 40
0.0
 40
0.0
 40
0.2313461135
 40
0.2313461135
 40
0.2313461135
 40
0.2313461135
 10
10.8688350011
 20
24.2589593365
 30
0.0
 10
10.9467625819
 20
24.2536865368
 30
0.0
 10
11.0185386353
 20
24.23889446
 30
0.0
 10
11.0949100011
 20
24.283427392
 30
0.0
  0
SPLINE
  5
289
100
AcDbEntity
  8
0
100
AcDbSpline
 62
2
  6
CONTINUOUS
 70
0
 71
3
 72
14
 73
10
 74
0
 42
0.0000001
 43
0.0000001
 44
0.0000000001
 40
0.6128133373
 40
0.6128133373
 40
0.6128133373
 40
0.6128133373
 40
1.6128133373
 40
1.6128133373
 40
1.6128133373
 40
1.8089536151
 40
1.8089536151
 40
1.8089536151
 40
2.8089536151
 40
2.8089536151
 40
2.8089536151
 40
2.8089536151
 10
10.7623155567
 20
24.2168315587
 30
0.0
 10
10.7992683345
 20
24.226189892
 30
0.0
 10
10.7949211123
 20
24.264702392
 30
0.0
 10
10.7949211123
 20
24.2881065587
 30
0.0
 10
10.7949211123
 20
24.3534866513
 30
0.0
 10
10.7949211123
 20
24.4188667439
 30
0.0
 10
10.7949211123
 20
24.4842468365
 30
0.0
 10
10.7949211123
 20
24.5081857254
 30
0.0
 10
10.7992683345
 20
24.5461635032
 30
0.0
 10
10.7623155567
 20
24.5560510032
 30
0.0
  0
SPLINE
  5
28A
100
AcDbEntity
  8
0
100
AcDbSpline
 62
2
  6
CONTINUOUS
 70
0
 71
3
 72
11
 73
7
 74
0
 42
0.0000001
 43
0.0000001
 44
0.0000000001
 40
3.5799535043
 40
3.5799535043
 40
3.5799535043
 40
3.5799535043
 40
4.5799535043
 40
4.5799535043
 40
4.5799535043
 40
4.6335771155
 40
4.6335771155
 40
4.6335771155
 40
4.6335771155
 10
10.9869447234
 20
24.3677162809
 30
0.0
 10
10.97534889
 20
24.3827996143
 30
0.0
 10
10.9449183345
 20
24.3822704476
 30
0.0
 10
10.9224586123
 20
24.3822704476
 30
0.0
 10
10.9045840752
 20
24.3822704476
 30
0.0
 10
10.8867095382
 20
24.3822704476
 30
0.0
 10
10.8688350011
 20
24.3822704476
 30
0.0
  0
SPLINE
  5
28B
100
AcDbEntity
  8
0
100
AcDbSpline
 62
2
  6
CONTINUOUS
 70
0
 71
3
 72
11
 73
7
 74
0
 42
0.0000001
 43
0.0000001
 44
0.0000000001
 40
0.1466138889
 40
0.1466138889
 40
0.1466138889
 40
0.1466138889
 40
1.1466138889
 40
1.1466138889
 40
1.1466138889
 40
1.3786625
 40
1.3786625
 40
1.3786625
 40
1.3786625
 10
10.4558169456
 20
24.2168315587
 30
0.0
 10
10.4920377789
 20
24.2267190587
 30
0.0
 10
10.4876836123
 20
24.264702392
 30
0.0
 10
10.4876836123
 20
24.2881065587
 30
0.0
 10
10.4876836123
 20
24.3654560958
 30
0.0
 10
10.4876836123
 20
24.4428056328
 30
0.0
 10
10.4876836123
 20
24.5201551698
 30
0.0
  0
SPLINE
  5
28C
100
AcDbEntity
  8
0
100
AcDbSpline
 62
2
  6
CONTINUOUS
 70
0
 71
3
 72
11
 73
7
 74
0
 42
0.0000001
 43
0.0000001
 44
0.0000000001
 40
2.0235770463
 40
2.0235770463
 40
2.0235770463
 40
2.0235770463
 40
3.0235770463
 40
3.0235770463
 40
3.0235770463
 40
3.0888034352
 40
3.0888034352
 40
3.0888034352
 40
3.0888034352
 10
10.6891336123
 20
24.4993287809
 30
0.0
 10
10.6797211123
 20
24.5175371143
 30
0.0
 10
10.6507294456
 20
24.5201551698
 30
0.0
 10
10.62682389
 20
24.5201551698
 30
0.0
 10
10.6050817604
 20
24.5201551698
 30
0.0
 10
10.5833396308
 20
24.5201551698
 30
0.0
 10
10.5615975011
 20
24.5201551698
 30
0.0
  0
SPLINE
  5
28D
100
AcDbEntity
  8
0
100
AcDbSpline
 62
2
  6
CONTINUOUS
 70
0
 71
3
 72
11
 73
7
 74
0
 42
0.0000001
 43
0.0000001
 44
0.0000000001
 40
3.0888034352
 40
3.0888034352
 40
3.0888034352
 40
3.0888034352
 40
3.3260603796
 40
3.3260603796
 40
3.3260603796
 40
4.3260603796
 40
4.3260603796
 40
4.3260603796
 40
4.3260603796
 10
10.5615975011
 20
24.5201551698
 30
0.0
 10
10.5615975011
 20
24.4410695217
 30
0.0
 10
10.5615975011
 20
24.3619838735
 30
0.0
 10
10.5615975011
 20
24.2828982254
 30
0.0
 10
10.5615975011
 20
24.2532412809
 30
0.0
 10
10.5608794456
 20
24.2329440587
 30
0.0
 10
10.5992836123
 20
24.2168315587
 30
0.0
  0
SPLINE
  5
28E
100
AcDbEntity
  8
0
100
AcDbSpline
 62
2
  6
CONTINUOUS
 70
0
 71
3
 72
18
 73
14
 74
0
 42
0.0000001
 43
0.0000001
 44
0.0000000001
 40
0.0
 40
0.0
 40
0.0
 40
0.0
 40
0.5032108973
 40
0.5032108973
 40
0.8324923635
 40
0.8324923635
 40
1.151976252
 40
1.151976252
 40
1.6605310342
 40
1.6605310342
 40
3.0490484198
 40
3.0490484198
 40
4.1196841171
 40
4.1196841171
 40
4.1196841171
 40
4.1196841171
 10
10.2811891678
 20
24.4957079476
 30
0.0
 10
10.2466735706
 20
24.5174954761
 30
0.0
 10
10.2125585344
 20
24.5275921808
 30
0.0
 10
10.1451207803
 20
24.5289690764
 30
0.0
 10
10.0784469765
 20
24.5241995039
 30
0.0
 10
10.0699889719
 20
24.4469118136
 30
0.0
 10
10.1373996239
 20
24.42772098
 30
0.0
 10
10.196765367
 20
24.4075121283
 30
0.0
 10
10.2338197297
 20
24.3974740139
 30
0.0
 10
10.3637012566
 20
24.332115558
 30
0.0
 10
10.3159328661
 20
24.2510525144
 30
0.0
 10
10.1597806516
 20
24.1993569548
 30
0.0
 10
10.0662393614
 20
24.2048525261
 30
0.0
 10
9.9993141678
 20
24.2225412809
 30
0.0
  0
SPLINE
  5
28F
100
AcDbEntity
  8
0
100
AcDbSpline
 62
2
  6
CONTINUOUS
 70
0
 71
3
 72
18
 73
14
 74
0
 42
0.0000001
 43
0.0000001
 44
0.0000000001
 40
4.1880291668
 40
4.1880291668
 40
4.1880291668
 40
4.1880291668
 40
5.1629619988
 40
5.1629619988
 40
5.8465018609
 40
5.8465018609
 40
6.3921468543
 40
6.3921468543
 40
6.8466935936
 40
6.8466935936
 40
7.3975710712
 40
7.3975710712
 40
8.3539434147
 40
8.3539434147
 40
8.3539434147
 40
8.3539434147
 10
9.9783058345
 20
24.287577392
 30
0.0
 10
10.0378699103
 20
24.2525827016
 30
0.0
 10
10.1369170893
 20
24.2271133421
 30
0.0
 10
10.2550269857
 20
24.2808714457
 30
0.0
 10
10.2469475327
 20
24.3219232452
 30
0.0
 10
10.1662362281
 20
24.3628401323
 30
0.0
 10
10.1276116938
 20
24.3714100409
 30
0.0
 10
10.0593265422
 20
24.3957797182
 30
0.0
 10
10.0106342343
 20
24.4141922626
 30
0.0
 10
9.9779151929
 20
24.4962010639
 30
0.0
 10
10.0087021916
 20
24.5276394003
 30
0.0
 10
10.1131637575
 20
24.5732010285
 30
0.0
 10
10.2144472823
 20
24.5694645432
 30
0.0
 10
10.2811891678
 20
24.5544843365
 30
0.0
  0
SPLINE
  5
290
100
AcDbEntity
  8
0
100
AcDbSpline
 62
2
  6
CONTINUOUS
 70
0
 71
1
 72
7
 73
5
 74
0
 42
0.0000001
 43
0.0000001
 44
0.0000000001
 40
0.0
 40
0.0
 40
3.4446958333
 40
4.0226375
 40
7.4673333333
 40
8.045275
 40
8.045275
 10
9.8338822234
 20
24.0985454476
 30
0.0
 10
13.2785780567
 20
24.0985454476
 30
0.0
 10
13.2785780567
 20
24.6764871143
 30
0.0
 10
9.8338822234
 20
24.6764871143
 30
0.0
 10
9.8338822234
 20
24.0985454476
 30
0.0
  0
DIMENSION
  5
291
100
AcDbEntity
  8
0
100
AcDbDimension
 62
2
  6
CONTINUOUS
  2
*D0
 10
10.7125011166
 20
13.4227101261
 11
10.2865326467
 21
12.5705762776
 70
164
  1
R<>\P[7.6]
  3
DIMSTYLE_1
100
AcDbRadialDimension
 15
8.3213337823
 25
11.6448287321
  0
DIMENSION
  5
292
100
AcDbEntity
  8
0
100
AcDbDimension
 62
2
  6
CONTINUOUS
  2
*D1
 10
20.4923063867
 20
10.4430216404
 11
20.4923063867
 21
18.6858144889
 70
160
  1
<>\P[29.9]
  3
DIMSTYLE_2
100
AcDbAlignedDimension
 13
34.2625011166
 23
26.1523986117
 14
34.2625011166
 24
10.4430216404
 50
270.0
100
AcDbRotatedDimension
  0
DIMENSION
  5
293
100
AcDbEntity
  8
0
100
AcDbDimension
 62
2
  6
CONTINUOUS
  2
*D2
 10
37.2421896023
 20
17.4822427842
 11
23.7083231694
 21
17.3650552842
 70
160
  1
<>\P[75]
  3
DIMSTYLE_2
100
AcDbAlignedDimension
 13
7.7328126309
 23
23.1727101261
 14
37.2421896023
 24
23.1727101261
100
AcDbRotatedDimension
  0
MTEXT
  5
294
100
AcDbEntity
  8
___NOTE
100
AcDbMText
 62
2
  6
CONTINUOUS
  7
STANDARD
 71
1
 72
1
 10
9.7341395006
 20
23.1400284689
 30
0.0
 11
1.0
 21
0.0
 31
0.0
  1
CUT-OUT TEMPLATE\PUNDERCOUNTER SINK\PGABARIT DE DÉCOUPE\PÉVIER SOUS COMPTOIR\PPLANTILLA DE CORTE\PFREGADERO DE\PINSTALACIÓN BAJO CUBIERTA\P 
 40
0.2
 41
4.0
  0
MTEXT
  5
295
100
AcDbEntity
  8
___NOTE
100
AcDbMText
 62
2
  6
CONTINUOUS
  7
STANDARD
 71
1
 72
1
 10
9.8222048395
 20
20.7937051878
 30
0.0
 11
1.0
 21
0.0
 31
0.0
  1
11406\P \P11444\P \P11445\P \P24765
 40
0.2
 41
0.8
  0
LEADER
  5
296
100
AcDbEntity
  8
___NOTE
100
AcDbLeader
 62
2
  6
CONTINUOUS
  3
STANDARD
 71
1
 72
0
 73
0
 75
0
 40
0.15625
 41
1.375
 76
3
 10
38.4575011166
 20
24.0089889048
 30
0.0
 10
34.687581217
 20
25.1124924996
 30
0.0
 10
34.437581217
 20
25.1124924996
 30
0.0
340
297
1001
ACAD
1000
DSTYLE
1002
{
1070
77
1070
0
1002
}
  0
MTEXT
  5
297
102
{ACAD_REACTORS
330
296
102
}
100
AcDbEntity
  8
___NOTE
100
AcDbMText
 62
2
  6
CONTINUOUS
  7
STANDARD
 71
3
 72
1
 10
34.437581217
 20
25.1906174996
 30
0.0
 11
1.0
 21
0.0
 31
0.0
  1
RIM OF SINK\PREBORD D L 'ÉVIER\PBORDE DEL FREGADERO
 40
0.15625
 41
2.375
  0
LEADER
  5
298
100
AcDbEntity
  8
___NOTE
100
AcDbLeader
 62
2
  6
CONTINUOUS
  3
STANDARD
 71
1
 72
0
 73
0
 75
0
 40
0.15625
 41
3.5
 76
3
 10
37.2421896023
 20
21.6944987627
 30
0.0
 10
35.5857881928
 20
22.8041623237
 30
0.0
 10
35.3357881928
 20
22.8041623237
 30
0.0
340
299
1001
ACAD
1000
DSTYLE
1002
{
1070
77
1070
0
1002
}
  0
MTEXT
  5
299
102
{ACAD_REACTORS
330
298
102
}
100
AcDbEntity
  8
___NOTE
100
AcDbMText
 62
2
  6
CONTINUOUS
  7
STANDARD
 71
3
 72
1
 10
35.3357881928
 20
22.8822873237
 30
0.0
 11
1.0
 21
0.0
 31
0.0
  1
FOR UNDER-MOUNT INSTALLATION\PCUT ALONG THIS LINE\PPARA INSTALACIÓN DE MONTAJE POR ABAJO\PCORTE A LO LARGO DE ESTA LÍNEA\PPOUR INSTALLATION À MONTAGE SOUS PLAN\PCOUPER LE LONG DE CETTE LIGNE\P 
 40
0.15625
 41
4.625
  0
INSERT
  5
29A
100
AcDbEntity
  8
___SYMBOL
100
AcDbBlockReference
 62
2
  6
CONTINUOUS
  2
PLOTTING_TEMPLATE_NOTE_BL0
 10
32.3528376936
 20
13.8878720301
  0
INSERT
  5
29B
100
AcDbEntity
  8
___SYMBOL
100
AcDbBlockReference
 62
2
  6
CONTINUOUS
  2
TEMPLATE_NUMBER_BL1
 10
11.9114064581
 20
10.7939009697
  0
INSERT
  5
29C
100
AcDbEntity
  8
___SYMBOL
100
AcDbBlockReference
 62
2
  6
CONTINUOUS
  2
TEMPLATE_NUMBER_BL2
 10
11.9240176865
 20
8.7717106239
  0
INSERT
  5
29D
100
AcDbEntity
  8
___SYMBOL
100
AcDbBlockReference
 62
2
  6
CONTINUOUS
  2
COPYRIGHT_YEAR_BL3
 10
29.2644687226
 20
10.7838135973
  0
INSERT
  5
29E
100
AcDbEntity
  8
___SYMBOL
100
AcDbBlockReference
 62
2
  6
CONTINUOUS
  2
SCISSORS_BL4
 10
37.2595589305
 20
20.8048021925
  0
LINE
  5
29F
100
AcDbEntity
  8
0
100
AcDbLine
 62
2
  6
CONTINUOUS
 10
10.33552389
 20
24.4993287809
 11
10.3608933345
 21
24.5612593365
  0
LINE
  5
2A0
100
AcDbEntity
  8
0
100
AcDbLine
 62
2
  6
CONTINUOUS
 10
10.7144905567
 20
24.5612593365
 11
10.69131139
 21
24.4993287809
  0
LINE
  5
2A1
100
AcDbEntity
  8
0
100
AcDbLine
 62
2
  6
CONTINUOUS
 10
11.0970794456
 20
24.283427392
 11
11.06447389
 21
24.2152579476
  0
LINE
  5
2A2
100
AcDbEntity
  8
0
100
AcDbLine
 62
2
  6
CONTINUOUS
 10
11.9028322234
 20
24.2844440587
 11
11.8651669456
 21
24.2152579476
  0
LINE
  5
2A3
100
AcDbEntity
  8
0
100
AcDbLine
 62
2
  6
CONTINUOUS
 10
10.2811891678
 20
24.5544843365
 11
10.2811891678
 21
24.4957079476
  0
LINE
  5
2A4
100
AcDbEntity
  8
0
100
AcDbLine
 62
2
  6
CONTINUOUS
 10
10.4558169456
 20
24.2152579476
 11
10.4558169456
 21
24.2168315587
  0
LINE
  5
2A5
100
AcDbEntity
  8
0
100
AcDbLine
 62
2
  6
CONTINUOUS
 10
10.5992836123
 20
24.2168315587
 11
10.5992836123
 21
24.2152579476
  0
LINE
  5
2A6
100
AcDbEntity
  8
0
100
AcDbLine
 62
2
  6
CONTINUOUS
 10
10.7623155567
 20
24.2152579476
 11
10.7623155567
 21
24.2168315587
  0
LINE
  5
2A7
100
AcDbEntity
  8
0
100
AcDbLine
 62
2
  6
CONTINUOUS
 10
10.7623155567
 20
24.5560510032
 11
10.7623155567
 21
24.5576176698
  0
LINE
  5
2A8
100
AcDbEntity
  8
0
100
AcDbLine
 62
2
  6
CONTINUOUS
 10
10.8688350011
 20
24.5165204476
 11
10.8688350011
 21
24.4197454476
  0
LINE
  5
2A9
100
AcDbEntity
  8
0
100
AcDbLine
 62
2
  6
CONTINUOUS
 10
10.8688350011
 20
24.3822704476
 11
10.8688350011
 21
24.2589593365
  0
LINE
  5
2AA
100
AcDbEntity
  8
0
100
AcDbLine
 62
2
  6
CONTINUOUS
 10
10.9891225011
 20
24.4228579476
 11
10.9891225011
 21
24.3677162809
  0
LINE
  5
2AB
100
AcDbEntity
  8
0
100
AcDbLine
 62
2
  6
CONTINUOUS
 10
11.0304225011
 20
24.5602079476
 11
11.0304225011
 21
24.4993287809
  0
LINE
  5
2AC
100
AcDbEntity
  8
0
100
AcDbLine
 62
2
  6
CONTINUOUS
 10
11.12243639
 20
24.2152579476
 11
11.12243639
 21
24.2168315587
  0
LINE
  5
2AD
100
AcDbEntity
  8
0
100
AcDbLine
 62
2
  6
CONTINUOUS
 10
11.12243639
 20
24.5560510032
 11
11.12243639
 21
24.5576176698
  0
LINE
  5
2AE
100
AcDbEntity
  8
0
100
AcDbLine
 62
2
  6
CONTINUOUS
 10
11.26083639
 20
24.2168315587
 11
11.26083639
 21
24.2152579476
  0
LINE
  5
2AF
100
AcDbEntity
  8
0
100
AcDbLine
 62
2
  6
CONTINUOUS
 10
12.97017389
 20
24.0342676698
 11
12.9335530567
 21
23.9439093365
  0
LINE
  5
2B0
100
AcDbEntity
  8
0
100
AcDbLine
 62
2
  6
CONTINUOUS
 10
12.9335530567
 20
23.9235635032
 11
12.9678141678
 21
24.0080912809
  0
LINE
  5
2B1
100
AcDbEntity
  8
0
100
AcDbLine
 62
2
  6
CONTINUOUS
 10
13.0764697234
 20
24.0127287809
 11
13.0584447234
 21
23.9684857254
  0
LINE
  5
2B2
100
AcDbEntity
  8
0
100
AcDbLine
 62
2
  6
CONTINUOUS
 10
11.9690822234
 20
24.0126746143
 11
11.9510697234
 21
23.9684857254
  0
LINE
  5
2B3
100
AcDbEntity
  8
0
100
AcDbLine
 62
2
  6
CONTINUOUS
 10
13.2618266678
 20
23.971402392
 11
13.2953280567
 21
24.0287885032
  0
LINE
  5
2B4
100
AcDbEntity
  8
0
100
AcDbLine
 62
2
  6
CONTINUOUS
 10
13.28681139
 20
24.0287885032
 11
13.2578252789
 21
23.9797704476
  0
LINE
  5
2B5
100
AcDbEntity
  8
0
100
AcDbLine
 62
2
  6
CONTINUOUS
 10
12.7663169456
 20
23.9514371143
 11
12.7646350011
 21
23.9494162809
  0
LINE
  5
2B6
100
AcDbEntity
  8
0
100
AcDbLine
 62
2
  6
CONTINUOUS
 10
11.5673419456
 20
24.2152579476
 11
11.5673419456
 21
24.2168315587
  0
LINE
  5
2B7
100
AcDbEntity
  8
0
100
AcDbLine
 62
2
  6
CONTINUOUS
 10
11.5673419456
 20
24.5560510032
 11
11.5673419456
 21
24.5576176698
  0
LINE
  5
2B8
100
AcDbEntity
  8
0
100
AcDbLine
 62
2
  6
CONTINUOUS
 10
11.7057419456
 20
24.5576176698
 11
11.7057419456
 21
24.5560510032
  0
LINE
  5
2B9
100
AcDbEntity
  8
0
100
AcDbLine
 62
2
  6
CONTINUOUS
 10
11.9325294456
 20
24.2152579476
 11
11.9325294456
 21
24.2168315587
  0
LINE
  5
2BA
100
AcDbEntity
  8
0
100
AcDbLine
 62
2
  6
CONTINUOUS
 10
11.9325294456
 20
24.5560510032
 11
11.9325294456
 21
24.5576176698
  0
LINE
  5
2BB
100
AcDbEntity
  8
0
100
AcDbLine
 62
2
  6
CONTINUOUS
 10
12.0702169456
 20
24.5576176698
 11
12.0702169456
 21
24.5560510032
  0
LINE
  5
2BC
100
AcDbEntity
  8
0
100
AcDbLine
 62
2
  6
CONTINUOUS
 10
12.0702169456
 20
24.2168315587
 11
12.0702169456
 21
24.2152579476
  0
LINE
  5
2BD
100
AcDbEntity
  8
0
100
AcDbLine
 62
2
  6
CONTINUOUS
 10
12.1470127789
 20
24.2152579476
 11
12.1470127789
 21
24.2168315587
  0
LINE
  5
2BE
100
AcDbEntity
  8
0
100
AcDbLine
 62
2
  6
CONTINUOUS
 10
12.1477391678
 20
24.5560510032
 11
12.1477391678
 21
24.5576176698
  0
LINE
  5
2BF
100
AcDbEntity
  8
0
100
AcDbLine
 62
2
  6
CONTINUOUS
 10
12.2535266678
 20
24.5576176698
 11
12.2535266678
 21
24.5570885032
  0
LINE
  5
2C0
100
AcDbEntity
  8
0
100
AcDbLine
 62
2
  6
CONTINUOUS
 10
12.27526139
 20
24.2168315587
 11
12.27526139
 21
24.2152579476
  0
LINE
  5
2C1
100
AcDbEntity
  8
0
100
AcDbLine
 62
2
  6
CONTINUOUS
 10
12.5020752789
 20
24.5560510032
 11
12.5020752789
 21
24.5576176698
  0
LINE
  5
2C2
100
AcDbEntity
  8
0
100
AcDbLine
 62
2
  6
CONTINUOUS
 10
12.5553252789
 20
23.9053621143
 11
12.5553252789
 21
24.028652392
  0
LINE
  5
2C3
100
AcDbEntity
  8
0
100
AcDbLine
 62
2
  6
CONTINUOUS
 10
12.5882572234
 20
24.0000746143
 11
12.5882572234
 21
23.9763121143
  0
LINE
  5
2C4
100
AcDbEntity
  8
0
100
AcDbLine
 62
2
  6
CONTINUOUS
 10
12.58831139
 20
23.9431357254
 11
12.58831139
 21
23.9053621143
  0
LINE
  5
2C5
100
AcDbEntity
  8
0
100
AcDbLine
 62
2
  6
CONTINUOUS
 10
12.62961139
 20
24.5576176698
 11
12.62961139
 21
24.5560510032
  0
LINE
  5
2C6
100
AcDbEntity
  8
0
100
AcDbLine
 62
2
  6
CONTINUOUS
 10
12.7663169456
 20
23.9488871143
 11
12.7663169456
 21
23.9514371143
  0
LINE
  5
2C7
100
AcDbEntity
  8
0
100
AcDbLine
 62
2
  6
CONTINUOUS
 10
12.7663169456
 20
24.0051204476
 11
12.7663169456
 21
24.0163232254
  0
LINE
  5
2C8
100
AcDbEntity
  8
0
100
AcDbLine
 62
2
  6
CONTINUOUS
 10
12.7659641678
 20
23.9395412809
 11
12.7663169456
 21
23.9488871143
  0
LINE
  5
2C9
100
AcDbEntity
  8
0
100
AcDbLine
 62
2
  6
CONTINUOUS
 10
13.1208766678
 20
24.3879940587
 11
13.1172544456
 21
24.3656204476
  0
LINE
  5
2CA
100
AcDbEntity
  8
0
100
AcDbLine
 62
2
  6
CONTINUOUS
 10
12.8830016678
 20
23.9283926698
 11
12.8994141678
 21
24.0080912809
  0
LINE
  5
2CB
100
AcDbEntity
  8
0
100
AcDbLine
 62
2
  6
CONTINUOUS
 10
12.8970808345
 20
24.0342676698
 11
12.8750405567
 21
23.9283926698
  0
LINE
  5
2CC
100
AcDbEntity
  8
0
100
AcDbLine
 62
2
  6
CONTINUOUS
 10
12.7646350011
 20
23.9494162809
 11
12.7323669456
 21
23.9347537809
  0
LINE
  5
2CD
100
AcDbEntity
  8
0
100
AcDbLine
 62
2
  6
CONTINUOUS
 10
9.9993141678
 20
24.2225412809
 11
9.9783058345
 21
24.287577392
  0
LINE
  5
2CE
100
AcDbEntity
  8
0
100
AcDbLine
 62
2
  6
CONTINUOUS
 10
13.0009766678
 20
23.9283926698
 11
13.0009766678
 21
24.0287885032
  0
LINE
  5
2CF
100
AcDbEntity
  8
0
100
AcDbLine
 62
2
  6
CONTINUOUS
 10
13.0091002789
 20
24.0210579476
 11
13.0091002789
 21
23.9828635032
  0
LINE
  5
2D0
100
AcDbEntity
  8
0
100
AcDbLine
 62
2
  6
CONTINUOUS
 10
13.0091002789
 20
23.9751454476
 11
13.0091002789
 21
23.9283926698
  0
LINE
  5
2D1
100
AcDbEntity
  8
0
100
AcDbLine
 62
2
  6
CONTINUOUS
 10
13.0100225011
 20
24.3879940587
 11
13.0100225011
 21
24.3895468365
  0
LINE
  5
2D2
100
AcDbEntity
  8
0
100
AcDbLine
 62
2
  6
CONTINUOUS
 10
13.0658086123
 20
24.5570885032
 11
13.0658086123
 21
24.4972537809
  0
LINE
  5
2D3
100
AcDbEntity
  8
0
100
AcDbLine
 62
2
  6
CONTINUOUS
 10
13.1172544456
 20
24.3656204476
 11
13.1172544456
 21
24.2459579476
  0
LINE
  5
2D4
100
AcDbEntity
  8
0
100
AcDbLine
 62
2
  6
CONTINUOUS
 10
13.1208766678
 20
24.3895468365
 11
13.1208766678
 21
24.3879940587
  0
LINE
  5
2D5
100
AcDbEntity
  8
0
100
AcDbLine
 62
2
  6
CONTINUOUS
 10
13.1243627789
 20
24.0314065587
 11
13.1243627789
 21
23.9283926698
  0
LINE
  5
2D6
100
AcDbEntity
  8
0
100
AcDbLine
 62
2
  6
CONTINUOUS
 10
13.1324600011
 20
23.9283926698
 11
13.1324600011
 21
24.0116176698
  0
LINE
  5
2D7
100
AcDbEntity
  8
0
100
AcDbLine
 62
2
  6
CONTINUOUS
 10
13.1475155567
 20
24.2205468365
 11
13.1475155567
 21
24.2486440587
  0
LINE
  5
2D8
100
AcDbEntity
  8
0
100
AcDbLine
 62
2
  6
CONTINUOUS
 10
13.1519905567
 20
24.2456190587
 11
13.1519905567
 21
24.2361107254
  0
LINE
  5
2D9
100
AcDbEntity
  8
0
100
AcDbLine
 62
2
  6
CONTINUOUS
 10
13.1519905567
 20
24.2326454476
 11
13.1519905567
 21
24.2205468365
  0
LINE
  5
2DA
100
AcDbEntity
  8
0
100
AcDbLine
 62
2
  6
CONTINUOUS
 10
13.1612822234
 20
24.2345440587
 11
13.1612822234
 21
24.2343204476
  0
LINE
  5
2DB
100
AcDbEntity
  8
0
100
AcDbLine
 62
2
  6
CONTINUOUS
 10
13.2071127789
 20
24.0287885032
 11
13.2071127789
 21
23.9440982254
  0
LINE
  5
2DC
100
AcDbEntity
  8
0
100
AcDbLine
 62
2
  6
CONTINUOUS
 10
13.2152100011
 20
23.9237135032
 11
13.2152100011
 21
24.0287885032
  0
LINE
  5
2DD
100
AcDbEntity
  8
0
100
AcDbLine
 62
2
  6
CONTINUOUS
 10
13.2618266678
 20
23.9283926698
 11
13.2618266678
 21
23.971402392
  0
LINE
  5
2DE
100
AcDbEntity
  8
0
100
AcDbLine
 62
2
  6
CONTINUOUS
 10
13.2538516678
 20
23.9709135032
 11
13.2537030567
 21
23.9283926698
  0
LINE
  5
2DF
100
AcDbEntity
  8
0
100
AcDbLine
 62
2
  6
CONTINUOUS
 10
13.1172544456
 20
24.2459579476
 11
13.1208766678
 21
24.2225412809
  0
LINE
  5
2E0
100
AcDbEntity
  8
0
100
AcDbLine
 62
2
  6
CONTINUOUS
 10
11.9868572234
 20
23.9684857254
 11
11.9690822234
 21
24.0126746143
  0
LINE
  5
2E1
100
AcDbEntity
  8
0
100
AcDbLine
 62
2
  6
CONTINUOUS
 10
13.1630725011
 20
24.2205468365
 11
13.16117389
 21
24.2277093365
  0
LINE
  5
2E2
100
AcDbEntity
  8
0
100
AcDbLine
 62
2
  6
CONTINUOUS
 10
12.9921877789
 20
23.9283926698
 11
12.97017389
 21
24.0342676698
  0
LINE
  5
2E3
100
AcDbEntity
  8
0
100
AcDbLine
 62
2
  6
CONTINUOUS
 10
12.9678141678
 20
24.0080912809
 11
12.9842933345
 21
23.9283926698
  0
LINE
  5
2E4
100
AcDbEntity
  8
0
100
AcDbLine
 62
2
  6
CONTINUOUS
 10
13.1612822234
 20
24.2343204476
 11
13.1677655567
 21
24.2205468365
  0
LINE
  5
2E5
100
AcDbEntity
  8
0
100
AcDbLine
 62
2
  6
CONTINUOUS
 10
12.8994141678
 20
24.0080912809
 11
12.9335530567
 21
23.9235635032
  0
LINE
  5
2E6
100
AcDbEntity
  8
0
100
AcDbLine
 62
2
  6
CONTINUOUS
 10
12.9335530567
 20
23.9439093365
 11
12.8970808345
 21
24.0342676698
  0
LINE
  5
2E7
100
AcDbEntity
  8
0
100
AcDbLine
 62
2
  6
CONTINUOUS
 10
13.0942377789
 20
23.9684857254
 11
13.0764697234
 21
24.0127287809
  0
LINE
  5
2E8
100
AcDbEntity
  8
0
100
AcDbLine
 62
2
  6
CONTINUOUS
 10
11.3122891678
 20
24.3198385032
 11
11.2456183345
 21
24.393202392
  0
LINE
  5
2E9
100
AcDbEntity
  8
0
100
AcDbLine
 62
2
  6
CONTINUOUS
 10
12.6158308345
 20
23.9052801698
 11
12.58831139
 21
23.9431357254
  0
LINE
  5
2EA
100
AcDbEntity
  8
0
100
AcDbLine
 62
2
  6
CONTINUOUS
 10
12.6175405567
 20
23.9545968365
 11
12.6526558345
 21
23.9052121143
  0
LINE
  5
2EB
100
AcDbEntity
  8
0
100
AcDbLine
 62
2
  6
CONTINUOUS
 10
13.2202141678
 20
24.0287885032
 11
13.2538516678
 21
23.9709135032
  0
LINE
  5
2EC
100
AcDbEntity
  8
0
100
AcDbLine
 62
2
  6
CONTINUOUS
 10
13.2578252789
 20
23.9797704476
 11
13.2294919456
 21
24.0287885032
  0
LINE
  5
2ED
100
AcDbEntity
  8
0
100
AcDbLine
 62
2
  6
CONTINUOUS
 10
11.4006822234
 20
24.2412718365
 11
11.3122891678
 21
24.3198385032
  0
LINE
  5
2EE
100
AcDbEntity
  8
0
100
AcDbLine
 62
2
  6
CONTINUOUS
 10
12.26441139
 20
24.5440815587
 11
12.2745433345
 21
24.533677392
  0
LINE
  5
2EF
100
AcDbEntity
  8
0
100
AcDbLine
 62
2
  6
CONTINUOUS
 10
13.2071127789
 20
23.9440982254
 11
13.1243627789
 21
24.0314065587
  0
LINE
  5
2F0
100
AcDbEntity
  8
0
100
AcDbLine
 62
2
  6
CONTINUOUS
 10
13.1324600011
 20
24.0116176698
 11
13.2152100011
 21
23.9237135032
  0
LINE
  5
2F1
100
AcDbEntity
  8
0
100
AcDbLine
 62
2
  6
CONTINUOUS
 10
12.2535266678
 20
24.5570885032
 11
12.26441139
 21
24.5440815587
  0
LINE
  5
2F2
100
AcDbEntity
  8
0
100
AcDbLine
 62
2
  6
CONTINUOUS
 10
12.2745433345
 20
24.533677392
 11
12.5397544456
 21
24.2933010032
  0
LINE
  5
2F3
100
AcDbEntity
  8
0
100
AcDbLine
 62
2
  6
CONTINUOUS
 10
12.48612389
 20
24.2579218365
 11
12.2375961123
 21
24.4842468365
  0
LINE
  5
2F4
100
AcDbEntity
  8
0
100
AcDbLine
 62
2
  6
CONTINUOUS
 10
12.7323669456
 20
24.0223454476
 11
12.7663169456
 21
24.0051204476
  0
LINE
  5
2F5
100
AcDbEntity
  8
0
100
AcDbLine
 62
2
  6
CONTINUOUS
 10
13.16117389
 20
24.2277093365
 11
13.1519905567
 21
24.2326454476
  0
LINE
  5
2F6
100
AcDbEntity
  8
0
100
AcDbLine
 62
2
  6
CONTINUOUS
 10
10.3630572234
 20
24.5612593365
 11
10.3906044456
 21
24.5576176698
  0
LINE
  5
2F7
100
AcDbEntity
  8
0
100
AcDbLine
 62
2
  6
CONTINUOUS
 10
12.58831139
 20
23.9053621143
 11
12.5553252789
 21
23.9053621143
  0
LINE
  5
2F8
100
AcDbEntity
  8
0
100
AcDbLine
 62
2
  6
CONTINUOUS
 10
13.0091002789
 20
23.9283926698
 11
13.0009766678
 21
23.9283926698
  0
LINE
  5
2F9
100
AcDbEntity
  8
0
100
AcDbLine
 62
2
  6
CONTINUOUS
 10
12.8750405567
 20
23.9283926698
 11
12.8830016678
 21
23.9283926698
  0
LINE
  5
2FA
100
AcDbEntity
  8
0
100
AcDbLine
 62
2
  6
CONTINUOUS
 10
12.9842933345
 20
23.9283926698
 11
12.9921877789
 21
23.9283926698
  0
LINE
  5
2FB
100
AcDbEntity
  8
0
100
AcDbLine
 62
2
  6
CONTINUOUS
 10
13.1243627789
 20
23.9283926698
 11
13.1324600011
 21
23.9283926698
  0
LINE
  5
2FC
100
AcDbEntity
  8
0
100
AcDbLine
 62
2
  6
CONTINUOUS
 10
13.2537030567
 20
23.9283926698
 11
13.2618266678
 21
23.9283926698
  0
LINE
  5
2FD
100
AcDbEntity
  8
0
100
AcDbLine
 62
2
  6
CONTINUOUS
 10
11.9510697234
 20
23.9684857254
 11
11.9868572234
 21
23.9684857254
  0
LINE
  5
2FE
100
AcDbEntity
  8
0
100
AcDbLine
 62
2
  6
CONTINUOUS
 10
13.0584447234
 20
23.9684857254
 11
13.0942377789
 21
23.9684857254
  0
LINE
  5
2FF
100
AcDbEntity
  8
0
100
AcDbLine
 62
2
  6
CONTINUOUS
 10
13.01928639
 20
23.9751454476
 11
13.0091002789
 21
23.9751454476
  0
LINE
  5
300
100
AcDbEntity
  8
0
100
AcDbLine
 62
2
  6
CONTINUOUS
 10
13.2953280567
 20
24.0287885032
 11
13.28681139
 21
24.0287885032
  0
LINE
  5
301
100
AcDbEntity
  8
0
100
AcDbLine
 62
2
  6
CONTINUOUS
 10
13.2294919456
 20
24.0287885032
 11
13.2202141678
 21
24.0287885032
  0
LINE
  5
302
100
AcDbEntity
  8
0
100
AcDbLine
 62
2
  6
CONTINUOUS
 10
13.2152100011
 20
24.0287885032
 11
13.2071127789
 21
24.0287885032
  0
LINE
  5
303
100
AcDbEntity
  8
0
100
AcDbLine
 62
2
  6
CONTINUOUS
 10
13.0009766678
 20
24.0287885032
 11
13.01928639
 21
24.0287885032
  0
LINE
  5
304
100
AcDbEntity
  8
0
100
AcDbLine
 62
2
  6
CONTINUOUS
 10
12.27526139
 20
24.2152579476
 11
12.1470127789
 21
24.2152579476
  0
LINE
  5
305
100
AcDbEntity
  8
0
100
AcDbLine
 62
2
  6
CONTINUOUS
 10
12.0702169456
 20
24.2152579476
 11
11.9325294456
 21
24.2152579476
  0
LINE
  5
306
100
AcDbEntity
  8
0
100
AcDbLine
 62
2
  6
CONTINUOUS
 10
11.8651669456
 20
24.2152579476
 11
11.5673419456
 21
24.2152579476
  0
LINE
  5
307
100
AcDbEntity
  8
0
100
AcDbLine
 62
2
  6
CONTINUOUS
 10
11.55141139
 20
24.2152579476
 11
11.4847405567
 21
24.2152579476
  0
LINE
  5
308
100
AcDbEntity
  8
0
100
AcDbLine
 62
2
  6
CONTINUOUS
 10
11.26083639
 20
24.2152579476
 11
11.12243639
 21
24.2152579476
  0
LINE
  5
309
100
AcDbEntity
  8
0
100
AcDbLine
 62
2
  6
CONTINUOUS
 10
11.06447389
 20
24.2152579476
 11
10.7623155567
 21
24.2152579476
  0
LINE
  5
30A
100
AcDbEntity
  8
0
100
AcDbLine
 62
2
  6
CONTINUOUS
 10
10.5992836123
 20
24.2152579476
 11
10.4558169456
 21
24.2152579476
  0
LINE
  5
30B
100
AcDbEntity
  8
0
100
AcDbLine
 62
2
  6
CONTINUOUS
 10
13.1677655567
 20
24.2205468365
 11
13.1630725011
 21
24.2205468365
  0
LINE
  5
30C
100
AcDbEntity
  8
0
100
AcDbLine
 62
2
  6
CONTINUOUS
 10
13.1519905567
 20
24.2205468365
 11
13.1475155567
 21
24.2205468365
  0
LINE
  5
30D
100
AcDbEntity
  8
0
100
AcDbLine
 62
2
  6
CONTINUOUS
 10
11.0949100011
 20
24.283427392
 11
11.0970794456
 21
24.283427392
  0
LINE
  5
30E
100
AcDbEntity
  8
0
100
AcDbLine
 62
2
  6
CONTINUOUS
 10
11.90066139
 20
24.2844440587
 11
11.9028322234
 21
24.2844440587
  0
LINE
  5
30F
100
AcDbEntity
  8
0
100
AcDbLine
 62
2
  6
CONTINUOUS
 10
10.9891225011
 20
24.3677162809
 11
10.9869447234
 21
24.3677162809
  0
LINE
  5
310
100
AcDbEntity
  8
0
100
AcDbLine
 62
2
  6
CONTINUOUS
 10
13.0100225011
 20
24.3895468365
 11
13.1208766678
 21
24.3895468365
  0
LINE
  5
311
100
AcDbEntity
  8
0
100
AcDbLine
 62
2
  6
CONTINUOUS
 10
10.8688350011
 20
24.4197454476
 11
10.9550572234
 21
24.4197454476
  0
LINE
  5
312
100
AcDbEntity
  8
0
100
AcDbLine
 62
2
  6
CONTINUOUS
 10
10.9869447234
 20
24.4228579476
 11
10.9891225011
 21
24.4228579476
  0
LINE
  5
313
100
AcDbEntity
  8
0
100
AcDbLine
 62
2
  6
CONTINUOUS
 10
13.0658086123
 20
24.4972537809
 11
13.0636391678
 21
24.4972537809
  0
LINE
  5
314
100
AcDbEntity
  8
0
100
AcDbLine
 62
2
  6
CONTINUOUS
 10
11.0304225011
 20
24.4993287809
 11
11.0282461123
 21
24.4993287809
  0
LINE
  5
315
100
AcDbEntity
  8
0
100
AcDbLine
 62
2
  6
CONTINUOUS
 10
10.69131139
 20
24.4993287809
 11
10.6891336123
 21
24.4993287809
  0
LINE
  5
316
100
AcDbEntity
  8
0
100
AcDbLine
 62
2
  6
CONTINUOUS
 10
10.3377002789
 20
24.4993287809
 11
10.33552389
 21
24.4993287809
  0
LINE
  5
317
100
AcDbEntity
  8
0
100
AcDbLine
 62
2
  6
CONTINUOUS
 10
10.4876836123
 20
24.5201551698
 11
10.4239225011
 21
24.5201551698
  0
LINE
  5
318
100
AcDbEntity
  8
0
100
AcDbLine
 62
2
  6
CONTINUOUS
 10
10.3906044456
 20
24.5576176698
 11
10.6789961123
 21
24.5576176698
  0
LINE
  5
319
100
AcDbEntity
  8
0
100
AcDbLine
 62
2
  6
CONTINUOUS
 10
10.7623155567
 20
24.5576176698
 11
10.9941947234
 21
24.5576176698
  0
LINE
  5
31A
100
AcDbEntity
  8
0
100
AcDbLine
 62
2
  6
CONTINUOUS
 10
11.5673419456
 20
24.5576176698
 11
11.7057419456
 21
24.5576176698
  0
LINE
  5
31B
100
AcDbEntity
  8
0
100
AcDbLine
 62
2
  6
CONTINUOUS
 10
11.9325294456
 20
24.5576176698
 11
12.0702169456
 21
24.5576176698
  0
LINE
  5
31C
100
AcDbEntity
  8
0
100
AcDbLine
 62
2
  6
CONTINUOUS
 10
12.1477391678
 20
24.5576176698
 11
12.2535266678
 21
24.5576176698
  0
LINE
  5
31D
100
AcDbEntity
  8
0
100
AcDbLine
 62
2
  6
CONTINUOUS
 10
12.5020752789
 20
24.5576176698
 11
12.62961139
 21
24.5576176698
  0
LINE
  5
31E
100
AcDbEntity
  8
0
100
AcDbLine
 62
2
  6
CONTINUOUS
 10
11.0282461123
 20
24.5602079476
 11
11.0304225011
 21
24.5602079476
  0
LINE
  5
31F
100
AcDbEntity
  8
0
100
AcDbLine
 62
2
  6
CONTINUOUS
 10
10.3608933345
 20
24.5612593365
 11
10.3630572234
 21
24.5612593365
  0
LINE
  5
320
100
AcDbEntity
  8
0
100
AcDbLine
 62
2
  6
CONTINUOUS
 10
10.7123211123
 20
24.5612593365
 11
10.7144905567
 21
24.5612593365
  0
LINE
  5
321
100
AcDbEntity
  8
0
100
AcDbLine
 62
2
  6
CONTINUOUS
 10
12.6526558345
 20
23.9052121143
 11
12.6158308345
 21
23.9052801698
  0
LINE
  5
322
100
AcDbEntity
  8
0
100
AcDbLine
 62
2
  6
CONTINUOUS
 10
10.6789961123
 20
24.5576176698
 11
10.7123211123
 21
24.5612593365
  0
LINE
  5
323
100
AcDbEntity
  8
0
100
AcDbLine
 62
2
  6
CONTINUOUS
 10
10.9550572234
 20
24.4197454476
 11
10.9869447234
 21
24.4228579476
  0
LINE
  5
324
100
AcDbEntity
  8
0
100
AcDbLine
 62
2
  6
CONTINUOUS
 10
10.9941947234
 20
24.5576176698
 11
11.0282461123
 21
24.5602079476
  0
LINE
  5
325
100
AcDbEntity
  8
0
100
AcDbLine
 62
2
  6
CONTINUOUS
 10
10.9427419456
 20
24.5201551698
 11
10.8688350011
 21
24.5165204476
  0
LINE
  5
326
100
AcDbEntity
  8
_CURVE
100
AcDbLine
 62
8
  6
PHANTOM
 10
7.9575011166
 20
27.3627101261
 11
6.5175011166
 21
25.9227101261
  0
LINE
  5
327
100
AcDbEntity
  8
_CURVE
100
AcDbLine
 62
8
  6
PHANTOM
 10
6.5175011166
 20
10.6727101261
 11
7.9575011166
 21
9.2327101261
  0
LINE
  5
328
100
AcDbEntity
  8
_CURVE
100
AcDbLine
 62
8
  6
PHANTOM
 10
6.5175011166
 20
10.6727101261
 11
6.5175011166
 21
25.9227101261
  0
LINE
  5
329
100
AcDbEntity
  8
_CURVE
100
AcDbLine
 62
7
  6
CONTINUOUS
 10
7.7328126309
 20
13.4227101261
 11
7.7328126309
 21
23.1727101261
  0
LINE
  5
32A
100
AcDbEntity
  8
_CURVE
100
AcDbLine
 62
8
  6
PHANTOM
 10
37.0175011166
 20
9.2327101261
 11
7.9575011166
 21
9.2327101261
  0
LINE
  5
32B
100
AcDbEntity
  8
_CURVE
100
AcDbLine
 62
7
  6
CONTINUOUS
 10
34.2625011166
 20
10.4430216404
 11
10.7125011166
 21
10.4430216404
  0
LINE
  5
32C
100
AcDbEntity
  8
_CURVE
100
AcDbLine
 62
7
  6
CENTER
 10
22.4875011166
 20
27.7377101261
 11
22.4875011166
 21
25.7377101261
  0
LINE
  5
32D
100
AcDbEntity
  8
_CURVE
100
AcDbLine
 62
7
  6
CENTER
 10
22.4875011166
 20
8.8577101261
 11
22.4875011166
 21
10.8577101261
  0
LINE
  5
32E
100
AcDbEntity
  8
_CURVE
100
AcDbLine
 62
7
  6
CENTER
 10
38.9275011166
 20
18.2977101261
 11
36.9275011166
 21
18.2977101261
  0
LINE
  5
32F
100
AcDbEntity
  8
_CURVE
100
AcDbLine
 62
7
  6
CENTER
 10
6.0475011166
 20
18.2977101261
 11
8.0475011166
 21
18.2977101261
  0
LINE
  5
330
100
AcDbEntity
  8
_CURVE
100
AcDbLine
 62
7
  6
CONTINUOUS
 10
10.7125011166
 20
26.1523986117
 11
34.2625011166
 21
26.1523986117
  0
LINE
  5
331
100
AcDbEntity
  8
_CURVE
100
AcDbLine
 62
8
  6
PHANTOM
 10
7.9575011166
 20
27.3627101261
 11
37.0175011166
 21
27.3627101261
  0
LINE
  5
332
100
AcDbEntity
  8
_CURVE
100
AcDbLine
 62
7
  6
CONTINUOUS
 10
37.2421896023
 20
23.1727101261
 11
37.2421896023
 21
13.4227101261
  0
LINE
  5
333
100
AcDbEntity
  8
_CURVE
100
AcDbLine
 62
8
  6
PHANTOM
 10
38.4575011166
 20
25.9227101261
 11
38.4575011166
 21
10.6727101261
  0
LINE
  5
334
100
AcDbEntity
  8
_CURVE
100
AcDbLine
 62
8
  6
PHANTOM
 10
37.0175011166
 20
9.2327101261
 11
38.4575011166
 21
10.6727101261
  0
LINE
  5
335
100
AcDbEntity
  8
_CURVE
100
AcDbLine
 62
8
  6
PHANTOM
 10
38.4575011166
 20
25.9227101261
 11
37.0175011166
 21
27.3627101261
  0
ARC
  5
336
100
AcDbEntity
  8
0
100
AcDbCircle
 62
2
  6
CONTINUOUS
 10
12.948685639
 20
24.3043519598
 40
0.2245560651
100
AcDbArc
 50
59.208555199
 51
93.5831215674
  0
ARC
  5
337
100
AcDbEntity
  8
0
100
AcDbCircle
 62
2
  6
CONTINUOUS
 10
12.6342353827
 20
24.3981159417
 40
0.2039397004
100
AcDbArc
 50
223.4269507726
 51
258.0242403069
  0
ARC
  5
338
100
AcDbEntity
  8
0
100
AcDbCircle
 62
2
  6
CONTINUOUS
 10
10.4168523245
 20
24.3605308243
 40
0.1597808471
100
AcDbArc
 50
87.4638787987
 51
119.6947324667
  0
ARC
  5
339
100
AcDbEntity
  8
0
100
AcDbCircle
 62
2
  6
CONTINUOUS
 10
10.9570930079
 20
24.3931396374
 40
0.1278237007
100
AcDbArc
 50
56.1755396367
 51
96.4463209909
  0
ARC
  5
33A
100
AcDbEntity
  8
0
100
AcDbCircle
 62
2
  6
CONTINUOUS
 10
11.4738851897
 20
24.3289963764
 40
0.1142552807
100
AcDbArc
 50
230.1562195028
 51
275.4518816802
  0
ARC
  5
33B
100
AcDbEntity
  8
0
100
AcDbCircle
 62
2
  6
CONTINUOUS
 10
12.7322168209
 20
23.9789818014
 40
0.0519079771
100
AcDbArc
 50
180.5675053294
 51
310.5520051654
  0
CIRCLE
  5
33C
100
AcDbEntity
  8
0
100
AcDbCircle
 62
2
  6
CONTINUOUS
 10
12.8245955377
 20
23.9785503087
 40
0.0514756023
  0
ARC
  5
33D
100
AcDbEntity
  8
0
100
AcDbCircle
 62
2
  6
CONTINUOUS
 10
12.7316418305
 20
23.9784754965
 40
0.0513304411
100
AcDbArc
 50
47.5048873671
 51
180.0087362707
  0
CIRCLE
  5
33E
100
AcDbEntity
  8
0
100
AcDbCircle
 62
2
  6
CONTINUOUS
 10
12.8241640996
 20
23.9785496143
 40
0.043795935
  0
CIRCLE
  5
33F
100
AcDbEntity
  8
0
100
AcDbCircle
 62
2
  6
CONTINUOUS
 10
12.2187639067
 20
23.9679905865
 40
0.0317997452
  0
ARC
  5
340
100
AcDbEntity
  8
0
100
AcDbCircle
 62
2
  6
CONTINUOUS
 10
13.0237850135
 20
24.0019669754
 40
0.0271961756
100
AcDbArc
 50
260.4787245939
 51
99.5212754061
  0
CIRCLE
  5
341
100
AcDbEntity
  8
0
100
AcDbCircle
 62
2
  6
CONTINUOUS
 10
13.1567516678
 20
24.2362494
 40
0.0202280646
  0
ARC
  5
342
100
AcDbEntity
  8
_CURVE
100
AcDbCircle
 62
7
  6
CONTINUOUS
 10
10.7125011166
 20
23.1727101261
 40
2.9796884857
100
AcDbArc
 50
89.9999999996
 51
180.0
  0
ARC
  5
343
100
AcDbEntity
  8
_CURVE
100
AcDbCircle
 62
7
  6
CONTINUOUS
 10
10.7125011166
 20
13.4227101261
 40
2.9796884857
100
AcDbArc
 50
180.0
 51
270.0
  0
ARC
  5
344
100
AcDbEntity
  8
_CURVE
100
AcDbCircle
 62
7
  6
CONTINUOUS
 10
34.2625011166
 20
13.4227101261
 40
2.9796884857
100
AcDbArc
 50
269.9999999996
 51
360.0
  0
ARC
  5
345
100
AcDbEntity
  8
_CURVE
100
AcDbCircle
 62
7
  6
CONTINUOUS
 10
34.2625011166
 20
23.172710126
 40
2.9796884857
100
AcDbArc
 50
0.0000000005
 51
90.0
  0
ENDSEC
  0
SECTION
  2
OBJECTS
  0
DICTIONARY
  5
346
100
AcDbDictionary
  3
ACAD_GROUP
350
347
  3
ACAD_MLINESTYLE
350
348
  0
DICTIONARY
  5
347
102
{ACAD_REACTORS
330
346
102
}
100
AcDbDictionary
  0
DICTIONARY
  5
348
102
{ACAD_REACTORS
330
346
102
}
100
AcDbDictionary
  3
STANDARD
350
349
  0
MLINESTYLE
  5
349
102
{ACAD_REACTORS
330
348
102
}
100
AcDbMlineStyle
  2
STANDARD
 70
0
  3

 62
256
 51
90.0
 52
90.0
 71
2
 49
0.5
 62
256
  6
BYLAYER
 49
-0.5
 62
256
  6
BYLAYER
  0
ENDSEC
  0
EOF
