999
DXF file: 1315841-7_B.dxf
999
Pro/ENGINEER 2019292 by Parametric Technology Corporation
  0
SECTION
  2
HEADER
  9
$ACADVER
  1
AC1032
  9
$DWGCODEPAGE
  3
ANSI_1252
  9
$EXTMAX
 10
34.0
 20
22.0
 30
0.0
  9
$EXTMIN
 10
0.0
 20
0.0
 30
0.0
  9
$LIMMIN
 10
0.0
 20
0.0
  9
$LIMMAX
 10
34.0
 20
22.0
  9
$VIEWCTR
 10
17.0
 20
11.0
  9
$VIEWSIZE
 40
22.0
  9
$CLAYER
  8
0
  9
$LTSCALE
 40
1.87
  9
$CELTYPE
  6
BYLAYER
  9
$DIMSCALE
 40
1.0
  9
$DIMASZ
 40
0.1875
  9
$DIMEXO
 40
0.0625
  9
$DIMDLI
 40
1.292
  9
$DIMEXE
 40
0.125
  9
$DIMCEN
 40
0.306
  9
$DIMLFAC
 40
1.0
  9
$DIMBLK
  1
_FILLED
  9
$DIMALT
 70
1
  9
$DIMALTD
 70
2
  9
$DIMALTTD
 70
2
  9
$DIMALTF
 40
25.4
  9
$DIMTXT
 40
0.15625
  9
$DIMTOL
 70
1
  9
$DIMLIM
 70
0
  9
$DIMTFAC
 40
1.0
  9
$DIMTP
 40
0.01
  9
$DIMTM
 40
0.01
  9
$DIMGAP
 40
0.09
  9
$DIMDSEP
 70
46
  9
$AUNITS
 70
0
  9
$PDMODE
 70
3
  9
$PDSIZE
 40
0.3125
  9
$HANDSEED
  5
330
  9
$TILEMODE
 70
1
  9
$MEASUREMENT
 70
0
  9
$INSUNITS
 70
1
  0
ENDSEC
  0
SECTION
  2
CLASSES
  0
CLASS
  1
ACDBDICTIONARYWDFLT
  2
AcDbDictionaryWithDefault
  3
AutoCAD 2000
 90
0
 91
1
280
0
281
0
  0
CLASS
  1
ACDBPLACEHOLDER
  2
AcDbPlaceHolder
  3
AutoCAD 2000
 90
0
 91
1
280
0
281
0
  0
CLASS
  1
LAYOUT
  2
AcDbLayout
  3
AutoCAD 2000
 90
0
 91
0
280
0
281
0
  0
ENDSEC
  0
SECTION
  2
TABLES
  0
TABLE
  2
VPORT
  5
8
100
AcDbSymbolTable
 70
2
  0
VPORT
  5
1F4
100
AcDbSymbolTableRecord
100
AcDbViewportTableRecord
  2
*ACTIVE
 70
0
 10
0.0
 20
0.0
 11
1.0
 21
1.0
 12
17.0
 22
11.0
 13
0.0
 23
0.0
 14
1.0
 24
1.0
 15
0.0
 25
0.0
 16
0.0
 26
0.0
 36
1.0
 17
0.0
 27
0.0
 37
0.0
 40
22.0
 41
1.5454545455
 42
50.0
 43
0.0
 44
0.0
 50
0.0
 51
0.0
 71
0
 72
100
 73
1
 74
1
 75
0
 76
0
 77
0
 78
0
  0
ENDTAB
  0
TABLE
  2
LTYPE
  5
5
100
AcDbSymbolTable
 70
6
  0
LTYPE
  5
14
100
AcDbSymbolTableRecord
100
AcDbLinetypeTableRecord
  2
BYBLOCK
 70
0
  3

 72
65
 73
0
 40
0.0
  0
LTYPE
  5
15
100
AcDbSymbolTableRecord
100
AcDbLinetypeTableRecord
  2
BYLAYER
 70
0
  3

 72
65
 73
0
 40
0.0
  0
LTYPE
  5
16
100
AcDbSymbolTableRecord
100
AcDbLinetypeTableRecord
  2
CONTINUOUS
 70
64
  3
Solid line
 72
65
 73
0
 40
0.0
  0
LTYPE
  5
1F5
100
AcDbSymbolTableRecord
100
AcDbLinetypeTableRecord
  2
CENTER
 70
64
  3
____ _ ____ _ ____ _ ____ _ ____ _ ____ _ ____
 72
65
 73
4
 40
0.6
 49
0.375
 74
0
 49
-0.075
 74
0
 49
0.075
 74
0
 49
-0.075
 74
0
  0
LTYPE
  5
1F6
100
AcDbSymbolTableRecord
100
AcDbLinetypeTableRecord
  2
HIDDEN
 70
64
  3
- - - - - - - - - - - - - - - - - - - -
 72
65
 73
2
 40
0.2
 49
0.1
 74
0
 49
-0.1
 74
0
  0
LTYPE
  5
1F7
100
AcDbSymbolTableRecord
100
AcDbLinetypeTableRecord
  2
PHANTOM
 70
64
  3
_____ _ _ _____ _ _ _____ _ _ _____
 72
65
 73
6
 40
0.8
 49
0.45
 74
0
 49
-0.05
 74
0
 49
0.1
 74
0
 49
-0.05
 74
0
 49
0.1
 74
0
 49
-0.05
 74
0
  0
LTYPE
  5
1F8
100
AcDbSymbolTableRecord
100
AcDbLinetypeTableRecord
  2
DOT
 70
64
  3
. . . . . . . . . . . . . . . . . . . .
 72
65
 73
2
 40
0.2
 49
0.1
 74
0
 49
-0.1
 74
0
  0
LTYPE
  5
1F9
100
AcDbSymbolTableRecord
100
AcDbLinetypeTableRecord
  2
DASHED
 70
64
  3
- - - - - - - - - - - - - - - - - - - -
 72
65
 73
2
 40
0.2
 49
0.1
 74
0
 49
-0.1
 74
0
  0
ENDTAB
  0
TABLE
  2
LAYER
  5
2
100
AcDbSymbolTable
 70
36
  0
LAYER
  5
10
100
AcDbSymbolTableRecord
100
AcDbLayerTableRecord
  2
0
 70
0
 62
7
  6
CONTINUOUS
370
-3
390
F
  0
LAYER
  5
1FA
100
AcDbSymbolTableRecord
100
AcDbLayerTableRecord
  2
DEFAULT_1
 70
0
 62
7
  6
CENTER
370
-3
390
F
  0
LAYER
  5
1FB
100
AcDbSymbolTableRecord
100
AcDbLayerTableRecord
  2
DEFAULT_2
 70
0
 62
8
  6
HIDDEN
370
-3
390
F
  0
LAYER
  5
1FC
100
AcDbSymbolTableRecord
100
AcDbLayerTableRecord
  2
DEFAULT_3
 70
0
 62
7
  6
PHANTOM
370
-3
390
F
  0
LAYER
  5
1FD
100
AcDbSymbolTableRecord
100
AcDbLayerTableRecord
  2
DATUMS
 70
0
 62
7
  6
CONTINUOUS
370
-3
390
F
  0
LAYER
  5
1FE
100
AcDbSymbolTableRecord
100
AcDbLayerTableRecord
  2
DATUM_AXIS
 70
0
 62
7
  6
CONTINUOUS
370
-3
390
F
  0
LAYER
  5
1FF
100
AcDbSymbolTableRecord
100
AcDbLayerTableRecord
  2
DATUM_CSYS
 70
0
 62
7
  6
CONTINUOUS
370
-3
390
F
  0
LAYER
  5
200
100
AcDbSymbolTableRecord
100
AcDbLayerTableRecord
  2
DATUM_PLANE
 70
0
 62
7
  6
CONTINUOUS
370
-3
390
F
  0
LAYER
  5
201
100
AcDbSymbolTableRecord
100
AcDbLayerTableRecord
  2
DATUM_POINT
 70
0
 62
7
  6
CONTINUOUS
370
-3
390
F
  0
LAYER
  5
202
100
AcDbSymbolTableRecord
100
AcDbLayerTableRecord
  2
_CURVE
 70
0
 62
7
  6
CONTINUOUS
370
-3
390
F
  0
LAYER
  5
203
100
AcDbSymbolTableRecord
100
AcDbLayerTableRecord
  2
_SURFACE
 70
0
 62
7
  6
CONTINUOUS
370
-3
390
F
  0
LAYER
  5
204
100
AcDbSymbolTableRecord
100
AcDbLayerTableRecord
  2
__REF_CURVE
 70
0
 62
7
  6
CONTINUOUS
370
-3
390
F
  0
LAYER
  5
205
100
AcDbSymbolTableRecord
100
AcDbLayerTableRecord
  2
__REF_SURFACE
 70
0
 62
7
  6
CONTINUOUS
370
-3
390
F
  0
LAYER
  5
206
100
AcDbSymbolTableRecord
100
AcDbLayerTableRecord
  2
___NOTE
 70
0
 62
7
  6
CONTINUOUS
370
-3
390
F
  0
LAYER
  5
207
100
AcDbSymbolTableRecord
100
AcDbLayerTableRecord
  2
___SYMBOL
 70
0
 62
7
  6
CONTINUOUS
370
-3
390
F
  0
ENDTAB
  0
TABLE
  2
STYLE
  5
3
100
AcDbSymbolTable
 70
1
  0
STYLE
  5
11
100
AcDbSymbolTableRecord
100
AcDbTextStyleTableRecord
  2
STANDARD
 70
0
 40
0.0
 41
0.8
 50
0.0
 71
0
 42
0.2
  3
txt
  4

  0
STYLE
  5
208
100
AcDbSymbolTableRecord
100
AcDbTextStyleTableRecord
  2
TEXTSTYLE_1
 70
0
 40
0.0
 41
0.8
 50
0.0
 71
0
 42
0.2
  3
gdt
  4

  0
STYLE
  5
209
100
AcDbSymbolTableRecord
100
AcDbTextStyleTableRecord
  2
TEXTSTYLE_2
 70
0
 40
0.0
 41
1.0
 50
0.0
 71
0
 42
0.2
  3
txt
  4

  0
ENDTAB
  0
TABLE
  2
VIEW
  5
6
100
AcDbSymbolTable
 70
0
  0
ENDTAB
  0
TABLE
  2
UCS
  5
7
100
AcDbSymbolTable
 70
0
  0
ENDTAB
  0
TABLE
  2
APPID
  5
9
100
AcDbSymbolTable
 70
1
  0
APPID
  5
20A
100
AcDbSymbolTableRecord
100
AcDbRegAppTableRecord
  2
ACAD
 70
0
  0
ENDTAB
  0
TABLE
  2
BLOCK_RECORD
  5
1
100
AcDbSymbolTable
 70
0
  0
BLOCK_RECORD
  5
20B
100
AcDbSymbolTableRecord
100
AcDbBlockTableRecord
  2
*Model_Space
  0
BLOCK_RECORD
  5
20C
100
AcDbSymbolTableRecord
100
AcDbBlockTableRecord
  2
*Paper_Space
  0
BLOCK_RECORD
  5
20D
100
AcDbSymbolTableRecord
100
AcDbBlockTableRecord
  2
_FILLED
  0
BLOCK_RECORD
  5
20E
100
AcDbSymbolTableRecord
100
AcDbBlockTableRecord
  2
*D0
  0
BLOCK_RECORD
  5
20F
100
AcDbSymbolTableRecord
100
AcDbBlockTableRecord
  2
*D1
  0
BLOCK_RECORD
  5
210
100
AcDbSymbolTableRecord
100
AcDbBlockTableRecord
  2
*D2
  0
BLOCK_RECORD
  5
211
100
AcDbSymbolTableRecord
100
AcDbBlockTableRecord
  2
COPYRIGHT_YEAR_BL1
  0
BLOCK_RECORD
  5
212
100
AcDbSymbolTableRecord
100
AcDbBlockTableRecord
  2
SCISSORS_BL0
  0
ENDTAB
  0
TABLE
  2
DIMSTYLE
  5
A
100
AcDbSymbolTable
 70
1
100
AcDbDimStyleTable
 71
0
  0
DIMSTYLE
105
213
100
AcDbSymbolTableRecord
100
AcDbDimStyleTableRecord
  2
STANDARD
 70
0
  3

  4

 40
1.0
 41
0.1875
 42
0.0625
 43
0.38
 44
0.125
 45
0.0
 46
0.0
 47
0.01
 48
0.01
140
0.15625
141
0.09
142
0.0
143
2.54
144
1.0
145
0.0
146
1.0
147
0.09
 71
1.0
 72
0.0
 73
1
 74
1
 75
0
 76
0
 77
0
 78
4
 79
1
170
1
171
2
172
0
173
0
174
0
175
0
176
0
177
0
178
0
270
2
179
3
271
3
272
3
273
2
274
2
275
0
280
0
281
0
282
0
283
1
284
4
285
0
286
0
287
3
288
0
340
11
278
46
341
20D
342
20D
343
20D
344
20D
  0
DIMSTYLE
105
214
100
AcDbSymbolTableRecord
100
AcDbDimStyleTableRecord
  2
DIMSTYLE_1
 70
0
  3

  4

 40
1.0
 41
0.1875
 42
0.0625
 43
0.38
 44
0.125
 45
0.0
 46
0.0
 47
0.0
 48
0.0
140
0.15625
141
0.09
142
0.0
143
2.54
144
1.0
145
0.0
146
1.0
147
0.078125
 71
0.0
 72
0.0
 73
1
 74
1
 75
0
 76
0
 77
0
 78
4
 79
1
170
1
171
1
172
0
173
0
174
0
175
0
176
0
177
0
178
0
270
2
179
3
271
4
272
16
273
2
274
3
275
0
280
0
281
0
282
0
283
1
284
4
285
0
286
0
287
3
288
0
340
11
278
46
341
20D
342
20D
343
20D
344
20D
  0
DIMSTYLE
105
215
100
AcDbSymbolTableRecord
100
AcDbDimStyleTableRecord
  2
DIMSTYLE_2
 70
0
  3

  4

 40
1.0
 41
0.1875
 42
0.0625
 43
0.38
 44
0.125
 45
0.0
 46
0.0
 47
0.0000000001
 48
0.0000000001
140
0.15625
141
0.09
142
0.0
143
2.54
144
1.0
145
0.0
146
1.0
147
0.078125
 71
0.0
 72
0.0
 73
1
 74
1
 75
0
 76
0
 77
0
 78
4
 79
1
170
1
171
-1
172
0
173
0
174
0
175
0
176
0
177
0
178
0
270
2
179
3
271
4
272
16
273
2
274
1
275
0
280
0
281
0
282
0
283
1
284
4
285
0
286
0
287
3
288
0
340
11
278
46
341
20D
342
20D
343
20D
344
20D
  0
DIMSTYLE
105
216
100
AcDbSymbolTableRecord
100
AcDbDimStyleTableRecord
  2
DIMSTYLE_3
 70
0
  3
<>
  4

 40
1.0
 41
0.1875
 42
0.0625
 43
0.38
 44
0.125
 45
0.0
 46
0.0
 47
0.0
 48
0.0
140
0.15625
141
0.09
142
0.0
143
2.54
144
1.0
145
0.0
146
1.0
147
0.09
 71
0.0
 72
0.0
 73
1
 74
1
 75
0
 76
0
 77
0
 78
4
 79
1
170
1
171
1
172
0
173
0
174
0
175
0
176
0
177
0
178
0
270
2
179
3
271
2
272
2
273
2
274
1
275
0
280
0
281
0
282
0
283
1
284
4
285
0
286
0
287
3
288
0
340
11
278
46
341
20D
342
20D
343
20D
344
20D
  0
ENDTAB
  0
ENDSEC
  0
SECTION
  2
BLOCKS
  0
BLOCK
  5
20
100
AcDbEntity
  8
0
100
AcDbBlockBegin
  2
*Model_Space
 70
0
 10
0.0
 20
0.0
 30
0.0
  3
*Model_Space
  1

  0
ENDBLK
  5
21
100
AcDbEntity
  8
0
100
AcDbBlockEnd
  0
BLOCK
  5
1C
100
AcDbEntity
  8
0
100
AcDbBlockBegin
  2
*Paper_Space
 70
0
 10
0.0
 20
0.0
 30
0.0
  3
*Paper_Space
  1

  0
ENDBLK
  5
1D
100
AcDbEntity
  8
0
100
AcDbBlockEnd
  0
BLOCK
  5
217
100
AcDbEntity
  8
___SYMBOL
100
AcDbBlockBegin
 62
2
  6
CONTINUOUS
  2
COPYRIGHT_YEAR_BL1
 70
64
 10
15.5238982574
 20
7.5364679284
  3
COPYRIGHT_YEAR_BL1
  1

  0
TEXT
  5
218
100
AcDbEntity
  8
___SYMBOL
100
AcDbText
 62
2
  6
CONTINUOUS
 10
14.6956810022
 20
7.4582905685
  7
STANDARD
 40
0.15625
  1
2019 KOHLER CO.
 41
0.8
 72
0
100
AcDbText
  0
TEXT
  5
219
100
AcDbEntity
  8
___SYMBOL
100
AcDbText
 62
7
  6
CONTINUOUS
 10
14.5183189697
 20
7.4948264732
  7
TEXTSTYLE_2
 40
0.0935006638
  1
C
 41
1.0
 72
0
100
AcDbText
  0
CIRCLE
  5
21A
100
AcDbEntity
  8
___SYMBOL
100
AcDbCircle
 62
7
  6
CONTINUOUS
 10
14.5498681714
 20
7.5418926296
 40
0.0727526587
  0
ENDBLK
  5
21B
100
AcDbEntity
  8
0
  6
BYBLOCK
 62
0
100
AcDbBlockEnd
  0
BLOCK
  5
21C
100
AcDbEntity
  8
___SYMBOL
100
AcDbBlockBegin
 62
2
  6
CONTINUOUS
  2
SCISSORS_BL0
 70
64
 10
18.6252820148
 20
12.9803152168
  3
SCISSORS_BL0
  1

  0
LINE
  5
21D
100
AcDbEntity
  8
___SYMBOL
100
AcDbLine
 62
7
  6
CONTINUOUS
 10
18.5868545037
 20
13.021447564
 11
18.5121346549
 21
13.3905530984
  0
LINE
  5
21E
100
AcDbEntity
  8
___SYMBOL
100
AcDbLine
 62
7
  6
CONTINUOUS
 10
18.5546013976
 20
13.0017801803
 11
18.5121346549
 21
13.3905530984
  0
LINE
  5
21F
100
AcDbEntity
  8
___SYMBOL
100
AcDbLine
 62
7
  6
CONTINUOUS
 10
18.6050292406
 20
12.957658236
 11
18.6039841646
 21
12.9915605072
  0
LINE
  5
220
100
AcDbEntity
  8
___SYMBOL
100
AcDbLine
 62
7
  6
CONTINUOUS
 10
18.6149026321
 20
12.9920138335
 11
18.6159548993
 21
12.9578782797
  0
LINE
  5
221
100
AcDbEntity
  8
___SYMBOL
100
AcDbLine
 62
7
  6
CONTINUOUS
 10
18.6109572435
 20
13.1102601334
 11
18.7361001699
 21
13.3840627778
  0
LINE
  5
222
100
AcDbEntity
  8
___SYMBOL
100
AcDbLine
 62
7
  6
CONTINUOUS
 10
18.5348846957
 20
12.9380800663
 11
18.5565707583
 21
12.9790217783
  0
LINE
  5
223
100
AcDbEntity
  8
___SYMBOL
100
AcDbLine
 62
7
  6
CONTINUOUS
 10
18.6557220738
 20
12.9832925321
 11
18.7361001699
 21
13.2404182739
  0
LINE
  5
224
100
AcDbEntity
  8
___SYMBOL
100
AcDbLine
 62
7
  6
CONTINUOUS
 10
18.6361429969
 20
13.0388251549
 11
18.5868545037
 21
13.021447564
  0
LINE
  5
225
100
AcDbEntity
  8
___SYMBOL
100
AcDbLine
 62
7
  6
CONTINUOUS
 10
18.6721300898
 20
12.9367540686
 11
18.6339388886
 21
12.8445777201
  0
LINE
  5
226
100
AcDbEntity
  8
___SYMBOL
100
AcDbLine
 62
7
  6
CONTINUOUS
 10
18.5707792044
 20
12.8475854599
 11
18.6001640545
 21
12.8781182611
  0
LINE
  5
227
100
AcDbEntity
  8
___SYMBOL
100
AcDbLine
 62
7
  6
CONTINUOUS
 10
18.5121346549
 20
13.3905530984
 11
18.6721300898
 21
12.9367540686
  0
LINE
  5
228
100
AcDbEntity
  8
___SYMBOL
100
AcDbLine
 62
7
  6
CONTINUOUS
 10
18.5707792044
 20
12.8475854599
 11
18.5348846957
 21
12.9380800663
  0
ARC
  5
229
100
AcDbEntity
  8
___SYMBOL
100
AcDbCircle
 62
7
  6
CONTINUOUS
 10
18.5063441704
 20
13.3122405258
 40
0.2407202841
100
AcDbArc
 50
342.6406360869
 51
17.3593639131
  0
ARC
  5
22A
100
AcDbEntity
  8
___SYMBOL
100
AcDbCircle
 62
7
  6
CONTINUOUS
 10
18.7630360434
 20
13.0083523188
 40
0.2085382328
100
AcDbArc
 50
181.8059909349
 51
231.752660067
  0
CIRCLE
  5
22B
100
AcDbEntity
  8
___SYMBOL
100
AcDbCircle
 62
7
  6
CONTINUOUS
 10
18.6101493853
 20
12.9747833137
 40
0.0178741201
  0
ARC
  5
22C
100
AcDbEntity
  8
___SYMBOL
100
AcDbCircle
 62
7
  6
CONTINUOUS
 10
18.7164545922
 20
12.7265715821
 40
0.0097392375
100
AcDbArc
 50
185.3133793157
 51
314.0675041521
  0
ARC
  5
22D
100
AcDbEntity
  8
___SYMBOL
100
AcDbCircle
 62
7
  6
CONTINUOUS
 10
18.4933468622
 20
12.7215578692
 40
0.0097391571
100
AcDbArc
 50
233.3109272841
 51
359.4467240969
  0
SPLINE
  5
22E
100
AcDbEntity
  8
___SYMBOL
100
AcDbSpline
 62
7
  6
CONTINUOUS
 70
0
 71
3
 72
12
 73
8
 74
0
 42
0.0000001
 43
0.0000001
 44
0.0000000001
 40
0.0
 40
0.0
 40
0.0
 40
0.0
 40
0.4884256058
 40
0.6683914397
 40
0.8669439281
 40
0.9099489479
 40
1.0
 40
1.0
 40
1.0
 40
1.0
 10
18.6912918401
 20
12.5700773351
 30
0.0
 10
18.6758062746
 20
12.6154395268
 30
0.0
 10
18.6724931132
 20
12.6827891711
 30
0.0
 10
18.6735540055
 20
12.7673714548
 30
0.0
 10
18.670298012
 20
12.8092497972
 30
0.0
 10
18.6579343449
 20
12.8398445062
 30
0.0
 10
18.6426507414
 20
12.8460616416
 30
0.0
 10
18.6339388886
 20
12.8445777201
 30
0.0
  0
SPLINE
  5
22F
100
AcDbEntity
  8
___SYMBOL
100
AcDbSpline
 62
7
  6
CONTINUOUS
 70
0
 71
3
 72
14
 73
10
 74
0
 42
0.0000001
 43
0.0000001
 44
0.0000000001
 40
0.0
 40
0.0
 40
0.0
 40
0.0
 40
0.0469735811
 40
0.2606095073
 40
0.5805460666
 40
0.7382389988
 40
0.8401572415
 40
0.925087268
 40
1.0
 40
1.0
 40
1.0
 40
1.0
 10
18.7067572032
 20
12.7256696985
 30
0.0
 10
18.7064409346
 20
12.7290703367
 30
0.0
 10
18.7051352766
 20
12.7480093017
 30
0.0
 10
18.7069246429
 20
12.7897030979
 30
0.0
 10
18.7108194975
 20
12.8426921036
 30
0.0
 10
18.6881844818
 20
12.8789582316
 30
0.0
 10
18.6741623111
 20
12.9003321817
 30
0.0
 10
18.6730400163
 20
12.9197857478
 30
0.0
 10
18.6729511943
 20
12.9313696278
 30
0.0
 10
18.6721300898
 20
12.9367540686
 30
0.0
  0
SPLINE
  5
230
100
AcDbEntity
  8
___SYMBOL
100
AcDbSpline
 62
7
  6
CONTINUOUS
 70
0
 71
3
 72
12
 73
8
 74
0
 42
0.0000001
 43
0.0000001
 44
0.0000000001
 40
0.0
 40
0.0
 40
0.0
 40
0.0
 40
0.2870411994
 40
0.5613888029
 40
0.7613462239
 40
0.9013972407
 40
1.0
 40
1.0
 40
1.0
 40
1.0
 10
18.5316705104
 20
12.5958483907
 30
0.0
 10
18.5378048365
 20
12.6203064877
 30
0.0
 10
18.5403449636
 20
12.6701028117
 30
0.0
 10
18.5361473626
 20
12.7372077741
 30
0.0
 10
18.5412031253
 20
12.7901038981
 30
0.0
 10
18.5439204788
 20
12.8306913453
 30
0.0
 10
18.5624562027
 20
12.8451861422
 30
0.0
 10
18.5707792044
 20
12.8475854599
 30
0.0
  0
SPLINE
  5
231
100
AcDbEntity
  8
___SYMBOL
100
AcDbSpline
 62
7
  6
CONTINUOUS
 70
0
 71
3
 72
13
 73
9
 74
0
 42
0.0000001
 43
0.0000001
 44
0.0000000001
 40
0.0
 40
0.0
 40
0.0
 40
0.0
 40
0.0902051637
 40
0.4170421866
 40
0.6587388922
 40
0.9356437381
 40
0.9595034934
 40
1.0
 40
1.0
 40
1.0
 40
1.0
 10
18.5030855652
 20
12.7214638246
 30
0.0
 10
18.5031497954
 20
12.728115129
 30
0.0
 10
18.5029599257
 20
12.7588221402
 30
0.0
 10
18.5015451861
 20
12.8079931215
 30
0.0
 10
18.5118038367
 20
12.8682421205
 30
0.0
 10
18.5415135651
 20
12.9071523601
 30
0.0
 10
18.5314254149
 20
12.9304620902
 30
0.0
 10
18.5327218449
 20
12.9360211262
 30
0.0
 10
18.5348846957
 20
12.9380800663
 30
0.0
  0
ELLIPSE
  5
232
100
AcDbEntity
  8
___SYMBOL
100
AcDbEllipse
 62
7
  6
CONTINUOUS
 10
18.7710458007
 20
12.6180884258
 30
0.0
 11
0.0040444517
 21
-0.0825068144
 31
0.0
 40
0.774293327
 41
0.0
 42
6.2831853072
  0
ELLIPSE
  5
233
100
AcDbEntity
  8
___SYMBOL
100
AcDbEllipse
 62
7
  6
CONTINUOUS
 10
18.7710458007
 20
12.6180884258
 30
0.0
 11
-0.0020222258
 21
-0.1229513312
 31
0.0
 40
0.700902774
 41
5.1250505418
 42
10.0362700851
  0
ELLIPSE
  5
234
100
AcDbEntity
  8
___SYMBOL
100
AcDbEllipse
 62
7
  6
CONTINUOUS
 10
18.4433789763
 20
12.6266572867
 30
0.0
 11
0.0101111292
 21
-0.0819001466
 31
0.0
 40
0.7501188416
 41
0.0
 42
6.2831853072
  0
ELLIPSE
  5
235
100
AcDbEntity
  8
___SYMBOL
100
AcDbEllipse
 62
7
  6
CONTINUOUS
 10
18.4448956457
 20
12.6130072622
 30
0.0
 11
0.0015166694
 21
-0.1157724295
 31
0.0
 40
0.7569683881
 41
2.6163261196
 42
7.6953125801
  0
ENDBLK
  5
236
100
AcDbEntity
  8
0
  6
BYBLOCK
 62
0
100
AcDbBlockEnd
  0
BLOCK
  5
237
100
AcDbEntity
  8
0
100
AcDbBlockBegin
  2
_FILLED
 70
64
 10
0.0
 20
0.0
  3
_FILLED
  1

  0
SOLID
  5
238
100
AcDbEntity
  8
0
  6
BYBLOCK
 62
0
100
AcDbTrace
 10
0.0
 20
0.0
 11
-1.0
 21
0.1666666667
 12
-1.0
 22
-0.1666666667
 13
-1.0
 23
-0.1666666667
  0
ENDBLK
  5
239
100
AcDbEntity
  8
0
  6
BYBLOCK
 62
0
100
AcDbBlockEnd
  0
BLOCK
  5
23A
100
AcDbEntity
  8
0
100
AcDbBlockBegin
 62
2
  6
CONTINUOUS
  2
*D0
 70
65
 10
0.0
 20
0.0
  3
*D0
  1

  0
MTEXT
  5
23B
100
AcDbEntity
  8
0
100
AcDbMText
 62
2
  6
CONTINUOUS
  7
STANDARD
 71
2
 72
1
 10
11.7733880895
 20
12.6011005991
 30
0.0
 11
1.0
 21
0.0
 31
0.0
 73
2
 44
0.9
  1
9-1/2\P[24,1]
 40
0.15625
 41
0.75
  0
LINE
  5
23C
100
AcDbEntity
  8
0
100
AcDbLine
 62
2
  6
CONTINUOUS
 10
11.8358880895
 20
16.7790172027
 11
11.8358880895
 21
12.6792255991
  0
LINE
  5
23D
100
AcDbEntity
  8
0
100
AcDbLine
 62
2
  6
CONTINUOUS
 10
11.8358880895
 20
7.3090172027
 11
11.8358880895
 21
12.1323505991
  0
INSERT
  5
23E
100
AcDbEntity
  8
0
100
AcDbBlockReference
 62
2
  6
CONTINUOUS
  2
_FILLED
 10
11.8358880895
 20
16.7790172027
 41
0.1875
 42
0.1875
 43
0.1875
 50
90.0
  0
INSERT
  5
23F
100
AcDbEntity
  8
0
100
AcDbBlockReference
 62
2
  6
CONTINUOUS
  2
_FILLED
 10
11.8358880895
 20
7.3090172027
 41
0.1875
 42
0.1875
 43
0.1875
 50
270.0
  0
ENDBLK
  5
240
100
AcDbEntity
  8
0
  6
BYBLOCK
 62
0
100
AcDbBlockEnd
  0
BLOCK
  5
241
100
AcDbEntity
  8
0
100
AcDbBlockBegin
 62
2
  6
CONTINUOUS
  2
*D1
 70
65
 10
0.0
 20
0.0
  3
*D1
  1

  0
MTEXT
  5
242
100
AcDbEntity
  8
0
100
AcDbMText
 62
2
  6
CONTINUOUS
  7
STANDARD
 71
2
 72
1
 10
9.6746311855
 20
11.684757919
 30
0.0
 11
1.0
 21
0.0
 31
0.0
 73
2
 44
0.9
  1
11-15/16\P[30]
 40
0.15625
 41
1.0
  0
LINE
  5
243
100
AcDbEntity
  8
0
100
AcDbLine
 62
2
  6
CONTINUOUS
 10
6.6531934445
 20
11.606632919
 11
9.0965061855
 21
11.606632919
  0
LINE
  5
244
100
AcDbEntity
  8
0
100
AcDbLine
 62
2
  6
CONTINUOUS
 10
18.6141934445
 20
11.606632919
 11
10.2527561855
 21
11.606632919
  0
INSERT
  5
245
100
AcDbEntity
  8
0
100
AcDbBlockReference
 62
2
  6
CONTINUOUS
  2
_FILLED
 10
6.6531934445
 20
11.606632919
 41
0.1875
 42
0.1875
 43
0.1875
 50
180.0
  0
INSERT
  5
246
100
AcDbEntity
  8
0
100
AcDbBlockReference
 62
2
  6
CONTINUOUS
  2
_FILLED
 10
18.6141934445
 20
11.606632919
 41
0.1875
 42
0.1875
 43
0.1875
  0
ENDBLK
  5
247
100
AcDbEntity
  8
0
  6
BYBLOCK
 62
0
100
AcDbBlockEnd
  0
BLOCK
  5
248
100
AcDbEntity
  8
0
100
AcDbBlockBegin
 62
2
  6
CONTINUOUS
  2
*D2
 70
65
 10
0.0
 20
0.0
  3
*D2
  1

  0
MTEXT
  5
249
100
AcDbEntity
  8
0
100
AcDbMText
 62
2
  6
CONTINUOUS
  7
STANDARD
 71
3
 72
1
 10
17.1449492561
 20
15.8743588445
 30
0.0
 11
1.0
 21
0.0
 31
0.0
 73
2
 44
0.9
  1
R1.75\P[4,4]
 40
0.15625
 41
0.625
  0
LINE
  5
24A
100
AcDbEntity
  8
0
100
AcDbLine
 62
2
  6
CONTINUOUS
 10
18.0012196145
 20
16.3593072045
 11
17.5199492561
 21
15.7962338445
  0
LINE
  5
24B
100
AcDbEntity
  8
0
100
AcDbLine
 62
2
  6
CONTINUOUS
 10
17.5199492561
 20
15.7962338445
 11
17.3480742561
 21
15.7962338445
  0
INSERT
  5
24C
100
AcDbEntity
  8
0
100
AcDbBlockReference
 62
2
  6
CONTINUOUS
  2
_FILLED
 10
18.0012196145
 20
16.3593072045
 41
0.1875
 42
0.1875
 43
0.1875
 50
49.4788091628
  0
ENDBLK
  5
24D
100
AcDbEntity
  8
0
  6
BYBLOCK
 62
0
100
AcDbBlockEnd
  0
ENDSEC
  0
SECTION
  2
ENTITIES
  0
SPLINE
  5
24E
100
AcDbEntity
  8
0
100
AcDbSpline
 62
2
  6
CONTINUOUS
 70
0
 71
1
 72
7
 73
5
 74
0
 42
0.0000001
 43
0.0000001
 44
0.0000000001
 40
0.0
 40
0.0
 40
0.6323375
 40
4.1135388889
 40
4.7458763889
 40
8.2270777778
 40
8.2270777778
 10
7.0015939335
 20
14.9941797755
 30
0.0
 10
7.0015939335
 20
15.6265172755
 30
0.0
 10
10.4827953224
 20
15.6265172755
 30
0.0
 10
10.4827953224
 20
14.9941797755
 30
0.0
 10
7.0015939335
 20
14.9941797755
 30
0.0
  0
SPLINE
  5
24F
100
AcDbEntity
  8
0
100
AcDbSpline
 62
2
  6
CONTINUOUS
 70
0
 71
1
 72
11
 73
9
 74
0
 42
0.0000001
 43
0.0000001
 44
0.0000000001
 40
0.0
 40
0.0
 40
0.1134275086
 40
0.1216747308
 40
0.1564300811
 40
0.1991078933
 40
0.2343111597
 40
0.2421375485
 40
0.3533508685
 40
0.3556574216
 40
0.3556574216
 10
9.1530633779
 20
14.9709992199
 30
0.0
 10
9.1955508779
 20
14.8658297755
 30
0.0
 10
9.1873036557
 20
14.8658297755
 30
0.0
 10
9.1745953224
 20
14.8981783866
 30
0.0
 10
9.1319175446
 20
14.8982325533
 30
0.0
 10
9.1181578224
 20
14.8658297755
 30
0.0
 10
9.1103314335
 20
14.8658297755
 30
0.0
 10
9.1522425446
 20
14.9688436644
 30
0.0
 10
9.1530633779
 20
14.9709992199
 30
0.0
  0
SPLINE
  5
250
100
AcDbEntity
  8
0
100
AcDbSpline
 62
2
  6
CONTINUOUS
 70
0
 71
1
 72
11
 73
9
 74
0
 42
0.0000001
 43
0.0000001
 44
0.0000000001
 40
0.0
 40
0.0
 40
0.11343011
 40
0.1213787211
 40
0.1562542199
 40
0.1988986988
 40
0.2341150074
 40
0.2419275074
 40
0.3531303621
 40
0.3554489868
 40
0.3554489868
 10
10.2604508779
 20
14.9709992199
 30
0.0
 10
10.3029453224
 20
14.8658297755
 30
0.0
 10
10.2949967112
 20
14.8658297755
 30
0.0
 10
10.2819633779
 20
14.8981783866
 30
0.0
 10
10.2393189335
 20
14.8982325533
 30
0.0
 10
10.2255258779
 20
14.8658297755
 30
0.0
 10
10.2177133779
 20
14.8658297755
 30
0.0
 10
10.2595967112
 20
14.9688436644
 30
0.0
 10
10.2604508779
 20
14.9709992199
 30
0.0
  0
SPLINE
  5
251
100
AcDbEntity
  8
0
100
AcDbSpline
 62
2
  6
CONTINUOUS
 70
0
 71
3
 72
23
 73
19
 74
0
 42
0.0000001
 43
0.0000001
 44
0.0000000001
 40
0.0381944444
 40
0.0381944444
 40
0.0381944444
 40
0.0381944444
 40
0.0486388889
 40
0.0486388889
 40
0.0486388889
 40
1.0486388889
 40
1.0486388889
 40
1.0486388889
 40
2.0486388889
 40
2.0486388889
 40
2.0486388889
 40
3.0486388889
 40
3.0486388889
 40
3.0486388889
 40
4.0486388889
 40
4.0486388889
 40
4.0486388889
 40
4.0580652778
 40
4.0580652778
 40
4.0580652778
 40
4.0580652778
 10
10.1930814335
 20
14.9203006088
 30
0.0
 10
10.196562915
 20
14.9203006088
 30
0.0
 10
10.2000443964
 20
14.9203006088
 30
0.0
 10
10.2035258779
 20
14.9203006088
 30
0.0
 10
10.2101453224
 20
14.9203006088
 30
0.0
 10
10.2155392006
 20
14.9210961854
 30
0.0
 10
10.2202356001
 20
14.9254408866
 30
0.0
 10
10.2242231001
 20
14.9291297755
 30
0.0
 10
10.226311989
 20
14.9338769977
 30
0.0
 10
10.226311989
 20
14.9394922755
 30
0.0
 10
10.226311989
 20
14.9457992199
 30
0.0
 10
10.2235380252
 20
14.951382874
 30
0.0
 10
10.2192050446
 20
14.9547367199
 30
0.0
 10
10.214349489
 20
14.9584950533
 30
0.0
 10
10.2077300446
 20
14.9584950533
 30
0.0
 10
10.2025078224
 20
14.9584950533
 30
0.0
 10
10.1993656927
 20
14.9584950533
 30
0.0
 10
10.1962235631
 20
14.9584950533
 30
0.0
 10
10.1930814335
 20
14.9584950533
 30
0.0
  0
SPLINE
  5
252
100
AcDbEntity
  8
0
100
AcDbSpline
 62
2
  6
CONTINUOUS
 70
0
 71
3
 72
17
 73
13
 74
0
 42
0.0000001
 43
0.0000001
 44
0.0000000001
 40
0.0237625
 40
0.0237625
 40
0.0237625
 40
0.0237625
 40
0.0333111111
 40
0.0333111111
 40
0.0333111111
 40
1.0333111111
 40
1.0333111111
 40
1.0333111111
 40
2.0333111111
 40
2.0333111111
 40
2.0333111111
 40
2.0428597222
 40
2.0428597222
 40
2.0428597222
 40
2.0428597222
 10
9.7722383779
 20
14.9137492199
 30
0.0
 10
9.7754212483
 20
14.9137492199
 30
0.0
 10
9.7786041187
 20
14.9137492199
 30
0.0
 10
9.781786989
 20
14.9137492199
 30
0.0
 10
9.7882828224
 20
14.9137492199
 30
0.0
 10
9.7936272668
 20
14.9190117199
 30
0.0
 10
9.7936272668
 20
14.9255631088
 30
0.0
 10
9.7936272668
 20
14.9321547755
 30
0.0
 10
9.7882828224
 20
14.9375117199
 30
0.0
 10
9.781786989
 20
14.9375117199
 30
0.0
 10
9.7786041187
 20
14.9375117199
 30
0.0
 10
9.7754212483
 20
14.9375117199
 30
0.0
 10
9.7722383779
 20
14.9375117199
 30
0.0
  0
SPLINE
  5
253
100
AcDbEntity
  8
0
100
AcDbSpline
 62
2
  6
CONTINUOUS
 70
0
 71
3
 72
11
 73
7
 74
0
 42
0.0000001
 43
0.0000001
 44
0.0000000001
 40
0.3382728571
 40
0.3382728571
 40
0.3382728571
 40
0.3382728571
 40
0.380549246
 40
0.380549246
 40
0.380549246
 40
1.380549246
 40
1.380549246
 40
1.380549246
 40
1.380549246
 10
9.7393064335
 20
14.9660894977
 30
0.0
 10
9.7533985631
 20
14.9660894977
 30
0.0
 10
9.7674906927
 20
14.9660894977
 30
0.0
 10
9.7815828224
 20
14.9660894977
 30
0.0
 10
9.8186925446
 20
14.9660894977
 30
0.0
 10
9.842374489
 20
14.9194992199
 30
0.0
 10
9.8015217112
 20
14.8920339421
 30
0.0
  0
SPLINE
  5
254
100
AcDbEntity
  8
0
100
AcDbSpline
 62
2
  6
CONTINUOUS
 70
0
 71
1
 72
15
 73
13
 74
0
 42
0.0000001
 43
0.0000001
 44
0.0000000001
 40
0.0
 40
0.0
 40
0.0284416667
 40
0.0623097655
 40
0.0817742218
 40
0.1130783884
 40
0.1407200551
 40
0.1719297773
 40
0.1907561662
 40
0.2249367218
 40
0.2538811662
 40
0.3225672773
 40
0.4459394995
 40
0.5143672773
 40
0.5143672773
 10
9.730136989
 20
14.9660894977
 30
0.0
 10
9.730136989
 20
14.937647831
 30
0.0
 10
9.6962689335
 20
14.9375936644
 30
0.0
 10
9.6961203224
 20
14.9181297755
 30
0.0
 10
9.727424489
 20
14.9181297755
 30
0.0
 10
9.727424489
 20
14.8904881088
 30
0.0
 10
9.6962147668
 20
14.8904881088
 30
0.0
 10
9.6962147668
 20
14.8716617199
 30
0.0
 10
9.7303953224
 20
14.8716617199
 30
0.0
 10
9.7303953224
 20
14.8427172755
 30
0.0
 10
9.6617092112
 20
14.8427172755
 30
0.0
 10
9.6617092112
 20
14.9660894977
 30
0.0
 10
9.730136989
 20
14.9660894977
 30
0.0
  0
SPLINE
  5
255
100
AcDbEntity
  8
0
100
AcDbSpline
 62
2
  6
CONTINUOUS
 70
0
 71
1
 72
16
 73
14
 74
0
 42
0.0000001
 43
0.0000001
 44
0.0000000001
 40
0.0
 40
0.0
 40
0.0762702112
 40
0.1616203838
 40
0.2062773801
 40
0.2642685662
 40
0.2643296773
 40
0.3082893996
 40
0.3420074551
 40
0.4653796773
 40
0.4990977329
 40
0.5360574551
 40
0.536321344
 40
0.5852365517
 40
0.6289171073
 40
0.6289171073
 10
9.3521800446
 20
14.966035331
 30
0.0
 10
9.3035008779
 20
14.9073200533
 30
0.0
 10
9.359199489
 20
14.8426492199
 30
0.0
 10
9.3145425446
 20
14.8427172755
 30
0.0
 10
9.2767203224
 20
14.8866769977
 30
0.0
 10
9.2766592112
 20
14.8866769977
 30
0.0
 10
9.2766592112
 20
14.8427172755
 30
0.0
 10
9.2429411557
 20
14.8427172755
 30
0.0
 10
9.2429411557
 20
14.9660894977
 30
0.0
 10
9.2766592112
 20
14.9660894977
 30
0.0
 10
9.2766592112
 20
14.9291297755
 30
0.0
 10
9.2763953224
 20
14.9291297755
 30
0.0
 10
9.308499489
 20
14.966035331
 30
0.0
 10
9.3521800446
 20
14.966035331
 30
0.0
  0
SPLINE
  5
256
100
AcDbEntity
  8
0
100
AcDbSpline
 62
2
  6
CONTINUOUS
 70
0
 71
1
 72
15
 73
13
 74
0
 42
0.0000001
 43
0.0000001
 44
0.0000000001
 40
0.0
 40
0.0
 40
0.1233722222
 40
0.1570361111
 40
0.2003027778
 40
0.2343472222
 40
0.2776138889
 40
0.3112708333
 40
0.4346430556
 40
0.4683
 40
0.5141986111
 40
0.5482430556
 40
0.5941416667
 40
0.6278055556
 40
0.6278055556
 10
9.4700800446
 20
14.8427172755
 30
0.0
 10
9.4700800446
 20
14.9660894977
 30
0.0
 10
9.5037439335
 20
14.9660894977
 30
0.0
 10
9.5037439335
 20
14.922822831
 30
0.0
 10
9.5377883779
 20
14.922822831
 30
0.0
 10
9.5377883779
 20
14.9660894977
 30
0.0
 10
9.5714453224
 20
14.9660894977
 30
0.0
 10
9.5714453224
 20
14.8427172755
 30
0.0
 10
9.5377883779
 20
14.8427172755
 30
0.0
 10
9.5377883779
 20
14.8886158866
 30
0.0
 10
9.5037439335
 20
14.8886158866
 30
0.0
 10
9.5037439335
 20
14.8427172755
 30
0.0
 10
9.4700800446
 20
14.8427172755
 30
0.0
  0
SPLINE
  5
257
100
AcDbEntity
  8
0
100
AcDbSpline
 62
2
  6
CONTINUOUS
 70
0
 71
1
 72
9
 73
7
 74
0
 42
0.0000001
 43
0.0000001
 44
0.0000000001
 40
0.0
 40
0.0
 40
0.1233722222
 40
0.1570916667
 40
0.2489694444
 40
0.286825
 40
0.3183194444
 40
0.3898944444
 40
0.3898944444
 10
9.5812106001
 20
14.8427172755
 30
0.0
 10
9.5812106001
 20
14.9660894977
 30
0.0
 10
9.6149300446
 20
14.9660894977
 30
0.0
 10
9.6149300446
 20
14.8742117199
 30
0.0
 10
9.6527856001
 20
14.8742117199
 30
0.0
 10
9.6527856001
 20
14.8427172755
 30
0.0
 10
9.5812106001
 20
14.8427172755
 30
0.0
  0
SPLINE
  5
258
100
AcDbEntity
  8
0
100
AcDbSpline
 62
2
  6
CONTINUOUS
 70
0
 71
3
 72
8
 73
4
 74
0
 42
0.0000001
 43
0.0000001
 44
0.0000000001
 40
0.0506940081
 40
0.0506940081
 40
0.0506940081
 40
0.0506940081
 40
0.1856215675
 40
0.1856215675
 40
0.1856215675
 40
0.1856215675
 10
9.9163481001
 20
14.8721908866
 30
0.0
 10
9.8580937227
 20
14.8750478031
 30
0.0
 10
9.8579746087
 20
14.958676589
 30
0.0
 10
9.9163481001
 20
14.9597825533
 30
0.0
  0
SPLINE
  5
259
100
AcDbEntity
  8
0
100
AcDbSpline
 62
2
  6
CONTINUOUS
 70
0
 71
3
 72
14
 73
10
 74
0
 42
0.0000001
 43
0.0000001
 44
0.0000000001
 40
0.0
 40
0.0
 40
0.0
 40
0.0
 40
0.0987956343
 40
0.0987956343
 40
0.1968605605
 40
0.1968605605
 40
0.2954509101
 40
0.2954509101
 40
0.3933711843
 40
0.3933711843
 40
0.3933711843
 40
0.3933711843
 10
9.3359717112
 20
14.905447831
 30
0.0
 10
9.3358000291
 20
14.9407554768
 30
0.0
 10
9.3638071649
 20
14.969858456
 30
0.0
 10
9.4347378353
 20
14.9695673487
 30
0.0
 10
9.4630391918
 20
14.9404720274
 30
0.0
 10
9.4632723559
 20
14.8700311564
 30
0.0
 10
9.4351946216
 20
14.8409854595
 30
0.0
 10
9.3642691238
 20
14.8412999758
 30
0.0
 10
9.3357613263
 20
14.8701065921
 30
0.0
 10
9.3359717112
 20
14.905447831
 30
0.0
  0
SPLINE
  5
25A
100
AcDbEntity
  8
0
100
AcDbSpline
 62
2
  6
CONTINUOUS
 70
0
 71
3
 72
17
 73
13
 74
0
 42
0.0000001
 43
0.0000001
 44
0.0000000001
 40
0.0
 40
0.0
 40
0.0
 40
0.0
 40
0.0032416667
 40
0.0032416667
 40
0.0032416667
 40
1.0032416667
 40
1.0032416667
 40
1.0032416667
 40
2.0032416667
 40
2.0032416667
 40
2.0032416667
 40
3.0032416667
 40
3.0032416667
 40
3.0032416667
 40
3.0032416667
 10
10.3359717112
 20
15.173547831
 30
0.0
 10
10.3370522668
 20
15.173547831
 30
0.0
 10
10.3381328224
 20
15.173547831
 30
0.0
 10
10.3392133779
 20
15.173547831
 30
0.0
 10
10.3429161557
 20
15.173547831
 30
0.0
 10
10.346049489
 20
15.1748908866
 30
0.0
 10
10.346049489
 20
15.1783561644
 30
0.0
 10
10.346049489
 20
15.1808256088
 30
0.0
 10
10.3442592112
 20
15.1832936644
 30
0.0
 10
10.3392133779
 20
15.1832936644
 30
0.0
 10
10.337761989
 20
15.1832936644
 30
0.0
 10
10.3367592112
 20
15.1831714421
 30
0.0
 10
10.3359717112
 20
15.1830561644
 30
0.0
  0
SPLINE
  5
25B
100
AcDbEntity
  8
0
100
AcDbSpline
 62
2
  6
CONTINUOUS
 70
0
 71
3
 72
17
 73
13
 74
0
 42
0.0000001
 43
0.0000001
 44
0.0000000001
 40
0.0325722222
 40
0.0325722222
 40
0.0325722222
 40
0.0325722222
 40
1.0325722222
 40
1.0325722222
 40
1.0325722222
 40
2.0325722222
 40
2.0325722222
 40
2.0325722222
 40
3.0325722222
 40
3.0325722222
 40
3.0325722222
 40
4.0325722222
 40
4.0325722222
 40
4.0325722222
 40
4.0325722222
 10
10.3314967112
 20
15.1860811644
 30
0.0
 10
10.3338425446
 20
15.1864269977
 30
0.0
 10
10.3360800446
 20
15.1867519977
 30
0.0
 10
10.3394439335
 20
15.1867519977
 30
0.0
 10
10.3437036557
 20
15.1867519977
 30
0.0
 10
10.3465015786
 20
15.1858641935
 30
0.0
 10
10.3481786557
 20
15.1846297755
 30
0.0
 10
10.3498467112
 20
15.1834019977
 30
0.0
 10
10.3507564335
 20
15.1814894977
 30
0.0
 10
10.3507564335
 20
15.178810331
 30
0.0
 10
10.3507564335
 20
15.1751144977
 30
0.0
 10
10.348286989
 20
15.1728700533
 30
0.0
 10
10.3452633779
 20
15.1719811644
 30
0.0
  0
SPLINE
  5
25C
100
AcDbEntity
  8
0
100
AcDbSpline
 62
2
  6
CONTINUOUS
 70
0
 71
3
 72
12
 73
8
 74
0
 42
0.0000001
 43
0.0000001
 44
0.0000000001
 40
0.039009476
 40
0.039009476
 40
0.039009476
 40
0.039009476
 40
0.0793449376
 40
0.0793449376
 40
0.1196515026
 40
0.1196515026
 40
0.1957701011
 40
0.1957701011
 40
0.1957701011
 40
0.1957701011
 10
10.3655272668
 20
15.1726533866
 30
0.0
 10
10.3658606659
 20
15.1548421044
 30
0.0
 10
10.3585412072
 20
15.1473843045
 30
0.0
 10
10.3229304016
 20
15.1473447142
 30
0.0
 10
10.3159030507
 20
15.1549656591
 30
0.0
 10
10.3153817895
 20
15.2057480409
 30
0.0
 10
10.3659773944
 20
15.20585353
 30
0.0
 10
10.3655272668
 20
15.1726533866
 30
0.0
  0
SPLINE
  5
25D
100
AcDbEntity
  8
0
100
AcDbSpline
 62
2
  6
CONTINUOUS
 70
0
 71
1
 72
7
 73
5
 74
0
 42
0.0000001
 43
0.0000001
 44
0.0000000001
 40
0.0
 40
0.0
 40
0.5096027778
 40
3.8794430556
 40
4.3890458333
 40
7.7588861111
 40
7.7588861111
 10
10.4258842112
 20
15.5786381088
 30
0.0
 10
10.4258842112
 20
15.069035331
 30
0.0
 10
7.0560439335
 20
15.069035331
 30
0.0
 10
7.0560439335
 20
15.5786381088
 30
0.0
 10
10.4258842112
 20
15.5786381088
 30
0.0
  0
SPLINE
  5
25E
100
AcDbEntity
  8
0
100
AcDbSpline
 62
2
  6
CONTINUOUS
 70
0
 71
1
 72
7
 73
5
 74
0
 42
0.0000001
 43
0.0000001
 44
0.0000000001
 40
0.0
 40
0.0
 40
0.496175
 40
3.8525736111
 40
4.3487486111
 40
7.7051472222
 40
7.7051472222
 10
10.4191564335
 20
15.5719242199
 30
0.0
 10
10.4191564335
 20
15.0757492199
 30
0.0
 10
7.0627578224
 20
15.0757492199
 30
0.0
 10
7.0627578224
 20
15.5719242199
 30
0.0
 10
10.4191564335
 20
15.5719242199
 30
0.0
  0
SPLINE
  5
25F
100
AcDbEntity
  8
0
100
AcDbSpline
 62
2
  6
CONTINUOUS
 70
0
 71
1
 72
7
 73
5
 74
0
 42
0.0000001
 43
0.0000001
 44
0.0000000001
 40
0.0
 40
0.0
 40
0.6142111111
 40
4.0886777778
 40
4.7028888889
 40
8.1773555556
 40
8.1773555556
 10
7.0037175446
 20
15.6309464421
 30
0.0
 10
7.0037175446
 20
15.016735331
 30
0.0
 10
10.4781842112
 20
15.016735331
 30
0.0
 10
10.4781842112
 20
15.6309464421
 30
0.0
 10
7.0037175446
 20
15.6309464421
 30
0.0
  0
SPLINE
  5
260
100
AcDbEntity
  8
0
100
AcDbSpline
 62
2
  6
CONTINUOUS
 70
0
 71
3
 72
14
 73
10
 74
0
 42
0.0000001
 43
0.0000001
 44
0.0000000001
 40
0.1363871571
 40
0.1363871571
 40
0.1363871571
 40
0.1363871571
 40
1.1363871571
 40
1.1363871571
 40
1.1363871571
 40
2.1363871571
 40
2.1363871571
 40
2.1363871571
 40
3.1363871571
 40
3.1363871571
 40
3.1363871571
 40
3.1363871571
 10
10.1186328224
 20
15.4659061644
 30
0.0
 10
10.0055953224
 20
15.4659061644
 30
0.0
 10
9.9193731001
 20
15.4128394977
 30
0.0
 10
9.9193731001
 20
15.3290797755
 30
0.0
 10
9.9193731001
 20
15.2453117199
 30
0.0
 10
10.0121189335
 20
15.1818422755
 30
0.0
 10
10.1266078224
 20
15.1818422755
 30
0.0
 10
10.1599467112
 20
15.1818422755
 30
0.0
 10
10.1947231001
 20
15.1849617199
 30
0.0
 10
10.2273300446
 20
15.1917158866
 30
0.0
  0
SPLINE
  5
261
100
AcDbEntity
  8
0
100
AcDbSpline
 62
2
  6
CONTINUOUS
 70
0
 71
3
 72
11
 73
7
 74
0
 42
0.0000001
 43
0.0000001
 44
0.0000000001
 40
3.1363871571
 40
3.1363871571
 40
3.1363871571
 40
3.1363871571
 40
3.2113121571
 40
3.2113121571
 40
3.2113121571
 40
4.2113121571
 40
4.2113121571
 40
4.2113121571
 40
4.2113121571
 10
10.2273300446
 20
15.1917158866
 30
0.0
 10
10.2273300446
 20
15.2166908866
 30
0.0
 10
10.2273300446
 20
15.2416658866
 30
0.0
 10
10.2273300446
 20
15.2666408866
 30
0.0
 10
10.2273300446
 20
15.2905797755
 30
0.0
 10
10.2265967112
 20
15.3160658866
 30
0.0
 10
10.1940036557
 20
15.3254311644
 30
0.0
  0
SPLINE
  5
262
100
AcDbEntity
  8
0
100
AcDbSpline
 62
2
  6
CONTINUOUS
 70
0
 71
3
 72
17
 73
13
 74
0
 42
0.0000001
 43
0.0000001
 44
0.0000000001
 40
4.4917022773
 40
4.4917022773
 40
4.4917022773
 40
4.4917022773
 40
5.4917022773
 40
5.4917022773
 40
5.4917022773
 40
6.4917022773
 40
6.4917022773
 40
6.4917022773
 40
7.4917022773
 40
7.4917022773
 40
7.4917022773
 40
8.4917022773
 40
8.4917022773
 40
8.4917022773
 40
8.4917022773
 10
10.3048578224
 20
15.1599783866
 30
0.0
 10
10.2469008779
 20
15.1521922755
 30
0.0
 10
10.1903828224
 20
15.1443672755
 30
0.0
 10
10.1316939335
 20
15.1443672755
 30
0.0
 10
9.9461883779
 20
15.1443672755
 30
0.0
 10
9.8367717112
 20
15.217222831
 30
0.0
 10
9.8367717112
 20
15.3217825533
 30
0.0
 10
9.8367717112
 20
15.4336464421
 30
0.0
 10
9.9606731001
 20
15.5033756088
 30
0.0
 10
10.1360342112
 20
15.5033756088
 30
0.0
 10
10.1744328224
 20
15.5033756088
 30
0.0
 10
10.212111989
 20
15.5002492199
 30
0.0
 10
10.2497897668
 20
15.4945256088
 30
0.0
  0
SPLINE
  5
263
100
AcDbEntity
  8
0
100
AcDbSpline
 62
2
  6
CONTINUOUS
 70
0
 71
3
 72
14
 73
10
 74
0
 42
0.0000001
 43
0.0000001
 44
0.0000000001
 40
0.1313958333
 40
0.1313958333
 40
0.1313958333
 40
0.1313958333
 40
1.1313958333
 40
1.1313958333
 40
1.1313958333
 40
1.3390027778
 40
1.3390027778
 40
1.3390027778
 40
2.3390027778
 40
2.3390027778
 40
2.3390027778
 40
2.3390027778
 10
9.3309939335
 20
15.1542686644
 30
0.0
 10
9.369399489
 20
15.1703811644
 30
0.0
 10
9.369399489
 20
15.1912075533
 30
0.0
 10
9.369399489
 20
15.220335331
 30
0.0
 10
9.369399489
 20
15.2895376458
 30
0.0
 10
9.369399489
 20
15.3587399607
 30
0.0
 10
9.369399489
 20
15.4279422755
 30
0.0
 10
9.369399489
 20
15.4570700533
 30
0.0
 10
9.369399489
 20
15.4778894977
 30
0.0
 10
9.3317203224
 20
15.4934881088
 30
0.0
  0
SPLINE
  5
264
100
AcDbEntity
  8
0
100
AcDbSpline
 62
2
  6
CONTINUOUS
 70
0
 71
3
 72
11
 73
7
 74
0
 42
0.0000001
 43
0.0000001
 44
0.0000000001
 40
3.819343998
 40
3.819343998
 40
3.819343998
 40
3.819343998
 40
4.0165481647
 40
4.0165481647
 40
4.0165481647
 40
5.0165481647
 40
5.0165481647
 40
5.0165481647
 40
5.0165481647
 10
9.7237356001
 20
15.2307381088
 30
0.0
 10
9.7237356001
 20
15.296472831
 30
0.0
 10
9.7237356001
 20
15.3622075533
 30
0.0
 10
9.7237356001
 20
15.4279422755
 30
0.0
 10
9.7237356001
 20
15.4570700533
 30
0.0
 10
9.7244536557
 20
15.4778894977
 30
0.0
 10
9.6860564335
 20
15.4934881088
 30
0.0
  0
SPLINE
  5
265
100
AcDbEntity
  8
0
100
AcDbSpline
 62
2
  6
CONTINUOUS
 70
0
 71
3
 72
11
 73
7
 74
0
 42
0.0000001
 43
0.0000001
 44
0.0000000001
 40
5.1472176091
 40
5.1472176091
 40
5.1472176091
 40
5.1472176091
 40
6.1472176091
 40
6.1472176091
 40
6.1472176091
 40
6.4391078869
 40
6.4391078869
 40
6.4391078869
 40
6.4391078869
 10
9.8135925446
 20
15.4934881088
 30
0.0
 10
9.775899489
 20
15.4778894977
 30
0.0
 10
9.775899489
 20
15.4570700533
 30
0.0
 10
9.775899489
 20
15.4279422755
 30
0.0
 10
9.775899489
 20
15.3306455162
 30
0.0
 10
9.775899489
 20
15.233348757
 30
0.0
 10
9.775899489
 20
15.1360519977
 30
0.0
  0
SPLINE
  5
266
100
AcDbEntity
  8
0
100
AcDbSpline
 62
2
  6
CONTINUOUS
 70
0
 71
3
 72
11
 73
7
 74
0
 42
0.0000001
 43
0.0000001
 44
0.0000000001
 40
6.8979254112
 40
6.8979254112
 40
6.8979254112
 40
6.8979254112
 40
7.0992740223
 40
7.0992740223
 40
7.0992740223
 40
8.0992740223
 40
8.0992740223
 40
8.0992740223
 40
8.0992740223
 10
9.4215772668
 20
15.4216839421
 30
0.0
 10
9.4215772668
 20
15.3545677384
 30
0.0
 10
9.4215772668
 20
15.2874515347
 30
0.0
 10
9.4215772668
 20
15.220335331
 30
0.0
 10
9.4215772668
 20
15.1912075533
 30
0.0
 10
9.4208522668
 20
15.1703811644
 30
0.0
 10
9.4592425446
 20
15.1542686644
 30
0.0
  0
SPLINE
  5
267
100
AcDbEntity
  8
0
100
AcDbSpline
 62
2
  6
CONTINUOUS
 70
0
 71
3
 72
14
 73
10
 74
0
 42
0.0000001
 43
0.0000001
 44
0.0000000001
 40
0.1408208333
 40
0.1408208333
 40
0.1408208333
 40
0.1408208333
 40
1.1408208333
 40
1.1408208333
 40
1.1408208333
 40
1.3369611111
 40
1.3369611111
 40
1.3369611111
 40
2.3369611111
 40
2.3369611111
 40
2.3369611111
 40
2.3369611111
 10
9.2541981001
 20
15.4934881088
 30
0.0
 10
9.2179772668
 20
15.4836006088
 30
0.0
 10
9.2222981001
 20
15.4451006088
 30
0.0
 10
9.2222981001
 20
15.4216839421
 30
0.0
 10
9.2222981001
 20
15.3563038496
 30
0.0
 10
9.2222981001
 20
15.290923757
 30
0.0
 10
9.2222981001
 20
15.2255436644
 30
0.0
 10
9.2222981001
 20
15.2021394977
 30
0.0
 10
9.2179772668
 20
15.1641561644
 30
0.0
 10
9.2541981001
 20
15.1542686644
 30
0.0
  0
SPLINE
  5
268
100
AcDbEntity
  8
0
100
AcDbSpline
 62
2
  6
CONTINUOUS
 70
0
 71
3
 72
14
 73
10
 74
0
 42
0.0000001
 43
0.0000001
 44
0.0000000001
 40
2.4777958333
 40
2.4777958333
 40
2.4777958333
 40
2.4777958333
 40
3.4777958333
 40
3.4777958333
 40
3.4777958333
 40
3.6739361111
 40
3.6739361111
 40
3.6739361111
 40
4.6739361111
 40
4.6739361111
 40
4.6739361111
 40
4.6739361111
 10
9.1165106001
 20
15.1542686644
 30
0.0
 10
9.1527439335
 20
15.1636269977
 30
0.0
 10
9.1483981001
 20
15.2021394977
 30
0.0
 10
9.1483981001
 20
15.2255436644
 30
0.0
 10
9.1483981001
 20
15.290923757
 30
0.0
 10
9.1483981001
 20
15.3563038496
 30
0.0
 10
9.1483981001
 20
15.4216839421
 30
0.0
 10
9.1483981001
 20
15.445622831
 30
0.0
 10
9.1534772668
 20
15.4836006088
 30
0.0
 10
9.1165106001
 20
15.4934881088
 30
0.0
  0
SPLINE
  5
269
100
AcDbEntity
  8
0
100
AcDbSpline
 62
2
  6
CONTINUOUS
 70
0
 71
3
 72
14
 73
10
 74
0
 42
0.0000001
 43
0.0000001
 44
0.0000000001
 40
0.3803437494
 40
0.3803437494
 40
0.3803437494
 40
0.3803437494
 40
1.3803437494
 40
1.3803437494
 40
1.3803437494
 40
1.5764840272
 40
1.5764840272
 40
1.5764840272
 40
2.5764840272
 40
2.5764840272
 40
2.5764840272
 40
2.5764840272
 10
8.7513231001
 20
15.1542686644
 30
0.0
 10
8.7882758779
 20
15.1636269977
 30
0.0
 10
8.7839300446
 20
15.2021394977
 30
0.0
 10
8.7839300446
 20
15.2255436644
 30
0.0
 10
8.7839300446
 20
15.290923757
 30
0.0
 10
8.7839300446
 20
15.3563038496
 30
0.0
 10
8.7839300446
 20
15.4216839421
 30
0.0
 10
8.7839300446
 20
15.445622831
 30
0.0
 10
8.7882758779
 20
15.4836006088
 30
0.0
 10
8.7513231001
 20
15.4934881088
 30
0.0
  0
SPLINE
  5
26A
100
AcDbEntity
  8
0
100
AcDbSpline
 62
2
  6
CONTINUOUS
 70
0
 71
3
 72
11
 73
7
 74
0
 42
0.0000001
 43
0.0000001
 44
0.0000000001
 40
2.7180173605
 40
2.7180173605
 40
2.7180173605
 40
2.7180173605
 40
3.7180173605
 40
3.7180173605
 40
3.7180173605
 40
3.9448520827
 40
3.9448520827
 40
3.9448520827
 40
3.9448520827
 10
8.8897231001
 20
15.4934881088
 30
0.0
 10
8.8527703224
 20
15.4836006088
 30
0.0
 10
8.8578425446
 20
15.4451006088
 30
0.0
 10
8.8578425446
 20
15.4216839421
 30
0.0
 10
8.8578425446
 20
15.3460723681
 30
0.0
 10
8.8578425446
 20
15.270460794
 30
0.0
 10
8.8578425446
 20
15.1948492199
 30
0.0
  0
SPLINE
  5
26B
100
AcDbEntity
  8
0
100
AcDbSpline
 62
2
  6
CONTINUOUS
 70
0
 71
3
 72
8
 73
4
 74
0
 42
0.0000001
 43
0.0000001
 44
0.0000000001
 40
3.9448520827
 40
3.9448520827
 40
3.9448520827
 40
3.9448520827
 40
4.1770975516
 40
4.1770975516
 40
4.1770975516
 40
4.1770975516
 10
8.8578425446
 20
15.1948492199
 30
0.0
 10
8.9359702742
 20
15.1911394961
 30
0.0
 10
9.0084176775
 20
15.1762317294
 30
0.0
 10
9.0846425446
 20
15.2218811644
 30
0.0
  0
SPLINE
  5
26C
100
AcDbEntity
  8
0
100
AcDbSpline
 62
2
  6
CONTINUOUS
 70
0
 71
3
 72
11
 73
7
 74
0
 42
0.0000001
 43
0.0000001
 44
0.0000000001
 40
0.0
 40
0.0
 40
0.0
 40
0.0
 40
0.140550031
 40
0.140550031
 40
0.140550031
 40
1.140550031
 40
1.140550031
 40
1.140550031
 40
1.140550031
 10
8.5136592112
 20
15.3197075533
 30
0.0
 10
8.5484402298
 20
15.2883195903
 30
0.0
 10
8.5832212483
 20
15.2569316273
 30
0.0
 10
8.6180022668
 20
15.2255436644
 30
0.0
 10
8.6484314335
 20
15.1984783866
 30
0.0
 10
8.6940786557
 20
15.1714256088
 30
0.0
 10
8.7353925446
 20
15.1526950533
 30
0.0
  0
SPLINE
  5
26D
100
AcDbEntity
  8
0
100
AcDbSpline
 62
2
  6
CONTINUOUS
 70
0
 71
3
 72
14
 73
10
 74
0
 42
0.0000001
 43
0.0000001
 44
0.0000000001
 40
1.5143546326
 40
1.5143546326
 40
1.5143546326
 40
1.5143546326
 40
2.0459541232
 40
2.0459541232
 40
2.5487056352
 40
2.5487056352
 40
3.0207171483
 40
3.0207171483
 40
3.5638184132
 40
3.5638184132
 40
3.5638184132
 40
3.5638184132
 10
8.429599489
 20
15.3306394977
 30
0.0
 10
8.4572706809
 20
15.3336175037
 30
0.0
 10
8.4836481701
 20
15.3382786931
 30
0.0
 10
8.5339714259
 20
15.3605928153
 30
0.0
 10
8.5590394563
 20
15.3799517899
 30
0.0
 10
8.5502464003
 20
15.4410566406
 30
0.0
 10
8.5187917365
 20
15.4553787111
 30
0.0
 10
8.4662671437
 20
15.4658501456
 30
0.0
 10
8.4397039728
 20
15.4622608245
 30
0.0
 10
8.412211989
 20
15.4586297755
 30
0.0
  0
SPLINE
  5
26E
100
AcDbEntity
  8
0
100
AcDbSpline
 62
2
  6
CONTINUOUS
 70
0
 71
3
 72
11
 73
7
 74
0
 42
0.0000001
 43
0.0000001
 44
0.0000000001
 40
3.5638184132
 40
3.5638184132
 40
3.5638184132
 40
3.5638184132
 40
3.7969045243
 40
3.7969045243
 40
3.7969045243
 40
4.7969045243
 40
4.7969045243
 40
4.7969045243
 40
4.7969045243
 10
8.412211989
 20
15.4586297755
 30
0.0
 10
8.412211989
 20
15.3809344051
 30
0.0
 10
8.412211989
 20
15.3032390347
 30
0.0
 10
8.412211989
 20
15.2255436644
 30
0.0
 10
8.412211989
 20
15.2016117199
 30
0.0
 10
8.4078647668
 20
15.1636269977
 30
0.0
 10
8.4448175446
 20
15.1542686644
 30
0.0
  0
SPLINE
  5
26F
100
AcDbEntity
  8
0
100
AcDbSpline
 62
2
  6
CONTINUOUS
 70
0
 71
3
 72
14
 73
10
 74
0
 42
0.0000001
 43
0.0000001
 44
0.0000000001
 40
4.9384517465
 40
4.9384517465
 40
4.9384517465
 40
4.9384517465
 40
5.9384517465
 40
5.9384517465
 40
5.9384517465
 40
6.1345920243
 40
6.1345920243
 40
6.1345920243
 40
7.1345920243
 40
7.1345920243
 40
7.1345920243
 40
7.1345920243
 10
8.3064175446
 20
15.1542686644
 30
0.0
 10
8.3433703224
 20
15.1636269977
 30
0.0
 10
8.3383050446
 20
15.2021394977
 30
0.0
 10
8.3383050446
 20
15.2255436644
 30
0.0
 10
8.3383050446
 20
15.290923757
 30
0.0
 10
8.3383050446
 20
15.3563038496
 30
0.0
 10
8.3383050446
 20
15.4216839421
 30
0.0
 10
8.3383050446
 20
15.445622831
 30
0.0
 10
8.3433703224
 20
15.4836006088
 30
0.0
 10
8.3064175446
 20
15.4934881088
 30
0.0
  0
SPLINE
  5
270
100
AcDbEntity
  8
0
100
AcDbSpline
 62
2
  6
CONTINUOUS
 70
0
 71
3
 72
14
 73
10
 74
0
 42
0.0000001
 43
0.0000001
 44
0.0000000001
 40
7.136158691
 40
7.136158691
 40
7.136158691
 40
7.136158691
 40
7.3086100798
 40
7.3086100798
 40
7.3086100798
 40
8.3086100798
 40
8.3086100798
 40
8.3086100798
 40
9.3086100798
 40
9.3086100798
 40
9.3086100798
 40
9.3086100798
 10
8.3064175446
 20
15.4950547755
 30
0.0
 10
8.3639013409
 20
15.4950547755
 30
0.0
 10
8.4213851372
 20
15.4950547755
 30
0.0
 10
8.4788689335
 20
15.4950547755
 30
0.0
 10
8.5759758779
 20
15.4950547755
 30
0.0
 10
8.6288731001
 20
15.4586297755
 30
0.0
 10
8.6288731001
 20
15.4112797755
 30
0.0
 10
8.6288731001
 20
15.3655033866
 30
0.0
 10
8.5730800446
 20
15.3296019977
 30
0.0
 10
8.5136592112
 20
15.3197075533
 30
0.0
  0
SPLINE
  5
271
100
AcDbEntity
  8
0
100
AcDbSpline
 62
2
  6
CONTINUOUS
 70
0
 71
3
 72
8
 73
4
 74
0
 42
0.0000001
 43
0.0000001
 44
0.0000000001
 40
0.0
 40
0.0
 40
0.0
 40
0.0
 40
0.2313461135
 40
0.2313461135
 40
0.2313461135
 40
0.2313461135
 10
8.0528161557
 20
15.1963964421
 30
0.0
 10
8.1307437365
 20
15.1911236424
 30
0.0
 10
8.2025197898
 20
15.1763315656
 30
0.0
 10
8.2788911557
 20
15.2208644977
 30
0.0
  0
SPLINE
  5
272
100
AcDbEntity
  8
0
100
AcDbSpline
 62
2
  6
CONTINUOUS
 70
0
 71
3
 72
14
 73
10
 74
0
 42
0.0000001
 43
0.0000001
 44
0.0000000001
 40
0.6128133373
 40
0.6128133373
 40
0.6128133373
 40
0.6128133373
 40
1.6128133373
 40
1.6128133373
 40
1.6128133373
 40
1.8089536151
 40
1.8089536151
 40
1.8089536151
 40
2.8089536151
 40
2.8089536151
 40
2.8089536151
 40
2.8089536151
 10
7.9462967112
 20
15.1542686644
 30
0.0
 10
7.983249489
 20
15.1636269977
 30
0.0
 10
7.9789022668
 20
15.2021394977
 30
0.0
 10
7.9789022668
 20
15.2255436644
 30
0.0
 10
7.9789022668
 20
15.290923757
 30
0.0
 10
7.9789022668
 20
15.3563038496
 30
0.0
 10
7.9789022668
 20
15.4216839421
 30
0.0
 10
7.9789022668
 20
15.445622831
 30
0.0
 10
7.983249489
 20
15.4836006088
 30
0.0
 10
7.9462967112
 20
15.4934881088
 30
0.0
  0
SPLINE
  5
273
100
AcDbEntity
  8
0
100
AcDbSpline
 62
2
  6
CONTINUOUS
 70
0
 71
3
 72
11
 73
7
 74
0
 42
0.0000001
 43
0.0000001
 44
0.0000000001
 40
3.5799535043
 40
3.5799535043
 40
3.5799535043
 40
3.5799535043
 40
4.5799535043
 40
4.5799535043
 40
4.5799535043
 40
4.6335771155
 40
4.6335771155
 40
4.6335771155
 40
4.6335771155
 10
8.1709258779
 20
15.3051533866
 30
0.0
 10
8.1593300446
 20
15.3202367199
 30
0.0
 10
8.128899489
 20
15.3197075533
 30
0.0
 10
8.1064397668
 20
15.3197075533
 30
0.0
 10
8.0885652298
 20
15.3197075533
 30
0.0
 10
8.0706906927
 20
15.3197075533
 30
0.0
 10
8.0528161557
 20
15.3197075533
 30
0.0
  0
SPLINE
  5
274
100
AcDbEntity
  8
0
100
AcDbSpline
 62
2
  6
CONTINUOUS
 70
0
 71
3
 72
11
 73
7
 74
0
 42
0.0000001
 43
0.0000001
 44
0.0000000001
 40
0.1466138889
 40
0.1466138889
 40
0.1466138889
 40
0.1466138889
 40
1.1466138889
 40
1.1466138889
 40
1.1466138889
 40
1.3786625
 40
1.3786625
 40
1.3786625
 40
1.3786625
 10
7.6397981001
 20
15.1542686644
 30
0.0
 10
7.6760189335
 20
15.1641561644
 30
0.0
 10
7.6716647668
 20
15.2021394977
 30
0.0
 10
7.6716647668
 20
15.2255436644
 30
0.0
 10
7.6716647668
 20
15.3028932014
 30
0.0
 10
7.6716647668
 20
15.3802427384
 30
0.0
 10
7.6716647668
 20
15.4575922755
 30
0.0
  0
SPLINE
  5
275
100
AcDbEntity
  8
0
100
AcDbSpline
 62
2
  6
CONTINUOUS
 70
0
 71
3
 72
11
 73
7
 74
0
 42
0.0000001
 43
0.0000001
 44
0.0000000001
 40
2.0235770463
 40
2.0235770463
 40
2.0235770463
 40
2.0235770463
 40
3.0235770463
 40
3.0235770463
 40
3.0235770463
 40
3.0888034352
 40
3.0888034352
 40
3.0888034352
 40
3.0888034352
 10
7.8731147668
 20
15.4367658866
 30
0.0
 10
7.8637022668
 20
15.4549742199
 30
0.0
 10
7.8347106001
 20
15.4575922755
 30
0.0
 10
7.8108050446
 20
15.4575922755
 30
0.0
 10
7.789062915
 20
15.4575922755
 30
0.0
 10
7.7673207853
 20
15.4575922755
 30
0.0
 10
7.7455786557
 20
15.4575922755
 30
0.0
  0
SPLINE
  5
276
100
AcDbEntity
  8
0
100
AcDbSpline
 62
2
  6
CONTINUOUS
 70
0
 71
3
 72
11
 73
7
 74
0
 42
0.0000001
 43
0.0000001
 44
0.0000000001
 40
3.0888034352
 40
3.0888034352
 40
3.0888034352
 40
3.0888034352
 40
3.3260603796
 40
3.3260603796
 40
3.3260603796
 40
4.3260603796
 40
4.3260603796
 40
4.3260603796
 40
4.3260603796
 10
7.7455786557
 20
15.4575922755
 30
0.0
 10
7.7455786557
 20
15.3785066273
 30
0.0
 10
7.7455786557
 20
15.2994209792
 30
0.0
 10
7.7455786557
 20
15.220335331
 30
0.0
 10
7.7455786557
 20
15.1906783866
 30
0.0
 10
7.7448606001
 20
15.1703811644
 30
0.0
 10
7.7832647668
 20
15.1542686644
 30
0.0
  0
SPLINE
  5
277
100
AcDbEntity
  8
0
100
AcDbSpline
 62
2
  6
CONTINUOUS
 70
0
 71
3
 72
18
 73
14
 74
0
 42
0.0000001
 43
0.0000001
 44
0.0000000001
 40
0.0
 40
0.0
 40
0.0
 40
0.0
 40
0.5032108973
 40
0.5032108973
 40
0.8324923635
 40
0.8324923635
 40
1.151976252
 40
1.151976252
 40
1.6605310342
 40
1.6605310342
 40
3.0490484198
 40
3.0490484198
 40
4.1196841171
 40
4.1196841171
 40
4.1196841171
 40
4.1196841171
 10
7.4651703224
 20
15.4331450533
 30
0.0
 10
7.4306547251
 20
15.4549325818
 30
0.0
 10
7.3965396889
 20
15.4650292864
 30
0.0
 10
7.3291019348
 20
15.4664061821
 30
0.0
 10
7.262428131
 20
15.4616366095
 30
0.0
 10
7.2539701264
 20
15.3843489192
 30
0.0
 10
7.3213807785
 20
15.3651580857
 30
0.0
 10
7.3807465216
 20
15.3449492339
 30
0.0
 10
7.4178008843
 20
15.3349111196
 30
0.0
 10
7.5476824112
 20
15.2695526637
 30
0.0
 10
7.4999140206
 20
15.18848962
 30
0.0
 10
7.3437618061
 20
15.1367940604
 30
0.0
 10
7.250220516
 20
15.1422896317
 30
0.0
 10
7.1832953224
 20
15.1599783866
 30
0.0
  0
SPLINE
  5
278
100
AcDbEntity
  8
0
100
AcDbSpline
 62
2
  6
CONTINUOUS
 70
0
 71
3
 72
18
 73
14
 74
0
 42
0.0000001
 43
0.0000001
 44
0.0000000001
 40
4.1880291668
 40
4.1880291668
 40
4.1880291668
 40
4.1880291668
 40
5.1629619988
 40
5.1629619988
 40
5.8465018609
 40
5.8465018609
 40
6.3921468543
 40
6.3921468543
 40
6.8466935936
 40
6.8466935936
 40
7.3975710712
 40
7.3975710712
 40
8.3539434147
 40
8.3539434147
 40
8.3539434147
 40
8.3539434147
 10
7.162286989
 20
15.2250144977
 30
0.0
 10
7.2218510649
 20
15.1900198072
 30
0.0
 10
7.3208982438
 20
15.1645504477
 30
0.0
 10
7.4390081403
 20
15.2183085514
 30
0.0
 10
7.4309286872
 20
15.2593603508
 30
0.0
 10
7.3502173827
 20
15.3002772379
 30
0.0
 10
7.3115928484
 20
15.3088471466
 30
0.0
 10
7.2433076967
 20
15.3332168239
 30
0.0
 10
7.1946153889
 20
15.3516293683
 30
0.0
 10
7.1618963474
 20
15.4336381696
 30
0.0
 10
7.1926833461
 20
15.4650765059
 30
0.0
 10
7.297144912
 20
15.5106381341
 30
0.0
 10
7.3984284368
 20
15.5069016489
 30
0.0
 10
7.4651703224
 20
15.4919214421
 30
0.0
  0
SPLINE
  5
279
100
AcDbEntity
  8
0
100
AcDbSpline
 62
2
  6
CONTINUOUS
 70
0
 71
1
 72
7
 73
5
 74
0
 42
0.0000001
 43
0.0000001
 44
0.0000000001
 40
0.0
 40
0.0
 40
3.4446958333
 40
4.0226375
 40
7.4673333333
 40
8.045275
 40
8.045275
 10
7.0178633779
 20
15.0359825533
 30
0.0
 10
10.4625592112
 20
15.0359825533
 30
0.0
 10
10.4625592112
 20
15.6139242199
 30
0.0
 10
7.0178633779
 20
15.6139242199
 30
0.0
 10
7.0178633779
 20
15.0359825533
 30
0.0
  0
DIMENSION
  5
27A
100
AcDbEntity
  8
0
100
AcDbDimension
 62
2
  6
CONTINUOUS
  2
*D0
 10
11.8358880895
 20
7.3090172027
 11
11.8358880895
 21
12.4057880991
 70
160
 71
2
 72
2
 41
0.9
 42
9.47
  1
<>\P[]
  3
DIMSTYLE_1
100
AcDbAlignedDimension
 13
16.8641934445
 23
16.7790172027
 14
16.8641934445
 24
7.3090172027
 50
270.0
100
AcDbRotatedDimension
  0
DIMENSION
  5
27B
100
AcDbEntity
  8
0
100
AcDbDimension
 62
2
  6
CONTINUOUS
  2
*D1
 10
18.6141934445
 20
11.606632919
 11
9.6746311855
 21
11.489445419
 70
160
 71
2
 72
2
 41
0.9
 42
11.961
  1
<>\P[]
  3
DIMSTYLE_2
100
AcDbAlignedDimension
 13
6.6531934445
 23
9.0590172027
 14
18.6141934445
 24
9.0590172027
100
AcDbRotatedDimension
  0
DIMENSION
  5
27C
100
AcDbEntity
  8
0
100
AcDbDimension
 62
2
  6
CONTINUOUS
  2
*D2
 10
16.8641934445
 20
15.0290172027
 11
16.8949492561
 21
15.6790463445
 70
164
 71
3
 72
2
 41
0.9
 42
1.75
  1
R<>\P[]
  3
DIMSTYLE_3
100
AcDbRadialDimension
 15
18.0012196145
 25
16.3593072045
  0
MTEXT
  5
27D
100
AcDbEntity
  8
___NOTE
100
AcDbMText
 62
2
  6
CONTINUOUS
  7
STANDARD
 71
1
 72
1
 10
8.3074062343
 20
7.6349105682
 30
0.0
 11
1.0
 21
0.0
 31
0.0
 73
2
 44
0.9
  1
1315841-7-B\P \P \P \P \P \P \P1315841-7-B
 40
0.15625
 41
1.375
  0
MTEXT
  5
27E
100
AcDbEntity
  8
___NOTE
100
AcDbMText
 62
2
  6
CONTINUOUS
  7
STANDARD
 71
1
 72
1
 10
7.0625123739
 20
14.6875280957
 30
0.0
 11
1.0
 21
0.0
 31
0.0
 73
2
 44
0.9
  1
CUT-OUT TEMPLATE\PUNDERCOUNTER SINK\PGABARIT DE DÉCOUPE\PÉVIER SOUS COMPTOIR\PPLANTILLA DE CORTE\PFREGADERO DE\PINSTALACIÓN BAJO CUBIERTA\P 
 40
0.15625
 41
3.125
  0
MTEXT
  5
27F
100
AcDbEntity
  8
___NOTE
100
AcDbMText
 62
2
  6
CONTINUOUS
  7
STANDARD
 71
1
 72
1
 10
7.1382555194
 20
12.8426749982
 30
0.0
 11
1.0
 21
0.0
 31
0.0
 73
2
 44
0.9
  1
UCL1515\P \PUCL1515B
 40
0.15625
 41
1.0
  0
MTEXT
  5
280
100
AcDbEntity
  8
___NOTE
100
AcDbMText
 62
2
  6
CONTINUOUS
  7
STANDARD
 71
1
 72
1
 10
12.0273159129
 20
11.2547279421
 30
0.0
 11
1.0
 21
0.0
 31
0.0
 73
2
 44
0.9
  3
WHEN PLOTTING TEMPLATE FULL SIZE:\PMake sure horizontal and vertical dimensions\Pmatch the dimensions labeled on the template.\P \PAU MOMENT DE TRACER LA DÉCOUPE À L'ÉCHELLE,\PAssurez vos que les dimensions horizotales et\Pverticales correspondent av
  1
ec les dimensions du plan.\P \PAL TRAZAR LA PLANTILLA A ESCALA,\Pasegúrese de que las dimensiones horizontales\Py verticales concuerden con las dimensiones marcadas\Pen la plantilla.\P \P 
 40
0.15625
 41
6.625
  0
LEADER
  5
281
100
AcDbEntity
  8
___NOTE
100
AcDbLeader
 62
2
  6
CONTINUOUS
  3
STANDARD
 71
1
 72
0
 73
0
 75
0
 40
0.15625
 41
1.375
 76
3
 10
5.5436934445
 20
8.6148651874
 30
0.0
 10
7.0276201046
 20
9.9355686346
 30
0.0
 10
7.2776201046
 20
9.9355686346
 30
0.0
340
282
1001
ACAD
1000
DSTYLE
1002
{
1070
77
1070
0
1002
}
  0
MTEXT
  5
282
102
{ACAD_REACTORS
330
281
102
}
100
AcDbEntity
  8
___NOTE
100
AcDbMText
 62
2
  6
CONTINUOUS
  7
STANDARD
 71
1
 72
1
 10
7.2776201046
 20
10.0136936346
 30
0.0
 11
1.0
 21
0.0
 31
0.0
 73
2
 44
0.9
  1
RIM OF SINK\PREBORDE DE FREGADERO\PREBORD D'ÉVIER
 40
0.15625
 41
2.5
  0
LEADER
  5
283
100
AcDbEntity
  8
___NOTE
100
AcDbLeader
 62
2
  6
CONTINUOUS
  3
STANDARD
 71
1
 72
0
 73
0
 75
0
 40
0.15625
 41
3.5
 76
3
 10
18.6141934445
 20
13.5442372981
 30
0.0
 10
18.0411585482
 20
14.6675489327
 30
0.0
 10
17.7911585482
 20
14.6675489327
 30
0.0
340
284
1001
ACAD
1000
DSTYLE
1002
{
1070
77
1070
0
1002
}
  0
MTEXT
  5
284
102
{ACAD_REACTORS
330
283
102
}
100
AcDbEntity
  8
___NOTE
100
AcDbMText
 62
2
  6
CONTINUOUS
  7
STANDARD
 71
3
 72
1
 10
17.7911585482
 20
14.7456739327
 30
0.0
 11
1.0
 21
0.0
 31
0.0
 73
2
 44
0.9
  1
FOR UNDER-MOUNT INSTALLATION\PCUT ALONG THIS LINE\PPARA INSTALACIÓN DE MONTAJE POR ABAJO\PCORTE A LO LARGO DE ESTA LÍNEA\PPOUR INSTALLATION À MONTAGE SOUS PLAN\PCOUPER LE LONG DE CETTE LIGNE\P 
 40
0.15625
 41
4.625
  0
INSERT
  5
285
100
AcDbEntity
  8
___SYMBOL
100
AcDbBlockReference
 62
2
  6
CONTINUOUS
  2
SCISSORS_BL0
 10
18.6252820148
 20
12.9803152168
  0
INSERT
  5
286
100
AcDbEntity
  8
___SYMBOL
100
AcDbBlockReference
 62
2
  6
CONTINUOUS
  2
COPYRIGHT_YEAR_BL1
 10
15.5238982574
 20
7.5364679284
  0
LINE
  5
287
100
AcDbEntity
  8
0
100
AcDbLine
 62
2
  6
CONTINUOUS
 10
7.4651703224
 20
15.4919214421
 11
7.4651703224
 21
15.4331450533
  0
LINE
  5
288
100
AcDbEntity
  8
0
100
AcDbLine
 62
2
  6
CONTINUOUS
 10
7.6397981001
 20
15.1526950533
 11
7.6397981001
 21
15.1542686644
  0
LINE
  5
289
100
AcDbEntity
  8
0
100
AcDbLine
 62
2
  6
CONTINUOUS
 10
7.8984717112
 20
15.4986964421
 11
7.8752925446
 21
15.4367658866
  0
LINE
  5
28A
100
AcDbEntity
  8
0
100
AcDbLine
 62
2
  6
CONTINUOUS
 10
7.5195050446
 20
15.4367658866
 11
7.544874489
 21
15.4986964421
  0
LINE
  5
28B
100
AcDbEntity
  8
0
100
AcDbLine
 62
2
  6
CONTINUOUS
 10
8.2810606001
 20
15.2208644977
 11
8.2484550446
 21
15.1526950533
  0
LINE
  5
28C
100
AcDbEntity
  8
0
100
AcDbLine
 62
2
  6
CONTINUOUS
 10
7.7832647668
 20
15.1542686644
 11
7.7832647668
 21
15.1526950533
  0
LINE
  5
28D
100
AcDbEntity
  8
0
100
AcDbLine
 62
2
  6
CONTINUOUS
 10
7.9462967112
 20
15.1526950533
 11
7.9462967112
 21
15.1542686644
  0
LINE
  5
28E
100
AcDbEntity
  8
0
100
AcDbLine
 62
2
  6
CONTINUOUS
 10
7.9462967112
 20
15.4934881088
 11
7.9462967112
 21
15.4950547755
  0
LINE
  5
28F
100
AcDbEntity
  8
0
100
AcDbLine
 62
2
  6
CONTINUOUS
 10
8.0528161557
 20
15.4539575533
 11
8.0528161557
 21
15.3571825533
  0
LINE
  5
290
100
AcDbEntity
  8
0
100
AcDbLine
 62
2
  6
CONTINUOUS
 10
8.0528161557
 20
15.3197075533
 11
8.0528161557
 21
15.1963964421
  0
LINE
  5
291
100
AcDbEntity
  8
0
100
AcDbLine
 62
2
  6
CONTINUOUS
 10
8.1731036557
 20
15.3602950533
 11
8.1731036557
 21
15.3051533866
  0
LINE
  5
292
100
AcDbEntity
  8
0
100
AcDbLine
 62
2
  6
CONTINUOUS
 10
8.2144036557
 20
15.4976450533
 11
8.2144036557
 21
15.4367658866
  0
LINE
  5
293
100
AcDbEntity
  8
0
100
AcDbLine
 62
2
  6
CONTINUOUS
 10
8.3064175446
 20
15.1526950533
 11
8.3064175446
 21
15.1542686644
  0
LINE
  5
294
100
AcDbEntity
  8
0
100
AcDbLine
 62
2
  6
CONTINUOUS
 10
8.3064175446
 20
15.4934881088
 11
8.3064175446
 21
15.4950547755
  0
LINE
  5
295
100
AcDbEntity
  8
0
100
AcDbLine
 62
2
  6
CONTINUOUS
 10
8.4448175446
 20
15.1542686644
 11
8.4448175446
 21
15.1526950533
  0
LINE
  5
296
100
AcDbEntity
  8
0
100
AcDbLine
 62
2
  6
CONTINUOUS
 10
8.7513231001
 20
15.1526950533
 11
8.7513231001
 21
15.1542686644
  0
LINE
  5
297
100
AcDbEntity
  8
0
100
AcDbLine
 62
2
  6
CONTINUOUS
 10
8.7513231001
 20
15.4934881088
 11
8.7513231001
 21
15.4950547755
  0
LINE
  5
298
100
AcDbEntity
  8
0
100
AcDbLine
 62
2
  6
CONTINUOUS
 10
9.1530633779
 20
14.9501117199
 11
9.1350508779
 21
14.905922831
  0
LINE
  5
299
100
AcDbEntity
  8
0
100
AcDbLine
 62
2
  6
CONTINUOUS
 10
9.0868133779
 20
15.2218811644
 11
9.0491481001
 21
15.1526950533
  0
LINE
  5
29A
100
AcDbEntity
  8
0
100
AcDbLine
 62
2
  6
CONTINUOUS
 10
8.8897231001
 20
15.4950547755
 11
8.8897231001
 21
15.4934881088
  0
LINE
  5
29B
100
AcDbEntity
  8
0
100
AcDbLine
 62
2
  6
CONTINUOUS
 10
9.1165106001
 20
15.1526950533
 11
9.1165106001
 21
15.1542686644
  0
LINE
  5
29C
100
AcDbEntity
  8
0
100
AcDbLine
 62
2
  6
CONTINUOUS
 10
9.1165106001
 20
15.4934881088
 11
9.1165106001
 21
15.4950547755
  0
LINE
  5
29D
100
AcDbEntity
  8
0
100
AcDbLine
 62
2
  6
CONTINUOUS
 10
9.2541981001
 20
15.4950547755
 11
9.2541981001
 21
15.4934881088
  0
LINE
  5
29E
100
AcDbEntity
  8
0
100
AcDbLine
 62
2
  6
CONTINUOUS
 10
9.2541981001
 20
15.1542686644
 11
9.2541981001
 21
15.1526950533
  0
LINE
  5
29F
100
AcDbEntity
  8
0
100
AcDbLine
 62
2
  6
CONTINUOUS
 10
9.3309939335
 20
15.1526950533
 11
9.3309939335
 21
15.1542686644
  0
LINE
  5
2A0
100
AcDbEntity
  8
0
100
AcDbLine
 62
2
  6
CONTINUOUS
 10
9.3317203224
 20
15.4934881088
 11
9.3317203224
 21
15.4950547755
  0
LINE
  5
2A1
100
AcDbEntity
  8
0
100
AcDbLine
 62
2
  6
CONTINUOUS
 10
9.4375078224
 20
15.4950547755
 11
9.4375078224
 21
15.4945256088
  0
LINE
  5
2A2
100
AcDbEntity
  8
0
100
AcDbLine
 62
2
  6
CONTINUOUS
 10
9.4592425446
 20
15.1542686644
 11
9.4592425446
 21
15.1526950533
  0
LINE
  5
2A3
100
AcDbEntity
  8
0
100
AcDbLine
 62
2
  6
CONTINUOUS
 10
9.6860564335
 20
15.4934881088
 11
9.6860564335
 21
15.4950547755
  0
LINE
  5
2A4
100
AcDbEntity
  8
0
100
AcDbLine
 62
2
  6
CONTINUOUS
 10
9.7393064335
 20
14.8427992199
 11
9.7393064335
 21
14.9660894977
  0
LINE
  5
2A5
100
AcDbEntity
  8
0
100
AcDbLine
 62
2
  6
CONTINUOUS
 10
9.7722383779
 20
14.9375117199
 11
9.7722383779
 21
14.9137492199
  0
LINE
  5
2A6
100
AcDbEntity
  8
0
100
AcDbLine
 62
2
  6
CONTINUOUS
 10
9.7722925446
 20
14.880572831
 11
9.7722925446
 21
14.8427992199
  0
LINE
  5
2A7
100
AcDbEntity
  8
0
100
AcDbLine
 62
2
  6
CONTINUOUS
 10
9.8135925446
 20
15.4950547755
 11
9.8135925446
 21
15.4934881088
  0
LINE
  5
2A8
100
AcDbEntity
  8
0
100
AcDbLine
 62
2
  6
CONTINUOUS
 10
9.9502981001
 20
14.8863242199
 11
9.9502981001
 21
14.8888742199
  0
LINE
  5
2A9
100
AcDbEntity
  8
0
100
AcDbLine
 62
2
  6
CONTINUOUS
 10
9.9502981001
 20
14.9425575533
 11
9.9502981001
 21
14.953760331
  0
LINE
  5
2AA
100
AcDbEntity
  8
0
100
AcDbLine
 62
2
  6
CONTINUOUS
 10
9.9499453224
 20
14.8769783866
 11
9.9502981001
 21
14.8863242199
  0
LINE
  5
2AB
100
AcDbEntity
  8
0
100
AcDbLine
 62
2
  6
CONTINUOUS
 10
10.3048578224
 20
15.3254311644
 11
10.3012356001
 21
15.3030575533
  0
LINE
  5
2AC
100
AcDbEntity
  8
0
100
AcDbLine
 62
2
  6
CONTINUOUS
 10
10.0669828224
 20
14.8658297755
 11
10.0833953224
 21
14.9455283866
  0
LINE
  5
2AD
100
AcDbEntity
  8
0
100
AcDbLine
 62
2
  6
CONTINUOUS
 10
10.081061989
 20
14.9717047755
 11
10.0590217112
 21
14.8658297755
  0
LINE
  5
2AE
100
AcDbEntity
  8
0
100
AcDbLine
 62
2
  6
CONTINUOUS
 10
10.1541550446
 20
14.9717047755
 11
10.1175342112
 21
14.8813464421
  0
LINE
  5
2AF
100
AcDbEntity
  8
0
100
AcDbLine
 62
2
  6
CONTINUOUS
 10
10.1175342112
 20
14.8610006088
 11
10.1517953224
 21
14.9455283866
  0
LINE
  5
2B0
100
AcDbEntity
  8
0
100
AcDbLine
 62
2
  6
CONTINUOUS
 10
10.2604508779
 20
14.9501658866
 11
10.2424258779
 21
14.905922831
  0
LINE
  5
2B1
100
AcDbEntity
  8
0
100
AcDbLine
 62
2
  6
CONTINUOUS
 10
10.4458078224
 20
14.9088394977
 11
10.4793092112
 21
14.9662256088
  0
LINE
  5
2B2
100
AcDbEntity
  8
0
100
AcDbLine
 62
2
  6
CONTINUOUS
 10
10.4707925446
 20
14.9662256088
 11
10.4418064335
 21
14.9172075533
  0
LINE
  5
2B3
100
AcDbEntity
  8
0
100
AcDbLine
 62
2
  6
CONTINUOUS
 10
9.9502981001
 20
14.8888742199
 11
9.9486161557
 21
14.8868533866
  0
LINE
  5
2B4
100
AcDbEntity
  8
0
100
AcDbLine
 62
2
  6
CONTINUOUS
 10
7.1832953224
 20
15.1599783866
 11
7.162286989
 21
15.2250144977
  0
LINE
  5
2B5
100
AcDbEntity
  8
0
100
AcDbLine
 62
2
  6
CONTINUOUS
 10
10.1849578224
 20
14.8658297755
 11
10.1849578224
 21
14.9662256088
  0
LINE
  5
2B6
100
AcDbEntity
  8
0
100
AcDbLine
 62
2
  6
CONTINUOUS
 10
10.1930814335
 20
14.9584950533
 11
10.1930814335
 21
14.9203006088
  0
LINE
  5
2B7
100
AcDbEntity
  8
0
100
AcDbLine
 62
2
  6
CONTINUOUS
 10
10.1930814335
 20
14.9125825533
 11
10.1930814335
 21
14.8658297755
  0
LINE
  5
2B8
100
AcDbEntity
  8
0
100
AcDbLine
 62
2
  6
CONTINUOUS
 10
10.1940036557
 20
15.3254311644
 11
10.1940036557
 21
15.3269839421
  0
LINE
  5
2B9
100
AcDbEntity
  8
0
100
AcDbLine
 62
2
  6
CONTINUOUS
 10
10.2497897668
 20
15.4945256088
 11
10.2497897668
 21
15.4346908866
  0
LINE
  5
2BA
100
AcDbEntity
  8
0
100
AcDbLine
 62
2
  6
CONTINUOUS
 10
10.3012356001
 20
15.3030575533
 11
10.3012356001
 21
15.1833950533
  0
LINE
  5
2BB
100
AcDbEntity
  8
0
100
AcDbLine
 62
2
  6
CONTINUOUS
 10
10.3048578224
 20
15.3269839421
 11
10.3048578224
 21
15.3254311644
  0
LINE
  5
2BC
100
AcDbEntity
  8
0
100
AcDbLine
 62
2
  6
CONTINUOUS
 10
10.3083439335
 20
14.9688436644
 11
10.3083439335
 21
14.8658297755
  0
LINE
  5
2BD
100
AcDbEntity
  8
0
100
AcDbLine
 62
2
  6
CONTINUOUS
 10
10.3164411557
 20
14.8658297755
 11
10.3164411557
 21
14.9490547755
  0
LINE
  5
2BE
100
AcDbEntity
  8
0
100
AcDbLine
 62
2
  6
CONTINUOUS
 10
10.3314967112
 20
15.1579839421
 11
10.3314967112
 21
15.1860811644
  0
LINE
  5
2BF
100
AcDbEntity
  8
0
100
AcDbLine
 62
2
  6
CONTINUOUS
 10
10.3359717112
 20
15.1830561644
 11
10.3359717112
 21
15.173547831
  0
LINE
  5
2C0
100
AcDbEntity
  8
0
100
AcDbLine
 62
2
  6
CONTINUOUS
 10
10.3359717112
 20
15.1700825533
 11
10.3359717112
 21
15.1579839421
  0
LINE
  5
2C1
100
AcDbEntity
  8
0
100
AcDbLine
 62
2
  6
CONTINUOUS
 10
10.3452633779
 20
15.1719811644
 11
10.3452633779
 21
15.1717575533
  0
LINE
  5
2C2
100
AcDbEntity
  8
0
100
AcDbLine
 62
2
  6
CONTINUOUS
 10
10.3910939335
 20
14.9662256088
 11
10.3910939335
 21
14.881535331
  0
LINE
  5
2C3
100
AcDbEntity
  8
0
100
AcDbLine
 62
2
  6
CONTINUOUS
 10
10.3991911557
 20
14.8611506088
 11
10.3991911557
 21
14.9662256088
  0
LINE
  5
2C4
100
AcDbEntity
  8
0
100
AcDbLine
 62
2
  6
CONTINUOUS
 10
10.4458078224
 20
14.8658297755
 11
10.4458078224
 21
14.9088394977
  0
LINE
  5
2C5
100
AcDbEntity
  8
0
100
AcDbLine
 62
2
  6
CONTINUOUS
 10
10.4378328224
 20
14.9083506088
 11
10.4376842112
 21
14.8658297755
  0
LINE
  5
2C6
100
AcDbEntity
  8
0
100
AcDbLine
 62
2
  6
CONTINUOUS
 10
9.9486161557
 20
14.8868533866
 11
9.9163481001
 21
14.8721908866
  0
LINE
  5
2C7
100
AcDbEntity
  8
0
100
AcDbLine
 62
2
  6
CONTINUOUS
 10
9.1708383779
 20
14.905922831
 11
9.1530633779
 21
14.9501117199
  0
LINE
  5
2C8
100
AcDbEntity
  8
0
100
AcDbLine
 62
2
  6
CONTINUOUS
 10
10.1761689335
 20
14.8658297755
 11
10.1541550446
 21
14.9717047755
  0
LINE
  5
2C9
100
AcDbEntity
  8
0
100
AcDbLine
 62
2
  6
CONTINUOUS
 10
10.1517953224
 20
14.9455283866
 11
10.168274489
 21
14.8658297755
  0
LINE
  5
2CA
100
AcDbEntity
  8
0
100
AcDbLine
 62
2
  6
CONTINUOUS
 10
10.3012356001
 20
15.1833950533
 11
10.3048578224
 21
15.1599783866
  0
LINE
  5
2CB
100
AcDbEntity
  8
0
100
AcDbLine
 62
2
  6
CONTINUOUS
 10
8.4962703224
 20
15.2572756088
 11
8.4125391034
 21
15.4041968984
  0
LINE
  5
2CC
100
AcDbEntity
  8
0
100
AcDbLine
 62
2
  6
CONTINUOUS
 10
10.0833953224
 20
14.9455283866
 11
10.1175342112
 21
14.8610006088
  0
LINE
  5
2CD
100
AcDbEntity
  8
0
100
AcDbLine
 62
2
  6
CONTINUOUS
 10
10.1175342112
 20
14.8813464421
 11
10.081061989
 21
14.9717047755
  0
LINE
  5
2CE
100
AcDbEntity
  8
0
100
AcDbLine
 62
2
  6
CONTINUOUS
 10
10.2782189335
 20
14.905922831
 11
10.2604508779
 21
14.9501658866
  0
LINE
  5
2CF
100
AcDbEntity
  8
0
100
AcDbLine
 62
2
  6
CONTINUOUS
 10
10.3470536557
 20
15.1579839421
 11
10.3451550446
 21
15.1651464421
  0
LINE
  5
2D0
100
AcDbEntity
  8
0
100
AcDbLine
 62
2
  6
CONTINUOUS
 10
9.799811989
 20
14.8427172755
 11
9.7722925446
 21
14.880572831
  0
LINE
  5
2D1
100
AcDbEntity
  8
0
100
AcDbLine
 62
2
  6
CONTINUOUS
 10
9.8015217112
 20
14.8920339421
 11
9.836636989
 21
14.8426492199
  0
LINE
  5
2D2
100
AcDbEntity
  8
0
100
AcDbLine
 62
2
  6
CONTINUOUS
 10
10.4041953224
 20
14.9662256088
 11
10.4378328224
 21
14.9083506088
  0
LINE
  5
2D3
100
AcDbEntity
  8
0
100
AcDbLine
 62
2
  6
CONTINUOUS
 10
10.4418064335
 20
14.9172075533
 11
10.4134731001
 21
14.9662256088
  0
LINE
  5
2D4
100
AcDbEntity
  8
0
100
AcDbLine
 62
2
  6
CONTINUOUS
 10
10.3452633779
 20
15.1717575533
 11
10.3517467112
 21
15.1579839421
  0
LINE
  5
2D5
100
AcDbEntity
  8
0
100
AcDbLine
 62
2
  6
CONTINUOUS
 10
8.5846633779
 20
15.1787089421
 11
8.4962703224
 21
15.2572756088
  0
LINE
  5
2D6
100
AcDbEntity
  8
0
100
AcDbLine
 62
2
  6
CONTINUOUS
 10
9.4483925446
 20
15.4815186644
 11
9.458524489
 21
15.4711144977
  0
LINE
  5
2D7
100
AcDbEntity
  8
0
100
AcDbLine
 62
2
  6
CONTINUOUS
 10
9.4375078224
 20
15.4945256088
 11
9.4483925446
 21
15.4815186644
  0
LINE
  5
2D8
100
AcDbEntity
  8
0
100
AcDbLine
 62
2
  6
CONTINUOUS
 10
9.458524489
 20
15.4711144977
 11
9.7237356001
 21
15.2307381088
  0
LINE
  5
2D9
100
AcDbEntity
  8
0
100
AcDbLine
 62
2
  6
CONTINUOUS
 10
9.6701050446
 20
15.1953589421
 11
9.4215772668
 21
15.4216839421
  0
LINE
  5
2DA
100
AcDbEntity
  8
0
100
AcDbLine
 62
2
  6
CONTINUOUS
 10
10.3910939335
 20
14.881535331
 11
10.3083439335
 21
14.9688436644
  0
LINE
  5
2DB
100
AcDbEntity
  8
0
100
AcDbLine
 62
2
  6
CONTINUOUS
 10
10.3164411557
 20
14.9490547755
 11
10.3991911557
 21
14.8611506088
  0
LINE
  5
2DC
100
AcDbEntity
  8
0
100
AcDbLine
 62
2
  6
CONTINUOUS
 10
9.9163481001
 20
14.9597825533
 11
9.9502981001
 21
14.9425575533
  0
LINE
  5
2DD
100
AcDbEntity
  8
0
100
AcDbLine
 62
2
  6
CONTINUOUS
 10
10.3451550446
 20
15.1651464421
 11
10.3359717112
 21
15.1700825533
  0
LINE
  5
2DE
100
AcDbEntity
  8
0
100
AcDbLine
 62
2
  6
CONTINUOUS
 10
7.5470383779
 20
15.4986964421
 11
7.5745856001
 21
15.4950547755
  0
LINE
  5
2DF
100
AcDbEntity
  8
0
100
AcDbLine
 62
2
  6
CONTINUOUS
 10
8.1267231001
 20
15.4575922755
 11
8.0528161557
 21
15.4539575533
  0
LINE
  5
2E0
100
AcDbEntity
  8
0
100
AcDbLine
 62
2
  6
CONTINUOUS
 10
9.7722925446
 20
14.8427992199
 11
9.7393064335
 21
14.8427992199
  0
LINE
  5
2E1
100
AcDbEntity
  8
0
100
AcDbLine
 62
2
  6
CONTINUOUS
 10
10.1930814335
 20
14.8658297755
 11
10.1849578224
 21
14.8658297755
  0
LINE
  5
2E2
100
AcDbEntity
  8
0
100
AcDbLine
 62
2
  6
CONTINUOUS
 10
10.0590217112
 20
14.8658297755
 11
10.0669828224
 21
14.8658297755
  0
LINE
  5
2E3
100
AcDbEntity
  8
0
100
AcDbLine
 62
2
  6
CONTINUOUS
 10
10.168274489
 20
14.8658297755
 11
10.1761689335
 21
14.8658297755
  0
LINE
  5
2E4
100
AcDbEntity
  8
0
100
AcDbLine
 62
2
  6
CONTINUOUS
 10
10.3083439335
 20
14.8658297755
 11
10.3164411557
 21
14.8658297755
  0
LINE
  5
2E5
100
AcDbEntity
  8
0
100
AcDbLine
 62
2
  6
CONTINUOUS
 10
10.4376842112
 20
14.8658297755
 11
10.4458078224
 21
14.8658297755
  0
LINE
  5
2E6
100
AcDbEntity
  8
0
100
AcDbLine
 62
2
  6
CONTINUOUS
 10
9.1350508779
 20
14.905922831
 11
9.1708383779
 21
14.905922831
  0
LINE
  5
2E7
100
AcDbEntity
  8
0
100
AcDbLine
 62
2
  6
CONTINUOUS
 10
10.2424258779
 20
14.905922831
 11
10.2782189335
 21
14.905922831
  0
LINE
  5
2E8
100
AcDbEntity
  8
0
100
AcDbLine
 62
2
  6
CONTINUOUS
 10
10.2032675446
 20
14.9125825533
 11
10.1930814335
 21
14.9125825533
  0
LINE
  5
2E9
100
AcDbEntity
  8
0
100
AcDbLine
 62
2
  6
CONTINUOUS
 10
10.4793092112
 20
14.9662256088
 11
10.4707925446
 21
14.9662256088
  0
LINE
  5
2EA
100
AcDbEntity
  8
0
100
AcDbLine
 62
2
  6
CONTINUOUS
 10
10.4134731001
 20
14.9662256088
 11
10.4041953224
 21
14.9662256088
  0
LINE
  5
2EB
100
AcDbEntity
  8
0
100
AcDbLine
 62
2
  6
CONTINUOUS
 10
10.3991911557
 20
14.9662256088
 11
10.3910939335
 21
14.9662256088
  0
LINE
  5
2EC
100
AcDbEntity
  8
0
100
AcDbLine
 62
2
  6
CONTINUOUS
 10
10.1849578224
 20
14.9662256088
 11
10.2032675446
 21
14.9662256088
  0
LINE
  5
2ED
100
AcDbEntity
  8
0
100
AcDbLine
 62
2
  6
CONTINUOUS
 10
9.4592425446
 20
15.1526950533
 11
9.3309939335
 21
15.1526950533
  0
LINE
  5
2EE
100
AcDbEntity
  8
0
100
AcDbLine
 62
2
  6
CONTINUOUS
 10
9.2541981001
 20
15.1526950533
 11
9.1165106001
 21
15.1526950533
  0
LINE
  5
2EF
100
AcDbEntity
  8
0
100
AcDbLine
 62
2
  6
CONTINUOUS
 10
9.0491481001
 20
15.1526950533
 11
8.7513231001
 21
15.1526950533
  0
LINE
  5
2F0
100
AcDbEntity
  8
0
100
AcDbLine
 62
2
  6
CONTINUOUS
 10
8.7353925446
 20
15.1526950533
 11
8.6687217112
 21
15.1526950533
  0
LINE
  5
2F1
100
AcDbEntity
  8
0
100
AcDbLine
 62
2
  6
CONTINUOUS
 10
8.4448175446
 20
15.1526950533
 11
8.3064175446
 21
15.1526950533
  0
LINE
  5
2F2
100
AcDbEntity
  8
0
100
AcDbLine
 62
2
  6
CONTINUOUS
 10
8.2484550446
 20
15.1526950533
 11
7.9462967112
 21
15.1526950533
  0
LINE
  5
2F3
100
AcDbEntity
  8
0
100
AcDbLine
 62
2
  6
CONTINUOUS
 10
7.7832647668
 20
15.1526950533
 11
7.6397981001
 21
15.1526950533
  0
LINE
  5
2F4
100
AcDbEntity
  8
0
100
AcDbLine
 62
2
  6
CONTINUOUS
 10
10.3517467112
 20
15.1579839421
 11
10.3470536557
 21
15.1579839421
  0
LINE
  5
2F5
100
AcDbEntity
  8
0
100
AcDbLine
 62
2
  6
CONTINUOUS
 10
10.3359717112
 20
15.1579839421
 11
10.3314967112
 21
15.1579839421
  0
LINE
  5
2F6
100
AcDbEntity
  8
0
100
AcDbLine
 62
2
  6
CONTINUOUS
 10
8.2788911557
 20
15.2208644977
 11
8.2810606001
 21
15.2208644977
  0
LINE
  5
2F7
100
AcDbEntity
  8
0
100
AcDbLine
 62
2
  6
CONTINUOUS
 10
9.0846425446
 20
15.2218811644
 11
9.0868133779
 21
15.2218811644
  0
LINE
  5
2F8
100
AcDbEntity
  8
0
100
AcDbLine
 62
2
  6
CONTINUOUS
 10
8.1731036557
 20
15.3051533866
 11
8.1709258779
 21
15.3051533866
  0
LINE
  5
2F9
100
AcDbEntity
  8
0
100
AcDbLine
 62
2
  6
CONTINUOUS
 10
10.1940036557
 20
15.3269839421
 11
10.3048578224
 21
15.3269839421
  0
LINE
  5
2FA
100
AcDbEntity
  8
0
100
AcDbLine
 62
2
  6
CONTINUOUS
 10
8.0528161557
 20
15.3571825533
 11
8.1390383779
 21
15.3571825533
  0
LINE
  5
2FB
100
AcDbEntity
  8
0
100
AcDbLine
 62
2
  6
CONTINUOUS
 10
8.1709258779
 20
15.3602950533
 11
8.1731036557
 21
15.3602950533
  0
LINE
  5
2FC
100
AcDbEntity
  8
0
100
AcDbLine
 62
2
  6
CONTINUOUS
 10
10.2497897668
 20
15.4346908866
 11
10.2476203224
 21
15.4346908866
  0
LINE
  5
2FD
100
AcDbEntity
  8
0
100
AcDbLine
 62
2
  6
CONTINUOUS
 10
8.2144036557
 20
15.4367658866
 11
8.2122272668
 21
15.4367658866
  0
LINE
  5
2FE
100
AcDbEntity
  8
0
100
AcDbLine
 62
2
  6
CONTINUOUS
 10
7.8752925446
 20
15.4367658866
 11
7.8731147668
 21
15.4367658866
  0
LINE
  5
2FF
100
AcDbEntity
  8
0
100
AcDbLine
 62
2
  6
CONTINUOUS
 10
7.5216814335
 20
15.4367658866
 11
7.5195050446
 21
15.4367658866
  0
LINE
  5
300
100
AcDbEntity
  8
0
100
AcDbLine
 62
2
  6
CONTINUOUS
 10
7.6716647668
 20
15.4575922755
 11
7.6079036557
 21
15.4575922755
  0
LINE
  5
301
100
AcDbEntity
  8
0
100
AcDbLine
 62
2
  6
CONTINUOUS
 10
7.5745856001
 20
15.4950547755
 11
7.8629772668
 21
15.4950547755
  0
LINE
  5
302
100
AcDbEntity
  8
0
100
AcDbLine
 62
2
  6
CONTINUOUS
 10
7.9462967112
 20
15.4950547755
 11
8.1781758779
 21
15.4950547755
  0
LINE
  5
303
100
AcDbEntity
  8
0
100
AcDbLine
 62
2
  6
CONTINUOUS
 10
8.7513231001
 20
15.4950547755
 11
8.8897231001
 21
15.4950547755
  0
LINE
  5
304
100
AcDbEntity
  8
0
100
AcDbLine
 62
2
  6
CONTINUOUS
 10
9.1165106001
 20
15.4950547755
 11
9.2541981001
 21
15.4950547755
  0
LINE
  5
305
100
AcDbEntity
  8
0
100
AcDbLine
 62
2
  6
CONTINUOUS
 10
9.3317203224
 20
15.4950547755
 11
9.4375078224
 21
15.4950547755
  0
LINE
  5
306
100
AcDbEntity
  8
0
100
AcDbLine
 62
2
  6
CONTINUOUS
 10
9.6860564335
 20
15.4950547755
 11
9.8135925446
 21
15.4950547755
  0
LINE
  5
307
100
AcDbEntity
  8
0
100
AcDbLine
 62
2
  6
CONTINUOUS
 10
8.2122272668
 20
15.4976450533
 11
8.2144036557
 21
15.4976450533
  0
LINE
  5
308
100
AcDbEntity
  8
0
100
AcDbLine
 62
2
  6
CONTINUOUS
 10
7.544874489
 20
15.4986964421
 11
7.5470383779
 21
15.4986964421
  0
LINE
  5
309
100
AcDbEntity
  8
0
100
AcDbLine
 62
2
  6
CONTINUOUS
 10
7.8963022668
 20
15.4986964421
 11
7.8984717112
 21
15.4986964421
  0
LINE
  5
30A
100
AcDbEntity
  8
0
100
AcDbLine
 62
2
  6
CONTINUOUS
 10
9.836636989
 20
14.8426492199
 11
9.799811989
 21
14.8427172755
  0
LINE
  5
30B
100
AcDbEntity
  8
0
100
AcDbLine
 62
2
  6
CONTINUOUS
 10
7.8629772668
 20
15.4950547755
 11
7.8963022668
 21
15.4986964421
  0
LINE
  5
30C
100
AcDbEntity
  8
0
100
AcDbLine
 62
2
  6
CONTINUOUS
 10
8.1390383779
 20
15.3571825533
 11
8.1709258779
 21
15.3602950533
  0
LINE
  5
30D
100
AcDbEntity
  8
0
100
AcDbLine
 62
2
  6
CONTINUOUS
 10
8.1781758779
 20
15.4950547755
 11
8.2122272668
 21
15.4976450533
  0
LINE
  5
30E
100
AcDbEntity
  8
_CURVE
100
AcDbLine
 62
8
  6
PHANTOM
 10
5.5436934445
 20
7.5840172027
 11
6.9236934445
 21
6.2040172027
  0
LINE
  5
30F
100
AcDbEntity
  8
_CURVE
100
AcDbLine
 62
8
  6
PHANTOM
 10
6.9236934445
 20
17.8840172027
 11
5.5436934445
 21
16.5040172027
  0
LINE
  5
310
100
AcDbEntity
  8
_CURVE
100
AcDbLine
 62
8
  6
PHANTOM
 10
5.5436934445
 20
7.5840172027
 11
5.5436934445
 21
16.5040172027
  0
LINE
  5
311
100
AcDbEntity
  8
_CURVE
100
AcDbLine
 62
7
  6
CONTINUOUS
 10
6.6531934445
 20
9.0590172027
 11
6.6531934445
 21
15.0290172027
  0
LINE
  5
312
100
AcDbEntity
  8
_CURVE
100
AcDbLine
 62
8
  6
PHANTOM
 10
18.3436934445
 20
6.2040172027
 11
6.9236934445
 21
6.2040172027
  0
LINE
  5
313
100
AcDbEntity
  8
_CURVE
100
AcDbLine
 62
7
  6
CONTINUOUS
 10
16.8641934445
 20
7.3090172027
 11
8.4031934445
 21
7.3090172027
  0
LINE
  5
314
100
AcDbEntity
  8
_CURVE
100
AcDbLine
 62
8
  6
CENTER
 10
12.6336934445
 20
19.3840172027
 11
12.6336934445
 21
16.3840172027
  0
LINE
  5
315
100
AcDbEntity
  8
_CURVE
100
AcDbLine
 62
8
  6
CENTER
 10
12.6336934445
 20
7.5840172027
 11
12.6336934445
 21
4.8240172027
  0
LINE
  5
316
100
AcDbEntity
  8
_CURVE
100
AcDbLine
 62
8
  6
CENTER
 10
4.0436934445
 20
12.0440172027
 11
7.0436934445
 21
12.0440172027
  0
LINE
  5
317
100
AcDbEntity
  8
_CURVE
100
AcDbLine
 62
8
  6
CENTER
 10
18.3436934445
 20
12.0440172027
 11
21.1036934445
 21
12.0440172027
  0
LINE
  5
318
100
AcDbEntity
  8
_CURVE
100
AcDbLine
 62
7
  6
CONTINUOUS
 10
8.4031934445
 20
16.7790172027
 11
16.8641934445
 21
16.7790172027
  0
LINE
  5
319
100
AcDbEntity
  8
_CURVE
100
AcDbLine
 62
7
  6
CONTINUOUS
 10
18.6141934445
 20
15.0290172027
 11
18.6141934445
 21
9.0590172027
  0
LINE
  5
31A
100
AcDbEntity
  8
_CURVE
100
AcDbLine
 62
8
  6
PHANTOM
 10
6.9236934445
 20
17.8840172027
 11
18.3436934445
 21
17.8840172027
  0
LINE
  5
31B
100
AcDbEntity
  8
_CURVE
100
AcDbLine
 62
8
  6
PHANTOM
 10
19.7236934445
 20
16.5040172027
 11
19.7236934445
 21
7.5840172027
  0
LINE
  5
31C
100
AcDbEntity
  8
_CURVE
100
AcDbLine
 62
8
  6
PHANTOM
 10
18.3436934445
 20
6.2040172027
 11
19.7236934445
 21
7.5840172027
  0
LINE
  5
31D
100
AcDbEntity
  8
_CURVE
100
AcDbLine
 62
8
  6
PHANTOM
 10
19.7236934445
 20
16.5040172027
 11
18.3436934445
 21
17.8840172027
  0
ARC
  5
31E
100
AcDbEntity
  8
0
100
AcDbCircle
 62
2
  6
CONTINUOUS
 10
10.1326667936
 20
15.2417890655
 40
0.2245560651
100
AcDbArc
 50
59.208555199
 51
93.5831215674
  0
ARC
  5
31F
100
AcDbEntity
  8
0
100
AcDbCircle
 62
2
  6
CONTINUOUS
 10
9.8182165372
 20
15.3355530474
 40
0.2039397004
100
AcDbArc
 50
223.4269507726
 51
258.0242403069
  0
ARC
  5
320
100
AcDbEntity
  8
0
100
AcDbCircle
 62
2
  6
CONTINUOUS
 10
7.600833479
 20
15.2979679299
 40
0.1597808471
100
AcDbArc
 50
87.4638787987
 51
119.6947324667
  0
ARC
  5
321
100
AcDbEntity
  8
0
100
AcDbCircle
 62
2
  6
CONTINUOUS
 10
8.1410741624
 20
15.3305767431
 40
0.1278237007
100
AcDbArc
 50
56.1755396367
 51
96.4463209909
  0
ARC
  5
322
100
AcDbEntity
  8
0
100
AcDbCircle
 62
2
  6
CONTINUOUS
 10
8.6578663442
 20
15.266433482
 40
0.1142552807
100
AcDbArc
 50
230.1562195028
 51
275.4518816802
  0
ARC
  5
323
100
AcDbEntity
  8
0
100
AcDbCircle
 62
2
  6
CONTINUOUS
 10
9.9161979754
 20
14.9164189071
 40
0.0519079771
100
AcDbArc
 50
180.5675053294
 51
310.5520051654
  0
CIRCLE
  5
324
100
AcDbEntity
  8
0
100
AcDbCircle
 62
2
  6
CONTINUOUS
 10
10.0085766923
 20
14.9159874144
 40
0.0514756023
  0
ARC
  5
325
100
AcDbEntity
  8
0
100
AcDbCircle
 62
2
  6
CONTINUOUS
 10
9.9156229851
 20
14.9159126022
 40
0.0513304411
100
AcDbArc
 50
47.5048873671
 51
180.0087362707
  0
CIRCLE
  5
326
100
AcDbEntity
  8
0
100
AcDbCircle
 62
2
  6
CONTINUOUS
 10
10.0081452542
 20
14.9159867199
 40
0.043795935
  0
CIRCLE
  5
327
100
AcDbEntity
  8
0
100
AcDbCircle
 62
2
  6
CONTINUOUS
 10
9.4027450612
 20
14.9054276921
 40
0.0317997452
  0
ARC
  5
328
100
AcDbEntity
  8
0
100
AcDbCircle
 62
2
  6
CONTINUOUS
 10
10.2077661681
 20
14.939404081
 40
0.0271961756
100
AcDbArc
 50
260.4787245939
 51
99.5212754061
  0
CIRCLE
  5
329
100
AcDbEntity
  8
0
100
AcDbCircle
 62
2
  6
CONTINUOUS
 10
10.3407328224
 20
15.1736865056
 40
0.0202280646
  0
ARC
  5
32A
100
AcDbEntity
  8
_CURVE
100
AcDbCircle
 62
7
  6
CONTINUOUS
 10
8.4031934445
 20
9.0590172027
 40
1.75
100
AcDbArc
 50
180.0
 51
270.0
  0
ARC
  5
32B
100
AcDbEntity
  8
_CURVE
100
AcDbCircle
 62
7
  6
CONTINUOUS
 10
16.8641934445
 20
9.0590172027
 40
1.75
100
AcDbArc
 50
270.0
 51
360.0
  0
ARC
  5
32C
100
AcDbEntity
  8
_CURVE
100
AcDbCircle
 62
7
  6
CONTINUOUS
 10
16.8641934445
 20
15.0290172027
 40
1.75
100
AcDbArc
 50
0.0
 51
90.0
  0
ARC
  5
32D
100
AcDbEntity
  8
_CURVE
100
AcDbCircle
 62
7
  6
CONTINUOUS
 10
8.4031934445
 20
15.0290172027
 40
1.75
100
AcDbArc
 50
90.0
 51
180.0
  0
ENDSEC
  0
SECTION
  2
OBJECTS
  0
DICTIONARY
  5
C
100
AcDbDictionary
280
0
281
1
  3
ACAD_GROUP
350
D
  3
ACAD_MLINESTYLE
350
17
  3
ACAD_LAYOUT
350
1A
  3
ACAD_PLOTSETTINGS
350
19
  3
ACAD_PLOTSTYLENAME
350
E
  0
DICTIONARY
  5
D
102
{ACAD_REACTORS
330
C
102
}
100
AcDbDictionary
280
0
281
1
  0
ACDBDICTIONARYWDFLT
  5
E
102
{ACAD_REACTORS
330
C
102
}
100
AcDbDictionary
281
1
  3
Normal
350
F
100
AcDbDictionaryWithDefault
340
F
  0
DICTIONARY
  5
17
102
{ACAD_REACTORS
330
C
102
}
100
AcDbDictionary
280
0
281
1
  3
Standard
350
18
  0
DICTIONARY
  5
19
102
{ACAD_REACTORS
330
C
102
}
100
AcDbDictionary
281
1
  0
DICTIONARY
  5
1A
102
{ACAD_REACTORS
330
C
102
}
100
AcDbDictionary
281
1
  3
Model
350
32E
  3
Layout1
350
32F
  0
ACDBPLACEHOLDER
  5
F
102
{ACAD_REACTORS
330
E
102
}
  0
MLINESTYLE
  5
18
102
{ACAD_REACTORS
330
17
102
}
100
AcDbMlineStyle
  2
STANDARD
 70
0
  3

 62
256
 51
90.0
 52
90.0
 71
2
 49
0.5
 62
256
  6
BYLAYER
 49
-0.5
 62
256
  6
BYLAYER
  0
LAYOUT
  5
32E
102
{ACAD_REACTORS
330
1A
102
}
100
AcDbPlotSettings
  1

  2
none_device
  4
ANSI_D_(34.00_x_22.00_Inches)
  6

 40
0.0
 41
0.0
 42
0.0
 43
0.0
 44
863.6
 45
558.8
 46
0.0
 47
0.0
 48
0.0
 49
0.0
140
0.0
141
0.0
142
1.0
143
1.0
 70
1024
 72
0
 73
0
 74
0
  7

 75
0
147
1.0
148
0.0
149
0.0
100
AcDbLayout
  1
Model
 70
0
 71
0
 10
0.0
 20
0.0
 11
34.0
 21
22.0
 12
0.0
 22
0.0
 32
0.0
 14
0.0
 24
0.0
 34
0.0
 15
0.0
 25
0.0
 35
0.0
146
0.0
 13
0.0
 23
0.0
 33
0.0
 16
1.0
 26
0.0
 36
0.0
 17
0.0
 27
1.0
 37
0.0
 76
0
330
20B
345
0
346
0
  0
LAYOUT
  5
32F
102
{ACAD_REACTORS
330
1A
102
}
100
AcDbPlotSettings
  1

  2
none_device
  4
ANSI_D_(34.00_x_22.00_Inches)
  6

 40
0.0
 41
0.0
 42
0.0
 43
0.0
 44
863.6
 45
558.8
 46
0.0
 47
0.0
 48
0.0
 49
0.0
140
0.0
141
0.0
142
1.0
143
1.0
 70
0
 72
0
 73
0
 74
0
  7

 75
0
147
1.0
148
0.0
149
0.0
100
AcDbLayout
  1
Layout1
 70
0
 71
1
 10
0.0
 20
0.0
 11
34.0
 21
22.0
 12
0.0
 22
0.0
 32
0.0
 14
0.0
 24
0.0
 34
0.0
 15
0.0
 25
0.0
 35
0.0
146
0.0
 13
0.0
 23
0.0
 33
0.0
 16
1.0
 26
0.0
 36
0.0
 17
0.0
 27
1.0
 37
0.0
 76
0
330
20C
345
0
346
0
  0
ENDSEC
  0
EOF
