999
DXF file: 1276730-7.dxf
999
Pro/ENGINEER 2016130 by Parametric Technology Corporation
  0
SECTION
  2
HEADER
  9
$ACADVER
  1
AC1014
  9
$DWGCODEPAGE
  3
ANSI_1252
  9
$EXTMAX
 10
44.0
 20
34.0
 30
0.0
  9
$EXTMIN
 10
0.0
 20
0.0
 30
0.0
  9
$LIMMIN
 10
0.0
 20
0.0
  9
$LIMMAX
 10
44.0
 20
34.0
  9
$VIEWCTR
 10
22.0
 20
17.0
  9
$VIEWSIZE
 40
34.0
  9
$CLAYER
  8
0
  9
$LTSCALE
 40
2.42
  9
$CELTYPE
  6
BYLAYER
  9
$DIMSCALE
 40
1.0
  9
$DIMASZ
 40
0.1875
  9
$DIMEXO
 40
0.0625
  9
$DIMDLI
 40
1.672
  9
$DIMEXE
 40
0.125
  9
$DIMCEN
 40
0.396
  9
$DIMLFAC
 40
1.0
  9
$DIMBLK
  1
_ARROW_FILLED
  9
$DIMALT
 70
0
  9
$DIMALTF
 40
25.4
  9
$DIMTXT
 40
0.15625
  9
$DIMTOL
 70
1
  9
$DIMLIM
 70
0
  9
$DIMTFAC
 40
1.0
  9
$DIMTP
 40
0.01
  9
$DIMTM
 40
0.01
  9
$DIMGAP
 40
0.09
  9
$AUNITS
 70
0
  9
$PDMODE
 70
3
  9
$PDSIZE
 40
0.3125
  9
$HANDSEED
  5
34D
  9
$TILEMODE
 70
1
  9
$MEASUREMENT
 70
0
  0
ENDSEC
  0
SECTION
  2
CLASSES
  0
ENDSEC
  0
SECTION
  2
TABLES
  0
TABLE
  2
VPORT
  5
8
100
AcDbSymbolTable
 70
2
  0
VPORT
  5
1F4
100
AcDbSymbolTableRecord
100
AcDbViewportTableRecord
  2
*ACTIVE
 70
0
 10
0.0
 20
0.0
 11
1.0
 21
1.0
 12
22.0
 22
17.0
 13
0.0
 23
0.0
 14
1.0
 24
1.0
 15
0.0
 25
0.0
 16
0.0
 26
0.0
 36
1.0
 17
0.0
 27
0.0
 37
0.0
 40
34.0
 41
1.2941176471
 42
50.0
 43
0.0
 44
0.0
 50
0.0
 51
0.0
 71
0
 72
100
 73
1
 74
1
 75
0
 76
0
 77
0
 78
0
  0
ENDTAB
  0
TABLE
  2
LTYPE
  5
5
100
AcDbSymbolTable
 70
6
  0
LTYPE
  5
14
100
AcDbSymbolTableRecord
100
AcDbLinetypeTableRecord
  2
BYBLOCK
 70
0
  3

 72
65
 73
0
 40
0.0
  0
LTYPE
  5
15
100
AcDbSymbolTableRecord
100
AcDbLinetypeTableRecord
  2
BYLAYER
 70
0
  3

 72
65
 73
0
 40
0.0
  0
LTYPE
  5
16
100
AcDbSymbolTableRecord
100
AcDbLinetypeTableRecord
  2
CONTINUOUS
 70
64
  3
Solid line
 72
65
 73
0
 40
0.0
  0
LTYPE
  5
1F5
100
AcDbSymbolTableRecord
100
AcDbLinetypeTableRecord
  2
CENTER
 70
64
  3
____ _ ____ _ ____ _ ____ _ ____ _ ____ _ ____
 72
65
 73
4
 40
0.6
 49
0.375
 74
0
 49
-0.075
 74
0
 49
0.075
 74
0
 49
-0.075
 74
0
  0
LTYPE
  5
1F6
100
AcDbSymbolTableRecord
100
AcDbLinetypeTableRecord
  2
HIDDEN
 70
64
  3
- - - - - - - - - - - - - - - - - - - -
 72
65
 73
2
 40
0.2
 49
0.1
 74
0
 49
-0.1
 74
0
  0
LTYPE
  5
1F7
100
AcDbSymbolTableRecord
100
AcDbLinetypeTableRecord
  2
PHANTOM
 70
64
  3
_____ _ _ _____ _ _ _____ _ _ _____
 72
65
 73
6
 40
0.8
 49
0.45
 74
0
 49
-0.05
 74
0
 49
0.1
 74
0
 49
-0.05
 74
0
 49
0.1
 74
0
 49
-0.05
 74
0
  0
LTYPE
  5
1F8
100
AcDbSymbolTableRecord
100
AcDbLinetypeTableRecord
  2
DOT
 70
64
  3
. . . . . . . . . . . . . . . . . . . .
 72
65
 73
2
 40
0.2
 49
0.1
 74
0
 49
-0.1
 74
0
  0
LTYPE
  5
1F9
100
AcDbSymbolTableRecord
100
AcDbLinetypeTableRecord
  2
DASHED
 70
64
  3
- - - - - - - - - - - - - - - - - - - -
 72
65
 73
2
 40
0.2
 49
0.1
 74
0
 49
-0.1
 74
0
  0
ENDTAB
  0
TABLE
  2
LAYER
  5
2
100
AcDbSymbolTable
 70
36
  0
LAYER
  5
10
100
AcDbSymbolTableRecord
100
AcDbLayerTableRecord
  2
0
 70
0
 62
7
  6
CONTINUOUS
  0
LAYER
  5
1FA
100
AcDbSymbolTableRecord
100
AcDbLayerTableRecord
  2
DEFAULT_1
 70
0
 62
7
  6
CENTER
  0
LAYER
  5
1FB
100
AcDbSymbolTableRecord
100
AcDbLayerTableRecord
  2
DEFAULT_2
 70
0
 62
8
  6
HIDDEN
  0
LAYER
  5
1FC
100
AcDbSymbolTableRecord
100
AcDbLayerTableRecord
  2
DEFAULT_3
 70
0
 62
7
  6
PHANTOM
  0
LAYER
  5
1FD
100
AcDbSymbolTableRecord
100
AcDbLayerTableRecord
  2
DATUMS
 70
0
 62
7
  6
CONTINUOUS
  0
LAYER
  5
1FE
100
AcDbSymbolTableRecord
100
AcDbLayerTableRecord
  2
DATUM_AXIS
 70
0
 62
7
  6
CONTINUOUS
  0
LAYER
  5
1FF
100
AcDbSymbolTableRecord
100
AcDbLayerTableRecord
  2
DATUM_CSYS
 70
0
 62
7
  6
CONTINUOUS
  0
LAYER
  5
200
100
AcDbSymbolTableRecord
100
AcDbLayerTableRecord
  2
DATUM_PLANE
 70
0
 62
7
  6
CONTINUOUS
  0
LAYER
  5
201
100
AcDbSymbolTableRecord
100
AcDbLayerTableRecord
  2
DATUM_POINT
 70
0
 62
7
  6
CONTINUOUS
  0
LAYER
  5
202
100
AcDbSymbolTableRecord
100
AcDbLayerTableRecord
  2
_CURVE
 70
0
 62
7
  6
CONTINUOUS
  0
LAYER
  5
203
100
AcDbSymbolTableRecord
100
AcDbLayerTableRecord
  2
_SURFACE
 70
0
 62
7
  6
CONTINUOUS
  0
LAYER
  5
204
100
AcDbSymbolTableRecord
100
AcDbLayerTableRecord
  2
__REF_CURVE
 70
0
 62
7
  6
CONTINUOUS
  0
LAYER
  5
205
100
AcDbSymbolTableRecord
100
AcDbLayerTableRecord
  2
__REF_SURFACE
 70
0
 62
7
  6
CONTINUOUS
  0
LAYER
  5
206
100
AcDbSymbolTableRecord
100
AcDbLayerTableRecord
  2
___NOTE
 70
0
 62
7
  6
CONTINUOUS
  0
LAYER
  5
207
100
AcDbSymbolTableRecord
100
AcDbLayerTableRecord
  2
___SYMBOL
 70
0
 62
7
  6
CONTINUOUS
  0
ENDTAB
  0
TABLE
  2
STYLE
  5
3
100
AcDbSymbolTable
 70
1
  0
STYLE
  5
11
100
AcDbSymbolTableRecord
100
AcDbTextStyleTableRecord
  2
STANDARD
 70
0
 40
0.0
 41
0.8
 50
0.0
 71
0
 42
0.2
  3
txt
  4

  0
STYLE
  5
208
100
AcDbSymbolTableRecord
100
AcDbTextStyleTableRecord
  2
TEXTSTYLE_1
 70
0
 40
0.0
 41
0.8
 50
0.0
 71
0
 42
0.2
  3
gdt
  4

  0
STYLE
  5
209
100
AcDbSymbolTableRecord
100
AcDbTextStyleTableRecord
  2
TEXTSTYLE_2
 70
0
 40
0.0
 41
1.0
 50
0.0
 71
0
 42
0.2
  3
txt
  4

  0
ENDTAB
  0
TABLE
  2
VIEW
  5
6
100
AcDbSymbolTable
 70
0
  0
ENDTAB
  0
TABLE
  2
UCS
  5
7
100
AcDbSymbolTable
 70
0
  0
ENDTAB
  0
TABLE
  2
APPID
  5
9
100
AcDbSymbolTable
 70
1
  0
APPID
  5
20A
100
AcDbSymbolTableRecord
100
AcDbRegAppTableRecord
  2
ACAD
 70
0
  0
ENDTAB
  0
TABLE
  2
BLOCK_RECORD
  5
1
100
AcDbSymbolTable
 70
0
  0
BLOCK_RECORD
  5
1F
100
AcDbSymbolTableRecord
100
AcDbBlockTableRecord
  2
*MODEL_SPACE
  0
BLOCK_RECORD
  5
1B
100
AcDbSymbolTableRecord
100
AcDbBlockTableRecord
  2
*PAPER_SPACE
  0
BLOCK_RECORD
  5
20B
100
AcDbSymbolTableRecord
100
AcDbBlockTableRecord
  2
_ARROW_FILLED
  0
BLOCK_RECORD
  5
20C
100
AcDbSymbolTableRecord
100
AcDbBlockTableRecord
  2
*D0
  0
BLOCK_RECORD
  5
20D
100
AcDbSymbolTableRecord
100
AcDbBlockTableRecord
  2
*D1
  0
BLOCK_RECORD
  5
20E
100
AcDbSymbolTableRecord
100
AcDbBlockTableRecord
  2
*D2
  0
BLOCK_RECORD
  5
20F
100
AcDbSymbolTableRecord
100
AcDbBlockTableRecord
  2
TEMPLATE_NUMBER_BL4
  0
BLOCK_RECORD
  5
210
100
AcDbSymbolTableRecord
100
AcDbBlockTableRecord
  2
TEMPLATE_NUMBER_BL3
  0
BLOCK_RECORD
  5
211
100
AcDbSymbolTableRecord
100
AcDbBlockTableRecord
  2
COPYRIGHT_YEAR_BL2
  0
BLOCK_RECORD
  5
212
100
AcDbSymbolTableRecord
100
AcDbBlockTableRecord
  2
SCISSORS_BL1
  0
BLOCK_RECORD
  5
213
100
AcDbSymbolTableRecord
100
AcDbBlockTableRecord
  2
WHEN_PLOTTING_TEMPLATE_N_BL0
  0
ENDTAB
  0
TABLE
  2
DIMSTYLE
  5
A
100
AcDbSymbolTable
 70
1
  0
DIMSTYLE
105
214
100
AcDbSymbolTableRecord
100
AcDbDimStyleTableRecord
  2
STANDARD
 70
0
  3

  4

  5
_ARROW_FILLED
  6
_ARROW_FILLED
  7
_ARROW_FILLED
 40
1.0
 41
0.1875
 42
0.0625
 43
0.38
 44
0.125
 45
0.0
 46
0.0
 47
0.01
 48
0.01
140
0.15625
141
0.09
142
0.0
143
25.4
144
1.0
145
0.0
146
1.0
147
0.09
 71
1.0
 72
0.0
 73
1
 74
1
 75
0
 76
0
 77
0
 78
4
170
0
171
2
172
0
173
0
174
0
175
0
176
0
177
0
178
0
270
2
271
3
272
3
273
2
274
2
275
0
280
0
281
0
282
0
283
1
284
4
285
0
286
0
287
3
288
0
340
11
  0
DIMSTYLE
105
215
100
AcDbSymbolTableRecord
100
AcDbDimStyleTableRecord
  2
DIMSTYLE_1
 70
0
  3
<>
  4

  5
_ARROW_FILLED
  6
_ARROW_FILLED
  7
_ARROW_FILLED
 40
1.0
 41
0.1875
 42
0.0625
 43
0.38
 44
0.125
 45
0.0
 46
0.0
 47
0.01
 48
0.01
140
0.15625
141
0.09
142
0.0
143
25.4
144
1.0
145
0.0
146
1.0
147
0.09
 71
0.0
 72
0.0
 73
1
 74
1
 75
0
 76
0
 77
0
 78
4
170
0
171
2
172
0
173
0
174
0
175
0
176
0
177
0
178
0
270
2
271
2
272
2
273
2
274
2
275
0
280
0
281
0
282
0
283
1
284
4
285
0
286
0
287
3
288
0
340
11
  0
DIMSTYLE
105
216
100
AcDbSymbolTableRecord
100
AcDbDimStyleTableRecord
  2
DIMSTYLE_2
 70
0
  3

  4

  5
_ARROW_FILLED
  6
_ARROW_FILLED
  7
_ARROW_FILLED
 40
1.0
 41
0.1875
 42
0.0625
 43
0.38
 44
0.125
 45
0.0
 46
0.0
 47
0.0625
 48
0.0625
140
0.15625
141
0.09
142
0.0
143
25.4
144
1.0
145
0.0
146
1.0
147
0.078125
 71
0.0
 72
0.0
 73
1
 74
1
 75
0
 76
0
 77
0
 78
4
170
0
171
2
172
0
173
0
174
0
175
0
176
0
177
0
178
0
270
2
271
4
272
4
273
2
274
2
275
0
280
0
281
0
282
0
283
1
284
4
285
0
286
0
287
3
288
0
340
11
  0
ENDTAB
  0
ENDSEC
  0
SECTION
  2
BLOCKS
  0
BLOCK
  5
20
100
AcDbEntity
  8
0
100
AcDbBlockBegin
  2
*MODEL_SPACE
 70
0
 10
0.0
 20
0.0
 30
0.0
  3
*MODEL_SPACE
  1

  0
ENDBLK
  5
21
100
AcDbEntity
  8
0
100
AcDbBlockEnd
  0
BLOCK
  5
1C
100
AcDbEntity
  8
0
100
AcDbBlockBegin
  2
*PAPER_SPACE
 70
0
 10
0.0
 20
0.0
 30
0.0
  3
*PAPER_SPACE
  1

  0
ENDBLK
  5
1D
100
AcDbEntity
  8
0
100
AcDbBlockEnd
  0
BLOCK
  5
217
100
AcDbEntity
  8
___SYMBOL
100
AcDbBlockBegin
 62
2
  6
CONTINUOUS
  2
TEMPLATE_NUMBER_BL4
 70
64
 10
17.2723791706
 20
7.1338639878
  3
TEMPLATE_NUMBER_BL4
  1

  0
TEXT
  5
218
100
AcDbEntity
  8
___SYMBOL
100
AcDbText
 62
2
  6
CONTINUOUS
 10
16.5848791706
 20
7.0557389878
  7
STANDARD
 40
0.15625
  1
1276730-7
 41
0.8
 72
0
100
AcDbText
  0
TEXT
  5
219
100
AcDbEntity
  8
___SYMBOL
100
AcDbText
 62
2
  6
CONTINUOUS
 10
17.7098791706
 20
7.0557389878
  7
STANDARD
 40
0.15625
  1
-B
 41
0.8
 72
0
100
AcDbText
  0
ENDBLK
  5
21A
100
AcDbEntity
  8
0
  6
BYBLOCK
 62
0
100
AcDbBlockEnd
  0
BLOCK
  5
21B
100
AcDbEntity
  8
___SYMBOL
100
AcDbBlockBegin
 62
2
  6
CONTINUOUS
  2
TEMPLATE_NUMBER_BL3
 70
64
 10
17.2420329153
 20
9.1383193068
  3
TEMPLATE_NUMBER_BL3
  1

  0
TEXT
  5
21C
100
AcDbEntity
  8
___SYMBOL
100
AcDbText
 62
2
  6
CONTINUOUS
 10
16.5545329153
 20
9.0601943068
  7
STANDARD
 40
0.15625
  1
1276730-7
 41
0.8
 72
0
100
AcDbText
  0
TEXT
  5
21D
100
AcDbEntity
  8
___SYMBOL
100
AcDbText
 62
2
  6
CONTINUOUS
 10
17.6795329153
 20
9.0601943068
  7
STANDARD
 40
0.15625
  1
-B
 41
0.8
 72
0
100
AcDbText
  0
ENDBLK
  5
21E
100
AcDbEntity
  8
0
  6
BYBLOCK
 62
0
100
AcDbBlockEnd
  0
BLOCK
  5
21F
100
AcDbEntity
  8
___SYMBOL
100
AcDbBlockBegin
 62
2
  6
CONTINUOUS
  2
COPYRIGHT_YEAR_BL2
 70
64
 10
27.7947038069
 20
9.1515624089
  3
COPYRIGHT_YEAR_BL2
  1

  0
TEXT
  5
220
100
AcDbEntity
  8
___SYMBOL
100
AcDbText
 62
2
  6
CONTINUOUS
 10
27.0127158351
 20
9.0714744824
  7
STANDARD
 40
0.1562499562
  1
2017 KOHLER CO.
 41
0.8
 72
0
100
AcDbText
  0
TEXT
  5
221
100
AcDbEntity
  8
___SYMBOL
100
AcDbText
 62
7
  6
CONTINUOUS
 10
26.7553939081
 20
9.0738032317
  7
TEXTSTYLE_2
 40
0.1562499562
  1
C
 41
1.0
 72
0
100
AcDbText
  0
CIRCLE
  5
222
100
AcDbEntity
  8
___SYMBOL
100
AcDbCircle
 62
7
  6
CONTINUOUS
 10
26.8340493043
 20
9.1515624089
 40
0.132357
  0
ENDBLK
  5
223
100
AcDbEntity
  8
0
  6
BYBLOCK
 62
0
100
AcDbBlockEnd
  0
BLOCK
  5
224
100
AcDbEntity
  8
___SYMBOL
100
AcDbBlockBegin
 62
2
  6
CONTINUOUS
  2
SCISSORS_BL1
 70
64
 10
32.7663670407
 20
18.9250918092
  3
SCISSORS_BL1
  1

  0
LINE
  5
225
100
AcDbEntity
  8
___SYMBOL
100
AcDbLine
 62
7
  6
CONTINUOUS
 10
32.7279395296
 20
18.9662241565
 11
32.6532196808
 21
19.3353296909
  0
LINE
  5
226
100
AcDbEntity
  8
___SYMBOL
100
AcDbLine
 62
7
  6
CONTINUOUS
 10
32.6956864235
 20
18.9465567728
 11
32.6532196808
 21
19.3353296909
  0
LINE
  5
227
100
AcDbEntity
  8
___SYMBOL
100
AcDbLine
 62
7
  6
CONTINUOUS
 10
32.7461142664
 20
18.9024348285
 11
32.7450691905
 21
18.9363370997
  0
LINE
  5
228
100
AcDbEntity
  8
___SYMBOL
100
AcDbLine
 62
7
  6
CONTINUOUS
 10
32.755987658
 20
18.936790426
 11
32.7570399251
 21
18.9026548721
  0
LINE
  5
229
100
AcDbEntity
  8
___SYMBOL
100
AcDbLine
 62
7
  6
CONTINUOUS
 10
32.7520422693
 20
19.0550367259
 11
32.8771851958
 21
19.3288393703
  0
LINE
  5
22A
100
AcDbEntity
  8
___SYMBOL
100
AcDbLine
 62
7
  6
CONTINUOUS
 10
32.6759697215
 20
18.8828566588
 11
32.6976557841
 21
18.9237983708
  0
LINE
  5
22B
100
AcDbEntity
  8
___SYMBOL
100
AcDbLine
 62
7
  6
CONTINUOUS
 10
32.7968070997
 20
18.9280691246
 11
32.8771851958
 21
19.1851948664
  0
LINE
  5
22C
100
AcDbEntity
  8
___SYMBOL
100
AcDbLine
 62
7
  6
CONTINUOUS
 10
32.7772280227
 20
18.9836017474
 11
32.7279395296
 21
18.9662241565
  0
LINE
  5
22D
100
AcDbEntity
  8
___SYMBOL
100
AcDbLine
 62
7
  6
CONTINUOUS
 10
32.8132151156
 20
18.8815306611
 11
32.7750239145
 21
18.7893543126
  0
LINE
  5
22E
100
AcDbEntity
  8
___SYMBOL
100
AcDbLine
 62
7
  6
CONTINUOUS
 10
32.7118642302
 20
18.7923620524
 11
32.7412490803
 21
18.8228948536
  0
LINE
  5
22F
100
AcDbEntity
  8
___SYMBOL
100
AcDbLine
 62
7
  6
CONTINUOUS
 10
32.6532196808
 20
19.3353296909
 11
32.8132151156
 21
18.8815306611
  0
LINE
  5
230
100
AcDbEntity
  8
___SYMBOL
100
AcDbLine
 62
7
  6
CONTINUOUS
 10
32.7118642302
 20
18.7923620524
 11
32.6759697215
 21
18.8828566588
  0
ARC
  5
231
100
AcDbEntity
  8
___SYMBOL
100
AcDbCircle
 62
7
  6
CONTINUOUS
 10
32.6474291962
 20
19.2570171183
 40
0.2407202841
100
AcDbArc
 50
342.6406360869
 51
17.3593639131
  0
ARC
  5
232
100
AcDbEntity
  8
___SYMBOL
100
AcDbCircle
 62
7
  6
CONTINUOUS
 10
32.9041210692
 20
18.9531289113
 40
0.2085382328
100
AcDbArc
 50
181.8059909349
 51
231.752660067
  0
CIRCLE
  5
233
100
AcDbEntity
  8
___SYMBOL
100
AcDbCircle
 62
7
  6
CONTINUOUS
 10
32.7512344111
 20
18.9195599062
 40
0.0178741201
  0
ARC
  5
234
100
AcDbEntity
  8
___SYMBOL
100
AcDbCircle
 62
7
  6
CONTINUOUS
 10
32.857539618
 20
18.6713481745
 40
0.0097392375
100
AcDbArc
 50
185.3133793157
 51
314.0675041521
  0
ARC
  5
235
100
AcDbEntity
  8
___SYMBOL
100
AcDbCircle
 62
7
  6
CONTINUOUS
 10
32.634431888
 20
18.6663344617
 40
0.0097391571
100
AcDbArc
 50
233.3109272841
 51
359.4467240969
  0
SPLINE
  5
236
100
AcDbEntity
  8
___SYMBOL
100
AcDbSpline
 62
7
  6
CONTINUOUS
 70
0
 71
3
 72
12
 73
8
 74
0
 42
0.0000001
 43
0.0000001
 44
0.0000000001
 40
0.0
 40
0.0
 40
0.0
 40
0.0
 40
0.4884256058
 40
0.6683914397
 40
0.8669439281
 40
0.9099489479
 40
1.0
 40
1.0
 40
1.0
 40
1.0
 10
32.8323768659
 20
18.5148539276
 30
0.0
 10
32.8168913004
 20
18.5602161193
 30
0.0
 10
32.813578139
 20
18.6275657636
 30
0.0
 10
32.8146390313
 20
18.7121480473
 30
0.0
 10
32.8113830378
 20
18.7540263897
 30
0.0
 10
32.7990193707
 20
18.7846210987
 30
0.0
 10
32.7837357672
 20
18.7908382341
 30
0.0
 10
32.7750239145
 20
18.7893543126
 30
0.0
  0
SPLINE
  5
237
100
AcDbEntity
  8
___SYMBOL
100
AcDbSpline
 62
7
  6
CONTINUOUS
 70
0
 71
3
 72
14
 73
10
 74
0
 42
0.0000001
 43
0.0000001
 44
0.0000000001
 40
0.0
 40
0.0
 40
0.0
 40
0.0
 40
0.0469735811
 40
0.2606095073
 40
0.5805460666
 40
0.7382389988
 40
0.8401572415
 40
0.925087268
 40
1.0
 40
1.0
 40
1.0
 40
1.0
 10
32.8478422291
 20
18.670446291
 30
0.0
 10
32.8475259604
 20
18.6738469292
 30
0.0
 10
32.8462203024
 20
18.6927858941
 30
0.0
 10
32.8480096688
 20
18.7344796904
 30
0.0
 10
32.8519045233
 20
18.7874686961
 30
0.0
 10
32.8292695076
 20
18.8237348241
 30
0.0
 10
32.8152473369
 20
18.8451087742
 30
0.0
 10
32.8141250421
 20
18.8645623403
 30
0.0
 10
32.8140362201
 20
18.8761462203
 30
0.0
 10
32.8132151156
 20
18.8815306611
 30
0.0
  0
SPLINE
  5
238
100
AcDbEntity
  8
___SYMBOL
100
AcDbSpline
 62
7
  6
CONTINUOUS
 70
0
 71
3
 72
12
 73
8
 74
0
 42
0.0000001
 43
0.0000001
 44
0.0000000001
 40
0.0
 40
0.0
 40
0.0
 40
0.0
 40
0.2870411994
 40
0.5613888029
 40
0.7613462239
 40
0.9013972407
 40
1.0
 40
1.0
 40
1.0
 40
1.0
 10
32.6727555362
 20
18.5406249832
 30
0.0
 10
32.6788898624
 20
18.5650830802
 30
0.0
 10
32.6814299894
 20
18.6148794042
 30
0.0
 10
32.6772323885
 20
18.6819843666
 30
0.0
 10
32.6822881511
 20
18.7348804906
 30
0.0
 10
32.6850055047
 20
18.7754679378
 30
0.0
 10
32.7035412285
 20
18.7899627346
 30
0.0
 10
32.7118642302
 20
18.7923620524
 30
0.0
  0
SPLINE
  5
239
100
AcDbEntity
  8
___SYMBOL
100
AcDbSpline
 62
7
  6
CONTINUOUS
 70
0
 71
3
 72
13
 73
9
 74
0
 42
0.0000001
 43
0.0000001
 44
0.0000000001
 40
0.0
 40
0.0
 40
0.0
 40
0.0
 40
0.0902051637
 40
0.4170421866
 40
0.6587388922
 40
0.9356437381
 40
0.9595034934
 40
1.0
 40
1.0
 40
1.0
 40
1.0
 10
32.6441705911
 20
18.6662404171
 30
0.0
 10
32.6442348213
 20
18.6728917215
 30
0.0
 10
32.6440449515
 20
18.7035987327
 30
0.0
 10
32.642630212
 20
18.752769714
 30
0.0
 10
32.6528888625
 20
18.813018713
 30
0.0
 10
32.6825985909
 20
18.8519289526
 30
0.0
 10
32.6725104407
 20
18.8752386827
 30
0.0
 10
32.6738068707
 20
18.8807977187
 30
0.0
 10
32.6759697215
 20
18.8828566588
 30
0.0
  0
ELLIPSE
  5
23A
100
AcDbEntity
  8
___SYMBOL
100
AcDbEllipse
 62
7
  6
CONTINUOUS
 10
32.9121308265
 20
18.5628650183
 30
0.0
 11
0.0040444517
 21
-0.0825068144
 31
0.0
 40
0.774293327
 41
0.0
 42
6.2831853072
  0
ELLIPSE
  5
23B
100
AcDbEntity
  8
___SYMBOL
100
AcDbEllipse
 62
7
  6
CONTINUOUS
 10
32.9121308265
 20
18.5628650183
 30
0.0
 11
-0.0020222258
 21
-0.1229513312
 31
0.0
 40
0.700902774
 41
5.1250505418
 42
10.0362700851
  0
ELLIPSE
  5
23C
100
AcDbEntity
  8
___SYMBOL
100
AcDbEllipse
 62
7
  6
CONTINUOUS
 10
32.5844640022
 20
18.5714338792
 30
0.0
 11
0.0101111292
 21
-0.0819001466
 31
0.0
 40
0.7501188416
 41
0.0
 42
6.2831853072
  0
ELLIPSE
  5
23D
100
AcDbEntity
  8
___SYMBOL
100
AcDbEllipse
 62
7
  6
CONTINUOUS
 10
32.5859806715
 20
18.5577838547
 30
0.0
 11
0.0015166694
 21
-0.1157724295
 31
0.0
 40
0.7569683881
 41
2.6163261196
 42
7.6953125801
  0
ENDBLK
  5
23E
100
AcDbEntity
  8
0
  6
BYBLOCK
 62
0
100
AcDbBlockEnd
  0
BLOCK
  5
23F
100
AcDbEntity
  8
___SYMBOL
100
AcDbBlockBegin
 62
2
  6
CONTINUOUS
  2
WHEN_PLOTTING_TEMPLATE_N_BL0
 70
64
 10
16.0020063996
 20
13.544062888
  3
WHEN_PLOTTING_TEMPLATE_N_BL0
  1

  0
TEXT
  5
240
100
AcDbEntity
  8
___SYMBOL
100
AcDbText
 62
2
  6
CONTINUOUS
 10
12.6895061671
 20
14.755000473
  7
STANDARD
 40
0.156250011
  1
WHEN PLOTTING TEMPLATE FULL SIZE:
 41
0.8
 72
0
100
AcDbText
  0
TEXT
  5
241
100
AcDbEntity
  8
___SYMBOL
100
AcDbText
 62
2
  6
CONTINUOUS
 10
12.6895061671
 20
14.5206254565
  7
STANDARD
 40
0.156250011
  1
Make sure horizontal and vertical dimensions
 41
0.8
 72
0
100
AcDbText
  0
TEXT
  5
242
100
AcDbEntity
  8
___SYMBOL
100
AcDbText
 62
2
  6
CONTINUOUS
 10
12.6895061671
 20
14.2862504401
  7
STANDARD
 40
0.156250011
  1
match the dimensions labeled on the template.
 41
0.8
 72
0
100
AcDbText
  0
TEXT
  5
243
100
AcDbEntity
  8
___SYMBOL
100
AcDbText
 62
2
  6
CONTINUOUS
 10
12.6895061671
 20
14.0518754236
  7
STANDARD
 40
0.156250011
  1
 
 41
0.8
 72
0
100
AcDbText
  0
TEXT
  5
244
100
AcDbEntity
  8
___SYMBOL
100
AcDbText
 62
2
  6
CONTINUOUS
 10
12.6895061671
 20
13.8175004072
  7
STANDARD
 40
0.156250011
  1
AL TRAZAR LA PLANTILLA A ESCALA,
 41
0.8
 72
0
100
AcDbText
  0
TEXT
  5
245
100
AcDbEntity
  8
___SYMBOL
100
AcDbText
 62
2
  6
CONTINUOUS
 10
12.6895061671
 20
13.5831253907
  7
STANDARD
 40
0.156250011
  1
asegúrese de que las dimensiones horizontales
 41
0.8
 72
0
100
AcDbText
  0
TEXT
  5
246
100
AcDbEntity
  8
___SYMBOL
100
AcDbText
 62
2
  6
CONTINUOUS
 10
12.6895061671
 20
13.3487503743
  7
STANDARD
 40
0.156250011
  1
y verticales concuerden con las dimensiones marcadas
 41
0.8
 72
0
100
AcDbText
  0
TEXT
  5
247
100
AcDbEntity
  8
___SYMBOL
100
AcDbText
 62
2
  6
CONTINUOUS
 10
12.6895061671
 20
13.1143753579
  7
STANDARD
 40
0.156250011
  1
en la plantilla.
 41
0.8
 72
0
100
AcDbText
  0
TEXT
  5
248
100
AcDbEntity
  8
___SYMBOL
100
AcDbText
 62
2
  6
CONTINUOUS
 10
12.6895061671
 20
12.8800003414
  7
STANDARD
 40
0.156250011
  1
 
 41
0.8
 72
0
100
AcDbText
  0
TEXT
  5
249
100
AcDbEntity
  8
___SYMBOL
100
AcDbText
 62
2
  6
CONTINUOUS
 10
12.6895061671
 20
12.645625325
  7
STANDARD
 40
0.156250011
  1
AU MOMENT DE TRACER LA DÉCOUPE À L'ÉCHELLE,
 41
0.8
 72
0
100
AcDbText
  0
TEXT
  5
24A
100
AcDbEntity
  8
___SYMBOL
100
AcDbText
 62
2
  6
CONTINUOUS
 10
12.6895061671
 20
12.4112503085
  7
STANDARD
 40
0.156250011
  1
Assurez vos que les dimensions horizotales et
 41
0.8
 72
0
100
AcDbText
  0
TEXT
  5
24B
100
AcDbEntity
  8
___SYMBOL
100
AcDbText
 62
2
  6
CONTINUOUS
 10
12.6895061671
 20
12.1768752921
  7
STANDARD
 40
0.156250011
  1
verticales correspondent avec les dimensions du plan.
 41
0.8
 72
0
100
AcDbText
  0
ENDBLK
  5
24C
100
AcDbEntity
  8
0
  6
BYBLOCK
 62
0
100
AcDbBlockEnd
  0
BLOCK
  5
24D
100
AcDbEntity
  8
0
100
AcDbBlockBegin
  2
_ARROW_FILLED
 70
64
 10
0.0
 20
0.0
  3
_ARROW_FILLED
  1

  0
SOLID
  5
24E
100
AcDbEntity
  8
0
  6
BYBLOCK
 62
0
100
AcDbTrace
 10
0.0
 20
0.0
 11
-1.0
 21
0.1666666667
 12
-1.0
 22
-0.1666666667
 13
-1.0
 23
-0.1666666667
  0
ENDBLK
  5
24F
100
AcDbEntity
  8
0
  6
BYBLOCK
 62
0
100
AcDbBlockEnd
  0
BLOCK
  5
250
100
AcDbEntity
  8
0
100
AcDbBlockBegin
 62
2
  6
CONTINUOUS
  2
*D0
 70
65
 10
0.0
 20
0.0
  3
*D0
  1

  0
MTEXT
  5
251
100
AcDbEntity
  8
0
100
AcDbMText
 62
2
  6
CONTINUOUS
  7
STANDARD
 71
1
 72
1
 10
14.9831654606
 20
10.212505296
 30
0.0
 11
1.0
 21
0.0
 31
0.0
  1
R2.44\P[6.2]
 40
0.15625
 41
0.625
  0
LINE
  5
252
100
AcDbEntity
  8
0
100
AcDbLine
 62
2
  6
CONTINUOUS
 10
14.1554523291
 20
8.8797206076
 11
14.7331654606
 21
10.134380296
  0
LINE
  5
253
100
AcDbEntity
  8
0
100
AcDbLine
 62
2
  6
CONTINUOUS
 10
14.7331654606
 20
10.134380296
 11
14.9050404606
 21
10.134380296
  0
INSERT
  5
254
100
AcDbEntity
  8
0
100
AcDbBlockReference
 62
2
  6
CONTINUOUS
  2
_ARROW_FILLED
 10
14.1554523291
 20
8.8797206076
 41
0.1875
 42
0.1875
 43
0.1875
 50
245.2761018712
  0
ENDBLK
  5
255
100
AcDbEntity
  8
0
  6
BYBLOCK
 62
0
100
AcDbBlockEnd
  0
BLOCK
  5
256
100
AcDbEntity
  8
0
100
AcDbBlockBegin
 62
2
  6
CONTINUOUS
  2
*D1
 70
65
 10
0.0
 20
0.0
  3
*D1
  1

  0
MTEXT
  5
257
100
AcDbEntity
  8
0
100
AcDbMText
 62
2
  6
CONTINUOUS
  7
STANDARD
 71
1
 72
1
 10
21.4431336934
 20
19.2056022312
 30
0.0
 11
1.0
 21
0.0
 31
0.0
  1
19\P[48.3]
 40
0.15625
 41
0.75
  0
LINE
  5
258
100
AcDbEntity
  8
0
100
AcDbLine
 62
2
  6
CONTINUOUS
 10
21.918204262
 20
27.6560550936
 11
21.4431336934
 21
27.6560550936
  0
LINE
  5
259
100
AcDbEntity
  8
0
100
AcDbLine
 62
2
  6
CONTINUOUS
 10
21.5681336934
 20
8.6560550936
 11
21.5681336934
 21
18.7368522312
  0
LINE
  5
25A
100
AcDbEntity
  8
0
100
AcDbLine
 62
2
  6
CONTINUOUS
 10
21.5681336934
 20
27.6560550936
 11
21.5681336934
 21
19.2837272312
  0
INSERT
  5
25B
100
AcDbEntity
  8
0
100
AcDbBlockReference
 62
2
  6
CONTINUOUS
  2
_ARROW_FILLED
 10
21.5681336934
 20
8.6560550936
 41
0.1875
 42
0.1875
 43
0.1875
 50
270.0
  0
INSERT
  5
25C
100
AcDbEntity
  8
0
100
AcDbBlockReference
 62
2
  6
CONTINUOUS
  2
_ARROW_FILLED
 10
21.5681336934
 20
27.6560550936
 41
0.1875
 42
0.1875
 43
0.1875
 50
90.0
  0
ENDBLK
  5
25D
100
AcDbEntity
  8
0
  6
BYBLOCK
 62
0
100
AcDbBlockEnd
  0
BLOCK
  5
25E
100
AcDbEntity
  8
0
100
AcDbBlockBegin
 62
2
  6
CONTINUOUS
  2
*D2
 70
65
 10
0.0
 20
0.0
  3
*D2
  1

  0
MTEXT
  5
25F
100
AcDbEntity
  8
0
100
AcDbMText
 62
2
  6
CONTINUOUS
  7
STANDARD
 71
1
 72
1
 10
18.3669653878
 20
17.2748064342
 30
0.0
 11
1.0
 21
0.0
 31
0.0
  1
22\P[56]
 40
0.15625
 41
0.5
  0
LINE
  5
260
100
AcDbEntity
  8
0
100
AcDbLine
 62
2
  6
CONTINUOUS
 10
32.9807053336
 20
16.5743443265
 11
32.9807053336
 21
17.3216814342
  0
LINE
  5
261
100
AcDbEntity
  8
0
100
AcDbLine
 62
2
  6
CONTINUOUS
 10
10.9807031903
 20
16.5743443265
 11
10.9807031903
 21
17.3216814342
  0
LINE
  5
262
100
AcDbEntity
  8
0
100
AcDbLine
 62
2
  6
CONTINUOUS
 10
32.9807053336
 20
17.1966814342
 11
18.6950903878
 21
17.1966814342
  0
LINE
  5
263
100
AcDbEntity
  8
0
100
AcDbLine
 62
2
  6
CONTINUOUS
 10
10.9807031903
 20
17.1966814342
 11
18.2888403878
 21
17.1966814342
  0
INSERT
  5
264
100
AcDbEntity
  8
0
100
AcDbBlockReference
 62
2
  6
CONTINUOUS
  2
_ARROW_FILLED
 10
32.9807053336
 20
17.1966814342
 41
0.1875
 42
0.1875
 43
0.1875
  0
INSERT
  5
265
100
AcDbEntity
  8
0
100
AcDbBlockReference
 62
2
  6
CONTINUOUS
  2
_ARROW_FILLED
 10
10.9807031903
 20
17.1966814342
 41
0.1875
 42
0.1875
 43
0.1875
 50
180.0
  0
ENDBLK
  5
266
100
AcDbEntity
  8
0
  6
BYBLOCK
 62
0
100
AcDbBlockEnd
  0
ENDSEC
  0
SECTION
  2
ENTITIES
  0
SPLINE
  5
267
100
AcDbEntity
  8
0
100
AcDbSpline
 62
2
  6
CONTINUOUS
 70
0
 71
1
 72
7
 73
5
 74
0
 42
0.0000001
 43
0.0000001
 44
0.0000000001
 40
0.0
 40
0.0
 40
0.6323375
 40
4.1135388889
 40
4.7458763889
 40
8.2270777778
 40
8.2270777778
 10
14.4927007638
 20
21.5093487524
 30
0.0
 10
14.4927007638
 20
22.1416862524
 30
0.0
 10
17.9739021527
 20
22.1416862524
 30
0.0
 10
17.9739021527
 20
21.5093487524
 30
0.0
 10
14.4927007638
 20
21.5093487524
 30
0.0
  0
SPLINE
  5
268
100
AcDbEntity
  8
0
100
AcDbSpline
 62
2
  6
CONTINUOUS
 70
0
 71
1
 72
11
 73
9
 74
0
 42
0.0000001
 43
0.0000001
 44
0.0000000001
 40
0.0
 40
0.0
 40
0.1134275086
 40
0.1216747308
 40
0.1564300811
 40
0.1991078933
 40
0.2343111597
 40
0.2421375485
 40
0.3533508685
 40
0.3556574216
 40
0.3556574216
 10
16.6441702083
 20
21.4861681968
 30
0.0
 10
16.6866577083
 20
21.3809987524
 30
0.0
 10
16.6784104861
 20
21.3809987524
 30
0.0
 10
16.6657021527
 20
21.4133473635
 30
0.0
 10
16.6230243749
 20
21.4134015302
 30
0.0
 10
16.6092646527
 20
21.3809987524
 30
0.0
 10
16.6014382638
 20
21.3809987524
 30
0.0
 10
16.6433493749
 20
21.4840126413
 30
0.0
 10
16.6441702083
 20
21.4861681968
 30
0.0
  0
SPLINE
  5
269
100
AcDbEntity
  8
0
100
AcDbSpline
 62
2
  6
CONTINUOUS
 70
0
 71
1
 72
11
 73
9
 74
0
 42
0.0000001
 43
0.0000001
 44
0.0000000001
 40
0.0
 40
0.0
 40
0.11343011
 40
0.1213787211
 40
0.1562542199
 40
0.1988986988
 40
0.2341150074
 40
0.2419275074
 40
0.3531303621
 40
0.3554489868
 40
0.3554489868
 10
17.7515577083
 20
21.4861681968
 30
0.0
 10
17.7940521527
 20
21.3809987524
 30
0.0
 10
17.7861035416
 20
21.3809987524
 30
0.0
 10
17.7730702083
 20
21.4133473635
 30
0.0
 10
17.7304257638
 20
21.4134015302
 30
0.0
 10
17.7166327083
 20
21.3809987524
 30
0.0
 10
17.7088202083
 20
21.3809987524
 30
0.0
 10
17.7507035416
 20
21.4840126413
 30
0.0
 10
17.7515577083
 20
21.4861681968
 30
0.0
  0
SPLINE
  5
26A
100
AcDbEntity
  8
0
100
AcDbSpline
 62
2
  6
CONTINUOUS
 70
0
 71
3
 72
23
 73
19
 74
0
 42
0.0000001
 43
0.0000001
 44
0.0000000001
 40
0.0381944444
 40
0.0381944444
 40
0.0381944444
 40
0.0381944444
 40
0.0486388889
 40
0.0486388889
 40
0.0486388889
 40
1.0486388889
 40
1.0486388889
 40
1.0486388889
 40
2.0486388889
 40
2.0486388889
 40
2.0486388889
 40
3.0486388889
 40
3.0486388889
 40
3.0486388889
 40
4.0486388889
 40
4.0486388889
 40
4.0486388889
 40
4.0580652778
 40
4.0580652778
 40
4.0580652778
 40
4.0580652778
 10
17.6841882638
 20
21.4354695857
 30
0.0
 10
17.6876697453
 20
21.4354695857
 30
0.0
 10
17.6911512268
 20
21.4354695857
 30
0.0
 10
17.6946327083
 20
21.4354695857
 30
0.0
 10
17.7012521527
 20
21.4354695857
 30
0.0
 10
17.706646031
 20
21.4362651623
 30
0.0
 10
17.7113424305
 20
21.4406098635
 30
0.0
 10
17.7153299305
 20
21.4442987524
 30
0.0
 10
17.7174188194
 20
21.4490459746
 30
0.0
 10
17.7174188194
 20
21.4546612524
 30
0.0
 10
17.7174188194
 20
21.4609681968
 30
0.0
 10
17.7146448555
 20
21.4665518509
 30
0.0
 10
17.7103118749
 20
21.4699056968
 30
0.0
 10
17.7054563194
 20
21.4736640302
 30
0.0
 10
17.6988368749
 20
21.4736640302
 30
0.0
 10
17.6936146527
 20
21.4736640302
 30
0.0
 10
17.6904725231
 20
21.4736640302
 30
0.0
 10
17.6873303935
 20
21.4736640302
 30
0.0
 10
17.6841882638
 20
21.4736640302
 30
0.0
  0
SPLINE
  5
26B
100
AcDbEntity
  8
0
100
AcDbSpline
 62
2
  6
CONTINUOUS
 70
0
 71
3
 72
17
 73
13
 74
0
 42
0.0000001
 43
0.0000001
 44
0.0000000001
 40
0.0237625
 40
0.0237625
 40
0.0237625
 40
0.0237625
 40
0.0333111111
 40
0.0333111111
 40
0.0333111111
 40
1.0333111111
 40
1.0333111111
 40
1.0333111111
 40
2.0333111111
 40
2.0333111111
 40
2.0333111111
 40
2.0428597222
 40
2.0428597222
 40
2.0428597222
 40
2.0428597222
 10
17.2633452083
 20
21.4289181968
 30
0.0
 10
17.2665280786
 20
21.4289181968
 30
0.0
 10
17.269710949
 20
21.4289181968
 30
0.0
 10
17.2728938194
 20
21.4289181968
 30
0.0
 10
17.2793896527
 20
21.4289181968
 30
0.0
 10
17.2847340972
 20
21.4341806968
 30
0.0
 10
17.2847340972
 20
21.4407320857
 30
0.0
 10
17.2847340972
 20
21.4473237524
 30
0.0
 10
17.2793896527
 20
21.4526806968
 30
0.0
 10
17.2728938194
 20
21.4526806968
 30
0.0
 10
17.269710949
 20
21.4526806968
 30
0.0
 10
17.2665280786
 20
21.4526806968
 30
0.0
 10
17.2633452083
 20
21.4526806968
 30
0.0
  0
SPLINE
  5
26C
100
AcDbEntity
  8
0
100
AcDbSpline
 62
2
  6
CONTINUOUS
 70
0
 71
3
 72
11
 73
7
 74
0
 42
0.0000001
 43
0.0000001
 44
0.0000000001
 40
0.3382728571
 40
0.3382728571
 40
0.3382728571
 40
0.3382728571
 40
0.380549246
 40
0.380549246
 40
0.380549246
 40
1.380549246
 40
1.380549246
 40
1.380549246
 40
1.380549246
 10
17.2304132638
 20
21.4812584746
 30
0.0
 10
17.2445053935
 20
21.4812584746
 30
0.0
 10
17.2585975231
 20
21.4812584746
 30
0.0
 10
17.2726896527
 20
21.4812584746
 30
0.0
 10
17.3097993749
 20
21.4812584746
 30
0.0
 10
17.3334813194
 20
21.4346681968
 30
0.0
 10
17.2926285416
 20
21.4072029191
 30
0.0
  0
SPLINE
  5
26D
100
AcDbEntity
  8
0
100
AcDbSpline
 62
2
  6
CONTINUOUS
 70
0
 71
1
 72
15
 73
13
 74
0
 42
0.0000001
 43
0.0000001
 44
0.0000000001
 40
0.0
 40
0.0
 40
0.0284416667
 40
0.0623097655
 40
0.0817742218
 40
0.1130783884
 40
0.1407200551
 40
0.1719297773
 40
0.1907561662
 40
0.2249367218
 40
0.2538811662
 40
0.3225672773
 40
0.4459394995
 40
0.5143672773
 40
0.5143672773
 10
17.2212438194
 20
21.4812584746
 30
0.0
 10
17.2212438194
 20
21.452816808
 30
0.0
 10
17.1873757638
 20
21.4527626413
 30
0.0
 10
17.1872271527
 20
21.4332987524
 30
0.0
 10
17.2185313194
 20
21.4332987524
 30
0.0
 10
17.2185313194
 20
21.4056570857
 30
0.0
 10
17.1873215972
 20
21.4056570857
 30
0.0
 10
17.1873215972
 20
21.3868306968
 30
0.0
 10
17.2215021527
 20
21.3868306968
 30
0.0
 10
17.2215021527
 20
21.3578862524
 30
0.0
 10
17.1528160416
 20
21.3578862524
 30
0.0
 10
17.1528160416
 20
21.4812584746
 30
0.0
 10
17.2212438194
 20
21.4812584746
 30
0.0
  0
SPLINE
  5
26E
100
AcDbEntity
  8
0
100
AcDbSpline
 62
2
  6
CONTINUOUS
 70
0
 71
1
 72
16
 73
14
 74
0
 42
0.0000001
 43
0.0000001
 44
0.0000000001
 40
0.0
 40
0.0
 40
0.0762702112
 40
0.1616203838
 40
0.2062773801
 40
0.2642685662
 40
0.2643296773
 40
0.3082893996
 40
0.3420074551
 40
0.4653796773
 40
0.4990977329
 40
0.5360574551
 40
0.536321344
 40
0.5852365517
 40
0.6289171073
 40
0.6289171073
 10
16.8432868749
 20
21.481204308
 30
0.0
 10
16.7946077083
 20
21.4224890302
 30
0.0
 10
16.8503063194
 20
21.3578181968
 30
0.0
 10
16.8056493749
 20
21.3578862524
 30
0.0
 10
16.7678271527
 20
21.4018459746
 30
0.0
 10
16.7677660416
 20
21.4018459746
 30
0.0
 10
16.7677660416
 20
21.3578862524
 30
0.0
 10
16.7340479861
 20
21.3578862524
 30
0.0
 10
16.7340479861
 20
21.4812584746
 30
0.0
 10
16.7677660416
 20
21.4812584746
 30
0.0
 10
16.7677660416
 20
21.4442987524
 30
0.0
 10
16.7675021527
 20
21.4442987524
 30
0.0
 10
16.7996063194
 20
21.481204308
 30
0.0
 10
16.8432868749
 20
21.481204308
 30
0.0
  0
SPLINE
  5
26F
100
AcDbEntity
  8
0
100
AcDbSpline
 62
2
  6
CONTINUOUS
 70
0
 71
1
 72
15
 73
13
 74
0
 42
0.0000001
 43
0.0000001
 44
0.0000000001
 40
0.0
 40
0.0
 40
0.1233722222
 40
0.1570361111
 40
0.2003027778
 40
0.2343472222
 40
0.2776138889
 40
0.3112708333
 40
0.4346430556
 40
0.4683
 40
0.5141986111
 40
0.5482430556
 40
0.5941416667
 40
0.6278055556
 40
0.6278055556
 10
16.9611868749
 20
21.3578862524
 30
0.0
 10
16.9611868749
 20
21.4812584746
 30
0.0
 10
16.9948507638
 20
21.4812584746
 30
0.0
 10
16.9948507638
 20
21.437991808
 30
0.0
 10
17.0288952083
 20
21.437991808
 30
0.0
 10
17.0288952083
 20
21.4812584746
 30
0.0
 10
17.0625521527
 20
21.4812584746
 30
0.0
 10
17.0625521527
 20
21.3578862524
 30
0.0
 10
17.0288952083
 20
21.3578862524
 30
0.0
 10
17.0288952083
 20
21.4037848635
 30
0.0
 10
16.9948507638
 20
21.4037848635
 30
0.0
 10
16.9948507638
 20
21.3578862524
 30
0.0
 10
16.9611868749
 20
21.3578862524
 30
0.0
  0
SPLINE
  5
270
100
AcDbEntity
  8
0
100
AcDbSpline
 62
2
  6
CONTINUOUS
 70
0
 71
1
 72
9
 73
7
 74
0
 42
0.0000001
 43
0.0000001
 44
0.0000000001
 40
0.0
 40
0.0
 40
0.1233722222
 40
0.1570916667
 40
0.2489694444
 40
0.286825
 40
0.3183194444
 40
0.3898944444
 40
0.3898944444
 10
17.0723174305
 20
21.3578862524
 30
0.0
 10
17.0723174305
 20
21.4812584746
 30
0.0
 10
17.1060368749
 20
21.4812584746
 30
0.0
 10
17.1060368749
 20
21.3893806968
 30
0.0
 10
17.1438924305
 20
21.3893806968
 30
0.0
 10
17.1438924305
 20
21.3578862524
 30
0.0
 10
17.0723174305
 20
21.3578862524
 30
0.0
  0
SPLINE
  5
271
100
AcDbEntity
  8
0
100
AcDbSpline
 62
2
  6
CONTINUOUS
 70
0
 71
3
 72
8
 73
4
 74
0
 42
0.0000001
 43
0.0000001
 44
0.0000000001
 40
0.0506940081
 40
0.0506940081
 40
0.0506940081
 40
0.0506940081
 40
0.1856215675
 40
0.1856215675
 40
0.1856215675
 40
0.1856215675
 10
17.4074549305
 20
21.3873598635
 30
0.0
 10
17.3492005531
 20
21.3902167801
 30
0.0
 10
17.3490814391
 20
21.473845566
 30
0.0
 10
17.4074549305
 20
21.4749515302
 30
0.0
  0
SPLINE
  5
272
100
AcDbEntity
  8
0
100
AcDbSpline
 62
2
  6
CONTINUOUS
 70
0
 71
3
 72
14
 73
10
 74
0
 42
0.0000001
 43
0.0000001
 44
0.0000000001
 40
0.0
 40
0.0
 40
0.0
 40
0.0
 40
0.0987956343
 40
0.0987956343
 40
0.1968605605
 40
0.1968605605
 40
0.2954509101
 40
0.2954509101
 40
0.3933711843
 40
0.3933711843
 40
0.3933711843
 40
0.3933711843
 10
16.8270785416
 20
21.420616808
 30
0.0
 10
16.8269068595
 20
21.4559244537
 30
0.0
 10
16.8549139952
 20
21.4850274329
 30
0.0
 10
16.9258446656
 20
21.4847363257
 30
0.0
 10
16.9541460222
 20
21.4556410043
 30
0.0
 10
16.9543791862
 20
21.3852001333
 30
0.0
 10
16.926301452
 20
21.3561544364
 30
0.0
 10
16.8553759541
 20
21.3564689527
 30
0.0
 10
16.8268681567
 20
21.385275569
 30
0.0
 10
16.8270785416
 20
21.420616808
 30
0.0
  0
SPLINE
  5
273
100
AcDbEntity
  8
0
100
AcDbSpline
 62
2
  6
CONTINUOUS
 70
0
 71
3
 72
17
 73
13
 74
0
 42
0.0000001
 43
0.0000001
 44
0.0000000001
 40
0.0
 40
0.0
 40
0.0
 40
0.0
 40
0.0032416667
 40
0.0032416667
 40
0.0032416667
 40
1.0032416667
 40
1.0032416667
 40
1.0032416667
 40
2.0032416667
 40
2.0032416667
 40
2.0032416667
 40
3.0032416667
 40
3.0032416667
 40
3.0032416667
 40
3.0032416667
 10
17.8270785416
 20
21.688716808
 30
0.0
 10
17.8281590972
 20
21.688716808
 30
0.0
 10
17.8292396527
 20
21.688716808
 30
0.0
 10
17.8303202083
 20
21.688716808
 30
0.0
 10
17.8340229861
 20
21.688716808
 30
0.0
 10
17.8371563194
 20
21.6900598635
 30
0.0
 10
17.8371563194
 20
21.6935251413
 30
0.0
 10
17.8371563194
 20
21.6959945857
 30
0.0
 10
17.8353660416
 20
21.6984626413
 30
0.0
 10
17.8303202083
 20
21.6984626413
 30
0.0
 10
17.8288688194
 20
21.6984626413
 30
0.0
 10
17.8278660416
 20
21.6983404191
 30
0.0
 10
17.8270785416
 20
21.6982251413
 30
0.0
  0
SPLINE
  5
274
100
AcDbEntity
  8
0
100
AcDbSpline
 62
2
  6
CONTINUOUS
 70
0
 71
3
 72
17
 73
13
 74
0
 42
0.0000001
 43
0.0000001
 44
0.0000000001
 40
0.0325722222
 40
0.0325722222
 40
0.0325722222
 40
0.0325722222
 40
1.0325722222
 40
1.0325722222
 40
1.0325722222
 40
2.0325722222
 40
2.0325722222
 40
2.0325722222
 40
3.0325722222
 40
3.0325722222
 40
3.0325722222
 40
4.0325722222
 40
4.0325722222
 40
4.0325722222
 40
4.0325722222
 10
17.8226035416
 20
21.7012501413
 30
0.0
 10
17.8249493749
 20
21.7015959746
 30
0.0
 10
17.8271868749
 20
21.7019209746
 30
0.0
 10
17.8305507638
 20
21.7019209746
 30
0.0
 10
17.8348104861
 20
21.7019209746
 30
0.0
 10
17.837608409
 20
21.7010331705
 30
0.0
 10
17.8392854861
 20
21.6997987524
 30
0.0
 10
17.8409535416
 20
21.6985709746
 30
0.0
 10
17.8418632638
 20
21.6966584746
 30
0.0
 10
17.8418632638
 20
21.693979308
 30
0.0
 10
17.8418632638
 20
21.6902834746
 30
0.0
 10
17.8393938194
 20
21.6880390302
 30
0.0
 10
17.8363702083
 20
21.6871501413
 30
0.0
  0
SPLINE
  5
275
100
AcDbEntity
  8
0
100
AcDbSpline
 62
2
  6
CONTINUOUS
 70
0
 71
3
 72
12
 73
8
 74
0
 42
0.0000001
 43
0.0000001
 44
0.0000000001
 40
0.039009476
 40
0.039009476
 40
0.039009476
 40
0.039009476
 40
0.0793449376
 40
0.0793449376
 40
0.1196515026
 40
0.1196515026
 40
0.1957701011
 40
0.1957701011
 40
0.1957701011
 40
0.1957701011
 10
17.8566340972
 20
21.6878223635
 30
0.0
 10
17.8569674963
 20
21.6700110813
 30
0.0
 10
17.8496480375
 20
21.6625532814
 30
0.0
 10
17.8140372319
 20
21.6625136911
 30
0.0
 10
17.8070098811
 20
21.670134636
 30
0.0
 10
17.8064886199
 20
21.7209170178
 30
0.0
 10
17.8570842248
 20
21.7210225069
 30
0.0
 10
17.8566340972
 20
21.6878223635
 30
0.0
  0
SPLINE
  5
276
100
AcDbEntity
  8
0
100
AcDbSpline
 62
2
  6
CONTINUOUS
 70
0
 71
1
 72
7
 73
5
 74
0
 42
0.0000001
 43
0.0000001
 44
0.0000000001
 40
0.0
 40
0.0
 40
0.5096027778
 40
3.8794430556
 40
4.3890458333
 40
7.7588861111
 40
7.7588861111
 10
17.9169910416
 20
22.0938070857
 30
0.0
 10
17.9169910416
 20
21.584204308
 30
0.0
 10
14.5471507638
 20
21.584204308
 30
0.0
 10
14.5471507638
 20
22.0938070857
 30
0.0
 10
17.9169910416
 20
22.0938070857
 30
0.0
  0
SPLINE
  5
277
100
AcDbEntity
  8
0
100
AcDbSpline
 62
2
  6
CONTINUOUS
 70
0
 71
1
 72
7
 73
5
 74
0
 42
0.0000001
 43
0.0000001
 44
0.0000000001
 40
0.0
 40
0.0
 40
0.496175
 40
3.8525736111
 40
4.3487486111
 40
7.7051472222
 40
7.7051472222
 10
17.9102632638
 20
22.0870931968
 30
0.0
 10
17.9102632638
 20
21.5909181968
 30
0.0
 10
14.5538646527
 20
21.5909181968
 30
0.0
 10
14.5538646527
 20
22.0870931968
 30
0.0
 10
17.9102632638
 20
22.0870931968
 30
0.0
  0
SPLINE
  5
278
100
AcDbEntity
  8
0
100
AcDbSpline
 62
2
  6
CONTINUOUS
 70
0
 71
1
 72
7
 73
5
 74
0
 42
0.0000001
 43
0.0000001
 44
0.0000000001
 40
0.0
 40
0.0
 40
0.6142111111
 40
4.0886777778
 40
4.7028888889
 40
8.1773555556
 40
8.1773555556
 10
14.4948243749
 20
22.1461154191
 30
0.0
 10
14.4948243749
 20
21.531904308
 30
0.0
 10
17.9692910416
 20
21.531904308
 30
0.0
 10
17.9692910416
 20
22.1461154191
 30
0.0
 10
14.4948243749
 20
22.1461154191
 30
0.0
  0
SPLINE
  5
279
100
AcDbEntity
  8
0
100
AcDbSpline
 62
2
  6
CONTINUOUS
 70
0
 71
3
 72
14
 73
10
 74
0
 42
0.0000001
 43
0.0000001
 44
0.0000000001
 40
0.1363871571
 40
0.1363871571
 40
0.1363871571
 40
0.1363871571
 40
1.1363871571
 40
1.1363871571
 40
1.1363871571
 40
2.1363871571
 40
2.1363871571
 40
2.1363871571
 40
3.1363871571
 40
3.1363871571
 40
3.1363871571
 40
3.1363871571
 10
17.6097396527
 20
21.9810751413
 30
0.0
 10
17.4967021527
 20
21.9810751413
 30
0.0
 10
17.4104799305
 20
21.9280084746
 30
0.0
 10
17.4104799305
 20
21.8442487524
 30
0.0
 10
17.4104799305
 20
21.7604806968
 30
0.0
 10
17.5032257638
 20
21.6970112524
 30
0.0
 10
17.6177146527
 20
21.6970112524
 30
0.0
 10
17.6510535416
 20
21.6970112524
 30
0.0
 10
17.6858299305
 20
21.7001306968
 30
0.0
 10
17.7184368749
 20
21.7068848635
 30
0.0
  0
SPLINE
  5
27A
100
AcDbEntity
  8
0
100
AcDbSpline
 62
2
  6
CONTINUOUS
 70
0
 71
3
 72
11
 73
7
 74
0
 42
0.0000001
 43
0.0000001
 44
0.0000000001
 40
3.1363871571
 40
3.1363871571
 40
3.1363871571
 40
3.1363871571
 40
3.2113121571
 40
3.2113121571
 40
3.2113121571
 40
4.2113121571
 40
4.2113121571
 40
4.2113121571
 40
4.2113121571
 10
17.7184368749
 20
21.7068848635
 30
0.0
 10
17.7184368749
 20
21.7318598635
 30
0.0
 10
17.7184368749
 20
21.7568348635
 30
0.0
 10
17.7184368749
 20
21.7818098635
 30
0.0
 10
17.7184368749
 20
21.8057487524
 30
0.0
 10
17.7177035416
 20
21.8312348635
 30
0.0
 10
17.6851104861
 20
21.8406001413
 30
0.0
  0
SPLINE
  5
27B
100
AcDbEntity
  8
0
100
AcDbSpline
 62
2
  6
CONTINUOUS
 70
0
 71
3
 72
17
 73
13
 74
0
 42
0.0000001
 43
0.0000001
 44
0.0000000001
 40
4.4917022773
 40
4.4917022773
 40
4.4917022773
 40
4.4917022773
 40
5.4917022773
 40
5.4917022773
 40
5.4917022773
 40
6.4917022773
 40
6.4917022773
 40
6.4917022773
 40
7.4917022773
 40
7.4917022773
 40
7.4917022773
 40
8.4917022773
 40
8.4917022773
 40
8.4917022773
 40
8.4917022773
 10
17.7959646527
 20
21.6751473635
 30
0.0
 10
17.7380077083
 20
21.6673612524
 30
0.0
 10
17.6814896527
 20
21.6595362524
 30
0.0
 10
17.6228007638
 20
21.6595362524
 30
0.0
 10
17.4372952083
 20
21.6595362524
 30
0.0
 10
17.3278785416
 20
21.732391808
 30
0.0
 10
17.3278785416
 20
21.8369515302
 30
0.0
 10
17.3278785416
 20
21.9488154191
 30
0.0
 10
17.4517799305
 20
22.0185445857
 30
0.0
 10
17.6271410416
 20
22.0185445857
 30
0.0
 10
17.6655396527
 20
22.0185445857
 30
0.0
 10
17.7032188194
 20
22.0154181968
 30
0.0
 10
17.7408965972
 20
22.0096945857
 30
0.0
  0
SPLINE
  5
27C
100
AcDbEntity
  8
0
100
AcDbSpline
 62
2
  6
CONTINUOUS
 70
0
 71
3
 72
14
 73
10
 74
0
 42
0.0000001
 43
0.0000001
 44
0.0000000001
 40
0.1313958333
 40
0.1313958333
 40
0.1313958333
 40
0.1313958333
 40
1.1313958333
 40
1.1313958333
 40
1.1313958333
 40
1.3390027778
 40
1.3390027778
 40
1.3390027778
 40
2.3390027778
 40
2.3390027778
 40
2.3390027778
 40
2.3390027778
 10
16.8221007638
 20
21.6694376413
 30
0.0
 10
16.8605063194
 20
21.6855501413
 30
0.0
 10
16.8605063194
 20
21.7063765302
 30
0.0
 10
16.8605063194
 20
21.735504308
 30
0.0
 10
16.8605063194
 20
21.8047066228
 30
0.0
 10
16.8605063194
 20
21.8739089376
 30
0.0
 10
16.8605063194
 20
21.9431112524
 30
0.0
 10
16.8605063194
 20
21.9722390302
 30
0.0
 10
16.8605063194
 20
21.9930584746
 30
0.0
 10
16.8228271527
 20
22.0086570857
 30
0.0
  0
SPLINE
  5
27D
100
AcDbEntity
  8
0
100
AcDbSpline
 62
2
  6
CONTINUOUS
 70
0
 71
3
 72
11
 73
7
 74
0
 42
0.0000001
 43
0.0000001
 44
0.0000000001
 40
3.819343998
 40
3.819343998
 40
3.819343998
 40
3.819343998
 40
4.0165481647
 40
4.0165481647
 40
4.0165481647
 40
5.0165481647
 40
5.0165481647
 40
5.0165481647
 40
5.0165481647
 10
17.2148424305
 20
21.7459070857
 30
0.0
 10
17.2148424305
 20
21.811641808
 30
0.0
 10
17.2148424305
 20
21.8773765302
 30
0.0
 10
17.2148424305
 20
21.9431112524
 30
0.0
 10
17.2148424305
 20
21.9722390302
 30
0.0
 10
17.2155604861
 20
21.9930584746
 30
0.0
 10
17.1771632638
 20
22.0086570857
 30
0.0
  0
SPLINE
  5
27E
100
AcDbEntity
  8
0
100
AcDbSpline
 62
2
  6
CONTINUOUS
 70
0
 71
3
 72
11
 73
7
 74
0
 42
0.0000001
 43
0.0000001
 44
0.0000000001
 40
5.1472176091
 40
5.1472176091
 40
5.1472176091
 40
5.1472176091
 40
6.1472176091
 40
6.1472176091
 40
6.1472176091
 40
6.4391078869
 40
6.4391078869
 40
6.4391078869
 40
6.4391078869
 10
17.3046993749
 20
22.0086570857
 30
0.0
 10
17.2670063194
 20
21.9930584746
 30
0.0
 10
17.2670063194
 20
21.9722390302
 30
0.0
 10
17.2670063194
 20
21.9431112524
 30
0.0
 10
17.2670063194
 20
21.8458144931
 30
0.0
 10
17.2670063194
 20
21.7485177339
 30
0.0
 10
17.2670063194
 20
21.6512209746
 30
0.0
  0
SPLINE
  5
27F
100
AcDbEntity
  8
0
100
AcDbSpline
 62
2
  6
CONTINUOUS
 70
0
 71
3
 72
11
 73
7
 74
0
 42
0.0000001
 43
0.0000001
 44
0.0000000001
 40
6.8979254112
 40
6.8979254112
 40
6.8979254112
 40
6.8979254112
 40
7.0992740223
 40
7.0992740223
 40
7.0992740223
 40
8.0992740223
 40
8.0992740223
 40
8.0992740223
 40
8.0992740223
 10
16.9126840972
 20
21.9368529191
 30
0.0
 10
16.9126840972
 20
21.8697367154
 30
0.0
 10
16.9126840972
 20
21.8026205117
 30
0.0
 10
16.9126840972
 20
21.735504308
 30
0.0
 10
16.9126840972
 20
21.7063765302
 30
0.0
 10
16.9119590972
 20
21.6855501413
 30
0.0
 10
16.9503493749
 20
21.6694376413
 30
0.0
  0
SPLINE
  5
280
100
AcDbEntity
  8
0
100
AcDbSpline
 62
2
  6
CONTINUOUS
 70
0
 71
3
 72
14
 73
10
 74
0
 42
0.0000001
 43
0.0000001
 44
0.0000000001
 40
0.1408208333
 40
0.1408208333
 40
0.1408208333
 40
0.1408208333
 40
1.1408208333
 40
1.1408208333
 40
1.1408208333
 40
1.3369611111
 40
1.3369611111
 40
1.3369611111
 40
2.3369611111
 40
2.3369611111
 40
2.3369611111
 40
2.3369611111
 10
16.7453049305
 20
22.0086570857
 30
0.0
 10
16.7090840972
 20
21.9987695857
 30
0.0
 10
16.7134049305
 20
21.9602695857
 30
0.0
 10
16.7134049305
 20
21.9368529191
 30
0.0
 10
16.7134049305
 20
21.8714728265
 30
0.0
 10
16.7134049305
 20
21.8060927339
 30
0.0
 10
16.7134049305
 20
21.7407126413
 30
0.0
 10
16.7134049305
 20
21.7173084746
 30
0.0
 10
16.7090840972
 20
21.6793251413
 30
0.0
 10
16.7453049305
 20
21.6694376413
 30
0.0
  0
SPLINE
  5
281
100
AcDbEntity
  8
0
100
AcDbSpline
 62
2
  6
CONTINUOUS
 70
0
 71
3
 72
14
 73
10
 74
0
 42
0.0000001
 43
0.0000001
 44
0.0000000001
 40
2.4777958333
 40
2.4777958333
 40
2.4777958333
 40
2.4777958333
 40
3.4777958333
 40
3.4777958333
 40
3.4777958333
 40
3.6739361111
 40
3.6739361111
 40
3.6739361111
 40
4.6739361111
 40
4.6739361111
 40
4.6739361111
 40
4.6739361111
 10
16.6076174305
 20
21.6694376413
 30
0.0
 10
16.6438507638
 20
21.6787959746
 30
0.0
 10
16.6395049305
 20
21.7173084746
 30
0.0
 10
16.6395049305
 20
21.7407126413
 30
0.0
 10
16.6395049305
 20
21.8060927339
 30
0.0
 10
16.6395049305
 20
21.8714728265
 30
0.0
 10
16.6395049305
 20
21.9368529191
 30
0.0
 10
16.6395049305
 20
21.960791808
 30
0.0
 10
16.6445840972
 20
21.9987695857
 30
0.0
 10
16.6076174305
 20
22.0086570857
 30
0.0
  0
SPLINE
  5
282
100
AcDbEntity
  8
0
100
AcDbSpline
 62
2
  6
CONTINUOUS
 70
0
 71
3
 72
14
 73
10
 74
0
 42
0.0000001
 43
0.0000001
 44
0.0000000001
 40
0.3803437494
 40
0.3803437494
 40
0.3803437494
 40
0.3803437494
 40
1.3803437494
 40
1.3803437494
 40
1.3803437494
 40
1.5764840272
 40
1.5764840272
 40
1.5764840272
 40
2.5764840272
 40
2.5764840272
 40
2.5764840272
 40
2.5764840272
 10
16.2424299305
 20
21.6694376413
 30
0.0
 10
16.2793827083
 20
21.6787959746
 30
0.0
 10
16.2750368749
 20
21.7173084746
 30
0.0
 10
16.2750368749
 20
21.7407126413
 30
0.0
 10
16.2750368749
 20
21.8060927339
 30
0.0
 10
16.2750368749
 20
21.8714728265
 30
0.0
 10
16.2750368749
 20
21.9368529191
 30
0.0
 10
16.2750368749
 20
21.960791808
 30
0.0
 10
16.2793827083
 20
21.9987695857
 30
0.0
 10
16.2424299305
 20
22.0086570857
 30
0.0
  0
SPLINE
  5
283
100
AcDbEntity
  8
0
100
AcDbSpline
 62
2
  6
CONTINUOUS
 70
0
 71
3
 72
11
 73
7
 74
0
 42
0.0000001
 43
0.0000001
 44
0.0000000001
 40
2.7180173605
 40
2.7180173605
 40
2.7180173605
 40
2.7180173605
 40
3.7180173605
 40
3.7180173605
 40
3.7180173605
 40
3.9448520827
 40
3.9448520827
 40
3.9448520827
 40
3.9448520827
 10
16.3808299305
 20
22.0086570857
 30
0.0
 10
16.3438771527
 20
21.9987695857
 30
0.0
 10
16.3489493749
 20
21.9602695857
 30
0.0
 10
16.3489493749
 20
21.9368529191
 30
0.0
 10
16.3489493749
 20
21.861241345
 30
0.0
 10
16.3489493749
 20
21.7856297709
 30
0.0
 10
16.3489493749
 20
21.7100181968
 30
0.0
  0
SPLINE
  5
284
100
AcDbEntity
  8
0
100
AcDbSpline
 62
2
  6
CONTINUOUS
 70
0
 71
3
 72
8
 73
4
 74
0
 42
0.0000001
 43
0.0000001
 44
0.0000000001
 40
3.9448520827
 40
3.9448520827
 40
3.9448520827
 40
3.9448520827
 40
4.1770975516
 40
4.1770975516
 40
4.1770975516
 40
4.1770975516
 10
16.3489493749
 20
21.7100181968
 30
0.0
 10
16.4270771045
 20
21.7063084731
 30
0.0
 10
16.4995245079
 20
21.6914007063
 30
0.0
 10
16.5757493749
 20
21.7370501413
 30
0.0
  0
SPLINE
  5
285
100
AcDbEntity
  8
0
100
AcDbSpline
 62
2
  6
CONTINUOUS
 70
0
 71
3
 72
11
 73
7
 74
0
 42
0.0000001
 43
0.0000001
 44
0.0000000001
 40
0.0
 40
0.0
 40
0.0
 40
0.0
 40
0.140550031
 40
0.140550031
 40
0.140550031
 40
1.140550031
 40
1.140550031
 40
1.140550031
 40
1.140550031
 10
16.0047660416
 20
21.8348765302
 30
0.0
 10
16.0395470601
 20
21.8034885672
 30
0.0
 10
16.0743280786
 20
21.7721006043
 30
0.0
 10
16.1091090972
 20
21.7407126413
 30
0.0
 10
16.1395382638
 20
21.7136473635
 30
0.0
 10
16.1851854861
 20
21.6865945857
 30
0.0
 10
16.2264993749
 20
21.6678640302
 30
0.0
  0
SPLINE
  5
286
100
AcDbEntity
  8
0
100
AcDbSpline
 62
2
  6
CONTINUOUS
 70
0
 71
3
 72
14
 73
10
 74
0
 42
0.0000001
 43
0.0000001
 44
0.0000000001
 40
1.5143546326
 40
1.5143546326
 40
1.5143546326
 40
1.5143546326
 40
2.0459541232
 40
2.0459541232
 40
2.5487056352
 40
2.5487056352
 40
3.0207171483
 40
3.0207171483
 40
3.5638184132
 40
3.5638184132
 40
3.5638184132
 40
3.5638184132
 10
15.9207063194
 20
21.8458084746
 30
0.0
 10
15.9483775113
 20
21.8487864807
 30
0.0
 10
15.9747550005
 20
21.85344767
 30
0.0
 10
16.0250782563
 20
21.8757617922
 30
0.0
 10
16.0501462867
 20
21.8951207668
 30
0.0
 10
16.0413532306
 20
21.9562256176
 30
0.0
 10
16.0098985669
 20
21.970547688
 30
0.0
 10
15.957373974
 20
21.9810191225
 30
0.0
 10
15.9308108032
 20
21.9774298014
 30
0.0
 10
15.9033188194
 20
21.9737987524
 30
0.0
  0
SPLINE
  5
287
100
AcDbEntity
  8
0
100
AcDbSpline
 62
2
  6
CONTINUOUS
 70
0
 71
3
 72
11
 73
7
 74
0
 42
0.0000001
 43
0.0000001
 44
0.0000000001
 40
3.5638184132
 40
3.5638184132
 40
3.5638184132
 40
3.5638184132
 40
3.7969045243
 40
3.7969045243
 40
3.7969045243
 40
4.7969045243
 40
4.7969045243
 40
4.7969045243
 40
4.7969045243
 10
15.9033188194
 20
21.9737987524
 30
0.0
 10
15.9033188194
 20
21.896103382
 30
0.0
 10
15.9033188194
 20
21.8184080117
 30
0.0
 10
15.9033188194
 20
21.7407126413
 30
0.0
 10
15.9033188194
 20
21.7167806968
 30
0.0
 10
15.8989715972
 20
21.6787959746
 30
0.0
 10
15.9359243749
 20
21.6694376413
 30
0.0
  0
SPLINE
  5
288
100
AcDbEntity
  8
0
100
AcDbSpline
 62
2
  6
CONTINUOUS
 70
0
 71
3
 72
14
 73
10
 74
0
 42
0.0000001
 43
0.0000001
 44
0.0000000001
 40
4.9384517465
 40
4.9384517465
 40
4.9384517465
 40
4.9384517465
 40
5.9384517465
 40
5.9384517465
 40
5.9384517465
 40
6.1345920243
 40
6.1345920243
 40
6.1345920243
 40
7.1345920243
 40
7.1345920243
 40
7.1345920243
 40
7.1345920243
 10
15.7975243749
 20
21.6694376413
 30
0.0
 10
15.8344771527
 20
21.6787959746
 30
0.0
 10
15.8294118749
 20
21.7173084746
 30
0.0
 10
15.8294118749
 20
21.7407126413
 30
0.0
 10
15.8294118749
 20
21.8060927339
 30
0.0
 10
15.8294118749
 20
21.8714728265
 30
0.0
 10
15.8294118749
 20
21.9368529191
 30
0.0
 10
15.8294118749
 20
21.960791808
 30
0.0
 10
15.8344771527
 20
21.9987695857
 30
0.0
 10
15.7975243749
 20
22.0086570857
 30
0.0
  0
SPLINE
  5
289
100
AcDbEntity
  8
0
100
AcDbSpline
 62
2
  6
CONTINUOUS
 70
0
 71
3
 72
14
 73
10
 74
0
 42
0.0000001
 43
0.0000001
 44
0.0000000001
 40
7.136158691
 40
7.136158691
 40
7.136158691
 40
7.136158691
 40
7.3086100798
 40
7.3086100798
 40
7.3086100798
 40
8.3086100798
 40
8.3086100798
 40
8.3086100798
 40
9.3086100798
 40
9.3086100798
 40
9.3086100798
 40
9.3086100798
 10
15.7975243749
 20
22.0102237524
 30
0.0
 10
15.8550081712
 20
22.0102237524
 30
0.0
 10
15.9124919675
 20
22.0102237524
 30
0.0
 10
15.9699757638
 20
22.0102237524
 30
0.0
 10
16.0670827083
 20
22.0102237524
 30
0.0
 10
16.1199799305
 20
21.9737987524
 30
0.0
 10
16.1199799305
 20
21.9264487524
 30
0.0
 10
16.1199799305
 20
21.8806723635
 30
0.0
 10
16.0641868749
 20
21.8447709746
 30
0.0
 10
16.0047660416
 20
21.8348765302
 30
0.0
  0
SPLINE
  5
28A
100
AcDbEntity
  8
0
100
AcDbSpline
 62
2
  6
CONTINUOUS
 70
0
 71
3
 72
8
 73
4
 74
0
 42
0.0000001
 43
0.0000001
 44
0.0000000001
 40
0.0
 40
0.0
 40
0.0
 40
0.0
 40
0.2313461135
 40
0.2313461135
 40
0.2313461135
 40
0.2313461135
 10
15.5439229861
 20
21.7115654191
 30
0.0
 10
15.6218505668
 20
21.7062926194
 30
0.0
 10
15.6936266202
 20
21.6915005425
 30
0.0
 10
15.7699979861
 20
21.7360334746
 30
0.0
  0
SPLINE
  5
28B
100
AcDbEntity
  8
0
100
AcDbSpline
 62
2
  6
CONTINUOUS
 70
0
 71
3
 72
14
 73
10
 74
0
 42
0.0000001
 43
0.0000001
 44
0.0000000001
 40
0.6128133373
 40
0.6128133373
 40
0.6128133373
 40
0.6128133373
 40
1.6128133373
 40
1.6128133373
 40
1.6128133373
 40
1.8089536151
 40
1.8089536151
 40
1.8089536151
 40
2.8089536151
 40
2.8089536151
 40
2.8089536151
 40
2.8089536151
 10
15.4374035416
 20
21.6694376413
 30
0.0
 10
15.4743563194
 20
21.6787959746
 30
0.0
 10
15.4700090972
 20
21.7173084746
 30
0.0
 10
15.4700090972
 20
21.7407126413
 30
0.0
 10
15.4700090972
 20
21.8060927339
 30
0.0
 10
15.4700090972
 20
21.8714728265
 30
0.0
 10
15.4700090972
 20
21.9368529191
 30
0.0
 10
15.4700090972
 20
21.960791808
 30
0.0
 10
15.4743563194
 20
21.9987695857
 30
0.0
 10
15.4374035416
 20
22.0086570857
 30
0.0
  0
SPLINE
  5
28C
100
AcDbEntity
  8
0
100
AcDbSpline
 62
2
  6
CONTINUOUS
 70
0
 71
3
 72
11
 73
7
 74
0
 42
0.0000001
 43
0.0000001
 44
0.0000000001
 40
3.5799535043
 40
3.5799535043
 40
3.5799535043
 40
3.5799535043
 40
4.5799535043
 40
4.5799535043
 40
4.5799535043
 40
4.6335771155
 40
4.6335771155
 40
4.6335771155
 40
4.6335771155
 10
15.6620327083
 20
21.8203223635
 30
0.0
 10
15.6504368749
 20
21.8354056968
 30
0.0
 10
15.6200063194
 20
21.8348765302
 30
0.0
 10
15.5975465972
 20
21.8348765302
 30
0.0
 10
15.5796720601
 20
21.8348765302
 30
0.0
 10
15.5617975231
 20
21.8348765302
 30
0.0
 10
15.5439229861
 20
21.8348765302
 30
0.0
  0
SPLINE
  5
28D
100
AcDbEntity
  8
0
100
AcDbSpline
 62
2
  6
CONTINUOUS
 70
0
 71
3
 72
11
 73
7
 74
0
 42
0.0000001
 43
0.0000001
 44
0.0000000001
 40
0.1466138889
 40
0.1466138889
 40
0.1466138889
 40
0.1466138889
 40
1.1466138889
 40
1.1466138889
 40
1.1466138889
 40
1.3786625
 40
1.3786625
 40
1.3786625
 40
1.3786625
 10
15.1309049305
 20
21.6694376413
 30
0.0
 10
15.1671257638
 20
21.6793251413
 30
0.0
 10
15.1627715972
 20
21.7173084746
 30
0.0
 10
15.1627715972
 20
21.7407126413
 30
0.0
 10
15.1627715972
 20
21.8180621783
 30
0.0
 10
15.1627715972
 20
21.8954117154
 30
0.0
 10
15.1627715972
 20
21.9727612524
 30
0.0
  0
SPLINE
  5
28E
100
AcDbEntity
  8
0
100
AcDbSpline
 62
2
  6
CONTINUOUS
 70
0
 71
3
 72
11
 73
7
 74
0
 42
0.0000001
 43
0.0000001
 44
0.0000000001
 40
2.0235770463
 40
2.0235770463
 40
2.0235770463
 40
2.0235770463
 40
3.0235770463
 40
3.0235770463
 40
3.0235770463
 40
3.0888034352
 40
3.0888034352
 40
3.0888034352
 40
3.0888034352
 10
15.3642215972
 20
21.9519348635
 30
0.0
 10
15.3548090972
 20
21.9701431968
 30
0.0
 10
15.3258174305
 20
21.9727612524
 30
0.0
 10
15.3019118749
 20
21.9727612524
 30
0.0
 10
15.2801697453
 20
21.9727612524
 30
0.0
 10
15.2584276157
 20
21.9727612524
 30
0.0
 10
15.2366854861
 20
21.9727612524
 30
0.0
  0
SPLINE
  5
28F
100
AcDbEntity
  8
0
100
AcDbSpline
 62
2
  6
CONTINUOUS
 70
0
 71
3
 72
11
 73
7
 74
0
 42
0.0000001
 43
0.0000001
 44
0.0000000001
 40
3.0888034352
 40
3.0888034352
 40
3.0888034352
 40
3.0888034352
 40
3.3260603796
 40
3.3260603796
 40
3.3260603796
 40
4.3260603796
 40
4.3260603796
 40
4.3260603796
 40
4.3260603796
 10
15.2366854861
 20
21.9727612524
 30
0.0
 10
15.2366854861
 20
21.8936756043
 30
0.0
 10
15.2366854861
 20
21.8145899561
 30
0.0
 10
15.2366854861
 20
21.735504308
 30
0.0
 10
15.2366854861
 20
21.7058473635
 30
0.0
 10
15.2359674305
 20
21.6855501413
 30
0.0
 10
15.2743715972
 20
21.6694376413
 30
0.0
  0
SPLINE
  5
290
100
AcDbEntity
  8
0
100
AcDbSpline
 62
2
  6
CONTINUOUS
 70
0
 71
3
 72
18
 73
14
 74
0
 42
0.0000001
 43
0.0000001
 44
0.0000000001
 40
0.0
 40
0.0
 40
0.0
 40
0.0
 40
0.5032108973
 40
0.5032108973
 40
0.8324923635
 40
0.8324923635
 40
1.151976252
 40
1.151976252
 40
1.6605310342
 40
1.6605310342
 40
3.0490484198
 40
3.0490484198
 40
4.1196841171
 40
4.1196841171
 40
4.1196841171
 40
4.1196841171
 10
14.9562771527
 20
21.9483140302
 30
0.0
 10
14.9217615555
 20
21.9701015587
 30
0.0
 10
14.8876465193
 20
21.9801982634
 30
0.0
 10
14.8202087652
 20
21.981575159
 30
0.0
 10
14.7535349614
 20
21.9768055864
 30
0.0
 10
14.7450769568
 20
21.8995178962
 30
0.0
 10
14.8124876089
 20
21.8803270626
 30
0.0
 10
14.8718533519
 20
21.8601182108
 30
0.0
 10
14.9089077147
 20
21.8500800965
 30
0.0
 10
15.0387892415
 20
21.7847216406
 30
0.0
 10
14.991020851
 20
21.7036585969
 30
0.0
 10
14.8348686365
 20
21.6519630374
 30
0.0
 10
14.7413273463
 20
21.6574586087
 30
0.0
 10
14.6744021527
 20
21.6751473635
 30
0.0
  0
SPLINE
  5
291
100
AcDbEntity
  8
0
100
AcDbSpline
 62
2
  6
CONTINUOUS
 70
0
 71
3
 72
18
 73
14
 74
0
 42
0.0000001
 43
0.0000001
 44
0.0000000001
 40
4.1880291668
 40
4.1880291668
 40
4.1880291668
 40
4.1880291668
 40
5.1629619988
 40
5.1629619988
 40
5.8465018609
 40
5.8465018609
 40
6.3921468543
 40
6.3921468543
 40
6.8466935936
 40
6.8466935936
 40
7.3975710712
 40
7.3975710712
 40
8.3539434147
 40
8.3539434147
 40
8.3539434147
 40
8.3539434147
 10
14.6533938194
 20
21.7401834746
 30
0.0
 10
14.7129578952
 20
21.7051887841
 30
0.0
 10
14.8120050742
 20
21.6797194247
 30
0.0
 10
14.9301149706
 20
21.7334775283
 30
0.0
 10
14.9220355176
 20
21.7745293277
 30
0.0
 10
14.841324213
 20
21.8154462148
 30
0.0
 10
14.8026996787
 20
21.8240161235
 30
0.0
 10
14.7344145271
 20
21.8483858008
 30
0.0
 10
14.6857222192
 20
21.8667983452
 30
0.0
 10
14.6530031778
 20
21.9488071465
 30
0.0
 10
14.6837901765
 20
21.9802454828
 30
0.0
 10
14.7882517424
 20
22.0258071111
 30
0.0
 10
14.8895352672
 20
22.0220706258
 30
0.0
 10
14.9562771527
 20
22.0070904191
 30
0.0
  0
SPLINE
  5
292
100
AcDbEntity
  8
0
100
AcDbSpline
 62
2
  6
CONTINUOUS
 70
0
 71
1
 72
7
 73
5
 74
0
 42
0.0000001
 43
0.0000001
 44
0.0000000001
 40
0.0
 40
0.0
 40
3.4446958333
 40
4.0226375
 40
7.4673333333
 40
8.045275
 40
8.045275
 10
14.5089702083
 20
21.5511515302
 30
0.0
 10
17.9536660416
 20
21.5511515302
 30
0.0
 10
17.9536660416
 20
22.1290931968
 30
0.0
 10
14.5089702083
 20
22.1290931968
 30
0.0
 10
14.5089702083
 20
21.5511515302
 30
0.0
  0
DIMENSION
  5
293
100
AcDbEntity
  8
0
100
AcDbDimension
 62
2
  6
CONTINUOUS
  2
*D0
 10
15.1759725134
 20
11.0960550936
 11
15.2956654606
 21
10.017192796
 70
164
  1
R<>\P[6.2]
  3
DIMSTYLE_1
100
AcDbRadialDimension
 15
14.1554523291
 25
8.8797206076
  0
DIMENSION
  5
294
100
AcDbEntity
  8
0
100
AcDbDimension
 62
2
  6
CONTINUOUS
  2
*D1
 10
21.5681336934
 20
27.6560550936
 11
21.8181336934
 21
19.0102897312
 70
160
  1
<>\P[48.3]
  3
DIMSTYLE_2
100
AcDbAlignedDimension
 13
15.1759725134
 23
8.6560550936
 14
21.980704262
 24
27.6560550936
 50
90.0
100
AcDbRotatedDimension
  0
DIMENSION
  5
295
100
AcDbEntity
  8
0
100
AcDbDimension
 62
2
  6
CONTINUOUS
  2
*D2
 10
10.9807031903
 20
17.1966814342
 11
18.6169653878
 21
17.0794939342
 70
160
  1
<>\P[56]
  3
DIMSTYLE_2
100
AcDbAlignedDimension
 13
32.9807053336
 23
16.5118443265
 14
10.9807031903
 24
16.5118443265
 50
180.0
100
AcDbRotatedDimension
  0
MTEXT
  5
296
100
AcDbEntity
  8
___NOTE
100
AcDbMText
 62
2
  6
CONTINUOUS
  7
STANDARD
 71
1
 72
1
 10
14.4785049343
 20
20.6774338308
 30
0.0
 11
1.0
 21
0.0
 31
0.0
  1
CUT-OUT TEMPLATE\PUNDERCOUNTER SINK\PGABARIT DE DÉCOUPE\PÉVIER SOUS COMPTOIR\PPLANTILLA DE CORTE\PFREGADERO DE\PINSTALACIÓN BAJO CUBIERTA\P 
 40
0.2
 41
4.0
  0
MTEXT
  5
297
100
AcDbEntity
  8
___NOTE
100
AcDbMText
 62
2
  6
CONTINUOUS
  7
STANDARD
 71
1
 72
1
 10
14.5665702732
 20
18.3311105497
 30
0.0
 11
1.0
 21
0.0
 31
0.0
  1
50200
 40
0.2
 41
0.8
  0
LEADER
  5
298
100
AcDbEntity
  8
___NOTE
100
AcDbLeader
 62
2
  6
CONTINUOUS
  3
STANDARD
 71
1
 72
0
 73
0
 75
0
 40
0.15625
 41
1.375
 76
3
 10
33.795704262
 20
14.3703303448
 30
0.0
 10
30.3743093249
 20
12.0939476213
 30
0.0
 10
30.1243093249
 20
12.0939476213
 30
0.0
340
299
1001
ACAD
1000
DSTYLE
1002
{
1070
77
1070
0
1002
}
  0
MTEXT
  5
299
102
{ACAD_REACTORS
330
298
102
}
100
AcDbEntity
  8
___NOTE
100
AcDbMText
 62
2
  6
CONTINUOUS
  7
STANDARD
 71
3
 72
1
 10
30.1243093249
 20
12.1720726213
 30
0.0
 11
1.0
 21
0.0
 31
0.0
  1
RIM OF SINK\PREBORDE DE FREGADERO\PREBORD D'ÉVIER
 40
0.15625
 41
2.5
  0
LEADER
  5
29A
100
AcDbEntity
  8
___NOTE
100
AcDbLeader
 62
2
  6
CONTINUOUS
  3
STANDARD
 71
1
 72
0
 73
0
 75
0
 40
0.15625
 41
3.5
 76
3
 10
32.6386137851
 20
19.6560219614
 30
0.0
 10
31.5278073525
 20
20.6910530338
 30
0.0
 10
31.2778073525
 20
20.6910530338
 30
0.0
340
29B
1001
ACAD
1000
DSTYLE
1002
{
1070
77
1070
0
1002
}
  0
MTEXT
  5
29B
102
{ACAD_REACTORS
330
29A
102
}
100
AcDbEntity
  8
___NOTE
100
AcDbMText
 62
2
  6
CONTINUOUS
  7
STANDARD
 71
3
 72
1
 10
31.2778073525
 20
20.7691780338
 30
0.0
 11
1.0
 21
0.0
 31
0.0
  1
FOR UNDER-MOUNT INSTALLATION\PCUT ALONG THIS LINE\PPARA INSTALACIÓN DE MONTAJE POR ABAJO\PCORTE A LO LARGO DE ESTA LÍNEA\PPOUR INSTALLATION À MONTAGE SOUS PLAN\PCOUPER LE LONG DE CETTE LIGNE\P 
 40
0.15625
 41
4.625
  0
INSERT
  5
29C
100
AcDbEntity
  8
___SYMBOL
100
AcDbBlockReference
 62
2
  6
CONTINUOUS
  2
WHEN_PLOTTING_TEMPLATE_N_BL0
 10
16.0020063996
 20
13.544062888
  0
INSERT
  5
29D
100
AcDbEntity
  8
___SYMBOL
100
AcDbBlockReference
 62
2
  6
CONTINUOUS
  2
SCISSORS_BL1
 10
32.7663670407
 20
18.9250918092
  0
INSERT
  5
29E
100
AcDbEntity
  8
___SYMBOL
100
AcDbBlockReference
 62
2
  6
CONTINUOUS
  2
COPYRIGHT_YEAR_BL2
 10
27.7947038069
 20
9.1515624089
  0
INSERT
  5
29F
100
AcDbEntity
  8
___SYMBOL
100
AcDbBlockReference
 62
2
  6
CONTINUOUS
  2
TEMPLATE_NUMBER_BL3
 10
17.2420329153
 20
9.1383193068
  0
INSERT
  5
2A0
100
AcDbEntity
  8
___SYMBOL
100
AcDbBlockReference
 62
2
  6
CONTINUOUS
  2
TEMPLATE_NUMBER_BL4
 10
17.2723791706
 20
7.1338639878
  0
LINE
  5
2A1
100
AcDbEntity
  8
0
100
AcDbLine
 62
2
  6
CONTINUOUS
 10
15.3895785416
 20
22.0138654191
 11
15.3663993749
 21
21.9519348635
  0
LINE
  5
2A2
100
AcDbEntity
  8
0
100
AcDbLine
 62
2
  6
CONTINUOUS
 10
15.0106118749
 20
21.9519348635
 11
15.0359813194
 21
22.0138654191
  0
LINE
  5
2A3
100
AcDbEntity
  8
0
100
AcDbLine
 62
2
  6
CONTINUOUS
 10
15.7721674305
 20
21.7360334746
 11
15.7395618749
 21
21.6678640302
  0
LINE
  5
2A4
100
AcDbEntity
  8
0
100
AcDbLine
 62
2
  6
CONTINUOUS
 10
14.9562771527
 20
22.0070904191
 11
14.9562771527
 21
21.9483140302
  0
LINE
  5
2A5
100
AcDbEntity
  8
0
100
AcDbLine
 62
2
  6
CONTINUOUS
 10
15.1309049305
 20
21.6678640302
 11
15.1309049305
 21
21.6694376413
  0
LINE
  5
2A6
100
AcDbEntity
  8
0
100
AcDbLine
 62
2
  6
CONTINUOUS
 10
15.2743715972
 20
21.6694376413
 11
15.2743715972
 21
21.6678640302
  0
LINE
  5
2A7
100
AcDbEntity
  8
0
100
AcDbLine
 62
2
  6
CONTINUOUS
 10
15.4374035416
 20
21.6678640302
 11
15.4374035416
 21
21.6694376413
  0
LINE
  5
2A8
100
AcDbEntity
  8
0
100
AcDbLine
 62
2
  6
CONTINUOUS
 10
15.4374035416
 20
22.0086570857
 11
15.4374035416
 21
22.0102237524
  0
LINE
  5
2A9
100
AcDbEntity
  8
0
100
AcDbLine
 62
2
  6
CONTINUOUS
 10
15.5439229861
 20
21.9691265302
 11
15.5439229861
 21
21.8723515302
  0
LINE
  5
2AA
100
AcDbEntity
  8
0
100
AcDbLine
 62
2
  6
CONTINUOUS
 10
15.5439229861
 20
21.8348765302
 11
15.5439229861
 21
21.7115654191
  0
LINE
  5
2AB
100
AcDbEntity
  8
0
100
AcDbLine
 62
2
  6
CONTINUOUS
 10
15.6642104861
 20
21.8754640302
 11
15.6642104861
 21
21.8203223635
  0
LINE
  5
2AC
100
AcDbEntity
  8
0
100
AcDbLine
 62
2
  6
CONTINUOUS
 10
15.7055104861
 20
22.0128140302
 11
15.7055104861
 21
21.9519348635
  0
LINE
  5
2AD
100
AcDbEntity
  8
0
100
AcDbLine
 62
2
  6
CONTINUOUS
 10
15.7975243749
 20
21.6678640302
 11
15.7975243749
 21
21.6694376413
  0
LINE
  5
2AE
100
AcDbEntity
  8
0
100
AcDbLine
 62
2
  6
CONTINUOUS
 10
15.7975243749
 20
22.0086570857
 11
15.7975243749
 21
22.0102237524
  0
LINE
  5
2AF
100
AcDbEntity
  8
0
100
AcDbLine
 62
2
  6
CONTINUOUS
 10
15.9359243749
 20
21.6694376413
 11
15.9359243749
 21
21.6678640302
  0
LINE
  5
2B0
100
AcDbEntity
  8
0
100
AcDbLine
 62
2
  6
CONTINUOUS
 10
16.6441702083
 20
21.4652806968
 11
16.6261577083
 21
21.421091808
  0
LINE
  5
2B1
100
AcDbEntity
  8
0
100
AcDbLine
 62
2
  6
CONTINUOUS
 10
16.5779202083
 20
21.7370501413
 11
16.5402549305
 21
21.6678640302
  0
LINE
  5
2B2
100
AcDbEntity
  8
0
100
AcDbLine
 62
2
  6
CONTINUOUS
 10
17.4414049305
 20
21.4040431968
 11
17.4397229861
 21
21.4020223635
  0
LINE
  5
2B3
100
AcDbEntity
  8
0
100
AcDbLine
 62
2
  6
CONTINUOUS
 10
16.2424299305
 20
21.6678640302
 11
16.2424299305
 21
21.6694376413
  0
LINE
  5
2B4
100
AcDbEntity
  8
0
100
AcDbLine
 62
2
  6
CONTINUOUS
 10
16.2424299305
 20
22.0086570857
 11
16.2424299305
 21
22.0102237524
  0
LINE
  5
2B5
100
AcDbEntity
  8
0
100
AcDbLine
 62
2
  6
CONTINUOUS
 10
16.3808299305
 20
22.0102237524
 11
16.3808299305
 21
22.0086570857
  0
LINE
  5
2B6
100
AcDbEntity
  8
0
100
AcDbLine
 62
2
  6
CONTINUOUS
 10
16.6076174305
 20
21.6678640302
 11
16.6076174305
 21
21.6694376413
  0
LINE
  5
2B7
100
AcDbEntity
  8
0
100
AcDbLine
 62
2
  6
CONTINUOUS
 10
16.6076174305
 20
22.0086570857
 11
16.6076174305
 21
22.0102237524
  0
LINE
  5
2B8
100
AcDbEntity
  8
0
100
AcDbLine
 62
2
  6
CONTINUOUS
 10
16.7453049305
 20
22.0102237524
 11
16.7453049305
 21
22.0086570857
  0
LINE
  5
2B9
100
AcDbEntity
  8
0
100
AcDbLine
 62
2
  6
CONTINUOUS
 10
16.7453049305
 20
21.6694376413
 11
16.7453049305
 21
21.6678640302
  0
LINE
  5
2BA
100
AcDbEntity
  8
0
100
AcDbLine
 62
2
  6
CONTINUOUS
 10
16.8221007638
 20
21.6678640302
 11
16.8221007638
 21
21.6694376413
  0
LINE
  5
2BB
100
AcDbEntity
  8
0
100
AcDbLine
 62
2
  6
CONTINUOUS
 10
16.8228271527
 20
22.0086570857
 11
16.8228271527
 21
22.0102237524
  0
LINE
  5
2BC
100
AcDbEntity
  8
0
100
AcDbLine
 62
2
  6
CONTINUOUS
 10
16.9286146527
 20
22.0102237524
 11
16.9286146527
 21
22.0096945857
  0
LINE
  5
2BD
100
AcDbEntity
  8
0
100
AcDbLine
 62
2
  6
CONTINUOUS
 10
16.9503493749
 20
21.6694376413
 11
16.9503493749
 21
21.6678640302
  0
LINE
  5
2BE
100
AcDbEntity
  8
0
100
AcDbLine
 62
2
  6
CONTINUOUS
 10
17.1771632638
 20
22.0086570857
 11
17.1771632638
 21
22.0102237524
  0
LINE
  5
2BF
100
AcDbEntity
  8
0
100
AcDbLine
 62
2
  6
CONTINUOUS
 10
17.2304132638
 20
21.3579681968
 11
17.2304132638
 21
21.4812584746
  0
LINE
  5
2C0
100
AcDbEntity
  8
0
100
AcDbLine
 62
2
  6
CONTINUOUS
 10
17.2633452083
 20
21.4526806968
 11
17.2633452083
 21
21.4289181968
  0
LINE
  5
2C1
100
AcDbEntity
  8
0
100
AcDbLine
 62
2
  6
CONTINUOUS
 10
17.2633993749
 20
21.395741808
 11
17.2633993749
 21
21.3579681968
  0
LINE
  5
2C2
100
AcDbEntity
  8
0
100
AcDbLine
 62
2
  6
CONTINUOUS
 10
17.3046993749
 20
22.0102237524
 11
17.3046993749
 21
22.0086570857
  0
LINE
  5
2C3
100
AcDbEntity
  8
0
100
AcDbLine
 62
2
  6
CONTINUOUS
 10
17.4414049305
 20
21.4014931968
 11
17.4414049305
 21
21.4040431968
  0
LINE
  5
2C4
100
AcDbEntity
  8
0
100
AcDbLine
 62
2
  6
CONTINUOUS
 10
17.4414049305
 20
21.4577265302
 11
17.4414049305
 21
21.468929308
  0
LINE
  5
2C5
100
AcDbEntity
  8
0
100
AcDbLine
 62
2
  6
CONTINUOUS
 10
17.4410521527
 20
21.3921473635
 11
17.4414049305
 21
21.4014931968
  0
LINE
  5
2C6
100
AcDbEntity
  8
0
100
AcDbLine
 62
2
  6
CONTINUOUS
 10
17.7959646527
 20
21.8406001413
 11
17.7923424305
 21
21.8182265302
  0
LINE
  5
2C7
100
AcDbEntity
  8
0
100
AcDbLine
 62
2
  6
CONTINUOUS
 10
17.5580896527
 20
21.3809987524
 11
17.5745021527
 21
21.4606973635
  0
LINE
  5
2C8
100
AcDbEntity
  8
0
100
AcDbLine
 62
2
  6
CONTINUOUS
 10
17.5721688194
 20
21.4868737524
 11
17.5501285416
 21
21.3809987524
  0
LINE
  5
2C9
100
AcDbEntity
  8
0
100
AcDbLine
 62
2
  6
CONTINUOUS
 10
17.6452618749
 20
21.4868737524
 11
17.6086410416
 21
21.3965154191
  0
LINE
  5
2CA
100
AcDbEntity
  8
0
100
AcDbLine
 62
2
  6
CONTINUOUS
 10
17.6086410416
 20
21.3761695857
 11
17.6429021527
 21
21.4606973635
  0
LINE
  5
2CB
100
AcDbEntity
  8
0
100
AcDbLine
 62
2
  6
CONTINUOUS
 10
17.7515577083
 20
21.4653348635
 11
17.7335327083
 21
21.421091808
  0
LINE
  5
2CC
100
AcDbEntity
  8
0
100
AcDbLine
 62
2
  6
CONTINUOUS
 10
17.9369146527
 20
21.4240084746
 11
17.9704160416
 21
21.4813945857
  0
LINE
  5
2CD
100
AcDbEntity
  8
0
100
AcDbLine
 62
2
  6
CONTINUOUS
 10
17.9618993749
 20
21.4813945857
 11
17.9329132638
 21
21.4323765302
  0
LINE
  5
2CE
100
AcDbEntity
  8
0
100
AcDbLine
 62
2
  6
CONTINUOUS
 10
17.4397229861
 20
21.4020223635
 11
17.4074549305
 21
21.3873598635
  0
LINE
  5
2CF
100
AcDbEntity
  8
0
100
AcDbLine
 62
2
  6
CONTINUOUS
 10
14.6744021527
 20
21.6751473635
 11
14.6533938194
 21
21.7401834746
  0
LINE
  5
2D0
100
AcDbEntity
  8
0
100
AcDbLine
 62
2
  6
CONTINUOUS
 10
17.6760646527
 20
21.3809987524
 11
17.6760646527
 21
21.4813945857
  0
LINE
  5
2D1
100
AcDbEntity
  8
0
100
AcDbLine
 62
2
  6
CONTINUOUS
 10
17.6841882638
 20
21.4736640302
 11
17.6841882638
 21
21.4354695857
  0
LINE
  5
2D2
100
AcDbEntity
  8
0
100
AcDbLine
 62
2
  6
CONTINUOUS
 10
17.6841882638
 20
21.4277515302
 11
17.6841882638
 21
21.3809987524
  0
LINE
  5
2D3
100
AcDbEntity
  8
0
100
AcDbLine
 62
2
  6
CONTINUOUS
 10
17.6851104861
 20
21.8406001413
 11
17.6851104861
 21
21.8421529191
  0
LINE
  5
2D4
100
AcDbEntity
  8
0
100
AcDbLine
 62
2
  6
CONTINUOUS
 10
17.7408965972
 20
22.0096945857
 11
17.7408965972
 21
21.9498598635
  0
LINE
  5
2D5
100
AcDbEntity
  8
0
100
AcDbLine
 62
2
  6
CONTINUOUS
 10
17.7923424305
 20
21.8182265302
 11
17.7923424305
 21
21.6985640302
  0
LINE
  5
2D6
100
AcDbEntity
  8
0
100
AcDbLine
 62
2
  6
CONTINUOUS
 10
17.7959646527
 20
21.8421529191
 11
17.7959646527
 21
21.8406001413
  0
LINE
  5
2D7
100
AcDbEntity
  8
0
100
AcDbLine
 62
2
  6
CONTINUOUS
 10
17.7994507638
 20
21.4840126413
 11
17.7994507638
 21
21.3809987524
  0
LINE
  5
2D8
100
AcDbEntity
  8
0
100
AcDbLine
 62
2
  6
CONTINUOUS
 10
17.8075479861
 20
21.3809987524
 11
17.8075479861
 21
21.4642237524
  0
LINE
  5
2D9
100
AcDbEntity
  8
0
100
AcDbLine
 62
2
  6
CONTINUOUS
 10
17.8226035416
 20
21.6731529191
 11
17.8226035416
 21
21.7012501413
  0
LINE
  5
2DA
100
AcDbEntity
  8
0
100
AcDbLine
 62
2
  6
CONTINUOUS
 10
17.8270785416
 20
21.6982251413
 11
17.8270785416
 21
21.688716808
  0
LINE
  5
2DB
100
AcDbEntity
  8
0
100
AcDbLine
 62
2
  6
CONTINUOUS
 10
17.8270785416
 20
21.6852515302
 11
17.8270785416
 21
21.6731529191
  0
LINE
  5
2DC
100
AcDbEntity
  8
0
100
AcDbLine
 62
2
  6
CONTINUOUS
 10
17.8363702083
 20
21.6871501413
 11
17.8363702083
 21
21.6869265302
  0
LINE
  5
2DD
100
AcDbEntity
  8
0
100
AcDbLine
 62
2
  6
CONTINUOUS
 10
17.8822007638
 20
21.4813945857
 11
17.8822007638
 21
21.396704308
  0
LINE
  5
2DE
100
AcDbEntity
  8
0
100
AcDbLine
 62
2
  6
CONTINUOUS
 10
17.8902979861
 20
21.3763195857
 11
17.8902979861
 21
21.4813945857
  0
LINE
  5
2DF
100
AcDbEntity
  8
0
100
AcDbLine
 62
2
  6
CONTINUOUS
 10
17.9369146527
 20
21.3809987524
 11
17.9369146527
 21
21.4240084746
  0
LINE
  5
2E0
100
AcDbEntity
  8
0
100
AcDbLine
 62
2
  6
CONTINUOUS
 10
17.9289396527
 20
21.4235195857
 11
17.9287910416
 21
21.3809987524
  0
LINE
  5
2E1
100
AcDbEntity
  8
0
100
AcDbLine
 62
2
  6
CONTINUOUS
 10
16.6619452083
 20
21.421091808
 11
16.6441702083
 21
21.4652806968
  0
LINE
  5
2E2
100
AcDbEntity
  8
0
100
AcDbLine
 62
2
  6
CONTINUOUS
 10
17.6672757638
 20
21.3809987524
 11
17.6452618749
 21
21.4868737524
  0
LINE
  5
2E3
100
AcDbEntity
  8
0
100
AcDbLine
 62
2
  6
CONTINUOUS
 10
17.6429021527
 20
21.4606973635
 11
17.6593813194
 21
21.3809987524
  0
LINE
  5
2E4
100
AcDbEntity
  8
0
100
AcDbLine
 62
2
  6
CONTINUOUS
 10
17.7923424305
 20
21.6985640302
 11
17.7959646527
 21
21.6751473635
  0
LINE
  5
2E5
100
AcDbEntity
  8
0
100
AcDbLine
 62
2
  6
CONTINUOUS
 10
17.8363702083
 20
21.6869265302
 11
17.8428535416
 21
21.6731529191
  0
LINE
  5
2E6
100
AcDbEntity
  8
0
100
AcDbLine
 62
2
  6
CONTINUOUS
 10
17.5745021527
 20
21.4606973635
 11
17.6086410416
 21
21.3761695857
  0
LINE
  5
2E7
100
AcDbEntity
  8
0
100
AcDbLine
 62
2
  6
CONTINUOUS
 10
17.6086410416
 20
21.3965154191
 11
17.5721688194
 21
21.4868737524
  0
LINE
  5
2E8
100
AcDbEntity
  8
0
100
AcDbLine
 62
2
  6
CONTINUOUS
 10
17.7693257638
 20
21.421091808
 11
17.7515577083
 21
21.4653348635
  0
LINE
  5
2E9
100
AcDbEntity
  8
0
100
AcDbLine
 62
2
  6
CONTINUOUS
 10
17.8381604861
 20
21.6731529191
 11
17.8362618749
 21
21.6803154191
  0
LINE
  5
2EA
100
AcDbEntity
  8
0
100
AcDbLine
 62
2
  6
CONTINUOUS
 10
16.0757702083
 20
21.6938779191
 11
15.9873771527
 21
21.7724445857
  0
LINE
  5
2EB
100
AcDbEntity
  8
0
100
AcDbLine
 62
2
  6
CONTINUOUS
 10
16.9394993749
 20
21.9966876413
 11
16.9496313194
 21
21.9862834746
  0
LINE
  5
2EC
100
AcDbEntity
  8
0
100
AcDbLine
 62
2
  6
CONTINUOUS
 10
17.8822007638
 20
21.396704308
 11
17.7994507638
 21
21.4840126413
  0
LINE
  5
2ED
100
AcDbEntity
  8
0
100
AcDbLine
 62
2
  6
CONTINUOUS
 10
17.8075479861
 20
21.4642237524
 11
17.8902979861
 21
21.3763195857
  0
LINE
  5
2EE
100
AcDbEntity
  8
0
100
AcDbLine
 62
2
  6
CONTINUOUS
 10
15.9873771527
 20
21.7724445857
 11
15.9207063194
 21
21.8458084746
  0
LINE
  5
2EF
100
AcDbEntity
  8
0
100
AcDbLine
 62
2
  6
CONTINUOUS
 10
16.9286146527
 20
22.0096945857
 11
16.9394993749
 21
21.9966876413
  0
LINE
  5
2F0
100
AcDbEntity
  8
0
100
AcDbLine
 62
2
  6
CONTINUOUS
 10
17.2909188194
 20
21.3578862524
 11
17.2633993749
 21
21.395741808
  0
LINE
  5
2F1
100
AcDbEntity
  8
0
100
AcDbLine
 62
2
  6
CONTINUOUS
 10
17.2926285416
 20
21.4072029191
 11
17.3277438194
 21
21.3578181968
  0
LINE
  5
2F2
100
AcDbEntity
  8
0
100
AcDbLine
 62
2
  6
CONTINUOUS
 10
17.8953021527
 20
21.4813945857
 11
17.9289396527
 21
21.4235195857
  0
LINE
  5
2F3
100
AcDbEntity
  8
0
100
AcDbLine
 62
2
  6
CONTINUOUS
 10
17.9329132638
 20
21.4323765302
 11
17.9045799305
 21
21.4813945857
  0
LINE
  5
2F4
100
AcDbEntity
  8
0
100
AcDbLine
 62
2
  6
CONTINUOUS
 10
16.9496313194
 20
21.9862834746
 11
17.2148424305
 21
21.7459070857
  0
LINE
  5
2F5
100
AcDbEntity
  8
0
100
AcDbLine
 62
2
  6
CONTINUOUS
 10
17.1612118749
 20
21.7105279191
 11
16.9126840972
 21
21.9368529191
  0
LINE
  5
2F6
100
AcDbEntity
  8
0
100
AcDbLine
 62
2
  6
CONTINUOUS
 10
17.4074549305
 20
21.4749515302
 11
17.4414049305
 21
21.4577265302
  0
LINE
  5
2F7
100
AcDbEntity
  8
0
100
AcDbLine
 62
2
  6
CONTINUOUS
 10
17.8362618749
 20
21.6803154191
 11
17.8270785416
 21
21.6852515302
  0
LINE
  5
2F8
100
AcDbEntity
  8
0
100
AcDbLine
 62
2
  6
CONTINUOUS
 10
17.2633993749
 20
21.3579681968
 11
17.2304132638
 21
21.3579681968
  0
LINE
  5
2F9
100
AcDbEntity
  8
0
100
AcDbLine
 62
2
  6
CONTINUOUS
 10
17.6841882638
 20
21.3809987524
 11
17.6760646527
 21
21.3809987524
  0
LINE
  5
2FA
100
AcDbEntity
  8
0
100
AcDbLine
 62
2
  6
CONTINUOUS
 10
17.5501285416
 20
21.3809987524
 11
17.5580896527
 21
21.3809987524
  0
LINE
  5
2FB
100
AcDbEntity
  8
0
100
AcDbLine
 62
2
  6
CONTINUOUS
 10
17.6593813194
 20
21.3809987524
 11
17.6672757638
 21
21.3809987524
  0
LINE
  5
2FC
100
AcDbEntity
  8
0
100
AcDbLine
 62
2
  6
CONTINUOUS
 10
17.7994507638
 20
21.3809987524
 11
17.8075479861
 21
21.3809987524
  0
LINE
  5
2FD
100
AcDbEntity
  8
0
100
AcDbLine
 62
2
  6
CONTINUOUS
 10
17.9287910416
 20
21.3809987524
 11
17.9369146527
 21
21.3809987524
  0
LINE
  5
2FE
100
AcDbEntity
  8
0
100
AcDbLine
 62
2
  6
CONTINUOUS
 10
16.6261577083
 20
21.421091808
 11
16.6619452083
 21
21.421091808
  0
LINE
  5
2FF
100
AcDbEntity
  8
0
100
AcDbLine
 62
2
  6
CONTINUOUS
 10
17.7335327083
 20
21.421091808
 11
17.7693257638
 21
21.421091808
  0
LINE
  5
300
100
AcDbEntity
  8
0
100
AcDbLine
 62
2
  6
CONTINUOUS
 10
17.6943743749
 20
21.4277515302
 11
17.6841882638
 21
21.4277515302
  0
LINE
  5
301
100
AcDbEntity
  8
0
100
AcDbLine
 62
2
  6
CONTINUOUS
 10
17.9704160416
 20
21.4813945857
 11
17.9618993749
 21
21.4813945857
  0
LINE
  5
302
100
AcDbEntity
  8
0
100
AcDbLine
 62
2
  6
CONTINUOUS
 10
17.9045799305
 20
21.4813945857
 11
17.8953021527
 21
21.4813945857
  0
LINE
  5
303
100
AcDbEntity
  8
0
100
AcDbLine
 62
2
  6
CONTINUOUS
 10
17.8902979861
 20
21.4813945857
 11
17.8822007638
 21
21.4813945857
  0
LINE
  5
304
100
AcDbEntity
  8
0
100
AcDbLine
 62
2
  6
CONTINUOUS
 10
17.6760646527
 20
21.4813945857
 11
17.6943743749
 21
21.4813945857
  0
LINE
  5
305
100
AcDbEntity
  8
0
100
AcDbLine
 62
2
  6
CONTINUOUS
 10
16.9503493749
 20
21.6678640302
 11
16.8221007638
 21
21.6678640302
  0
LINE
  5
306
100
AcDbEntity
  8
0
100
AcDbLine
 62
2
  6
CONTINUOUS
 10
16.7453049305
 20
21.6678640302
 11
16.6076174305
 21
21.6678640302
  0
LINE
  5
307
100
AcDbEntity
  8
0
100
AcDbLine
 62
2
  6
CONTINUOUS
 10
16.5402549305
 20
21.6678640302
 11
16.2424299305
 21
21.6678640302
  0
LINE
  5
308
100
AcDbEntity
  8
0
100
AcDbLine
 62
2
  6
CONTINUOUS
 10
16.2264993749
 20
21.6678640302
 11
16.1598285416
 21
21.6678640302
  0
LINE
  5
309
100
AcDbEntity
  8
0
100
AcDbLine
 62
2
  6
CONTINUOUS
 10
15.9359243749
 20
21.6678640302
 11
15.7975243749
 21
21.6678640302
  0
LINE
  5
30A
100
AcDbEntity
  8
0
100
AcDbLine
 62
2
  6
CONTINUOUS
 10
15.7395618749
 20
21.6678640302
 11
15.4374035416
 21
21.6678640302
  0
LINE
  5
30B
100
AcDbEntity
  8
0
100
AcDbLine
 62
2
  6
CONTINUOUS
 10
15.2743715972
 20
21.6678640302
 11
15.1309049305
 21
21.6678640302
  0
LINE
  5
30C
100
AcDbEntity
  8
0
100
AcDbLine
 62
2
  6
CONTINUOUS
 10
17.8270785416
 20
21.6731529191
 11
17.8226035416
 21
21.6731529191
  0
LINE
  5
30D
100
AcDbEntity
  8
0
100
AcDbLine
 62
2
  6
CONTINUOUS
 10
17.8428535416
 20
21.6731529191
 11
17.8381604861
 21
21.6731529191
  0
LINE
  5
30E
100
AcDbEntity
  8
0
100
AcDbLine
 62
2
  6
CONTINUOUS
 10
15.7699979861
 20
21.7360334746
 11
15.7721674305
 21
21.7360334746
  0
LINE
  5
30F
100
AcDbEntity
  8
0
100
AcDbLine
 62
2
  6
CONTINUOUS
 10
16.5757493749
 20
21.7370501413
 11
16.5779202083
 21
21.7370501413
  0
LINE
  5
310
100
AcDbEntity
  8
0
100
AcDbLine
 62
2
  6
CONTINUOUS
 10
17.3277438194
 20
21.3578181968
 11
17.2909188194
 21
21.3578862524
  0
LINE
  5
311
100
AcDbEntity
  8
0
100
AcDbLine
 62
2
  6
CONTINUOUS
 10
15.0381452083
 20
22.0138654191
 11
15.0656924305
 21
22.0102237524
  0
LINE
  5
312
100
AcDbEntity
  8
0
100
AcDbLine
 62
2
  6
CONTINUOUS
 10
15.3540840972
 20
22.0102237524
 11
15.3874090972
 21
22.0138654191
  0
LINE
  5
313
100
AcDbEntity
  8
0
100
AcDbLine
 62
2
  6
CONTINUOUS
 10
15.6301452083
 20
21.8723515302
 11
15.6620327083
 21
21.8754640302
  0
LINE
  5
314
100
AcDbEntity
  8
0
100
AcDbLine
 62
2
  6
CONTINUOUS
 10
15.6692827083
 20
22.0102237524
 11
15.7033340972
 21
22.0128140302
  0
LINE
  5
315
100
AcDbEntity
  8
0
100
AcDbLine
 62
2
  6
CONTINUOUS
 10
15.6178299305
 20
21.9727612524
 11
15.5439229861
 21
21.9691265302
  0
LINE
  5
316
100
AcDbEntity
  8
0
100
AcDbLine
 62
2
  6
CONTINUOUS
 10
15.6642104861
 20
21.8203223635
 11
15.6620327083
 21
21.8203223635
  0
LINE
  5
317
100
AcDbEntity
  8
0
100
AcDbLine
 62
2
  6
CONTINUOUS
 10
17.6851104861
 20
21.8421529191
 11
17.7959646527
 21
21.8421529191
  0
LINE
  5
318
100
AcDbEntity
  8
0
100
AcDbLine
 62
2
  6
CONTINUOUS
 10
15.5439229861
 20
21.8723515302
 11
15.6301452083
 21
21.8723515302
  0
LINE
  5
319
100
AcDbEntity
  8
0
100
AcDbLine
 62
2
  6
CONTINUOUS
 10
15.6620327083
 20
21.8754640302
 11
15.6642104861
 21
21.8754640302
  0
LINE
  5
31A
100
AcDbEntity
  8
0
100
AcDbLine
 62
2
  6
CONTINUOUS
 10
17.7408965972
 20
21.9498598635
 11
17.7387271527
 21
21.9498598635
  0
LINE
  5
31B
100
AcDbEntity
  8
0
100
AcDbLine
 62
2
  6
CONTINUOUS
 10
15.7055104861
 20
21.9519348635
 11
15.7033340972
 21
21.9519348635
  0
LINE
  5
31C
100
AcDbEntity
  8
0
100
AcDbLine
 62
2
  6
CONTINUOUS
 10
15.3663993749
 20
21.9519348635
 11
15.3642215972
 21
21.9519348635
  0
LINE
  5
31D
100
AcDbEntity
  8
0
100
AcDbLine
 62
2
  6
CONTINUOUS
 10
15.0127882638
 20
21.9519348635
 11
15.0106118749
 21
21.9519348635
  0
LINE
  5
31E
100
AcDbEntity
  8
0
100
AcDbLine
 62
2
  6
CONTINUOUS
 10
15.1627715972
 20
21.9727612524
 11
15.0990104861
 21
21.9727612524
  0
LINE
  5
31F
100
AcDbEntity
  8
0
100
AcDbLine
 62
2
  6
CONTINUOUS
 10
15.0656924305
 20
22.0102237524
 11
15.3540840972
 21
22.0102237524
  0
LINE
  5
320
100
AcDbEntity
  8
0
100
AcDbLine
 62
2
  6
CONTINUOUS
 10
15.4374035416
 20
22.0102237524
 11
15.6692827083
 21
22.0102237524
  0
LINE
  5
321
100
AcDbEntity
  8
0
100
AcDbLine
 62
2
  6
CONTINUOUS
 10
16.2424299305
 20
22.0102237524
 11
16.3808299305
 21
22.0102237524
  0
LINE
  5
322
100
AcDbEntity
  8
0
100
AcDbLine
 62
2
  6
CONTINUOUS
 10
16.6076174305
 20
22.0102237524
 11
16.7453049305
 21
22.0102237524
  0
LINE
  5
323
100
AcDbEntity
  8
0
100
AcDbLine
 62
2
  6
CONTINUOUS
 10
16.8228271527
 20
22.0102237524
 11
16.9286146527
 21
22.0102237524
  0
LINE
  5
324
100
AcDbEntity
  8
0
100
AcDbLine
 62
2
  6
CONTINUOUS
 10
17.1771632638
 20
22.0102237524
 11
17.3046993749
 21
22.0102237524
  0
LINE
  5
325
100
AcDbEntity
  8
0
100
AcDbLine
 62
2
  6
CONTINUOUS
 10
15.7033340972
 20
22.0128140302
 11
15.7055104861
 21
22.0128140302
  0
LINE
  5
326
100
AcDbEntity
  8
0
100
AcDbLine
 62
2
  6
CONTINUOUS
 10
15.0359813194
 20
22.0138654191
 11
15.0381452083
 21
22.0138654191
  0
LINE
  5
327
100
AcDbEntity
  8
0
100
AcDbLine
 62
2
  6
CONTINUOUS
 10
15.3874090972
 20
22.0138654191
 11
15.3895785416
 21
22.0138654191
  0
LINE
  5
328
100
AcDbEntity
  8
_CURVE
100
AcDbLine
 62
8
  6
PHANTOM
 10
10.165704262
 20
12.310332697
 11
10.165704262
 21
21.0517774901
  0
LINE
  5
329
100
AcDbEntity
  8
_CURVE
100
AcDbLine
 62
8
  6
PHANTOM
 10
15.080704262
 20
7.5310550936
 11
28.880704262
 21
7.5310550936
  0
LINE
  5
32A
100
AcDbEntity
  8
_CURVE
100
AcDbLine
 62
7
  6
CONTINUOUS
 10
15.1759725134
 20
8.6560550936
 11
28.7854360106
 21
8.6560550936
  0
LINE
  5
32B
100
AcDbEntity
  8
_CURVE
100
AcDbLine
 62
7
  6
CENTER
 10
21.980704262
 20
6.1560550936
 11
21.980704262
 21
9.6560550936
  0
LINE
  5
32C
100
AcDbEntity
  8
_CURVE
100
AcDbLine
 62
7
  6
CENTER
 10
21.980704262
 20
25.6560550936
 11
21.980704262
 21
29.1560550936
  0
LINE
  5
32D
100
AcDbEntity
  8
_CURVE
100
AcDbLine
 62
8
  6
PHANTOM
 10
19.4465052996
 20
28.5310550936
 11
24.5149032243
 21
28.5310550936
  0
LINE
  5
32E
100
AcDbEntity
  8
_CURVE
100
AcDbLine
 62
8
  6
PHANTOM
 10
33.795704262
 20
21.0517774901
 11
33.795704262
 21
12.310332697
  0
ARC
  5
32F
100
AcDbEntity
  8
0
100
AcDbCircle
 62
2
  6
CONTINUOUS
 10
17.623773624
 20
21.7569580424
 40
0.2245560651
100
AcDbArc
 50
59.208555199
 51
93.5831215674
  0
ARC
  5
330
100
AcDbEntity
  8
0
100
AcDbCircle
 62
2
  6
CONTINUOUS
 10
17.3093233676
 20
21.8507220243
 40
0.2039397004
100
AcDbArc
 50
223.4269507726
 51
258.0242403069
  0
ARC
  5
331
100
AcDbEntity
  8
0
100
AcDbCircle
 62
2
  6
CONTINUOUS
 10
15.0919403094
 20
21.8131369069
 40
0.1597808471
100
AcDbArc
 50
87.4638787987
 51
119.6947324667
  0
ARC
  5
332
100
AcDbEntity
  8
0
100
AcDbCircle
 62
2
  6
CONTINUOUS
 10
15.6321809928
 20
21.84574572
 40
0.1278237007
100
AcDbArc
 50
56.1755396367
 51
96.4463209909
  0
ARC
  5
333
100
AcDbEntity
  8
0
100
AcDbCircle
 62
2
  6
CONTINUOUS
 10
16.1489731746
 20
21.7816024589
 40
0.1142552807
100
AcDbArc
 50
230.1562195028
 51
275.4518816802
  0
ARC
  5
334
100
AcDbEntity
  8
0
100
AcDbCircle
 62
2
  6
CONTINUOUS
 10
17.4073048058
 20
21.431587884
 40
0.0519079771
100
AcDbArc
 50
180.5675053294
 51
310.5520051654
  0
CIRCLE
  5
335
100
AcDbEntity
  8
0
100
AcDbCircle
 62
2
  6
CONTINUOUS
 10
17.4996835227
 20
21.4311563913
 40
0.0514756023
  0
ARC
  5
336
100
AcDbEntity
  8
0
100
AcDbCircle
 62
2
  6
CONTINUOUS
 10
17.4067298154
 20
21.4310815791
 40
0.0513304411
100
AcDbArc
 50
47.5048873671
 51
180.0087362707
  0
CIRCLE
  5
337
100
AcDbEntity
  8
0
100
AcDbCircle
 62
2
  6
CONTINUOUS
 10
17.4992520845
 20
21.4311556968
 40
0.043795935
  0
CIRCLE
  5
338
100
AcDbEntity
  8
0
100
AcDbCircle
 62
2
  6
CONTINUOUS
 10
16.8938518916
 20
21.4205966691
 40
0.0317997452
  0
ARC
  5
339
100
AcDbEntity
  8
0
100
AcDbCircle
 62
2
  6
CONTINUOUS
 10
17.6988729984
 20
21.454573058
 40
0.0271961756
100
AcDbArc
 50
260.4787245939
 51
99.5212754061
  0
CIRCLE
  5
33A
100
AcDbEntity
  8
0
100
AcDbCircle
 62
2
  6
CONTINUOUS
 10
17.8318396527
 20
21.6888554825
 40
0.0202280646
  0
ARC
  5
33B
100
AcDbEntity
  8
_CURVE
100
AcDbCircle
 62
8
  6
PHANTOM
 10
40.8223401776
 20
16.6810550936
 40
30.9666359156
100
AcDbArc
 50
168.9221683748
 51
171.8860106762
  0
ARC
  5
33C
100
AcDbEntity
  8
_CURVE
100
AcDbCircle
 62
8
  6
PHANTOM
 10
40.8223401776
 20
16.6810550936
 40
30.9666359156
100
AcDbArc
 50
188.1139893238
 51
191.0778316252
  0
ARC
  5
33D
100
AcDbEntity
  8
_CURVE
100
AcDbCircle
 62
8
  6
PHANTOM
 10
3.1390683463
 20
16.6810550936
 40
30.9666359156
100
AcDbArc
 50
348.9221683748
 51
351.8860106762
  0
ARC
  5
33E
100
AcDbEntity
  8
_CURVE
100
AcDbCircle
 62
8
  6
PHANTOM
 10
3.1390683463
 20
16.6810550936
 40
30.9666359156
100
AcDbArc
 50
8.1139893238
 51
11.0778316252
  0
ARC
  5
33F
100
AcDbEntity
  8
_CURVE
100
AcDbCircle
 62
8
  6
PHANTOM
 10
22.168842323
 20
13.9464113574
 40
14.6
100
AcDbArc
 50
122.7102677045
 51
143.4988720251
  0
ARC
  5
340
100
AcDbEntity
  8
_CURVE
100
AcDbCircle
 62
8
  6
PHANTOM
 10
21.7925662009
 20
13.9464113574
 40
14.6
100
AcDbArc
 50
36.5011279749
 51
57.2897322955
  0
ARC
  5
341
100
AcDbEntity
  8
_CURVE
100
AcDbCircle
 62
8
  6
PHANTOM
 10
15.080704262
 20
12.5066667388
 40
4.9756116453
100
AcDbArc
 50
200.9076659672
 51
270.0
  0
ARC
  5
342
100
AcDbEntity
  8
_CURVE
100
AcDbCircle
 62
8
  6
PHANTOM
 10
28.880704262
 20
12.5066667388
 40
4.9756116453
100
AcDbArc
 50
270.0
 51
339.0923340328
  0
ARC
  5
343
100
AcDbEntity
  8
_CURVE
100
AcDbCircle
 62
7
  6
CONTINUOUS
 10
15.1759725134
 20
11.0960550936
 40
2.44
100
AcDbArc
 50
224.6840884393
 51
270.0
  0
ARC
  5
344
100
AcDbEntity
  8
_CURVE
100
AcDbCircle
 62
7
  6
CONTINUOUS
 10
28.7854360106
 20
11.0960550936
 40
2.44
100
AcDbArc
 50
270.0
 51
315.3159115607
  0
SPLINE
  5
345
100
AcDbEntity
  8
_CURVE
100
AcDbSpline
 62
8
  6
PHANTOM
 70
0
 71
3
 72
11
 73
7
 74
0
 42
0.0000001
 43
0.0000001
 44
0.0000000001
 40
0.0
 40
0.0
 40
0.0
 40
0.0
 40
0.1237669728
 40
0.3131787448
 40
0.6920022888
 40
1.0
 40
1.0
 40
1.0
 40
1.0
 10
19.4465052996
 20
28.5310550936
 30
0.0
 10
19.2144991813
 20
28.4850129337
 30
0.0
 10
18.63075857
 20
28.3526446806
 30
0.0
 10
17.3645362185
 20
27.9723326832
 30
0.0
 10
15.8362196943
 20
27.2927609665
 30
0.0
 10
14.7428307623
 20
26.583308344
 30
0.0
 10
14.2791320447
 20
26.2310550936
 30
0.0
  0
SPLINE
  5
346
100
AcDbEntity
  8
_CURVE
100
AcDbSpline
 62
8
  6
PHANTOM
 70
0
 71
3
 72
11
 73
7
 74
0
 42
0.0000001
 43
0.0000001
 44
0.0000000001
 40
0.0
 40
0.0
 40
0.0
 40
0.0
 40
0.3079977112
 40
0.6868212552
 40
0.8762330272
 40
1.0
 40
1.0
 40
1.0
 40
1.0
 10
29.6822764792
 20
26.2310550936
 30
0.0
 10
29.2185777616
 20
26.583308344
 30
0.0
 10
28.1251888296
 20
27.2927609665
 30
0.0
 10
26.5968723054
 20
27.9723326832
 30
0.0
 10
25.3306499539
 20
28.3526446806
 30
0.0
 10
24.7469093426
 20
28.4850129337
 30
0.0
 10
24.5149032243
 20
28.5310550936
 30
0.0
  0
SPLINE
  5
347
100
AcDbEntity
  8
_CURVE
100
AcDbSpline
 62
7
  6
CONTINUOUS
 70
0
 71
3
 72
12
 73
8
 74
0
 42
0.0000001
 43
0.0000001
 44
0.0000000001
 40
0.0
 40
0.0
 40
0.0
 40
0.0
 40
0.0757250461
 40
0.3074195732
 40
0.5361066397
 40
0.8453688799
 40
1.0
 40
1.0
 40
1.0
 40
1.0
 10
30.5202632874
 20
9.3802537299
 30
0.0
 10
30.9974789575
 20
9.8627610755
 30
0.0
 10
32.4843386394
 20
12.0106032541
 30
0.0
 10
33.348673945
 20
16.4118169968
 30
0.0
 10
32.1287439179
 20
23.1893259806
 30
0.0
 10
27.2854399604
 20
26.9819840054
 30
0.0
 10
23.3034939011
 20
27.6560550936
 30
0.0
 10
21.980704262
 20
27.6560550936
 30
0.0
  0
SPLINE
  5
348
100
AcDbEntity
  8
_CURVE
100
AcDbSpline
 62
7
  6
CONTINUOUS
 70
0
 71
3
 72
12
 73
8
 74
0
 42
0.0000001
 43
0.0000001
 44
0.0000000001
 40
0.0
 40
0.0
 40
0.0
 40
0.0
 40
0.1546311201
 40
0.4638933603
 40
0.6925804268
 40
0.9242749539
 40
1.0
 40
1.0
 40
1.0
 40
1.0
 10
21.980704262
 20
27.6560550936
 30
0.0
 10
20.6579146228
 20
27.6560550936
 30
0.0
 10
16.6759685635
 20
26.9819840054
 30
0.0
 10
11.832664606
 20
23.1893259806
 30
0.0
 10
10.6127345789
 20
16.4118169968
 30
0.0
 10
11.4770698845
 20
12.0106032541
 30
0.0
 10
12.9639295664
 20
9.8627610755
 30
0.0
 10
13.4411452365
 20
9.3802537299
 30
0.0
  0
ENDSEC
  0
SECTION
  2
OBJECTS
  0
DICTIONARY
  5
349
100
AcDbDictionary
  3
ACAD_GROUP
350
34A
  3
ACAD_MLINESTYLE
350
34B
  0
DICTIONARY
  5
34A
102
{ACAD_REACTORS
330
349
102
}
100
AcDbDictionary
  0
DICTIONARY
  5
34B
102
{ACAD_REACTORS
330
349
102
}
100
AcDbDictionary
  3
STANDARD
350
34C
  0
MLINESTYLE
  5
34C
102
{ACAD_REACTORS
330
34B
102
}
100
AcDbMlineStyle
  2
STANDARD
 70
0
  3

 62
256
 51
90.0
 52
90.0
 71
2
 49
0.5
 62
256
  6
BYLAYER
 49
-0.5
 62
256
  6
BYLAYER
  0
ENDSEC
  0
EOF
