999
DXF file: 1105665-7.dxf
999
Pro/ENGINEER 2009220 by Parametric Technology Corporation
  0
SECTION
  2
HEADER
  9
$ACADVER
  1
AC1014
  9
$DWGCODEPAGE
  3
ANSI_1252
  9
$EXTMAX
 10
44.0
 20
34.0
 30
0.0
  9
$EXTMIN
 10
0.0
 20
0.0
 30
0.0
  9
$LIMMIN
 10
0.0
 20
0.0
  9
$LIMMAX
 10
44.0
 20
34.0
  9
$VIEWCTR
 10
22.0
 20
17.0
  9
$VIEWSIZE
 40
34.0
  9
$CLAYER
  8
0
  9
$LTSCALE
 40
2.42
  9
$CELTYPE
  6
BYLAYER
  9
$DIMSCALE
 40
1.0
  9
$DIMASZ
 40
0.1875
  9
$DIMEXO
 40
0.275
  9
$DIMDLI
 40
1.672
  9
$DIMEXE
 40
0.792
  9
$DIMCEN
 40
0.396
  9
$DIMLFAC
 40
1.0
  9
$DIMBLK
  1
_ARROW_FILLED
  9
$DIMTXT
 40
0.15625
  9
$DIMTOL
 70
1
  9
$DIMLIM
 70
0
  9
$DIMTFAC
 40
1.0
  9
$DIMTP
 40
0.0
  9
$DIMTM
 40
0.0
  9
$PDMODE
 70
3
  9
$PDSIZE
 40
0.3125
  9
$HANDSEED
  5
358
  9
$TILEMODE
 70
1
  9
$MEASUREMENT
 70
0
  0
ENDSEC
  0
SECTION
  2
CLASSES
  0
ENDSEC
  0
SECTION
  2
TABLES
  0
TABLE
  2
VPORT
  5
8
100
AcDbSymbolTable
 70
2
  0
VPORT
  5
1F4
100
AcDbSymbolTableRecord
100
AcDbViewportTableRecord
  2
*ACTIVE
 70
0
 10
0.0
 20
0.0
 11
1.0
 21
1.0
 12
22.0
 22
17.0
 13
0.0
 23
0.0
 14
1.0
 24
1.0
 15
0.0
 25
0.0
 16
0.0
 26
0.0
 36
1.0
 17
0.0
 27
0.0
 37
0.0
 40
34.0
 41
1.2941176471
 42
50.0
 43
0.0
 44
0.0
 50
0.0
 51
0.0
 71
0
 72
100
 73
1
 74
1
 75
0
 76
0
 77
0
 78
0
  0
ENDTAB
  0
TABLE
  2
LTYPE
  5
5
100
AcDbSymbolTable
 70
6
  0
LTYPE
  5
14
100
AcDbSymbolTableRecord
100
AcDbLinetypeTableRecord
  2
BYBLOCK
 70
0
  3

 72
65
 73
0
 40
0.0
  0
LTYPE
  5
15
100
AcDbSymbolTableRecord
100
AcDbLinetypeTableRecord
  2
BYLAYER
 70
0
  3

 72
65
 73
0
 40
0.0
  0
LTYPE
  5
16
100
AcDbSymbolTableRecord
100
AcDbLinetypeTableRecord
  2
CONTINUOUS
 70
64
  3
Solid line
 72
65
 73
0
 40
0.0
  0
LTYPE
  5
1F5
100
AcDbSymbolTableRecord
100
AcDbLinetypeTableRecord
  2
CENTER
 70
64
  3
____ _ ____ _ ____ _ ____ _ ____ _ ____ _ ____
 72
65
 73
4
 40
0.6
 49
0.375
 74
0
 49
-0.075
 74
0
 49
0.075
 74
0
 49
-0.075
 74
0
  0
LTYPE
  5
1F6
100
AcDbSymbolTableRecord
100
AcDbLinetypeTableRecord
  2
HIDDEN
 70
64
  3
- - - - - - - - - - - - - - - - - - - -
 72
65
 73
2
 40
0.2
 49
0.1
 74
0
 49
-0.1
 74
0
  0
LTYPE
  5
1F7
100
AcDbSymbolTableRecord
100
AcDbLinetypeTableRecord
  2
PHANTOM
 70
64
  3
_____ _ _ _____ _ _ _____ _ _ _____
 72
65
 73
6
 40
0.8
 49
0.45
 74
0
 49
-0.05
 74
0
 49
0.1
 74
0
 49
-0.05
 74
0
 49
0.1
 74
0
 49
-0.05
 74
0
  0
LTYPE
  5
1F8
100
AcDbSymbolTableRecord
100
AcDbLinetypeTableRecord
  2
DOT
 70
64
  3
. . . . . . . . . . . . . . . . . . . .
 72
65
 73
2
 40
0.2
 49
0.1
 74
0
 49
-0.1
 74
0
  0
LTYPE
  5
1F9
100
AcDbSymbolTableRecord
100
AcDbLinetypeTableRecord
  2
DASHED
 70
64
  3
- - - - - - - - - - - - - - - - - - - -
 72
65
 73
2
 40
0.2
 49
0.1
 74
0
 49
-0.1
 74
0
  0
ENDTAB
  0
TABLE
  2
LAYER
  5
2
100
AcDbSymbolTable
 70
36
  0
LAYER
  5
10
100
AcDbSymbolTableRecord
100
AcDbLayerTableRecord
  2
0
 70
0
 62
7
  6
CONTINUOUS
  0
LAYER
  5
1FA
100
AcDbSymbolTableRecord
100
AcDbLayerTableRecord
  2
DEFAULT_1
 70
0
 62
7
  6
CENTER
  0
LAYER
  5
1FB
100
AcDbSymbolTableRecord
100
AcDbLayerTableRecord
  2
DEFAULT_2
 70
0
 62
8
  6
HIDDEN
  0
LAYER
  5
1FC
100
AcDbSymbolTableRecord
100
AcDbLayerTableRecord
  2
DEFAULT_3
 70
0
 62
7
  6
PHANTOM
  0
LAYER
  5
1FD
100
AcDbSymbolTableRecord
100
AcDbLayerTableRecord
  2
DATUMS
 70
0
 62
7
  6
CONTINUOUS
  0
LAYER
  5
1FE
100
AcDbSymbolTableRecord
100
AcDbLayerTableRecord
  2
DATUM_AXIS
 70
0
 62
7
  6
CONTINUOUS
  0
LAYER
  5
1FF
100
AcDbSymbolTableRecord
100
AcDbLayerTableRecord
  2
DATUM_CSYS
 70
0
 62
7
  6
CONTINUOUS
  0
LAYER
  5
200
100
AcDbSymbolTableRecord
100
AcDbLayerTableRecord
  2
DATUM_PLANE
 70
0
 62
7
  6
CONTINUOUS
  0
LAYER
  5
201
100
AcDbSymbolTableRecord
100
AcDbLayerTableRecord
  2
DATUM_POINT
 70
0
 62
7
  6
CONTINUOUS
  0
LAYER
  5
202
100
AcDbSymbolTableRecord
100
AcDbLayerTableRecord
  2
_CURVE
 70
0
 62
7
  6
CONTINUOUS
  0
LAYER
  5
203
100
AcDbSymbolTableRecord
100
AcDbLayerTableRecord
  2
_SURFACE
 70
0
 62
7
  6
CONTINUOUS
  0
LAYER
  5
204
100
AcDbSymbolTableRecord
100
AcDbLayerTableRecord
  2
__REF_CURVE
 70
0
 62
7
  6
CONTINUOUS
  0
LAYER
  5
205
100
AcDbSymbolTableRecord
100
AcDbLayerTableRecord
  2
__REF_SURFACE
 70
0
 62
7
  6
CONTINUOUS
  0
LAYER
  5
206
100
AcDbSymbolTableRecord
100
AcDbLayerTableRecord
  2
___NOTE
 70
0
 62
7
  6
CONTINUOUS
  0
LAYER
  5
207
100
AcDbSymbolTableRecord
100
AcDbLayerTableRecord
  2
___SYMBOL
 70
0
 62
7
  6
CONTINUOUS
  0
ENDTAB
  0
TABLE
  2
STYLE
  5
3
100
AcDbSymbolTable
 70
1
  0
STYLE
  5
11
100
AcDbSymbolTableRecord
100
AcDbTextStyleTableRecord
  2
STANDARD
 70
0
 40
0.0
 41
0.8
 50
0.0
 71
0
 42
0.2
  3
txt
  4

  0
STYLE
  5
208
100
AcDbSymbolTableRecord
100
AcDbTextStyleTableRecord
  2
TEXTSTYLE_1
 70
0
 40
0.0
 41
0.8
 50
0.0
 71
0
 42
0.2
  3
gdt
  4

  0
STYLE
  5
209
100
AcDbSymbolTableRecord
100
AcDbTextStyleTableRecord
  2
TEXTSTYLE_2
 70
0
 40
0.0
 41
1.0
 50
0.0
 71
0
 42
0.2
  3
txt
  4

  0
ENDTAB
  0
TABLE
  2
VIEW
  5
6
100
AcDbSymbolTable
 70
0
  0
ENDTAB
  0
TABLE
  2
UCS
  5
7
100
AcDbSymbolTable
 70
0
  0
ENDTAB
  0
TABLE
  2
APPID
  5
9
100
AcDbSymbolTable
 70
1
  0
APPID
  5
20A
100
AcDbSymbolTableRecord
100
AcDbRegAppTableRecord
  2
ACAD
 70
0
  0
ENDTAB
  0
TABLE
  2
BLOCK_RECORD
  5
1
100
AcDbSymbolTable
 70
0
  0
BLOCK_RECORD
  5
1F
100
AcDbSymbolTableRecord
100
AcDbBlockTableRecord
  2
*MODEL_SPACE
  0
BLOCK_RECORD
  5
1B
100
AcDbSymbolTableRecord
100
AcDbBlockTableRecord
  2
*PAPER_SPACE
  0
BLOCK_RECORD
  5
20B
100
AcDbSymbolTableRecord
100
AcDbBlockTableRecord
  2
_ARROW_FILLED
  0
BLOCK_RECORD
  5
20C
100
AcDbSymbolTableRecord
100
AcDbBlockTableRecord
  2
*D0
  0
BLOCK_RECORD
  5
20D
100
AcDbSymbolTableRecord
100
AcDbBlockTableRecord
  2
*D1
  0
BLOCK_RECORD
  5
20E
100
AcDbSymbolTableRecord
100
AcDbBlockTableRecord
  2
*D2
  0
BLOCK_RECORD
  5
20F
100
AcDbSymbolTableRecord
100
AcDbBlockTableRecord
  2
*D3
  0
BLOCK_RECORD
  5
210
100
AcDbSymbolTableRecord
100
AcDbBlockTableRecord
  2
TEMPLATE_NUMBER_BL4
  0
BLOCK_RECORD
  5
211
100
AcDbSymbolTableRecord
100
AcDbBlockTableRecord
  2
TEMPLATE_NUMBER_BL3
  0
BLOCK_RECORD
  5
212
100
AcDbSymbolTableRecord
100
AcDbBlockTableRecord
  2
COPYRIGHT_YEAR_BL2
  0
BLOCK_RECORD
  5
213
100
AcDbSymbolTableRecord
100
AcDbBlockTableRecord
  2
SKU_SINK_STERLING_BL1
  0
BLOCK_RECORD
  5
214
100
AcDbSymbolTableRecord
100
AcDbBlockTableRecord
  2
WHEN_PLOTTING_TEMPLATE_N_BL0
  0
ENDTAB
  0
TABLE
  2
DIMSTYLE
  5
A
100
AcDbSymbolTable
 70
1
  0
DIMSTYLE
105
215
100
AcDbSymbolTableRecord
100
AcDbDimStyleTableRecord
  2
STANDARD
 70
0
  3

  4

  5
_ARROW_FILLED
  6
_ARROW_FILLED
  7
_ARROW_FILLED
 40
1.0
 41
0.1875
 42
0.0625
 43
0.38
 44
0.18
 45
0.0
 46
0.0
 47
0.0
 48
0.0
140
0.15625
141
0.09
142
0.0
143
25.4
144
1.0
145
0.0
146
1.0
147
0.09
 71
1.0
 72
0.0
 73
1
 74
1
 75
0
 76
0
 77
0
 78
4
170
0
171
2
172
0
173
0
174
0
175
0
176
0
177
0
178
0
270
2
271
0
272
0
273
2
274
2
275
0
280
0
281
0
282
0
283
1
284
4
285
0
286
0
287
3
288
0
340
11
  0
DIMSTYLE
105
216
100
AcDbSymbolTableRecord
100
AcDbDimStyleTableRecord
  2
DIMSTYLE_1
 70
0
  3

  4

  5
_ARROW_FILLED
  6
_ARROW_FILLED
  7
_ARROW_FILLED
 40
1.0
 41
0.1875
 42
0.0625
 43
0.38
 44
0.18
 45
0.0
 46
0.0
 47
0.1875
 48
0.1875
140
0.15625
141
0.09
142
0.0
143
25.4
144
1.0
145
0.0
146
1.0
147
0.09
 71
0.0
 72
0.0
 73
1
 74
1
 75
0
 76
0
 77
0
 78
4
170
0
171
2
172
0
173
0
174
0
175
0
176
0
177
0
178
0
270
2
271
5
272
5
273
2
274
2
275
0
280
0
281
0
282
0
283
1
284
4
285
0
286
0
287
3
288
0
340
11
  0
DIMSTYLE
105
217
100
AcDbSymbolTableRecord
100
AcDbDimStyleTableRecord
  2
DIMSTYLE_2
 70
0
  3

  4

  5
_ARROW_FILLED
  6
_ARROW_FILLED
  7
_ARROW_FILLED
 40
1.0
 41
0.1875
 42
0.0625
 43
0.38
 44
0.18
 45
0.0
 46
0.0
 47
0.03125
 48
0.03125
140
0.15625
141
0.09
142
0.0
143
25.4
144
1.0
145
0.0
146
1.0
147
0.09
 71
0.0
 72
0.0
 73
1
 74
1
 75
0
 76
0
 77
0
 78
4
170
0
171
2
172
0
173
0
174
0
175
0
176
0
177
0
178
0
270
2
271
5
272
5
273
2
274
2
275
0
280
0
281
0
282
0
283
1
284
4
285
0
286
0
287
3
288
0
340
11
  0
ENDTAB
  0
ENDSEC
  0
SECTION
  2
BLOCKS
  0
BLOCK
  5
20
100
AcDbEntity
  8
0
100
AcDbBlockBegin
  2
*MODEL_SPACE
 70
0
 10
0.0
 20
0.0
 30
0.0
  3
*MODEL_SPACE
  1

  0
ENDBLK
  5
21
100
AcDbEntity
  8
0
100
AcDbBlockEnd
  0
BLOCK
  5
1C
100
AcDbEntity
  8
0
100
AcDbBlockBegin
  2
*PAPER_SPACE
 70
0
 10
0.0
 20
0.0
 30
0.0
  3
*PAPER_SPACE
  1

  0
ENDBLK
  5
1D
100
AcDbEntity
  8
0
100
AcDbBlockEnd
  0
BLOCK
  5
218
100
AcDbEntity
  8
___SYMBOL
100
AcDbBlockBegin
 62
2
  6
CONTINUOUS
  2
TEMPLATE_NUMBER_BL4
 70
64
 10
14.1243481306
 20
8.0204117612
  3
TEMPLATE_NUMBER_BL4
  1

  0
MTEXT
  5
219
100
AcDbEntity
  8
___SYMBOL
100
AcDbMText
 62
2
  6
CONTINUOUS
  7
STANDARD
 71
1
 72
1
 10
13.8141482281
 20
8.0556617501
 30
0.0
 11
1.0
 21
0.0
 31
0.0
  1
1105665-7-B
 40
0.0704999778
 41
0.620399805
  0
ENDBLK
  5
21A
100
AcDbEntity
  8
0
  6
BYBLOCK
 62
0
100
AcDbBlockEnd
  0
BLOCK
  5
21B
100
AcDbEntity
  8
___SYMBOL
100
AcDbBlockBegin
 62
2
  6
CONTINUOUS
  2
TEMPLATE_NUMBER_BL3
 70
64
 10
14.1084769128
 20
9.6773716901
  3
TEMPLATE_NUMBER_BL3
  1

  0
MTEXT
  5
21C
100
AcDbEntity
  8
___SYMBOL
100
AcDbMText
 62
2
  6
CONTINUOUS
  7
STANDARD
 71
1
 72
1
 10
13.7982770103
 20
9.712621679
 30
0.0
 11
1.0
 21
0.0
 31
0.0
  1
1105665-7-B
 40
0.0704999778
 41
0.620399805
  0
ENDBLK
  5
21D
100
AcDbEntity
  8
0
  6
BYBLOCK
 62
0
100
AcDbBlockEnd
  0
BLOCK
  5
21E
100
AcDbEntity
  8
___SYMBOL
100
AcDbBlockBegin
 62
2
  6
CONTINUOUS
  2
COPYRIGHT_YEAR_BL2
 70
64
 10
28.049169429
 20
9.6847078815
  3
COPYRIGHT_YEAR_BL2
  1

  0
CIRCLE
  5
21F
100
AcDbEntity
  8
___SYMBOL
100
AcDbCircle
 62
7
  6
CONTINUOUS
 10
27.6096870542
 20
9.6871555067
 40
0.0328259996
  0
MTEXT
  5
220
100
AcDbEntity
  8
___SYMBOL
100
AcDbMText
 62
2
  6
CONTINUOUS
  7
STANDARD
 71
1
 72
1
 10
27.6754778034
 20
9.7199342568
 30
0.0
 11
1.0
 21
0.0
 31
0.0
  1
2008
 40
0.0705
 41
0.2256
  0
MTEXT
  5
221
100
AcDbEntity
  8
___SYMBOL
100
AcDbMText
 62
2
  6
CONTINUOUS
  7
STANDARD
 71
1
 72
1
 10
27.9010778034
 20
9.7199342568
 30
0.0
 11
1.0
 21
0.0
 31
0.0
  1
 KOHLER CO.
 40
0.0705
 41
0.6204
  0
MTEXT
  5
222
100
AcDbEntity
  8
___SYMBOL
100
AcDbMText
 62
2
  6
CONTINUOUS
  7
TEXTSTYLE_2
 71
1
 72
1
 10
27.5954520543
 20
9.7081067565
 30
0.0
 11
1.0
 21
0.0
 31
0.0
  1
C
 40
0.0421874995
 41
0.0421874995
  0
ENDBLK
  5
223
100
AcDbEntity
  8
0
  6
BYBLOCK
 62
0
100
AcDbBlockEnd
  0
BLOCK
  5
224
100
AcDbEntity
  8
___SYMBOL
100
AcDbBlockBegin
 62
2
  6
CONTINUOUS
  2
SKU_SINK_STERLING_BL1
 70
64
 10
16.3711420186
 20
20.4630957304
  3
SKU_SINK_STERLING_BL1
  1

  0
SPLINE
  5
225
100
AcDbEntity
  8
___SYMBOL
100
AcDbSpline
 62
2
  6
CONTINUOUS
 70
0
 71
1
 72
7
 73
5
 74
0
 42
0.0000001
 43
0.0000001
 44
0.0000000001
 40
0.0
 40
0.0
 40
0.6323375
 40
4.1135388889
 40
4.7458763889
 40
8.2270777778
 40
8.2270777778
 10
13.9912639779
 20
22.581710834
 30
0.0
 10
13.9912639779
 20
23.214048334
 30
0.0
 10
17.4724653668
 20
23.214048334
 30
0.0
 10
17.4724653668
 20
22.581710834
 30
0.0
 10
13.9912639779
 20
22.581710834
 30
0.0
  0
LINE
  5
226
100
AcDbEntity
  8
___SYMBOL
100
AcDbLine
 62
2
  6
CONTINUOUS
 10
16.1247209223
 20
22.4934538895
 11
16.1605084223
 21
22.4934538895
  0
LINE
  5
227
100
AcDbEntity
  8
___SYMBOL
100
AcDbLine
 62
2
  6
CONTINUOUS
 10
16.1605084223
 20
22.4934538895
 11
16.1427334223
 21
22.5376427784
  0
LINE
  5
228
100
AcDbEntity
  8
___SYMBOL
100
AcDbLine
 62
2
  6
CONTINUOUS
 10
16.1427334223
 20
22.5376427784
 11
16.1247209223
 21
22.4934538895
  0
SPLINE
  5
229
100
AcDbEntity
  8
___SYMBOL
100
AcDbSpline
 62
2
  6
CONTINUOUS
 70
0
 71
1
 72
11
 73
9
 74
0
 42
0.0000001
 43
0.0000001
 44
0.0000000001
 40
0.0
 40
0.0
 40
0.1134275086
 40
0.1216747308
 40
0.1564300811
 40
0.1991078933
 40
0.2343111597
 40
0.2421375485
 40
0.3533508685
 40
0.3556574216
 40
0.3556574216
 10
16.1427334223
 20
22.5585302784
 30
0.0
 10
16.1852209223
 20
22.453360834
 30
0.0
 10
16.1769737001
 20
22.453360834
 30
0.0
 10
16.1642653668
 20
22.4857094451
 30
0.0
 10
16.121587589
 20
22.4857636118
 30
0.0
 10
16.1078278668
 20
22.453360834
 30
0.0
 10
16.1000014779
 20
22.453360834
 30
0.0
 10
16.141912589
 20
22.5563747229
 30
0.0
 10
16.1427334223
 20
22.5585302784
 30
0.0
  0
LINE
  5
22A
100
AcDbEntity
  8
___SYMBOL
100
AcDbLine
 62
2
  6
CONTINUOUS
 10
17.2320959223
 20
22.4934538895
 11
17.2678889779
 21
22.4934538895
  0
LINE
  5
22B
100
AcDbEntity
  8
___SYMBOL
100
AcDbLine
 62
2
  6
CONTINUOUS
 10
17.2678889779
 20
22.4934538895
 11
17.2501209223
 21
22.5376969451
  0
LINE
  5
22C
100
AcDbEntity
  8
___SYMBOL
100
AcDbLine
 62
2
  6
CONTINUOUS
 10
17.2501209223
 20
22.5376969451
 11
17.2320959223
 21
22.4934538895
  0
SPLINE
  5
22D
100
AcDbEntity
  8
___SYMBOL
100
AcDbSpline
 62
2
  6
CONTINUOUS
 70
0
 71
1
 72
11
 73
9
 74
0
 42
0.0000001
 43
0.0000001
 44
0.0000000001
 40
0.0
 40
0.0
 40
0.11343011
 40
0.1213787211
 40
0.1562542199
 40
0.1988986988
 40
0.2341150074
 40
0.2419275074
 40
0.3531303621
 40
0.3554489868
 40
0.3554489868
 10
17.2501209223
 20
22.5585302784
 30
0.0
 10
17.2926153668
 20
22.453360834
 30
0.0
 10
17.2846667557
 20
22.453360834
 30
0.0
 10
17.2716334223
 20
22.4857094451
 30
0.0
 10
17.2289889779
 20
22.4857636118
 30
0.0
 10
17.2151959223
 20
22.453360834
 30
0.0
 10
17.2073834223
 20
22.453360834
 30
0.0
 10
17.2492667557
 20
22.5563747229
 30
0.0
 10
17.2501209223
 20
22.5585302784
 30
0.0
  0
LINE
  5
22E
100
AcDbEntity
  8
___SYMBOL
100
AcDbLine
 62
2
  6
CONTINUOUS
 10
17.1827514779
 20
22.5460261118
 11
17.1827514779
 21
22.5078316673
  0
SPLINE
  5
22F
100
AcDbEntity
  8
___SYMBOL
100
AcDbSpline
 62
2
  6
CONTINUOUS
 70
0
 71
3
 72
23
 73
19
 74
0
 42
0.0000001
 43
0.0000001
 44
0.0000000001
 40
0.0381944444
 40
0.0381944444
 40
0.0381944444
 40
0.0381944444
 40
0.0486388889
 40
0.0486388889
 40
0.0486388889
 40
1.0486388889
 40
1.0486388889
 40
1.0486388889
 40
2.0486388889
 40
2.0486388889
 40
2.0486388889
 40
3.0486388889
 40
3.0486388889
 40
3.0486388889
 40
4.0486388889
 40
4.0486388889
 40
4.0486388889
 40
4.0580652778
 40
4.0580652778
 40
4.0580652778
 40
4.0580652778
 10
17.1827514779
 20
22.5078316673
 30
0.0
 10
17.1862329594
 20
22.5078316673
 30
0.0
 10
17.1897144409
 20
22.5078316673
 30
0.0
 10
17.1931959223
 20
22.5078316673
 30
0.0
 10
17.1998153668
 20
22.5078316673
 30
0.0
 10
17.2052092451
 20
22.5086272439
 30
0.0
 10
17.2099056446
 20
22.5129719451
 30
0.0
 10
17.2138931446
 20
22.516660834
 30
0.0
 10
17.2159820335
 20
22.5214080562
 30
0.0
 10
17.2159820335
 20
22.527023334
 30
0.0
 10
17.2159820335
 20
22.5333302784
 30
0.0
 10
17.2132080696
 20
22.5389139325
 30
0.0
 10
17.208875089
 20
22.5422677784
 30
0.0
 10
17.2040195335
 20
22.5460261118
 30
0.0
 10
17.197400089
 20
22.5460261118
 30
0.0
 10
17.1921778668
 20
22.5460261118
 30
0.0
 10
17.1890357372
 20
22.5460261118
 30
0.0
 10
17.1858936075
 20
22.5460261118
 30
0.0
 10
17.1827514779
 20
22.5460261118
 30
0.0
  0
LINE
  5
230
100
AcDbEntity
  8
___SYMBOL
100
AcDbLine
 62
2
  6
CONTINUOUS
 10
17.1827514779
 20
22.5001136118
 11
17.1827514779
 21
22.453360834
  0
LINE
  5
231
100
AcDbEntity
  8
___SYMBOL
100
AcDbLine
 62
2
  6
CONTINUOUS
 10
17.1827514779
 20
22.453360834
 11
17.1746278668
 21
22.453360834
  0
LINE
  5
232
100
AcDbEntity
  8
___SYMBOL
100
AcDbLine
 62
2
  6
CONTINUOUS
 10
17.1746278668
 20
22.453360834
 11
17.1746278668
 21
22.5537566673
  0
LINE
  5
233
100
AcDbEntity
  8
___SYMBOL
100
AcDbLine
 62
2
  6
CONTINUOUS
 10
17.1746278668
 20
22.5537566673
 11
17.192937589
 21
22.5537566673
  0
ARC
  5
234
100
AcDbEntity
  8
___SYMBOL
100
AcDbCircle
 62
2
  6
CONTINUOUS
 10
17.1974362125
 20
22.5269351395
 40
0.0271961756
100
AcDbArc
 50
260.4787245939
 51
99.5212754061
  0
LINE
  5
235
100
AcDbEntity
  8
___SYMBOL
100
AcDbLine
 62
2
  6
CONTINUOUS
 10
17.192937589
 20
22.5001136118
 11
17.1827514779
 21
22.5001136118
  0
LINE
  5
236
100
AcDbEntity
  8
___SYMBOL
100
AcDbLine
 62
2
  6
CONTINUOUS
 10
17.0486917557
 20
22.453360834
 11
17.0566528668
 21
22.453360834
  0
LINE
  5
237
100
AcDbEntity
  8
___SYMBOL
100
AcDbLine
 62
2
  6
CONTINUOUS
 10
17.0566528668
 20
22.453360834
 11
17.0730653668
 21
22.5330594451
  0
LINE
  5
238
100
AcDbEntity
  8
___SYMBOL
100
AcDbLine
 62
2
  6
CONTINUOUS
 10
17.0730653668
 20
22.5330594451
 11
17.1072042557
 21
22.4485316673
  0
LINE
  5
239
100
AcDbEntity
  8
___SYMBOL
100
AcDbLine
 62
2
  6
CONTINUOUS
 10
17.1072042557
 20
22.4485316673
 11
17.1414653668
 21
22.5330594451
  0
LINE
  5
23A
100
AcDbEntity
  8
___SYMBOL
100
AcDbLine
 62
2
  6
CONTINUOUS
 10
17.1414653668
 20
22.5330594451
 11
17.1579445335
 21
22.453360834
  0
LINE
  5
23B
100
AcDbEntity
  8
___SYMBOL
100
AcDbLine
 62
2
  6
CONTINUOUS
 10
17.1579445335
 20
22.453360834
 11
17.1658389779
 21
22.453360834
  0
LINE
  5
23C
100
AcDbEntity
  8
___SYMBOL
100
AcDbLine
 62
2
  6
CONTINUOUS
 10
17.1658389779
 20
22.453360834
 11
17.143825089
 21
22.559235834
  0
LINE
  5
23D
100
AcDbEntity
  8
___SYMBOL
100
AcDbLine
 62
2
  6
CONTINUOUS
 10
17.143825089
 20
22.559235834
 11
17.1072042557
 21
22.4688775007
  0
LINE
  5
23E
100
AcDbEntity
  8
___SYMBOL
100
AcDbLine
 62
2
  6
CONTINUOUS
 10
17.1072042557
 20
22.4688775007
 11
17.0707320335
 21
22.559235834
  0
LINE
  5
23F
100
AcDbEntity
  8
___SYMBOL
100
AcDbLine
 62
2
  6
CONTINUOUS
 10
17.0707320335
 20
22.559235834
 11
17.0486917557
 21
22.453360834
  0
CIRCLE
  5
240
100
AcDbEntity
  8
___SYMBOL
100
AcDbCircle
 62
2
  6
CONTINUOUS
 10
16.9978152986
 20
22.5035177784
 40
0.043795935
  0
CIRCLE
  5
241
100
AcDbEntity
  8
___SYMBOL
100
AcDbCircle
 62
2
  6
CONTINUOUS
 10
16.9982467367
 20
22.5035184729
 40
0.0514756023
  0
LINE
  5
242
100
AcDbEntity
  8
___SYMBOL
100
AcDbLine
 62
2
  6
CONTINUOUS
 10
16.7619084223
 20
22.5250427784
 11
16.7619084223
 21
22.5012802784
  0
SPLINE
  5
243
100
AcDbEntity
  8
___SYMBOL
100
AcDbSpline
 62
2
  6
CONTINUOUS
 70
0
 71
3
 72
17
 73
13
 74
0
 42
0.0000001
 43
0.0000001
 44
0.0000000001
 40
0.0237625
 40
0.0237625
 40
0.0237625
 40
0.0237625
 40
0.0333111111
 40
0.0333111111
 40
0.0333111111
 40
1.0333111111
 40
1.0333111111
 40
1.0333111111
 40
2.0333111111
 40
2.0333111111
 40
2.0333111111
 40
2.0428597222
 40
2.0428597222
 40
2.0428597222
 40
2.0428597222
 10
16.7619084223
 20
22.5012802784
 30
0.0
 10
16.7650912927
 20
22.5012802784
 30
0.0
 10
16.7682741631
 20
22.5012802784
 30
0.0
 10
16.7714570335
 20
22.5012802784
 30
0.0
 10
16.7779528668
 20
22.5012802784
 30
0.0
 10
16.7832973112
 20
22.5065427784
 30
0.0
 10
16.7832973112
 20
22.5130941673
 30
0.0
 10
16.7832973112
 20
22.519685834
 30
0.0
 10
16.7779528668
 20
22.5250427784
 30
0.0
 10
16.7714570335
 20
22.5250427784
 30
0.0
 10
16.7682741631
 20
22.5250427784
 30
0.0
 10
16.7650912927
 20
22.5250427784
 30
0.0
 10
16.7619084223
 20
22.5250427784
 30
0.0
  0
LINE
  5
244
100
AcDbEntity
  8
___SYMBOL
100
AcDbLine
 62
2
  6
CONTINUOUS
 10
16.7911917557
 20
22.4795650007
 11
16.8263070335
 21
22.4301802784
  0
LINE
  5
245
100
AcDbEntity
  8
___SYMBOL
100
AcDbLine
 62
2
  6
CONTINUOUS
 10
16.8263070335
 20
22.4301802784
 11
16.7894820335
 21
22.430248334
  0
LINE
  5
246
100
AcDbEntity
  8
___SYMBOL
100
AcDbLine
 62
2
  6
CONTINUOUS
 10
16.7894820335
 20
22.430248334
 11
16.761962589
 21
22.4681038895
  0
LINE
  5
247
100
AcDbEntity
  8
___SYMBOL
100
AcDbLine
 62
2
  6
CONTINUOUS
 10
16.761962589
 20
22.4681038895
 11
16.761962589
 21
22.4303302784
  0
LINE
  5
248
100
AcDbEntity
  8
___SYMBOL
100
AcDbLine
 62
2
  6
CONTINUOUS
 10
16.761962589
 20
22.4303302784
 11
16.7289764779
 21
22.4303302784
  0
LINE
  5
249
100
AcDbEntity
  8
___SYMBOL
100
AcDbLine
 62
2
  6
CONTINUOUS
 10
16.7289764779
 20
22.4303302784
 11
16.7289764779
 21
22.5536205562
  0
SPLINE
  5
24A
100
AcDbEntity
  8
___SYMBOL
100
AcDbSpline
 62
2
  6
CONTINUOUS
 70
0
 71
3
 72
11
 73
7
 74
0
 42
0.0000001
 43
0.0000001
 44
0.0000000001
 40
0.3382728571
 40
0.3382728571
 40
0.3382728571
 40
0.3382728571
 40
0.380549246
 40
0.380549246
 40
0.380549246
 40
1.380549246
 40
1.380549246
 40
1.380549246
 40
1.380549246
 10
16.7289764779
 20
22.5536205562
 30
0.0
 10
16.7430686075
 20
22.5536205562
 30
0.0
 10
16.7571607372
 20
22.5536205562
 30
0.0
 10
16.7712528668
 20
22.5536205562
 30
0.0
 10
16.808362589
 20
22.5536205562
 30
0.0
 10
16.8320445335
 20
22.5070302784
 30
0.0
 10
16.7911917557
 20
22.4795650007
 30
0.0
  0
SPLINE
  5
24B
100
AcDbEntity
  8
___SYMBOL
100
AcDbSpline
 62
2
  6
CONTINUOUS
 70
0
 71
1
 72
15
 73
13
 74
0
 42
0.0000001
 43
0.0000001
 44
0.0000000001
 40
0.0
 40
0.0
 40
0.0284416667
 40
0.0623097655
 40
0.0817742218
 40
0.1130783884
 40
0.1407200551
 40
0.1719297773
 40
0.1907561662
 40
0.2249367218
 40
0.2538811662
 40
0.3225672773
 40
0.4459394995
 40
0.5143672773
 40
0.5143672773
 10
16.7198070335
 20
22.5536205562
 30
0.0
 10
16.7198070335
 20
22.5251788895
 30
0.0
 10
16.6859389779
 20
22.5251247229
 30
0.0
 10
16.6857903668
 20
22.505660834
 30
0.0
 10
16.7170945335
 20
22.505660834
 30
0.0
 10
16.7170945335
 20
22.4780191673
 30
0.0
 10
16.6858848112
 20
22.4780191673
 30
0.0
 10
16.6858848112
 20
22.4591927784
 30
0.0
 10
16.7200653668
 20
22.4591927784
 30
0.0
 10
16.7200653668
 20
22.430248334
 30
0.0
 10
16.6513792557
 20
22.430248334
 30
0.0
 10
16.6513792557
 20
22.5536205562
 30
0.0
 10
16.7198070335
 20
22.5536205562
 30
0.0
  0
SPLINE
  5
24C
100
AcDbEntity
  8
___SYMBOL
100
AcDbSpline
 62
2
  6
CONTINUOUS
 70
0
 71
1
 72
16
 73
14
 74
0
 42
0.0000001
 43
0.0000001
 44
0.0000000001
 40
0.0
 40
0.0
 40
0.0762702112
 40
0.1616203838
 40
0.2062773801
 40
0.2642685662
 40
0.2643296773
 40
0.3082893996
 40
0.3420074551
 40
0.4653796773
 40
0.4990977329
 40
0.5360574551
 40
0.536321344
 40
0.5852365517
 40
0.6289171073
 40
0.6289171073
 10
16.341850089
 20
22.5535663895
 30
0.0
 10
16.2931709223
 20
22.4948511118
 30
0.0
 10
16.3488695335
 20
22.4301802784
 30
0.0
 10
16.304212589
 20
22.430248334
 30
0.0
 10
16.2663903668
 20
22.4742080562
 30
0.0
 10
16.2663292557
 20
22.4742080562
 30
0.0
 10
16.2663292557
 20
22.430248334
 30
0.0
 10
16.2326112001
 20
22.430248334
 30
0.0
 10
16.2326112001
 20
22.5536205562
 30
0.0
 10
16.2663292557
 20
22.5536205562
 30
0.0
 10
16.2663292557
 20
22.516660834
 30
0.0
 10
16.2660653668
 20
22.516660834
 30
0.0
 10
16.2981695335
 20
22.5535663895
 30
0.0
 10
16.341850089
 20
22.5535663895
 30
0.0
  0
SPLINE
  5
24D
100
AcDbEntity
  8
___SYMBOL
100
AcDbSpline
 62
2
  6
CONTINUOUS
 70
0
 71
1
 72
15
 73
13
 74
0
 42
0.0000001
 43
0.0000001
 44
0.0000000001
 40
0.0
 40
0.0
 40
0.1233722222
 40
0.1570361111
 40
0.2003027778
 40
0.2343472222
 40
0.2776138889
 40
0.3112708333
 40
0.4346430556
 40
0.4683
 40
0.5141986111
 40
0.5482430556
 40
0.5941416667
 40
0.6278055556
 40
0.6278055556
 10
16.459750089
 20
22.430248334
 30
0.0
 10
16.459750089
 20
22.5536205562
 30
0.0
 10
16.4934139779
 20
22.5536205562
 30
0.0
 10
16.4934139779
 20
22.5103538895
 30
0.0
 10
16.5274584223
 20
22.5103538895
 30
0.0
 10
16.5274584223
 20
22.5536205562
 30
0.0
 10
16.5611153668
 20
22.5536205562
 30
0.0
 10
16.5611153668
 20
22.430248334
 30
0.0
 10
16.5274584223
 20
22.430248334
 30
0.0
 10
16.5274584223
 20
22.4761469451
 30
0.0
 10
16.4934139779
 20
22.4761469451
 30
0.0
 10
16.4934139779
 20
22.430248334
 30
0.0
 10
16.459750089
 20
22.430248334
 30
0.0
  0
SPLINE
  5
24E
100
AcDbEntity
  8
___SYMBOL
100
AcDbSpline
 62
2
  6
CONTINUOUS
 70
0
 71
1
 72
9
 73
7
 74
0
 42
0.0000001
 43
0.0000001
 44
0.0000000001
 40
0.0
 40
0.0
 40
0.1233722222
 40
0.1570916667
 40
0.2489694444
 40
0.286825
 40
0.3183194444
 40
0.3898944444
 40
0.3898944444
 10
16.5708806446
 20
22.430248334
 30
0.0
 10
16.5708806446
 20
22.5536205562
 30
0.0
 10
16.604600089
 20
22.5536205562
 30
0.0
 10
16.604600089
 20
22.4617427784
 30
0.0
 10
16.6424556446
 20
22.4617427784
 30
0.0
 10
16.6424556446
 20
22.430248334
 30
0.0
 10
16.5708806446
 20
22.430248334
 30
0.0
  0
LINE
  5
24F
100
AcDbEntity
  8
___SYMBOL
100
AcDbLine
 62
2
  6
CONTINUOUS
 10
17.460462589
 20
22.5537566673
 11
17.4314764779
 21
22.5047386118
  0
LINE
  5
250
100
AcDbEntity
  8
___SYMBOL
100
AcDbLine
 62
2
  6
CONTINUOUS
 10
17.4314764779
 20
22.5047386118
 11
17.4031431446
 21
22.5537566673
  0
LINE
  5
251
100
AcDbEntity
  8
___SYMBOL
100
AcDbLine
 62
2
  6
CONTINUOUS
 10
17.4031431446
 20
22.5537566673
 11
17.3938653668
 21
22.5537566673
  0
LINE
  5
252
100
AcDbEntity
  8
___SYMBOL
100
AcDbLine
 62
2
  6
CONTINUOUS
 10
17.3938653668
 20
22.5537566673
 11
17.4275028668
 21
22.4958816673
  0
LINE
  5
253
100
AcDbEntity
  8
___SYMBOL
100
AcDbLine
 62
2
  6
CONTINUOUS
 10
17.4275028668
 20
22.4958816673
 11
17.4273542557
 21
22.453360834
  0
LINE
  5
254
100
AcDbEntity
  8
___SYMBOL
100
AcDbLine
 62
2
  6
CONTINUOUS
 10
17.4273542557
 20
22.453360834
 11
17.4354778668
 21
22.453360834
  0
LINE
  5
255
100
AcDbEntity
  8
___SYMBOL
100
AcDbLine
 62
2
  6
CONTINUOUS
 10
17.4354778668
 20
22.453360834
 11
17.4354778668
 21
22.4963705562
  0
LINE
  5
256
100
AcDbEntity
  8
___SYMBOL
100
AcDbLine
 62
2
  6
CONTINUOUS
 10
17.4354778668
 20
22.4963705562
 11
17.4689792557
 21
22.5537566673
  0
LINE
  5
257
100
AcDbEntity
  8
___SYMBOL
100
AcDbLine
 62
2
  6
CONTINUOUS
 10
17.4689792557
 20
22.5537566673
 11
17.460462589
 21
22.5537566673
  0
LINE
  5
258
100
AcDbEntity
  8
___SYMBOL
100
AcDbLine
 62
2
  6
CONTINUOUS
 10
17.2980139779
 20
22.453360834
 11
17.3061112001
 21
22.453360834
  0
LINE
  5
259
100
AcDbEntity
  8
___SYMBOL
100
AcDbLine
 62
2
  6
CONTINUOUS
 10
17.3061112001
 20
22.453360834
 11
17.3061112001
 21
22.536585834
  0
LINE
  5
25A
100
AcDbEntity
  8
___SYMBOL
100
AcDbLine
 62
2
  6
CONTINUOUS
 10
17.3061112001
 20
22.536585834
 11
17.3888612001
 21
22.4486816673
  0
LINE
  5
25B
100
AcDbEntity
  8
___SYMBOL
100
AcDbLine
 62
2
  6
CONTINUOUS
 10
17.3888612001
 20
22.4486816673
 11
17.3888612001
 21
22.5537566673
  0
LINE
  5
25C
100
AcDbEntity
  8
___SYMBOL
100
AcDbLine
 62
2
  6
CONTINUOUS
 10
17.3888612001
 20
22.5537566673
 11
17.3807639779
 21
22.5537566673
  0
LINE
  5
25D
100
AcDbEntity
  8
___SYMBOL
100
AcDbLine
 62
2
  6
CONTINUOUS
 10
17.3807639779
 20
22.5537566673
 11
17.3807639779
 21
22.4690663895
  0
LINE
  5
25E
100
AcDbEntity
  8
___SYMBOL
100
AcDbLine
 62
2
  6
CONTINUOUS
 10
17.3807639779
 20
22.4690663895
 11
17.2980139779
 21
22.5563747229
  0
LINE
  5
25F
100
AcDbEntity
  8
___SYMBOL
100
AcDbLine
 62
2
  6
CONTINUOUS
 10
17.2980139779
 20
22.5563747229
 11
17.2980139779
 21
22.453360834
  0
LINE
  5
260
100
AcDbEntity
  8
___SYMBOL
100
AcDbLine
 62
2
  6
CONTINUOUS
 10
16.9396153668
 20
22.4645094451
 11
16.9399681446
 21
22.4738552784
  0
LINE
  5
261
100
AcDbEntity
  8
___SYMBOL
100
AcDbLine
 62
2
  6
CONTINUOUS
 10
16.9399681446
 20
22.4738552784
 11
16.9399681446
 21
22.4764052784
  0
LINE
  5
262
100
AcDbEntity
  8
___SYMBOL
100
AcDbLine
 62
2
  6
CONTINUOUS
 10
16.9399681446
 20
22.4764052784
 11
16.9382862001
 21
22.4743844451
  0
LINE
  5
263
100
AcDbEntity
  8
___SYMBOL
100
AcDbLine
 62
2
  6
CONTINUOUS
 10
16.9382862001
 20
22.4743844451
 11
16.9060181446
 21
22.4597219451
  0
SPLINE
  5
264
100
AcDbEntity
  8
___SYMBOL
100
AcDbSpline
 62
2
  6
CONTINUOUS
 70
0
 71
3
 72
8
 73
4
 74
0
 42
0.0000001
 43
0.0000001
 44
0.0000000001
 40
0.0506940081
 40
0.0506940081
 40
0.0506940081
 40
0.0506940081
 40
0.1856215675
 40
0.1856215675
 40
0.1856215675
 40
0.1856215675
 10
16.9060181446
 20
22.4597219451
 30
0.0
 10
16.8477637672
 20
22.4625788617
 30
0.0
 10
16.8476446532
 20
22.5462076476
 30
0.0
 10
16.9060181446
 20
22.5473136118
 30
0.0
  0
LINE
  5
265
100
AcDbEntity
  8
___SYMBOL
100
AcDbLine
 62
2
  6
CONTINUOUS
 10
16.9060181446
 20
22.5473136118
 11
16.9399681446
 21
22.5300886118
  0
LINE
  5
266
100
AcDbEntity
  8
___SYMBOL
100
AcDbLine
 62
2
  6
CONTINUOUS
 10
16.9399681446
 20
22.5300886118
 11
16.9399681446
 21
22.5412913895
  0
ARC
  5
267
100
AcDbEntity
  8
___SYMBOL
100
AcDbCircle
 62
2
  6
CONTINUOUS
 10
16.9052930295
 20
22.5034436607
 40
0.0513304411
100
AcDbArc
 50
47.5048873671
 51
180.0087362707
  0
ARC
  5
268
100
AcDbEntity
  8
___SYMBOL
100
AcDbCircle
 62
2
  6
CONTINUOUS
 10
16.9058680199
 20
22.5039499656
 40
0.0519079771
100
AcDbArc
 50
180.5675053294
 51
310.5520051654
  0
CIRCLE
  5
269
100
AcDbEntity
  8
___SYMBOL
100
AcDbCircle
 62
2
  6
CONTINUOUS
 10
16.3924151057
 20
22.4929587507
 40
0.0317997452
  0
SPLINE
  5
26A
100
AcDbEntity
  8
___SYMBOL
100
AcDbSpline
 62
2
  6
CONTINUOUS
 70
0
 71
3
 72
14
 73
10
 74
0
 42
0.0000001
 43
0.0000001
 44
0.0000000001
 40
0.0
 40
0.0
 40
0.0
 40
0.0
 40
0.0987956343
 40
0.0987956343
 40
0.1968605605
 40
0.1968605605
 40
0.2954509101
 40
0.2954509101
 40
0.3933711843
 40
0.3933711843
 40
0.3933711843
 40
0.3933711843
 10
16.3256417557
 20
22.4929788895
 30
0.0
 10
16.3254700735
 20
22.5282865353
 30
0.0
 10
16.3534772093
 20
22.5573895145
 30
0.0
 10
16.4244078797
 20
22.5570984073
 30
0.0
 10
16.4527092362
 20
22.5280030859
 30
0.0
 10
16.4529424003
 20
22.4575622149
 30
0.0
 10
16.424864666
 20
22.428516518
 30
0.0
 10
16.3539391682
 20
22.4288310343
 30
0.0
 10
16.3254313708
 20
22.4576376506
 30
0.0
 10
16.3256417557
 20
22.4929788895
 30
0.0
  0
SPLINE
  5
26B
100
AcDbEntity
  8
___SYMBOL
100
AcDbSpline
 62
2
  6
CONTINUOUS
 70
0
 71
3
 72
17
 73
13
 74
0
 42
0.0000001
 43
0.0000001
 44
0.0000000001
 40
0.0
 40
0.0
 40
0.0
 40
0.0
 40
0.0032416667
 40
0.0032416667
 40
0.0032416667
 40
1.0032416667
 40
1.0032416667
 40
1.0032416667
 40
2.0032416667
 40
2.0032416667
 40
2.0032416667
 40
3.0032416667
 40
3.0032416667
 40
3.0032416667
 40
3.0032416667
 10
17.3256417557
 20
22.7610788895
 30
0.0
 10
17.3267223112
 20
22.7610788895
 30
0.0
 10
17.3278028668
 20
22.7610788895
 30
0.0
 10
17.3288834223
 20
22.7610788895
 30
0.0
 10
17.3325862001
 20
22.7610788895
 30
0.0
 10
17.3357195335
 20
22.7624219451
 30
0.0
 10
17.3357195335
 20
22.7658872229
 30
0.0
 10
17.3357195335
 20
22.7683566673
 30
0.0
 10
17.3339292557
 20
22.7708247229
 30
0.0
 10
17.3288834223
 20
22.7708247229
 30
0.0
 10
17.3274320335
 20
22.7708247229
 30
0.0
 10
17.3264292557
 20
22.7707025007
 30
0.0
 10
17.3256417557
 20
22.7705872229
 30
0.0
  0
LINE
  5
26C
100
AcDbEntity
  8
___SYMBOL
100
AcDbLine
 62
2
  6
CONTINUOUS
 10
17.3256417557
 20
22.7705872229
 11
17.3256417557
 21
22.7610788895
  0
LINE
  5
26D
100
AcDbEntity
  8
___SYMBOL
100
AcDbLine
 62
2
  6
CONTINUOUS
 10
17.3256417557
 20
22.7455150007
 11
17.3211667557
 21
22.7455150007
  0
LINE
  5
26E
100
AcDbEntity
  8
___SYMBOL
100
AcDbLine
 62
2
  6
CONTINUOUS
 10
17.3211667557
 20
22.7455150007
 11
17.3211667557
 21
22.7736122229
  0
SPLINE
  5
26F
100
AcDbEntity
  8
___SYMBOL
100
AcDbSpline
 62
2
  6
CONTINUOUS
 70
0
 71
3
 72
17
 73
13
 74
0
 42
0.0000001
 43
0.0000001
 44
0.0000000001
 40
0.0325722222
 40
0.0325722222
 40
0.0325722222
 40
0.0325722222
 40
1.0325722222
 40
1.0325722222
 40
1.0325722222
 40
2.0325722222
 40
2.0325722222
 40
2.0325722222
 40
3.0325722222
 40
3.0325722222
 40
3.0325722222
 40
4.0325722222
 40
4.0325722222
 40
4.0325722222
 40
4.0325722222
 10
17.3211667557
 20
22.7736122229
 30
0.0
 10
17.323512589
 20
22.7739580562
 30
0.0
 10
17.325750089
 20
22.7742830562
 30
0.0
 10
17.3291139779
 20
22.7742830562
 30
0.0
 10
17.3333737001
 20
22.7742830562
 30
0.0
 10
17.3361716231
 20
22.7733952521
 30
0.0
 10
17.3378487001
 20
22.772160834
 30
0.0
 10
17.3395167557
 20
22.7709330562
 30
0.0
 10
17.3404264779
 20
22.7690205562
 30
0.0
 10
17.3404264779
 20
22.7663413895
 30
0.0
 10
17.3404264779
 20
22.7626455562
 30
0.0
 10
17.3379570335
 20
22.7604011118
 30
0.0
 10
17.3349334223
 20
22.7595122229
 30
0.0
  0
LINE
  5
270
100
AcDbEntity
  8
___SYMBOL
100
AcDbLine
 62
2
  6
CONTINUOUS
 10
17.3349334223
 20
22.7595122229
 11
17.3349334223
 21
22.7592886118
  0
LINE
  5
271
100
AcDbEntity
  8
___SYMBOL
100
AcDbLine
 62
2
  6
CONTINUOUS
 10
17.3349334223
 20
22.7592886118
 11
17.3414167557
 21
22.7455150007
  0
LINE
  5
272
100
AcDbEntity
  8
___SYMBOL
100
AcDbLine
 62
2
  6
CONTINUOUS
 10
17.3414167557
 20
22.7455150007
 11
17.3367237001
 21
22.7455150007
  0
LINE
  5
273
100
AcDbEntity
  8
___SYMBOL
100
AcDbLine
 62
2
  6
CONTINUOUS
 10
17.3367237001
 20
22.7455150007
 11
17.334825089
 21
22.7526775007
  0
LINE
  5
274
100
AcDbEntity
  8
___SYMBOL
100
AcDbLine
 62
2
  6
CONTINUOUS
 10
17.334825089
 20
22.7526775007
 11
17.3256417557
 21
22.7576136118
  0
LINE
  5
275
100
AcDbEntity
  8
___SYMBOL
100
AcDbLine
 62
2
  6
CONTINUOUS
 10
17.3256417557
 20
22.7576136118
 11
17.3256417557
 21
22.7455150007
  0
CIRCLE
  5
276
100
AcDbEntity
  8
___SYMBOL
100
AcDbCircle
 62
2
  6
CONTINUOUS
 10
17.3304028668
 20
22.7612175641
 40
0.0202280646
  0
SPLINE
  5
277
100
AcDbEntity
  8
___SYMBOL
100
AcDbSpline
 62
2
  6
CONTINUOUS
 70
0
 71
3
 72
12
 73
8
 74
0
 42
0.0000001
 43
0.0000001
 44
0.0000000001
 40
0.039009476
 40
0.039009476
 40
0.039009476
 40
0.039009476
 40
0.0793449376
 40
0.0793449376
 40
0.1196515026
 40
0.1196515026
 40
0.1957701011
 40
0.1957701011
 40
0.1957701011
 40
0.1957701011
 10
17.3551973112
 20
22.7601844451
 30
0.0
 10
17.3555307104
 20
22.7423731629
 30
0.0
 10
17.3482112516
 20
22.734915363
 30
0.0
 10
17.312600446
 20
22.7348757727
 30
0.0
 10
17.3055730951
 20
22.7424967176
 30
0.0
 10
17.305051834
 20
22.7932790994
 30
0.0
 10
17.3556474388
 20
22.7933845885
 30
0.0
 10
17.3551973112
 20
22.7601844451
 30
0.0
  0
SPLINE
  5
278
100
AcDbEntity
  8
___SYMBOL
100
AcDbSpline
 62
2
  6
CONTINUOUS
 70
0
 71
1
 72
7
 73
5
 74
0
 42
0.0000001
 43
0.0000001
 44
0.0000000001
 40
0.0
 40
0.0
 40
0.5096027778
 40
3.8794430556
 40
4.3890458333
 40
7.7588861111
 40
7.7588861111
 10
17.4155542557
 20
23.1661691673
 30
0.0
 10
17.4155542557
 20
22.6565663895
 30
0.0
 10
14.0457139779
 20
22.6565663895
 30
0.0
 10
14.0457139779
 20
23.1661691673
 30
0.0
 10
17.4155542557
 20
23.1661691673
 30
0.0
  0
SPLINE
  5
279
100
AcDbEntity
  8
___SYMBOL
100
AcDbSpline
 62
2
  6
CONTINUOUS
 70
0
 71
1
 72
7
 73
5
 74
0
 42
0.0000001
 43
0.0000001
 44
0.0000000001
 40
0.0
 40
0.0
 40
0.496175
 40
3.8525736111
 40
4.3487486111
 40
7.7051472222
 40
7.7051472222
 10
17.4088264779
 20
23.1594552784
 30
0.0
 10
17.4088264779
 20
22.6632802784
 30
0.0
 10
14.0524278668
 20
22.6632802784
 30
0.0
 10
14.0524278668
 20
23.1594552784
 30
0.0
 10
17.4088264779
 20
23.1594552784
 30
0.0
  0
SPLINE
  5
27A
100
AcDbEntity
  8
___SYMBOL
100
AcDbSpline
 62
2
  6
CONTINUOUS
 70
0
 71
1
 72
7
 73
5
 74
0
 42
0.0000001
 43
0.0000001
 44
0.0000000001
 40
0.0
 40
0.0
 40
0.6142111111
 40
4.0886777778
 40
4.7028888889
 40
8.1773555556
 40
8.1773555556
 10
13.993387589
 20
23.2184775007
 30
0.0
 10
13.993387589
 20
22.6042663895
 30
0.0
 10
17.4678542557
 20
22.6042663895
 30
0.0
 10
17.4678542557
 20
23.2184775007
 30
0.0
 10
13.993387589
 20
23.2184775007
 30
0.0
  0
LINE
  5
27B
100
AcDbEntity
  8
___SYMBOL
100
AcDbLine
 62
2
  6
CONTINUOUS
 10
17.2394598112
 20
23.0222219451
 11
17.2372903668
 21
23.0222219451
  0
ARC
  5
27C
100
AcDbEntity
  8
___SYMBOL
100
AcDbCircle
 62
2
  6
CONTINUOUS
 10
17.122336838
 20
22.829320124
 40
0.2245560651
100
AcDbArc
 50
59.208555199
 51
93.5831215674
  0
SPLINE
  5
27D
100
AcDbEntity
  8
___SYMBOL
100
AcDbSpline
 62
2
  6
CONTINUOUS
 70
0
 71
3
 72
14
 73
10
 74
0
 42
0.0000001
 43
0.0000001
 44
0.0000000001
 40
0.1363871571
 40
0.1363871571
 40
0.1363871571
 40
0.1363871571
 40
1.1363871571
 40
1.1363871571
 40
1.1363871571
 40
2.1363871571
 40
2.1363871571
 40
2.1363871571
 40
3.1363871571
 40
3.1363871571
 40
3.1363871571
 40
3.1363871571
 10
17.1083028668
 20
23.0534372229
 30
0.0
 10
16.9952653668
 20
23.0534372229
 30
0.0
 10
16.9090431446
 20
23.0003705562
 30
0.0
 10
16.9090431446
 20
22.916610834
 30
0.0
 10
16.9090431446
 20
22.8328427784
 30
0.0
 10
17.0017889779
 20
22.769373334
 30
0.0
 10
17.1162778668
 20
22.769373334
 30
0.0
 10
17.1496167557
 20
22.769373334
 30
0.0
 10
17.1843931446
 20
22.7724927784
 30
0.0
 10
17.217000089
 20
22.7792469451
 30
0.0
  0
SPLINE
  5
27E
100
AcDbEntity
  8
___SYMBOL
100
AcDbSpline
 62
2
  6
CONTINUOUS
 70
0
 71
3
 72
11
 73
7
 74
0
 42
0.0000001
 43
0.0000001
 44
0.0000000001
 40
3.1363871571
 40
3.1363871571
 40
3.1363871571
 40
3.1363871571
 40
3.2113121571
 40
3.2113121571
 40
3.2113121571
 40
4.2113121571
 40
4.2113121571
 40
4.2113121571
 40
4.2113121571
 10
17.217000089
 20
22.7792469451
 30
0.0
 10
17.217000089
 20
22.8042219451
 30
0.0
 10
17.217000089
 20
22.8291969451
 30
0.0
 10
17.217000089
 20
22.8541719451
 30
0.0
 10
17.217000089
 20
22.878110834
 30
0.0
 10
17.2162667557
 20
22.9035969451
 30
0.0
 10
17.1836737001
 20
22.9129622229
 30
0.0
  0
LINE
  5
27F
100
AcDbEntity
  8
___SYMBOL
100
AcDbLine
 62
2
  6
CONTINUOUS
 10
17.1836737001
 20
22.9129622229
 11
17.1836737001
 21
22.9145150007
  0
LINE
  5
280
100
AcDbEntity
  8
___SYMBOL
100
AcDbLine
 62
2
  6
CONTINUOUS
 10
17.1836737001
 20
22.9145150007
 11
17.2945278668
 21
22.9145150007
  0
LINE
  5
281
100
AcDbEntity
  8
___SYMBOL
100
AcDbLine
 62
2
  6
CONTINUOUS
 10
17.2945278668
 20
22.9145150007
 11
17.2945278668
 21
22.9129622229
  0
LINE
  5
282
100
AcDbEntity
  8
___SYMBOL
100
AcDbLine
 62
2
  6
CONTINUOUS
 10
17.2945278668
 20
22.9129622229
 11
17.2909056446
 21
22.8905886118
  0
LINE
  5
283
100
AcDbEntity
  8
___SYMBOL
100
AcDbLine
 62
2
  6
CONTINUOUS
 10
17.2909056446
 20
22.8905886118
 11
17.2909056446
 21
22.7709261118
  0
LINE
  5
284
100
AcDbEntity
  8
___SYMBOL
100
AcDbLine
 62
2
  6
CONTINUOUS
 10
17.2909056446
 20
22.7709261118
 11
17.2945278668
 21
22.7475094451
  0
SPLINE
  5
285
100
AcDbEntity
  8
___SYMBOL
100
AcDbSpline
 62
2
  6
CONTINUOUS
 70
0
 71
3
 72
17
 73
13
 74
0
 42
0.0000001
 43
0.0000001
 44
0.0000000001
 40
4.4917022773
 40
4.4917022773
 40
4.4917022773
 40
4.4917022773
 40
5.4917022773
 40
5.4917022773
 40
5.4917022773
 40
6.4917022773
 40
6.4917022773
 40
6.4917022773
 40
7.4917022773
 40
7.4917022773
 40
7.4917022773
 40
8.4917022773
 40
8.4917022773
 40
8.4917022773
 40
8.4917022773
 10
17.2945278668
 20
22.7475094451
 30
0.0
 10
17.2365709223
 20
22.739723334
 30
0.0
 10
17.1800528668
 20
22.731898334
 30
0.0
 10
17.1213639779
 20
22.731898334
 30
0.0
 10
16.9358584223
 20
22.731898334
 30
0.0
 10
16.8264417557
 20
22.8047538895
 30
0.0
 10
16.8264417557
 20
22.9093136118
 30
0.0
 10
16.8264417557
 20
23.0211775007
 30
0.0
 10
16.9503431446
 20
23.0909066673
 30
0.0
 10
17.1257042557
 20
23.0909066673
 30
0.0
 10
17.1641028668
 20
23.0909066673
 30
0.0
 10
17.2017820335
 20
23.0877802784
 30
0.0
 10
17.2394598112
 20
23.0820566673
 30
0.0
  0
LINE
  5
286
100
AcDbEntity
  8
___SYMBOL
100
AcDbLine
 62
2
  6
CONTINUOUS
 10
17.2394598112
 20
23.0820566673
 11
17.2394598112
 21
23.0222219451
  0
LINE
  5
287
100
AcDbEntity
  8
___SYMBOL
100
AcDbLine
 62
2
  6
CONTINUOUS
 10
16.448912589
 20
22.7417997229
 11
16.448912589
 21
22.7402261118
  0
LINE
  5
288
100
AcDbEntity
  8
___SYMBOL
100
AcDbLine
 62
2
  6
CONTINUOUS
 10
16.448912589
 20
22.7402261118
 11
16.3206639779
 21
22.7402261118
  0
LINE
  5
289
100
AcDbEntity
  8
___SYMBOL
100
AcDbLine
 62
2
  6
CONTINUOUS
 10
16.3206639779
 20
22.7402261118
 11
16.3206639779
 21
22.7417997229
  0
SPLINE
  5
28A
100
AcDbEntity
  8
___SYMBOL
100
AcDbSpline
 62
2
  6
CONTINUOUS
 70
0
 71
3
 72
14
 73
10
 74
0
 42
0.0000001
 43
0.0000001
 44
0.0000000001
 40
0.1313958333
 40
0.1313958333
 40
0.1313958333
 40
0.1313958333
 40
1.1313958333
 40
1.1313958333
 40
1.1313958333
 40
1.3390027778
 40
1.3390027778
 40
1.3390027778
 40
2.3390027778
 40
2.3390027778
 40
2.3390027778
 40
2.3390027778
 10
16.3206639779
 20
22.7417997229
 30
0.0
 10
16.3590695335
 20
22.7579122229
 30
0.0
 10
16.3590695335
 20
22.7787386118
 30
0.0
 10
16.3590695335
 20
22.8078663895
 30
0.0
 10
16.3590695335
 20
22.8770687044
 30
0.0
 10
16.3590695335
 20
22.9462710192
 30
0.0
 10
16.3590695335
 20
23.015473334
 30
0.0
 10
16.3590695335
 20
23.0446011118
 30
0.0
 10
16.3590695335
 20
23.0654205562
 30
0.0
 10
16.3213903668
 20
23.0810191673
 30
0.0
  0
LINE
  5
28B
100
AcDbEntity
  8
___SYMBOL
100
AcDbLine
 62
2
  6
CONTINUOUS
 10
16.3213903668
 20
23.0810191673
 11
16.3213903668
 21
23.082585834
  0
LINE
  5
28C
100
AcDbEntity
  8
___SYMBOL
100
AcDbLine
 62
2
  6
CONTINUOUS
 10
16.3213903668
 20
23.082585834
 11
16.4271778668
 21
23.082585834
  0
LINE
  5
28D
100
AcDbEntity
  8
___SYMBOL
100
AcDbLine
 62
2
  6
CONTINUOUS
 10
16.4271778668
 20
23.082585834
 11
16.4271778668
 21
23.0820566673
  0
LINE
  5
28E
100
AcDbEntity
  8
___SYMBOL
100
AcDbLine
 62
2
  6
CONTINUOUS
 10
16.4271778668
 20
23.0820566673
 11
16.438062589
 21
23.0690497229
  0
LINE
  5
28F
100
AcDbEntity
  8
___SYMBOL
100
AcDbLine
 62
2
  6
CONTINUOUS
 10
16.438062589
 20
23.0690497229
 11
16.4481945335
 21
23.0586455562
  0
LINE
  5
290
100
AcDbEntity
  8
___SYMBOL
100
AcDbLine
 62
2
  6
CONTINUOUS
 10
16.4481945335
 20
23.0586455562
 11
16.7134056446
 21
22.8182691673
  0
SPLINE
  5
291
100
AcDbEntity
  8
___SYMBOL
100
AcDbSpline
 62
2
  6
CONTINUOUS
 70
0
 71
3
 72
11
 73
7
 74
0
 42
0.0000001
 43
0.0000001
 44
0.0000000001
 40
3.819343998
 40
3.819343998
 40
3.819343998
 40
3.819343998
 40
4.0165481647
 40
4.0165481647
 40
4.0165481647
 40
5.0165481647
 40
5.0165481647
 40
5.0165481647
 40
5.0165481647
 10
16.7134056446
 20
22.8182691673
 30
0.0
 10
16.7134056446
 20
22.8840038895
 30
0.0
 10
16.7134056446
 20
22.9497386118
 30
0.0
 10
16.7134056446
 20
23.015473334
 30
0.0
 10
16.7134056446
 20
23.0446011118
 30
0.0
 10
16.7141237001
 20
23.0654205562
 30
0.0
 10
16.6757264779
 20
23.0810191673
 30
0.0
  0
LINE
  5
292
100
AcDbEntity
  8
___SYMBOL
100
AcDbLine
 62
2
  6
CONTINUOUS
 10
16.6757264779
 20
23.0810191673
 11
16.6757264779
 21
23.082585834
  0
LINE
  5
293
100
AcDbEntity
  8
___SYMBOL
100
AcDbLine
 62
2
  6
CONTINUOUS
 10
16.6757264779
 20
23.082585834
 11
16.803262589
 21
23.082585834
  0
LINE
  5
294
100
AcDbEntity
  8
___SYMBOL
100
AcDbLine
 62
2
  6
CONTINUOUS
 10
16.803262589
 20
23.082585834
 11
16.803262589
 21
23.0810191673
  0
SPLINE
  5
295
100
AcDbEntity
  8
___SYMBOL
100
AcDbSpline
 62
2
  6
CONTINUOUS
 70
0
 71
3
 72
11
 73
7
 74
0
 42
0.0000001
 43
0.0000001
 44
0.0000000001
 40
5.1472176091
 40
5.1472176091
 40
5.1472176091
 40
5.1472176091
 40
6.1472176091
 40
6.1472176091
 40
6.1472176091
 40
6.4391078869
 40
6.4391078869
 40
6.4391078869
 40
6.4391078869
 10
16.803262589
 20
23.0810191673
 30
0.0
 10
16.7655695335
 20
23.0654205562
 30
0.0
 10
16.7655695335
 20
23.0446011118
 30
0.0
 10
16.7655695335
 20
23.015473334
 30
0.0
 10
16.7655695335
 20
22.9181765747
 30
0.0
 10
16.7655695335
 20
22.8208798155
 30
0.0
 10
16.7655695335
 20
22.7235830562
 30
0.0
  0
ARC
  5
296
100
AcDbEntity
  8
___SYMBOL
100
AcDbCircle
 62
2
  6
CONTINUOUS
 10
16.8078865816
 20
22.9230841059
 40
0.2039397004
100
AcDbArc
 50
223.4269507726
 51
258.0242403069
  0
LINE
  5
297
100
AcDbEntity
  8
___SYMBOL
100
AcDbLine
 62
2
  6
CONTINUOUS
 10
16.659775089
 20
22.7828900007
 11
16.4112473112
 21
23.0092150007
  0
SPLINE
  5
298
100
AcDbEntity
  8
___SYMBOL
100
AcDbSpline
 62
2
  6
CONTINUOUS
 70
0
 71
3
 72
11
 73
7
 74
0
 42
0.0000001
 43
0.0000001
 44
0.0000000001
 40
6.8979254112
 40
6.8979254112
 40
6.8979254112
 40
6.8979254112
 40
7.0992740223
 40
7.0992740223
 40
7.0992740223
 40
8.0992740223
 40
8.0992740223
 40
8.0992740223
 40
8.0992740223
 10
16.4112473112
 20
23.0092150007
 30
0.0
 10
16.4112473112
 20
22.942098797
 30
0.0
 10
16.4112473112
 20
22.8749825933
 30
0.0
 10
16.4112473112
 20
22.8078663895
 30
0.0
 10
16.4112473112
 20
22.7787386118
 30
0.0
 10
16.4105223112
 20
22.7579122229
 30
0.0
 10
16.448912589
 20
22.7417997229
 30
0.0
  0
LINE
  5
299
100
AcDbEntity
  8
___SYMBOL
100
AcDbLine
 62
2
  6
CONTINUOUS
 10
16.1061806446
 20
23.0810191673
 11
16.1061806446
 21
23.082585834
  0
LINE
  5
29A
100
AcDbEntity
  8
___SYMBOL
100
AcDbLine
 62
2
  6
CONTINUOUS
 10
16.1061806446
 20
23.082585834
 11
16.2438681446
 21
23.082585834
  0
LINE
  5
29B
100
AcDbEntity
  8
___SYMBOL
100
AcDbLine
 62
2
  6
CONTINUOUS
 10
16.2438681446
 20
23.082585834
 11
16.2438681446
 21
23.0810191673
  0
SPLINE
  5
29C
100
AcDbEntity
  8
___SYMBOL
100
AcDbSpline
 62
2
  6
CONTINUOUS
 70
0
 71
3
 72
14
 73
10
 74
0
 42
0.0000001
 43
0.0000001
 44
0.0000000001
 40
0.1408208333
 40
0.1408208333
 40
0.1408208333
 40
0.1408208333
 40
1.1408208333
 40
1.1408208333
 40
1.1408208333
 40
1.3369611111
 40
1.3369611111
 40
1.3369611111
 40
2.3369611111
 40
2.3369611111
 40
2.3369611111
 40
2.3369611111
 10
16.2438681446
 20
23.0810191673
 30
0.0
 10
16.2076473112
 20
23.0711316673
 30
0.0
 10
16.2119681446
 20
23.0326316673
 30
0.0
 10
16.2119681446
 20
23.0092150007
 30
0.0
 10
16.2119681446
 20
22.9438349081
 30
0.0
 10
16.2119681446
 20
22.8784548155
 30
0.0
 10
16.2119681446
 20
22.8130747229
 30
0.0
 10
16.2119681446
 20
22.7896705562
 30
0.0
 10
16.2076473112
 20
22.7516872229
 30
0.0
 10
16.2438681446
 20
22.7417997229
 30
0.0
  0
LINE
  5
29D
100
AcDbEntity
  8
___SYMBOL
100
AcDbLine
 62
2
  6
CONTINUOUS
 10
16.2438681446
 20
22.7417997229
 11
16.2438681446
 21
22.7402261118
  0
LINE
  5
29E
100
AcDbEntity
  8
___SYMBOL
100
AcDbLine
 62
2
  6
CONTINUOUS
 10
16.2438681446
 20
22.7402261118
 11
16.1061806446
 21
22.7402261118
  0
LINE
  5
29F
100
AcDbEntity
  8
___SYMBOL
100
AcDbLine
 62
2
  6
CONTINUOUS
 10
16.1061806446
 20
22.7402261118
 11
16.1061806446
 21
22.7417997229
  0
SPLINE
  5
2A0
100
AcDbEntity
  8
___SYMBOL
100
AcDbSpline
 62
2
  6
CONTINUOUS
 70
0
 71
3
 72
14
 73
10
 74
0
 42
0.0000001
 43
0.0000001
 44
0.0000000001
 40
2.4777958333
 40
2.4777958333
 40
2.4777958333
 40
2.4777958333
 40
3.4777958333
 40
3.4777958333
 40
3.4777958333
 40
3.6739361111
 40
3.6739361111
 40
3.6739361111
 40
4.6739361111
 40
4.6739361111
 40
4.6739361111
 40
4.6739361111
 10
16.1061806446
 20
22.7417997229
 30
0.0
 10
16.1424139779
 20
22.7511580562
 30
0.0
 10
16.1380681446
 20
22.7896705562
 30
0.0
 10
16.1380681446
 20
22.8130747229
 30
0.0
 10
16.1380681446
 20
22.8784548155
 30
0.0
 10
16.1380681446
 20
22.9438349081
 30
0.0
 10
16.1380681446
 20
23.0092150007
 30
0.0
 10
16.1380681446
 20
23.0331538895
 30
0.0
 10
16.1431473112
 20
23.0711316673
 30
0.0
 10
16.1061806446
 20
23.0810191673
 30
0.0
  0
LINE
  5
2A1
100
AcDbEntity
  8
___SYMBOL
100
AcDbLine
 62
2
  6
CONTINUOUS
 10
16.074312589
 20
22.8094122229
 11
16.0764834223
 21
22.8094122229
  0
LINE
  5
2A2
100
AcDbEntity
  8
___SYMBOL
100
AcDbLine
 62
2
  6
CONTINUOUS
 10
16.0764834223
 20
22.8094122229
 11
16.0388181446
 21
22.7402261118
  0
LINE
  5
2A3
100
AcDbEntity
  8
___SYMBOL
100
AcDbLine
 62
2
  6
CONTINUOUS
 10
16.0388181446
 20
22.7402261118
 11
15.7409931446
 21
22.7402261118
  0
LINE
  5
2A4
100
AcDbEntity
  8
___SYMBOL
100
AcDbLine
 62
2
  6
CONTINUOUS
 10
15.7409931446
 20
22.7402261118
 11
15.7409931446
 21
22.7417997229
  0
SPLINE
  5
2A5
100
AcDbEntity
  8
___SYMBOL
100
AcDbSpline
 62
2
  6
CONTINUOUS
 70
0
 71
3
 72
14
 73
10
 74
0
 42
0.0000001
 43
0.0000001
 44
0.0000000001
 40
0.3803437494
 40
0.3803437494
 40
0.3803437494
 40
0.3803437494
 40
1.3803437494
 40
1.3803437494
 40
1.3803437494
 40
1.5764840272
 40
1.5764840272
 40
1.5764840272
 40
2.5764840272
 40
2.5764840272
 40
2.5764840272
 40
2.5764840272
 10
15.7409931446
 20
22.7417997229
 30
0.0
 10
15.7779459223
 20
22.7511580562
 30
0.0
 10
15.773600089
 20
22.7896705562
 30
0.0
 10
15.773600089
 20
22.8130747229
 30
0.0
 10
15.773600089
 20
22.8784548155
 30
0.0
 10
15.773600089
 20
22.9438349081
 30
0.0
 10
15.773600089
 20
23.0092150007
 30
0.0
 10
15.773600089
 20
23.0331538895
 30
0.0
 10
15.7779459223
 20
23.0711316673
 30
0.0
 10
15.7409931446
 20
23.0810191673
 30
0.0
  0
LINE
  5
2A6
100
AcDbEntity
  8
___SYMBOL
100
AcDbLine
 62
2
  6
CONTINUOUS
 10
15.7409931446
 20
23.0810191673
 11
15.7409931446
 21
23.082585834
  0
LINE
  5
2A7
100
AcDbEntity
  8
___SYMBOL
100
AcDbLine
 62
2
  6
CONTINUOUS
 10
15.7409931446
 20
23.082585834
 11
15.8793931446
 21
23.082585834
  0
LINE
  5
2A8
100
AcDbEntity
  8
___SYMBOL
100
AcDbLine
 62
2
  6
CONTINUOUS
 10
15.8793931446
 20
23.082585834
 11
15.8793931446
 21
23.0810191673
  0
SPLINE
  5
2A9
100
AcDbEntity
  8
___SYMBOL
100
AcDbSpline
 62
2
  6
CONTINUOUS
 70
0
 71
3
 72
11
 73
7
 74
0
 42
0.0000001
 43
0.0000001
 44
0.0000000001
 40
2.7180173605
 40
2.7180173605
 40
2.7180173605
 40
2.7180173605
 40
3.7180173605
 40
3.7180173605
 40
3.7180173605
 40
3.9448520827
 40
3.9448520827
 40
3.9448520827
 40
3.9448520827
 10
15.8793931446
 20
23.0810191673
 30
0.0
 10
15.8424403668
 20
23.0711316673
 30
0.0
 10
15.847512589
 20
23.0326316673
 30
0.0
 10
15.847512589
 20
23.0092150007
 30
0.0
 10
15.847512589
 20
22.9336034266
 30
0.0
 10
15.847512589
 20
22.8579918525
 30
0.0
 10
15.847512589
 20
22.7823802784
 30
0.0
  0
SPLINE
  5
2AA
100
AcDbEntity
  8
___SYMBOL
100
AcDbSpline
 62
2
  6
CONTINUOUS
 70
0
 71
3
 72
8
 73
4
 74
0
 42
0.0000001
 43
0.0000001
 44
0.0000000001
 40
3.9448520827
 40
3.9448520827
 40
3.9448520827
 40
3.9448520827
 40
4.1770975516
 40
4.1770975516
 40
4.1770975516
 40
4.1770975516
 10
15.847512589
 20
22.7823802784
 30
0.0
 10
15.9256403186
 20
22.7786705547
 30
0.0
 10
15.9980877219
 20
22.7637627879
 30
0.0
 10
16.074312589
 20
22.8094122229
 30
0.0
  0
SPLINE
  5
2AB
100
AcDbEntity
  8
___SYMBOL
100
AcDbSpline
 62
2
  6
CONTINUOUS
 70
0
 71
3
 72
11
 73
7
 74
0
 42
0.0000001
 43
0.0000001
 44
0.0000000001
 40
0.0
 40
0.0
 40
0.0
 40
0.0
 40
0.140550031
 40
0.140550031
 40
0.140550031
 40
1.140550031
 40
1.140550031
 40
1.140550031
 40
1.140550031
 10
15.5033292557
 20
22.9072386118
 30
0.0
 10
15.5381102742
 20
22.8758506488
 30
0.0
 10
15.5728912927
 20
22.8444626858
 30
0.0
 10
15.6076723112
 20
22.8130747229
 30
0.0
 10
15.6381014779
 20
22.7860094451
 30
0.0
 10
15.6837487001
 20
22.7589566673
 30
0.0
 10
15.725062589
 20
22.7402261118
 30
0.0
  0
LINE
  5
2AC
100
AcDbEntity
  8
___SYMBOL
100
AcDbLine
 62
2
  6
CONTINUOUS
 10
15.725062589
 20
22.7402261118
 11
15.6583917557
 21
22.7402261118
  0
ARC
  5
2AD
100
AcDbEntity
  8
___SYMBOL
100
AcDbCircle
 62
2
  6
CONTINUOUS
 10
15.6475363886
 20
22.8539645405
 40
0.1142552807
100
AcDbArc
 50
230.1562195028
 51
275.4518816802
  0
LINE
  5
2AE
100
AcDbEntity
  8
___SYMBOL
100
AcDbLine
 62
2
  6
CONTINUOUS
 10
15.5743334223
 20
22.7662400007
 11
15.4859403668
 21
22.8448066673
  0
LINE
  5
2AF
100
AcDbEntity
  8
___SYMBOL
100
AcDbLine
 62
2
  6
CONTINUOUS
 10
15.4859403668
 20
22.8448066673
 11
15.4192695335
 21
22.9181705562
  0
SPLINE
  5
2B0
100
AcDbEntity
  8
___SYMBOL
100
AcDbSpline
 62
2
  6
CONTINUOUS
 70
0
 71
3
 72
14
 73
10
 74
0
 42
0.0000001
 43
0.0000001
 44
0.0000000001
 40
1.5143546326
 40
1.5143546326
 40
1.5143546326
 40
1.5143546326
 40
2.0459541232
 40
2.0459541232
 40
2.5487056352
 40
2.5487056352
 40
3.0207171483
 40
3.0207171483
 40
3.5638184132
 40
3.5638184132
 40
3.5638184132
 40
3.5638184132
 10
15.4192695335
 20
22.9181705562
 30
0.0
 10
15.4469407253
 20
22.9211485622
 30
0.0
 10
15.4733182146
 20
22.9258097516
 30
0.0
 10
15.5236414703
 20
22.9481238738
 30
0.0
 10
15.5487095007
 20
22.9674828484
 30
0.0
 10
15.5399164447
 20
23.0285876991
 30
0.0
 10
15.508461781
 20
23.0429097696
 30
0.0
 10
15.4559371881
 20
23.0533812041
 30
0.0
 10
15.4293740173
 20
23.049791883
 30
0.0
 10
15.4018820335
 20
23.046160834
 30
0.0
  0
SPLINE
  5
2B1
100
AcDbEntity
  8
___SYMBOL
100
AcDbSpline
 62
2
  6
CONTINUOUS
 70
0
 71
3
 72
11
 73
7
 74
0
 42
0.0000001
 43
0.0000001
 44
0.0000000001
 40
3.5638184132
 40
3.5638184132
 40
3.5638184132
 40
3.5638184132
 40
3.7969045243
 40
3.7969045243
 40
3.7969045243
 40
4.7969045243
 40
4.7969045243
 40
4.7969045243
 40
4.7969045243
 10
15.4018820335
 20
23.046160834
 30
0.0
 10
15.4018820335
 20
22.9684654636
 30
0.0
 10
15.4018820335
 20
22.8907700933
 30
0.0
 10
15.4018820335
 20
22.8130747229
 30
0.0
 10
15.4018820335
 20
22.7891427784
 30
0.0
 10
15.3975348112
 20
22.7511580562
 30
0.0
 10
15.434487589
 20
22.7417997229
 30
0.0
  0
LINE
  5
2B2
100
AcDbEntity
  8
___SYMBOL
100
AcDbLine
 62
2
  6
CONTINUOUS
 10
15.434487589
 20
22.7417997229
 11
15.434487589
 21
22.7402261118
  0
LINE
  5
2B3
100
AcDbEntity
  8
___SYMBOL
100
AcDbLine
 62
2
  6
CONTINUOUS
 10
15.434487589
 20
22.7402261118
 11
15.296087589
 21
22.7402261118
  0
LINE
  5
2B4
100
AcDbEntity
  8
___SYMBOL
100
AcDbLine
 62
2
  6
CONTINUOUS
 10
15.296087589
 20
22.7402261118
 11
15.296087589
 21
22.7417997229
  0
SPLINE
  5
2B5
100
AcDbEntity
  8
___SYMBOL
100
AcDbSpline
 62
2
  6
CONTINUOUS
 70
0
 71
3
 72
14
 73
10
 74
0
 42
0.0000001
 43
0.0000001
 44
0.0000000001
 40
4.9384517465
 40
4.9384517465
 40
4.9384517465
 40
4.9384517465
 40
5.9384517465
 40
5.9384517465
 40
5.9384517465
 40
6.1345920243
 40
6.1345920243
 40
6.1345920243
 40
7.1345920243
 40
7.1345920243
 40
7.1345920243
 40
7.1345920243
 10
15.296087589
 20
22.7417997229
 30
0.0
 10
15.3330403668
 20
22.7511580562
 30
0.0
 10
15.327975089
 20
22.7896705562
 30
0.0
 10
15.327975089
 20
22.8130747229
 30
0.0
 10
15.327975089
 20
22.8784548155
 30
0.0
 10
15.327975089
 20
22.9438349081
 30
0.0
 10
15.327975089
 20
23.0092150007
 30
0.0
 10
15.327975089
 20
23.0331538895
 30
0.0
 10
15.3330403668
 20
23.0711316673
 30
0.0
 10
15.296087589
 20
23.0810191673
 30
0.0
  0
LINE
  5
2B6
100
AcDbEntity
  8
___SYMBOL
100
AcDbLine
 62
2
  6
CONTINUOUS
 10
15.296087589
 20
23.0810191673
 11
15.296087589
 21
23.082585834
  0
SPLINE
  5
2B7
100
AcDbEntity
  8
___SYMBOL
100
AcDbSpline
 62
2
  6
CONTINUOUS
 70
0
 71
3
 72
14
 73
10
 74
0
 42
0.0000001
 43
0.0000001
 44
0.0000000001
 40
7.136158691
 40
7.136158691
 40
7.136158691
 40
7.136158691
 40
7.3086100798
 40
7.3086100798
 40
7.3086100798
 40
8.3086100798
 40
8.3086100798
 40
8.3086100798
 40
9.3086100798
 40
9.3086100798
 40
9.3086100798
 40
9.3086100798
 10
15.296087589
 20
23.082585834
 30
0.0
 10
15.3535713853
 20
23.082585834
 30
0.0
 10
15.4110551816
 20
23.082585834
 30
0.0
 10
15.4685389779
 20
23.082585834
 30
0.0
 10
15.5656459223
 20
23.082585834
 30
0.0
 10
15.6185431446
 20
23.046160834
 30
0.0
 10
15.6185431446
 20
22.998810834
 30
0.0
 10
15.6185431446
 20
22.9530344451
 30
0.0
 10
15.562750089
 20
22.9171330562
 30
0.0
 10
15.5033292557
 20
22.9072386118
 30
0.0
  0
SPLINE
  5
2B8
100
AcDbEntity
  8
___SYMBOL
100
AcDbSpline
 62
2
  6
CONTINUOUS
 70
0
 71
3
 72
8
 73
4
 74
0
 42
0.0000001
 43
0.0000001
 44
0.0000000001
 40
0.0
 40
0.0
 40
0.0
 40
0.0
 40
0.2313461135
 40
0.2313461135
 40
0.2313461135
 40
0.2313461135
 10
15.0424862001
 20
22.7839275007
 30
0.0
 10
15.1204137809
 20
22.778654701
 30
0.0
 10
15.1921898342
 20
22.7638626241
 30
0.0
 10
15.2685612001
 20
22.8083955562
 30
0.0
  0
LINE
  5
2B9
100
AcDbEntity
  8
___SYMBOL
100
AcDbLine
 62
2
  6
CONTINUOUS
 10
15.2685612001
 20
22.8083955562
 11
15.2707306446
 21
22.8083955562
  0
LINE
  5
2BA
100
AcDbEntity
  8
___SYMBOL
100
AcDbLine
 62
2
  6
CONTINUOUS
 10
15.2707306446
 20
22.8083955562
 11
15.238125089
 21
22.7402261118
  0
LINE
  5
2BB
100
AcDbEntity
  8
___SYMBOL
100
AcDbLine
 62
2
  6
CONTINUOUS
 10
15.238125089
 20
22.7402261118
 11
14.9359667557
 21
22.7402261118
  0
LINE
  5
2BC
100
AcDbEntity
  8
___SYMBOL
100
AcDbLine
 62
2
  6
CONTINUOUS
 10
14.9359667557
 20
22.7402261118
 11
14.9359667557
 21
22.7417997229
  0
SPLINE
  5
2BD
100
AcDbEntity
  8
___SYMBOL
100
AcDbSpline
 62
2
  6
CONTINUOUS
 70
0
 71
3
 72
14
 73
10
 74
0
 42
0.0000001
 43
0.0000001
 44
0.0000000001
 40
0.6128133373
 40
0.6128133373
 40
0.6128133373
 40
0.6128133373
 40
1.6128133373
 40
1.6128133373
 40
1.6128133373
 40
1.8089536151
 40
1.8089536151
 40
1.8089536151
 40
2.8089536151
 40
2.8089536151
 40
2.8089536151
 40
2.8089536151
 10
14.9359667557
 20
22.7417997229
 30
0.0
 10
14.9729195335
 20
22.7511580562
 30
0.0
 10
14.9685723112
 20
22.7896705562
 30
0.0
 10
14.9685723112
 20
22.8130747229
 30
0.0
 10
14.9685723112
 20
22.8784548155
 30
0.0
 10
14.9685723112
 20
22.9438349081
 30
0.0
 10
14.9685723112
 20
23.0092150007
 30
0.0
 10
14.9685723112
 20
23.0331538895
 30
0.0
 10
14.9729195335
 20
23.0711316673
 30
0.0
 10
14.9359667557
 20
23.0810191673
 30
0.0
  0
LINE
  5
2BE
100
AcDbEntity
  8
___SYMBOL
100
AcDbLine
 62
2
  6
CONTINUOUS
 10
14.9359667557
 20
23.0810191673
 11
14.9359667557
 21
23.082585834
  0
LINE
  5
2BF
100
AcDbEntity
  8
___SYMBOL
100
AcDbLine
 62
2
  6
CONTINUOUS
 10
14.9359667557
 20
23.082585834
 11
15.1678459223
 21
23.082585834
  0
LINE
  5
2C0
100
AcDbEntity
  8
___SYMBOL
100
AcDbLine
 62
2
  6
CONTINUOUS
 10
15.1678459223
 20
23.082585834
 11
15.2018973112
 21
23.0851761118
  0
LINE
  5
2C1
100
AcDbEntity
  8
___SYMBOL
100
AcDbLine
 62
2
  6
CONTINUOUS
 10
15.2018973112
 20
23.0851761118
 11
15.2040737001
 21
23.0851761118
  0
LINE
  5
2C2
100
AcDbEntity
  8
___SYMBOL
100
AcDbLine
 62
2
  6
CONTINUOUS
 10
15.2040737001
 20
23.0851761118
 11
15.2040737001
 21
23.0242969451
  0
LINE
  5
2C3
100
AcDbEntity
  8
___SYMBOL
100
AcDbLine
 62
2
  6
CONTINUOUS
 10
15.2040737001
 20
23.0242969451
 11
15.2018973112
 21
23.0242969451
  0
ARC
  5
2C4
100
AcDbEntity
  8
___SYMBOL
100
AcDbCircle
 62
2
  6
CONTINUOUS
 10
15.1307442069
 20
22.9181078016
 40
0.1278237007
100
AcDbArc
 50
56.1755396367
 51
96.4463209909
  0
LINE
  5
2C5
100
AcDbEntity
  8
___SYMBOL
100
AcDbLine
 62
2
  6
CONTINUOUS
 10
15.1163931446
 20
23.045123334
 11
15.0424862001
 21
23.0414886118
  0
LINE
  5
2C6
100
AcDbEntity
  8
___SYMBOL
100
AcDbLine
 62
2
  6
CONTINUOUS
 10
15.0424862001
 20
23.0414886118
 11
15.0424862001
 21
22.9447136118
  0
LINE
  5
2C7
100
AcDbEntity
  8
___SYMBOL
100
AcDbLine
 62
2
  6
CONTINUOUS
 10
15.0424862001
 20
22.9447136118
 11
15.1287084223
 21
22.9447136118
  0
LINE
  5
2C8
100
AcDbEntity
  8
___SYMBOL
100
AcDbLine
 62
2
  6
CONTINUOUS
 10
15.1287084223
 20
22.9447136118
 11
15.1605959223
 21
22.9478261118
  0
LINE
  5
2C9
100
AcDbEntity
  8
___SYMBOL
100
AcDbLine
 62
2
  6
CONTINUOUS
 10
15.1605959223
 20
22.9478261118
 11
15.1627737001
 21
22.9478261118
  0
LINE
  5
2CA
100
AcDbEntity
  8
___SYMBOL
100
AcDbLine
 62
2
  6
CONTINUOUS
 10
15.1627737001
 20
22.9478261118
 11
15.1627737001
 21
22.8926844451
  0
LINE
  5
2CB
100
AcDbEntity
  8
___SYMBOL
100
AcDbLine
 62
2
  6
CONTINUOUS
 10
15.1627737001
 20
22.8926844451
 11
15.1605959223
 21
22.8926844451
  0
SPLINE
  5
2CC
100
AcDbEntity
  8
___SYMBOL
100
AcDbSpline
 62
2
  6
CONTINUOUS
 70
0
 71
3
 72
11
 73
7
 74
0
 42
0.0000001
 43
0.0000001
 44
0.0000000001
 40
3.5799535043
 40
3.5799535043
 40
3.5799535043
 40
3.5799535043
 40
4.5799535043
 40
4.5799535043
 40
4.5799535043
 40
4.6335771155
 40
4.6335771155
 40
4.6335771155
 40
4.6335771155
 10
15.1605959223
 20
22.8926844451
 30
0.0
 10
15.149000089
 20
22.9077677784
 30
0.0
 10
15.1185695335
 20
22.9072386118
 30
0.0
 10
15.0961098112
 20
22.9072386118
 30
0.0
 10
15.0782352742
 20
22.9072386118
 30
0.0
 10
15.0603607372
 20
22.9072386118
 30
0.0
 10
15.0424862001
 20
22.9072386118
 30
0.0
  0
LINE
  5
2CD
100
AcDbEntity
  8
___SYMBOL
100
AcDbLine
 62
2
  6
CONTINUOUS
 10
15.0424862001
 20
22.9072386118
 11
15.0424862001
 21
22.7839275007
  0
LINE
  5
2CE
100
AcDbEntity
  8
___SYMBOL
100
AcDbLine
 62
2
  6
CONTINUOUS
 10
14.7729348112
 20
22.7417997229
 11
14.7729348112
 21
22.7402261118
  0
LINE
  5
2CF
100
AcDbEntity
  8
___SYMBOL
100
AcDbLine
 62
2
  6
CONTINUOUS
 10
14.7729348112
 20
22.7402261118
 11
14.6294681446
 21
22.7402261118
  0
LINE
  5
2D0
100
AcDbEntity
  8
___SYMBOL
100
AcDbLine
 62
2
  6
CONTINUOUS
 10
14.6294681446
 20
22.7402261118
 11
14.6294681446
 21
22.7417997229
  0
SPLINE
  5
2D1
100
AcDbEntity
  8
___SYMBOL
100
AcDbSpline
 62
2
  6
CONTINUOUS
 70
0
 71
3
 72
11
 73
7
 74
0
 42
0.0000001
 43
0.0000001
 44
0.0000000001
 40
0.1466138889
 40
0.1466138889
 40
0.1466138889
 40
0.1466138889
 40
1.1466138889
 40
1.1466138889
 40
1.1466138889
 40
1.3786625
 40
1.3786625
 40
1.3786625
 40
1.3786625
 10
14.6294681446
 20
22.7417997229
 30
0.0
 10
14.6656889779
 20
22.7516872229
 30
0.0
 10
14.6613348112
 20
22.7896705562
 30
0.0
 10
14.6613348112
 20
22.8130747229
 30
0.0
 10
14.6613348112
 20
22.8904242599
 30
0.0
 10
14.6613348112
 20
22.967773797
 30
0.0
 10
14.6613348112
 20
23.045123334
 30
0.0
  0
LINE
  5
2D2
100
AcDbEntity
  8
___SYMBOL
100
AcDbLine
 62
2
  6
CONTINUOUS
 10
14.6613348112
 20
23.045123334
 11
14.5975737001
 21
23.045123334
  0
ARC
  5
2D3
100
AcDbEntity
  8
___SYMBOL
100
AcDbCircle
 62
2
  6
CONTINUOUS
 10
14.5905035235
 20
22.8854989884
 40
0.1597808471
100
AcDbArc
 50
87.4638787987
 51
119.6947324667
  0
LINE
  5
2D4
100
AcDbEntity
  8
___SYMBOL
100
AcDbLine
 62
2
  6
CONTINUOUS
 10
14.5113514779
 20
23.0242969451
 11
14.509175089
 21
23.0242969451
  0
LINE
  5
2D5
100
AcDbEntity
  8
___SYMBOL
100
AcDbLine
 62
2
  6
CONTINUOUS
 10
14.509175089
 20
23.0242969451
 11
14.5345445335
 21
23.0862275007
  0
LINE
  5
2D6
100
AcDbEntity
  8
___SYMBOL
100
AcDbLine
 62
2
  6
CONTINUOUS
 10
14.5345445335
 20
23.0862275007
 11
14.5367084223
 21
23.0862275007
  0
LINE
  5
2D7
100
AcDbEntity
  8
___SYMBOL
100
AcDbLine
 62
2
  6
CONTINUOUS
 10
14.5367084223
 20
23.0862275007
 11
14.5642556446
 21
23.082585834
  0
LINE
  5
2D8
100
AcDbEntity
  8
___SYMBOL
100
AcDbLine
 62
2
  6
CONTINUOUS
 10
14.5642556446
 20
23.082585834
 11
14.8526473112
 21
23.082585834
  0
LINE
  5
2D9
100
AcDbEntity
  8
___SYMBOL
100
AcDbLine
 62
2
  6
CONTINUOUS
 10
14.8526473112
 20
23.082585834
 11
14.8859723112
 21
23.0862275007
  0
LINE
  5
2DA
100
AcDbEntity
  8
___SYMBOL
100
AcDbLine
 62
2
  6
CONTINUOUS
 10
14.8859723112
 20
23.0862275007
 11
14.8881417557
 21
23.0862275007
  0
LINE
  5
2DB
100
AcDbEntity
  8
___SYMBOL
100
AcDbLine
 62
2
  6
CONTINUOUS
 10
14.8881417557
 20
23.0862275007
 11
14.864962589
 21
23.0242969451
  0
LINE
  5
2DC
100
AcDbEntity
  8
___SYMBOL
100
AcDbLine
 62
2
  6
CONTINUOUS
 10
14.864962589
 20
23.0242969451
 11
14.8627848112
 21
23.0242969451
  0
SPLINE
  5
2DD
100
AcDbEntity
  8
___SYMBOL
100
AcDbSpline
 62
2
  6
CONTINUOUS
 70
0
 71
3
 72
11
 73
7
 74
0
 42
0.0000001
 43
0.0000001
 44
0.0000000001
 40
2.0235770463
 40
2.0235770463
 40
2.0235770463
 40
2.0235770463
 40
3.0235770463
 40
3.0235770463
 40
3.0235770463
 40
3.0888034352
 40
3.0888034352
 40
3.0888034352
 40
3.0888034352
 10
14.8627848112
 20
23.0242969451
 30
0.0
 10
14.8533723112
 20
23.0425052784
 30
0.0
 10
14.8243806446
 20
23.045123334
 30
0.0
 10
14.800475089
 20
23.045123334
 30
0.0
 10
14.7787329594
 20
23.045123334
 30
0.0
 10
14.7569908298
 20
23.045123334
 30
0.0
 10
14.7352487001
 20
23.045123334
 30
0.0
  0
SPLINE
  5
2DE
100
AcDbEntity
  8
___SYMBOL
100
AcDbSpline
 62
2
  6
CONTINUOUS
 70
0
 71
3
 72
11
 73
7
 74
0
 42
0.0000001
 43
0.0000001
 44
0.0000000001
 40
3.0888034352
 40
3.0888034352
 40
3.0888034352
 40
3.0888034352
 40
3.3260603796
 40
3.3260603796
 40
3.3260603796
 40
4.3260603796
 40
4.3260603796
 40
4.3260603796
 40
4.3260603796
 10
14.7352487001
 20
23.045123334
 30
0.0
 10
14.7352487001
 20
22.9660376858
 30
0.0
 10
14.7352487001
 20
22.8869520377
 30
0.0
 10
14.7352487001
 20
22.8078663895
 30
0.0
 10
14.7352487001
 20
22.7782094451
 30
0.0
 10
14.7345306446
 20
22.7579122229
 30
0.0
 10
14.7729348112
 20
22.7417997229
 30
0.0
  0
SPLINE
  5
2DF
100
AcDbEntity
  8
___SYMBOL
100
AcDbSpline
 62
2
  6
CONTINUOUS
 70
0
 71
3
 72
18
 73
14
 74
0
 42
0.0000001
 43
0.0000001
 44
0.0000000001
 40
0.0
 40
0.0
 40
0.0
 40
0.0
 40
0.5032108973
 40
0.5032108973
 40
0.8324923635
 40
0.8324923635
 40
1.151976252
 40
1.151976252
 40
1.6605310342
 40
1.6605310342
 40
3.0490484198
 40
3.0490484198
 40
4.1196841171
 40
4.1196841171
 40
4.1196841171
 40
4.1196841171
 10
14.4548403668
 20
23.0206761118
 30
0.0
 10
14.4203247695
 20
23.0424636403
 30
0.0
 10
14.3862097333
 20
23.0525603449
 30
0.0
 10
14.3187719793
 20
23.0539372406
 30
0.0
 10
14.2520981755
 20
23.049167668
 30
0.0
 10
14.2436401709
 20
22.9718799778
 30
0.0
 10
14.3110508229
 20
22.9526891442
 30
0.0
 10
14.370416566
 20
22.9324802924
 30
0.0
 10
14.4074709287
 20
22.9224421781
 30
0.0
 10
14.5373524556
 20
22.8570837222
 30
0.0
 10
14.4895840651
 20
22.7760206785
 30
0.0
 10
14.3334318506
 20
22.724325119
 30
0.0
 10
14.2398905604
 20
22.7298206902
 30
0.0
 10
14.1729653668
 20
22.7475094451
 30
0.0
  0
LINE
  5
2E0
100
AcDbEntity
  8
___SYMBOL
100
AcDbLine
 62
2
  6
CONTINUOUS
 10
14.1729653668
 20
22.7475094451
 11
14.1519570335
 21
22.8125455562
  0
SPLINE
  5
2E1
100
AcDbEntity
  8
___SYMBOL
100
AcDbSpline
 62
2
  6
CONTINUOUS
 70
0
 71
3
 72
18
 73
14
 74
0
 42
0.0000001
 43
0.0000001
 44
0.0000000001
 40
4.1880291668
 40
4.1880291668
 40
4.1880291668
 40
4.1880291668
 40
5.1629619988
 40
5.1629619988
 40
5.8465018609
 40
5.8465018609
 40
6.3921468543
 40
6.3921468543
 40
6.8466935936
 40
6.8466935936
 40
7.3975710712
 40
7.3975710712
 40
8.3539434147
 40
8.3539434147
 40
8.3539434147
 40
8.3539434147
 10
14.1519570335
 20
22.8125455562
 30
0.0
 10
14.2115211093
 20
22.7775508657
 30
0.0
 10
14.3105682883
 20
22.7520815063
 30
0.0
 10
14.4286781847
 20
22.8058396099
 30
0.0
 10
14.4205987317
 20
22.8468914093
 30
0.0
 10
14.3398874271
 20
22.8878082964
 30
0.0
 10
14.3012628928
 20
22.8963782051
 30
0.0
 10
14.2329777412
 20
22.9207478824
 30
0.0
 10
14.1842854333
 20
22.9391604268
 30
0.0
 10
14.1515663918
 20
23.0211692281
 30
0.0
 10
14.1823533906
 20
23.0526075644
 30
0.0
 10
14.2868149565
 20
23.0981691927
 30
0.0
 10
14.3880984812
 20
23.0944327074
 30
0.0
 10
14.4548403668
 20
23.0794525007
 30
0.0
  0
LINE
  5
2E2
100
AcDbEntity
  8
___SYMBOL
100
AcDbLine
 62
2
  6
CONTINUOUS
 10
14.4548403668
 20
23.0794525007
 11
14.4548403668
 21
23.0206761118
  0
SPLINE
  5
2E3
100
AcDbEntity
  8
___SYMBOL
100
AcDbSpline
 62
2
  6
CONTINUOUS
 70
0
 71
1
 72
7
 73
5
 74
0
 42
0.0000001
 43
0.0000001
 44
0.0000000001
 40
0.0
 40
0.0
 40
3.4446958333
 40
4.0226375
 40
7.4673333333
 40
8.045275
 40
8.045275
 10
14.0075334223
 20
22.6235136118
 30
0.0
 10
17.4522292557
 20
22.6235136118
 30
0.0
 10
17.4522292557
 20
23.2014552784
 30
0.0
 10
14.0075334223
 20
23.2014552784
 30
0.0
 10
14.0075334223
 20
22.6235136118
 30
0.0
  0
MTEXT
  5
2E4
100
AcDbEntity
  8
___SYMBOL
100
AcDbMText
 62
2
  6
CONTINUOUS
  7
STANDARD
 71
1
 72
1
 10
13.9711420186
 20
22.3352307093
 30
0.0
 11
1.0
 21
0.0
 31
0.0
  1
CUT-OUT TEMPLATE
 40
0.25
 41
3.2
  0
MTEXT
  5
2E5
100
AcDbEntity
  8
___SYMBOL
100
AcDbMText
 62
2
  6
CONTINUOUS
  7
STANDARD
 71
1
 72
1
 10
13.9711420186
 20
21.9602307093
 30
0.0
 11
1.0
 21
0.0
 31
0.0
  1
UNDERCOUNTER SINK
 40
0.25
 41
3.4
  0
MTEXT
  5
2E6
100
AcDbEntity
  8
___SYMBOL
100
AcDbMText
 62
2
  6
CONTINUOUS
  7
STANDARD
 71
1
 72
1
 10
13.9711420186
 20
21.5852307093
 30
0.0
 11
1.0
 21
0.0
 31
0.0
  1
PLANTILLA DE RECORTE
 40
0.25
 41
4.0
  0
MTEXT
  5
2E7
100
AcDbEntity
  8
___SYMBOL
100
AcDbMText
 62
2
  6
CONTINUOUS
  7
STANDARD
 71
1
 72
1
 10
13.9711420186
 20
21.2102307093
 30
0.0
 11
1.0
 21
0.0
 31
0.0
  1
FREGADERO MONTADO DEBAJO
 40
0.25
 41
4.8
  0
MTEXT
  5
2E8
100
AcDbEntity
  8
___SYMBOL
100
AcDbMText
 62
2
  6
CONTINUOUS
  7
STANDARD
 71
1
 72
1
 10
13.9711420186
 20
20.8352307093
 30
0.0
 11
1.0
 21
0.0
 31
0.0
  1
  DEL MOSTRADOR
 40
0.25
 41
3.0
  0
MTEXT
  5
2E9
100
AcDbEntity
  8
___SYMBOL
100
AcDbMText
 62
2
  6
CONTINUOUS
  7
STANDARD
 71
1
 72
1
 10
13.9711420186
 20
20.4602307093
 30
0.0
 11
1.0
 21
0.0
 31
0.0
  1
PLAN DE DÉCOUPE
 40
0.25
 41
3.0
  0
MTEXT
  5
2EA
100
AcDbEntity
  8
___SYMBOL
100
AcDbMText
 62
2
  6
CONTINUOUS
  7
STANDARD
 71
1
 72
1
 10
13.9711420186
 20
20.0852307093
 30
0.0
 11
1.0
 21
0.0
 31
0.0
  1
ÉVIER SOUS-COMPTOIR
 40
0.25
 41
3.8
  0
MTEXT
  5
2EB
100
AcDbEntity
  8
___SYMBOL
100
AcDbMText
 62
2
  6
CONTINUOUS
  7
STANDARD
 71
1
 72
1
 10
13.9711420186
 20
19.7102307093
 30
0.0
 11
1.0
 21
0.0
 31
0.0
  1
CINCH
 40
0.25
 41
1.0
  0
MTEXT
  5
2EC
100
AcDbEntity
  8
___SYMBOL
100
AcDbMText
 62
2
  6
CONTINUOUS
  7
STANDARD
 71
1
 72
1
 10
15.5711420186
 20
19.7102307093
 30
0.0
 11
1.0
 21
0.0
 31
0.0
  1
11722
 40
0.25
 41
1.0
  0
MTEXT
  5
2ED
100
AcDbEntity
  8
___SYMBOL
100
AcDbMText
 62
2
  6
CONTINUOUS
  7
STANDARD
 71
1
 72
1
 10
16.5711420186
 20
19.7102307093
 30
0.0
 11
1.0
 21
0.0
 31
0.0
  1
-**-
 40
0.25
 41
0.8
  0
MTEXT
  5
2EE
100
AcDbEntity
  8
___SYMBOL
100
AcDbMText
 62
2
  6
CONTINUOUS
  7
STANDARD
 71
1
 72
1
 10
17.3711420186
 20
19.7102307093
 30
0.0
 11
1.0
 21
0.0
 31
0.0
  1
**
 40
0.25
 41
0.4
  0
MTEXT
  5
2EF
100
AcDbEntity
  8
___SYMBOL
100
AcDbMText
 62
2
  6
CONTINUOUS
  7
STANDARD
 71
1
 72
1
 10
13.9788813339
 20
18.850238785
 30
0.0
 11
1.0
 21
0.0
 31
0.0
  1
CINCH
 40
0.25
 41
1.0
  0
MTEXT
  5
2F0
100
AcDbEntity
  8
___SYMBOL
100
AcDbMText
 62
2
  6
CONTINUOUS
  7
STANDARD
 71
1
 72
1
 10
15.5788813339
 20
18.850238785
 30
0.0
 11
1.0
 21
0.0
 31
0.0
  1
11722-1
 40
0.25
 41
1.4
  0
MTEXT
  5
2F1
100
AcDbEntity
  8
___SYMBOL
100
AcDbMText
 62
2
  6
CONTINUOUS
  7
STANDARD
 71
1
 72
1
 10
16.9788813339
 20
18.850238785
 30
0.0
 11
1.0
 21
0.0
 31
0.0
  1
-**-
 40
0.25
 41
0.8
  0
MTEXT
  5
2F2
100
AcDbEntity
  8
___SYMBOL
100
AcDbMText
 62
2
  6
CONTINUOUS
  7
STANDARD
 71
1
 72
1
 10
17.7788813339
 20
18.850238785
 30
0.0
 11
1.0
 21
0.0
 31
0.0
  1
**
 40
0.25
 41
0.4
  0
MTEXT
  5
2F3
100
AcDbEntity
  8
___SYMBOL
100
AcDbMText
 62
2
  6
CONTINUOUS
  7
STANDARD
 71
1
 72
1
 10
13.9820176377
 20
17.9577139602
 30
0.0
 11
1.0
 21
0.0
 31
0.0
  1
CINCH
 40
0.25
 41
1.0
  0
MTEXT
  5
2F4
100
AcDbEntity
  8
___SYMBOL
100
AcDbMText
 62
2
  6
CONTINUOUS
  7
STANDARD
 71
1
 72
1
 10
15.5820176377
 20
17.9577139602
 30
0.0
 11
1.0
 21
0.0
 31
0.0
  1
11722-3
 40
0.25
 41
1.4
  0
MTEXT
  5
2F5
100
AcDbEntity
  8
___SYMBOL
100
AcDbMText
 62
2
  6
CONTINUOUS
  7
STANDARD
 71
1
 72
1
 10
16.9820176377
 20
17.9577139602
 30
0.0
 11
1.0
 21
0.0
 31
0.0
  1
-**-
 40
0.25
 41
0.8
  0
MTEXT
  5
2F6
100
AcDbEntity
  8
___SYMBOL
100
AcDbMText
 62
2
  6
CONTINUOUS
  7
STANDARD
 71
1
 72
1
 10
17.7820176377
 20
17.9577139602
 30
0.0
 11
1.0
 21
0.0
 31
0.0
  1
**
 40
0.25
 41
0.4
  0
ENDBLK
  5
2F7
100
AcDbEntity
  8
0
  6
BYBLOCK
 62
0
100
AcDbBlockEnd
  0
BLOCK
  5
2F8
100
AcDbEntity
  8
___SYMBOL
100
AcDbBlockBegin
 62
2
  6
CONTINUOUS
  2
WHEN_PLOTTING_TEMPLATE_N_BL0
 70
64
 10
27.5356176475
 20
13.8369560921
  3
WHEN_PLOTTING_TEMPLATE_N_BL0
  1

  0
MTEXT
  5
2F9
100
AcDbEntity
  8
___SYMBOL
100
AcDbMText
 62
2
  6
CONTINUOUS
  7
STANDARD
 71
1
 72
1
 10
24.2231174151
 20
15.204143688
 30
0.0
 11
1.0
 21
0.0
 31
0.0
  1
WHEN PLOTTING TEMPLATE FULL SIZE:
 40
0.156250011
 41
4.1250002894
  0
MTEXT
  5
2FA
100
AcDbEntity
  8
___SYMBOL
100
AcDbMText
 62
2
  6
CONTINUOUS
  7
STANDARD
 71
1
 72
1
 10
24.2231174151
 20
14.9697686716
 30
0.0
 11
1.0
 21
0.0
 31
0.0
  1
Make sure horizontal and vertical dimensions
 40
0.156250011
 41
5.5000003859
  0
MTEXT
  5
2FB
100
AcDbEntity
  8
___SYMBOL
100
AcDbMText
 62
2
  6
CONTINUOUS
  7
STANDARD
 71
1
 72
1
 10
24.2231174151
 20
14.7353936551
 30
0.0
 11
1.0
 21
0.0
 31
0.0
  1
match the dimensions labeled on the template.
 40
0.156250011
 41
5.6250003947
  0
MTEXT
  5
2FC
100
AcDbEntity
  8
___SYMBOL
100
AcDbMText
 62
2
  6
CONTINUOUS
  7
STANDARD
 71
1
 72
1
 10
24.2231174151
 20
14.2666436223
 30
0.0
 11
1.0
 21
0.0
 31
0.0
  1
AL TRAZAR LA PLANTILLA A ESCALA,
 40
0.156250011
 41
4.0000002806
  0
MTEXT
  5
2FD
100
AcDbEntity
  8
___SYMBOL
100
AcDbMText
 62
2
  6
CONTINUOUS
  7
STANDARD
 71
1
 72
1
 10
24.2231174151
 20
14.0322686058
 30
0.0
 11
1.0
 21
0.0
 31
0.0
  1
asegúrese de que las dimensiones horizontales
 40
0.156250011
 41
5.6250003947
  0
MTEXT
  5
2FE
100
AcDbEntity
  8
___SYMBOL
100
AcDbMText
 62
2
  6
CONTINUOUS
  7
STANDARD
 71
1
 72
1
 10
24.2231174151
 20
13.7978935894
 30
0.0
 11
1.0
 21
0.0
 31
0.0
  1
y verticales concuerden con las dimensiones marcadas
 40
0.156250011
 41
6.500000456
  0
MTEXT
  5
2FF
100
AcDbEntity
  8
___SYMBOL
100
AcDbMText
 62
2
  6
CONTINUOUS
  7
STANDARD
 71
1
 72
1
 10
24.2231174151
 20
13.5635185729
 30
0.0
 11
1.0
 21
0.0
 31
0.0
  1
en la plantilla.
 40
0.156250011
 41
2.0000001403
  0
MTEXT
  5
300
100
AcDbEntity
  8
___SYMBOL
100
AcDbMText
 62
2
  6
CONTINUOUS
  7
STANDARD
 71
1
 72
1
 10
24.2231174151
 20
13.09476854
 30
0.0
 11
1.0
 21
0.0
 31
0.0
  1
AU MOMENT DE TRACER LA DÉCOUPE À L'ÉCHELLE,
 40
0.156250011
 41
5.3750003771
  0
MTEXT
  5
301
100
AcDbEntity
  8
___SYMBOL
100
AcDbMText
 62
2
  6
CONTINUOUS
  7
STANDARD
 71
1
 72
1
 10
24.2231174151
 20
12.8603935236
 30
0.0
 11
1.0
 21
0.0
 31
0.0
  1
Assurez vos que les dimensions horizotales et
 40
0.156250011
 41
5.6250003947
  0
MTEXT
  5
302
100
AcDbEntity
  8
___SYMBOL
100
AcDbMText
 62
2
  6
CONTINUOUS
  7
STANDARD
 71
1
 72
1
 10
24.2231174151
 20
12.6260185071
 30
0.0
 11
1.0
 21
0.0
 31
0.0
  1
verticales correspondent avec les dimensions du plan.
 40
0.156250011
 41
6.6250004648
  0
ENDBLK
  5
303
100
AcDbEntity
  8
0
  6
BYBLOCK
 62
0
100
AcDbBlockEnd
  0
BLOCK
  5
304
100
AcDbEntity
  8
0
100
AcDbBlockBegin
  2
_ARROW_FILLED
 70
64
 10
0.0
 20
0.0
  3
_ARROW_FILLED
  1

  0
SOLID
  5
305
100
AcDbEntity
  8
0
  6
BYBLOCK
 62
0
100
AcDbTrace
 10
0.0
 20
0.0
 11
-1.0
 21
0.1666666667
 12
-1.0
 22
-0.1666666667
 13
-1.0
 23
-0.1666666667
  0
ENDBLK
  5
306
100
AcDbEntity
  8
0
  6
BYBLOCK
 62
0
100
AcDbBlockEnd
  0
BLOCK
  5
307
100
AcDbEntity
  8
0
100
AcDbBlockBegin
 62
2
  6
CONTINUOUS
  2
*D0
 70
65
 10
0.0
 20
0.0
  3
*D0
  1

  0
MTEXT
  5
308
100
AcDbEntity
  8
0
100
AcDbMText
 62
2
  6
CONTINUOUS
  7
STANDARD
 71
2
 72
1
 10
22.4968303618
 20
17.8348974928
 30
0.0
 11
1.0
 21
0.0
 31
0.0
  1
14-27/32\P[376,9]
 40
0.15625
 41
1.0
  0
LINE
  5
309
100
AcDbEntity
  8
0
100
AcDbLine
 62
2
  6
CONTINUOUS
 10
22.5088895155
 20
9.2340026333
 11
22.3718303618
 21
9.2340026333
  0
LINE
  5
30A
100
AcDbEntity
  8
0
100
AcDbLine
 62
2
  6
CONTINUOUS
 10
17.3755728628
 20
24.072156731
 11
22.6218303618
 21
24.072156731
  0
LINE
  5
30B
100
AcDbEntity
  8
0
100
AcDbLine
 62
2
  6
CONTINUOUS
 10
22.4968303618
 20
9.2340026333
 11
22.4968303618
 21
17.3661474928
  0
LINE
  5
30C
100
AcDbEntity
  8
0
100
AcDbLine
 62
2
  6
CONTINUOUS
 10
22.4968303618
 20
24.072156731
 11
22.4968303618
 21
17.9130224928
  0
INSERT
  5
30D
100
AcDbEntity
  8
0
100
AcDbBlockReference
 62
2
  6
CONTINUOUS
  2
_ARROW_FILLED
 10
22.4968303618
 20
9.2340026333
 41
0.1875
 42
0.1875
 43
0.1875
 50
270.0
  0
INSERT
  5
30E
100
AcDbEntity
  8
0
100
AcDbBlockReference
 62
2
  6
CONTINUOUS
  2
_ARROW_FILLED
 10
22.4968303618
 20
24.072156731
 41
0.1875
 42
0.1875
 43
0.1875
 50
90.0
  0
ENDBLK
  5
30F
100
AcDbEntity
  8
0
  6
BYBLOCK
 62
0
100
AcDbBlockEnd
  0
BLOCK
  5
310
100
AcDbEntity
  8
0
100
AcDbBlockBegin
 62
2
  6
CONTINUOUS
  2
*D1
 70
65
 10
0.0
 20
0.0
  3
*D1
  1

  0
MTEXT
  5
311
100
AcDbEntity
  8
0
100
AcDbMText
 62
2
  6
CONTINUOUS
  7
STANDARD
 71
2
 72
1
 10
20.5087738793
 20
17.1525844606
 30
0.0
 11
1.0
 21
0.0
 31
0.0
  1
24-13/32\P[620,1]
 40
0.15625
 41
1.0
  0
LINE
  5
312
100
AcDbEntity
  8
0
100
AcDbLine
 62
2
  6
CONTINUOUS
 10
9.0239948861
 20
17.187306952
 11
9.0245396817
 21
16.6724485284
  0
LINE
  5
313
100
AcDbEntity
  8
0
100
AcDbLine
 62
2
  6
CONTINUOUS
 10
33.4358152882
 20
17.2601136655
 11
33.4361295315
 21
16.9631384266
  0
LINE
  5
314
100
AcDbEntity
  8
0
100
AcDbLine
 62
2
  6
CONTINUOUS
 10
9.0241271543
 20
17.062307022
 11
19.9306488793
 21
17.0738477196
  0
LINE
  5
315
100
AcDbEntity
  8
0
100
AcDbLine
 62
2
  6
CONTINUOUS
 10
33.4359972633
 20
17.0881383566
 11
21.0868988793
 21
17.0750712015
  0
INSERT
  5
316
100
AcDbEntity
  8
0
100
AcDbBlockReference
 62
2
  6
CONTINUOUS
  2
_ARROW_FILLED
 10
9.0241271543
 20
17.062307022
 41
0.1875
 42
0.1875
 43
0.1875
 50
180.0606273051
  0
INSERT
  5
317
100
AcDbEntity
  8
0
100
AcDbBlockReference
 62
2
  6
CONTINUOUS
  2
_ARROW_FILLED
 10
33.4359972633
 20
17.0881383566
 41
0.1875
 42
0.1875
 43
0.1875
 50
0.0606273051
  0
ENDBLK
  5
318
100
AcDbEntity
  8
0
  6
BYBLOCK
 62
0
100
AcDbBlockEnd
  0
BLOCK
  5
319
100
AcDbEntity
  8
0
100
AcDbBlockBegin
 62
2
  6
CONTINUOUS
  2
*D2
 70
65
 10
0.0
 20
0.0
  3
*D2
  1

  0
MTEXT
  5
31A
100
AcDbEntity
  8
0
100
AcDbMText
 62
2
  6
CONTINUOUS
  7
STANDARD
 71
2
 72
1
 10
23.4202728121
 20
18.8805972554
 30
0.0
 11
1.0
 21
0.0
 31
0.0
  1
18-13/32\P[467,2]
 40
0.15625
 41
1.0
  0
LINE
  5
31B
100
AcDbEntity
  8
0
100
AcDbLine
 62
2
  6
CONTINUOUS
 10
22.0962142148
 20
27.6278404042
 11
23.5452728121
 21
27.6278404042
  0
LINE
  5
31C
100
AcDbEntity
  8
0
100
AcDbLine
 62
2
  6
CONTINUOUS
 10
13.962040784
 20
9.2340026333
 11
23.5452728121
 21
9.2340026333
  0
LINE
  5
31D
100
AcDbEntity
  8
0
100
AcDbLine
 62
2
  6
CONTINUOUS
 10
23.4202728121
 20
27.6278404042
 11
23.4202728121
 21
18.9587222554
  0
LINE
  5
31E
100
AcDbEntity
  8
0
100
AcDbLine
 62
2
  6
CONTINUOUS
 10
23.4202728121
 20
9.2340026333
 11
23.4202728121
 21
18.4118472554
  0
INSERT
  5
31F
100
AcDbEntity
  8
0
100
AcDbBlockReference
 62
2
  6
CONTINUOUS
  2
_ARROW_FILLED
 10
23.4202728121
 20
27.6278404042
 41
0.1875
 42
0.1875
 43
0.1875
 50
90.0
  0
INSERT
  5
320
100
AcDbEntity
  8
0
100
AcDbBlockReference
 62
2
  6
CONTINUOUS
  2
_ARROW_FILLED
 10
23.4202728121
 20
9.2340026333
 41
0.1875
 42
0.1875
 43
0.1875
 50
270.0
  0
ENDBLK
  5
321
100
AcDbEntity
  8
0
  6
BYBLOCK
 62
0
100
AcDbBlockEnd
  0
BLOCK
  5
322
100
AcDbEntity
  8
0
100
AcDbBlockBegin
 62
2
  6
CONTINUOUS
  2
*D3
 70
65
 10
0.0
 20
0.0
  3
*D3
  1

  0
MTEXT
  5
323
100
AcDbEntity
  8
0
100
AcDbMText
 62
2
  6
CONTINUOUS
  7
STANDARD
 71
2
 72
1
 10
21.2260090364
 20
16.391437516
 30
0.0
 11
1.0
 21
0.0
 31
0.0
  1
26-13/32\P[670,6]
 40
0.15625
 41
1.0
  0
LINE
  5
324
100
AcDbEntity
  8
0
100
AcDbLine
 62
2
  6
CONTINUOUS
 10
8.0258260788
 20
15.4562252821
 11
8.0248016727
 21
16.4243438454
  0
LINE
  5
325
100
AcDbEntity
  8
0
100
AcDbLine
 62
2
  6
CONTINUOUS
 10
34.4278458003
 20
15.6074643862
 11
34.426951865
 21
16.4522810466
  0
LINE
  5
326
100
AcDbEntity
  8
0
100
AcDbLine
 62
2
  6
CONTINUOUS
 10
8.0249339403
 20
16.2993439154
 11
20.6478840364
 21
16.3127007782
  0
LINE
  5
327
100
AcDbEntity
  8
0
100
AcDbLine
 62
2
  6
CONTINUOUS
 10
34.4270841326
 20
16.3272811166
 11
21.8041340364
 21
16.3139242538
  0
INSERT
  5
328
100
AcDbEntity
  8
0
100
AcDbBlockReference
 62
2
  6
CONTINUOUS
  2
_ARROW_FILLED
 10
8.0249339403
 20
16.2993439154
 41
0.1875
 42
0.1875
 43
0.1875
 50
180.0606269985
  0
INSERT
  5
329
100
AcDbEntity
  8
0
100
AcDbBlockReference
 62
2
  6
CONTINUOUS
  2
_ARROW_FILLED
 10
34.4270841326
 20
16.3272811166
 41
0.1875
 42
0.1875
 43
0.1875
 50
0.0606269985
  0
ENDBLK
  5
32A
100
AcDbEntity
  8
0
  6
BYBLOCK
 62
0
100
AcDbBlockEnd
  0
ENDSEC
  0
SECTION
  2
ENTITIES
  0
DIMENSION
  5
32B
100
AcDbEntity
  8
0
100
AcDbDimension
 62
2
  6
CONTINUOUS
  2
*D0
 10
22.4968303618
 20
24.072156731
 11
22.1530803618
 21
17.6395849928
 70
160
  3
DIMSTYLE_1
100
AcDbAlignedDimension
 13
22.3718303618
 23
9.2340026333
 14
17.3755728628
 24
24.072156731
 50
90.0
100
AcDbRotatedDimension
  0
DIMENSION
  5
32C
100
AcDbEntity
  8
0
100
AcDbDimension
 62
2
  6
CONTINUOUS
  2
*D1
 10
33.4359972633
 20
17.0881383566
 11
20.1650238793
 21
16.9572719606
 70
160
  3
DIMSTYLE_2
100
AcDbAlignedDimension
 13
9.0245396817
 23
16.6724485284
 14
33.4358152882
 24
17.2601136655
 50
0.0606273051
100
AcDbRotatedDimension
  0
DIMENSION
  5
32D
100
AcDbEntity
  8
0
100
AcDbDimension
 62
2
  6
CONTINUOUS
  2
*D2
 10
23.4202728121
 20
9.2340026333
 11
23.0765228121
 21
18.6852847554
 70
160
  3
DIMSTYLE_2
100
AcDbAlignedDimension
 13
22.0962142148
 23
27.6278404042
 14
13.962040784
 24
9.2340026333
 50
270.0
100
AcDbRotatedDimension
  0
DIMENSION
  5
32E
100
AcDbEntity
  8
0
100
AcDbDimension
 62
2
  6
CONTINUOUS
  2
*D3
 10
34.4270841326
 20
16.3272811166
 11
20.8822590364
 21
16.196125016
 70
160
  3
DIMSTYLE_2
100
AcDbAlignedDimension
 13
8.0258260788
 23
15.4562252821
 14
34.4278458003
 24
15.6074643862
 50
0.0606269985
100
AcDbRotatedDimension
  0
MTEXT
  5
32F
100
AcDbEntity
  8
___NOTE
100
AcDbMText
 62
2
  6
CONTINUOUS
  7
STANDARD
 71
1
 72
1
 10
14.9809760845
 20
19.705381152
 30
0.0
 11
1.0
 21
0.0
 31
0.0
  1
TM
 40
0.1
 41
0.16
  0
MTEXT
  5
330
100
AcDbEntity
  8
___NOTE
100
AcDbMText
 62
2
  6
CONTINUOUS
  7
STANDARD
 71
1
 72
1
 10
14.9832838547
 20
18.8420517336
 30
0.0
 11
1.0
 21
0.0
 31
0.0
  1
TM
 40
0.1
 41
0.16
  0
MTEXT
  5
331
100
AcDbEntity
  8
___NOTE
100
AcDbMText
 62
2
  6
CONTINUOUS
  7
STANDARD
 71
1
 72
1
 10
14.982441424
 20
17.9455706169
 30
0.0
 11
1.0
 21
0.0
 31
0.0
  1
TM
 40
0.1
 41
0.16
  0
LEADER
  5
332
100
AcDbEntity
  8
___NOTE
100
AcDbLeader
 62
2
  6
CONTINUOUS
  3
STANDARD
 71
1
 72
0
 73
0
 75
0
 40
0.15625
 41
1.375
 76
3
 10
31.6850863646
 20
23.191791261
 30
0.0
 10
30.5040376844
 20
21.8809225699
 30
0.0
 10
30.2540376844
 20
21.8809225699
 30
0.0
340
334
1001
ACAD
1000
DSTYLE
1002
{
1070
77
1070
0
1002
}
  0
LEADER
  5
333
100
AcDbEntity
  8
___NOTE
100
AcDbLeader
 62
2
  6
CONTINUOUS
  3
STANDARD
 71
1
 72
0
 73
0
 75
0
 40
0.15625
 41
1.375
 76
3
 10
33.779585039
 20
23.2563688302
 30
0.0
 10
30.5040376844
 20
21.8809225699
 30
0.0
 10
30.2540376844
 20
21.8809225699
 30
0.0
340
334
1001
ACAD
1000
DSTYLE
1002
{
1070
77
1070
0
1002
}
  0
MTEXT
  5
334
102
{ACAD_REACTORS
330
332
330
333
102
}
100
AcDbEntity
  8
___NOTE
100
AcDbMText
 62
2
  6
CONTINUOUS
  7
STANDARD
 71
3
 72
1
 10
30.2540376844
 20
21.9590475699
 30
0.0
 11
1.0
 21
0.0
 31
0.0
  1
RIM OF SINK\PREBORDE DE FREGADERO\PREBORD D'ÉVIER
 40
0.15625
 41
2.5
  0
LEADER
  5
335
100
AcDbEntity
  8
___NOTE
100
AcDbLeader
 62
2
  6
CONTINUOUS
  3
STANDARD
 71
1
 72
0
 73
0
 75
0
 40
0.15625
 41
2.375
 76
3
 10
32.008666654
 20
20.9800715388
 30
0.0
 10
31.1144564951
 20
20.4156259928
 30
0.0
 10
30.8644564951
 20
20.4156259928
 30
0.0
340
336
1001
ACAD
1000
DSTYLE
1002
{
1070
77
1070
0
1002
}
  0
MTEXT
  5
336
102
{ACAD_REACTORS
330
335
102
}
100
AcDbEntity
  8
___NOTE
100
AcDbMText
 62
2
  6
CONTINUOUS
  7
STANDARD
 71
3
 72
1
 10
30.8644564951
 20
20.4937509928
 30
0.0
 11
1.0
 21
0.0
 31
0.0
  1
CUT ALONG THIS LINE\PFOR SINK WITH NO FAUCET HOLE\P(11722)
 40
0.15625
 41
3.5
  0
LEADER
  5
337
100
AcDbEntity
  8
___NOTE
100
AcDbLeader
 62
2
  6
CONTINUOUS
  3
STANDARD
 71
1
 72
0
 73
0
 75
0
 40
0.15625
 41
2.375
 76
3
 10
33.4377813425
 20
19.2431307368
 30
0.0
 10
32.0535528862
 20
18.7557453816
 30
0.0
 10
31.8035528862
 20
18.7557453816
 30
0.0
340
338
1001
ACAD
1000
DSTYLE
1002
{
1070
77
1070
0
1002
}
  0
MTEXT
  5
338
102
{ACAD_REACTORS
330
337
102
}
100
AcDbEntity
  8
___NOTE
100
AcDbMText
 62
2
  6
CONTINUOUS
  7
STANDARD
 71
3
 72
1
 10
31.8035528862
 20
18.8338703816
 30
0.0
 11
1.0
 21
0.0
 31
0.0
  1
CUT ALONG THIS LINE\PFOR SINK WITH FAUCET HOLE\P(11722-1, 11722-3)
 40
0.15625
 41
3.125
  0
INSERT
  5
339
100
AcDbEntity
  8
___SYMBOL
100
AcDbBlockReference
 62
2
  6
CONTINUOUS
  2
WHEN_PLOTTING_TEMPLATE_N_BL0
 10
27.5356176475
 20
13.8369560921
  0
INSERT
  5
33A
100
AcDbEntity
  8
___SYMBOL
100
AcDbBlockReference
 62
2
  6
CONTINUOUS
  2
SKU_SINK_STERLING_BL1
 10
16.3711420186
 20
20.4630957304
  0
INSERT
  5
33B
100
AcDbEntity
  8
___SYMBOL
100
AcDbBlockReference
 62
2
  6
CONTINUOUS
  2
COPYRIGHT_YEAR_BL2
 10
28.049169429
 20
9.6847078815
  0
INSERT
  5
33C
100
AcDbEntity
  8
___SYMBOL
100
AcDbBlockReference
 62
2
  6
CONTINUOUS
  2
TEMPLATE_NUMBER_BL3
 10
14.1084769128
 20
9.6773716901
  0
INSERT
  5
33D
100
AcDbEntity
  8
___SYMBOL
100
AcDbBlockReference
 62
2
  6
CONTINUOUS
  2
TEMPLATE_NUMBER_BL4
 10
14.1243481306
 20
8.0204117612
  0
LINE
  5
33E
100
AcDbEntity
  8
_CURVE
100
AcDbLine
 62
8
  6
HIDDEN
 10
8.0210946481
 20
19.9276440583
 11
8.028710556
 21
12.7302399186
  0
LINE
  5
33F
100
AcDbEntity
  8
_CURVE
100
AcDbLine
 62
7
  6
CONTINUOUS
 10
9.0210940883
 20
19.9287022042
 11
9.0287099962
 21
12.7312980644
  0
LINE
  5
340
100
AcDbEntity
  8
_CURVE
100
AcDbLine
 62
8
  6
HIDDEN
 10
8.0218006103
 20
19.2605084044
 11
12.0918607855
 21
25.073156731
  0
LINE
  5
341
100
AcDbEntity
  8
_CURVE
100
AcDbLine
 62
8
  6
HIDDEN
 10
12.5297080361
 20
8.2340026333
 11
29.9298928297
 21
8.2340026333
  0
LINE
  5
342
100
AcDbEntity
  8
_CURVE
100
AcDbLine
 62
7
  6
CONTINUOUS
 10
12.5297080361
 20
9.2340026333
 11
29.9298928297
 21
9.2340026333
  0
LINE
  5
343
100
AcDbEntity
  8
_CURVE
100
AcDbLine
 62
8
  6
HIDDEN
 10
30.3677400804
 20
25.073156731
 11
12.0918607855
 21
25.073156731
  0
LINE
  5
344
100
AcDbEntity
  8
_CURVE
100
AcDbLine
 62
7
  6
CONTINUOUS
 10
25.7475110833
 20
27.6278404042
 11
16.7120897826
 21
27.6278404042
  0
LINE
  5
345
100
AcDbEntity
  8
_CURVE
100
AcDbLine
 62
8
  6
HIDDEN
 10
25.7475110833
 20
28.6278404042
 11
16.7120897826
 21
28.6278404042
  0
LINE
  5
346
100
AcDbEntity
  8
_CURVE
100
AcDbLine
 62
7
  6
CONTINUOUS
 10
33.4385067776
 20
19.9287022042
 11
33.4308908697
 21
12.7312980644
  0
LINE
  5
347
100
AcDbEntity
  8
_CURVE
100
AcDbLine
 62
8
  6
HIDDEN
 10
34.4378002556
 20
19.2605084044
 11
30.3677400804
 21
25.073156731
  0
LINE
  5
348
100
AcDbEntity
  8
_CURVE
100
AcDbLine
 62
8
  6
HIDDEN
 10
34.4385062178
 20
19.9276440583
 11
34.4308903099
 21
12.7302399186
  0
ARC
  5
349
100
AcDbEntity
  8
_CURVE
100
AcDbCircle
 62
7
  6
CONTINUOUS
 10
21.2298004329
 20
-200.3695371152
 40
224.4416938462
100
AcDbArc
 50
88.7456565788
 51
91.2543434212
  0
ARC
  5
34A
100
AcDbEntity
  8
_CURVE
100
AcDbCircle
 62
8
  6
HIDDEN
 10
25.7475110833
 20
19.9368404042
 40
8.691
100
AcDbArc
 50
359.9393726949
 51
90.0
  0
ARC
  5
34B
100
AcDbEntity
  8
_CURVE
100
AcDbCircle
 62
8
  6
HIDDEN
 10
16.7120897826
 20
19.9368404042
 40
8.691
100
AcDbArc
 50
90.0
 51
180.0606273051
  0
ARC
  5
34C
100
AcDbEntity
  8
_CURVE
100
AcDbCircle
 62
7
  6
CONTINUOUS
 10
25.7475110833
 20
19.9368404042
 40
7.691
100
AcDbArc
 50
359.9393726949
 51
90.0
  0
ARC
  5
34D
100
AcDbEntity
  8
_CURVE
100
AcDbCircle
 62
7
  6
CONTINUOUS
 10
16.7120897826
 20
19.9368404042
 40
7.691
100
AcDbArc
 50
90.0
 51
180.0606273051
  0
ARC
  5
34E
100
AcDbEntity
  8
_CURVE
100
AcDbCircle
 62
7
  6
CONTINUOUS
 10
25.9788003154
 20
16.5201710983
 40
7.5
100
AcDbArc
 50
6.1419658343
 51
88.7456565788
  0
ARC
  5
34F
100
AcDbEntity
  8
_CURVE
100
AcDbCircle
 62
7
  6
CONTINUOUS
 10
16.4808005504
 20
16.5201710983
 40
7.5
100
AcDbArc
 50
91.2543434212
 51
173.8580341657
  0
ARC
  5
350
100
AcDbEntity
  8
_CURVE
100
AcDbCircle
 62
8
  6
HIDDEN
 10
12.5297080361
 20
12.7350026332
 40
4.5009999999
100
AcDbArc
 50
180.0606273051
 51
270.0
  0
ARC
  5
351
100
AcDbEntity
  8
_CURVE
100
AcDbCircle
 62
8
  6
HIDDEN
 10
29.9298928299
 20
12.7350026332
 40
4.5009999998
100
AcDbArc
 50
270.0
 51
359.9393726948
  0
ARC
  5
352
100
AcDbEntity
  8
_CURVE
100
AcDbCircle
 62
7
  6
CONTINUOUS
 10
12.5297080361
 20
12.7350026332
 40
3.5009999999
100
AcDbArc
 50
180.0606273051
 51
270.0
  0
ARC
  5
353
100
AcDbEntity
  8
_CURVE
100
AcDbCircle
 62
7
  6
CONTINUOUS
 10
29.9298928297
 20
12.7350026332
 40
3.5009999999
100
AcDbArc
 50
270.0
 51
359.9393726949
  0
ENDSEC
  0
SECTION
  2
OBJECTS
  0
DICTIONARY
  5
354
100
AcDbDictionary
  3
ACAD_GROUP
350
355
  3
ACAD_MLINESTYLE
350
356
  0
DICTIONARY
  5
355
102
{ACAD_REACTORS
330
354
102
}
100
AcDbDictionary
  0
DICTIONARY
  5
356
102
{ACAD_REACTORS
330
354
102
}
100
AcDbDictionary
  3
STANDARD
350
357
  0
MLINESTYLE
  5
357
102
{ACAD_REACTORS
330
356
102
}
100
AcDbMlineStyle
  2
STANDARD
 70
0
  3

 62
256
 51
90.0
 52
90.0
 71
2
 49
0.5
 62
256
  6
BYLAYER
 49
-0.5
 62
256
  6
BYLAYER
  0
ENDSEC
  0
EOF
