999
DXF file: 1084867_7_b.dxf
999
Pro/ENGINEER 2007160 by Parametric Technology Corporation
  0
SECTION
  2
HEADER
  9
$EXTMAX
 10
34.0
 20
22.0
 30
0.0
  9
$EXTMIN
 10
0.0
 20
0.0
 30
0.0
  9
$LIMMIN
 10
0.0
 20
0.0
  9
$LIMMAX
 10
34.0
 20
22.0
  9
$VIEWCTR
 10
17.0
 20
11.0
  9
$VIEWSIZE
 40
22.0
  9
$CLAYER
  8
0
  9
$LTSCALE
 40
1.87
  9
$CELTYPE
  6
BYLAYER
  9
$DIMSCALE
 40
1.0
  9
$DIMASZ
 40
0.1875
  9
$DIMEXO
 40
0.2125
  9
$DIMDLI
 40
1.292
  9
$DIMEXE
 40
0.612
  9
$DIMCEN
 40
0.306
  9
$DIMLFAC
 40
1.0
  9
$DIMBLK
  1
_FILLED
  9
$DIMTXT
 40
0.15625
  9
$PDMODE
 70
3
  9
$PDSIZE
 40
0.3125
  0
ENDSEC
  0
SECTION
  2
TABLES
  0
TABLE
  2
LTYPE
 70
6
  0
LTYPE
  2
BYBLOCK
 70
0
  3

 72
65
 73
0
 40
0.0
  0
LTYPE
  2
BYLAYER
 70
0
  3

 72
65
 73
0
 40
0.0
  0
LTYPE
  2
CONTINUOUS
 70
64
  3
Solid line
 72
65
 73
0
 40
0.0
  0
LTYPE
  2
CENTER
 70
64
  3
____ _ ____ _ ____ _ ____ _ ____ _ ____ _ ____
 72
65
 73
4
 40
0.6
 49
0.375
 49
-0.075
 49
0.075
 49
-0.075
  0
LTYPE
  2
HIDDEN
 70
64
  3
- - - - - - - - - - - - - - - - - - - -
 72
65
 73
2
 40
0.2
 49
0.1
 49
-0.1
  0
LTYPE
  2
PHANTOM
 70
64
  3
_____ _ _ _____ _ _ _____ _ _ _____
 72
65
 73
6
 40
0.8
 49
0.45
 49
-0.05
 49
0.1
 49
-0.05
 49
0.1
 49
-0.05
  0
LTYPE
  2
DOT
 70
64
  3
. . . . . . . . . . . . . . . . . . . .
 72
65
 73
2
 40
0.2
 49
0.1
 49
-0.1
  0
LTYPE
  2
DASHED
 70
64
  3
- - - - - - - - - - - - - - - - - - - -
 72
65
 73
2
 40
0.2
 49
0.1
 49
-0.1
  0
ENDTAB
  0
TABLE
  2
LAYER
 70
36
  0
LAYER
  2
0
 70
0
 62
7
  6
CONTINUOUS
  0
LAYER
  2
DEFAULT_1
 70
0
 62
7
  6
CENTER
  0
LAYER
  2
DEFAULT_2
 70
0
 62
8
  6
HIDDEN
  0
LAYER
  2
DEFAULT_3
 70
0
 62
7
  6
PHANTOM
  0
LAYER
  2
_2D_DELETED_OBJS
 70
0
 62
7
  6
CONTINUOUS
  0
LAYER
  2
_2D_FEAT_TRIM_ENTS
 70
0
 62
7
  6
CONTINUOUS
  0
LAYER
  2
_BLACK_HOLE
 70
0
 62
7
  6
CONTINUOUS
  0
LAYER
  2
DATUMS
 70
0
 62
7
  6
CONTINUOUS
  0
LAYER
  2
DATUM_AXIS
 70
0
 62
7
  6
CONTINUOUS
  0
LAYER
  2
DATUM_CSYS
 70
0
 62
7
  6
CONTINUOUS
  0
LAYER
  2
DATUM_PLANE
 70
0
 62
7
  6
CONTINUOUS
  0
LAYER
  2
DATUM_POINT
 70
0
 62
7
  6
CONTINUOUS
  0
LAYER
  2
_CURVE
 70
0
 62
7
  6
CONTINUOUS
  0
LAYER
  2
_SURFACE
 70
0
 62
7
  6
CONTINUOUS
  0
LAYER
  2
__REF_CURVE
 70
0
 62
7
  6
CONTINUOUS
  0
LAYER
  2
__REF_SURFACE
 70
0
 62
7
  6
CONTINUOUS
  0
LAYER
  2
___NOTE
 70
0
 62
7
  6
CONTINUOUS
  0
LAYER
  2
___SYMBOL
 70
0
 62
7
  6
CONTINUOUS
  0
ENDTAB
  0
TABLE
  2
STYLE
 70
1
  0
STYLE
  2
STANDARD
 70
0
 40
0.0
 41
0.8
 50
0.0
 71
0
 42
0.2
  3
txt
  4

  0
ENDTAB
  0
ENDSEC
  0
SECTION
  2
BLOCKS
  0
BLOCK
  8
0
 62
2
  6
CONTINUOUS
  2
*D0
 70
65
 10
0.0
 20
0.0
  0
TEXT
  8
0
 62
2
  6
CONTINUOUS
 10
1.8862368448
 20
19.8270543312
  7
STANDARD
 40
0.18
  1
"
 41
0.8
 72
0
  0
TEXT
  8
0
 62
2
  6
CONTINUOUS
 10
1.3102368448
 20
19.5570543312
  7
STANDARD
 40
0.18
  1
[5,1 cm]
 41
0.8
 72
0
  0
TEXT
  8
0
 62
2
  6
CONTINUOUS
 10
1.8142368448
 20
19.2870543312
  7
STANDARD
 40
0.18
  1
 
 41
0.8
 72
0
  0
TEXT
  8
0
 62
2
  6
CONTINUOUS
 10
1.7422368448
 20
19.8270543312
  7
STANDARD
 40
0.18
  1
2
 41
0.8
 72
0
  0
LINE
  8
0
 62
2
  6
CONTINUOUS
 10
1.8224803092
 20
20.9170543312
 11
2.0112368448
 21
20.9170543312
  0
LINE
  8
0
 62
2
  6
CONTINUOUS
 10
1.8224803092
 20
18.9170543312
 11
2.0112368448
 21
18.9170543312
  0
LINE
  8
0
 62
2
  6
CONTINUOUS
 10
1.8862368448
 20
20.9170543312
 11
1.8862368448
 21
20.0970543312
  0
LINE
  8
0
 62
2
  6
CONTINUOUS
 10
1.8862368448
 20
18.9170543312
 11
1.8862368448
 21
19.1970543312
  0
INSERT
  8
0
 62
2
  6
CONTINUOUS
  2
_FILLED
 10
1.8862368448
 20
20.9170543312
 41
0.1875
 42
0.1875
 43
0.1875
 50
90.0
  0
INSERT
  8
0
 62
2
  6
CONTINUOUS
  2
_FILLED
 10
1.8862368448
 20
18.9170543312
 41
0.1875
 42
0.1875
 43
0.1875
 50
270.0
  0
ENDBLK
  8
0
  6
BYBLOCK
 62
0
  0
BLOCK
  8
0
 62
2
  6
CONTINUOUS
  2
*D1
 70
65
 10
0.0
 20
0.0
  0
TEXT
  8
0
 62
2
  6
CONTINUOUS
 10
2.1845834772
 20
17.5770543312
  7
STANDARD
 40
0.18
  1
"
 41
0.8
 72
0
  0
TEXT
  8
0
 62
2
  6
CONTINUOUS
 10
1.3205834772
 20
17.3070543312
  7
STANDARD
 40
0.18
  1
[6,4 cm]
 41
0.8
 72
0
  0
TEXT
  8
0
 62
2
  6
CONTINUOUS
 10
1.4645834772
 20
17.5770543312
  7
STANDARD
 40
0.18
  1
2-1/2
 41
0.8
 72
0
  0
LINE
  8
0
 62
2
  6
CONTINUOUS
 10
1.8224803092
 20
18.9170543312
 11
2.0215834772
 21
18.9170543312
  0
LINE
  8
0
 62
2
  6
CONTINUOUS
 10
12.6974803092
 20
16.4170543312
 11
1.7715834772
 21
16.4170543312
  0
LINE
  8
0
 62
2
  6
CONTINUOUS
 10
1.8965834772
 20
18.9170543312
 11
1.8965834772
 21
17.8470543312
  0
LINE
  8
0
 62
2
  6
CONTINUOUS
 10
1.8965834772
 20
16.4170543312
 11
1.8965834772
 21
17.2170543312
  0
INSERT
  8
0
 62
2
  6
CONTINUOUS
  2
_FILLED
 10
1.8965834772
 20
18.9170543312
 41
0.1875
 42
0.1875
 43
0.1875
 50
90.0
  0
INSERT
  8
0
 62
2
  6
CONTINUOUS
  2
_FILLED
 10
1.8965834772
 20
16.4170543312
 41
0.1875
 42
0.1875
 43
0.1875
 50
270.0
  0
ENDBLK
  8
0
  6
BYBLOCK
 62
0
  0
BLOCK
  8
0
 62
2
  6
CONTINUOUS
  2
*D2
 70
65
 10
0.0
 20
0.0
  0
TEXT
  8
0
 62
2
  6
CONTINUOUS
 10
13.1149262436
 20
12.9432624182
  7
STANDARD
 40
0.18
  1
"
 41
0.8
 72
0
  0
TEXT
  8
0
 62
2
  6
CONTINUOUS
 10
12.1069262436
 20
12.6732624182
  7
STANDARD
 40
0.18
  1
[29,2 cm]
 41
0.8
 72
0
  0
TEXT
  8
0
 62
2
  6
CONTINUOUS
 10
12.2509262436
 20
12.9432624182
  7
STANDARD
 40
0.18
  1
11-1/2
 41
0.8
 72
0
  0
LINE
  8
0
 62
2
  6
CONTINUOUS
 10
12.6974803092
 20
16.4170543312
 11
12.6299262436
 21
16.4170543312
  0
LINE
  8
0
 62
2
  6
CONTINUOUS
 10
12.6974803092
 20
4.9024743312
 11
12.6299262436
 21
4.9024743312
  0
LINE
  8
0
 62
2
  6
CONTINUOUS
 10
12.7549262436
 20
16.4170543312
 11
12.7549262436
 21
13.2132624182
  0
LINE
  8
0
 62
2
  6
CONTINUOUS
 10
12.7549262436
 20
4.9024743312
 11
12.7549262436
 21
12.5832624182
  0
INSERT
  8
0
 62
2
  6
CONTINUOUS
  2
_FILLED
 10
12.7549262436
 20
16.4170543312
 41
0.1875
 42
0.1875
 43
0.1875
 50
90.0
  0
INSERT
  8
0
 62
2
  6
CONTINUOUS
  2
_FILLED
 10
12.7549262436
 20
4.9024743312
 41
0.1875
 42
0.1875
 43
0.1875
 50
270.0
  0
ENDBLK
  8
0
  6
BYBLOCK
 62
0
  0
BLOCK
  8
0
 62
2
  6
CONTINUOUS
  2
*D3
 70
65
 10
0.0
 20
0.0
  0
TEXT
  8
0
 62
2
  6
CONTINUOUS
 10
8.5471515046
 20
10.5775955979
  7
STANDARD
 40
0.18
  1
"
 41
0.8
 72
0
  0
TEXT
  8
0
 62
2
  6
CONTINUOUS
 10
7.5391515046
 20
10.3075955979
  7
STANDARD
 40
0.18
  1
[44,5 cm]
 41
0.8
 72
0
  0
TEXT
  8
0
 62
2
  6
CONTINUOUS
 10
7.6831515046
 20
10.5775955979
  7
STANDARD
 40
0.18
  1
17-1/2
 41
0.8
 72
0
  0
LINE
  8
0
 62
2
  6
CONTINUOUS
 10
3.9998842014
 20
10.4498898457
 11
3.9998842014
 21
10.7925955979
  0
LINE
  8
0
 62
2
  6
CONTINUOUS
 10
21.5200764171
 20
10.4498898457
 11
21.5200764171
 21
10.7925955979
  0
LINE
  8
0
 62
2
  6
CONTINUOUS
 10
3.9998842014
 20
10.6675955979
 11
7.4491515046
 21
10.6675955979
  0
LINE
  8
0
 62
2
  6
CONTINUOUS
 10
21.5200764171
 20
10.6675955979
 11
8.9251515046
 21
10.6675955979
  0
INSERT
  8
0
 62
2
  6
CONTINUOUS
  2
_FILLED
 10
3.9998842014
 20
10.6675955979
 41
0.1875
 42
0.1875
 43
0.1875
 50
180.0
  0
INSERT
  8
0
 62
2
  6
CONTINUOUS
  2
_FILLED
 10
21.5200764171
 20
10.6675955979
 41
0.1875
 42
0.1875
 43
0.1875
  0
ENDBLK
  8
0
  6
BYBLOCK
 62
0
  0
BLOCK
  8
0
 62
2
  6
CONTINUOUS
  2
*D4
 70
65
 10
0.0
 20
0.0
  0
TEXT
  8
0
 62
2
  6
CONTINUOUS
 10
11.3578178407
 20
10.0263061872
  7
STANDARD
 40
0.18
  1
"
 41
0.8
 72
0
  0
TEXT
  8
0
 62
2
  6
CONTINUOUS
 10
10.6378178407
 20
9.7563061872
  7
STANDARD
 40
0.18
  1
[48,3 cm]
 41
0.8
 72
0
  0
TEXT
  8
0
 62
2
  6
CONTINUOUS
 10
11.2138178407
 20
9.4863061872
  7
STANDARD
 40
0.18
  1
 
 41
0.8
 72
0
  0
TEXT
  8
0
 62
2
  6
CONTINUOUS
 10
11.2138178407
 20
9.2163061872
  7
STANDARD
 40
0.18
  1
 
 41
0.8
 72
0
  0
TEXT
  8
0
 62
2
  6
CONTINUOUS
 10
11.0698178407
 20
10.0263061872
  7
STANDARD
 40
0.18
  1
19
 41
0.8
 72
0
  0
LINE
  8
0
 62
2
  6
CONTINUOUS
 10
3.2588886067
 20
10.5972643312
 11
3.2588886067
 21
9.9913061872
  0
LINE
  8
0
 62
2
  6
CONTINUOUS
 10
22.2610720118
 20
10.5972643312
 11
22.2610720118
 21
9.9913061872
  0
LINE
  8
0
 62
2
  6
CONTINUOUS
 10
3.2588886067
 20
10.1163061872
 11
10.5478178407
 21
10.1163061872
  0
LINE
  8
0
 62
2
  6
CONTINUOUS
 10
22.2610720118
 20
10.1163061872
 11
12.0238178407
 21
10.1163061872
  0
INSERT
  8
0
 62
2
  6
CONTINUOUS
  2
_FILLED
 10
3.2588886067
 20
10.1163061872
 41
0.1875
 42
0.1875
 43
0.1875
 50
180.0
  0
INSERT
  8
0
 62
2
  6
CONTINUOUS
  2
_FILLED
 10
22.2610720118
 20
10.1163061872
 41
0.1875
 42
0.1875
 43
0.1875
  0
ENDBLK
  8
0
  6
BYBLOCK
 62
0
  0
BLOCK
  8
0
 62
2
  6
CONTINUOUS
  2
*D5
 70
65
 10
0.0
 20
0.0
  0
TEXT
  8
0
 62
2
  6
CONTINUOUS
 10
14.1280239407
 20
6.6232003723
  7
STANDARD
 40
0.18
  1
"
 41
0.8
 72
0
  0
TEXT
  8
0
 62
2
  6
CONTINUOUS
 10
13.1200239407
 20
6.3532003723
  7
STANDARD
 40
0.18
  1
[33,4 cm]
 41
0.8
 72
0
  0
TEXT
  8
0
 62
2
  6
CONTINUOUS
 10
13.2640239407
 20
6.6232003723
  7
STANDARD
 40
0.18
  1
13-1/8
 41
0.8
 72
0
  0
LINE
  8
0
 62
2
  6
CONTINUOUS
 10
12.8224811048
 20
4.1370651631
 11
13.8930239407
 21
4.1370651631
  0
LINE
  8
0
 62
2
  6
CONTINUOUS
 10
12.8224763306
 20
17.2886463507
 11
13.8930239407
 21
17.2886463507
  0
LINE
  8
0
 62
2
  6
CONTINUOUS
 10
13.7680239407
 20
4.1370651631
 11
13.7680239407
 21
6.2632003723
  0
LINE
  8
0
 62
2
  6
CONTINUOUS
 10
13.7680239407
 20
17.2886463507
 11
13.7680239407
 21
6.8932003723
  0
INSERT
  8
0
 62
2
  6
CONTINUOUS
  2
_FILLED
 10
13.7680239407
 20
4.1370651631
 41
0.1875
 42
0.1875
 43
0.1875
 50
270.0
  0
INSERT
  8
0
 62
2
  6
CONTINUOUS
  2
_FILLED
 10
13.7680239407
 20
17.2886463507
 41
0.1875
 42
0.1875
 43
0.1875
 50
90.0
  0
ENDBLK
  8
0
  6
BYBLOCK
 62
0
  0
BLOCK
  8
___SYMBOL
 62
2
  6
CONTINUOUS
  2
COPYRIGHT_YEAR_BL0
 70
64
 10
16.8141843423
 20
5.2382665264
  0
TEXT
  8
___SYMBOL
 62
2
  6
CONTINUOUS
 10
16.4404940388
 20
5.2029930264
  7
STANDARD
 40
0.0704997506
  1
2007
 41
0.8
 72
0
  0
TEXT
  8
___SYMBOL
 62
2
  6
CONTINUOUS
 10
16.6660932406
 20
5.2029930264
  7
STANDARD
 40
0.0704997506
  1
 KOHLER CO.
 41
0.8
 72
0
  0
TEXT
  8
___SYMBOL
 62
7
  6
CONTINUOUS
 10
16.3604685728
 20
5.2194779683
  7
STANDARD
 40
0.0421873503
  1
C
 41
1.0
 72
0
  0
CIRCLE
  8
___SYMBOL
 62
7
  6
CONTINUOUS
 10
16.3747035223
 20
5.2407141429
 40
0.0328258835
  0
ENDBLK
  8
0
  6
BYBLOCK
 62
0
  0
BLOCK
  8
___SYMBOL
 62
2
  6
CONTINUOUS
  2
PACKAGING_UPC_BL1
 70
64
 10
17.452049192
 20
13.2477794119
  0
TEXT
  8
___SYMBOL
 62
7
  6
CONTINUOUS
 10
15.9180483037
 20
13.7747827148
  7
STANDARD
 40
0.0593587494
  1
XXXXX-XX-X-XX
 41
0.8258950223
 72
0
  0
TEXT
  8
___SYMBOL
 62
7
  6
CONTINUOUS
 10
17.5520282877
 20
13.6456177161
  7
STANDARD
 40
0.0445192496
  1
xxxxxx-xx
 41
0.6740211631
 72
0
  0
TEXT
  8
___SYMBOL
 62
2
  6
CONTINUOUS
 10
14.7877040062
 20
15.3184113796
  7
STANDARD
 40
0.1562500055
  1
PACKAGING/UPC LABEL ON BOX
 41
0.8
 72
0
  0
TEXT
  8
___SYMBOL
 62
2
  6
CONTINUOUS
 10
14.7877040062
 20
15.0840363713
  7
STANDARD
 40
0.1562500055
  1
ETIQUETA DE EMBALAJE/UPC EN LA CAJA
 41
0.8
 72
0
  0
TEXT
  8
___SYMBOL
 62
2
  6
CONTINUOUS
 10
14.7877040062
 20
14.8496613696
  7
STANDARD
 40
0.1562500003
  1
ETIQUETTE D'EMBALLAGE/UPC SUR LA BOÎTE
 41
0.8
 72
0
  0
TEXT
  8
___SYMBOL
 62
2
  6
CONTINUOUS
 10
14.764549097
 20
13.1302724597
  7
STANDARD
 40
0.1562500055
  1
The template and the label suffixes circled
 41
0.8
 72
0
  0
TEXT
  8
___SYMBOL
 62
2
  6
CONTINUOUS
 10
14.764549097
 20
12.8958974514
  7
STANDARD
 40
0.1562500055
  1
must match for proper cut-out.
 41
0.8
 72
0
  0
TEXT
  8
___SYMBOL
 62
2
  6
CONTINUOUS
 10
14.764549097
 20
12.6615224497
  7
STANDARD
 40
0.1562500003
  1
 
 41
0.8
 72
0
  0
TEXT
  8
___SYMBOL
 62
2
  6
CONTINUOUS
 10
14.764549097
 20
12.4271474427
  7
STANDARD
 40
0.1562500055
  1
A fin de realizar el corte apropiado, la
 41
0.8
 72
0
  0
TEXT
  8
___SYMBOL
 62
2
  6
CONTINUOUS
 10
14.764549097
 20
12.1927724409
  7
STANDARD
 40
0.1562500003
  1
plantilla y los sufijos de la etiqueta
 41
0.8
 72
0
  0
TEXT
  8
___SYMBOL
 62
2
  6
CONTINUOUS
 10
14.764549097
 20
11.9583974405
  7
STANDARD
 40
0.1562500003
  1
demarcados deben concordar.
 41
0.8
 72
0
  0
TEXT
  8
___SYMBOL
 62
2
  6
CONTINUOUS
 10
14.764549097
 20
11.72402244
  7
STANDARD
 40
0.1562500003
  1
 
 41
0.8
 72
0
  0
TEXT
  8
___SYMBOL
 62
2
  6
CONTINUOUS
 10
14.764549097
 20
11.4896474396
  7
STANDARD
 40
0.1562500003
  1
Afin de découper l'ouverture correctement,
 41
0.8
 72
0
  0
TEXT
  8
___SYMBOL
 62
2
  6
CONTINUOUS
 10
14.764549097
 20
11.2552724391
  7
STANDARD
 40
0.1562500003
  1
le gabarit et les suffixes encerclés
 41
0.8
 72
0
  0
TEXT
  8
___SYMBOL
 62
2
  6
CONTINUOUS
 10
14.764549097
 20
11.0208974387
  7
STANDARD
 40
0.1562500003
  1
doivent correspondre
 41
0.8
 72
0
  0
LINE
  8
___SYMBOL
 62
7
  6
CONTINUOUS
 10
17.9068532843
 20
13.6188877163
 11
15.7218108056
 21
13.6188877163
  0
LINE
  8
___SYMBOL
 62
7
  6
CONTINUOUS
 10
15.7218108056
 20
13.6188877163
 11
15.7218108056
 21
14.6119177066
  0
LINE
  8
___SYMBOL
 62
7
  6
CONTINUOUS
 10
15.7218108056
 20
14.6119177066
 11
17.9068532843
 21
14.6119177066
  0
LINE
  8
___SYMBOL
 62
7
  6
CONTINUOUS
 10
17.9068532843
 20
14.6119177066
 11
17.9068532843
 21
13.6188877163
  0
LINE
  8
___SYMBOL
 62
7
  6
CONTINUOUS
 10
15.6884433059
 20
14.6443777063
 11
17.9410082839
 21
14.6443777063
  0
LINE
  8
___SYMBOL
 62
7
  6
CONTINUOUS
 10
17.9410082839
 20
14.6443777063
 11
17.9410082839
 21
13.551470217
  0
LINE
  8
___SYMBOL
 62
7
  6
CONTINUOUS
 10
17.9410082839
 20
13.551470217
 11
15.6884433059
 21
13.551470217
  0
LINE
  8
___SYMBOL
 62
7
  6
CONTINUOUS
 10
15.6884433059
 20
13.551470217
 11
15.6884433059
 21
14.6443777063
  0
LINE
  8
___SYMBOL
 62
7
  6
CONTINUOUS
 10
17.7016682863
 20
14.0505577121
 11
17.7016682863
 21
13.9289227133
  0
LINE
  8
___SYMBOL
 62
7
  6
CONTINUOUS
 10
17.7016682863
 20
13.9289227133
 11
17.3587157896
 21
13.9289227133
  0
LINE
  8
___SYMBOL
 62
7
  6
CONTINUOUS
 10
17.3587157896
 20
13.9289227133
 11
17.3587157896
 21
14.0505577121
  0
LINE
  8
___SYMBOL
 62
7
  6
CONTINUOUS
 10
17.3587157896
 20
14.0505577121
 11
17.7016682863
 21
14.0505577121
  0
SOLID
  8
___SYMBOL
 62
7
  6
CONTINUOUS
 10
17.3587157896
 20
13.9289227042
 11
17.3587157896
 21
14.0505577045
 12
17.7016682863
 22
14.0505577045
 13
17.7016682863
 23
14.0505577045
  0
SOLID
  8
___SYMBOL
 62
7
  6
CONTINUOUS
 10
17.7016682863
 20
14.0505577045
 11
17.7016682863
 21
13.9289227042
 12
17.3587157896
 22
13.9289227042
 13
17.3587157896
 23
13.9289227042
  0
LINE
  8
___SYMBOL
 62
7
  6
CONTINUOUS
 10
16.6262132968
 20
14.0505577121
 11
16.6262132968
 21
13.9289227133
  0
LINE
  8
___SYMBOL
 62
7
  6
CONTINUOUS
 10
16.6262132968
 20
13.9289227133
 11
15.7705083051
 21
13.9289227133
  0
LINE
  8
___SYMBOL
 62
7
  6
CONTINUOUS
 10
15.7705083051
 20
13.9289227133
 11
15.7705083051
 21
14.0505577121
  0
LINE
  8
___SYMBOL
 62
7
  6
CONTINUOUS
 10
15.7705083051
 20
14.0505577121
 11
16.6262132968
 21
14.0505577121
  0
SOLID
  8
___SYMBOL
 62
7
  6
CONTINUOUS
 10
15.7705083051
 20
13.9289227042
 11
15.7705083051
 21
14.0505577045
 12
16.6262132968
 22
14.0505577045
 13
16.6262132968
 23
14.0505577045
  0
SOLID
  8
___SYMBOL
 62
7
  6
CONTINUOUS
 10
16.6262132968
 20
14.0505577045
 11
16.6262132968
 21
13.9289227042
 12
15.7705083051
 22
13.9289227042
 13
15.7705083051
 23
13.9289227042
  0
LINE
  8
___SYMBOL
 62
7
  6
CONTINUOUS
 10
16.6262132968
 20
13.6772902158
 11
16.6262132968
 21
13.6423102161
  0
LINE
  8
___SYMBOL
 62
7
  6
CONTINUOUS
 10
16.6262132968
 20
13.6423102161
 11
15.7705083051
 21
13.6423102161
  0
LINE
  8
___SYMBOL
 62
7
  6
CONTINUOUS
 10
15.7705083051
 20
13.6423102161
 11
15.7705083051
 21
13.6772902158
  0
LINE
  8
___SYMBOL
 62
7
  6
CONTINUOUS
 10
15.7705083051
 20
13.6772902158
 11
16.6262132968
 21
13.6772902158
  0
SOLID
  8
___SYMBOL
 62
7
  6
CONTINUOUS
 10
15.7705083051
 20
13.6423102177
 11
15.7705083051
 21
13.6772901997
 12
16.6262132968
 22
13.6772901997
 13
16.6262132968
 23
13.6772901997
  0
SOLID
  8
___SYMBOL
 62
7
  6
CONTINUOUS
 10
16.6262132968
 20
13.6772901997
 11
16.6262132968
 21
13.6423102177
 12
15.7705083051
 22
13.6423102177
 13
15.7705083051
 23
13.6423102177
  0
POLYLINE
  8
___SYMBOL
 62
7
  6
CONTINUOUS
 66
1
 70
0
  0
VERTEX
  8
___SYMBOL
 62
7
  6
CONTINUOUS
 10
16.4922182501
 20
13.889067834
  0
VERTEX
  8
___SYMBOL
 62
7
  6
CONTINUOUS
 10
16.4807799061
 20
13.88547987
  0
VERTEX
  8
___SYMBOL
 62
7
  6
CONTINUOUS
 10
16.4699841713
 20
13.8802681664
  0
VERTEX
  8
___SYMBOL
 62
7
  6
CONTINUOUS
 10
16.4600601392
 20
13.8735433194
  0
VERTEX
  8
___SYMBOL
 62
7
  6
CONTINUOUS
 10
16.4512184051
 20
13.8654480351
  0
VERTEX
  8
___SYMBOL
 62
7
  6
CONTINUOUS
 10
16.443646597
 20
13.8561541016
  0
VERTEX
  8
___SYMBOL
 62
7
  6
CONTINUOUS
 10
16.4375053942
 20
13.8458587427
  0
VERTEX
  8
___SYMBOL
 62
7
  6
CONTINUOUS
 10
16.4329251177
 20
13.8347804337
  0
VERTEX
  8
___SYMBOL
 62
7
  6
CONTINUOUS
 10
16.4300029641
 20
13.8231542643
  0
VERTEX
  8
___SYMBOL
 62
7
  6
CONTINUOUS
 10
16.4288009438
 20
13.8112269504
  0
VERTEX
  8
___SYMBOL
 62
7
  6
CONTINUOUS
 10
16.4293445645
 20
13.7992515984
  0
VERTEX
  8
___SYMBOL
 62
7
  6
CONTINUOUS
 10
16.4316222901
 20
13.787482334
  0
VERTEX
  8
___SYMBOL
 62
7
  6
CONTINUOUS
 10
16.4355857858
 20
13.7761689097
  0
VERTEX
  8
___SYMBOL
 62
7
  6
CONTINUOUS
 10
16.4411509431
 20
13.7655514046
  0
VERTEX
  8
___SYMBOL
 62
7
  6
CONTINUOUS
 10
16.4481996654
 20
13.7558551299
  0
VERTEX
  8
___SYMBOL
 62
7
  6
CONTINUOUS
 10
16.4565823736
 20
13.7472858478
  0
VERTEX
  8
___SYMBOL
 62
7
  6
CONTINUOUS
 10
16.4661211804
 20
13.7400254047
  0
VERTEX
  8
___SYMBOL
 62
7
  6
CONTINUOUS
 10
16.4766136654
 20
13.7342278725
  0
VERTEX
  8
___SYMBOL
 62
7
  6
CONTINUOUS
 10
16.4878371705
 20
13.7300162791
  0
VERTEX
  8
___SYMBOL
 62
7
  6
CONTINUOUS
 10
16.4995535244
 20
13.7274799976
  0
VERTEX
  8
___SYMBOL
 62
7
  6
CONTINUOUS
 10
16.5115140977
 20
13.7266728498
  0
VERTEX
  8
___SYMBOL
 62
7
  6
CONTINUOUS
 10
16.5234650781
 20
13.727611964
  0
VERTEX
  8
___SYMBOL
 62
7
  6
CONTINUOUS
 10
16.5351528571
 20
13.7302774114
  0
VERTEX
  8
___SYMBOL
 62
7
  6
CONTINUOUS
 10
16.5463294115
 20
13.7346126292
  0
VERTEX
  8
___SYMBOL
 62
7
  6
CONTINUOUS
 10
16.5567575665
 20
13.7405256211
  0
VERTEX
  8
___SYMBOL
 62
7
  6
CONTINUOUS
 10
16.5662160291
 20
13.7478909089
  0
VERTEX
  8
___SYMBOL
 62
7
  6
CONTINUOUS
 10
16.5745040838
 20
13.7565521959
  0
VERTEX
  8
___SYMBOL
 62
7
  6
CONTINUOUS
 10
16.5814458518
 20
13.7663256832
  0
VERTEX
  8
___SYMBOL
 62
7
  6
CONTINUOUS
 10
16.5868940239
 20
13.7770039702
  0
VERTEX
  8
___SYMBOL
 62
7
  6
CONTINUOUS
 10
16.5907329858
 20
13.7883604557
  0
VERTEX
  8
___SYMBOL
 62
7
  6
CONTINUOUS
 10
16.5928812719
 20
13.800154147
  0
VERTEX
  8
___SYMBOL
 62
7
  6
CONTINUOUS
 10
16.593293294
 20
13.8121347731
  0
VERTEX
  8
___SYMBOL
 62
7
  6
CONTINUOUS
 10
16.5919603087
 20
13.8240480965
  0
VERTEX
  8
___SYMBOL
 62
7
  6
CONTINUOUS
 10
16.588910603
 20
13.8356413075
  0
VERTEX
  8
___SYMBOL
 62
7
  6
CONTINUOUS
 10
16.5842088937
 20
13.8466683899
  0
VERTEX
  8
___SYMBOL
 62
7
  6
CONTINUOUS
 10
16.5779549547
 20
13.8568953407
  0
VERTEX
  8
___SYMBOL
 62
7
  6
CONTINUOUS
 10
16.5702814992
 20
13.8661051367
  0
VERTEX
  8
___SYMBOL
 62
7
  6
CONTINUOUS
 10
16.5613513634
 20
13.8741023391
  0
VERTEX
  8
___SYMBOL
 62
7
  6
CONTINUOUS
 10
16.5513540514
 20
13.8807172415
  0
VERTEX
  8
___SYMBOL
 62
7
  6
CONTINUOUS
 10
16.5405017135
 20
13.8858094708
  0
VERTEX
  8
___SYMBOL
 62
7
  6
CONTINUOUS
 10
16.5290246443
 20
13.8892709661
  0
VERTEX
  8
___SYMBOL
 62
7
  6
CONTINUOUS
 10
16.5171663957
 20
13.8910282719
  0
VERTEX
  8
___SYMBOL
 62
7
  6
CONTINUOUS
 10
16.5051786083
 20
13.8910440971
  0
VERTEX
  8
___SYMBOL
 62
7
  6
CONTINUOUS
 10
16.4933156718
 20
13.8893181056
  0
SEQEND
  0
LINE
  8
___SYMBOL
 62
7
  6
CONTINUOUS
 10
16.6728632963
 20
14.5837927069
 11
16.6728632963
 21
14.5221427075
  0
LINE
  8
___SYMBOL
 62
7
  6
CONTINUOUS
 10
16.6728632963
 20
14.5221427075
 11
15.8171583047
 21
14.5221427075
  0
LINE
  8
___SYMBOL
 62
7
  6
CONTINUOUS
 10
15.8171583047
 20
14.5221427075
 11
15.8171583047
 21
14.5837927069
  0
LINE
  8
___SYMBOL
 62
7
  6
CONTINUOUS
 10
15.8171583047
 20
14.5837927069
 11
16.6728632963
 21
14.5837927069
  0
SOLID
  8
___SYMBOL
 62
7
  6
CONTINUOUS
 10
15.8171583047
 20
14.5221427034
 11
15.8171583047
 21
14.5837926935
 12
16.6728632963
 22
14.5837926935
 13
16.6728632963
 23
14.5837926935
  0
SOLID
  8
___SYMBOL
 62
7
  6
CONTINUOUS
 10
16.6728632963
 20
14.5837926935
 11
16.6728632963
 21
14.5221427034
 12
15.8171583047
 22
14.5221427034
 13
15.8171583047
 23
14.5221427034
  0
LINE
  8
___SYMBOL
 62
7
  6
CONTINUOUS
 10
16.6728632963
 20
14.4838102079
 11
16.6728632963
 21
14.4221602085
  0
LINE
  8
___SYMBOL
 62
7
  6
CONTINUOUS
 10
16.6728632963
 20
14.4221602085
 11
15.8171583047
 21
14.4221602085
  0
LINE
  8
___SYMBOL
 62
7
  6
CONTINUOUS
 10
15.8171583047
 20
14.4221602085
 11
15.8171583047
 21
14.4838102079
  0
LINE
  8
___SYMBOL
 62
7
  6
CONTINUOUS
 10
15.8171583047
 20
14.4838102079
 11
16.6728632963
 21
14.4838102079
  0
SOLID
  8
___SYMBOL
 62
7
  6
CONTINUOUS
 10
15.8171583047
 20
14.4221601952
 11
15.8171583047
 21
14.4838102193
 12
16.6728632963
 22
14.4838102193
 13
16.6728632963
 23
14.4838102193
  0
SOLID
  8
___SYMBOL
 62
7
  6
CONTINUOUS
 10
16.6728632963
 20
14.4838102193
 11
16.6728632963
 21
14.4221601952
 12
15.8171583047
 22
14.4221601952
 13
15.8171583047
 23
14.4221601952
  0
LINE
  8
___SYMBOL
 62
7
  6
CONTINUOUS
 10
16.6728632963
 20
14.3838277089
 11
16.6728632963
 21
14.3221852095
  0
LINE
  8
___SYMBOL
 62
7
  6
CONTINUOUS
 10
16.6728632963
 20
14.3221852095
 11
15.8171583047
 21
14.3221852095
  0
LINE
  8
___SYMBOL
 62
7
  6
CONTINUOUS
 10
15.8171583047
 20
14.3221852095
 11
15.8171583047
 21
14.3838277089
  0
LINE
  8
___SYMBOL
 62
7
  6
CONTINUOUS
 10
15.8171583047
 20
14.3838277089
 11
16.6728632963
 21
14.3838277089
  0
SOLID
  8
___SYMBOL
 62
7
  6
CONTINUOUS
 10
15.8171583047
 20
14.322185201
 11
15.8171583047
 21
14.3838277111
 12
16.6728632963
 22
14.3838277111
 13
16.6728632963
 23
14.3838277111
  0
SOLID
  8
___SYMBOL
 62
7
  6
CONTINUOUS
 10
16.6728632963
 20
14.3838277111
 11
16.6728632963
 21
14.322185201
 12
15.8171583047
 22
14.322185201
 13
15.8171583047
 23
14.322185201
  0
LINE
  8
___SYMBOL
 62
7
  6
CONTINUOUS
 10
16.6728632963
 20
14.2838452098
 11
16.6728632963
 21
14.2222027104
  0
LINE
  8
___SYMBOL
 62
7
  6
CONTINUOUS
 10
16.6728632963
 20
14.2222027104
 11
15.8171583047
 21
14.2222027104
  0
LINE
  8
___SYMBOL
 62
7
  6
CONTINUOUS
 10
15.8171583047
 20
14.2222027104
 11
15.8171583047
 21
14.2838452098
  0
LINE
  8
___SYMBOL
 62
7
  6
CONTINUOUS
 10
15.8171583047
 20
14.2838452098
 11
16.6728632963
 21
14.2838452098
  0
SOLID
  8
___SYMBOL
 62
7
  6
CONTINUOUS
 10
15.8171583047
 20
14.2222027268
 11
15.8171583047
 21
14.2838452029
 12
16.6728632963
 22
14.2838452029
 13
16.6728632963
 23
14.2838452029
  0
SOLID
  8
___SYMBOL
 62
7
  6
CONTINUOUS
 10
16.6728632963
 20
14.2838452029
 11
16.6728632963
 21
14.2222027268
 12
15.8171583047
 22
14.2222027268
 13
15.8171583047
 23
14.2222027268
  0
LINE
  8
___SYMBOL
 62
7
  6
CONTINUOUS
 10
16.6728632963
 20
14.1572077111
 11
16.6728632963
 21
14.0955577117
  0
LINE
  8
___SYMBOL
 62
7
  6
CONTINUOUS
 10
16.6728632963
 20
14.0955577117
 11
15.8171583047
 21
14.0955577117
  0
LINE
  8
___SYMBOL
 62
7
  6
CONTINUOUS
 10
15.8171583047
 20
14.0955577117
 11
15.8171583047
 21
14.1572077111
  0
LINE
  8
___SYMBOL
 62
7
  6
CONTINUOUS
 10
15.8171583047
 20
14.1572077111
 11
16.6728632963
 21
14.1572077111
  0
SOLID
  8
___SYMBOL
 62
7
  6
CONTINUOUS
 10
15.8171583047
 20
14.0955577246
 11
15.8171583047
 21
14.1572077147
 12
16.6728632963
 22
14.1572077147
 13
16.6728632963
 23
14.1572077147
  0
SOLID
  8
___SYMBOL
 62
7
  6
CONTINUOUS
 10
16.6728632963
 20
14.1572077147
 11
16.6728632963
 21
14.0955577246
 12
15.8171583047
 22
14.0955577246
 13
15.8171583047
 23
14.0955577246
  0
ENDBLK
  8
0
  6
BYBLOCK
 62
0
  0
BLOCK
  8
___SYMBOL
 62
2
  6
CONTINUOUS
  2
WHEN_PLOTTING_TEMPLATE_N_BL2
 70
64
 10
8.9650022074
 20
8.1558582532
  0
TEXT
  8
___SYMBOL
 62
2
  6
CONTINUOUS
 10
5.652501975
 20
9.3667958382
  7
STANDARD
 40
0.156250011
  1
WHEN PLOTTING TEMPLATE FULL SIZE:
 41
0.8
 72
0
  0
TEXT
  8
___SYMBOL
 62
2
  6
CONTINUOUS
 10
5.652501975
 20
9.1324208217
  7
STANDARD
 40
0.156250011
  1
Make sure horizontal and vertical dimensions
 41
0.8
 72
0
  0
TEXT
  8
___SYMBOL
 62
2
  6
CONTINUOUS
 10
5.652501975
 20
8.8980458053
  7
STANDARD
 40
0.156250011
  1
match the dimensions labeled on the template.
 41
0.8
 72
0
  0
TEXT
  8
___SYMBOL
 62
2
  6
CONTINUOUS
 10
5.652501975
 20
8.6636707888
  7
STANDARD
 40
0.156250011
  1
 
 41
0.8
 72
0
  0
TEXT
  8
___SYMBOL
 62
2
  6
CONTINUOUS
 10
5.652501975
 20
8.4292957724
  7
STANDARD
 40
0.156250011
  1
AL TRAZAR LA PLANTILLA A ESCALA,
 41
0.8
 72
0
  0
TEXT
  8
___SYMBOL
 62
2
  6
CONTINUOUS
 10
5.652501975
 20
8.1949207559
  7
STANDARD
 40
0.156250011
  1
asegúrese de que las dimensiones horizontales
 41
0.8
 72
0
  0
TEXT
  8
___SYMBOL
 62
2
  6
CONTINUOUS
 10
5.652501975
 20
7.9605457395
  7
STANDARD
 40
0.156250011
  1
y verticales concuerden con las dimensiones marcadas
 41
0.8
 72
0
  0
TEXT
  8
___SYMBOL
 62
2
  6
CONTINUOUS
 10
5.652501975
 20
7.7261707231
  7
STANDARD
 40
0.156250011
  1
en la plantilla.
 41
0.8
 72
0
  0
TEXT
  8
___SYMBOL
 62
2
  6
CONTINUOUS
 10
5.652501975
 20
7.4917957066
  7
STANDARD
 40
0.156250011
  1
 
 41
0.8
 72
0
  0
TEXT
  8
___SYMBOL
 62
2
  6
CONTINUOUS
 10
5.652501975
 20
7.2574206902
  7
STANDARD
 40
0.156250011
  1
AU MOMENT DE TRACER LA DÉCOUPE À L'ÉCHELLE,
 41
0.8
 72
0
  0
TEXT
  8
___SYMBOL
 62
2
  6
CONTINUOUS
 10
5.652501975
 20
7.0230456737
  7
STANDARD
 40
0.156250011
  1
Assurez vos que les dimensions horizotales et
 41
0.8
 72
0
  0
TEXT
  8
___SYMBOL
 62
2
  6
CONTINUOUS
 10
5.652501975
 20
6.7886706573
  7
STANDARD
 40
0.156250011
  1
verticales correspondent avec les dimensions du plan.
 41
0.8
 72
0
  0
ENDBLK
  8
0
  6
BYBLOCK
 62
0
  0
BLOCK
  8
___SYMBOL
 62
2
  6
CONTINUOUS
  2
LAV_UC_INSTALLATION_BL3
 70
64
 10
18.1727140885
 20
8.1276238933
  0
TEXT
  8
___SYMBOL
 62
2
  6
CONTINUOUS
 10
18.9348811568
 20
7.3219325442
  7
STANDARD
 40
0.15625
  1
WOOD
 41
0.8000000015
 72
0
  0
TEXT
  8
___SYMBOL
 62
2
  6
CONTINUOUS
 10
18.8098811565
 20
7.0875575438
  7
STANDARD
 40
0.15625
  1
MADERA
 41
0.8000000015
 72
0
  0
TEXT
  8
___SYMBOL
 62
2
  6
CONTINUOUS
 10
18.9348811568
 20
6.8531825433
  7
STANDARD
 40
0.15625
  1
BOIS
 41
0.8000000015
 72
0
  0
TEXT
  8
___SYMBOL
 62
2
  6
CONTINUOUS
 10
16.6551995821
 20
8.1085542367
  7
STANDARD
 40
0.15625
  1
20/32"
 41
0.8000000015
 72
0
  0
TEXT
  8
___SYMBOL
 62
2
  6
CONTINUOUS
 10
16.6551995821
 20
7.8741792363
  7
STANDARD
 40
0.15625
  1
16mm
 41
0.8000000015
 72
0
  0
TEXT
  8
___SYMBOL
 62
2
  6
CONTINUOUS
 10
15.7194132987
 20
7.3075896971
  7
STANDARD
 40
0.15625
  1
MARBLE
 41
0.8000000015
 72
0
  0
TEXT
  8
___SYMBOL
 62
2
  6
CONTINUOUS
 10
15.7194132987
 20
7.0732146966
  7
STANDARD
 40
0.15625
  1
MÁRMOL
 41
0.8000000015
 72
0
  0
TEXT
  8
___SYMBOL
 62
2
  6
CONTINUOUS
 10
15.7194132987
 20
6.8388396962
  7
STANDARD
 40
0.15625
  1
MARBRE
 41
0.9333333351
 72
0
  0
TEXT
  8
___SYMBOL
 62
2
  6
CONTINUOUS
 10
16.8477051596
 20
6.7449691884
  7
STANDARD
 40
0.15625
  1
INSTALATION
 41
0.8000000015
 72
0
  0
TEXT
  8
___SYMBOL
 62
2
  6
CONTINUOUS
 10
16.8477051596
 20
6.5105941879
  7
STANDARD
 40
0.15625
  1
INSTALACIÓN
 41
0.8000000015
 72
0
  0
TEXT
  8
___SYMBOL
 62
2
  6
CONTINUOUS
 10
16.8477051596
 20
6.2762191875
  7
STANDARD
 40
0.15625
  1
INSTALLATION
 41
0.8000000015
 72
0
  0
TEXT
  8
___SYMBOL
 62
2
  6
CONTINUOUS
 10
19.0769064602
 20
9.8227785992
  7
STANDARD
 40
0.15625
  1
SEALANT
 41
0.8000000015
 72
0
  0
TEXT
  8
___SYMBOL
 62
2
  6
CONTINUOUS
 10
19.0769064602
 20
9.5884035987
  7
STANDARD
 40
0.15625
  1
SELLADOR
 41
0.8000000015
 72
0
  0
TEXT
  8
___SYMBOL
 62
2
  6
CONTINUOUS
 10
19.0769064602
 20
9.3540285983
  7
STANDARD
 40
0.15625
  1
MASTIC D'ÉCHANTÉITÉ
 41
0.8421052648
 72
0
  0
TEXT
  8
___SYMBOL
 62
2
  6
CONTINUOUS
 10
15.2821844378
 20
9.8129689378
  7
STANDARD
 40
0.15625
  1
SEALANT
 41
0.8000000015
 72
0
  0
TEXT
  8
___SYMBOL
 62
2
  6
CONTINUOUS
 10
15.2821844378
 20
9.5785939374
  7
STANDARD
 40
0.15625
  1
SELLADOR
 41
0.8000000015
 72
0
  0
TEXT
  8
___SYMBOL
 62
2
  6
CONTINUOUS
 10
15.2821844378
 20
9.3442189369
  7
STANDARD
 40
0.15625
  1
MASTIC D'ÉCHANTÉITÉ
 41
0.8000000015
 72
0
  0
TEXT
  8
___SYMBOL
 62
2
  6
CONTINUOUS
 10
16.9140902948
 20
8.8151477684
  7
STANDARD
 40
0.15625
  1
%%c12/32"
 41
0.8761904779
 72
0
  0
TEXT
  8
___SYMBOL
 62
2
  6
CONTINUOUS
 10
16.9140902948
 20
8.5807727679
  7
STANDARD
 40
0.15625
  1
%%c10mm
 41
0.9066666684
 72
0
  0
LINE
  8
___SYMBOL
 62
2
  6
CONTINUOUS
 10
15.4983554098
 20
7.40078455
 11
15.5066554098
 21
7.39248455
  0
LINE
  8
___SYMBOL
 62
2
  6
CONTINUOUS
 10
15.3877457552
 20
7.49194981
 11
15.3988057552
 21
7.48084981
  0
LINE
  8
___SYMBOL
 62
2
  6
CONTINUOUS
 10
15.495542237
 20
7.4117694966
 11
15.498342237
 21
7.4007894966
  0
LINE
  8
___SYMBOL
 62
2
  6
CONTINUOUS
 10
15.5204418071
 20
7.3868917554
 11
15.5231818071
 21
7.3759117554
  0
LINE
  8
___SYMBOL
 62
2
  6
CONTINUOUS
 10
15.4430457552
 20
7.47816981
 11
15.4458057552
 21
7.46704981
  0
LINE
  8
___SYMBOL
 62
2
  6
CONTINUOUS
 10
15.3518057552
 20
8.46320981
 11
15.3518057552
 21
8.05512981
  0
LINE
  8
___SYMBOL
 62
2
  6
CONTINUOUS
 10
15.4430457552
 20
7.45606981
 11
15.4430457552
 21
7.44494981
  0
LINE
  8
___SYMBOL
 62
2
  6
CONTINUOUS
 10
15.5011057552
 20
7.44214981
 11
15.5011057552
 21
7.42286981
  0
LINE
  8
___SYMBOL
 62
2
  6
CONTINUOUS
 10
15.7195457552
 20
7.70764981
 11
15.7195457552
 21
7.76844981
  0
LINE
  8
___SYMBOL
 62
2
  6
CONTINUOUS
 10
16.0623857552
 20
8.67530981
 11
16.0623857552
 21
8.31592981
  0
LINE
  8
___SYMBOL
 62
2
  6
CONTINUOUS
 10
16.0623857552
 20
8.28540981
 11
16.0623857552
 21
7.99512981
  0
LINE
  8
___SYMBOL
 62
2
  6
CONTINUOUS
 10
16.1010657552
 20
7.76844981
 11
16.1010657552
 21
7.70764981
  0
LINE
  8
___SYMBOL
 62
2
  6
CONTINUOUS
 10
16.1231657552
 20
7.70764981
 11
16.1231657552
 21
8.23840981
  0
LINE
  8
___SYMBOL
 62
2
  6
CONTINUOUS
 10
16.1546731858
 20
7.6814285325
 11
16.1546731858
 21
7.6671974938
  0
LINE
  8
___SYMBOL
 62
2
  6
CENTER
 10
16.1632657552
 20
8.33728981
 11
16.1632657552
 21
7.5211095515
  0
LINE
  8
___SYMBOL
 62
2
  6
CONTINUOUS
 10
16.1718583247
 20
7.6673337465
 11
16.1718583247
 21
7.6814285325
  0
LINE
  8
___SYMBOL
 62
2
  6
CONTINUOUS
 10
16.2061057552
 20
7.70764981
 11
16.2061057552
 21
8.23840981
  0
LINE
  8
___SYMBOL
 62
2
  6
CONTINUOUS
 10
16.2282057552
 20
7.76844981
 11
16.2282057552
 21
7.70764981
  0
LINE
  8
___SYMBOL
 62
2
  6
CONTINUOUS
 10
16.2586657552
 20
8.67530981
 11
16.2586657552
 21
8.31592981
  0
LINE
  8
___SYMBOL
 62
2
  6
CONTINUOUS
 10
16.2586657552
 20
7.99512981
 11
16.2586657552
 21
8.28540981
  0
LINE
  8
___SYMBOL
 62
2
  6
CONTINUOUS
 10
15.4458057552
 20
7.46704981
 11
15.4430457552
 21
7.45606981
  0
LINE
  8
___SYMBOL
 62
2
  6
CONTINUOUS
 10
15.5439024716
 20
7.9243632428
 11
15.5332415791
 21
7.8950693149
  0
LINE
  8
___SYMBOL
 62
2
  6
CONTINUOUS
 10
15.5414912189
 20
7.9134505642
 11
15.3827194001
 21
7.47816981
  0
LINE
  8
___SYMBOL
 62
2
  6
CONTINUOUS
 10
15.3988057552
 20
7.48084981
 11
15.4125857552
 21
7.47816981
  0
LINE
  8
___SYMBOL
 62
2
  6
CONTINUOUS
 10
15.4900457552
 20
7.44494981
 11
15.5011057552
 21
7.44214981
  0
LINE
  8
___SYMBOL
 62
2
  6
CONTINUOUS
 10
15.5066554098
 20
7.39248455
 11
15.5204554098
 21
7.38686455
  0
LINE
  8
___SYMBOL
 62
2
  6
CONTINUOUS
 10
15.4430457552
 20
7.44494981
 11
15.4541057552
 21
7.43946981
  0
LINE
  8
___SYMBOL
 62
2
  6
CONTINUOUS
 10
16.4439057552
 20
8.15272981
 11
16.4356057552
 21
8.16102981
  0
LINE
  8
___SYMBOL
 62
2
  6
CONTINUOUS
 10
16.4964057552
 20
7.99512981
 11
16.4687457552
 21
8.03944981
  0
LINE
  8
___SYMBOL
 62
2
  6
CONTINUOUS
 10
16.4522057552
 20
8.12782981
 11
16.4466457552
 21
8.13892981
  0
LINE
  8
___SYMBOL
 62
2
  6
CONTINUOUS
 10
16.4356057552
 20
8.16102981
 11
16.4273057552
 21
8.18310981
  0
LINE
  8
___SYMBOL
 62
2
  6
CONTINUOUS
 10
16.2061057552
 20
8.23840981
 11
16.1923257552
 21
8.28540981
  0
LINE
  8
___SYMBOL
 62
2
  6
CONTINUOUS
 10
16.4687457552
 20
8.03944981
 11
16.4577057552
 21
8.08642981
  0
LINE
  8
___SYMBOL
 62
2
  6
CONTINUOUS
 10
16.4466457552
 20
8.13892981
 11
16.4439057552
 21
8.15272981
  0
LINE
  8
___SYMBOL
 62
2
  6
CONTINUOUS
 10
16.4577057552
 20
8.09742981
 11
16.4522057552
 21
8.12782981
  0
LINE
  8
___SYMBOL
 62
2
  6
CONTINUOUS
 10
16.3720057552
 20
7.81844981
 11
16.3720057552
 21
7.99512981
  0
LINE
  8
___SYMBOL
 62
2
  6
CONTINUOUS
 10
16.4328657552
 20
7.99512981
 11
16.4328657552
 21
7.80764981
  0
LINE
  8
___SYMBOL
 62
2
  6
CONTINUOUS
 10
16.4549457552
 20
8.27990981
 11
16.4549457552
 21
8.29102981
  0
LINE
  8
___SYMBOL
 62
2
  6
CONTINUOUS
 10
16.4577057552
 20
8.08642981
 11
16.4577057552
 21
8.09742981
  0
LINE
  8
___SYMBOL
 62
2
  6
CONTINUOUS
 10
16.4770457552
 20
8.34900981
 11
16.4770457552
 21
8.46240981
  0
LINE
  8
___SYMBOL
 62
2
  6
CONTINUOUS
 10
16.4909057552
 20
8.49560981
 11
16.4909057552
 21
8.51220981
  0
LINE
  8
___SYMBOL
 62
2
  6
CONTINUOUS
 10
16.5766057552
 20
8.28822981
 11
16.5766057552
 21
7.99792981
  0
LINE
  8
___SYMBOL
 62
2
  6
CONTINUOUS
 10
16.4273057552
 20
8.18310981
 11
16.4328657552
 21
8.22462981
  0
LINE
  8
___SYMBOL
 62
2
  6
CONTINUOUS
 10
16.4770457552
 20
8.46240981
 11
16.4798657552
 21
8.47340981
  0
LINE
  8
___SYMBOL
 62
2
  6
CONTINUOUS
 10
16.1231657552
 20
8.23840981
 11
16.1370257552
 21
8.28540981
  0
LINE
  8
___SYMBOL
 62
2
  6
PHANTOM
 10
15.5231818071
 20
7.3759253581
 11
15.651147602
 21
7.7264528276
  0
LINE
  8
___SYMBOL
 62
2
  6
CONTINUOUS
 10
16.4549457552
 20
8.29102981
 11
16.4770457552
 21
8.34900981
  0
LINE
  8
___SYMBOL
 62
2
  6
CONTINUOUS
 10
16.4328657552
 20
8.22462981
 11
16.4549457552
 21
8.27990981
  0
LINE
  8
___SYMBOL
 62
2
  6
CONTINUOUS
 10
16.4798657552
 20
8.47340981
 11
16.4909057552
 21
8.49560981
  0
LINE
  8
___SYMBOL
 62
2
  6
CONTINUOUS
 10
15.5011057552
 20
7.42286981
 11
15.4955457552
 21
7.41174981
  0
LINE
  8
___SYMBOL
 62
2
  6
CONTINUOUS
 10
16.4909057552
 20
8.51220981
 11
16.4964057552
 21
8.52320981
  0
LINE
  8
___SYMBOL
 62
2
  6
PHANTOM
 10
15.9803220795
 20
7.9488468915
 11
15.9061831819
 21
7.801483973
  0
LINE
  8
___SYMBOL
 62
2
  6
CONTINUOUS
 10
15.4541057552
 20
7.43946981
 11
15.4790057552
 21
7.43946981
  0
LINE
  8
___SYMBOL
 62
2
  6
CONTINUOUS
 10
18.3927397273
 20
7.4759391019
 11
18.4175797273
 21
7.4759391019
  0
LINE
  8
___SYMBOL
 62
2
  6
CONTINUOUS
 10
15.4125857552
 20
7.47816981
 11
15.4430457552
 21
7.47816981
  0
LINE
  8
___SYMBOL
 62
2
  6
CONTINUOUS
 10
18.3512397273
 20
7.5146391019
 11
18.3816997273
 21
7.5146391019
  0
LINE
  8
___SYMBOL
 62
2
  6
CONTINUOUS
 10
19.0933271579
 20
7.7178271954
 11
19.1105122968
 21
7.7178271954
  0
LINE
  8
___SYMBOL
 62
2
  6
CONTINUOUS
 10
16.1546731858
 20
7.6814285325
 11
16.1718583247
 21
7.6814285325
  0
LINE
  8
___SYMBOL
 62
2
  6
CONTINUOUS
 10
16.3328657552
 20
7.70764981
 11
15.7195457552
 21
7.70764981
  0
LINE
  8
___SYMBOL
 62
2
  6
CONTINUOUS
 10
18.6581197273
 20
7.7441191019
 11
19.2614397273
 21
7.7441191019
  0
LINE
  8
___SYMBOL
 62
2
  6
CONTINUOUS
 10
16.1383657552
 20
7.71448981
 11
16.1895057552
 21
7.71448981
  0
LINE
  8
___SYMBOL
 62
2
  6
CONTINUOUS
 10
16.1231657552
 20
7.73108981
 11
16.2061057552
 21
7.73108981
  0
LINE
  8
___SYMBOL
 62
2
  6
CONTINUOUS
 10
16.1383657552
 20
7.74902981
 11
16.1895057552
 21
7.74902981
  0
LINE
  8
___SYMBOL
 62
2
  6
CONTINUOUS
 10
19.2606597273
 20
7.8049191019
 11
19.1447597273
 21
7.8049191019
  0
LINE
  8
___SYMBOL
 62
2
  6
CONTINUOUS
 10
15.71127067
 20
7.76844981
 11
16.3220057552
 21
7.76844981
  0
LINE
  8
___SYMBOL
 62
2
  6
PHANTOM
 10
18.6505360742
 20
7.8049191019
 11
18.7912382395
 21
7.8049191019
  0
LINE
  8
___SYMBOL
 62
2
  6
CONTINUOUS
 10
16.1383657552
 20
7.78504981
 11
16.1895057552
 21
7.78504981
  0
LINE
  8
___SYMBOL
 62
2
  6
CONTINUOUS
 10
16.2061057552
 20
7.80432981
 11
16.1231657552
 21
7.80432981
  0
LINE
  8
___SYMBOL
 62
2
  6
CONTINUOUS
 10
16.1383657552
 20
7.82092981
 11
16.1895057552
 21
7.82092981
  0
LINE
  8
___SYMBOL
 62
2
  6
CONTINUOUS
 10
16.1231657552
 20
7.83886981
 11
16.2061057552
 21
7.83886981
  0
LINE
  8
___SYMBOL
 62
2
  6
CONTINUOUS
 10
16.1383657552
 20
7.85694981
 11
16.1895057552
 21
7.85694981
  0
LINE
  8
___SYMBOL
 62
2
  6
CONTINUOUS
 10
16.1231657552
 20
7.87488981
 11
16.2061057552
 21
7.87488981
  0
LINE
  8
___SYMBOL
 62
2
  6
CONTINUOUS
 10
19.0618197273
 20
7.9113591019
 11
19.1447597273
 21
7.9113591019
  0
LINE
  8
___SYMBOL
 62
2
  6
CONTINUOUS
 10
16.1383657552
 20
7.89148981
 11
16.1895057552
 21
7.89148981
  0
LINE
  8
___SYMBOL
 62
2
  6
CONTINUOUS
 10
19.0769997273
 20
7.9279591019
 11
19.1281597273
 21
7.9279591019
  0
LINE
  8
___SYMBOL
 62
2
  6
CONTINUOUS
 10
16.1231657552
 20
7.91224981
 11
16.2061057552
 21
7.91224981
  0
LINE
  8
___SYMBOL
 62
2
  6
CONTINUOUS
 10
19.0618197273
 20
7.9487191019
 11
19.1447597273
 21
7.9487191019
  0
LINE
  8
___SYMBOL
 62
2
  6
CONTINUOUS
 10
16.1383657552
 20
7.92884981
 11
16.1895057552
 21
7.92884981
  0
LINE
  8
___SYMBOL
 62
2
  6
CONTINUOUS
 10
19.0769997273
 20
7.9653191019
 11
19.1281597273
 21
7.9653191019
  0
LINE
  8
___SYMBOL
 62
2
  6
CONTINUOUS
 10
16.1231657552
 20
7.94812981
 11
16.2061057552
 21
7.94812981
  0
LINE
  8
___SYMBOL
 62
2
  6
CONTINUOUS
 10
19.0618197273
 20
7.9845991019
 11
19.1447597273
 21
7.9845991019
  0
LINE
  8
___SYMBOL
 62
2
  6
CONTINUOUS
 10
16.1383657552
 20
7.96472981
 11
16.1895057552
 21
7.96472981
  0
LINE
  8
___SYMBOL
 62
2
  6
CONTINUOUS
 10
19.0769997273
 20
8.0011991019
 11
19.1281597273
 21
8.0011991019
  0
LINE
  8
___SYMBOL
 62
2
  6
CONTINUOUS
 10
16.1231657552
 20
7.98414981
 11
16.2061057552
 21
7.98414981
  0
LINE
  8
___SYMBOL
 62
2
  6
CONTINUOUS
 10
19.0618197273
 20
8.0206191019
 11
19.1447597273
 21
8.0206191019
  0
LINE
  8
___SYMBOL
 62
2
  6
PHANTOM
 10
15.4817457552
 20
7.99232981
 11
16.1231657552
 21
7.99232981
  0
LINE
  8
___SYMBOL
 62
2
  6
PHANTOM
 10
18.4211797273
 20
8.0287991019
 11
18.5953197273
 21
8.0287991019
  0
LINE
  8
___SYMBOL
 62
2
  6
PHANTOM
 10
18.596378212
 20
8.0287991019
 11
18.8921765944
 21
8.0287991019
  0
LINE
  8
___SYMBOL
 62
2
  6
CONTINUOUS
 10
16.2061057552
 20
7.99512981
 11
16.4964057552
 21
7.99512981
  0
LINE
  8
___SYMBOL
 62
2
  6
PHANTOM
 10
18.2904397273
 20
8.0315991019
 11
19.0618197273
 21
8.0315991019
  0
LINE
  8
___SYMBOL
 62
2
  6
PHANTOM
 10
19.1447597273
 20
8.0315991019
 11
19.3106597273
 21
8.0315991019
  0
LINE
  8
___SYMBOL
 62
2
  6
CONTINUOUS
 10
16.5157457552
 20
7.99792981
 11
16.6235857552
 21
7.99792981
  0
LINE
  8
___SYMBOL
 62
2
  6
CONTINUOUS
 10
16.1383657552
 20
8.00208981
 11
16.1895057552
 21
8.00208981
  0
LINE
  8
___SYMBOL
 62
2
  6
CONTINUOUS
 10
19.0769997273
 20
8.0385591019
 11
19.1281597273
 21
8.0385591019
  0
LINE
  8
___SYMBOL
 62
2
  6
CONTINUOUS
 10
16.1231657552
 20
8.02002981
 11
16.2061057552
 21
8.02002981
  0
LINE
  8
___SYMBOL
 62
2
  6
CONTINUOUS
 10
19.0618197273
 20
8.0564991019
 11
19.1447597273
 21
8.0564991019
  0
LINE
  8
___SYMBOL
 62
2
  6
CONTINUOUS
 10
16.1383657552
 20
8.03944981
 11
16.1895057552
 21
8.03944981
  0
LINE
  8
___SYMBOL
 62
2
  6
CONTINUOUS
 10
19.0769997273
 20
8.0759191019
 11
19.1281597273
 21
8.0759191019
  0
LINE
  8
___SYMBOL
 62
2
  6
CONTINUOUS
 10
16.1231657552
 20
8.05872981
 11
16.2061057552
 21
8.05872981
  0
LINE
  8
___SYMBOL
 62
2
  6
CONTINUOUS
 10
19.0618197273
 20
8.0951991019
 11
19.1447597273
 21
8.0951991019
  0
LINE
  8
___SYMBOL
 62
2
  6
CONTINUOUS
 10
16.1383657552
 20
8.07532981
 11
16.1895057552
 21
8.07532981
  0
LINE
  8
___SYMBOL
 62
2
  6
CONTINUOUS
 10
19.0769997273
 20
8.1117991019
 11
19.1281597273
 21
8.1117991019
  0
LINE
  8
___SYMBOL
 62
2
  6
CONTINUOUS
 10
16.1231657552
 20
8.09472981
 11
16.2061057552
 21
8.09472981
  0
LINE
  8
___SYMBOL
 62
2
  6
CONTINUOUS
 10
19.0618197273
 20
8.1311991019
 11
19.1447597273
 21
8.1311991019
  0
LINE
  8
___SYMBOL
 62
2
  6
CONTINUOUS
 10
16.1383657552
 20
8.11120981
 11
16.1895057552
 21
8.11120981
  0
LINE
  8
___SYMBOL
 62
2
  6
CONTINUOUS
 10
19.0769997273
 20
8.1476791019
 11
19.1281597273
 21
8.1476791019
  0
LINE
  8
___SYMBOL
 62
2
  6
CONTINUOUS
 10
16.1231657552
 20
8.12928981
 11
16.2061057552
 21
8.12928981
  0
LINE
  8
___SYMBOL
 62
2
  6
CONTINUOUS
 10
19.0618197273
 20
8.1657591019
 11
19.1447597273
 21
8.1657591019
  0
LINE
  8
___SYMBOL
 62
2
  6
CONTINUOUS
 10
16.1383657552
 20
8.14722981
 11
16.1895057552
 21
8.14722981
  0
LINE
  8
___SYMBOL
 62
2
  6
CONTINUOUS
 10
19.0769997273
 20
8.1836991019
 11
19.1281597273
 21
8.1836991019
  0
LINE
  8
___SYMBOL
 62
2
  6
CONTINUOUS
 10
16.1231657552
 20
8.16516981
 11
16.2061057552
 21
8.16516981
  0
LINE
  8
___SYMBOL
 62
2
  6
CONTINUOUS
 10
19.0618197273
 20
8.2016391019
 11
19.1447597273
 21
8.2016391019
  0
LINE
  8
___SYMBOL
 62
2
  6
CONTINUOUS
 10
16.1383657552
 20
8.18310981
 11
16.1895057552
 21
8.18310981
  0
LINE
  8
___SYMBOL
 62
2
  6
CONTINUOUS
 10
19.0769997273
 20
8.2195791019
 11
19.1281597273
 21
8.2195791019
  0
LINE
  8
___SYMBOL
 62
2
  6
CONTINUOUS
 10
16.1231657552
 20
8.20252981
 11
16.2061057552
 21
8.20252981
  0
LINE
  8
___SYMBOL
 62
2
  6
CONTINUOUS
 10
19.0618197273
 20
8.2389991019
 11
19.1447597273
 21
8.2389991019
  0
LINE
  8
___SYMBOL
 62
2
  6
CONTINUOUS
 10
16.1383657552
 20
8.22046981
 11
16.1895057552
 21
8.22046981
  0
LINE
  8
___SYMBOL
 62
2
  6
CONTINUOUS
 10
19.0769997273
 20
8.2569391019
 11
19.1281597273
 21
8.2569391019
  0
LINE
  8
___SYMBOL
 62
2
  6
CONTINUOUS
 10
19.1447597273
 20
8.2748791019
 11
19.0618197273
 21
8.2748791019
  0
LINE
  8
___SYMBOL
 62
2
  6
CONTINUOUS
 10
16.2061057552
 20
8.23840981
 11
16.1231657552
 21
8.23840981
  0
LINE
  8
___SYMBOL
 62
2
  6
CONTINUOUS
 10
16.2586657552
 20
8.28540981
 11
16.0623857552
 21
8.28540981
  0
LINE
  8
___SYMBOL
 62
2
  6
CONTINUOUS
 10
16.2918057552
 20
8.28822981
 11
16.6291457552
 21
8.28822981
  0
LINE
  8
___SYMBOL
 62
2
  6
PHANTOM
 10
19.4350397273
 20
8.5596791019
 11
18.2904397273
 21
8.5596791019
  0
LINE
  8
___SYMBOL
 62
2
  6
PHANTOM
 10
16.4964057552
 20
8.52320981
 11
15.4118057552
 21
8.52320981
  0
LINE
  8
___SYMBOL
 62
2
  6
CONTINUOUS
 10
18.3374397273
 20
7.5173191019
 11
18.3512397273
 21
7.5146391019
  0
LINE
  8
___SYMBOL
 62
2
  6
CONTINUOUS
 10
18.4286997273
 20
7.4814191019
 11
18.4397397273
 21
7.4786191019
  0
LINE
  8
___SYMBOL
 62
2
  6
CONTINUOUS
 10
18.4452397273
 20
7.4289391019
 11
18.4590797273
 21
7.4233191019
  0
LINE
  8
___SYMBOL
 62
2
  6
CONTINUOUS
 10
18.3816997273
 20
7.4814191019
 11
18.3927397273
 21
7.4759391019
  0
LINE
  8
___SYMBOL
 62
2
  6
CONTINUOUS
 10
18.3263997273
 20
7.5284191019
 11
18.3374397273
 21
7.5173191019
  0
LINE
  8
___SYMBOL
 62
2
  6
CONTINUOUS
 10
18.4369997273
 20
7.4372391019
 11
18.4452397273
 21
7.4289391019
  0
LINE
  8
___SYMBOL
 62
2
  6
PHANTOM
 10
18.2904397273
 20
8.5596791019
 11
18.2904397273
 21
8.0315991019
  0
LINE
  8
___SYMBOL
 62
2
  6
CONTINUOUS
 10
18.3816997273
 20
7.4925391019
 11
18.3816997273
 21
7.4814191019
  0
LINE
  8
___SYMBOL
 62
2
  6
CONTINUOUS
 10
18.4397397273
 20
7.4786191019
 11
18.4397397273
 21
7.4593391019
  0
LINE
  8
___SYMBOL
 62
2
  6
CONTINUOUS
 10
18.6581197273
 20
7.8049191019
 11
18.6581197273
 21
7.7441191019
  0
LINE
  8
___SYMBOL
 62
2
  6
CONTINUOUS
 10
15.9911457552
 20
7.71020981
 11
16.0595657552
 21
7.76746981
  0
LINE
  8
___SYMBOL
 62
2
  6
CONTINUOUS
 10
15.7630657552
 20
7.70850981
 11
15.8335457552
 21
7.76746981
  0
LINE
  8
___SYMBOL
 62
2
  6
CONTINUOUS
 10
16.2282057552
 20
7.72204981
 11
16.2780057552
 21
7.76368981
  0
LINE
  8
___SYMBOL
 62
2
  6
CONTINUOUS
 10
16.3312457552
 20
7.71302981
 11
16.4307857552
 21
7.79626981
  0
LINE
  8
___SYMBOL
 62
2
  6
CONTINUOUS
 10
15.8833057552
 20
7.70960981
 11
15.9538457552
 21
7.76856981
  0
LINE
  8
___SYMBOL
 62
2
  6
CONTINUOUS
 10
16.3720057552
 20
7.93738981
 11
16.4328657552
 21
7.98816981
  0
LINE
  8
___SYMBOL
 62
2
  6
CONTINUOUS
 10
16.3720057552
 20
7.84228981
 11
16.4328657552
 21
7.89306981
  0
LINE
  8
___SYMBOL
 62
2
  6
CONTINUOUS
 10
16.0651257552
 20
8.63380981
 11
16.8648657552
 21
8.63380981
  0
LINE
  8
___SYMBOL
 62
2
  6
CONTINUOUS
 10
19.3825597273
 20
8.1891991019
 11
19.3742397273
 21
8.1974991019
  0
LINE
  8
___SYMBOL
 62
2
  6
CONTINUOUS
 10
19.1026997273
 20
8.3218791019
 11
19.1447597273
 21
8.2748791019
  0
LINE
  8
___SYMBOL
 62
2
  6
CONTINUOUS
 10
19.4350397273
 20
8.0315991019
 11
19.4073997273
 21
8.0759191019
  0
LINE
  8
___SYMBOL
 62
2
  6
CONTINUOUS
 10
19.3908597273
 20
8.1642991019
 11
19.3852997273
 21
8.1753991019
  0
LINE
  8
___SYMBOL
 62
2
  6
CONTINUOUS
 10
18.4341797273
 20
7.4482191019
 11
18.4369997273
 21
7.4372391019
  0
LINE
  8
___SYMBOL
 62
2
  6
CONTINUOUS
 10
18.4590797273
 20
7.4233191019
 11
18.4618397273
 21
7.4123391019
  0
LINE
  8
___SYMBOL
 62
2
  6
CONTINUOUS
 10
18.3816997273
 20
7.5146391019
 11
18.3844397273
 21
7.5035191019
  0
LINE
  8
___SYMBOL
 62
2
  6
CONTINUOUS
 10
19.0397197273
 20
7.8049191019
 11
19.0397197273
 21
7.7441191019
  0
LINE
  8
___SYMBOL
 62
2
  6
CONTINUOUS
 10
19.0618197273
 20
7.7441191019
 11
19.0618197273
 21
8.2748791019
  0
LINE
  8
___SYMBOL
 62
2
  6
CONTINUOUS
 10
19.0933271579
 20
7.7178271954
 11
19.0933271579
 21
7.7035961566
  0
LINE
  8
___SYMBOL
 62
2
  6
CENTER
 10
19.1019197273
 20
8.4449471121
 11
19.1019197273
 21
7.5649447624
  0
LINE
  8
___SYMBOL
 62
2
  6
CONTINUOUS
 10
19.1105122968
 20
7.7037324093
 11
19.1105122968
 21
7.7178271954
  0
LINE
  8
___SYMBOL
 62
2
  6
CONTINUOUS
 10
19.1447597273
 20
8.2748791019
 11
19.1447597273
 21
7.7441191019
  0
LINE
  8
___SYMBOL
 62
2
  6
CONTINUOUS
 10
19.1668597273
 20
7.8049191019
 11
19.1668597273
 21
7.7441191019
  0
LINE
  8
___SYMBOL
 62
2
  6
CONTINUOUS
 10
19.3106597273
 20
8.0315991019
 11
19.3106597273
 21
7.8549191019
  0
LINE
  8
___SYMBOL
 62
2
  6
CONTINUOUS
 10
19.3714397273
 20
7.8541191019
 11
19.3714397273
 21
8.0315991019
  0
LINE
  8
___SYMBOL
 62
2
  6
CONTINUOUS
 10
19.3963397273
 20
8.1228991019
 11
19.3963397273
 21
8.1338991019
  0
LINE
  8
___SYMBOL
 62
2
  6
CONTINUOUS
 10
19.4156997273
 20
8.3854791019
 11
19.4156997273
 21
8.4545791019
  0
LINE
  8
___SYMBOL
 62
2
  6
CONTINUOUS
 10
19.4156997273
 20
8.4767991019
 11
19.4156997273
 21
8.4988791019
  0
LINE
  8
___SYMBOL
 62
2
  6
CONTINUOUS
 10
19.4295397273
 20
8.5320791019
 11
19.4295397273
 21
8.5486791019
  0
LINE
  8
___SYMBOL
 62
2
  6
CONTINUOUS
 10
18.3844397273
 20
7.5035191019
 11
18.3816997273
 21
7.4925391019
  0
LINE
  8
___SYMBOL
 62
2
  6
CONTINUOUS
 10
19.4156997273
 20
8.4545791019
 11
19.4184997273
 21
8.4656791019
  0
LINE
  8
___SYMBOL
 62
2
  6
CONTINUOUS
 10
19.4156997273
 20
8.4988791019
 11
19.4184997273
 21
8.5098791019
  0
LINE
  8
___SYMBOL
 62
2
  6
CONTINUOUS
 10
19.3659397273
 20
8.2195791019
 11
19.3935997273
 21
8.3274991019
  0
LINE
  8
___SYMBOL
 62
2
  6
PHANTOM
 10
18.4847797273
 20
7.9653191019
 11
18.4689197273
 21
7.9217391019
  0
LINE
  8
___SYMBOL
 62
2
  6
PHANTOM
 10
18.4789463669
 20
7.9466332209
 11
18.3263997273
 21
7.5284191019
  0
LINE
  8
___SYMBOL
 62
2
  6
PHANTOM
 10
18.4618397273
 20
7.4123391019
 11
18.5894726437
 21
7.7621959388
  0
LINE
  8
___SYMBOL
 62
2
  6
CONTINUOUS
 10
19.3935997273
 20
8.3274991019
 11
19.4156997273
 21
8.3854791019
  0
LINE
  8
___SYMBOL
 62
2
  6
CONTINUOUS
 10
19.4184997273
 20
8.5098791019
 11
19.4295397273
 21
8.5320791019
  0
LINE
  8
___SYMBOL
 62
2
  6
CONTINUOUS
 10
18.4397397273
 20
7.4593391019
 11
18.4341797273
 21
7.4482191019
  0
LINE
  8
___SYMBOL
 62
2
  6
PHANTOM
 10
19.4295397273
 20
8.5486791019
 11
19.4350397273
 21
8.5596791019
  0
LINE
  8
___SYMBOL
 62
2
  6
PHANTOM
 10
18.9189760516
 20
7.9853161834
 11
18.844837154
 21
7.8379532649
  0
LINE
  8
___SYMBOL
 62
2
  6
CONTINUOUS
 10
19.0618197273
 20
8.2748791019
 11
19.1026997273
 21
8.3218791019
  0
LINE
  8
___SYMBOL
 62
2
  6
CONTINUOUS
 10
15.4790057552
 20
7.43946981
 11
15.4900457552
 21
7.44494981
  0
LINE
  8
___SYMBOL
 62
2
  6
CONTINUOUS
 10
19.3742397273
 20
8.1974991019
 11
19.3659397273
 21
8.2195791019
  0
LINE
  8
___SYMBOL
 62
2
  6
CONTINUOUS
 10
19.4184997273
 20
8.4656791019
 11
19.4156997273
 21
8.4767991019
  0
LINE
  8
___SYMBOL
 62
2
  6
CONTINUOUS
 10
19.4073997273
 20
8.0759191019
 11
19.3963397273
 21
8.1228991019
  0
LINE
  8
___SYMBOL
 62
2
  6
CONTINUOUS
 10
19.3852997273
 20
8.1753991019
 11
19.3825597273
 21
8.1891991019
  0
LINE
  8
___SYMBOL
 62
2
  6
CONTINUOUS
 10
19.3963397273
 20
8.1338991019
 11
19.3908597273
 21
8.1642991019
  0
LINE
  8
___SYMBOL
 62
2
  6
CONTINUOUS
 10
18.9297997273
 20
7.7466791019
 11
18.9982197273
 21
7.8039391019
  0
LINE
  8
___SYMBOL
 62
2
  6
CONTINUOUS
 10
18.7016997273
 20
7.7449791019
 11
18.7721997273
 21
7.8039391019
  0
LINE
  8
___SYMBOL
 62
2
  6
CONTINUOUS
 10
18.8219397273
 20
7.7460791019
 11
18.8924397273
 21
7.8050391019
  0
LINE
  8
___SYMBOL
 62
2
  6
CONTINUOUS
 10
19.1668597273
 20
7.7585191019
 11
19.2166597273
 21
7.8001591019
  0
LINE
  8
___SYMBOL
 62
2
  6
CONTINUOUS
 10
19.2698797273
 20
7.7494991019
 11
19.3694197273
 21
7.8327391019
  0
LINE
  8
___SYMBOL
 62
2
  6
CONTINUOUS
 10
19.3106597273
 20
7.9738591019
 11
19.3714397273
 21
8.0246391019
  0
LINE
  8
___SYMBOL
 62
2
  6
CONTINUOUS
 10
19.3106597273
 20
7.8787591019
 11
19.3714397273
 21
7.9295391019
  0
LINE
  8
___SYMBOL
 62
2
  6
CONTINUOUS
 10
18.4175797273
 20
7.4759391019
 11
18.4286997273
 21
7.4814191019
  0
ARC
  8
___SYMBOL
 62
2
  6
CONTINUOUS
 10
19.2614397273
 20
7.8541191019
 40
0.11
 50
270.0
 51
360.0
  0
ARC
  8
___SYMBOL
 62
2
  6
CONTINUOUS
 10
19.2606597273
 20
7.8549191019
 40
0.05
 50
270.0
 51
360.0
  0
ARC
  8
___SYMBOL
 62
2
  6
CONTINUOUS
 10
18.8921765944
 20
7.9987991019
 40
0.03
 50
333.2928412651
 51
90.0
  0
ARC
  8
___SYMBOL
 62
2
  6
CONTINUOUS
 10
18.7912382395
 20
7.8649191019
 40
0.06
 50
270.0
 51
333.2928412651
  0
ARC
  8
___SYMBOL
 62
2
  6
CONTINUOUS
 10
18.6505360742
 20
7.7399191019
 40
0.065
 50
90.0
 51
159.9572872547
  0
ARC
  8
___SYMBOL
 62
2
  6
PHANTOM
 10
18.596378212
 20
7.9037991019
 40
0.125
 50
90.0
 51
159.9601913116
  0
ARC
  8
___SYMBOL
 62
2
  6
PHANTOM
 10
18.4039926657
 20
7.9575650767
 40
0.0741554031
 50
331.1106122188
 51
75.728277399
  0
ARC
  8
___SYMBOL
 62
2
  6
CONTINUOUS
 10
15.4634649103
 20
7.9204630268
 40
0.0741554031
 50
340.0021161874
 51
75.728277399
  0
ARC
  8
___SYMBOL
 62
2
  6
CONTINUOUS
 10
15.71127067
 20
7.70444981
 40
0.064
 50
90.0
 51
159.9445616853
  0
ARC
  8
___SYMBOL
 62
2
  6
CONTINUOUS
 10
15.8525842674
 20
7.82844981
 40
0.06
 50
270.0
 51
333.2928412651
  0
ARC
  8
___SYMBOL
 62
2
  6
CONTINUOUS
 10
15.9535226223
 20
7.96232981
 40
0.03
 50
333.2928412651
 51
90.0
  0
ARC
  8
___SYMBOL
 62
2
  6
CONTINUOUS
 10
15.6542257902
 20
7.87232981
 40
0.12
 50
90.0
 51
159.9601913116
  0
ARC
  8
___SYMBOL
 62
2
  6
CONTINUOUS
 10
16.3328657552
 20
7.80764981
 40
0.1
 50
270.0
 51
360.0
  0
ARC
  8
___SYMBOL
 62
2
  6
CONTINUOUS
 10
16.3220057552
 20
7.81844981
 40
0.05
 50
270.0
 51
360.0
  0
ARC
  8
___SYMBOL
 62
2
  6
CONTINUOUS
 10
15.4118057552
 20
8.46320981
 40
0.06
 50
90.0
 51
180.0
  0
ARC
  8
___SYMBOL
 62
2
  6
CONTINUOUS
 10
15.4118057552
 20
8.05512981
 40
0.06
 50
180.0
 51
270.0
  0
ARC
  8
___SYMBOL
 62
2
  6
CONTINUOUS
 10
16.1625671722
 20
7.7553757639
 40
0.0885309118
 50
212.3058638362
 51
264.8843450297
  0
ARC
  8
___SYMBOL
 62
2
  6
CONTINUOUS
 10
16.1625671722
 20
7.7553757639
 40
0.0885309118
 50
276.0241773206
 51
327.6941361638
  0
ARC
  8
___SYMBOL
 62
2
  6
CONTINUOUS
 10
19.1012211443
 20
7.7917744267
 40
0.0885309118
 50
212.3058638362
 51
264.8843450297
  0
ARC
  8
___SYMBOL
 62
2
  6
CONTINUOUS
 10
19.1012211443
 20
7.7917744267
 40
0.0885309118
 50
276.0241773206
 51
327.6941361638
  0
CIRCLE
  8
___SYMBOL
 62
7
  6
CONTINUOUS
 10
16.0623857552
 20
8.63380981
 40
0.0298681023
  0
CIRCLE
  8
___SYMBOL
 62
7
  6
CONTINUOUS
 10
16.2586657552
 20
8.63380981
 40
0.0298681023
  0
CIRCLE
  8
___SYMBOL
 62
7
  6
CONTINUOUS
 10
16.5766057552
 20
8.28822981
 40
0.0298681023
  0
CIRCLE
  8
___SYMBOL
 62
7
  6
CONTINUOUS
 10
16.5766057552
 20
7.99792981
 40
0.0298681023
  0
LINE
  8
___SYMBOL
 62
2
  6
CONTINUOUS
 10
18.7912382395
 20
7.8049191019
 11
19.0618197273
 21
7.8049191019
  0
LINE
  8
___SYMBOL
 62
2
  6
PHANTOM
 10
19.3106597273
 20
8.0315991019
 11
19.3714397273
 21
8.0315991019
  0
LINE
  8
___SYMBOL
 62
2
  6
PHANTOM
 10
19.3714397273
 20
8.0315991019
 11
19.4350397273
 21
8.0315991019
  0
LINE
  8
___SYMBOL
 62
2
  6
CONTINUOUS
 10
15.2286688662
 20
9.893436155
 11
15.0897565178
 21
9.893436155
  0
LINE
  8
___SYMBOL
 62
2
  6
CONTINUOUS
 10
15.0897565178
 20
9.893436155
 11
14.7685217121
 21
9.1381002604
  0
LINE
  8
___SYMBOL
 62
2
  6
CONTINUOUS
 10
14.7685217121
 20
9.1381002604
 11
15.6888160204
 21
8.0094374295
  0
LINE
  8
___SYMBOL
 62
2
  6
CONTINUOUS
 10
19.0574404697
 20
9.893436155
 11
18.9185281212
 21
9.893436155
  0
LINE
  8
___SYMBOL
 62
2
  6
CONTINUOUS
 10
18.9185281212
 20
9.893436155
 11
18.7101595986
 21
8.026801473
  0
ENDBLK
  8
0
  6
BYBLOCK
 62
0
  0
BLOCK
  8
___SYMBOL
 62
2
  6
CONTINUOUS
  2
TEMPLATE_NUMBER_BL4
 70
64
 10
10.0385798787
 20
5.2298687863
  0
TEXT
  8
___SYMBOL
 62
2
  6
CONTINUOUS
 10
9.7283798787
 20
5.1946187863
  7
STANDARD
 40
0.0705
  1
1084867-7
 41
0.8
 72
0
  0
TEXT
  8
___SYMBOL
 62
2
  6
CONTINUOUS
 10
10.2359798787
 20
5.1946187863
  7
STANDARD
 40
0.0705
  1
-
 41
0.8
 72
0
  0
TEXT
  8
___SYMBOL
 62
2
  6
CONTINUOUS
 10
10.2923798787
 20
5.1946187863
  7
STANDARD
 40
0.0705
  1
B
 41
0.8
 72
0
  0
ENDBLK
  8
0
  6
BYBLOCK
 62
0
  0
BLOCK
  8
___SYMBOL
 62
2
  6
CONTINUOUS
  2
TEMPLATE_NUMBER_BL5
 70
64
 10
10.0792386331
 20
3.1411663337
  0
TEXT
  8
___SYMBOL
 62
2
  6
CONTINUOUS
 10
9.7690386331
 20
3.1059163337
  7
STANDARD
 40
0.0705
  1
1084867-7
 41
0.8
 72
0
  0
TEXT
  8
___SYMBOL
 62
2
  6
CONTINUOUS
 10
10.2766386331
 20
3.1059163337
  7
STANDARD
 40
0.0705
  1
-
 41
0.8
 72
0
  0
TEXT
  8
___SYMBOL
 62
2
  6
CONTINUOUS
 10
10.3330386331
 20
3.1059163337
  7
STANDARD
 40
0.0705
  1
B
 41
0.8
 72
0
  0
ENDBLK
  8
0
  6
BYBLOCK
 62
0
  0
BLOCK
  8
0
  2
_FILLED
 70
64
 10
0.0
 20
0.0
  0
SOLID
  8
0
  6
BYBLOCK
 62
0
 10
0.0
 20
0.0
 11
-1.0
 21
0.1666666667
 12
-1.0
 22
-0.1666666667
 13
-1.0
 23
-0.1666666667
  0
ENDBLK
  8
0
  6
BYBLOCK
 62
0
  0
ENDSEC
  0
SECTION
  2
ENTITIES
  0
DIMENSION
  8
0
 62
2
  6
CONTINUOUS
  2
*D0
 10
1.8862368448
 20
18.9170543312
 11
1.8862368448
 21
19.7820543312
 70
128
 13
2.0112368448
 23
20.9170543312
 14
2.0112368448
 24
18.9170543312
 50
270.0
  0
DIMENSION
  8
0
 62
2
  6
CONTINUOUS
  2
*D1
 10
1.8965834772
 20
16.4170543312
 11
1.8965834772
 21
17.5320543312
 70
128
 13
2.0215834772
 23
18.9170543312
 14
12.6974803092
 24
16.4170543312
 50
270.0
  0
DIMENSION
  8
0
 62
2
  6
CONTINUOUS
  2
*D2
 10
12.7549262436
 20
4.9024743312
 11
12.7549262436
 21
12.8982624182
 70
128
 13
12.6299262436
 23
16.4170543312
 14
12.6299262436
 24
4.9024743312
 50
270.0
  0
DIMENSION
  8
0
 62
2
  6
CONTINUOUS
  2
*D3
 10
21.5200764171
 20
10.6675955979
 11
8.1871515046
 21
10.5325955979
 70
128
 13
3.9998842014
 23
10.4498898457
 14
21.5200764171
 24
10.4498898457
  0
DIMENSION
  8
0
 62
2
  6
CONTINUOUS
  2
*D4
 10
22.2610720118
 20
10.1163061872
 11
11.2858178407
 21
9.9813061872
 70
128
 13
3.2588886067
 23
10.5972643312
 14
22.2610720118
 24
10.5972643312
  0
DIMENSION
  8
0
 62
2
  6
CONTINUOUS
  2
*D5
 10
13.7680239407
 20
17.2886463507
 11
13.7680239407
 21
6.5782003723
 70
128
 13
12.8224811048
 23
4.1370651631
 14
12.8224763306
 24
17.2886463507
 50
90.0
  0
TEXT
  8
___NOTE
 62
2
  6
CONTINUOUS
 10
25.1438274108
 20
6.8274633419
  7
STANDARD
 40
0.2
  1
CUT ALONG THIS LINE
 41
0.8
 72
0
  0
TEXT
  8
___NOTE
 62
2
  6
CONTINUOUS
 10
25.1438274108
 20
6.5274633419
  7
STANDARD
 40
0.2
  1
PARA INSTALACIONES DEBAJO DEL MOSTRADOR,
 41
0.8
 72
0
  0
TEXT
  8
___NOTE
 62
2
  6
CONTINUOUS
 10
25.1438274108
 20
6.2274633419
  7
STANDARD
 40
0.2
  1
CORTE A LO LARGO DE ESTA LÍNEA
 41
0.8
 72
0
  0
TEXT
  8
___NOTE
 62
2
  6
CONTINUOUS
 10
25.1438274108
 20
5.9274633419
  7
STANDARD
 40
0.2
  1
POUR DES INSTALLATIONS SOUS COMPTOIR,
 41
0.8
 72
0
  0
TEXT
  8
___NOTE
 62
2
  6
CONTINUOUS
 10
25.1438274108
 20
5.6274633419
  7
STANDARD
 40
0.2
  1
DÉCOUPER AU LONG DE CETTE LIGNE
 41
0.8
 72
0
  0
TEXT
  8
___NOTE
 62
2
  6
CONTINUOUS
 10
20.7716863143
 20
20.3609352153
  7
STANDARD
 40
0.156
  1
FINISHED WALL / BACKSPLASH
 41
0.8
 72
0
  0
TEXT
  8
___NOTE
 62
2
  6
CONTINUOUS
 10
20.7716863143
 20
20.1269352153
  7
STANDARD
 40
0.156
  1
PARED ACABADA / PARED POSTERIOR
 41
0.8
 72
0
  0
TEXT
  8
___NOTE
 62
2
  6
CONTINUOUS
 10
20.7716863143
 20
19.8929352153
  7
STANDARD
 40
0.156
  1
MUR FINI / DOSSERET
 41
0.8
 72
0
  0
TEXT
  8
___NOTE
 62
2
  6
CONTINUOUS
 10
20.8049467578
 20
18.5972475311
  7
STANDARD
 40
0.156
  1
CENTERLINE OF FITTING
 41
0.8
 72
0
  0
TEXT
  8
___NOTE
 62
2
  6
CONTINUOUS
 10
20.8049467578
 20
18.3632475311
  7
STANDARD
 40
0.156
  1
LÍNEA CENTRAL DEL GRIFO
 41
0.8
 72
0
  0
TEXT
  8
___NOTE
 62
2
  6
CONTINUOUS
 10
20.8049467578
 20
18.1292475311
  7
STANDARD
 40
0.156
  1
AXE DU ROBINET
 41
0.8
 72
0
  0
TEXT
  8
___NOTE
 62
2
  6
CONTINUOUS
 10
3.0117719033
 20
20.4263691788
  7
STANDARD
 40
0.156
  1
NOTE: BEFORE CUTTING COUNTERTOP
 41
0.8
 72
0
  0
TEXT
  8
___NOTE
 62
2
  6
CONTINUOUS
 10
3.0117719033
 20
20.1923691788
  7
STANDARD
 40
0.156
  1
      ALLOW FOR HANDLE CLEARANCE
 41
0.8
 72
0
  0
TEXT
  8
___NOTE
 62
2
  6
CONTINUOUS
 10
3.0117719033
 20
19.9583691788
  7
STANDARD
 40
0.156
  1
NOTA: ANTES DE CORTAR EL MOSTRADOR,
 41
0.8
 72
0
  0
TEXT
  8
___NOTE
 62
2
  6
CONTINUOUS
 10
3.0117719033
 20
19.7243691788
  7
STANDARD
 40
0.156
  1
      DEJE ESPACIO LIBRE PARA OPERAR
 41
0.8
 72
0
  0
TEXT
  8
___NOTE
 62
2
  6
CONTINUOUS
 10
3.0117719033
 20
19.4903691788
  7
STANDARD
 40
0.156
  1
REMARQUE : AVANT DE COUPER L'OUVERTURE, PRÉVOIR
 41
0.8
 72
0
  0
TEXT
  8
___NOTE
 62
2
  6
CONTINUOUS
 10
3.0117719033
 20
19.2563691788
  7
STANDARD
 40
0.156
  1
           LE DÉGAGEMENT POUR LES POIGNÉES
 41
0.8
 72
0
  0
TEXT
  8
___NOTE
 62
2
  6
CONTINUOUS
 10
5.6033066825
 20
13.4677694058
  7
STANDARD
 40
0.156
  1
CUT-OUT TEMPLATE
 41
0.8
 72
0
  0
TEXT
  8
___NOTE
 62
2
  6
CONTINUOUS
 10
5.6033066825
 20
13.2337694058
  7
STANDARD
 40
0.156
  1
SELF-RIMMING/UNDERCOUNTER LAVATORY
 41
0.8
 72
0
  0
TEXT
  8
___NOTE
 62
2
  6
CONTINUOUS
 10
5.6033066825
 20
12.9997694058
  7
STANDARD
 40
0.156
  1
PLANTILLA DE RECORTE
 41
0.8
 72
0
  0
TEXT
  8
___NOTE
 62
2
  6
CONTINUOUS
 10
5.6033066825
 20
12.7657694058
  7
STANDARD
 40
0.156
  1
LAVABO MONTADO DEBAJO DEL MOSTRADOR
 41
0.8
 72
0
  0
TEXT
  8
___NOTE
 62
2
  6
CONTINUOUS
 10
5.6033066825
 20
12.5317694058
  7
STANDARD
 40
0.156
  1
PLAN DE DÉCOUPE
 41
0.8
 72
0
  0
TEXT
  8
___NOTE
 62
2
  6
CONTINUOUS
 10
5.6033066825
 20
12.2977694058
  7
STANDARD
 40
0.156
  1
LAVABO SOUS-COMPTOIR
 41
0.8
 72
0
  0
TEXT
  8
___NOTE
 62
2
  6
CONTINUOUS
 10
13.4623270085
 20
3.7846992426
  7
STANDARD
 40
0.156
  1
FRONT
 41
0.8
 72
0
  0
TEXT
  8
___NOTE
 62
2
  6
CONTINUOUS
 10
25.1759720743
 20
10.1200847877
  7
STANDARD
 40
0.2
  1
CUT ALONG THIS LINE
 41
0.8
 72
0
  0
TEXT
  8
___NOTE
 62
2
  6
CONTINUOUS
 10
25.1759720743
 20
9.8200847877
  7
STANDARD
 40
0.2
  1
PARA INSTALACIONES DE BORDE TERMINADO,
 41
0.8
 72
0
  0
TEXT
  8
___NOTE
 62
2
  6
CONTINUOUS
 10
25.1759720743
 20
9.5200847877
  7
STANDARD
 40
0.2
  1
CORTE A LO LARGO DE ESTA LÍNEA
 41
0.8
 72
0
  0
TEXT
  8
___NOTE
 62
2
  6
CONTINUOUS
 10
25.1759720743
 20
9.2200847877
  7
STANDARD
 40
0.2
  1
POUR DES INSTALLATIONS À REBORD INTÉGRÉ,
 41
0.8
 72
0
  0
TEXT
  8
___NOTE
 62
2
  6
CONTINUOUS
 10
25.1759720743
 20
8.9200847877
  7
STANDARD
 40
0.2
  1
DÉCOUPER AU LONG DE CETTE LIGNE
 41
0.8
 72
0
  0
TEXT
  8
___NOTE
 62
2
  6
CONTINUOUS
 10
5.5688020681
 20
11.7258457857
  7
STANDARD
 40
0.25
  1
STINSON SELF-RIMMING  442007
 41
0.8
 72
0
  0
TEXT
  8
___NOTE
 62
2
  6
CONTINUOUS
 10
5.5688020681
 20
11.3508457857
  7
STANDARD
 40
0.25
  1
STINSON UNDERCOUNTER  442007-U
 41
0.8
 72
0
  0
TEXT
  8
___NOTE
 62
2
  6
CONTINUOUS
 10
25.1801503489
 20
13.0326125237
  7
STANDARD
 40
0.156
  1
RIM OF LAV
 41
0.8
 72
0
  0
TEXT
  8
___NOTE
 62
2
  6
CONTINUOUS
 10
25.1801503489
 20
12.7986125237
  7
STANDARD
 40
0.156
  1
REBORDE DEL LAVABO
 41
0.8
 72
0
  0
TEXT
  8
___NOTE
 62
2
  6
CONTINUOUS
 10
25.1801503489
 20
12.5646125237
  7
STANDARD
 40
0.156
  1
REBORD DU LAVABO
 41
0.8
 72
0
  0
LINE
  8
___NOTE
 62
2
  6
CONTINUOUS
 10
22.7599803092
 20
13.9357636745
 11
24.9301503489
 21
13.1106125237
  0
LINE
  8
___NOTE
 62
2
  6
CONTINUOUS
 10
24.9301503489
 20
13.1106125237
 11
25.1801503489
 21
13.1106125237
  0
SOLID
  8
___NOTE
 62
2
  6
CONTINUOUS
 10
22.9463454575
 20
13.8983358236
 11
22.7599803092
 21
13.9357636745
 12
22.9241329032
 22
13.8399161999
 13
22.9241329032
 23
13.8399161999
  0
TEXT
  8
___NOTE
 62
2
  6
CONTINUOUS
 10
25.1786882773
 20
16.8555538336
  7
STANDARD
 40
0.156
  1
CLIP LOCATIONS
 41
0.8
 72
0
  0
TEXT
  8
___NOTE
 62
2
  6
CONTINUOUS
 10
25.1786882773
 20
16.6215538336
  7
STANDARD
 40
0.156
  1
UBICACIÓN DEL SUJETADOR
 41
0.8
 72
0
  0
TEXT
  8
___NOTE
 62
2
  6
CONTINUOUS
 10
25.1786882773
 20
16.3875538336
  7
STANDARD
 40
0.156
  1
EMPLACEMENT DES ATTACHES
 41
0.8
 72
0
  0
LINE
  8
___NOTE
 62
2
  6
CONTINUOUS
 10
23.3155174204
 20
15.7324741834
 11
24.9286882773
 21
16.9335538336
  0
LINE
  8
___NOTE
 62
2
  6
CONTINUOUS
 10
24.9286882773
 20
16.9335538336
 11
25.1786882773
 21
16.9335538336
  0
SOLID
  8
___NOTE
 62
2
  6
CONTINUOUS
 10
23.4472478396
 20
15.8695139921
 11
23.3155174204
 21
15.7324741834
 12
23.4845726197
 22
15.8193830556
 13
23.4845726197
 23
15.8193830556
  0
TEXT
  8
___NOTE
 62
2
  6
CONTINUOUS
 10
25.1608931286
 20
10.5736291543
  7
STANDARD
 40
0.24
  1
FOR SELF-RIMMING INSTALLATION
 41
0.8
 72
0
  0
LINE
  8
___NOTE
 62
2
  6
CONTINUOUS
 10
22.2593219222
 20
11.6309028409
 11
24.9108931286
 21
10.6936291543
  0
LINE
  8
___NOTE
 62
2
  6
CONTINUOUS
 10
24.9108931286
 20
10.6936291543
 11
25.1608931286
 21
10.6936291543
  0
SOLID
  8
___NOTE
 62
2
  6
CONTINUOUS
 10
22.44651748
 20
11.597878068
 11
22.2593219222
 21
11.6309028409
 12
22.4256880641
 22
11.538951118
 13
22.4256880641
 23
11.538951118
  0
TEXT
  8
___NOTE
 62
2
  6
CONTINUOUS
 10
25.1509207655
 20
7.2504851954
  7
STANDARD
 40
0.24
  1
FOR UNDERCOUNTER INSTALLATION
 41
0.8
 72
0
  0
LINE
  8
___NOTE
 62
2
  6
CONTINUOUS
 10
21.4927425486
 20
9.0926313826
 11
24.9009207655
 21
7.3704851954
  0
LINE
  8
___NOTE
 62
2
  6
CONTINUOUS
 10
24.9009207655
 20
7.3704851954
 11
25.1509207655
 21
7.3704851954
  0
SOLID
  8
___NOTE
 62
2
  6
CONTINUOUS
 10
21.6741850089
 20
9.0359617604
 11
21.4927425486
 21
9.0926313826
 12
21.6459979714
 22
8.9801787798
 13
21.6459979714
 23
8.9801787798
  0
INSERT
  8
___SYMBOL
 62
2
  6
CONTINUOUS
  2
COPYRIGHT_YEAR_BL0
 10
16.8141843423
 20
5.2382665264
  0
INSERT
  8
___SYMBOL
 62
2
  6
CONTINUOUS
  2
PACKAGING_UPC_BL1
 10
17.452049192
 20
13.2477794119
  0
INSERT
  8
___SYMBOL
 62
2
  6
CONTINUOUS
  2
WHEN_PLOTTING_TEMPLATE_N_BL2
 10
8.9650022074
 20
8.1558582532
  0
INSERT
  8
___SYMBOL
 62
2
  6
CONTINUOUS
  2
LAV_UC_INSTALLATION_BL3
 10
18.1727140885
 20
8.1276238933
  0
INSERT
  8
___SYMBOL
 62
2
  6
CONTINUOUS
  2
TEMPLATE_NUMBER_BL4
 10
10.0385798787
 20
5.2298687863
  0
INSERT
  8
___SYMBOL
 62
2
  6
CONTINUOUS
  2
TEMPLATE_NUMBER_BL5
 10
10.0792386331
 20
3.1411663337
  0
LINE
  8
DEFAULT_2
 62
8
  6
HIDDEN
 10
2.3799803092
 20
5.6597643312
 11
2.3795843778
 21
5.8497639187
  0
LINE
  8
DEFAULT_2
 62
8
  6
HIDDEN
 10
2.3799803092
 20
5.8497643312
 11
2.3799803092
 21
5.8457830529
  0
LINE
  8
DEFAULT_2
 62
8
  6
HIDDEN
 10
2.3807320637
 20
15.849762844
 11
2.3792285548
 21
15.4697658184
  0
LINE
  8
DEFAULT_2
 62
8
  6
HIDDEN
 10
2.3799803092
 20
5.6597643312
 11
2.3784369566
 21
5.4697705996
  0
LINE
  8
0
 62
7
  6
CONTINUOUS
 10
5.5211025206
 20
13.9646222633
 11
5.5211025206
 21
14.5969597633
  0
LINE
  8
0
 62
7
  6
CONTINUOUS
 10
5.5232261317
 20
14.60138893
 11
5.5232261317
 21
13.9871778189
  0
LINE
  8
0
 62
7
  6
CONTINUOUS
 10
5.9846789095
 20
14.46236393
 11
5.9846789095
 21
14.4035875411
  0
LINE
  8
0
 62
7
  6
CONTINUOUS
 10
6.1593066873
 20
14.1231375411
 11
6.1593066873
 21
14.1247111522
  0
LINE
  8
0
 62
7
  6
CONTINUOUS
 10
6.1911733539
 20
14.1959861522
 11
6.1911733539
 21
14.4280347633
  0
POLYLINE
  8
0
 62
7
  6
CONTINUOUS
 66
1
 70
0
  0
VERTEX
  8
0
 62
7
  6
CONTINUOUS
 10
6.2650872428
 20
14.4280347633
  0
VERTEX
  8
0
 62
7
  6
CONTINUOUS
 10
6.2650872428
 20
14.1907778189
  0
VERTEX
  8
0
 62
7
  6
CONTINUOUS
 10
6.2650951289
 20
14.1835935262
  0
VERTEX
  8
0
 62
7
  6
CONTINUOUS
 10
6.2652065237
 20
14.1768716897
  0
VERTEX
  8
0
 62
7
  6
CONTINUOUS
 10
6.2654668647
 20
14.1716105398
  0
VERTEX
  8
0
 62
7
  6
CONTINUOUS
 10
6.2658832419
 20
14.167165406
  0
VERTEX
  8
0
 62
7
  6
CONTINUOUS
 10
6.2664584155
 20
14.163259791
  0
VERTEX
  8
0
 62
7
  6
CONTINUOUS
 10
6.2671953411
 20
14.1597420808
  0
VERTEX
  8
0
 62
7
  6
CONTINUOUS
 10
6.2680986208
 20
14.1565166481
  0
VERTEX
  8
0
 62
7
  6
CONTINUOUS
 10
6.2691752893
 20
14.1535174211
  0
VERTEX
  8
0
 62
7
  6
CONTINUOUS
 10
6.270435372
 20
14.1506957878
  0
VERTEX
  8
0
 62
7
  6
CONTINUOUS
 10
6.2718923295
 20
14.1480143821
  0
VERTEX
  8
0
 62
7
  6
CONTINUOUS
 10
6.2735634254
 20
14.1454436183
  0
VERTEX
  8
0
 62
7
  6
CONTINUOUS
 10
6.2754700378
 20
14.1429596231
  0
VERTEX
  8
0
 62
7
  6
CONTINUOUS
 10
6.2776379374
 20
14.1405429197
  0
VERTEX
  8
0
 62
7
  6
CONTINUOUS
 10
6.280088123
 20
14.138185983
  0
VERTEX
  8
0
 62
7
  6
CONTINUOUS
 10
6.2828482005
 20
14.1358784851
  0
VERTEX
  8
0
 62
7
  6
CONTINUOUS
 10
6.2859549223
 20
14.1336077995
  0
VERTEX
  8
0
 62
7
  6
CONTINUOUS
 10
6.2894502106
 20
14.1313635794
  0
VERTEX
  8
0
 62
7
  6
CONTINUOUS
 10
6.293381554
 20
14.129137291
  0
VERTEX
  8
0
 62
7
  6
CONTINUOUS
 10
6.297802513
 20
14.1269218229
  0
VERTEX
  8
0
 62
7
  6
CONTINUOUS
 10
6.3027733539
 20
14.1247111522
  0
SEQEND
  0
LINE
  8
0
 62
7
  6
CONTINUOUS
 10
6.3027733539
 20
14.1247111522
 11
6.3027733539
 21
14.1231375411
  0
LINE
  8
0
 62
7
  6
CONTINUOUS
 10
6.4658052984
 20
14.1231375411
 11
6.4658052984
 21
14.1247111522
  0
LINE
  8
0
 62
7
  6
CONTINUOUS
 10
6.4658052984
 20
14.4639305967
 11
6.4658052984
 21
14.4654972633
  0
POLYLINE
  8
0
 62
7
  6
CONTINUOUS
 66
1
 70
0
  0
VERTEX
  8
0
 62
7
  6
CONTINUOUS
 10
6.4984108539
 20
14.39212643
  0
VERTEX
  8
0
 62
7
  6
CONTINUOUS
 10
6.4985381795
 20
14.402641149
  0
VERTEX
  8
0
 62
7
  6
CONTINUOUS
 10
6.498540882
 20
14.4106494582
  0
VERTEX
  8
0
 62
7
  6
CONTINUOUS
 10
6.4983012276
 20
14.4172333915
  0
VERTEX
  8
0
 62
7
  6
CONTINUOUS
 10
6.4978143834
 20
14.4229669381
  0
VERTEX
  8
0
 62
7
  6
CONTINUOUS
 10
6.4970856706
 20
14.4280736042
  0
VERTEX
  8
0
 62
7
  6
CONTINUOUS
 10
6.4961226932
 20
14.4326731241
  0
VERTEX
  8
0
 62
7
  6
CONTINUOUS
 10
6.4949326954
 20
14.4368424862
  0
VERTEX
  8
0
 62
7
  6
CONTINUOUS
 10
6.4935210944
 20
14.4406371511
  0
VERTEX
  8
0
 62
7
  6
CONTINUOUS
 10
6.4918904781
 20
14.4440998751
  0
VERTEX
  8
0
 62
7
  6
CONTINUOUS
 10
6.4900398724
 20
14.4472647352
  0
VERTEX
  8
0
 62
7
  6
CONTINUOUS
 10
6.4879642197
 20
14.4501590141
  0
VERTEX
  8
0
 62
7
  6
CONTINUOUS
 10
6.4856540547
 20
14.4528040443
  0
VERTEX
  8
0
 62
7
  6
CONTINUOUS
 10
6.4830953706
 20
14.4552155378
  0
VERTEX
  8
0
 62
7
  6
CONTINUOUS
 10
6.4802696641
 20
14.4574036868
  0
VERTEX
  8
0
 62
7
  6
CONTINUOUS
 10
6.4771541264
 20
14.4593732009
  0
VERTEX
  8
0
 62
7
  6
CONTINUOUS
 10
6.4737219371
 20
14.4611233754
  0
VERTEX
  8
0
 62
7
  6
CONTINUOUS
 10
6.4718777286
 20
14.4619145328
  0
VERTEX
  8
0
 62
7
  6
CONTINUOUS
 10
6.4699454049
 20
14.4626472378
  0
VERTEX
  8
0
 62
7
  6
CONTINUOUS
 10
6.4658052984
 20
14.4639305967
  0
SEQEND
  0
LINE
  8
0
 62
7
  6
CONTINUOUS
 10
6.4179802984
 20
14.46913893
 11
6.3948011317
 21
14.4072083745
  0
LINE
  8
0
 62
7
  6
CONTINUOUS
 10
6.0390136317
 20
14.4072083745
 11
6.0643830762
 21
14.46913893
  0
LINE
  8
0
 62
7
  6
CONTINUOUS
 10
6.8005691873
 20
14.1913069856
 11
6.7679636317
 21
14.1231375411
  0
POLYLINE
  8
0
 62
7
  6
CONTINUOUS
 66
1
 70
0
  0
VERTEX
  8
0
 62
7
  6
CONTINUOUS
 10
6.4985442209
 20
14.1851344981
  0
VERTEX
  8
0
 62
7
  6
CONTINUOUS
 10
6.4984108539
 20
14.1959861522
  0
VERTEX
  8
0
 62
7
  6
CONTINUOUS
 10
6.4984108539
 20
14.39212643
  0
SEQEND
  0
POLYLINE
  8
0
 62
7
  6
CONTINUOUS
 66
1
 70
0
  0
VERTEX
  8
0
 62
7
  6
CONTINUOUS
 10
7.3035719215
 20
14.1851344843
  0
VERTEX
  8
0
 62
7
  6
CONTINUOUS
 10
7.3034386317
 20
14.1959861522
  0
VERTEX
  8
0
 62
7
  6
CONTINUOUS
 10
7.3034386317
 20
14.39212643
  0
SEQEND
  0
LINE
  8
0
 62
7
  6
CONTINUOUS
 10
6.5723247428
 20
14.4244000411
 11
6.5723247428
 21
14.3276250411
  0
LINE
  8
0
 62
7
  6
CONTINUOUS
 10
6.5723247428
 20
14.2901500411
 11
6.5723247428
 21
14.16683893
  0
LINE
  8
0
 62
7
  6
CONTINUOUS
 10
6.6926122428
 20
14.3307375411
 11
6.6926122428
 21
14.2755958745
  0
LINE
  8
0
 62
7
  6
CONTINUOUS
 10
6.7339122428
 20
14.4680875411
 11
6.7339122428
 21
14.4072083745
  0
LINE
  8
0
 62
7
  6
CONTINUOUS
 10
6.8259261317
 20
14.1231375411
 11
6.8259261317
 21
14.1247111522
  0
LINE
  8
0
 62
7
  6
CONTINUOUS
 10
6.8259261317
 20
14.4639305967
 11
6.8259261317
 21
14.4654972633
  0
POLYLINE
  8
0
 62
7
  6
CONTINUOUS
 66
1
 70
0
  0
VERTEX
  8
0
 62
7
  6
CONTINUOUS
 10
6.9317205762
 20
14.4290722633
  0
VERTEX
  8
0
 62
7
  6
CONTINUOUS
 10
6.9317205762
 20
14.1959861522
  0
VERTEX
  8
0
 62
7
  6
CONTINUOUS
 10
6.9316396564
 20
14.1886723787
  0
VERTEX
  8
0
 62
7
  6
CONTINUOUS
 10
6.9315753367
 20
14.1837914731
  0
VERTEX
  8
0
 62
7
  6
CONTINUOUS
 10
6.9315962377
 20
14.1771405506
  0
VERTEX
  8
0
 62
7
  6
CONTINUOUS
 10
6.9317939397
 20
14.1715325379
  0
VERTEX
  8
0
 62
7
  6
CONTINUOUS
 10
6.9321686127
 20
14.1665803428
  0
VERTEX
  8
0
 62
7
  6
CONTINUOUS
 10
6.9327163208
 20
14.1621189525
  0
VERTEX
  8
0
 62
7
  6
CONTINUOUS
 10
6.9334319601
 20
14.1580571797
  0
VERTEX
  8
0
 62
7
  6
CONTINUOUS
 10
6.9343104075
 20
14.1543360884
  0
VERTEX
  8
0
 62
7
  6
CONTINUOUS
 10
6.9353472028
 20
14.1509134061
  0
VERTEX
  8
0
 62
7
  6
CONTINUOUS
 10
6.9365390333
 20
14.1477566198
  0
VERTEX
  8
0
 62
7
  6
CONTINUOUS
 10
6.9378841071
 20
14.1448395888
  0
VERTEX
  8
0
 62
7
  6
CONTINUOUS
 10
6.9393824472
 20
14.1421407854
  0
VERTEX
  8
0
 62
7
  6
CONTINUOUS
 10
6.9410361148
 20
14.1396423635
  0
VERTEX
  8
0
 62
7
  6
CONTINUOUS
 10
6.9428493653
 20
14.1373296756
  0
VERTEX
  8
0
 62
7
  6
CONTINUOUS
 10
6.9448287353
 20
14.1351910382
  0
VERTEX
  8
0
 62
7
  6
CONTINUOUS
 10
6.9469830642
 20
14.1332176321
  0
VERTEX
  8
0
 62
7
  6
CONTINUOUS
 10
6.9493234534
 20
14.131403464
  0
VERTEX
  8
0
 62
7
  6
CONTINUOUS
 10
6.9518631765
 20
14.1297453455
  0
VERTEX
  8
0
 62
7
  6
CONTINUOUS
 10
6.9546175518
 20
14.1282428617
  0
VERTEX
  8
0
 62
7
  6
CONTINUOUS
 10
6.9576037943
 20
14.1268983146
  0
VERTEX
  8
0
 62
7
  6
CONTINUOUS
 10
6.9608345944
 20
14.125718681
  0
VERTEX
  8
0
 62
7
  6
CONTINUOUS
 10
6.9643261317
 20
14.1247111522
  0
SEQEND
  0
LINE
  8
0
 62
7
  6
CONTINUOUS
 10
6.9643261317
 20
14.1247111522
 11
6.9643261317
 21
14.1231375411
  0
LINE
  8
0
 62
7
  6
CONTINUOUS
 10
7.2708316873
 20
14.1231375411
 11
7.2708316873
 21
14.1247111522
  0
LINE
  8
0
 62
7
  6
CONTINUOUS
 10
7.2708316873
 20
14.4639305967
 11
7.2708316873
 21
14.4654972633
  0
LINE
  8
0
 62
7
  6
CONTINUOUS
 10
7.3773511317
 20
14.39212643
 11
7.3773511317
 21
14.1652917078
  0
LINE
  8
0
 62
7
  6
CONTINUOUS
 10
7.4092316873
 20
14.4654972633
 11
7.4092316873
 21
14.4639305967
  0
LINE
  8
0
 62
7
  6
CONTINUOUS
 10
7.6360191873
 20
14.1231375411
 11
7.6360191873
 21
14.1247111522
  0
LINE
  8
0
 62
7
  6
CONTINUOUS
 10
7.6360191873
 20
14.4639305967
 11
7.6360191873
 21
14.4654972633
  0
POLYLINE
  8
0
 62
7
  6
CONTINUOUS
 66
1
 70
0
  0
VERTEX
  8
0
 62
7
  6
CONTINUOUS
 10
7.3034386317
 20
14.39212643
  0
VERTEX
  8
0
 62
7
  6
CONTINUOUS
 10
7.3035658868
 20
14.4026411921
  0
VERTEX
  8
0
 62
7
  6
CONTINUOUS
 10
7.3035684728
 20
14.4106491688
  0
VERTEX
  8
0
 62
7
  6
CONTINUOUS
 10
7.3033287098
 20
14.4172330035
  0
VERTEX
  8
0
 62
7
  6
CONTINUOUS
 10
7.3028417632
 20
14.4229665282
  0
VERTEX
  8
0
 62
7
  6
CONTINUOUS
 10
7.3021129531
 20
14.4280732072
  0
VERTEX
  8
0
 62
7
  6
CONTINUOUS
 10
7.3011498825
 20
14.4326727578
  0
VERTEX
  8
0
 62
7
  6
CONTINUOUS
 10
7.2999597951
 20
14.4368421596
  0
VERTEX
  8
0
 62
7
  6
CONTINUOUS
 10
7.2985481077
 20
14.4406368684
  0
VERTEX
  8
0
 62
7
  6
CONTINUOUS
 10
7.2969174078
 20
14.444099637
  0
VERTEX
  8
0
 62
7
  6
CONTINUOUS
 10
7.2950667214
 20
14.4472645403
  0
VERTEX
  8
0
 62
7
  6
CONTINUOUS
 10
7.2929909913
 20
14.4501588595
  0
VERTEX
  8
0
 62
7
  6
CONTINUOUS
 10
7.2906807525
 20
14.4528039262
  0
VERTEX
  8
0
 62
7
  6
CONTINUOUS
 10
7.2881219993
 20
14.4552154514
  0
VERTEX
  8
0
 62
7
  6
CONTINUOUS
 10
7.2852962293
 20
14.457403627
  0
VERTEX
  8
0
 62
7
  6
CONTINUOUS
 10
7.2821806352
 20
14.4593731626
  0
VERTEX
  8
0
 62
7
  6
CONTINUOUS
 10
7.2787483981
 20
14.4611233536
  0
VERTEX
  8
0
 62
7
  6
CONTINUOUS
 10
7.2769041679
 20
14.461914518
  0
VERTEX
  8
0
 62
7
  6
CONTINUOUS
 10
7.2749718241
 20
14.4626472292
  0
VERTEX
  8
0
 62
7
  6
CONTINUOUS
 10
7.2708316873
 20
14.4639305967
  0
SEQEND
  0
POLYLINE
  8
0
 62
7
  6
CONTINUOUS
 66
1
 70
0
  0
VERTEX
  8
0
 62
7
  6
CONTINUOUS
 10
7.6298400206
 20
13.8362722633
  0
VERTEX
  8
0
 62
7
  6
CONTINUOUS
 10
7.6717511317
 20
13.9392861522
  0
VERTEX
  8
0
 62
7
  6
CONTINUOUS
 10
7.6725719651
 20
13.9414417078
  0
SEQEND
  0
LINE
  8
0
 62
7
  6
CONTINUOUS
 10
7.6725719651
 20
13.9205542078
 11
7.6545594651
 21
13.8763653189
  0
LINE
  8
0
 62
7
  6
CONTINUOUS
 10
7.6063219651
 20
14.1923236522
 11
7.5686566873
 21
14.1231375411
  0
LINE
  8
0
 62
7
  6
CONTINUOUS
 10
5.7028039095
 20
14.1304208745
 11
5.6817955762
 21
14.1954569856
  0
POLYLINE
  8
0
 62
7
  6
CONTINUOUS
 66
1
 70
0
  0
VERTEX
  8
0
 62
7
  6
CONTINUOUS
 10
7.6680303214
 20
14.1860451322
  0
VERTEX
  8
0
 62
7
  6
CONTINUOUS
 10
7.6679066873
 20
14.1959861522
  0
VERTEX
  8
0
 62
7
  6
CONTINUOUS
 10
7.6679066873
 20
14.39212643
  0
VERTEX
  8
0
 62
7
  6
CONTINUOUS
 10
7.6680233336
 20
14.4002376446
  0
VERTEX
  8
0
 62
7
  6
CONTINUOUS
 10
7.6680712255
 20
14.4026326095
  0
VERTEX
  8
0
 62
7
  6
CONTINUOUS
 10
7.6681363487
 20
14.410814539
  0
VERTEX
  8
0
 62
7
  6
CONTINUOUS
 10
7.6679540411
 20
14.4174471452
  0
VERTEX
  8
0
 62
7
  6
CONTINUOUS
 10
7.6675208325
 20
14.42318967
  0
VERTEX
  8
0
 62
7
  6
CONTINUOUS
 10
7.6668428962
 20
14.4282876448
  0
VERTEX
  8
0
 62
7
  6
CONTINUOUS
 10
7.665928368
 20
14.4328696157
  0
VERTEX
  8
0
 62
7
  6
CONTINUOUS
 10
7.6647848538
 20
14.4370169982
  0
VERTEX
  8
0
 62
7
  6
CONTINUOUS
 10
7.6634180095
 20
14.4407878168
  0
VERTEX
  8
0
 62
7
  6
CONTINUOUS
 10
7.6618305462
 20
14.4442264612
  0
VERTEX
  8
0
 62
7
  6
CONTINUOUS
 10
7.6600214886
 20
14.4473681162
  0
VERTEX
  8
0
 62
7
  6
CONTINUOUS
 10
7.6579856405
 20
14.4502408391
  0
VERTEX
  8
0
 62
7
  6
CONTINUOUS
 10
7.6557132498
 20
14.4528664994
  0
VERTEX
  8
0
 62
7
  6
CONTINUOUS
 10
7.6531898705
 20
14.4552611583
  0
VERTEX
  8
0
 62
7
  6
CONTINUOUS
 10
7.6503964073
 20
14.4574351967
  0
VERTEX
  8
0
 62
7
  6
CONTINUOUS
 10
7.6473093137
 20
14.459393372
  0
VERTEX
  8
0
 62
7
  6
CONTINUOUS
 10
7.6439008945
 20
14.4611349015
  0
VERTEX
  8
0
 62
7
  6
CONTINUOUS
 10
7.6401449365
 20
14.4626517435
  0
VERTEX
  8
0
 62
7
  6
CONTINUOUS
 10
7.6360191873
 20
14.4639305967
  0
SEQEND
  0
POLYLINE
  8
0
 62
7
  6
CONTINUOUS
 66
1
 70
0
  0
VERTEX
  8
0
 62
7
  6
CONTINUOUS
 10
7.741687687
 20
14.4018188462
  0
VERTEX
  8
0
 62
7
  6
CONTINUOUS
 10
7.7418066873
 20
14.39212643
  0
VERTEX
  8
0
 62
7
  6
CONTINUOUS
 10
7.7418066873
 20
14.1959861522
  0
SEQEND
  0
POLYLINE
  8
0
 62
7
  6
CONTINUOUS
 66
1
 70
0
  0
VERTEX
  8
0
 62
7
  6
CONTINUOUS
 10
8.7468385562
 20
14.2374883977
  0
VERTEX
  8
0
 62
7
  6
CONTINUOUS
 10
8.7468078003
 20
14.242910797
  0
VERTEX
  8
0
 62
7
  6
CONTINUOUS
 10
8.7467085301
 20
14.2472263003
  0
VERTEX
  8
0
 62
7
  6
CONTINUOUS
 10
8.7465349645
 20
14.2509558612
  0
VERTEX
  8
0
 62
7
  6
CONTINUOUS
 10
8.7462859721
 20
14.2542943527
  0
VERTEX
  8
0
 62
7
  6
CONTINUOUS
 10
8.7459616951
 20
14.2573405376
  0
VERTEX
  8
0
 62
7
  6
CONTINUOUS
 10
8.7455627325
 20
14.2601533225
  0
VERTEX
  8
0
 62
7
  6
CONTINUOUS
 10
8.7450898118
 20
14.2627716966
  0
VERTEX
  8
0
 62
7
  6
CONTINUOUS
 10
8.7445436116
 20
14.2652234211
  0
VERTEX
  8
0
 62
7
  6
CONTINUOUS
 10
8.7439246452
 20
14.2675293576
  0
VERTEX
  8
0
 62
7
  6
CONTINUOUS
 10
8.7432331754
 20
14.2697058359
  0
VERTEX
  8
0
 62
7
  6
CONTINUOUS
 10
8.7424691457
 20
14.2717660405
  0
VERTEX
  8
0
 62
7
  6
CONTINUOUS
 10
8.7416321251
 20
14.2737208656
  0
VERTEX
  8
0
 62
7
  6
CONTINUOUS
 10
8.7407212612
 20
14.2755794605
  0
VERTEX
  8
0
 62
7
  6
CONTINUOUS
 10
8.7397352423
 20
14.2773495896
  0
VERTEX
  8
0
 62
7
  6
CONTINUOUS
 10
8.7386722672
 20
14.2790378726
  0
VERTEX
  8
0
 62
7
  6
CONTINUOUS
 10
8.7375300225
 20
14.2806499491
  0
VERTEX
  8
0
 62
7
  6
CONTINUOUS
 10
8.7363056671
 20
14.2821905909
  0
VERTEX
  8
0
 62
7
  6
CONTINUOUS
 10
8.7349958237
 20
14.2836637812
  0
VERTEX
  8
0
 62
7
  6
CONTINUOUS
 10
8.7335965767
 20
14.2850727715
  0
VERTEX
  8
0
 62
7
  6
CONTINUOUS
 10
8.7321034751
 20
14.2864201228
  0
VERTEX
  8
0
 62
7
  6
CONTINUOUS
 10
8.7305115408
 20
14.2877077391
  0
VERTEX
  8
0
 62
7
  6
CONTINUOUS
 10
8.7288152794
 20
14.288936894
  0
VERTEX
  8
0
 62
7
  6
CONTINUOUS
 10
8.7270086941
 20
14.2901082553
  0
VERTEX
  8
0
 62
7
  6
CONTINUOUS
 10
8.7260618402
 20
14.2906724175
  0
VERTEX
  8
0
 62
7
  6
CONTINUOUS
 10
8.7250853365
 20
14.2912218883
  0
VERTEX
  8
0
 62
7
  6
CONTINUOUS
 10
8.7230415165
 20
14.2922757362
  0
VERTEX
  8
0
 62
7
  6
CONTINUOUS
 10
8.7208700973
 20
14.2932692176
  0
VERTEX
  8
0
 62
7
  6
CONTINUOUS
 10
8.7185634948
 20
14.2942012077
  0
VERTEX
  8
0
 62
7
  6
CONTINUOUS
 10
8.7161136904
 20
14.2950700641
  0
VERTEX
  8
0
 62
7
  6
CONTINUOUS
 10
8.7135122428
 20
14.2958736522
  0
SEQEND
  0
POLYLINE
  8
0
 62
7
  6
CONTINUOUS
 66
1
 70
0
  0
VERTEX
  8
0
 62
7
  6
CONTINUOUS
 10
7.7624497428
 20
13.8131597633
  0
VERTEX
  8
0
 62
7
  6
CONTINUOUS
 10
7.7624497428
 20
13.9365319856
  0
VERTEX
  8
0
 62
7
  6
CONTINUOUS
 10
7.7961677984
 20
13.9365319856
  0
VERTEX
  8
0
 62
7
  6
CONTINUOUS
 10
7.7961677984
 20
13.8995722633
  0
VERTEX
  8
0
 62
7
  6
CONTINUOUS
 10
7.7959039095
 20
13.8995722633
  0
VERTEX
  8
0
 62
7
  6
CONTINUOUS
 10
7.8280080762
 20
13.9364778189
  0
VERTEX
  8
0
 62
7
  6
CONTINUOUS
 10
7.8716886317
 20
13.9364778189
  0
SEQEND
  0
LINE
  8
0
 62
7
  6
CONTINUOUS
 10
7.7737066873
 20
14.4654972633
 11
7.7737066873
 21
14.4639305967
  0
LINE
  8
0
 62
7
  6
CONTINUOUS
 10
7.7737066873
 20
14.1247111522
 11
7.7737066873
 21
14.1231375411
  0
LINE
  8
0
 62
7
  6
CONTINUOUS
 10
7.8505025206
 20
14.1231375411
 11
7.8505025206
 21
14.1247111522
  0
LINE
  8
0
 62
7
  6
CONTINUOUS
 10
7.8512289095
 20
14.4639305967
 11
7.8512289095
 21
14.4654972633
  0
POLYLINE
  8
0
 62
7
  6
CONTINUOUS
 66
1
 70
0
  0
VERTEX
  8
0
 62
7
  6
CONTINUOUS
 10
7.9410858539
 20
14.39212643
  0
VERTEX
  8
0
 62
7
  6
CONTINUOUS
 10
7.9410858539
 20
14.1907778189
  0
VERTEX
  8
0
 62
7
  6
CONTINUOUS
 10
7.9411046572
 20
14.1822084926
  0
VERTEX
  8
0
 62
7
  6
CONTINUOUS
 10
7.9412332679
 20
14.176215473
  0
VERTEX
  8
0
 62
7
  6
CONTINUOUS
 10
7.9414968887
 20
14.171380986
  0
VERTEX
  8
0
 62
7
  6
CONTINUOUS
 10
7.9419001989
 20
14.1672310106
  0
VERTEX
  8
0
 62
7
  6
CONTINUOUS
 10
7.9424452832
 20
14.1635472384
  0
VERTEX
  8
0
 62
7
  6
CONTINUOUS
 10
7.9431344479
 20
14.1602055447
  0
VERTEX
  8
0
 62
7
  6
CONTINUOUS
 10
7.943971228
 20
14.1571259498
  0
VERTEX
  8
0
 62
7
  6
CONTINUOUS
 10
7.9449609503
 20
14.1542524427
  0
VERTEX
  8
0
 62
7
  6
CONTINUOUS
 10
7.9461111352
 20
14.1515434406
  0
VERTEX
  8
0
 62
7
  6
CONTINUOUS
 10
7.9474318133
 20
14.1489667709
  0
VERTEX
  8
0
 62
7
  6
CONTINUOUS
 10
7.948935785
 20
14.1464968226
  0
VERTEX
  8
0
 62
7
  6
CONTINUOUS
 10
7.950638835
 20
14.1441128279
  0
VERTEX
  8
0
 62
7
  6
CONTINUOUS
 10
7.9525599139
 20
14.1417977665
  0
VERTEX
  8
0
 62
7
  6
CONTINUOUS
 10
7.9536095638
 20
14.1406610597
  0
VERTEX
  8
0
 62
7
  6
CONTINUOUS
 10
7.9547213027
 20
14.1395376256
  0
VERTEX
  8
0
 62
7
  6
CONTINUOUS
 10
7.9571381585
 20
14.1373299509
  0
VERTEX
  8
0
 62
7
  6
CONTINUOUS
 10
7.9598363111
 20
14.1351647311
  0
VERTEX
  8
0
 62
7
  6
CONTINUOUS
 10
7.9628462271
 20
14.133032873
  0
VERTEX
  8
0
 62
7
  6
CONTINUOUS
 10
7.9662021659
 20
14.1309269959
  0
VERTEX
  8
0
 62
7
  6
CONTINUOUS
 10
7.9699424218
 20
14.1288411315
  0
VERTEX
  8
0
 62
7
  6
CONTINUOUS
 10
7.9741096281
 20
14.1267704714
  0
VERTEX
  8
0
 62
7
  6
CONTINUOUS
 10
7.9787511317
 20
14.1247111522
  0
SEQEND
  0
LINE
  8
0
 62
7
  6
CONTINUOUS
 10
7.9570164095
 20
14.4654972633
 11
7.9570164095
 21
14.4649680967
  0
LINE
  8
0
 62
7
  6
CONTINUOUS
 10
7.9787511317
 20
14.1247111522
 11
7.9787511317
 21
14.1231375411
  0
POLYLINE
  8
0
 62
7
  6
CONTINUOUS
 66
1
 70
0
  0
VERTEX
  8
0
 62
7
  6
CONTINUOUS
 10
7.9895886317
 20
13.8131597633
  0
VERTEX
  8
0
 62
7
  6
CONTINUOUS
 10
7.9895886317
 20
13.9365319856
  0
VERTEX
  8
0
 62
7
  6
CONTINUOUS
 10
8.0232525206
 20
13.9365319856
  0
VERTEX
  8
0
 62
7
  6
CONTINUOUS
 10
8.0232525206
 20
13.8932653189
  0
VERTEX
  8
0
 62
7
  6
CONTINUOUS
 10
8.0572969651
 20
13.8932653189
  0
VERTEX
  8
0
 62
7
  6
CONTINUOUS
 10
8.0572969651
 20
13.9365319856
  0
VERTEX
  8
0
 62
7
  6
CONTINUOUS
 10
8.0909539095
 20
13.9365319856
  0
SEQEND
  0
POLYLINE
  8
0
 62
7
  6
CONTINUOUS
 66
1
 70
0
  0
VERTEX
  8
0
 62
7
  6
CONTINUOUS
 10
8.0909539095
 20
13.9365319856
  0
VERTEX
  8
0
 62
7
  6
CONTINUOUS
 10
8.0909539095
 20
13.8131597633
  0
VERTEX
  8
0
 62
7
  6
CONTINUOUS
 10
8.0572969651
 20
13.8131597633
  0
VERTEX
  8
0
 62
7
  6
CONTINUOUS
 10
8.0572969651
 20
13.8590583745
  0
VERTEX
  8
0
 62
7
  6
CONTINUOUS
 10
8.0232525206
 20
13.8590583745
  0
VERTEX
  8
0
 62
7
  6
CONTINUOUS
 10
8.0232525206
 20
13.8131597633
  0
VERTEX
  8
0
 62
7
  6
CONTINUOUS
 10
7.9895886317
 20
13.8131597633
  0
SEQEND
  0
POLYLINE
  8
0
 62
7
  6
CONTINUOUS
 66
1
 70
0
  0
VERTEX
  8
0
 62
7
  6
CONTINUOUS
 10
8.1007191873
 20
13.8131597633
  0
VERTEX
  8
0
 62
7
  6
CONTINUOUS
 10
8.1007191873
 20
13.9365319856
  0
VERTEX
  8
0
 62
7
  6
CONTINUOUS
 10
8.1344386317
 20
13.9365319856
  0
SEQEND
  0
POLYLINE
  8
0
 62
7
  6
CONTINUOUS
 66
1
 70
0
  0
VERTEX
  8
0
 62
7
  6
CONTINUOUS
 10
8.1344386317
 20
13.9365319856
  0
VERTEX
  8
0
 62
7
  6
CONTINUOUS
 10
8.1344386317
 20
13.8446542078
  0
VERTEX
  8
0
 62
7
  6
CONTINUOUS
 10
8.1722941873
 20
13.8446542078
  0
VERTEX
  8
0
 62
7
  6
CONTINUOUS
 10
8.1722941873
 20
13.8131597633
  0
SEQEND
  0
LINE
  8
0
 62
7
  6
CONTINUOUS
 10
8.1812177984
 20
13.8131597633
 11
8.1812177984
 21
13.9365319856
  0
LINE
  8
0
 62
7
  6
CONTINUOUS
 10
8.2055650206
 20
14.4639305967
 11
8.2055650206
 21
14.4654972633
  0
POLYLINE
  8
0
 62
7
  6
CONTINUOUS
 66
1
 70
0
  0
VERTEX
  8
0
 62
7
  6
CONTINUOUS
 10
8.2496455762
 20
13.9365319856
  0
VERTEX
  8
0
 62
7
  6
CONTINUOUS
 10
8.2496455762
 20
13.9080903189
  0
VERTEX
  8
0
 62
7
  6
CONTINUOUS
 10
8.2157775206
 20
13.9080361522
  0
VERTEX
  8
0
 62
7
  6
CONTINUOUS
 10
8.2156289095
 20
13.8885722633
  0
VERTEX
  8
0
 62
7
  6
CONTINUOUS
 10
8.2469330762
 20
13.8885722633
  0
VERTEX
  8
0
 62
7
  6
CONTINUOUS
 10
8.2469330762
 20
13.8609305967
  0
VERTEX
  8
0
 62
7
  6
CONTINUOUS
 10
8.2157233539
 20
13.8609305967
  0
VERTEX
  8
0
 62
7
  6
CONTINUOUS
 10
8.2157233539
 20
13.8421042078
  0
VERTEX
  8
0
 62
7
  6
CONTINUOUS
 10
8.2499039095
 20
13.8421042078
  0
VERTEX
  8
0
 62
7
  6
CONTINUOUS
 10
8.2499039095
 20
13.8131597633
  0
SEQEND
  0
LINE
  8
0
 62
7
  6
CONTINUOUS
 10
8.2588150206
 20
13.8132417078
 11
8.2588150206
 21
13.9365319856
  0
LINE
  8
0
 62
7
  6
CONTINUOUS
 10
8.2917469651
 20
13.9079542078
 11
8.2917469651
 21
13.8841917078
  0
LINE
  8
0
 62
7
  6
CONTINUOUS
 10
8.2918011317
 20
13.8510153189
 11
8.2918011317
 21
13.8132417078
  0
LINE
  8
0
 62
7
  6
CONTINUOUS
 10
8.3331011317
 20
14.4654972633
 11
8.3331011317
 21
14.4639305967
  0
LINE
  8
0
 62
7
  6
CONTINUOUS
 10
8.4698066873
 20
13.8567667078
 11
8.4698066873
 21
13.8593167078
  0
LINE
  8
0
 62
7
  6
CONTINUOUS
 10
8.4698066873
 20
13.9130000411
 11
8.4698066873
 21
13.9242028189
  0
LINE
  8
0
 62
7
  6
CONTINUOUS
 10
8.7044664095
 20
13.8362722633
 11
8.7044664095
 21
13.9366680967
  0
LINE
  8
0
 62
7
  6
CONTINUOUS
 10
8.7125900206
 20
13.9289375411
 11
8.7125900206
 21
13.8907430967
  0
LINE
  8
0
 62
7
  6
CONTINUOUS
 10
8.7125900206
 20
13.8830250411
 11
8.7125900206
 21
13.8362722633
  0
LINE
  8
0
 62
7
  6
CONTINUOUS
 10
8.7135122428
 20
14.2958736522
 11
8.7135122428
 21
14.29742643
  0
LINE
  8
0
 62
7
  6
CONTINUOUS
 10
8.7468386317
 20
14.1621583745
 11
8.7468385562
 21
14.2374883977
  0
LINE
  8
0
 62
7
  6
CONTINUOUS
 10
8.7692983539
 20
14.4649680967
 11
8.7692983539
 21
14.4051333745
  0
LINE
  8
0
 62
7
  6
CONTINUOUS
 10
8.8207441873
 20
14.2735000411
 11
8.8207441873
 21
14.1538375411
  0
LINE
  8
0
 62
7
  6
CONTINUOUS
 10
8.8243664095
 20
14.29742643
 11
8.8243664095
 21
14.2958736522
  0
LINE
  8
0
 62
7
  6
CONTINUOUS
 10
8.8278525206
 20
13.9392861522
 11
8.8278525206
 21
13.8362722633
  0
LINE
  8
0
 62
7
  6
CONTINUOUS
 10
8.8359497428
 20
13.8362722633
 11
8.8359497428
 21
13.9194972633
  0
LINE
  8
0
 62
7
  6
CONTINUOUS
 10
8.8510052984
 20
14.12842643
 11
8.8510052984
 21
14.1565236522
  0
POLYLINE
  8
0
 62
7
  6
CONTINUOUS
 66
1
 70
0
  0
VERTEX
  8
0
 62
7
  6
CONTINUOUS
 10
8.2432441873
 20
14.2011805967
  0
VERTEX
  8
0
 62
7
  6
CONTINUOUS
 10
8.2432449274
 20
14.4005966059
  0
VERTEX
  8
0
 62
7
  6
CONTINUOUS
 10
8.2432083653
 20
14.4083800036
  0
VERTEX
  8
0
 62
7
  6
CONTINUOUS
 10
8.2430530568
 20
14.4140115065
  0
VERTEX
  8
0
 62
7
  6
CONTINUOUS
 10
8.2427636012
 20
14.4186358368
  0
VERTEX
  8
0
 62
7
  6
CONTINUOUS
 10
8.2423366009
 20
14.4226387822
  0
VERTEX
  8
0
 62
7
  6
CONTINUOUS
 10
8.2417702825
 20
14.4262088079
  0
VERTEX
  8
0
 62
7
  6
CONTINUOUS
 10
8.2410624123
 20
14.4294566483
  0
VERTEX
  8
0
 62
7
  6
CONTINUOUS
 10
8.2402094558
 20
14.4324551679
  0
VERTEX
  8
0
 62
7
  6
CONTINUOUS
 10
8.2392060749
 20
14.4352561258
  0
VERTEX
  8
0
 62
7
  6
CONTINUOUS
 10
8.2380447575
 20
14.4378983234
  0
VERTEX
  8
0
 62
7
  6
CONTINUOUS
 10
8.2367155208
 20
14.4404119716
  0
VERTEX
  8
0
 62
7
  6
CONTINUOUS
 10
8.2352056687
 20
14.4428212049
  0
VERTEX
  8
0
 62
7
  6
CONTINUOUS
 10
8.2334995903
 20
14.4451456147
  0
VERTEX
  8
0
 62
7
  6
CONTINUOUS
 10
8.2315785897
 20
14.4474012351
  0
VERTEX
  8
0
 62
7
  6
CONTINUOUS
 10
8.2305301417
 20
14.4485080974
  0
VERTEX
  8
0
 62
7
  6
CONTINUOUS
 10
8.2294207314
 20
14.4496012168
  0
VERTEX
  8
0
 62
7
  6
CONTINUOUS
 10
8.2270121641
 20
14.4517467386
  0
VERTEX
  8
0
 62
7
  6
CONTINUOUS
 10
8.2243266302
 20
14.4538480525
  0
VERTEX
  8
0
 62
7
  6
CONTINUOUS
 10
8.2213342591
 20
14.455913515
  0
VERTEX
  8
0
 62
7
  6
CONTINUOUS
 10
8.2180015047
 20
14.4579497979
  0
VERTEX
  8
0
 62
7
  6
CONTINUOUS
 10
8.2142909118
 20
14.4599621683
  0
VERTEX
  8
0
 62
7
  6
CONTINUOUS
 10
8.2101608236
 20
14.4619547244
  0
VERTEX
  8
0
 62
7
  6
CONTINUOUS
 10
8.2055650206
 20
14.4639305967
  0
SEQEND
  0
POLYLINE
  8
0
 62
7
  6
CONTINUOUS
 66
1
 70
0
  0
VERTEX
  8
0
 62
7
  6
CONTINUOUS
 10
7.7418066873
 20
14.1959861522
  0
VERTEX
  8
0
 62
7
  6
CONTINUOUS
 10
7.7416930366
 20
14.1866972764
  0
VERTEX
  8
0
 62
7
  6
CONTINUOUS
 10
7.7416612371
 20
14.1784803515
  0
VERTEX
  8
0
 62
7
  6
CONTINUOUS
 10
7.7418695275
 20
14.171791082
  0
VERTEX
  8
0
 62
7
  6
CONTINUOUS
 10
7.7423255198
 20
14.1659814644
  0
VERTEX
  8
0
 62
7
  6
CONTINUOUS
 10
7.7430242915
 20
14.1608131278
  0
VERTEX
  8
0
 62
7
  6
CONTINUOUS
 10
7.7439580444
 20
14.1561618066
  0
VERTEX
  8
0
 62
7
  6
CONTINUOUS
 10
7.7451190531
 20
14.1519487242
  0
VERTEX
  8
0
 62
7
  6
CONTINUOUS
 10
7.7465012378
 20
14.1481174963
  0
VERTEX
  8
0
 62
7
  6
CONTINUOUS
 10
7.7481012196
 20
14.144624719
  0
VERTEX
  8
0
 62
7
  6
CONTINUOUS
 10
7.7499190883
 20
14.1414357302
  0
VERTEX
  8
0
 62
7
  6
CONTINUOUS
 10
7.7519589538
 20
14.1385226467
  0
VERTEX
  8
0
 62
7
  6
CONTINUOUS
 10
7.7542292992
 20
14.1358634951
  0
VERTEX
  8
0
 62
7
  6
CONTINUOUS
 10
7.7567431395
 20
14.1334418863
  0
VERTEX
  8
0
 62
7
  6
CONTINUOUS
 10
7.7595179988
 20
14.1312469322
  0
VERTEX
  8
0
 62
7
  6
CONTINUOUS
 10
7.7625757324
 20
14.1292732342
  0
VERTEX
  8
0
 62
7
  6
CONTINUOUS
 10
7.7659422377
 20
14.1275208422
  0
VERTEX
  8
0
 62
7
  6
CONTINUOUS
 10
7.7677513283
 20
14.1267287288
  0
VERTEX
  8
0
 62
7
  6
CONTINUOUS
 10
7.7696471041
 20
14.1259951381
  0
VERTEX
  8
0
 62
7
  6
CONTINUOUS
 10
7.7737066873
 20
14.1247111522
  0
SEQEND
  0
POLYLINE
  8
0
 62
7
  6
CONTINUOUS
 66
1
 70
0
  0
VERTEX
  8
0
 62
7
  6
CONTINUOUS
 10
7.8554802984
 20
13.8758903189
  0
VERTEX
  8
0
 62
7
  6
CONTINUOUS
 10
7.8555371255
 20
13.8789740076
  0
VERTEX
  8
0
 62
7
  6
CONTINUOUS
 10
7.8557371781
 20
13.8820390939
  0
VERTEX
  8
0
 62
7
  6
CONTINUOUS
 10
7.8560796641
 20
13.8850815679
  0
VERTEX
  8
0
 62
7
  6
CONTINUOUS
 10
7.8565636922
 20
13.888097118
  0
VERTEX
  8
0
 62
7
  6
CONTINUOUS
 10
7.8571882265
 20
13.8910811284
  0
VERTEX
  8
0
 62
7
  6
CONTINUOUS
 10
7.8579520411
 20
13.8940286837
  0
VERTEX
  8
0
 62
7
  6
CONTINUOUS
 10
7.8588536743
 20
13.8969345814
  0
VERTEX
  8
0
 62
7
  6
CONTINUOUS
 10
7.8598913856
 20
13.8997933537
  0
VERTEX
  8
0
 62
7
  6
CONTINUOUS
 10
7.8610631163
 20
13.9025992978
  0
VERTEX
  8
0
 62
7
  6
CONTINUOUS
 10
7.8623664559
 20
13.9053465155
  0
VERTEX
  8
0
 62
7
  6
CONTINUOUS
 10
7.8637986154
 20
13.9080289611
  0
VERTEX
  8
0
 62
7
  6
CONTINUOUS
 10
7.8653564103
 20
13.9106404962
  0
VERTEX
  8
0
 62
7
  6
CONTINUOUS
 10
7.8670362534
 20
13.9131749516
  0
VERTEX
  8
0
 62
7
  6
CONTINUOUS
 10
7.8688341591
 20
13.9156261919
  0
VERTEX
  8
0
 62
7
  6
CONTINUOUS
 10
7.8707457596
 20
13.9179881829
  0
VERTEX
  8
0
 62
7
  6
CONTINUOUS
 10
7.8711214509
 20
13.918426405
  0
VERTEX
  8
0
 62
7
  6
CONTINUOUS
 10
7.8731611719
 20
13.9206735147
  0
VERTEX
  8
0
 62
7
  6
CONTINUOUS
 10
7.8753022703
 20
13.9228175253
  0
VERTEX
  8
0
 62
7
  6
CONTINUOUS
 10
7.8775392521
 20
13.9248534093
  0
VERTEX
  8
0
 62
7
  6
CONTINUOUS
 10
7.8798664774
 20
13.9267765126
  0
VERTEX
  8
0
 62
7
  6
CONTINUOUS
 10
7.8822782248
 20
13.9285825801
  0
VERTEX
  8
0
 62
7
  6
CONTINUOUS
 10
7.8847687565
 20
13.9302677688
  0
VERTEX
  8
0
 62
7
  6
CONTINUOUS
 10
7.8873323801
 20
13.9318286495
  0
VERTEX
  8
0
 62
7
  6
CONTINUOUS
 10
7.8899635077
 20
13.933262196
  0
VERTEX
  8
0
 62
7
  6
CONTINUOUS
 10
7.8926567071
 20
13.9345657648
  0
VERTEX
  8
0
 62
7
  6
CONTINUOUS
 10
7.8954067472
 20
13.9357370657
  0
VERTEX
  8
0
 62
7
  6
CONTINUOUS
 10
7.8982086336
 20
13.9367741247
  0
VERTEX
  8
0
 62
7
  6
CONTINUOUS
 10
7.901057637
 20
13.9376752423
  0
VERTEX
  8
0
 62
7
  6
CONTINUOUS
 10
7.9039493117
 20
13.9384389473
  0
VERTEX
  8
0
 62
7
  6
CONTINUOUS
 10
7.9068795064
 20
13.93906395
  0
VERTEX
  8
0
 62
7
  6
CONTINUOUS
 10
7.9098443667
 20
13.9395490939
  0
VERTEX
  8
0
 62
7
  6
CONTINUOUS
 10
7.9128403315
 20
13.9398933095
  0
VERTEX
  8
0
 62
7
  6
CONTINUOUS
 10
7.9158641221
 20
13.9400955699
  0
VERTEX
  8
0
 62
7
  6
CONTINUOUS
 10
7.9189127276
 20
13.94015485
  0
VERTEX
  8
0
 62
7
  6
CONTINUOUS
 10
7.9219523785
 20
13.9400705827
  0
VERTEX
  8
0
 62
7
  6
CONTINUOUS
 10
7.9249712266
 20
13.9398433602
  0
VERTEX
  8
0
 62
7
  6
CONTINUOUS
 10
7.9279660714
 20
13.9394740018
  0
VERTEX
  8
0
 62
7
  6
CONTINUOUS
 10
7.930933413
 20
13.9389633496
  0
VERTEX
  8
0
 62
7
  6
CONTINUOUS
 10
7.9338694362
 20
13.9383123149
  0
VERTEX
  8
0
 62
7
  6
CONTINUOUS
 10
7.936770002
 20
13.9375219269
  0
VERTEX
  8
0
 62
7
  6
CONTINUOUS
 10
7.939630645
 20
13.9365933845
  0
VERTEX
  8
0
 62
7
  6
CONTINUOUS
 10
7.9424465795
 20
13.9355281079
  0
VERTEX
  8
0
 62
7
  6
CONTINUOUS
 10
7.9452127138
 20
13.9343277901
  0
VERTEX
  8
0
 62
7
  6
CONTINUOUS
 10
7.9479236749
 20
13.9329944447
  0
VERTEX
  8
0
 62
7
  6
CONTINUOUS
 10
7.9505738416
 20
13.9315304496
  0
VERTEX
  8
0
 62
7
  6
CONTINUOUS
 10
7.9531573885
 20
13.9299385839
  0
VERTEX
  8
0
 62
7
  6
CONTINUOUS
 10
7.9556683377
 20
13.9282220558
  0
VERTEX
  8
0
 62
7
  6
CONTINUOUS
 10
7.9581006197
 20
13.92638452
  0
VERTEX
  8
0
 62
7
  6
CONTINUOUS
 10
7.9604481389
 20
13.9244300833
  0
VERTEX
  8
0
 62
7
  6
CONTINUOUS
 10
7.9627048447
 20
13.9223632971
  0
VERTEX
  8
0
 62
7
  6
CONTINUOUS
 10
7.9648648032
 20
13.9201891362
  0
VERTEX
  8
0
 62
7
  6
CONTINUOUS
 10
7.9669222678
 20
13.9179129648
  0
VERTEX
  8
0
 62
7
  6
CONTINUOUS
 10
7.9669724372
 20
13.9178546929
  0
VERTEX
  8
0
 62
7
  6
CONTINUOUS
 10
7.9689178477
 20
13.9154815409
  0
VERTEX
  8
0
 62
7
  6
CONTINUOUS
 10
7.9707488483
 20
13.9130201596
  0
VERTEX
  8
0
 62
7
  6
CONTINUOUS
 10
7.9724609465
 20
13.9104768652
  0
VERTEX
  8
0
 62
7
  6
CONTINUOUS
 10
7.9740500764
 20
13.9078580579
  0
VERTEX
  8
0
 62
7
  6
CONTINUOUS
 10
7.9755126135
 20
13.9051701481
  0
VERTEX
  8
0
 62
7
  6
CONTINUOUS
 10
7.9768453755
 20
13.9024194863
  0
VERTEX
  8
0
 62
7
  6
CONTINUOUS
 10
7.9780456115
 20
13.8996122977
  0
VERTEX
  8
0
 62
7
  6
CONTINUOUS
 10
7.9791109802
 20
13.8967546244
  0
VERTEX
  8
0
 62
7
  6
CONTINUOUS
 10
7.9800395179
 20
13.8938522765
  0
VERTEX
  8
0
 62
7
  6
CONTINUOUS
 10
7.9808295992
 20
13.8909107918
  0
VERTEX
  8
0
 62
7
  6
CONTINUOUS
 10
7.9814798922
 20
13.8879354065
  0
VERTEX
  8
0
 62
7
  6
CONTINUOUS
 10
7.9819893097
 20
13.8849310358
  0
VERTEX
  8
0
 62
7
  6
CONTINUOUS
 10
7.9823569589
 20
13.8819022628
  0
VERTEX
  8
0
 62
7
  6
CONTINUOUS
 10
7.9825820904
 20
13.8788533373
  0
VERTEX
  8
0
 62
7
  6
CONTINUOUS
 10
7.9826640495
 20
13.8757881817
  0
VERTEX
  8
0
 62
7
  6
CONTINUOUS
 10
7.9826024335
 20
13.8727054332
  0
VERTEX
  8
0
 62
7
  6
CONTINUOUS
 10
7.9823976242
 20
13.8696415508
  0
VERTEX
  8
0
 62
7
  6
CONTINUOUS
 10
7.9820504197
 20
13.8666005104
  0
VERTEX
  8
0
 62
7
  6
CONTINUOUS
 10
7.981561715
 20
13.8635865891
  0
VERTEX
  8
0
 62
7
  6
CONTINUOUS
 10
7.9809325466
 20
13.8606043683
  0
VERTEX
  8
0
 62
7
  6
CONTINUOUS
 10
7.9801641386
 20
13.8576587298
  0
VERTEX
  8
0
 62
7
  6
CONTINUOUS
 10
7.9792579487
 20
13.8547548433
  0
VERTEX
  8
0
 62
7
  6
CONTINUOUS
 10
7.9782157109
 20
13.8518981456
  0
VERTEX
  8
0
 62
7
  6
CONTINUOUS
 10
7.9770394758
 20
13.8490943109
  0
VERTEX
  8
0
 62
7
  6
CONTINUOUS
 10
7.9757316446
 20
13.8463492117
  0
VERTEX
  8
0
 62
7
  6
CONTINUOUS
 10
7.9742949964
 20
13.8436688718
  0
VERTEX
  8
0
 62
7
  6
CONTINUOUS
 10
7.9727327056
 20
13.8410594113
  0
VERTEX
  8
0
 62
7
  6
CONTINUOUS
 10
7.9710483502
 20
13.8385269858
  0
VERTEX
  8
0
 62
7
  6
CONTINUOUS
 10
7.969245908
 20
13.8360777213
  0
VERTEX
  8
0
 62
7
  6
CONTINUOUS
 10
7.9673297416
 20
13.8337176478
  0
VERTEX
  8
0
 62
7
  6
CONTINUOUS
 10
7.9669724065
 20
13.8333019479
  0
VERTEX
  8
0
 62
7
  6
CONTINUOUS
 10
7.9649289374
 20
13.8310555579
  0
VERTEX
  8
0
 62
7
  6
CONTINUOUS
 10
7.9627840009
 20
13.8289121816
  0
VERTEX
  8
0
 62
7
  6
CONTINUOUS
 10
7.9605430991
 20
13.8268768612
  0
VERTEX
  8
0
 62
7
  6
CONTINUOUS
 10
7.9582118853
 20
13.8249542683
  0
VERTEX
  8
0
 62
7
  6
CONTINUOUS
 10
7.9557960994
 20
13.8231486768
  0
VERTEX
  8
0
 62
7
  6
CONTINUOUS
 10
7.9533015029
 20
13.8214639491
  0
VERTEX
  8
0
 62
7
  6
CONTINUOUS
 10
7.9507338158
 20
13.8199035339
  0
VERTEX
  8
0
 62
7
  6
CONTINUOUS
 10
7.9480986584
 20
13.8184704751
  0
VERTEX
  8
0
 62
7
  6
CONTINUOUS
 10
7.9454014981
 20
13.8171674319
  0
VERTEX
  8
0
 62
7
  6
CONTINUOUS
 10
7.9426476042
 20
13.8159967079
  0
VERTEX
  8
0
 62
7
  6
CONTINUOUS
 10
7.939842011
 20
13.8149602865
  0
VERTEX
  8
0
 62
7
  6
CONTINUOUS
 10
7.9369894891
 20
13.8140598737
  0
VERTEX
  8
0
 62
7
  6
CONTINUOUS
 10
7.9340945258
 20
13.8132969424
  0
VERTEX
  8
0
 62
7
  6
CONTINUOUS
 10
7.9311613142
 20
13.8126727808
  0
VERTEX
  8
0
 62
7
  6
CONTINUOUS
 10
7.9281937493
 20
13.8121885393
  0
VERTEX
  8
0
 62
7
  6
CONTINUOUS
 10
7.925195432
 20
13.8118452777
  0
VERTEX
  8
0
 62
7
  6
CONTINUOUS
 10
7.9221696787
 20
13.8116440091
  0
VERTEX
  8
0
 62
7
  6
CONTINUOUS
 10
7.9191195365
 20
13.8115857417
  0
VERTEX
  8
0
 62
7
  6
CONTINUOUS
 10
7.9160629889
 20
13.8116710995
  0
VERTEX
  8
0
 62
7
  6
CONTINUOUS
 10
7.9130270292
 20
13.8118994403
  0
VERTEX
  8
0
 62
7
  6
CONTINUOUS
 10
7.9100151777
 20
13.8122699354
  0
VERTEX
  8
0
 62
7
  6
CONTINUOUS
 10
7.9070312553
 20
13.8127817008
  0
VERTEX
  8
0
 62
7
  6
CONTINUOUS
 10
7.904079393
 20
13.8134337521
  0
VERTEX
  8
0
 62
7
  6
CONTINUOUS
 10
7.9011640363
 20
13.8142249561
  0
VERTEX
  8
0
 62
7
  6
CONTINUOUS
 10
7.8982899409
 20
13.8151539821
  0
VERTEX
  8
0
 62
7
  6
CONTINUOUS
 10
7.8954621604
 20
13.8162192532
  0
VERTEX
  8
0
 62
7
  6
CONTINUOUS
 10
7.8926860259
 20
13.8174188999
  0
VERTEX
  8
0
 62
7
  6
CONTINUOUS
 10
7.8899671144
 20
13.8187507182
  0
VERTEX
  8
0
 62
7
  6
CONTINUOUS
 10
7.8873112101
 20
13.8202121324
  0
VERTEX
  8
0
 62
7
  6
CONTINUOUS
 10
7.8847242554
 20
13.8218001671
  0
VERTEX
  8
0
 62
7
  6
CONTINUOUS
 10
7.8822122947
 20
13.8235114274
  0
VERTEX
  8
0
 62
7
  6
CONTINUOUS
 10
7.8797814115
 20
13.8253420911
  0
VERTEX
  8
0
 62
7
  6
CONTINUOUS
 10
7.877437662
 20
13.8272879125
  0
VERTEX
  8
0
 62
7
  6
CONTINUOUS
 10
7.8751870055
 20
13.8293442387
  0
VERTEX
  8
0
 62
7
  6
CONTINUOUS
 10
7.8730352356
 20
13.8315060384
  0
VERTEX
  8
0
 62
7
  6
CONTINUOUS
 10
7.8727814832
 20
13.8317749036
  0
VERTEX
  8
0
 62
7
  6
CONTINUOUS
 10
7.8707486607
 20
13.8340468283
  0
VERTEX
  8
0
 62
7
  6
CONTINUOUS
 10
7.8688272997
 20
13.8364106985
  0
VERTEX
  8
0
 62
7
  6
CONTINUOUS
 10
7.8670219916
 20
13.8388605067
  0
VERTEX
  8
0
 62
7
  6
CONTINUOUS
 10
7.8653369196
 20
13.8413901528
  0
VERTEX
  8
0
 62
7
  6
CONTINUOUS
 10
7.863775843
 20
13.8439935132
  0
VERTEX
  8
0
 62
7
  6
CONTINUOUS
 10
7.8623420942
 20
13.846664508
  0
VERTEX
  8
0
 62
7
  6
CONTINUOUS
 10
7.8610385877
 20
13.8493971635
  0
VERTEX
  8
0
 62
7
  6
CONTINUOUS
 10
7.8598678391
 20
13.8521856683
  0
VERTEX
  8
0
 62
7
  6
CONTINUOUS
 10
7.8588319951
 20
13.8550244215
  0
VERTEX
  8
0
 62
7
  6
CONTINUOUS
 10
7.85793287
 20
13.8579080722
  0
VERTEX
  8
0
 62
7
  6
CONTINUOUS
 10
7.8571719885
 20
13.8608315493
  0
VERTEX
  8
0
 62
7
  6
CONTINUOUS
 10
7.8565506319
 20
13.8637900824
  0
VERTEX
  8
0
 62
7
  6
CONTINUOUS
 10
7.8560698873
 20
13.8667792135
  0
VERTEX
  8
0
 62
7
  6
CONTINUOUS
 10
7.8557306962
 20
13.8697948004
  0
VERTEX
  8
0
 62
7
  6
CONTINUOUS
 10
7.8555339026
 20
13.8728330121
  0
VERTEX
  8
0
 62
7
  6
CONTINUOUS
 10
7.8554802984
 20
13.8758903189
  0
SEQEND
  0
LINE
  8
0
 62
7
  6
CONTINUOUS
 10
8.4694539095
 20
13.8474208745
 11
8.4698066873
 21
13.8567667078
  0
LINE
  8
0
 62
7
  6
CONTINUOUS
 10
8.8243664095
 20
14.2958736522
 11
8.8207441873
 21
14.2735000411
  0
LINE
  8
0
 62
7
  6
CONTINUOUS
 10
8.5864914095
 20
13.8362722633
 11
8.6029039095
 21
13.9159708745
  0
LINE
  8
0
 62
7
  6
CONTINUOUS
 10
8.6005705762
 20
13.9421472633
 11
8.5785302984
 21
13.8362722633
  0
LINE
  8
0
 62
7
  6
CONTINUOUS
 10
8.6736636317
 20
13.9421472633
 11
8.6370427984
 21
13.85178893
  0
LINE
  8
0
 62
7
  6
CONTINUOUS
 10
8.6370427984
 20
13.8314430967
 11
8.6713039095
 21
13.9159708745
  0
POLYLINE
  8
0
 62
7
  6
CONTINUOUS
 66
1
 70
0
  0
VERTEX
  8
0
 62
7
  6
CONTINUOUS
 10
8.7372219651
 20
13.8362722633
  0
VERTEX
  8
0
 62
7
  6
CONTINUOUS
 10
8.7791052984
 20
13.9392861522
  0
VERTEX
  8
0
 62
7
  6
CONTINUOUS
 10
8.7799594651
 20
13.9414417078
  0
SEQEND
  0
LINE
  8
0
 62
7
  6
CONTINUOUS
 10
8.7799594651
 20
13.9206083745
 11
8.7619344651
 21
13.8763653189
  0
LINE
  8
0
 62
7
  6
CONTINUOUS
 10
8.9653164095
 20
13.8792819856
 11
8.9988177984
 21
13.9366680967
  0
LINE
  8
0
 62
7
  6
CONTINUOUS
 10
8.9903011317
 20
13.9366680967
 11
8.9613150206
 21
13.8876500411
  0
LINE
  8
0
 62
7
  6
CONTINUOUS
 10
7.8716886317
 20
13.9364778189
 11
7.8230094651
 21
13.8777625411
  0
LINE
  8
0
 62
7
  6
CONTINUOUS
 10
8.4698066873
 20
13.8593167078
 11
8.4681247428
 21
13.8572958745
  0
POLYLINE
  8
0
 62
7
  6
CONTINUOUS
 66
1
 70
0
  0
VERTEX
  8
0
 62
7
  6
CONTINUOUS
 10
8.8850358539
 20
14.1430958745
  0
VERTEX
  8
0
 62
7
  6
CONTINUOUS
 10
8.8850428712
 20
14.1412852545
  0
VERTEX
  8
0
 62
7
  6
CONTINUOUS
 10
8.8849962146
 20
14.1395914642
  0
VERTEX
  8
0
 62
7
  6
CONTINUOUS
 10
8.8848991759
 20
14.1380056499
  0
VERTEX
  8
0
 62
7
  6
CONTINUOUS
 10
8.8847546921
 20
14.1365197438
  0
VERTEX
  8
0
 62
7
  6
CONTINUOUS
 10
8.8845653627
 20
14.1351263671
  0
VERTEX
  8
0
 62
7
  6
CONTINUOUS
 10
8.8843334594
 20
14.1338187521
  0
VERTEX
  8
0
 62
7
  6
CONTINUOUS
 10
8.884060932
 20
14.1325906776
  0
VERTEX
  8
0
 62
7
  6
CONTINUOUS
 10
8.8837494089
 20
14.1314364178
  0
VERTEX
  8
0
 62
7
  6
CONTINUOUS
 10
8.8834001943
 20
14.1303507014
  0
VERTEX
  8
0
 62
7
  6
CONTINUOUS
 10
8.8830142634
 20
14.1293286799
  0
VERTEX
  8
0
 62
7
  6
CONTINUOUS
 10
8.8825922551
 20
14.1283659037
  0
VERTEX
  8
0
 62
7
  6
CONTINUOUS
 10
8.8821344638
 20
14.1274583054
  0
VERTEX
  8
0
 62
7
  6
CONTINUOUS
 10
8.8816408313
 20
14.1266021886
  0
VERTEX
  8
0
 62
7
  6
CONTINUOUS
 10
8.8811109385
 20
14.1257942215
  0
VERTEX
  8
0
 62
7
  6
CONTINUOUS
 10
8.8805439985
 20
14.1250314342
  0
VERTEX
  8
0
 62
7
  6
CONTINUOUS
 10
8.8799388508
 20
14.1243112189
  0
VERTEX
  8
0
 62
7
  6
CONTINUOUS
 10
8.8792939574
 20
14.1236313311
  0
VERTEX
  8
0
 62
7
  6
CONTINUOUS
 10
8.8786086092
 20
14.1229909558
  0
VERTEX
  8
0
 62
7
  6
CONTINUOUS
 10
8.8778811818
 20
14.1223887423
  0
VERTEX
  8
0
 62
7
  6
CONTINUOUS
 10
8.8771092832
 20
14.1218232721
  0
VERTEX
  8
0
 62
7
  6
CONTINUOUS
 10
8.8762901497
 20
14.1212934976
  0
VERTEX
  8
0
 62
7
  6
CONTINUOUS
 10
8.8754206472
 20
14.1207987367
  0
VERTEX
  8
0
 62
7
  6
CONTINUOUS
 10
8.8744972706
 20
14.1203386665
  0
VERTEX
  8
0
 62
7
  6
CONTINUOUS
 10
8.8735161392
 20
14.1199133157
  0
VERTEX
  8
0
 62
7
  6
CONTINUOUS
 10
8.8724729889
 20
14.1195230557
  0
VERTEX
  8
0
 62
7
  6
CONTINUOUS
 10
8.8713631583
 20
14.1191685921
  0
VERTEX
  8
0
 62
7
  6
CONTINUOUS
 10
8.8701815686
 20
14.1188509564
  0
VERTEX
  8
0
 62
7
  6
CONTINUOUS
 10
8.8689226962
 20
14.1185714993
  0
VERTEX
  8
0
 62
7
  6
CONTINUOUS
 10
8.8675805361
 20
14.1183318852
  0
VERTEX
  8
0
 62
7
  6
CONTINUOUS
 10
8.8661485556
 20
14.1181340908
  0
VERTEX
  8
0
 62
7
  6
CONTINUOUS
 10
8.8646196365
 20
14.1179804069
  0
VERTEX
  8
0
 62
7
  6
CONTINUOUS
 10
8.8629860031
 20
14.1178734442
  0
VERTEX
  8
0
 62
7
  6
CONTINUOUS
 10
8.8612391334
 20
14.1178161454
  0
VERTEX
  8
0
 62
7
  6
CONTINUOUS
 10
8.8602380113
 20
14.1178069901
  0
VERTEX
  8
0
 62
7
  6
CONTINUOUS
 10
8.8584479505
 20
14.1178319084
  0
VERTEX
  8
0
 62
7
  6
CONTINUOUS
 10
8.8567735511
 20
14.1179085225
  0
VERTEX
  8
0
 62
7
  6
CONTINUOUS
 10
8.8552060398
 20
14.1180337186
  0
VERTEX
  8
0
 62
7
  6
CONTINUOUS
 10
8.8537374066
 20
14.1182047291
  0
VERTEX
  8
0
 62
7
  6
CONTINUOUS
 10
8.8523603159
 20
14.1184191188
  0
VERTEX
  8
0
 62
7
  6
CONTINUOUS
 10
8.8510680328
 20
14.1186747766
  0
VERTEX
  8
0
 62
7
  6
CONTINUOUS
 10
8.8498543631
 20
14.1189699122
  0
VERTEX
  8
0
 62
7
  6
CONTINUOUS
 10
8.8487136054
 20
14.1193030567
  0
VERTEX
  8
0
 62
7
  6
CONTINUOUS
 10
8.8476405119
 20
14.1196730666
  0
VERTEX
  8
0
 62
7
  6
CONTINUOUS
 10
8.8466302589
 20
14.1200791293
  0
VERTEX
  8
0
 62
7
  6
CONTINUOUS
 10
8.8456784243
 20
14.1205207716
  0
VERTEX
  8
0
 62
7
  6
CONTINUOUS
 10
8.844780971
 20
14.1209978679
  0
VERTEX
  8
0
 62
7
  6
CONTINUOUS
 10
8.8439342367
 20
14.1215106494
  0
VERTEX
  8
0
 62
7
  6
CONTINUOUS
 10
8.8431349273
 20
14.1220597125
  0
VERTEX
  8
0
 62
7
  6
CONTINUOUS
 10
8.842380114
 20
14.1226460267
  0
VERTEX
  8
0
 62
7
  6
CONTINUOUS
 10
8.8416672326
 20
14.1232709415
  0
VERTEX
  8
0
 62
7
  6
CONTINUOUS
 10
8.8409947008
 20
14.1239355448
  0
VERTEX
  8
0
 62
7
  6
CONTINUOUS
 10
8.8403614502
 20
14.1246408106
  0
VERTEX
  8
0
 62
7
  6
CONTINUOUS
 10
8.8397657415
 20
14.1253889579
  0
VERTEX
  8
0
 62
7
  6
CONTINUOUS
 10
8.8392062063
 20
14.1261825899
  0
VERTEX
  8
0
 62
7
  6
CONTINUOUS
 10
8.8386818418
 20
14.127024695
  0
VERTEX
  8
0
 62
7
  6
CONTINUOUS
 10
8.8381920053
 20
14.1279186514
  0
VERTEX
  8
0
 62
7
  6
CONTINUOUS
 10
8.8377364063
 20
14.1288682333
  0
VERTEX
  8
0
 62
7
  6
CONTINUOUS
 10
8.8373150989
 20
14.1298776236
  0
VERTEX
  8
0
 62
7
  6
CONTINUOUS
 10
8.8369284722
 20
14.130951431
  0
VERTEX
  8
0
 62
7
  6
CONTINUOUS
 10
8.8365772427
 20
14.1320947157
  0
VERTEX
  8
0
 62
7
  6
CONTINUOUS
 10
8.8362624469
 20
14.1333130237
  0
VERTEX
  8
0
 62
7
  6
CONTINUOUS
 10
8.8359854359
 20
14.134612432
  0
VERTEX
  8
0
 62
7
  6
CONTINUOUS
 10
8.8357478733
 20
14.135999607
  0
VERTEX
  8
0
 62
7
  6
CONTINUOUS
 10
8.835551737
 20
14.1374818778
  0
VERTEX
  8
0
 62
7
  6
CONTINUOUS
 10
8.8353993258
 20
14.1390673292
  0
VERTEX
  8
0
 62
7
  6
CONTINUOUS
 10
8.8352932728
 20
14.1407649182
  0
VERTEX
  8
0
 62
7
  6
CONTINUOUS
 10
8.8352365666
 20
14.1425846198
  0
VERTEX
  8
0
 62
7
  6
CONTINUOUS
 10
8.8352311764
 20
14.1429890832
  0
VERTEX
  8
0
 62
7
  6
CONTINUOUS
 10
8.8352454263
 20
14.1443299679
  0
VERTEX
  8
0
 62
7
  6
CONTINUOUS
 10
8.835315064
 20
14.1456341049
  0
VERTEX
  8
0
 62
7
  6
CONTINUOUS
 10
8.8354386439
 20
14.1469021331
  0
VERTEX
  8
0
 62
7
  6
CONTINUOUS
 10
8.8356148358
 20
14.1481346608
  0
VERTEX
  8
0
 62
7
  6
CONTINUOUS
 10
8.8358424269
 20
14.1493322561
  0
VERTEX
  8
0
 62
7
  6
CONTINUOUS
 10
8.8361203217
 20
14.150495437
  0
VERTEX
  8
0
 62
7
  6
CONTINUOUS
 10
8.8364475404
 20
14.1516246604
  0
VERTEX
  8
0
 62
7
  6
CONTINUOUS
 10
8.836823215
 20
14.1527203109
  0
VERTEX
  8
0
 62
7
  6
CONTINUOUS
 10
8.8372465837
 20
14.1537826892
  0
VERTEX
  8
0
 62
7
  6
CONTINUOUS
 10
8.8377169819
 20
14.1548120004
  0
VERTEX
  8
0
 62
7
  6
CONTINUOUS
 10
8.8382338315
 20
14.1558083422
  0
VERTEX
  8
0
 62
7
  6
CONTINUOUS
 10
8.8387966267
 20
14.1567716938
  0
VERTEX
  8
0
 62
7
  6
CONTINUOUS
 10
8.8394049168
 20
14.1577019058
  0
VERTEX
  8
0
 62
7
  6
CONTINUOUS
 10
8.8400582856
 20
14.1585986908
  0
VERTEX
  8
0
 62
7
  6
CONTINUOUS
 10
8.8407563288
 20
14.1594616158
  0
VERTEX
  8
0
 62
7
  6
CONTINUOUS
 10
8.8414986269
 20
14.1602900968
  0
VERTEX
  8
0
 62
7
  6
CONTINUOUS
 10
8.8422847164
 20
14.1610833952
  0
VERTEX
  8
0
 62
7
  6
CONTINUOUS
 10
8.8431140577
 20
14.1618406184
  0
VERTEX
  8
0
 62
7
  6
CONTINUOUS
 10
8.8439860017
 20
14.1625607221
  0
VERTEX
  8
0
 62
7
  6
CONTINUOUS
 10
8.844899754
 20
14.1632425175
  0
VERTEX
  8
0
 62
7
  6
CONTINUOUS
 10
8.8458543396
 20
14.1638846824
  0
VERTEX
  8
0
 62
7
  6
CONTINUOUS
 10
8.8468485667
 20
14.1644857763
  0
VERTEX
  8
0
 62
7
  6
CONTINUOUS
 10
8.847880993
 20
14.1650442614
  0
VERTEX
  8
0
 62
7
  6
CONTINUOUS
 10
8.8489498945
 20
14.1655585266
  0
VERTEX
  8
0
 62
7
  6
CONTINUOUS
 10
8.8500532389
 20
14.1660269181
  0
VERTEX
  8
0
 62
7
  6
CONTINUOUS
 10
8.8511886652
 20
14.1664477726
  0
VERTEX
  8
0
 62
7
  6
CONTINUOUS
 10
8.852353471
 20
14.1668194557
  0
VERTEX
  8
0
 62
7
  6
CONTINUOUS
 10
8.8535446099
 20
14.1671404016
  0
VERTEX
  8
0
 62
7
  6
CONTINUOUS
 10
8.8547586992
 20
14.1674091556
  0
VERTEX
  8
0
 62
7
  6
CONTINUOUS
 10
8.8559920398
 20
14.167624415
  0
VERTEX
  8
0
 62
7
  6
CONTINUOUS
 10
8.8572406483
 20
14.1677850694
  0
VERTEX
  8
0
 62
7
  6
CONTINUOUS
 10
8.858500301
 20
14.1678902359
  0
VERTEX
  8
0
 62
7
  6
CONTINUOUS
 10
8.8597665891
 20
14.167939289
  0
VERTEX
  8
0
 62
7
  6
CONTINUOUS
 10
8.860630502
 20
14.1679403859
  0
VERTEX
  8
0
 62
7
  6
CONTINUOUS
 10
8.8618961791
 20
14.1678945675
  0
VERTEX
  8
0
 62
7
  6
CONTINUOUS
 10
8.8631546671
 20
14.1677926717
  0
VERTEX
  8
0
 62
7
  6
CONTINUOUS
 10
8.8644015779
 20
14.1676353417
  0
VERTEX
  8
0
 62
7
  6
CONTINUOUS
 10
8.8656327167
 20
14.1674234759
  0
VERTEX
  8
0
 62
7
  6
CONTINUOUS
 10
8.8668441358
 20
14.1671581973
  0
VERTEX
  8
0
 62
7
  6
CONTINUOUS
 10
8.8680321772
 20
14.1668408179
  0
VERTEX
  8
0
 62
7
  6
CONTINUOUS
 10
8.8691935035
 20
14.1664727984
  0
VERTEX
  8
0
 62
7
  6
CONTINUOUS
 10
8.8703251161
 20
14.1660557064
  0
VERTEX
  8
0
 62
7
  6
CONTINUOUS
 10
8.8714243617
 20
14.1655911749
  0
VERTEX
  8
0
 62
7
  6
CONTINUOUS
 10
8.8724889286
 20
14.1650808616
  0
VERTEX
  8
0
 62
7
  6
CONTINUOUS
 10
8.8735168322
 20
14.1645264116
  0
VERTEX
  8
0
 62
7
  6
CONTINUOUS
 10
8.8745063943
 20
14.1639294237
  0
VERTEX
  8
0
 62
7
  6
CONTINUOUS
 10
8.8754562153
 20
14.1632914206
  0
VERTEX
  8
0
 62
7
  6
CONTINUOUS
 10
8.8763651427
 20
14.1626138249
  0
VERTEX
  8
0
 62
7
  6
CONTINUOUS
 10
8.877232236
 20
14.1618979385
  0
VERTEX
  8
0
 62
7
  6
CONTINUOUS
 10
8.8780567316
 20
14.1611449279
  0
VERTEX
  8
0
 62
7
  6
CONTINUOUS
 10
8.8788380058
 20
14.1603558132
  0
VERTEX
  8
0
 62
7
  6
CONTINUOUS
 10
8.8795755399
 20
14.1595314617
  0
VERTEX
  8
0
 62
7
  6
CONTINUOUS
 10
8.880268886
 20
14.1586725851
  0
VERTEX
  8
0
 62
7
  6
CONTINUOUS
 10
8.8809176358
 20
14.15777974
  0
VERTEX
  8
0
 62
7
  6
CONTINUOUS
 10
8.8815213909
 20
14.1568533314
  0
VERTEX
  8
0
 62
7
  6
CONTINUOUS
 10
8.8820797369
 20
14.1558936186
  0
VERTEX
  8
0
 62
7
  6
CONTINUOUS
 10
8.8825922204
 20
14.1549007227
  0
VERTEX
  8
0
 62
7
  6
CONTINUOUS
 10
8.8830583287
 20
14.1538746365
  0
VERTEX
  8
0
 62
7
  6
CONTINUOUS
 10
8.8834774731
 20
14.1528152349
  0
VERTEX
  8
0
 62
7
  6
CONTINUOUS
 10
8.8838489752
 20
14.151722286
  0
VERTEX
  8
0
 62
7
  6
CONTINUOUS
 10
8.8841720561
 20
14.1505954633
  0
VERTEX
  8
0
 62
7
  6
CONTINUOUS
 10
8.884445828
 20
14.1494343571
  0
VERTEX
  8
0
 62
7
  6
CONTINUOUS
 10
8.8846692891
 20
14.1482384867
  0
VERTEX
  8
0
 62
7
  6
CONTINUOUS
 10
8.8848413198
 20
14.1470073113
  0
VERTEX
  8
0
 62
7
  6
CONTINUOUS
 10
8.8849606816
 20
14.1457402414
  0
VERTEX
  8
0
 62
7
  6
CONTINUOUS
 10
8.8850260176
 20
14.1444366485
  0
VERTEX
  8
0
 62
7
  6
CONTINUOUS
 10
8.8850379701
 20
14.1437709144
  0
VERTEX
  8
0
 62
7
  6
CONTINUOUS
 10
8.8850358539
 20
14.1430958745
  0
SEQEND
  0
LINE
  8
0
 62
7
  6
CONTINUOUS
 10
8.8554802984
 20
14.1534986522
 11
8.8554802984
 21
14.1439903189
  0
LINE
  8
0
 62
7
  6
CONTINUOUS
 10
8.8554802984
 20
14.1405250411
 11
8.8554802984
 21
14.12842643
  0
LINE
  8
0
 62
7
  6
CONTINUOUS
 10
8.8647719651
 20
14.1424236522
 11
8.8647719651
 21
14.1422000411
  0
LINE
  8
0
 62
7
  6
CONTINUOUS
 10
8.9106025206
 20
13.9366680967
 11
8.9106025206
 21
13.8519778189
  0
LINE
  8
0
 62
7
  6
CONTINUOUS
 10
8.9186997428
 20
13.8315930967
 11
8.9186997428
 21
13.9366680967
  0
LINE
  8
0
 62
7
  6
CONTINUOUS
 10
8.9386650206
 20
14.5423667078
 11
8.9386650206
 21
14.0461917078
  0
LINE
  8
0
 62
7
  6
CONTINUOUS
 10
8.9453927984
 20
14.5490805967
 11
8.9453927984
 21
14.0394778189
  0
LINE
  8
0
 62
7
  6
CONTINUOUS
 10
8.9653164095
 20
13.8362722633
 11
8.9653164095
 21
13.8792819856
  0
LINE
  8
0
 62
7
  6
CONTINUOUS
 10
8.9573414095
 20
13.8787930967
 11
8.9571927984
 21
13.8362722633
  0
POLYLINE
  8
0
 62
7
  6
CONTINUOUS
 66
1
 70
0
  0
VERTEX
  8
0
 62
7
  6
CONTINUOUS
 10
6.3926233539
 20
14.4072083745
  0
VERTEX
  8
0
 62
7
  6
CONTINUOUS
 10
6.3915533822
 20
14.409080646
  0
VERTEX
  8
0
 62
7
  6
CONTINUOUS
 10
6.3903257253
 20
14.4108629349
  0
VERTEX
  8
0
 62
7
  6
CONTINUOUS
 10
6.388935295
 20
14.4125611134
  0
VERTEX
  8
0
 62
7
  6
CONTINUOUS
 10
6.3873749066
 20
14.4141796793
  0
VERTEX
  8
0
 62
7
  6
CONTINUOUS
 10
6.3856354069
 20
14.4157217061
  0
VERTEX
  8
0
 62
7
  6
CONTINUOUS
 10
6.383705815
 20
14.4171888315
  0
VERTEX
  8
0
 62
7
  6
CONTINUOUS
 10
6.3815734605
 20
14.4185812806
  0
VERTEX
  8
0
 62
7
  6
CONTINUOUS
 10
6.3792241046
 20
14.4198979209
  0
VERTEX
  8
0
 62
7
  6
CONTINUOUS
 10
6.3766420324
 20
14.421136344
  0
VERTEX
  8
0
 62
7
  6
CONTINUOUS
 10
6.3738100974
 20
14.4222929664
  0
VERTEX
  8
0
 62
7
  6
CONTINUOUS
 10
6.370709701
 20
14.4233631463
  0
VERTEX
  8
0
 62
7
  6
CONTINUOUS
 10
6.3673206733
 20
14.4243413125
  0
VERTEX
  8
0
 62
7
  6
CONTINUOUS
 10
6.3636209986
 20
14.4252211047
  0
VERTEX
  8
0
 62
7
  6
CONTINUOUS
 10
6.3595862838
 20
14.4259955268
  0
VERTEX
  8
0
 62
7
  6
CONTINUOUS
 10
6.3551887636
 20
14.4266571186
  0
VERTEX
  8
0
 62
7
  6
CONTINUOUS
 10
6.3503954105
 20
14.4271981542
  0
VERTEX
  8
0
 62
7
  6
CONTINUOUS
 10
6.3451641656
 20
14.4276108827
  0
VERTEX
  8
0
 62
7
  6
CONTINUOUS
 10
6.3394357706
 20
14.4278878332
  0
VERTEX
  8
0
 62
7
  6
CONTINUOUS
 10
6.3331136593
 20
14.4280222193
  0
VERTEX
  8
0
 62
7
  6
CONTINUOUS
 10
6.3303136317
 20
14.4280347633
  0
VERTEX
  8
0
 62
7
  6
CONTINUOUS
 10
6.2650872428
 20
14.4280347633
  0
SEQEND
  0
POLYLINE
  8
0
 62
7
  6
CONTINUOUS
 66
1
 70
0
  0
VERTEX
  8
0
 62
7
  6
CONTINUOUS
 10
7.6725719651
 20
13.9414417078
  0
VERTEX
  8
0
 62
7
  6
CONTINUOUS
 10
7.7150594651
 20
13.8362722633
  0
VERTEX
  8
0
 62
7
  6
CONTINUOUS
 10
7.7068122428
 20
13.8362722633
  0
VERTEX
  8
0
 62
7
  6
CONTINUOUS
 10
7.6941039095
 20
13.8686208745
  0
SEQEND
  0
LINE
  8
0
 62
7
  6
CONTINUOUS
 10
7.6903469651
 20
13.8763653189
 11
7.6725719651
 21
13.9205542078
  0
LINE
  8
0
 62
7
  6
CONTINUOUS
 10
8.8665622428
 20
14.12842643
 11
8.8646636317
 21
14.13558893
  0
LINE
  8
0
 62
7
  6
CONTINUOUS
 10
8.6956775206
 20
13.8362722633
 11
8.6736636317
 21
13.9421472633
  0
LINE
  8
0
 62
7
  6
CONTINUOUS
 10
8.6713039095
 20
13.9159708745
 11
8.6877830762
 21
13.8362722633
  0
LINE
  8
0
 62
7
  6
CONTINUOUS
 10
8.8207441873
 20
14.1538375411
 11
8.8243664095
 21
14.1304208745
  0
LINE
  8
0
 62
7
  6
CONTINUOUS
 10
8.4681247428
 20
13.8572958745
 11
8.4358566873
 21
13.8426333745
  0
POLYLINE
  8
0
 62
7
  6
CONTINUOUS
 66
1
 70
0
  0
VERTEX
  8
0
 62
7
  6
CONTINUOUS
 10
7.8505025206
 20
14.1247111522
  0
VERTEX
  8
0
 62
7
  6
CONTINUOUS
 10
7.8563614271
 20
14.1273472802
  0
VERTEX
  8
0
 62
7
  6
CONTINUOUS
 10
7.8614796314
 20
14.1300053486
  0
VERTEX
  8
0
 62
7
  6
CONTINUOUS
 10
7.8659489668
 20
14.1326942298
  0
VERTEX
  8
0
 62
7
  6
CONTINUOUS
 10
7.8698497423
 20
14.1354255709
  0
VERTEX
  8
0
 62
7
  6
CONTINUOUS
 10
7.8732517926
 20
14.1382145888
  0
VERTEX
  8
0
 62
7
  6
CONTINUOUS
 10
7.8762152686
 20
14.1410810601
  0
VERTEX
  8
0
 62
7
  6
CONTINUOUS
 10
7.8787789923
 20
14.1440351566
  0
VERTEX
  8
0
 62
7
  6
CONTINUOUS
 10
7.880982321
 20
14.1470955136
  0
VERTEX
  8
0
 62
7
  6
CONTINUOUS
 10
7.8828648105
 20
14.1502959783
  0
VERTEX
  8
0
 62
7
  6
CONTINUOUS
 10
7.8844578821
 20
14.1536799367
  0
VERTEX
  8
0
 62
7
  6
CONTINUOUS
 10
7.8857854744
 20
14.1573039938
  0
VERTEX
  8
0
 62
7
  6
CONTINUOUS
 10
7.8868648498
 20
14.1612445655
  0
VERTEX
  8
0
 62
7
  6
CONTINUOUS
 10
7.8877076336
 20
14.1656107789
  0
VERTEX
  8
0
 62
7
  6
CONTINUOUS
 10
7.8883212411
 20
14.1705726848
  0
VERTEX
  8
0
 62
7
  6
CONTINUOUS
 10
7.8887112593
 20
14.1764341548
  0
VERTEX
  8
0
 62
7
  6
CONTINUOUS
 10
7.8888878726
 20
14.1838841458
  0
VERTEX
  8
0
 62
7
  6
CONTINUOUS
 10
7.8889080762
 20
14.1907778189
  0
VERTEX
  8
0
 62
7
  6
CONTINUOUS
 10
7.8889080762
 20
14.3983847633
  0
VERTEX
  8
0
 62
7
  6
CONTINUOUS
 10
7.8888924475
 20
14.4047642269
  0
VERTEX
  8
0
 62
7
  6
CONTINUOUS
 10
7.8887284992
 20
14.4123990433
  0
VERTEX
  8
0
 62
7
  6
CONTINUOUS
 10
7.888352725
 20
14.4183567524
  0
VERTEX
  8
0
 62
7
  6
CONTINUOUS
 10
7.8877544637
 20
14.4233767723
  0
VERTEX
  8
0
 62
7
  6
CONTINUOUS
 10
7.8869285286
 20
14.4277784487
  0
VERTEX
  8
0
 62
7
  6
CONTINUOUS
 10
7.8858681925
 20
14.4317385013
  0
VERTEX
  8
0
 62
7
  6
CONTINUOUS
 10
7.8845626902
 20
14.4353695167
  0
VERTEX
  8
0
 62
7
  6
CONTINUOUS
 10
7.8829957493
 20
14.4387499173
  0
VERTEX
  8
0
 62
7
  6
CONTINUOUS
 10
7.8811445226
 20
14.4419375448
  0
VERTEX
  8
0
 62
7
  6
CONTINUOUS
 10
7.878978762
 20
14.4449765482
  0
VERTEX
  8
0
 62
7
  6
CONTINUOUS
 10
7.8764601565
 20
14.4479011995
  0
VERTEX
  8
0
 62
7
  6
CONTINUOUS
 10
7.8735480432
 20
14.4507325921
  0
VERTEX
  8
0
 62
7
  6
CONTINUOUS
 10
7.870206926
 20
14.4534783194
  0
VERTEX
  8
0
 62
7
  6
CONTINUOUS
 10
7.8663780509
 20
14.4561580045
  0
VERTEX
  8
0
 62
7
  6
CONTINUOUS
 10
7.8619930879
 20
14.4587864542
  0
VERTEX
  8
0
 62
7
  6
CONTINUOUS
 10
7.8569733758
 20
14.46137466
  0
VERTEX
  8
0
 62
7
  6
CONTINUOUS
 10
7.8512289095
 20
14.4639305967
  0
SEQEND
  0
POLYLINE
  8
0
 62
7
  6
CONTINUOUS
 66
1
 70
0
  0
VERTEX
  8
0
 62
7
  6
CONTINUOUS
 10
8.3331011317
 20
14.4639305967
  0
VERTEX
  8
0
 62
7
  6
CONTINUOUS
 10
8.3272437932
 20
14.4613215348
  0
VERTEX
  8
0
 62
7
  6
CONTINUOUS
 10
8.322139568
 20
14.4586786159
  0
VERTEX
  8
0
 62
7
  6
CONTINUOUS
 10
8.3176931402
 20
14.4559932463
  0
VERTEX
  8
0
 62
7
  6
CONTINUOUS
 10
8.3138214551
 20
14.4532535179
  0
VERTEX
  8
0
 62
7
  6
CONTINUOUS
 10
8.3104526151
 20
14.4504433105
  0
VERTEX
  8
0
 62
7
  6
CONTINUOUS
 10
8.3089360894
 20
14.449004275
  0
VERTEX
  8
0
 62
7
  6
CONTINUOUS
 10
8.3075250626
 20
14.4475411589
  0
VERTEX
  8
0
 62
7
  6
CONTINUOUS
 10
8.3050042998
 20
14.444541449
  0
VERTEX
  8
0
 62
7
  6
CONTINUOUS
 10
8.3028452672
 20
14.4414182336
  0
VERTEX
  8
0
 62
7
  6
CONTINUOUS
 10
8.3010084886
 20
14.4381336916
  0
VERTEX
  8
0
 62
7
  6
CONTINUOUS
 10
8.2994631409
 20
14.434638768
  0
VERTEX
  8
0
 62
7
  6
CONTINUOUS
 10
8.2981862901
 20
14.4308685338
  0
VERTEX
  8
0
 62
7
  6
CONTINUOUS
 10
8.2971619242
 20
14.4267335712
  0
VERTEX
  8
0
 62
7
  6
CONTINUOUS
 10
8.2963796869
 20
14.422102393
  0
VERTEX
  8
0
 62
7
  6
CONTINUOUS
 10
8.2958330589
 20
14.4167607107
  0
VERTEX
  8
0
 62
7
  6
CONTINUOUS
 10
8.2955159034
 20
14.4102959596
  0
VERTEX
  8
0
 62
7
  6
CONTINUOUS
 10
8.2954100523
 20
14.401620532
  0
VERTEX
  8
0
 62
7
  6
CONTINUOUS
 10
8.2954080762
 20
14.1064944856
  0
SEQEND
  0
POLYLINE
  8
0
 62
7
  6
CONTINUOUS
 66
1
 70
0
  0
VERTEX
  8
0
 62
7
  6
CONTINUOUS
 10
7.7737066873
 20
14.4639305967
  0
VERTEX
  8
0
 62
7
  6
CONTINUOUS
 10
7.7696711121
 20
14.4626530394
  0
VERTEX
  8
0
 62
7
  6
CONTINUOUS
 10
7.7677857214
 20
14.4619221269
  0
VERTEX
  8
0
 62
7
  6
CONTINUOUS
 10
7.7659859831
 20
14.4611323464
  0
VERTEX
  8
0
 62
7
  6
CONTINUOUS
 10
7.762633988
 20
14.4593828977
  0
VERTEX
  8
0
 62
7
  6
CONTINUOUS
 10
7.7595861397
 20
14.4574098413
  0
VERTEX
  8
0
 62
7
  6
CONTINUOUS
 10
7.7568171177
 20
14.4552129895
  0
VERTEX
  8
0
 62
7
  6
CONTINUOUS
 10
7.7543056182
 20
14.4527867164
  0
VERTEX
  8
0
 62
7
  6
CONTINUOUS
 10
7.7520346399
 20
14.4501199344
  0
VERTEX
  8
0
 62
7
  6
CONTINUOUS
 10
7.749991657
 20
14.4471961016
  0
VERTEX
  8
0
 62
7
  6
CONTINUOUS
 10
7.7481686365
 20
14.4439931621
  0
VERTEX
  8
0
 62
7
  6
CONTINUOUS
 10
7.746561875
 20
14.4404832494
  0
VERTEX
  8
0
 62
7
  6
CONTINUOUS
 10
7.7451716442
 20
14.4366318658
  0
VERTEX
  8
0
 62
7
  6
CONTINUOUS
 10
7.7440016415
 20
14.4323960034
  0
VERTEX
  8
0
 62
7
  6
CONTINUOUS
 10
7.7430582284
 20
14.4277200776
  0
VERTEX
  8
0
 62
7
  6
CONTINUOUS
 10
7.7423493862
 20
14.4225269025
  0
VERTEX
  8
0
 62
7
  6
CONTINUOUS
 10
7.7418831669
 20
14.4166956421
  0
VERTEX
  8
0
 62
7
  6
CONTINUOUS
 10
7.7416648182
 20
14.4099968963
  0
VERTEX
  8
0
 62
7
  6
CONTINUOUS
 10
7.741687687
 20
14.4018188462
  0
SEQEND
  0
POLYLINE
  8
0
 62
7
  6
CONTINUOUS
 66
1
 70
0
  0
VERTEX
  8
0
 62
7
  6
CONTINUOUS
 10
6.1593066873
 20
14.1247111522
  0
VERTEX
  8
0
 62
7
  6
CONTINUOUS
 10
6.1632043226
 20
14.1259367591
  0
VERTEX
  8
0
 62
7
  6
CONTINUOUS
 10
6.1650294433
 20
14.126633746
  0
VERTEX
  8
0
 62
7
  6
CONTINUOUS
 10
6.1667746823
 20
14.1273846841
  0
VERTEX
  8
0
 62
7
  6
CONTINUOUS
 10
6.1700325704
 20
14.1290417106
  0
VERTEX
  8
0
 62
7
  6
CONTINUOUS
 10
6.1730036962
 20
14.1309024531
  0
VERTEX
  8
0
 62
7
  6
CONTINUOUS
 10
6.1757113491
 20
14.132966261
  0
VERTEX
  8
0
 62
7
  6
CONTINUOUS
 10
6.1781754437
 20
14.135237087
  0
VERTEX
  8
0
 62
7
  6
CONTINUOUS
 10
6.1804122716
 20
14.1377235333
  0
VERTEX
  8
0
 62
7
  6
CONTINUOUS
 10
6.1824343319
 20
14.1404388666
  0
VERTEX
  8
0
 62
7
  6
CONTINUOUS
 10
6.1842502752
 20
14.1434010659
  0
VERTEX
  8
0
 62
7
  6
CONTINUOUS
 10
6.1858649827
 20
14.1466330187
  0
VERTEX
  8
0
 62
7
  6
CONTINUOUS
 10
6.187279796
 20
14.1501630533
  0
VERTEX
  8
0
 62
7
  6
CONTINUOUS
 10
6.1884928967
 20
14.1540261435
  0
VERTEX
  8
0
 62
7
  6
CONTINUOUS
 10
6.1894998445
 20
14.1582664388
  0
VERTEX
  8
0
 62
7
  6
CONTINUOUS
 10
6.1902942995
 20
14.1629425899
  0
VERTEX
  8
0
 62
7
  6
CONTINUOUS
 10
6.1908690192
 20
14.1681396606
  0
VERTEX
  8
0
 62
7
  6
CONTINUOUS
 10
6.191217415
 20
14.1739994404
  0
VERTEX
  8
0
 62
7
  6
CONTINUOUS
 10
6.1913368292
 20
14.1808176633
  0
VERTEX
  8
0
 62
7
  6
CONTINUOUS
 10
6.1911733539
 20
14.1959861522
  0
SEQEND
  0
POLYLINE
  8
0
 62
7
  6
CONTINUOUS
 66
1
 70
0
  0
VERTEX
  8
0
 62
7
  6
CONTINUOUS
 10
7.4092316873
 20
14.4639305967
  0
VERTEX
  8
0
 62
7
  6
CONTINUOUS
 10
7.4053193611
 20
14.4627245528
  0
VERTEX
  8
0
 62
7
  6
CONTINUOUS
 10
7.4017377671
 20
14.4613003651
  0
VERTEX
  8
0
 62
7
  6
CONTINUOUS
 10
7.3984690991
 20
14.4596700726
  0
VERTEX
  8
0
 62
7
  6
CONTINUOUS
 10
7.3954901721
 20
14.4578405266
  0
VERTEX
  8
0
 62
7
  6
CONTINUOUS
 10
7.3927773236
 20
14.4558129668
  0
VERTEX
  8
0
 62
7
  6
CONTINUOUS
 10
7.3903101988
 20
14.4535841338
  0
VERTEX
  8
0
 62
7
  6
CONTINUOUS
 10
7.3880720025
 20
14.4511462088
  0
VERTEX
  8
0
 62
7
  6
CONTINUOUS
 10
7.3860496788
 20
14.4484867896
  0
VERTEX
  8
0
 62
7
  6
CONTINUOUS
 10
7.3842339876
 20
14.4455888421
  0
VERTEX
  8
0
 62
7
  6
CONTINUOUS
 10
7.38261945
 20
14.4424305263
  0
VERTEX
  8
0
 62
7
  6
CONTINUOUS
 10
7.3812041505
 20
14.43898472
  0
VERTEX
  8
0
 62
7
  6
CONTINUOUS
 10
7.3799893948
 20
14.4352179411
  0
VERTEX
  8
0
 62
7
  6
CONTINUOUS
 10
7.3789792196
 20
14.4310880866
  0
VERTEX
  8
0
 62
7
  6
CONTINUOUS
 10
7.3781797408
 20
14.4265397199
  0
VERTEX
  8
0
 62
7
  6
CONTINUOUS
 10
7.3775982835
 20
14.4214937132
  0
VERTEX
  8
0
 62
7
  6
CONTINUOUS
 10
7.3772421127
 20
14.4158216638
  0
VERTEX
  8
0
 62
7
  6
CONTINUOUS
 10
7.3771160742
 20
14.4092679777
  0
VERTEX
  8
0
 62
7
  6
CONTINUOUS
 10
7.377214207
 20
14.4010928155
  0
VERTEX
  8
0
 62
7
  6
CONTINUOUS
 10
7.3772430066
 20
14.3997063431
  0
VERTEX
  8
0
 62
7
  6
CONTINUOUS
 10
7.3773511317
 20
14.39212643
  0
SEQEND
  0
POLYLINE
  8
0
 62
7
  6
CONTINUOUS
 66
1
 70
0
  0
VERTEX
  8
0
 62
7
  6
CONTINUOUS
 10
6.4658052984
 20
14.1247111522
  0
VERTEX
  8
0
 62
7
  6
CONTINUOUS
 10
6.469915296
 20
14.1259270023
  0
VERTEX
  8
0
 62
7
  6
CONTINUOUS
 10
6.4718348975
 20
14.1266280945
  0
VERTEX
  8
0
 62
7
  6
CONTINUOUS
 10
6.4736676467
 20
14.1273889253
  0
VERTEX
  8
0
 62
7
  6
CONTINUOUS
 10
6.4770805261
 20
14.1290821017
  0
VERTEX
  8
0
 62
7
  6
CONTINUOUS
 10
6.4801818467
 20
14.1309993866
  0
VERTEX
  8
0
 62
7
  6
CONTINUOUS
 10
6.4829980422
 20
14.1331397314
  0
VERTEX
  8
0
 62
7
  6
CONTINUOUS
 10
6.4855515508
 20
14.1355075745
  0
VERTEX
  8
0
 62
7
  6
CONTINUOUS
 10
6.4878605064
 20
14.1381128817
  0
VERTEX
  8
0
 62
7
  6
CONTINUOUS
 10
6.4899385341
 20
14.1409711429
  0
VERTEX
  8
0
 62
7
  6
CONTINUOUS
 10
6.4917946972
 20
14.1441034107
  0
VERTEX
  8
0
 62
7
  6
CONTINUOUS
 10
6.4934336254
 20
14.1475365403
  0
VERTEX
  8
0
 62
7
  6
CONTINUOUS
 10
6.4948558379
 20
14.1513038969
  0
VERTEX
  8
0
 62
7
  6
CONTINUOUS
 10
6.4960582655
 20
14.1554470149
  0
VERTEX
  8
0
 62
7
  6
CONTINUOUS
 10
6.4970349862
 20
14.1600192165
  0
VERTEX
  8
0
 62
7
  6
CONTINUOUS
 10
6.4977782317
 20
14.165093599
  0
VERTEX
  8
0
 62
7
  6
CONTINUOUS
 10
6.498279856
 20
14.1707822252
  0
VERTEX
  8
0
 62
7
  6
CONTINUOUS
 10
6.498533944
 20
14.1772908187
  0
VERTEX
  8
0
 62
7
  6
CONTINUOUS
 10
6.4985442209
 20
14.1851344981
  0
SEQEND
  0
POLYLINE
  8
0
 62
7
  6
CONTINUOUS
 66
1
 70
0
  0
VERTEX
  8
0
 62
7
  6
CONTINUOUS
 10
6.8259261317
 20
14.1247111522
  0
VERTEX
  8
0
 62
7
  6
CONTINUOUS
 10
6.8300212818
 20
14.1259230021
  0
VERTEX
  8
0
 62
7
  6
CONTINUOUS
 10
6.8337527554
 20
14.1273785375
  0
VERTEX
  8
0
 62
7
  6
CONTINUOUS
 10
6.8371416694
 20
14.129063767
  0
VERTEX
  8
0
 62
7
  6
CONTINUOUS
 10
6.8402144862
 20
14.1309705257
  0
VERTEX
  8
0
 62
7
  6
CONTINUOUS
 10
6.8429984836
 20
14.1330976825
  0
VERTEX
  8
0
 62
7
  6
CONTINUOUS
 10
6.8455168109
 20
14.1354497203
  0
VERTEX
  8
0
 62
7
  6
CONTINUOUS
 10
6.8477881697
 20
14.138036792
  0
VERTEX
  8
0
 62
7
  6
CONTINUOUS
 10
6.8498266045
 20
14.1408747349
  0
VERTEX
  8
0
 62
7
  6
CONTINUOUS
 10
6.8516414482
 20
14.1439851357
  0
VERTEX
  8
0
 62
7
  6
CONTINUOUS
 10
6.8532374566
 20
14.1473956177
  0
VERTEX
  8
0
 62
7
  6
CONTINUOUS
 10
6.8546151425
 20
14.1511406397
  0
VERTEX
  8
0
 62
7
  6
CONTINUOUS
 10
6.8557713127
 20
14.1552633396
  0
VERTEX
  8
0
 62
7
  6
CONTINUOUS
 10
6.8566998141
 20
14.1598195365
  0
VERTEX
  8
0
 62
7
  6
CONTINUOUS
 10
6.8573925377
 20
14.1648865942
  0
VERTEX
  8
0
 62
7
  6
CONTINUOUS
 10
6.8578408501
 20
14.1705849424
  0
VERTEX
  8
0
 62
7
  6
CONTINUOUS
 10
6.8580380759
 20
14.1771407442
  0
VERTEX
  8
0
 62
7
  6
CONTINUOUS
 10
6.8579867539
 20
14.1851448122
  0
VERTEX
  8
0
 62
7
  6
CONTINUOUS
 10
6.857930092
 20
14.1880009318
  0
VERTEX
  8
0
 62
7
  6
CONTINUOUS
 10
6.8578136317
 20
14.1959861522
  0
VERTEX
  8
0
 62
7
  6
CONTINUOUS
 10
6.8578136317
 20
14.39212643
  0
VERTEX
  8
0
 62
7
  6
CONTINUOUS
 10
6.857930092
 20
14.4002492758
  0
VERTEX
  8
0
 62
7
  6
CONTINUOUS
 10
6.8579771658
 20
14.4026149226
  0
VERTEX
  8
0
 62
7
  6
CONTINUOUS
 10
6.8580416481
 20
14.4107993529
  0
VERTEX
  8
0
 62
7
  6
CONTINUOUS
 10
6.8578588387
 20
14.4174340797
  0
VERTEX
  8
0
 62
7
  6
CONTINUOUS
 10
6.8574251974
 20
14.4231785321
  0
VERTEX
  8
0
 62
7
  6
CONTINUOUS
 10
6.8567468756
 20
14.4282782648
  0
VERTEX
  8
0
 62
7
  6
CONTINUOUS
 10
6.8558320026
 20
14.4328618256
  0
VERTEX
  8
0
 62
7
  6
CONTINUOUS
 10
6.8546881856
 20
14.4370106296
  0
VERTEX
  8
0
 62
7
  6
CONTINUOUS
 10
6.8533210871
 20
14.440782702
  0
VERTEX
  8
0
 62
7
  6
CONTINUOUS
 10
6.8517334291
 20
14.4442224356
  0
VERTEX
  8
0
 62
7
  6
CONTINUOUS
 10
6.8499242508
 20
14.4473650209
  0
VERTEX
  8
0
 62
7
  6
CONTINUOUS
 10
6.8478883742
 20
14.4502385229
  0
VERTEX
  8
0
 62
7
  6
CONTINUOUS
 10
6.8456160681
 20
14.4528648215
  0
VERTEX
  8
0
 62
7
  6
CONTINUOUS
 10
6.8430929099
 20
14.4552599897
  0
VERTEX
  8
0
 62
7
  6
CONTINUOUS
 10
6.8402998297
 20
14.4574344225
  0
VERTEX
  8
0
 62
7
  6
CONTINUOUS
 10
6.837213308
 20
14.4593928919
  0
VERTEX
  8
0
 62
7
  6
CONTINUOUS
 10
6.8338056778
 20
14.4611346306
  0
VERTEX
  8
0
 62
7
  6
CONTINUOUS
 10
6.8300506686
 20
14.4626516422
  0
VERTEX
  8
0
 62
7
  6
CONTINUOUS
 10
6.8259261317
 20
14.4639305967
  0
SEQEND
  0
POLYLINE
  8
0
 62
7
  6
CONTINUOUS
 66
1
 70
0
  0
VERTEX
  8
0
 62
7
  6
CONTINUOUS
 10
6.6904344651
 20
14.2755958745
  0
VERTEX
  8
0
 62
7
  6
CONTINUOUS
 10
6.6891690592
 20
14.2771009149
  0
VERTEX
  8
0
 62
7
  6
CONTINUOUS
 10
6.6877429256
 20
14.2785290375
  0
VERTEX
  8
0
 62
7
  6
CONTINUOUS
 10
6.6861461403
 20
14.2798836868
  0
VERTEX
  8
0
 62
7
  6
CONTINUOUS
 10
6.684366642
 20
14.2811667918
  0
VERTEX
  8
0
 62
7
  6
CONTINUOUS
 10
6.6823903115
 20
14.2823788147
  0
VERTEX
  8
0
 62
7
  6
CONTINUOUS
 10
6.6802009998
 20
14.2835188379
  0
VERTEX
  8
0
 62
7
  6
CONTINUOUS
 10
6.6777804705
 20
14.284584683
  0
VERTEX
  8
0
 62
7
  6
CONTINUOUS
 10
6.6751082139
 20
14.285573052
  0
VERTEX
  8
0
 62
7
  6
CONTINUOUS
 10
6.6721610637
 20
14.2864796897
  0
VERTEX
  8
0
 62
7
  6
CONTINUOUS
 10
6.6689124997
 20
14.287299563
  0
VERTEX
  8
0
 62
7
  6
CONTINUOUS
 10
6.6653314155
 20
14.2880270616
  0
VERTEX
  8
0
 62
7
  6
CONTINUOUS
 10
6.6613799094
 20
14.2886562311
  0
VERTEX
  8
0
 62
7
  6
CONTINUOUS
 10
6.6570091361
 20
14.2891810625
  0
VERTEX
  8
0
 62
7
  6
CONTINUOUS
 10
6.6521508896
 20
14.2895958924
  0
VERTEX
  8
0
 62
7
  6
CONTINUOUS
 10
6.6466983995
 20
14.2898960507
  0
VERTEX
  8
0
 62
7
  6
CONTINUOUS
 10
6.6404537707
 20
14.2900792082
  0
VERTEX
  8
0
 62
7
  6
CONTINUOUS
 10
6.6329305202
 20
14.2901496992
  0
VERTEX
  8
0
 62
7
  6
CONTINUOUS
 10
6.5723247428
 20
14.2901500411
  0
SEQEND
  0
LINE
  8
0
 62
7
  6
CONTINUOUS
 10
8.8647719651
 20
14.1422000411
 11
8.8712552984
 21
14.12842643
  0
POLYLINE
  8
0
 62
7
  6
CONTINUOUS
 66
1
 70
0
  0
VERTEX
  8
0
 62
7
  6
CONTINUOUS
 10
8.7799594651
 20
13.9414417078
  0
VERTEX
  8
0
 62
7
  6
CONTINUOUS
 10
8.8224539095
 20
13.8362722633
  0
VERTEX
  8
0
 62
7
  6
CONTINUOUS
 10
8.8145052984
 20
13.8362722633
  0
VERTEX
  8
0
 62
7
  6
CONTINUOUS
 10
8.8014719651
 20
13.8686208745
  0
SEQEND
  0
LINE
  8
0
 62
7
  6
CONTINUOUS
 10
8.6029039095
 20
13.9159708745
 11
8.6370427984
 21
13.8314430967
  0
LINE
  8
0
 62
7
  6
CONTINUOUS
 10
8.6370427984
 20
13.85178893
 11
8.6005705762
 21
13.9421472633
  0
LINE
  8
0
 62
7
  6
CONTINUOUS
 10
8.7977275206
 20
13.8763653189
 11
8.7799594651
 21
13.9206083745
  0
POLYLINE
  8
0
 62
7
  6
CONTINUOUS
 66
1
 70
0
  0
VERTEX
  8
0
 62
7
  6
CONTINUOUS
 10
7.6360191873
 20
14.1247111522
  0
VERTEX
  8
0
 62
7
  6
CONTINUOUS
 10
7.6400512841
 20
14.1259278672
  0
VERTEX
  8
0
 62
7
  6
CONTINUOUS
 10
7.6419350909
 20
14.1266298869
  0
VERTEX
  8
0
 62
7
  6
CONTINUOUS
 10
7.6437333775
 20
14.1273917794
  0
VERTEX
  8
0
 62
7
  6
CONTINUOUS
 10
7.6470812325
 20
14.1290874557
  0
VERTEX
  8
0
 62
7
  6
CONTINUOUS
 10
7.6501242901
 20
14.1310090877
  0
VERTEX
  8
0
 62
7
  6
CONTINUOUS
 10
7.6528883926
 20
14.1331563814
  0
VERTEX
  8
0
 62
7
  6
CONTINUOUS
 10
7.6553953099
 20
14.1355346294
  0
VERTEX
  8
0
 62
7
  6
CONTINUOUS
 10
7.6576624368
 20
14.1381547334
  0
VERTEX
  8
0
 62
7
  6
CONTINUOUS
 10
7.6597026051
 20
14.1410331868
  0
VERTEX
  8
0
 62
7
  6
CONTINUOUS
 10
7.6615240566
 20
14.1441921149
  0
VERTEX
  8
0
 62
7
  6
CONTINUOUS
 10
7.6631306018
 20
14.1476595429
  0
VERTEX
  8
0
 62
7
  6
CONTINUOUS
 10
7.6645219763
 20
14.1514701771
  0
VERTEX
  8
0
 62
7
  6
CONTINUOUS
 10
7.6656943971
 20
14.1556672297
  0
VERTEX
  8
0
 62
7
  6
CONTINUOUS
 10
7.6666413331
 20
14.160306392
  0
VERTEX
  8
0
 62
7
  6
CONTINUOUS
 10
7.6673545559
 20
14.1654646664
  0
VERTEX
  8
0
 62
7
  6
CONTINUOUS
 10
7.6678256868
 20
14.1712619021
  0
VERTEX
  8
0
 62
7
  6
CONTINUOUS
 10
7.66804903
 20
14.1779238616
  0
VERTEX
  8
0
 62
7
  6
CONTINUOUS
 10
7.6680303214
 20
14.1860451322
  0
SEQEND
  0
POLYLINE
  8
0
 62
7
  6
CONTINUOUS
 66
1
 70
0
  0
VERTEX
  8
0
 62
7
  6
CONTINUOUS
 10
7.2708316873
 20
14.1247111522
  0
VERTEX
  8
0
 62
7
  6
CONTINUOUS
 10
7.2749417137
 20
14.12592701
  0
VERTEX
  8
0
 62
7
  6
CONTINUOUS
 10
7.2768613347
 20
14.126628108
  0
VERTEX
  8
0
 62
7
  6
CONTINUOUS
 10
7.278694105
 20
14.1273889455
  0
VERTEX
  8
0
 62
7
  6
CONTINUOUS
 10
7.282107031
 20
14.1290821373
  0
VERTEX
  8
0
 62
7
  6
CONTINUOUS
 10
7.2852084071
 20
14.1309994427
  0
VERTEX
  8
0
 62
7
  6
CONTINUOUS
 10
7.2880246652
 20
14.1331398132
  0
VERTEX
  8
0
 62
7
  6
CONTINUOUS
 10
7.2905782423
 20
14.1355076869
  0
VERTEX
  8
0
 62
7
  6
CONTINUOUS
 10
7.2928872711
 20
14.1381130296
  0
VERTEX
  8
0
 62
7
  6
CONTINUOUS
 10
7.2949653758
 20
14.1409713303
  0
VERTEX
  8
0
 62
7
  6
CONTINUOUS
 10
7.2968216194
 20
14.1441036405
  0
VERTEX
  8
0
 62
7
  6
CONTINUOUS
 10
7.2984606311
 20
14.1475368141
  0
VERTEX
  8
0
 62
7
  6
CONTINUOUS
 10
7.2998829302
 20
14.1513042139
  0
VERTEX
  8
0
 62
7
  6
CONTINUOUS
 10
7.3010854476
 20
14.1554473714
  0
VERTEX
  8
0
 62
7
  6
CONTINUOUS
 10
7.3020622617
 20
14.1600196038
  0
VERTEX
  8
0
 62
7
  6
CONTINUOUS
 10
7.3028056047
 20
14.165094
  0
VERTEX
  8
0
 62
7
  6
CONTINUOUS
 10
7.3033073316
 20
14.1707826067
  0
VERTEX
  8
0
 62
7
  6
CONTINUOUS
 10
7.3035615284
 20
14.1772911085
  0
VERTEX
  8
0
 62
7
  6
CONTINUOUS
 10
7.3035719215
 20
14.1851344843
  0
SEQEND
  0
LINE
  8
DEFAULT_2
 62
8
  6
HIDDEN
 10
2.1899803092
 20
5.6597643312
 11
2.5699803092
 21
5.6597643312
  0
LINE
  8
DEFAULT_2
 62
8
  6
HIDDEN
 10
22.9499803092
 20
5.6597643312
 11
23.3299803092
 21
5.6597643312
  0
LINE
  8
0
 62
7
  6
CONTINUOUS
 10
7.0157789095
 20
14.2277180967
 11
6.9491080762
 21
14.3010819856
  0
POLYLINE
  8
0
 62
7
  6
CONTINUOUS
 66
1
 70
0
  0
VERTEX
  8
0
 62
7
  6
CONTINUOUS
 10
7.8230094651
 20
13.8777625411
  0
VERTEX
  8
0
 62
7
  6
CONTINUOUS
 10
7.8787080762
 20
13.8130917078
  0
VERTEX
  8
0
 62
7
  6
CONTINUOUS
 10
7.8340511317
 20
13.8131597633
  0
VERTEX
  8
0
 62
7
  6
CONTINUOUS
 10
7.7962289095
 20
13.8571194856
  0
VERTEX
  8
0
 62
7
  6
CONTINUOUS
 10
7.7961677984
 20
13.8571194856
  0
VERTEX
  8
0
 62
7
  6
CONTINUOUS
 10
7.7961677984
 20
13.8131597633
  0
VERTEX
  8
0
 62
7
  6
CONTINUOUS
 10
7.7624497428
 20
13.8131597633
  0
SEQEND
  0
LINE
  8
0
 62
7
  6
CONTINUOUS
 10
7.9570164095
 20
14.4649680967
 11
7.9679011317
 21
14.4519611522
  0
LINE
  8
0
 62
7
  6
CONTINUOUS
 10
8.3193205762
 20
13.8131597633
 11
8.2918011317
 21
13.8510153189
  0
LINE
  8
0
 62
7
  6
CONTINUOUS
 10
8.3210302984
 20
13.86247643
 11
8.3561455762
 21
13.8130917078
  0
LINE
  8
0
 62
7
  6
CONTINUOUS
 10
8.9237039095
 20
13.9366680967
 11
8.9573414095
 21
13.8787930967
  0
LINE
  8
0
 62
7
  6
CONTINUOUS
 10
8.9613150206
 20
13.8876500411
 11
8.9329816873
 21
13.9366680967
  0
LINE
  8
0
 62
7
  6
CONTINUOUS
 10
7.1041719651
 20
14.14915143
 11
7.0157789095
 21
14.2277180967
  0
POLYLINE
  8
0
 62
7
  6
CONTINUOUS
 66
1
 70
0
  0
VERTEX
  8
0
 62
7
  6
CONTINUOUS
 10
7.0331677984
 20
14.2901500411
  0
VERTEX
  8
0
 62
7
  6
CONTINUOUS
 10
7.1375108539
 20
14.1959861522
  0
VERTEX
  8
0
 62
7
  6
CONTINUOUS
 10
7.1431932929
 20
14.1910784944
  0
VERTEX
  8
0
 62
7
  6
CONTINUOUS
 10
7.1494088699
 20
14.1860029036
  0
VERTEX
  8
0
 62
7
  6
CONTINUOUS
 10
7.1561637754
 20
14.1807724543
  0
VERTEX
  8
0
 62
7
  6
CONTINUOUS
 10
7.1634568835
 20
14.1754047453
  0
VERTEX
  8
0
 62
7
  6
CONTINUOUS
 10
7.1712781155
 20
14.1699224756
  0
VERTEX
  8
0
 62
7
  6
CONTINUOUS
 10
7.1796067127
 20
14.1643539676
  0
VERTEX
  8
0
 62
7
  6
CONTINUOUS
 10
7.1884095223
 20
14.1587335635
  0
VERTEX
  8
0
 62
7
  6
CONTINUOUS
 10
7.197639467
 20
14.1531017951
  0
VERTEX
  8
0
 62
7
  6
CONTINUOUS
 10
7.2072344325
 20
14.1475052047
  0
VERTEX
  8
0
 62
7
  6
CONTINUOUS
 10
7.2171168669
 20
14.1419956893
  0
VERTEX
  8
0
 62
7
  6
CONTINUOUS
 10
7.2271944128
 20
14.1366292547
  0
VERTEX
  8
0
 62
7
  6
CONTINUOUS
 10
7.2373618534
 20
14.1314641231
  0
VERTEX
  8
0
 62
7
  6
CONTINUOUS
 10
7.2449187635
 20
14.1277854662
  0
VERTEX
  8
0
 62
7
  6
CONTINUOUS
 10
7.2549011317
 20
14.1231375411
  0
SEQEND
  0
LINE
  8
0
 62
7
  6
CONTINUOUS
 10
7.9780330762
 20
14.4415569856
 11
8.2432441873
 21
14.2011805967
  0
LINE
  8
0
 62
7
  6
CONTINUOUS
 10
8.1896136317
 20
14.16580143
 11
7.9410858539
 21
14.39212643
  0
LINE
  8
0
 62
7
  6
CONTINUOUS
 10
7.9679011317
 20
14.4519611522
 11
7.9780330762
 21
14.4415569856
  0
LINE
  8
0
 62
7
  6
CONTINUOUS
 10
8.9106025206
 20
13.8519778189
 11
8.8278525206
 21
13.9392861522
  0
LINE
  8
0
 62
7
  6
CONTINUOUS
 10
8.8359497428
 20
13.9194972633
 11
8.9186997428
 21
13.8315930967
  0
POLYLINE
  8
0
 62
7
  6
CONTINUOUS
 66
1
 70
0
  0
VERTEX
  8
0
 62
7
  6
CONTINUOUS
 10
5.6817955762
 20
14.1954569856
  0
VERTEX
  8
0
 62
7
  6
CONTINUOUS
 10
5.6902010357
 20
14.1907242744
  0
VERTEX
  8
0
 62
7
  6
CONTINUOUS
 10
5.6991701728
 20
14.1860842011
  0
VERTEX
  8
0
 62
7
  6
CONTINUOUS
 10
5.7086317286
 20
14.1815917357
  0
VERTEX
  8
0
 62
7
  6
CONTINUOUS
 10
5.7118940987
 20
14.1801305821
  0
VERTEX
  8
0
 62
7
  6
CONTINUOUS
 10
5.7218491547
 20
14.1759311865
  0
VERTEX
  8
0
 62
7
  6
CONTINUOUS
 10
5.7320575603
 20
14.1720078214
  0
VERTEX
  8
0
 62
7
  6
CONTINUOUS
 10
5.7424355583
 20
14.1683945283
  0
VERTEX
  8
0
 62
7
  6
CONTINUOUS
 10
5.7529044688
 20
14.165118136
  0
VERTEX
  8
0
 62
7
  6
CONTINUOUS
 10
5.7633924676
 20
14.1621984804
  0
VERTEX
  8
0
 62
7
  6
CONTINUOUS
 10
5.7738356344
 20
14.1596489415
  0
VERTEX
  8
0
 62
7
  6
CONTINUOUS
 10
5.7841783862
 20
14.1574771802
  0
VERTEX
  8
0
 62
7
  6
CONTINUOUS
 10
5.7943734369
 20
14.1556859673
  0
VERTEX
  8
0
 62
7
  6
CONTINUOUS
 10
5.8043814233
 20
14.1542740316
  0
VERTEX
  8
0
 62
7
  6
CONTINUOUS
 10
5.8141703187
 20
14.1532368707
  0
VERTEX
  8
0
 62
7
  6
CONTINUOUS
 10
5.8237147306
 20
14.1525674959
  0
VERTEX
  8
0
 62
7
  6
CONTINUOUS
 10
5.8329951517
 20
14.1522570964
  0
VERTEX
  8
0
 62
7
  6
CONTINUOUS
 10
5.8419972143
 20
14.1522956171
  0
VERTEX
  8
0
 62
7
  6
CONTINUOUS
 10
5.8507109772
 20
14.1526722561
  0
VERTEX
  8
0
 62
7
  6
CONTINUOUS
 10
5.8591302625
 20
14.1533758863
  0
VERTEX
  8
0
 62
7
  6
CONTINUOUS
 10
5.8672520497
 20
14.1543954112
  0
VERTEX
  8
0
 62
7
  6
CONTINUOUS
 10
5.8750759296
 20
14.1557200641
  0
VERTEX
  8
0
 62
7
  6
CONTINUOUS
 10
5.8826036147
 20
14.1573396573
  0
VERTEX
  8
0
 62
7
  6
CONTINUOUS
 10
5.8898385021
 20
14.1592447901
  0
VERTEX
  8
0
 62
7
  6
CONTINUOUS
 10
5.8967852832
 20
14.1614270209
  0
VERTEX
  8
0
 62
7
  6
CONTINUOUS
 10
5.9034495955
 20
14.1638790085
  0
VERTEX
  8
0
 62
7
  6
CONTINUOUS
 10
5.9098377093
 20
14.1665946258
  0
VERTEX
  8
0
 62
7
  6
CONTINUOUS
 10
5.91508807
 20
14.169171522
  0
VERTEX
  8
0
 62
7
  6
CONTINUOUS
 10
5.919809877
 20
14.1718637821
  0
VERTEX
  8
0
 62
7
  6
CONTINUOUS
 10
5.9240262501
 20
14.1746553068
  0
VERTEX
  8
0
 62
7
  6
CONTINUOUS
 10
5.9277604677
 20
14.177531742
  0
VERTEX
  8
0
 62
7
  6
CONTINUOUS
 10
5.9310355403
 20
14.1804807131
  0
VERTEX
  8
0
 62
7
  6
CONTINUOUS
 10
5.9338737008
 20
14.1834920135
  0
VERTEX
  8
0
 62
7
  6
CONTINUOUS
 10
5.9362958234
 20
14.1865577237
  0
VERTEX
  8
0
 62
7
  6
CONTINUOUS
 10
5.9383207908
 20
14.189672229
  0
VERTEX
  8
0
 62
7
  6
CONTINUOUS
 10
5.9399648443
 20
14.1928321101
  0
VERTEX
  8
0
 62
7
  6
CONTINUOUS
 10
5.9412409643
 20
14.1960358814
  0
VERTEX
  8
0
 62
7
  6
CONTINUOUS
 10
5.9421575017
 20
14.19927986
  0
VERTEX
  8
0
 62
7
  6
CONTINUOUS
 10
5.942719924
 20
14.202558408
  0
VERTEX
  8
0
 62
7
  6
CONTINUOUS
 10
5.9429321923
 20
14.2058724848
  0
VERTEX
  8
0
 62
7
  6
CONTINUOUS
 10
5.9427940136
 20
14.2092230639
  0
VERTEX
  8
0
 62
7
  6
CONTINUOUS
 10
5.9423010411
 20
14.2126103578
  0
VERTEX
  8
0
 62
7
  6
CONTINUOUS
 10
5.9414453397
 20
14.2160330599
  0
VERTEX
  8
0
 62
7
  6
CONTINUOUS
 10
5.9402160918
 20
14.2194876678
  0
VERTEX
  8
0
 62
7
  6
CONTINUOUS
 10
5.9386004929
 20
14.2229679392
  0
VERTEX
  8
0
 62
7
  6
CONTINUOUS
 10
5.9365847731
 20
14.2264645194
  0
VERTEX
  8
0
 62
7
  6
CONTINUOUS
 10
5.9341552712
 20
14.2299647595
  0
VERTEX
  8
0
 62
7
  6
CONTINUOUS
 10
5.9312994874
 20
14.2334527364
  0
VERTEX
  8
0
 62
7
  6
CONTINUOUS
 10
5.9280070424
 20
14.2369094636
  0
VERTEX
  8
0
 62
7
  6
CONTINUOUS
 10
5.9242704792
 20
14.240313277
  0
VERTEX
  8
0
 62
7
  6
CONTINUOUS
 10
5.9200858581
 20
14.243640359
  0
VERTEX
  8
0
 62
7
  6
CONTINUOUS
 10
5.9154531118
 20
14.2468653617
  0
VERTEX
  8
0
 62
7
  6
CONTINUOUS
 10
5.910376153
 20
14.2499620775
  0
VERTEX
  8
0
 62
7
  6
CONTINUOUS
 10
5.9055543638
 20
14.2525563922
  0
VERTEX
  8
0
 62
7
  6
CONTINUOUS
 10
5.8971819364
 20
14.256610341
  0
VERTEX
  8
0
 62
7
  6
CONTINUOUS
 10
5.8882093609
 20
14.2605754235
  0
VERTEX
  8
0
 62
7
  6
CONTINUOUS
 10
5.8784682179
 20
14.2645094995
  0
VERTEX
  8
0
 62
7
  6
CONTINUOUS
 10
5.8676798346
 20
14.2685053368
  0
VERTEX
  8
0
 62
7
  6
CONTINUOUS
 10
5.8553099389
 20
14.2727380729
  0
VERTEX
  8
0
 62
7
  6
CONTINUOUS
 10
5.8400182516
 20
14.2776452878
  0
VERTEX
  8
0
 62
7
  6
CONTINUOUS
 10
5.8212380861
 20
14.2835086792
  0
VERTEX
  8
0
 62
7
  6
CONTINUOUS
 10
5.8061321527
 20
14.2883675591
  0
VERTEX
  8
0
 62
7
  6
CONTINUOUS
 10
5.7938491269
 20
14.2925842778
  0
VERTEX
  8
0
 62
7
  6
CONTINUOUS
 10
5.7849460614
 20
14.2958101336
  0
VERTEX
  8
0
 62
7
  6
CONTINUOUS
 10
5.774502042
 20
14.2998089717
  0
VERTEX
  8
0
 62
7
  6
CONTINUOUS
 10
5.765250528
 20
14.3036484197
  0
VERTEX
  8
0
 62
7
  6
CONTINUOUS
 10
5.756894201
 20
14.3074385006
  0
VERTEX
  8
0
 62
7
  6
CONTINUOUS
 10
5.7492954993
 20
14.3112226581
  0
VERTEX
  8
0
 62
7
  6
CONTINUOUS
 10
5.7423724323
 20
14.3150206629
  0
VERTEX
  8
0
 62
7
  6
CONTINUOUS
 10
5.7360671159
 20
14.3188421393
  0
VERTEX
  8
0
 62
7
  6
CONTINUOUS
 10
5.730333861
 20
14.3226920424
  0
VERTEX
  8
0
 62
7
  6
CONTINUOUS
 10
5.7251340334
 20
14.3265732669
  0
VERTEX
  8
0
 62
7
  6
CONTINUOUS
 10
5.720433668
 20
14.3304880431
  0
VERTEX
  8
0
 62
7
  6
CONTINUOUS
 10
5.7162023371
 20
14.3344387547
  0
VERTEX
  8
0
 62
7
  6
CONTINUOUS
 10
5.7124126421
 20
14.3384284495
  0
VERTEX
  8
0
 62
7
  6
CONTINUOUS
 10
5.7090400333
 20
14.34246117
  0
VERTEX
  8
0
 62
7
  6
CONTINUOUS
 10
5.7060628141
 20
14.3465421665
  0
VERTEX
  8
0
 62
7
  6
CONTINUOUS
 10
5.7034622462
 20
14.3506780226
  0
VERTEX
  8
0
 62
7
  6
CONTINUOUS
 10
5.701222709
 20
14.3548767102
  0
VERTEX
  8
0
 62
7
  6
CONTINUOUS
 10
5.699331878
 20
14.3591475826
  0
VERTEX
  8
0
 62
7
  6
CONTINUOUS
 10
5.6974940071
 20
14.3642205253
  0
VERTEX
  8
0
 62
7
  6
CONTINUOUS
 10
5.6960698298
 20
14.3691606334
  0
VERTEX
  8
0
 62
7
  6
CONTINUOUS
 10
5.6950403328
 20
14.3739785168
  0
VERTEX
  8
0
 62
7
  6
CONTINUOUS
 10
5.694390382
 20
14.3786787398
  0
VERTEX
  8
0
 62
7
  6
CONTINUOUS
 10
5.6941063214
 20
14.3832670486
  0
VERTEX
  8
0
 62
7
  6
CONTINUOUS
 10
5.6941766901
 20
14.3877540849
  0
VERTEX
  8
0
 62
7
  6
CONTINUOUS
 10
5.6945935659
 20
14.3921502244
  0
VERTEX
  8
0
 62
7
  6
CONTINUOUS
 10
5.6953526016
 20
14.3964652917
  0
VERTEX
  8
0
 62
7
  6
CONTINUOUS
 10
5.6964529736
 20
14.4007082511
  0
VERTEX
  8
0
 62
7
  6
CONTINUOUS
 10
5.6978972314
 20
14.4048868839
  0
VERTEX
  8
0
 62
7
  6
CONTINUOUS
 10
5.6996910386
 20
14.4090074641
  0
VERTEX
  8
0
 62
7
  6
CONTINUOUS
 10
5.7018428027
 20
14.4130744449
  0
VERTEX
  8
0
 62
7
  6
CONTINUOUS
 10
5.7043631892
 20
14.4170901603
  0
VERTEX
  8
0
 62
7
  6
CONTINUOUS
 10
5.7072645158
 20
14.4210545471
  0
VERTEX
  8
0
 62
7
  6
CONTINUOUS
 10
5.7105600172
 20
14.4249648861
  0
VERTEX
  8
0
 62
7
  6
CONTINUOUS
 10
5.7142629655
 20
14.4288155599
  0
VERTEX
  8
0
 62
7
  6
CONTINUOUS
 10
5.7183856239
 20
14.4325978257
  0
VERTEX
  8
0
 62
7
  6
CONTINUOUS
 10
5.7229380022
 20
14.4362996032
  0
VERTEX
  8
0
 62
7
  6
CONTINUOUS
 10
5.7279263823
 20
14.4399052845
  0
VERTEX
  8
0
 62
7
  6
CONTINUOUS
 10
5.733351578
 20
14.4433955847
  0
VERTEX
  8
0
 62
7
  6
CONTINUOUS
 10
5.7392069105
 20
14.446747466
  0
VERTEX
  8
0
 62
7
  6
CONTINUOUS
 10
5.7454759122
 20
14.4499341894
  0
VERTEX
  8
0
 62
7
  6
CONTINUOUS
 10
5.7503710879
 20
14.4521710938
  0
VERTEX
  8
0
 62
7
  6
CONTINUOUS
 10
5.7577908269
 20
14.4552170232
  0
VERTEX
  8
0
 62
7
  6
CONTINUOUS
 10
5.7657042348
 20
14.4580857421
  0
VERTEX
  8
0
 62
7
  6
CONTINUOUS
 10
5.7741243928
 20
14.460764557
  0
VERTEX
  8
0
 62
7
  6
CONTINUOUS
 10
5.7830619413
 20
14.4632395998
  0
VERTEX
  8
0
 62
7
  6
CONTINUOUS
 10
5.7925242994
 20
14.4654959644
  0
VERTEX
  8
0
 62
7
  6
CONTINUOUS
 10
5.8025147496
 20
14.4675178758
  0
VERTEX
  8
0
 62
7
  6
CONTINUOUS
 10
5.8130313667
 20
14.4692889038
  0
VERTEX
  8
0
 62
7
  6
CONTINUOUS
 10
5.8240657699
 20
14.4707922336
  0
VERTEX
  8
0
 62
7
  6
CONTINUOUS
 10
5.8356016852
 20
14.4720110139
  0
VERTEX
  8
0
 62
7
  6
CONTINUOUS
 10
5.8476133154
 20
14.4729287995
  0
VERTEX
  8
0
 62
7
  6
CONTINUOUS
 10
5.8600635384
 20
14.473530114
  0
VERTEX
  8
0
 62
7
  6
CONTINUOUS
 10
5.8729019912
 20
14.4738011539
  0
VERTEX
  8
0
 62
7
  6
CONTINUOUS
 10
5.886063154
 20
14.4737306523
  0
VERTEX
  8
0
 62
7
  6
CONTINUOUS
 10
5.8994646275
 20
14.4733109105
  0
VERTEX
  8
0
 62
7
  6
CONTINUOUS
 10
5.9130058982
 20
14.4725389766
  0
VERTEX
  8
0
 62
7
  6
CONTINUOUS
 10
5.9265680005
 20
14.4714179198
  0
VERTEX
  8
0
 62
7
  6
CONTINUOUS
 10
5.9400145746
 20
14.4699580861
  0
VERTEX
  8
0
 62
7
  6
CONTINUOUS
 10
5.9531948411
 20
14.468178162
  0
VERTEX
  8
0
 62
7
  6
CONTINUOUS
 10
5.9607200699
 20
14.4669988618
  0
VERTEX
  8
0
 62
7
  6
CONTINUOUS
 10
5.9730749584
 20
14.4647862955
  0
VERTEX
  8
0
 62
7
  6
CONTINUOUS
 10
5.9846789095
 20
14.46236393
  0
SEQEND
  0
POLYLINE
  8
0
 62
7
  6
CONTINUOUS
 66
1
 70
0
  0
VERTEX
  8
0
 62
7
  6
CONTINUOUS
 10
5.9846789095
 20
14.4035875411
  0
VERTEX
  8
0
 62
7
  6
CONTINUOUS
 10
5.9766345465
 20
14.4084571885
  0
VERTEX
  8
0
 62
7
  6
CONTINUOUS
 10
5.9687029542
 20
14.4128476177
  0
VERTEX
  8
0
 62
7
  6
CONTINUOUS
 10
5.9608398441
 20
14.4167956508
  0
VERTEX
  8
0
 62
7
  6
CONTINUOUS
 10
5.9530028238
 20
14.4203319545
  0
VERTEX
  8
0
 62
7
  6
CONTINUOUS
 10
5.9451504602
 20
14.4234817294
  0
VERTEX
  8
0
 62
7
  6
CONTINUOUS
 10
5.9372414291
 20
14.4262652227
  0
VERTEX
  8
0
 62
7
  6
CONTINUOUS
 10
5.933253065
 20
14.4275245332
  0
VERTEX
  8
0
 62
7
  6
CONTINUOUS
 10
5.9292392318
 20
14.4286965523
  0
VERTEX
  8
0
 62
7
  6
CONTINUOUS
 10
5.921120817
 20
14.4307830345
  0
VERTEX
  8
0
 62
7
  6
CONTINUOUS
 10
5.9128421713
 20
14.432534964
  0
VERTEX
  8
0
 62
7
  6
CONTINUOUS
 10
5.9043569013
 20
14.4339584945
  0
VERTEX
  8
0
 62
7
  6
CONTINUOUS
 10
5.8956152766
 20
14.4350557432
  0
VERTEX
  8
0
 62
7
  6
CONTINUOUS
 10
5.8865631185
 20
14.4358248004
  0
VERTEX
  8
0
 62
7
  6
CONTINUOUS
 10
5.8771404594
 20
14.4362596316
  0
VERTEX
  8
0
 62
7
  6
CONTINUOUS
 10
5.8752846436
 20
14.4363040569
  0
VERTEX
  8
0
 62
7
  6
CONTINUOUS
 10
5.8677756482
 20
14.4363115167
  0
VERTEX
  8
0
 62
7
  6
CONTINUOUS
 10
5.8591021155
 20
14.4359993489
  0
VERTEX
  8
0
 62
7
  6
CONTINUOUS
 10
5.8504393106
 20
14.4353617466
  0
VERTEX
  8
0
 62
7
  6
CONTINUOUS
 10
5.842094669
 20
14.4344234014
  0
VERTEX
  8
0
 62
7
  6
CONTINUOUS
 10
5.8342294988
 20
14.4332139328
  0
VERTEX
  8
0
 62
7
  6
CONTINUOUS
 10
5.826923641
 20
14.4317632177
  0
VERTEX
  8
0
 62
7
  6
CONTINUOUS
 10
5.8202096673
 20
14.4300994993
  0
VERTEX
  8
0
 62
7
  6
CONTINUOUS
 10
5.8140918728
 20
14.4282485594
  0
VERTEX
  8
0
 62
7
  6
CONTINUOUS
 10
5.8085573925
 20
14.4262333111
  0
VERTEX
  8
0
 62
7
  6
CONTINUOUS
 10
5.8035830458
 20
14.4240735546
  0
VERTEX
  8
0
 62
7
  6
CONTINUOUS
 10
5.7991397632
 20
14.4217857899
  0
VERTEX
  8
0
 62
7
  6
CONTINUOUS
 10
5.7951956014
 20
14.4193830406
  0
VERTEX
  8
0
 62
7
  6
CONTINUOUS
 10
5.7917179165
 20
14.4168746807
  0
VERTEX
  8
0
 62
7
  6
CONTINUOUS
 10
5.7886750319
 20
14.4142662706
  0
VERTEX
  8
0
 62
7
  6
CONTINUOUS
 10
5.7860376024
 20
14.4115594252
  0
VERTEX
  8
0
 62
7
  6
CONTINUOUS
 10
5.7837797875
 20
14.4087517475
  0
VERTEX
  8
0
 62
7
  6
CONTINUOUS
 10
5.7818802851
 20
14.4058368618
  0
VERTEX
  8
0
 62
7
  6
CONTINUOUS
 10
5.7803232327
 20
14.4028045786
  0
VERTEX
  8
0
 62
7
  6
CONTINUOUS
 10
5.7790989476
 20
14.3996412051
  0
VERTEX
  8
0
 62
7
  6
CONTINUOUS
 10
5.7782044666
 20
14.396329989
  0
VERTEX
  8
0
 62
7
  6
CONTINUOUS
 10
5.77764385
 20
14.3928516575
  0
VERTEX
  8
0
 62
7
  6
CONTINUOUS
 10
5.7774591095
 20
14.3895194208
  0
VERTEX
  8
0
 62
7
  6
CONTINUOUS
 10
5.7776354616
 20
14.3862626353
  0
VERTEX
  8
0
 62
7
  6
CONTINUOUS
 10
5.7781665029
 20
14.3830617198
  0
VERTEX
  8
0
 62
7
  6
CONTINUOUS
 10
5.7790542135
 20
14.3798980132
  0
VERTEX
  8
0
 62
7
  6
CONTINUOUS
 10
5.7803087165
 20
14.3767543759
  0
VERTEX
  8
0
 62
7
  6
CONTINUOUS
 10
5.7819477827
 20
14.3736157022
  0
VERTEX
  8
0
 62
7
  6
CONTINUOUS
 10
5.7839961424
 20
14.3704692902
  0
VERTEX
  8
0
 62
7
  6
CONTINUOUS
 10
5.7864846784
 20
14.3673050493
  0
VERTEX
  8
0
 62
7
  6
CONTINUOUS
 10
5.7894495699
 20
14.3641155559
  0
VERTEX
  8
0
 62
7
  6
CONTINUOUS
 10
5.7929314344
 20
14.3608959836
  0
VERTEX
  8
0
 62
7
  6
CONTINUOUS
 10
5.7969744957
 20
14.357643936
  0
VERTEX
  8
0
 62
7
  6
CONTINUOUS
 10
5.8016257942
 20
14.3543591959
  0
VERTEX
  8
0
 62
7
  6
CONTINUOUS
 10
5.806934477
 20
14.3510433706
  0
VERTEX
  8
0
 62
7
  6
CONTINUOUS
 10
5.812951287
 20
14.3476993497
  0
VERTEX
  8
0
 62
7
  6
CONTINUOUS
 10
5.8197286424
 20
14.3443303367
  0
VERTEX
  8
0
 62
7
  6
CONTINUOUS
 10
5.8273225615
 20
14.3409377907
  0
VERTEX
  8
0
 62
7
  6
CONTINUOUS
 10
5.8358008578
 20
14.3375161854
  0
VERTEX
  8
0
 62
7
  6
CONTINUOUS
 10
5.8452765299
 20
14.3340362429
  0
VERTEX
  8
0
 62
7
  6
CONTINUOUS
 10
5.8560847326
 20
14.3303657292
  0
VERTEX
  8
0
 62
7
  6
CONTINUOUS
 10
5.8637945742
 20
14.3278033501
  0
VERTEX
  8
0
 62
7
  6
CONTINUOUS
 10
5.8810734281
 20
14.3220710829
  0
VERTEX
  8
0
 62
7
  6
CONTINUOUS
 10
5.89885069
 20
14.3163059766
  0
VERTEX
  8
0
 62
7
  6
CONTINUOUS
 10
5.9160713268
 20
14.3105915083
  0
VERTEX
  8
0
 62
7
  6
CONTINUOUS
 10
5.9299097831
 20
14.3057311763
  0
VERTEX
  8
0
 62
7
  6
CONTINUOUS
 10
5.9419490858
 20
14.3011902426
  0
VERTEX
  8
0
 62
7
  6
CONTINUOUS
 10
5.9528071375
 20
14.2967593956
  0
VERTEX
  8
0
 62
7
  6
CONTINUOUS
 10
5.9628027598
 20
14.2923293149
  0
VERTEX
  8
0
 62
7
  6
CONTINUOUS
 10
5.9721272674
 20
14.2878327372
  0
VERTEX
  8
0
 62
7
  6
CONTINUOUS
 10
5.9790290748
 20
14.284162455
  0
VERTEX
  8
0
 62
7
  6
CONTINUOUS
 10
5.9853365935
 20
14.280413388
  0
VERTEX
  8
0
 62
7
  6
CONTINUOUS
 10
5.9910770504
 20
14.2765955809
  0
VERTEX
  8
0
 62
7
  6
CONTINUOUS
 10
5.9962770512
 20
14.2727178427
  0
VERTEX
  8
0
 62
7
  6
CONTINUOUS
 10
6.0009623679
 20
14.2687876498
  0
VERTEX
  8
0
 62
7
  6
CONTINUOUS
 10
6.0051576986
 20
14.2648110607
  0
VERTEX
  8
0
 62
7
  6
CONTINUOUS
 10
6.0088864012
 20
14.2607926519
  0
VERTEX
  8
0
 62
7
  6
CONTINUOUS
 10
6.0121702034
 20
14.2567354822
  0
VERTEX
  8
0
 62
7
  6
CONTINUOUS
 10
6.0150288964
 20
14.2526410961
  0
VERTEX
  8
0
 62
7
  6
CONTINUOUS
 10
6.0174800209
 20
14.2485095749
  0
VERTEX
  8
0
 62
7
  6
CONTINUOUS
 10
6.0195385598
 20
14.2443396473
  0
VERTEX
  8
0
 62
7
  6
CONTINUOUS
 10
6.0212146686
 20
14.2401344996
  0
VERTEX
  8
0
 62
7
  6
CONTINUOUS
 10
6.0225177895
 20
14.2358950672
  0
VERTEX
  8
0
 62
7
  6
CONTINUOUS
 10
6.0234561665
 20
14.2316179794
  0
VERTEX
  8
0
 62
7
  6
CONTINUOUS
 10
6.0240348276
 20
14.2272993804
  0
VERTEX
  8
0
 62
7
  6
CONTINUOUS
 10
6.0242555561
 20
14.2229353161
  0
VERTEX
  8
0
 62
7
  6
CONTINUOUS
 10
6.0241169729
 20
14.2185221612
  0
VERTEX
  8
0
 62
7
  6
CONTINUOUS
 10
6.0236147373
 20
14.2140570676
  0
VERTEX
  8
0
 62
7
  6
CONTINUOUS
 10
6.0227418693
 20
14.2095384149
  0
VERTEX
  8
0
 62
7
  6
CONTINUOUS
 10
6.0214891898
 20
14.2049662477
  0
VERTEX
  8
0
 62
7
  6
CONTINUOUS
 10
6.0198458692
 20
14.2003426805
  0
VERTEX
  8
0
 62
7
  6
CONTINUOUS
 10
6.0178000721
 20
14.195672257
  0
VERTEX
  8
0
 62
7
  6
CONTINUOUS
 10
6.0153396823
 20
14.1909622495
  0
VERTEX
  8
0
 62
7
  6
CONTINUOUS
 10
6.0124530866
 20
14.1862228845
  0
VERTEX
  8
0
 62
7
  6
CONTINUOUS
 10
6.0091299949
 20
14.1814674812
  0
VERTEX
  8
0
 62
7
  6
CONTINUOUS
 10
6.0053622661
 20
14.1767124885
  0
VERTEX
  8
0
 62
7
  6
CONTINUOUS
 10
6.0011447035
 20
14.171977407
  0
VERTEX
  8
0
 62
7
  6
CONTINUOUS
 10
5.9964757804
 20
14.1672845867
  0
VERTEX
  8
0
 62
7
  6
CONTINUOUS
 10
5.9913582494
 20
14.1626588943
  0
VERTEX
  8
0
 62
7
  6
CONTINUOUS
 10
5.9857995931
 20
14.1581272526
  0
VERTEX
  8
0
 62
7
  6
CONTINUOUS
 10
5.9798122754
 20
14.1537180673
  0
VERTEX
  8
0
 62
7
  6
CONTINUOUS
 10
5.9734137659
 20
14.1494605642
  0
VERTEX
  8
0
 62
7
  6
CONTINUOUS
 10
5.9666263271
 20
14.1453840735
  0
VERTEX
  8
0
 62
7
  6
CONTINUOUS
 10
5.9594765704
 20
14.1415173031
  0
VERTEX
  8
0
 62
7
  6
CONTINUOUS
 10
5.9519948137
 20
14.1378876487
  0
VERTEX
  8
0
 62
7
  6
CONTINUOUS
 10
5.9473333034
 20
14.1358228933
  0
VERTEX
  8
0
 62
7
  6
CONTINUOUS
 10
5.9394062879
 20
14.1326319751
  0
VERTEX
  8
0
 62
7
  6
CONTINUOUS
 10
5.9312540159
 20
14.1297431226
  0
VERTEX
  8
0
 62
7
  6
CONTINUOUS
 10
5.922589343
 20
14.127063721
  0
VERTEX
  8
0
 62
7
  6
CONTINUOUS
 10
5.9134249325
 20
14.1246083003
  0
VERTEX
  8
0
 62
7
  6
CONTINUOUS
 10
5.9037565388
 20
14.122392053
  0
VERTEX
  8
0
 62
7
  6
CONTINUOUS
 10
5.8935841071
 20
14.1204309112
  0
VERTEX
  8
0
 62
7
  6
CONTINUOUS
 10
5.8829127062
 20
14.1187412987
  0
VERTEX
  8
0
 62
7
  6
CONTINUOUS
 10
5.8717535685
 20
14.1173398248
  0
VERTEX
  8
0
 62
7
  6
CONTINUOUS
 10
5.8601252275
 20
14.1162429071
  0
VERTEX
  8
0
 62
7
  6
CONTINUOUS
 10
5.8480547324
 20
14.1154663105
  0
VERTEX
  8
0
 62
7
  6
CONTINUOUS
 10
5.8355788927
 20
14.1150245912
  0
VERTEX
  8
0
 62
7
  6
CONTINUOUS
 10
5.8227454839
 20
14.114930438
  0
VERTEX
  8
0
 62
7
  6
CONTINUOUS
 10
5.8096143018
 20
14.1151939123
  0
VERTEX
  8
0
 62
7
  6
CONTINUOUS
 10
5.796257918
 20
14.1158216012
  0
VERTEX
  8
0
 62
7
  6
CONTINUOUS
 10
5.7827619454
 20
14.1168157163
  0
VERTEX
  8
0
 62
7
  6
CONTINUOUS
 10
5.7692245939
 20
14.1181731976
  0
VERTEX
  8
0
 62
7
  6
CONTINUOUS
 10
5.7557552988
 20
14.1198849097
  0
VERTEX
  8
0
 62
7
  6
CONTINUOUS
 10
5.7424722478
 20
14.1219350385
  0
VERTEX
  8
0
 62
7
  6
CONTINUOUS
 10
5.7397140518
 20
14.1224072407
  0
VERTEX
  8
0
 62
7
  6
CONTINUOUS
 10
5.7268582536
 20
14.1248283929
  0
VERTEX
  8
0
 62
7
  6
CONTINUOUS
 10
5.7145189292
 20
14.1275129729
  0
VERTEX
  8
0
 62
7
  6
CONTINUOUS
 10
5.7028039095
 20
14.1304208745
  0
SEQEND
  0
LINE
  8
0
 62
7
  6
CONTINUOUS
 10
8.4358566873
 20
13.9302250411
 11
8.4698066873
 21
13.9130000411
  0
LINE
  8
0
 62
7
  6
CONTINUOUS
 10
8.8646636317
 20
14.13558893
 11
8.8554802984
 21
14.1405250411
  0
POLYLINE
  8
0
 62
7
  6
CONTINUOUS
 66
1
 70
0
  0
VERTEX
  8
0
 62
7
  6
CONTINUOUS
 10
8.4358566873
 20
13.8426333745
  0
VERTEX
  8
0
 62
7
  6
CONTINUOUS
 10
8.4336991226
 20
13.8427780754
  0
VERTEX
  8
0
 62
7
  6
CONTINUOUS
 10
8.4315944558
 20
13.8429968044
  0
VERTEX
  8
0
 62
7
  6
CONTINUOUS
 10
8.4295420836
 20
13.8432879324
  0
VERTEX
  8
0
 62
7
  6
CONTINUOUS
 10
8.4275414419
 20
13.84364993
  0
VERTEX
  8
0
 62
7
  6
CONTINUOUS
 10
8.4255920134
 20
13.8440813679
  0
VERTEX
  8
0
 62
7
  6
CONTINUOUS
 10
8.4236933363
 20
13.8445809154
  0
VERTEX
  8
0
 62
7
  6
CONTINUOUS
 10
8.4218450127
 20
13.8451473375
  0
VERTEX
  8
0
 62
7
  6
CONTINUOUS
 10
8.4200467182
 20
13.8457794913
  0
VERTEX
  8
0
 62
7
  6
CONTINUOUS
 10
8.4182982107
 20
13.8464763198
  0
VERTEX
  8
0
 62
7
  6
CONTINUOUS
 10
8.4165993401
 20
13.8472368449
  0
VERTEX
  8
0
 62
7
  6
CONTINUOUS
 10
8.4149500571
 20
13.8480601579
  0
VERTEX
  8
0
 62
7
  6
CONTINUOUS
 10
8.4133504223
 20
13.8489454082
  0
VERTEX
  8
0
 62
7
  6
CONTINUOUS
 10
8.4118006143
 20
13.8498917902
  0
VERTEX
  8
0
 62
7
  6
CONTINUOUS
 10
8.4103009374
 20
13.8508985275
  0
VERTEX
  8
0
 62
7
  6
CONTINUOUS
 10
8.4088518277
 20
13.8519648554
  0
VERTEX
  8
0
 62
7
  6
CONTINUOUS
 10
8.4074538586
 20
13.8530900015
  0
VERTEX
  8
0
 62
7
  6
CONTINUOUS
 10
8.4061077443
 20
13.8542731635
  0
VERTEX
  8
0
 62
7
  6
CONTINUOUS
 10
8.404814341
 20
13.8555134862
  0
VERTEX
  8
0
 62
7
  6
CONTINUOUS
 10
8.4035746471
 20
13.8568100358
  0
VERTEX
  8
0
 62
7
  6
CONTINUOUS
 10
8.4023897992
 20
13.8581617741
  0
VERTEX
  8
0
 62
7
  6
CONTINUOUS
 10
8.401261067
 20
13.8595675309
  0
VERTEX
  8
0
 62
7
  6
CONTINUOUS
 10
8.4001898442
 20
13.8610259761
  0
VERTEX
  8
0
 62
7
  6
CONTINUOUS
 10
8.3991776364
 20
13.8625355927
  0
VERTEX
  8
0
 62
7
  6
CONTINUOUS
 10
8.3982260453
 20
13.8640946503
  0
VERTEX
  8
0
 62
7
  6
CONTINUOUS
 10
8.3973367505
 20
13.8657011802
  0
VERTEX
  8
0
 62
7
  6
CONTINUOUS
 10
8.3965114865
 20
13.8673529537
  0
VERTEX
  8
0
 62
7
  6
CONTINUOUS
 10
8.3957520176
 20
13.8690474635
  0
VERTEX
  8
0
 62
7
  6
CONTINUOUS
 10
8.395060109
 20
13.8707819104
  0
VERTEX
  8
0
 62
7
  6
CONTINUOUS
 10
8.394437496
 20
13.8725531949
  0
VERTEX
  8
0
 62
7
  6
CONTINUOUS
 10
8.3938858514
 20
13.8743579159
  0
VERTEX
  8
0
 62
7
  6
CONTINUOUS
 10
8.3934067513
 20
13.8761923766
  0
VERTEX
  8
0
 62
7
  6
CONTINUOUS
 10
8.3930016415
 20
13.8780525978
  0
VERTEX
  8
0
 62
7
  6
CONTINUOUS
 10
8.3926718048
 20
13.8799343401
  0
VERTEX
  8
0
 62
7
  6
CONTINUOUS
 10
8.3924183301
 20
13.8818331333
  0
VERTEX
  8
0
 62
7
  6
CONTINUOUS
 10
8.3922420857
 20
13.8837443138
  0
VERTEX
  8
0
 62
7
  6
CONTINUOUS
 10
8.3921436967
 20
13.8856630687
  0
VERTEX
  8
0
 62
7
  6
CONTINUOUS
 10
8.3921214665
 20
13.8869677468
  0
VERTEX
  8
0
 62
7
  6
CONTINUOUS
 10
8.3921544281
 20
13.8888867355
  0
VERTEX
  8
0
 62
7
  6
CONTINUOUS
 10
8.3922653678
 20
13.8907984185
  0
VERTEX
  8
0
 62
7
  6
CONTINUOUS
 10
8.3924537263
 20
13.8926979674
  0
VERTEX
  8
0
 62
7
  6
CONTINUOUS
 10
8.392718695
 20
13.8945806975
  0
VERTEX
  8
0
 62
7
  6
CONTINUOUS
 10
8.3930592373
 20
13.8964421141
  0
VERTEX
  8
0
 62
7
  6
CONTINUOUS
 10
8.3934741139
 20
13.8982779508
  0
VERTEX
  8
0
 62
7
  6
CONTINUOUS
 10
8.3939619131
 20
13.9000842018
  0
VERTEX
  8
0
 62
7
  6
CONTINUOUS
 10
8.3945210834
 20
13.9018571447
  0
VERTEX
  8
0
 62
7
  6
CONTINUOUS
 10
8.3951499672
 20
13.9035933567
  0
VERTEX
  8
0
 62
7
  6
CONTINUOUS
 10
8.3958468355
 20
13.9052897211
  0
VERTEX
  8
0
 62
7
  6
CONTINUOUS
 10
8.3966099216
 20
13.9069434274
  0
VERTEX
  8
0
 62
7
  6
CONTINUOUS
 10
8.3974374536
 20
13.908551964
  0
VERTEX
  8
0
 62
7
  6
CONTINUOUS
 10
8.398327684
 20
13.9101131047
  0
VERTEX
  8
0
 62
7
  6
CONTINUOUS
 10
8.3992789167
 20
13.9116248909
  0
VERTEX
  8
0
 62
7
  6
CONTINUOUS
 10
8.4002895314
 20
13.9130856092
  0
VERTEX
  8
0
 62
7
  6
CONTINUOUS
 10
8.4013580034
 20
13.914493766
  0
VERTEX
  8
0
 62
7
  6
CONTINUOUS
 10
8.402482921
 20
13.9158480607
  0
VERTEX
  8
0
 62
7
  6
CONTINUOUS
 10
8.4036629984
 20
13.9171473568
  0
VERTEX
  8
0
 62
7
  6
CONTINUOUS
 10
8.4048970863
 20
13.9183906534
  0
VERTEX
  8
0
 62
7
  6
CONTINUOUS
 10
8.4061841779
 20
13.9195770567
  0
VERTEX
  8
0
 62
7
  6
CONTINUOUS
 10
8.4075234132
 20
13.9207057519
  0
VERTEX
  8
0
 62
7
  6
CONTINUOUS
 10
8.4089140801
 20
13.9217759773
  0
VERTEX
  8
0
 62
7
  6
CONTINUOUS
 10
8.4103556126
 20
13.922786999
  0
VERTEX
  8
0
 62
7
  6
CONTINUOUS
 10
8.4118475882
 20
13.9237380883
  0
VERTEX
  8
0
 62
7
  6
CONTINUOUS
 10
8.413389722
 20
13.9246285011
  0
VERTEX
  8
0
 62
7
  6
CONTINUOUS
 10
8.4149818602
 20
13.9254574589
  0
VERTEX
  8
0
 62
7
  6
CONTINUOUS
 10
8.4166239727
 20
13.9262241327
  0
VERTEX
  8
0
 62
7
  6
CONTINUOUS
 10
8.418316144
 20
13.9269276292
  0
VERTEX
  8
0
 62
7
  6
CONTINUOUS
 10
8.4200585638
 20
13.9275669786
  0
VERTEX
  8
0
 62
7
  6
CONTINUOUS
 10
8.4218515176
 20
13.9281411253
  0
VERTEX
  8
0
 62
7
  6
CONTINUOUS
 10
8.4236953765
 20
13.9286489201
  0
VERTEX
  8
0
 62
7
  6
CONTINUOUS
 10
8.4255905877
 20
13.9290891143
  0
VERTEX
  8
0
 62
7
  6
CONTINUOUS
 10
8.4275376642
 20
13.9294603561
  0
VERTEX
  8
0
 62
7
  6
CONTINUOUS
 10
8.4295371759
 20
13.9297611876
  0
VERTEX
  8
0
 62
7
  6
CONTINUOUS
 10
8.4315897404
 20
13.9299900442
  0
VERTEX
  8
0
 62
7
  6
CONTINUOUS
 10
8.4336960147
 20
13.9301452544
  0
VERTEX
  8
0
 62
7
  6
CONTINUOUS
 10
8.4358566873
 20
13.9302250411
  0
SEQEND
  0
POLYLINE
  8
0
 62
7
  6
CONTINUOUS
 66
1
 70
0
  0
VERTEX
  8
0
 62
7
  6
CONTINUOUS
 10
6.5723247428
 20
14.16683893
  0
VERTEX
  8
0
 62
7
  6
CONTINUOUS
 10
6.585222138
 20
14.1658865969
  0
VERTEX
  8
0
 62
7
  6
CONTINUOUS
 10
6.6014824737
 20
14.1645324974
  0
VERTEX
  8
0
 62
7
  6
CONTINUOUS
 10
6.615137942
 20
14.1633602804
  0
VERTEX
  8
0
 62
7
  6
CONTINUOUS
 10
6.629723578
 20
14.1621798144
  0
VERTEX
  8
0
 62
7
  6
CONTINUOUS
 10
6.6415719057
 20
14.1613513933
  0
VERTEX
  8
0
 62
7
  6
CONTINUOUS
 10
6.6519509465
 20
14.1607745867
  0
VERTEX
  8
0
 62
7
  6
CONTINUOUS
 10
6.6613744108
 20
14.1604085785
  0
VERTEX
  8
0
 62
7
  6
CONTINUOUS
 10
6.6701119969
 20
14.1602320934
  0
VERTEX
  8
0
 62
7
  6
CONTINUOUS
 10
6.6783270521
 20
14.1602325078
  0
VERTEX
  8
0
 62
7
  6
CONTINUOUS
 10
6.6861280354
 20
14.1604017775
  0
VERTEX
  8
0
 62
7
  6
CONTINUOUS
 10
6.6935917708
 20
14.160734606
  0
VERTEX
  8
0
 62
7
  6
CONTINUOUS
 10
6.7007753662
 20
14.1612275142
  0
VERTEX
  8
0
 62
7
  6
CONTINUOUS
 10
6.7077229031
 20
14.1618783259
  0
VERTEX
  8
0
 62
7
  6
CONTINUOUS
 10
6.7144694559
 20
14.1626858651
  0
VERTEX
  8
0
 62
7
  6
CONTINUOUS
 10
6.7210436411
 20
14.1636497699
  0
VERTEX
  8
0
 62
7
  6
CONTINUOUS
 10
6.7274693042
 20
14.1647703736
  0
VERTEX
  8
0
 62
7
  6
CONTINUOUS
 10
6.7337666761
 20
14.1660486274
  0
VERTEX
  8
0
 62
7
  6
CONTINUOUS
 10
6.7399531906
 20
14.1674860486
  0
VERTEX
  8
0
 62
7
  6
CONTINUOUS
 10
6.7460440756
 20
14.1690846859
  0
VERTEX
  8
0
 62
7
  6
CONTINUOUS
 10
6.7520527905
 20
14.1708470956
  0
VERTEX
  8
0
 62
7
  6
CONTINUOUS
 10
6.7579913564
 20
14.172776325
  0
VERTEX
  8
0
 62
7
  6
CONTINUOUS
 10
6.7638706084
 20
14.1748759013
  0
VERTEX
  8
0
 62
7
  6
CONTINUOUS
 10
6.7697003921
 20
14.1771498233
  0
VERTEX
  8
0
 62
7
  6
CONTINUOUS
 10
6.7754897184
 20
14.1796025557
  0
VERTEX
  8
0
 62
7
  6
CONTINUOUS
 10
6.7812468868
 20
14.1822390251
  0
VERTEX
  8
0
 62
7
  6
CONTINUOUS
 10
6.7869795855
 20
14.1850646165
  0
VERTEX
  8
0
 62
7
  6
CONTINUOUS
 10
6.7926949724
 20
14.1880851714
  0
VERTEX
  8
0
 62
7
  6
CONTINUOUS
 10
6.7983997428
 20
14.1913069856
  0
SEQEND
  0
LINE
  8
0
 62
7
  6
CONTINUOUS
 10
6.0665469651
 20
14.46913893
 11
6.0940941873
 21
14.4654972633
  0
POLYLINE
  8
0
 62
7
  6
CONTINUOUS
 66
1
 70
0
  0
VERTEX
  8
0
 62
7
  6
CONTINUOUS
 10
8.7235080132
 20
13.8907445038
  0
VERTEX
  8
0
 62
7
  6
CONTINUOUS
 10
8.7260310512
 20
13.8908109377
  0
VERTEX
  8
0
 62
7
  6
CONTINUOUS
 10
8.7281560356
 20
13.8909731273
  0
VERTEX
  8
0
 62
7
  6
CONTINUOUS
 10
8.7300183614
 20
13.8912284166
  0
VERTEX
  8
0
 62
7
  6
CONTINUOUS
 10
8.7316933189
 20
13.8915764843
  0
VERTEX
  8
0
 62
7
  6
CONTINUOUS
 10
8.7332289538
 20
13.8920191548
  0
VERTEX
  8
0
 62
7
  6
CONTINUOUS
 10
8.7346588155
 20
13.8925604955
  0
VERTEX
  8
0
 62
7
  6
CONTINUOUS
 10
8.7360078218
 20
13.8932070047
  0
VERTEX
  8
0
 62
7
  6
CONTINUOUS
 10
8.7372952785
 20
13.8939678222
  0
VERTEX
  8
0
 62
7
  6
CONTINUOUS
 10
8.7385365707
 20
13.8948549343
  0
VERTEX
  8
0
 62
7
  6
CONTINUOUS
 10
8.7391442453
 20
13.8953507173
  0
VERTEX
  8
0
 62
7
  6
CONTINUOUS
 10
8.7397441873
 20
13.8958833745
  0
VERTEX
  8
0
 62
7
  6
CONTINUOUS
 10
8.7408388444
 20
13.8969737049
  0
VERTEX
  8
0
 62
7
  6
CONTINUOUS
 10
8.7418793988
 20
13.8981866709
  0
VERTEX
  8
0
 62
7
  6
CONTINUOUS
 10
8.7427947758
 20
13.8994530251
  0
VERTEX
  8
0
 62
7
  6
CONTINUOUS
 10
8.7435882901
 20
13.9007738165
  0
VERTEX
  8
0
 62
7
  6
CONTINUOUS
 10
8.7442621035
 20
13.9021508867
  0
VERTEX
  8
0
 62
7
  6
CONTINUOUS
 10
8.7448167207
 20
13.903585585
  0
VERTEX
  8
0
 62
7
  6
CONTINUOUS
 10
8.7452513024
 20
13.9050779822
  0
VERTEX
  8
0
 62
7
  6
CONTINUOUS
 10
8.7455650886
 20
13.9066312533
  0
VERTEX
  8
0
 62
7
  6
CONTINUOUS
 10
8.7457559807
 20
13.908248932
  0
VERTEX
  8
0
 62
7
  6
CONTINUOUS
 10
8.7458205762
 20
13.9099347633
  0
VERTEX
  8
0
 62
7
  6
CONTINUOUS
 10
8.7457552879
 20
13.9116033577
  0
VERTEX
  8
0
 62
7
  6
CONTINUOUS
 10
8.745560573
 20
13.9132454992
  0
VERTEX
  8
0
 62
7
  6
CONTINUOUS
 10
8.7452386286
 20
13.914852236
  0
VERTEX
  8
0
 62
7
  6
CONTINUOUS
 10
8.7447924485
 20
13.9164138574
  0
VERTEX
  8
0
 62
7
  6
CONTINUOUS
 10
8.7442260055
 20
13.9179200702
  0
VERTEX
  8
0
 62
7
  6
CONTINUOUS
 10
8.7435443803
 20
13.9193602569
  0
VERTEX
  8
0
 62
7
  6
CONTINUOUS
 10
8.7427711209
 20
13.9206965963
  0
VERTEX
  8
0
 62
7
  6
CONTINUOUS
 10
8.7418836548
 20
13.9219715907
  0
VERTEX
  8
0
 62
7
  6
CONTINUOUS
 10
8.7409054515
 20
13.9231484674
  0
VERTEX
  8
0
 62
7
  6
CONTINUOUS
 10
8.739845696
 20
13.9242197227
  0
VERTEX
  8
0
 62
7
  6
CONTINUOUS
 10
8.7387136317
 20
13.9251792078
  0
VERTEX
  8
0
 62
7
  6
CONTINUOUS
 10
8.7376115114
 20
13.9259511204
  0
VERTEX
  8
0
 62
7
  6
CONTINUOUS
 10
8.7364147124
 20
13.926632277
  0
VERTEX
  8
0
 62
7
  6
CONTINUOUS
 10
8.7351131783
 20
13.9272252408
  0
VERTEX
  8
0
 62
7
  6
CONTINUOUS
 10
8.7336940271
 20
13.9277310508
  0
VERTEX
  8
0
 62
7
  6
CONTINUOUS
 10
8.7321405083
 20
13.9281494734
  0
VERTEX
  8
0
 62
7
  6
CONTINUOUS
 10
8.73042968
 20
13.9284793914
  0
VERTEX
  8
0
 62
7
  6
CONTINUOUS
 10
8.7285268649
 20
13.9287194264
  0
VERTEX
  8
0
 62
7
  6
CONTINUOUS
 10
8.7263702605
 20
13.9288691222
  0
VERTEX
  8
0
 62
7
  6
CONTINUOUS
 10
8.7238138016
 20
13.9289323072
  0
VERTEX
  8
0
 62
7
  6
CONTINUOUS
 10
8.7220164095
 20
13.9289375411
  0
VERTEX
  8
0
 62
7
  6
CONTINUOUS
 10
8.7125900206
 20
13.9289375411
  0
SEQEND
  0
POLYLINE
  8
0
 62
7
  6
CONTINUOUS
 66
1
 70
0
  0
VERTEX
  8
0
 62
7
  6
CONTINUOUS
 10
8.6381414095
 20
14.4363486522
  0
VERTEX
  8
0
 62
7
  6
CONTINUOUS
 10
8.628276217
 20
14.4362125503
  0
VERTEX
  8
0
 62
7
  6
CONTINUOUS
 10
8.6175563879
 20
14.4357489135
  0
VERTEX
  8
0
 62
7
  6
CONTINUOUS
 10
8.6070567486
 20
14.4349634318
  0
VERTEX
  8
0
 62
7
  6
CONTINUOUS
 10
8.5967958704
 20
14.4338642975
  0
VERTEX
  8
0
 62
7
  6
CONTINUOUS
 10
8.5867913572
 20
14.4324606114
  0
VERTEX
  8
0
 62
7
  6
CONTINUOUS
 10
8.5770596667
 20
14.4307623073
  0
VERTEX
  8
0
 62
7
  6
CONTINUOUS
 10
8.5676159485
 20
14.4287800586
  0
VERTEX
  8
0
 62
7
  6
CONTINUOUS
 10
8.5584739067
 20
14.4265251673
  0
VERTEX
  8
0
 62
7
  6
CONTINUOUS
 10
8.5496456899
 20
14.4240094377
  0
VERTEX
  8
0
 62
7
  6
CONTINUOUS
 10
8.5411418125
 20
14.4212450393
  0
VERTEX
  8
0
 62
7
  6
CONTINUOUS
 10
8.5329711098
 20
14.4182443609
  0
VERTEX
  8
0
 62
7
  6
CONTINUOUS
 10
8.5251407268
 20
14.415019861
  0
VERTEX
  8
0
 62
7
  6
CONTINUOUS
 10
8.517656142
 20
14.4115839169
  0
VERTEX
  8
0
 62
7
  6
CONTINUOUS
 10
8.5105212242
 20
14.4079486767
  0
VERTEX
  8
0
 62
7
  6
CONTINUOUS
 10
8.50373832
 20
14.404125918
  0
VERTEX
  8
0
 62
7
  6
CONTINUOUS
 10
8.4973083686
 20
14.4001269155
  0
VERTEX
  8
0
 62
7
  6
CONTINUOUS
 10
8.4912310416
 20
14.3959623199
  0
VERTEX
  8
0
 62
7
  6
CONTINUOUS
 10
8.4855049019
 20
14.3916420512
  0
VERTEX
  8
0
 62
7
  6
CONTINUOUS
 10
8.4801275794
 20
14.3871752076
  0
VERTEX
  8
0
 62
7
  6
CONTINUOUS
 10
8.475095958
 20
14.3825699898
  0
VERTEX
  8
0
 62
7
  6
CONTINUOUS
 10
8.4704063695
 20
14.3778336444
  0
VERTEX
  8
0
 62
7
  6
CONTINUOUS
 10
8.466054792
 20
14.3729724239
  0
VERTEX
  8
0
 62
7
  6
CONTINUOUS
 10
8.4620370469
 20
14.3679915658
  0
VERTEX
  8
0
 62
7
  6
CONTINUOUS
 10
8.4583489922
 20
14.3628952887
  0
VERTEX
  8
0
 62
7
  6
CONTINUOUS
 10
8.4549867086
 20
14.3576868065
  0
VERTEX
  8
0
 62
7
  6
CONTINUOUS
 10
8.4519466744
 20
14.3523683591
  0
VERTEX
  8
0
 62
7
  6
CONTINUOUS
 10
8.4492259279
 20
14.3469412584
  0
VERTEX
  8
0
 62
7
  6
CONTINUOUS
 10
8.4468222129
 20
14.3414059484
  0
VERTEX
  8
0
 62
7
  6
CONTINUOUS
 10
8.4447341073
 20
14.3357620779
  0
VERTEX
  8
0
 62
7
  6
CONTINUOUS
 10
8.4429611314
 20
14.3300085833
  0
VERTEX
  8
0
 62
7
  6
CONTINUOUS
 10
8.4415038359
 20
14.3241437791
  0
VERTEX
  8
0
 62
7
  6
CONTINUOUS
 10
8.440363869
 20
14.3181654543
  0
VERTEX
  8
0
 62
7
  6
CONTINUOUS
 10
8.4395440209
 20
14.3120709711
  0
VERTEX
  8
0
 62
7
  6
CONTINUOUS
 10
8.43904825
 20
14.3058573648
  0
VERTEX
  8
0
 62
7
  6
CONTINUOUS
 10
8.4389234504
 20
14.3027048626
  0
VERTEX
  8
0
 62
7
  6
CONTINUOUS
 10
8.4388816873
 20
14.2995222633
  0
VERTEX
  8
0
 62
7
  6
CONTINUOUS
 10
8.4390482228
 20
14.293392074
  0
VERTEX
  8
0
 62
7
  6
CONTINUOUS
 10
8.4395461842
 20
14.2873157532
  0
VERTEX
  8
0
 62
7
  6
CONTINUOUS
 10
8.4403738624
 20
14.2812929111
  0
VERTEX
  8
0
 62
7
  6
CONTINUOUS
 10
8.4415305184
 20
14.2753235862
  0
VERTEX
  8
0
 62
7
  6
CONTINUOUS
 10
8.4430163126
 20
14.2694083508
  0
VERTEX
  8
0
 62
7
  6
CONTINUOUS
 10
8.4448322131
 20
14.2635484118
  0
VERTEX
  8
0
 62
7
  6
CONTINUOUS
 10
8.446979882
 20
14.2577457079
  0
VERTEX
  8
0
 62
7
  6
CONTINUOUS
 10
8.4494615415
 20
14.2520029966
  0
VERTEX
  8
0
 62
7
  6
CONTINUOUS
 10
8.4522798211
 20
14.2463239318
  0
VERTEX
  8
0
 62
7
  6
CONTINUOUS
 10
8.4554375878
 20
14.2407131272
  0
VERTEX
  8
0
 62
7
  6
CONTINUOUS
 10
8.4589377618
 20
14.2351762044
  0
VERTEX
  8
0
 62
7
  6
CONTINUOUS
 10
8.4627831224
 20
14.2297198236
  0
VERTEX
  8
0
 62
7
  6
CONTINUOUS
 10
8.4669761053
 20
14.2243516944
  0
VERTEX
  8
0
 62
7
  6
CONTINUOUS
 10
8.4715185983
 20
14.2190805662
  0
VERTEX
  8
0
 62
7
  6
CONTINUOUS
 10
8.4764117385
 20
14.2139161964
  0
VERTEX
  8
0
 62
7
  6
CONTINUOUS
 10
8.4816557165
 20
14.2088692961
  0
VERTEX
  8
0
 62
7
  6
CONTINUOUS
 10
8.487249594
 20
14.2039514535
  0
VERTEX
  8
0
 62
7
  6
CONTINUOUS
 10
8.4931911387
 20
14.1991750353
  0
VERTEX
  8
0
 62
7
  6
CONTINUOUS
 10
8.4994766836
 20
14.194553067
  0
VERTEX
  8
0
 62
7
  6
CONTINUOUS
 10
8.5061010152
 20
14.1900990951
  0
VERTEX
  8
0
 62
7
  6
CONTINUOUS
 10
8.5130572947
 20
14.1858270344
  0
VERTEX
  8
0
 62
7
  6
CONTINUOUS
 10
8.5203370169
 20
14.1817510019
  0
VERTEX
  8
0
 62
7
  6
CONTINUOUS
 10
8.5279300076
 20
14.1778851453
  0
VERTEX
  8
0
 62
7
  6
CONTINUOUS
 10
8.5358244627
 20
14.1742434676
  0
VERTEX
  8
0
 62
7
  6
CONTINUOUS
 10
8.544007025
 20
14.1708396553
  0
VERTEX
  8
0
 62
7
  6
CONTINUOUS
 10
8.5524628993
 20
14.1676869148
  0
VERTEX
  8
0
 62
7
  6
CONTINUOUS
 10
8.5611760008
 20
14.1647978216
  0
VERTEX
  8
0
 62
7
  6
CONTINUOUS
 10
8.5701291295
 20
14.1621841872
  0
VERTEX
  8
0
 62
7
  6
CONTINUOUS
 10
8.579304168
 20
14.1598569481
  0
VERTEX
  8
0
 62
7
  6
CONTINUOUS
 10
8.5869706313
 20
14.1581712881
  0
VERTEX
  8
0
 62
7
  6
CONTINUOUS
 10
8.5964923286
 20
14.1563912712
  0
VERTEX
  8
0
 62
7
  6
CONTINUOUS
 10
8.6061740434
 20
14.1549235569
  0
VERTEX
  8
0
 62
7
  6
CONTINUOUS
 10
8.6159963074
 20
14.1537743543
  0
VERTEX
  8
0
 62
7
  6
CONTINUOUS
 10
8.6259399028
 20
14.1529488434
  0
VERTEX
  8
0
 62
7
  6
CONTINUOUS
 10
8.6359860229
 20
14.1524512212
  0
VERTEX
  8
0
 62
7
  6
CONTINUOUS
 10
8.6461164095
 20
14.1522847633
  0
VERTEX
  8
0
 62
7
  6
CONTINUOUS
 10
8.6583711361
 20
14.1524248755
  0
VERTEX
  8
0
 62
7
  6
CONTINUOUS
 10
8.6717025329
 20
14.1528951907
  0
VERTEX
  8
0
 62
7
  6
CONTINUOUS
 10
8.684919075
 20
14.1536913032
  0
VERTEX
  8
0
 62
7
  6
CONTINUOUS
 10
8.6979411456
 20
14.1548041878
  0
VERTEX
  8
0
 62
7
  6
CONTINUOUS
 10
8.7106988827
 20
14.1562220111
  0
VERTEX
  8
0
 62
7
  6
CONTINUOUS
 10
8.7231325638
 20
14.1579308002
  0
VERTEX
  8
0
 62
7
  6
CONTINUOUS
 10
8.7351925099
 20
14.1599150681
  0
VERTEX
  8
0
 62
7
  6
CONTINUOUS
 10
8.7468386317
 20
14.1621583745
  0
SEQEND
  0
LINE
  8
0
 62
7
  6
CONTINUOUS
 10
8.2499039095
 20
13.8131597633
 11
8.1812177984
 21
13.8131597633
  0
LINE
  8
0
 62
7
  6
CONTINUOUS
 10
8.1722941873
 20
13.8131597633
 11
8.1007191873
 21
13.8131597633
  0
LINE
  8
0
 62
7
  6
CONTINUOUS
 10
8.2918011317
 20
13.8132417078
 11
8.2588150206
 21
13.8132417078
  0
LINE
  8
0
 62
7
  6
CONTINUOUS
 10
8.7125900206
 20
13.8362722633
 11
8.7044664095
 21
13.8362722633
  0
LINE
  8
0
 62
7
  6
CONTINUOUS
 10
8.5785302984
 20
13.8362722633
 11
8.5864914095
 21
13.8362722633
  0
LINE
  8
0
 62
7
  6
CONTINUOUS
 10
8.6877830762
 20
13.8362722633
 11
8.6956775206
 21
13.8362722633
  0
LINE
  8
0
 62
7
  6
CONTINUOUS
 10
8.8278525206
 20
13.8362722633
 11
8.8359497428
 21
13.8362722633
  0
LINE
  8
0
 62
7
  6
CONTINUOUS
 10
8.9571927984
 20
13.8362722633
 11
8.9653164095
 21
13.8362722633
  0
LINE
  8
0
 62
7
  6
CONTINUOUS
 10
7.6545594651
 20
13.8763653189
 11
7.6903469651
 21
13.8763653189
  0
LINE
  8
0
 62
7
  6
CONTINUOUS
 10
8.7619344651
 20
13.8763653189
 11
8.7977275206
 21
13.8763653189
  0
LINE
  8
0
 62
7
  6
CONTINUOUS
 10
8.7227761317
 20
13.8830250411
 11
8.7125900206
 21
13.8830250411
  0
POLYLINE
  8
0
 62
7
  6
CONTINUOUS
 66
1
 70
0
  0
VERTEX
  8
0
 62
7
  6
CONTINUOUS
 10
8.2917469651
 20
13.8841917078
  0
VERTEX
  8
0
 62
7
  6
CONTINUOUS
 10
8.3012955762
 20
13.8841917078
  0
VERTEX
  8
0
 62
7
  6
CONTINUOUS
 10
8.3025309525
 20
13.8842556877
  0
VERTEX
  8
0
 62
7
  6
CONTINUOUS
 10
8.30374664
 20
13.884446669
  0
VERTEX
  8
0
 62
7
  6
CONTINUOUS
 10
8.3049343715
 20
13.8847629411
  0
VERTEX
  8
0
 62
7
  6
CONTINUOUS
 10
8.3060844966
 20
13.8852020616
  0
VERTEX
  8
0
 62
7
  6
CONTINUOUS
 10
8.3071860964
 20
13.8857603977
  0
VERTEX
  8
0
 62
7
  6
CONTINUOUS
 10
8.3082272899
 20
13.8864327335
  0
VERTEX
  8
0
 62
7
  6
CONTINUOUS
 10
8.3091957277
 20
13.8872120285
  0
VERTEX
  8
0
 62
7
  6
CONTINUOUS
 10
8.3092423719
 20
13.8872539682
  0
VERTEX
  8
0
 62
7
  6
CONTINUOUS
 10
8.3101203429
 20
13.8881349773
  0
VERTEX
  8
0
 62
7
  6
CONTINUOUS
 10
8.3108992218
 20
13.889099421
  0
VERTEX
  8
0
 62
7
  6
CONTINUOUS
 10
8.3115705149
 20
13.8901353787
  0
VERTEX
  8
0
 62
7
  6
CONTINUOUS
 10
8.3121276084
 20
13.8912310394
  0
VERTEX
  8
0
 62
7
  6
CONTINUOUS
 10
8.312565647
 20
13.8923752724
  0
VERTEX
  8
0
 62
7
  6
CONTINUOUS
 10
8.3128812156
 20
13.8935580371
  0
VERTEX
  8
0
 62
7
  6
CONTINUOUS
 10
8.3130719067
 20
13.8947706042
  0
VERTEX
  8
0
 62
7
  6
CONTINUOUS
 10
8.3131358539
 20
13.8960055967
  0
VERTEX
  8
0
 62
7
  6
CONTINUOUS
 10
8.3130719067
 20
13.8972489053
  0
VERTEX
  8
0
 62
7
  6
CONTINUOUS
 10
8.3128810861
 20
13.8984716208
  0
VERTEX
  8
0
 62
7
  6
CONTINUOUS
 10
8.3125651397
 20
13.8996658984
  0
VERTEX
  8
0
 62
7
  6
CONTINUOUS
 10
8.3121264713
 20
13.9008224847
  0
VERTEX
  8
0
 62
7
  6
CONTINUOUS
 10
8.3115686163
 20
13.9019307898
  0
VERTEX
  8
0
 62
7
  6
CONTINUOUS
 10
8.3108966689
 20
13.9029791506
  0
VERTEX
  8
0
 62
7
  6
CONTINUOUS
 10
8.310117576
 20
13.9039552908
  0
VERTEX
  8
0
 62
7
  6
CONTINUOUS
 10
8.3100404946
 20
13.9040413872
  0
VERTEX
  8
0
 62
7
  6
CONTINUOUS
 10
8.3091547673
 20
13.9049244497
  0
VERTEX
  8
0
 62
7
  6
CONTINUOUS
 10
8.3081860856
 20
13.9057078583
  0
VERTEX
  8
0
 62
7
  6
CONTINUOUS
 10
8.3071468517
 20
13.906382897
  0
VERTEX
  8
0
 62
7
  6
CONTINUOUS
 10
8.3060494595
 20
13.906942801
  0
VERTEX
  8
0
 62
7
  6
CONTINUOUS
 10
8.3049056689
 20
13.90738268
  0
VERTEX
  8
0
 62
7
  6
CONTINUOUS
 10
8.3037261387
 20
13.9076992187
  0
VERTEX
  8
0
 62
7
  6
CONTINUOUS
 10
8.3025201583
 20
13.9078902385
  0
VERTEX
  8
0
 62
7
  6
CONTINUOUS
 10
8.3012955762
 20
13.9079542078
  0
VERTEX
  8
0
 62
7
  6
CONTINUOUS
 10
8.2917469651
 20
13.9079542078
  0
SEQEND
  0
LINE
  8
0
 62
7
  6
CONTINUOUS
 10
8.7125900206
 20
13.8907430967
 11
8.7235080132
 21
13.8907445038
  0
LINE
  8
0
 62
7
  6
CONTINUOUS
 10
8.1812177984
 20
13.9365319856
 11
8.2496455762
 21
13.9365319856
  0
POLYLINE
  8
0
 62
7
  6
CONTINUOUS
 66
1
 70
0
  0
VERTEX
  8
0
 62
7
  6
CONTINUOUS
 10
8.2588150206
 20
13.9365319856
  0
VERTEX
  8
0
 62
7
  6
CONTINUOUS
 10
8.3010914095
 20
13.9365319856
  0
VERTEX
  8
0
 62
7
  6
CONTINUOUS
 10
8.3030688766
 20
13.936487674
  0
VERTEX
  8
0
 62
7
  6
CONTINUOUS
 10
8.3050309311
 20
13.9363551512
  0
VERTEX
  8
0
 62
7
  6
CONTINUOUS
 10
8.3069756902
 20
13.9361350315
  0
VERTEX
  8
0
 62
7
  6
CONTINUOUS
 10
8.3089010817
 20
13.9358279452
  0
VERTEX
  8
0
 62
7
  6
CONTINUOUS
 10
8.3108048326
 20
13.9354345664
  0
VERTEX
  8
0
 62
7
  6
CONTINUOUS
 10
8.3126844611
 20
13.9349556437
  0
VERTEX
  8
0
 62
7
  6
CONTINUOUS
 10
8.3145372728
 20
13.9343920323
  0
VERTEX
  8
0
 62
7
  6
CONTINUOUS
 10
8.3163603602
 20
13.933744727
  0
VERTEX
  8
0
 62
7
  6
CONTINUOUS
 10
8.3181506093
 20
13.9330148961
  0
VERTEX
  8
0
 62
7
  6
CONTINUOUS
 10
8.3199047106
 20
13.9322039143
  0
VERTEX
  8
0
 62
7
  6
CONTINUOUS
 10
8.3216191772
 20
13.9313133928
  0
VERTEX
  8
0
 62
7
  6
CONTINUOUS
 10
8.3232903696
 20
13.9303452074
  0
VERTEX
  8
0
 62
7
  6
CONTINUOUS
 10
8.3249145267
 20
13.9293015207
  0
VERTEX
  8
0
 62
7
  6
CONTINUOUS
 10
8.3264878035
 20
13.9281847984
  0
VERTEX
  8
0
 62
7
  6
CONTINUOUS
 10
8.3280063142
 20
13.9269978183
  0
VERTEX
  8
0
 62
7
  6
CONTINUOUS
 10
8.3294661796
 20
13.9257436702
  0
VERTEX
  8
0
 62
7
  6
CONTINUOUS
 10
8.3308635779
 20
13.9244257473
  0
VERTEX
  8
0
 62
7
  6
CONTINUOUS
 10
8.3321947965
 20
13.9230477267
  0
VERTEX
  8
0
 62
7
  6
CONTINUOUS
 10
8.3333585925
 20
13.9217295581
  0
VERTEX
  8
0
 62
7
  6
CONTINUOUS
 10
8.3345515076
 20
13.9202491933
  0
VERTEX
  8
0
 62
7
  6
CONTINUOUS
 10
8.3356677742
 20
13.9187222037
  0
VERTEX
  8
0
 62
7
  6
CONTINUOUS
 10
8.3367047979
 20
13.9171530736
  0
VERTEX
  8
0
 62
7
  6
CONTINUOUS
 10
8.3376603092
 20
13.9155463108
  0
VERTEX
  8
0
 62
7
  6
CONTINUOUS
 10
8.3385323717
 20
13.913906391
  0
VERTEX
  8
0
 62
7
  6
CONTINUOUS
 10
8.3393193802
 20
13.9122377053
  0
VERTEX
  8
0
 62
7
  6
CONTINUOUS
 10
8.3400200482
 20
13.9105445121
  0
VERTEX
  8
0
 62
7
  6
CONTINUOUS
 10
8.340633388
 20
13.9088308955
  0
VERTEX
  8
0
 62
7
  6
CONTINUOUS
 10
8.3411586821
 20
13.9071007308
  0
VERTEX
  8
0
 62
7
  6
CONTINUOUS
 10
8.3415954494
 20
13.9053576579
  0
VERTEX
  8
0
 62
7
  6
CONTINUOUS
 10
8.3419434072
 20
13.9036050634
  0
VERTEX
  8
0
 62
7
  6
CONTINUOUS
 10
8.3422024305
 20
13.9018460699
  0
VERTEX
  8
0
 62
7
  6
CONTINUOUS
 10
8.3423725097
 20
13.9000835336
  0
VERTEX
  8
0
 62
7
  6
CONTINUOUS
 10
8.3424537101
 20
13.8983200487
  0
VERTEX
  8
0
 62
7
  6
CONTINUOUS
 10
8.3424461311
 20
13.8965579576
  0
VERTEX
  8
0
 62
7
  6
CONTINUOUS
 10
8.34234987
 20
13.8947993659
  0
VERTEX
  8
0
 62
7
  6
CONTINUOUS
 10
8.3421649873
 20
13.8930461621
  0
VERTEX
  8
0
 62
7
  6
CONTINUOUS
 10
8.3418914775
 20
13.8913000398
  0
VERTEX
  8
0
 62
7
  6
CONTINUOUS
 10
8.3415292427
 20
13.8895625219
  0
VERTEX
  8
0
 62
7
  6
CONTINUOUS
 10
8.3410780714
 20
13.8878349861
  0
VERTEX
  8
0
 62
7
  6
CONTINUOUS
 10
8.3405376217
 20
13.8861186913
  0
VERTEX
  8
0
 62
7
  6
CONTINUOUS
 10
8.3399074081
 20
13.8844148025
  0
VERTEX
  8
0
 62
7
  6
CONTINUOUS
 10
8.3391867928
 20
13.8827244162
  0
VERTEX
  8
0
 62
7
  6
CONTINUOUS
 10
8.3383749805
 20
13.8810485833
  0
VERTEX
  8
0
 62
7
  6
CONTINUOUS
 10
8.3374710163
 20
13.8793883313
  0
VERTEX
  8
0
 62
7
  6
CONTINUOUS
 10
8.3364737866
 20
13.8777446838
  0
VERTEX
  8
0
 62
7
  6
CONTINUOUS
 10
8.3353820227
 20
13.8761186782
  0
VERTEX
  8
0
 62
7
  6
CONTINUOUS
 10
8.3341943057
 20
13.8745113812
  0
VERTEX
  8
0
 62
7
  6
CONTINUOUS
 10
8.3329090741
 20
13.8729239022
  0
VERTEX
  8
0
 62
7
  6
CONTINUOUS
 10
8.3315246313
 20
13.8713574044
  0
VERTEX
  8
0
 62
7
  6
CONTINUOUS
 10
8.3300391549
 20
13.8698131133
  0
VERTEX
  8
0
 62
7
  6
CONTINUOUS
 10
8.3284507064
 20
13.8682923248
  0
VERTEX
  8
0
 62
7
  6
CONTINUOUS
 10
8.326757578
 20
13.8667966955
  0
VERTEX
  8
0
 62
7
  6
CONTINUOUS
 10
8.324957932
 20
13.8653278487
  0
VERTEX
  8
0
 62
7
  6
CONTINUOUS
 10
8.3230495925
 20
13.8638872456
  0
VERTEX
  8
0
 62
7
  6
CONTINUOUS
 10
8.3210302984
 20
13.86247643
  0
SEQEND
  0
LINE
  8
0
 62
7
  6
CONTINUOUS
 10
8.9988177984
 20
13.9366680967
 11
8.9903011317
 21
13.9366680967
  0
LINE
  8
0
 62
7
  6
CONTINUOUS
 10
8.9329816873
 20
13.9366680967
 11
8.9237039095
 21
13.9366680967
  0
LINE
  8
0
 62
7
  6
CONTINUOUS
 10
8.9186997428
 20
13.9366680967
 11
8.9106025206
 21
13.9366680967
  0
LINE
  8
0
 62
7
  6
CONTINUOUS
 10
8.7044664095
 20
13.9366680967
 11
8.7227761317
 21
13.9366680967
  0
LINE
  8
0
 62
7
  6
CONTINUOUS
 10
9.0023039095
 20
13.9646222633
 11
5.5211025206
 21
13.9646222633
  0
POLYLINE
  8
0
 62
7
  6
CONTINUOUS
 66
1
 70
0
  0
VERTEX
  8
0
 62
7
  6
CONTINUOUS
 10
5.5232261317
 20
13.9871778189
  0
VERTEX
  8
0
 62
7
  6
CONTINUOUS
 10
8.9976927984
 20
13.9871778189
  0
VERTEX
  8
0
 62
7
  6
CONTINUOUS
 10
8.9976927984
 20
14.60138893
  0
SEQEND
  0
POLYLINE
  8
0
 62
7
  6
CONTINUOUS
 66
1
 70
0
  0
VERTEX
  8
0
 62
7
  6
CONTINUOUS
 10
5.5373719651
 20
14.0064250411
  0
VERTEX
  8
0
 62
7
  6
CONTINUOUS
 10
8.9820677984
 20
14.0064250411
  0
VERTEX
  8
0
 62
7
  6
CONTINUOUS
 10
8.9820677984
 20
14.5843667078
  0
SEQEND
  0
POLYLINE
  8
0
 62
7
  6
CONTINUOUS
 66
1
 70
0
  0
VERTEX
  8
0
 62
7
  6
CONTINUOUS
 10
8.9453927984
 20
14.0394778189
  0
VERTEX
  8
0
 62
7
  6
CONTINUOUS
 10
5.5755525206
 20
14.0394778189
  0
VERTEX
  8
0
 62
7
  6
CONTINUOUS
 10
5.5755525206
 20
14.5490805967
  0
SEQEND
  0
POLYLINE
  8
0
 62
7
  6
CONTINUOUS
 66
1
 70
0
  0
VERTEX
  8
0
 62
7
  6
CONTINUOUS
 10
8.9386650206
 20
14.0461917078
  0
VERTEX
  8
0
 62
7
  6
CONTINUOUS
 10
5.5822664095
 20
14.0461917078
  0
VERTEX
  8
0
 62
7
  6
CONTINUOUS
 10
5.5822664095
 20
14.5423667078
  0
SEQEND
  0
LINE
  8
0
 62
7
  6
CONTINUOUS
 10
7.9787511317
 20
14.1231375411
 11
7.8505025206
 21
14.1231375411
  0
LINE
  8
0
 62
7
  6
CONTINUOUS
 10
7.7737066873
 20
14.1231375411
 11
7.6360191873
 21
14.1231375411
  0
LINE
  8
0
 62
7
  6
CONTINUOUS
 10
7.5686566873
 20
14.1231375411
 11
7.2708316873
 21
14.1231375411
  0
LINE
  8
0
 62
7
  6
CONTINUOUS
 10
7.2549011317
 20
14.1231375411
 11
7.1882302984
 21
14.1231375411
  0
LINE
  8
0
 62
7
  6
CONTINUOUS
 10
6.9643261317
 20
14.1231375411
 11
6.8259261317
 21
14.1231375411
  0
LINE
  8
0
 62
7
  6
CONTINUOUS
 10
6.7679636317
 20
14.1231375411
 11
6.4658052984
 21
14.1231375411
  0
LINE
  8
0
 62
7
  6
CONTINUOUS
 10
6.3027733539
 20
14.1231375411
 11
6.1593066873
 21
14.1231375411
  0
LINE
  8
0
 62
7
  6
CONTINUOUS
 10
8.8554802984
 20
14.12842643
 11
8.8510052984
 21
14.12842643
  0
LINE
  8
0
 62
7
  6
CONTINUOUS
 10
8.8712552984
 20
14.12842643
 11
8.8665622428
 21
14.12842643
  0
POLYLINE
  8
0
 62
7
  6
CONTINUOUS
 66
1
 70
0
  0
VERTEX
  8
0
 62
7
  6
CONTINUOUS
 10
8.8554802984
 20
14.1439903189
  0
VERTEX
  8
0
 62
7
  6
CONTINUOUS
 10
8.8587219651
 20
14.1439903189
  0
VERTEX
  8
0
 62
7
  6
CONTINUOUS
 10
8.8590213437
 20
14.1439932864
  0
VERTEX
  8
0
 62
7
  6
CONTINUOUS
 10
8.8594173794
 20
14.1440066491
  0
VERTEX
  8
0
 62
7
  6
CONTINUOUS
 10
8.8598006507
 20
14.1440304262
  0
VERTEX
  8
0
 62
7
  6
CONTINUOUS
 10
8.8601706877
 20
14.1440642269
  0
VERTEX
  8
0
 62
7
  6
CONTINUOUS
 10
8.8605271492
 20
14.1441076442
  0
VERTEX
  8
0
 62
7
  6
CONTINUOUS
 10
8.8608698117
 20
14.1441602622
  0
VERTEX
  8
0
 62
7
  6
CONTINUOUS
 10
8.8611985561
 20
14.144221664
  0
VERTEX
  8
0
 62
7
  6
CONTINUOUS
 10
8.8615133565
 20
14.1442914376
  0
VERTEX
  8
0
 62
7
  6
CONTINUOUS
 10
8.8618142673
 20
14.1443691817
  0
VERTEX
  8
0
 62
7
  6
CONTINUOUS
 10
8.862101412
 20
14.1444545109
  0
VERTEX
  8
0
 62
7
  6
CONTINUOUS
 10
8.8623749721
 20
14.1445470601
  0
VERTEX
  8
0
 62
7
  6
CONTINUOUS
 10
8.8626351772
 20
14.1446464878
  0
VERTEX
  8
0
 62
7
  6
CONTINUOUS
 10
8.8628822945
 20
14.14475248
  0
VERTEX
  8
0
 62
7
  6
CONTINUOUS
 10
8.8631166204
 20
14.1448647528
  0
VERTEX
  8
0
 62
7
  6
CONTINUOUS
 10
8.8633384716
 20
14.1449830548
  0
VERTEX
  8
0
 62
7
  6
CONTINUOUS
 10
8.8635481776
 20
14.1451071691
  0
VERTEX
  8
0
 62
7
  6
CONTINUOUS
 10
8.8637460729
 20
14.1452369152
  0
VERTEX
  8
0
 62
7
  6
CONTINUOUS
 10
8.8639324903
 20
14.1453721498
  0
VERTEX
  8
0
 62
7
  6
CONTINUOUS
 10
8.8641077545
 20
14.1455127684
  0
VERTEX
  8
0
 62
7
  6
CONTINUOUS
 10
8.864272176
 20
14.1456587051
  0
VERTEX
  8
0
 62
7
  6
CONTINUOUS
 10
8.8644260456
 20
14.1458099333
  0
VERTEX
  8
0
 62
7
  6
CONTINUOUS
 10
8.8645696291
 20
14.1459664653
  0
VERTEX
  8
0
 62
7
  6
CONTINUOUS
 10
8.8647031625
 20
14.1461283514
  0
VERTEX
  8
0
 62
7
  6
CONTINUOUS
 10
8.8648268479
 20
14.1462956792
  0
VERTEX
  8
0
 62
7
  6
CONTINUOUS
 10
8.8649408499
 20
14.146468572
  0
VERTEX
  8
0
 62
7
  6
CONTINUOUS
 10
8.8650452919
 20
14.1466471871
  0
VERTEX
  8
0
 62
7
  6
CONTINUOUS
 10
8.8651402536
 20
14.1468317137
  0
VERTEX
  8
0
 62
7
  6
CONTINUOUS
 10
8.865225769
 20
14.1470223704
  0
VERTEX
  8
0
 62
7
  6
CONTINUOUS
 10
8.8653018248
 20
14.147219403
  0
VERTEX
  8
0
 62
7
  6
CONTINUOUS
 10
8.8653683593
 20
14.1474230815
  0
VERTEX
  8
0
 62
7
  6
CONTINUOUS
 10
8.865425262
 20
14.1476336975
  0
VERTEX
  8
0
 62
7
  6
CONTINUOUS
 10
8.8654723378
 20
14.147851372
  0
VERTEX
  8
0
 62
7
  6
CONTINUOUS
 10
8.8655093991
 20
14.1480763653
  0
VERTEX
  8
0
 62
7
  6
CONTINUOUS
 10
8.8655362273
 20
14.1483090106
  0
VERTEX
  8
0
 62
7
  6
CONTINUOUS
 10
8.8655525566
 20
14.148549654
  0
VERTEX
  8
0
 62
7
  6
CONTINUOUS
 10
8.8655580762
 20
14.1487986522
  0
VERTEX
  8
0
 62
7
  6
CONTINUOUS
 10
8.8655536996
 20
14.1490092554
  0
VERTEX
  8
0
 62
7
  6
CONTINUOUS
 10
8.8655384673
 20
14.1492421271
  0
VERTEX
  8
0
 62
7
  6
CONTINUOUS
 10
8.8655124914
 20
14.1494709513
  0
VERTEX
  8
0
 62
7
  6
CONTINUOUS
 10
8.8654759563
 20
14.1496953765
  0
VERTEX
  8
0
 62
7
  6
CONTINUOUS
 10
8.8654290449
 20
14.1499151161
  0
VERTEX
  8
0
 62
7
  6
CONTINUOUS
 10
8.865371931
 20
14.1501299409
  0
VERTEX
  8
0
 62
7
  6
CONTINUOUS
 10
8.865304773
 20
14.1503396703
  0
VERTEX
  8
0
 62
7
  6
CONTINUOUS
 10
8.8652277085
 20
14.150544165
  0
VERTEX
  8
0
 62
7
  6
CONTINUOUS
 10
8.8651408499
 20
14.1507433189
  0
VERTEX
  8
0
 62
7
  6
CONTINUOUS
 10
8.8650442816
 20
14.1509370513
  0
VERTEX
  8
0
 62
7
  6
CONTINUOUS
 10
8.8649380568
 20
14.1511253001
  0
VERTEX
  8
0
 62
7
  6
CONTINUOUS
 10
8.8648221968
 20
14.1513080152
  0
VERTEX
  8
0
 62
7
  6
CONTINUOUS
 10
8.8646966896
 20
14.1514851525
  0
VERTEX
  8
0
 62
7
  6
CONTINUOUS
 10
8.8645614897
 20
14.1516566684
  0
VERTEX
  8
0
 62
7
  6
CONTINUOUS
 10
8.8644165188
 20
14.1518225151
  0
VERTEX
  8
0
 62
7
  6
CONTINUOUS
 10
8.8642616664
 20
14.1519826363
  0
VERTEX
  8
0
 62
7
  6
CONTINUOUS
 10
8.8640967911
 20
14.1521369637
  0
VERTEX
  8
0
 62
7
  6
CONTINUOUS
 10
8.8639217224
 20
14.1522854143
  0
VERTEX
  8
0
 62
7
  6
CONTINUOUS
 10
8.8637362619
 20
14.1524278874
  0
VERTEX
  8
0
 62
7
  6
CONTINUOUS
 10
8.8635401858
 20
14.1525642632
  0
VERTEX
  8
0
 62
7
  6
CONTINUOUS
 10
8.8633332469
 20
14.1526944011
  0
VERTEX
  8
0
 62
7
  6
CONTINUOUS
 10
8.8631151761
 20
14.1528181391
  0
VERTEX
  8
0
 62
7
  6
CONTINUOUS
 10
8.8628856854
 20
14.1529352928
  0
VERTEX
  8
0
 62
7
  6
CONTINUOUS
 10
8.8626445379
 20
14.1530456256
  0
VERTEX
  8
0
 62
7
  6
CONTINUOUS
 10
8.8623914961
 20
14.1531488863
  0
VERTEX
  8
0
 62
7
  6
CONTINUOUS
 10
8.8621262324
 20
14.1532448409
  0
VERTEX
  8
0
 62
7
  6
CONTINUOUS
 10
8.8618484063
 20
14.1533332337
  0
VERTEX
  8
0
 62
7
  6
CONTINUOUS
 10
8.861557666
 20
14.1534137866
  0
VERTEX
  8
0
 62
7
  6
CONTINUOUS
 10
8.8612536497
 20
14.1534862012
  0
VERTEX
  8
0
 62
7
  6
CONTINUOUS
 10
8.8609359874
 20
14.1535501585
  0
VERTEX
  8
0
 62
7
  6
CONTINUOUS
 10
8.860604302
 20
14.1536053206
  0
VERTEX
  8
0
 62
7
  6
CONTINUOUS
 10
8.8602582102
 20
14.1536513312
  0
VERTEX
  8
0
 62
7
  6
CONTINUOUS
 10
8.8598973242
 20
14.153687817
  0
VERTEX
  8
0
 62
7
  6
CONTINUOUS
 10
8.8595212519
 20
14.1537143881
  0
VERTEX
  8
0
 62
7
  6
CONTINUOUS
 10
8.8591295981
 20
14.1537306396
  0
VERTEX
  8
0
 62
7
  6
CONTINUOUS
 10
8.8587219651
 20
14.1537361522
  0
VERTEX
  8
0
 62
7
  6
CONTINUOUS
 10
8.8582036341
 20
14.1537307888
  0
VERTEX
  8
0
 62
7
  6
CONTINUOUS
 10
8.8577096671
 20
14.1537150729
  0
VERTEX
  8
0
 62
7
  6
CONTINUOUS
 10
8.8572363477
 20
14.1536894738
  0
VERTEX
  8
0
 62
7
  6
CONTINUOUS
 10
8.8567787916
 20
14.1536542753
  0
VERTEX
  8
0
 62
7
  6
CONTINUOUS
 10
8.8563297573
 20
14.1536094181
  0
VERTEX
  8
0
 62
7
  6
CONTINUOUS
 10
8.8558763794
 20
14.1535540682
  0
VERTEX
  8
0
 62
7
  6
CONTINUOUS
 10
8.8554802984
 20
14.1534986522
  0
SEQEND
  0
LINE
  8
0
 62
7
  6
CONTINUOUS
 10
6.7983997428
 20
14.1913069856
 11
6.8005691873
 21
14.1913069856
  0
LINE
  8
0
 62
7
  6
CONTINUOUS
 10
7.6041511317
 20
14.1923236522
 11
7.6063219651
 21
14.1923236522
  0
LINE
  8
0
 62
7
  6
CONTINUOUS
 10
6.6926122428
 20
14.2755958745
 11
6.6904344651
 21
14.2755958745
  0
LINE
  8
0
 62
7
  6
CONTINUOUS
 10
8.7135122428
 20
14.29742643
 11
8.8243664095
 21
14.29742643
  0
LINE
  8
0
 62
7
  6
CONTINUOUS
 10
6.5723247428
 20
14.3276250411
 11
6.6585469651
 21
14.3276250411
  0
LINE
  8
0
 62
7
  6
CONTINUOUS
 10
6.6904344651
 20
14.3307375411
 11
6.6926122428
 21
14.3307375411
  0
LINE
  8
0
 62
7
  6
CONTINUOUS
 10
8.7692983539
 20
14.4051333745
 11
8.7671289095
 21
14.4051333745
  0
LINE
  8
0
 62
7
  6
CONTINUOUS
 10
6.7339122428
 20
14.4072083745
 11
6.7317358539
 21
14.4072083745
  0
LINE
  8
0
 62
7
  6
CONTINUOUS
 10
6.3948011317
 20
14.4072083745
 11
6.3926233539
 21
14.4072083745
  0
LINE
  8
0
 62
7
  6
CONTINUOUS
 10
6.0411900206
 20
14.4072083745
 11
6.0390136317
 21
14.4072083745
  0
LINE
  8
0
 62
7
  6
CONTINUOUS
 10
6.1911733539
 20
14.4280347633
 11
6.1274122428
 21
14.4280347633
  0
LINE
  8
0
 62
7
  6
CONTINUOUS
 10
6.0940941873
 20
14.4654972633
 11
6.3824858539
 21
14.4654972633
  0
LINE
  8
0
 62
7
  6
CONTINUOUS
 10
6.4658052984
 20
14.4654972633
 11
6.6976844651
 21
14.4654972633
  0
POLYLINE
  8
0
 62
7
  6
CONTINUOUS
 66
1
 70
0
  0
VERTEX
  8
0
 62
7
  6
CONTINUOUS
 10
6.8259261317
 20
14.4654972633
  0
VERTEX
  8
0
 62
7
  6
CONTINUOUS
 10
6.9983775206
 20
14.4654972633
  0
VERTEX
  8
0
 62
7
  6
CONTINUOUS
 10
7.003647561
 20
14.4654610553
  0
VERTEX
  8
0
 62
7
  6
CONTINUOUS
 10
7.013904781
 20
14.4651748883
  0
VERTEX
  8
0
 62
7
  6
CONTINUOUS
 10
7.0237589274
 20
14.4646132989
  0
VERTEX
  8
0
 62
7
  6
CONTINUOUS
 10
7.0332079375
 20
14.4637880685
  0
VERTEX
  8
0
 62
7
  6
CONTINUOUS
 10
7.0422505273
 20
14.4627112684
  0
VERTEX
  8
0
 62
7
  6
CONTINUOUS
 10
7.0508862483
 20
14.4613952081
  0
VERTEX
  8
0
 62
7
  6
CONTINUOUS
 10
7.0591155342
 20
14.4598523743
  0
VERTEX
  8
0
 62
7
  6
CONTINUOUS
 10
7.0669397377
 20
14.4580953594
  0
VERTEX
  8
0
 62
7
  6
CONTINUOUS
 10
7.0743611545
 20
14.4561367808
  0
VERTEX
  8
0
 62
7
  6
CONTINUOUS
 10
7.0813830312
 20
14.4539891912
  0
VERTEX
  8
0
 62
7
  6
CONTINUOUS
 10
7.0880095564
 20
14.4516649816
  0
VERTEX
  8
0
 62
7
  6
CONTINUOUS
 10
7.0942458319
 20
14.4491762773
  0
VERTEX
  8
0
 62
7
  6
CONTINUOUS
 10
7.1000978233
 20
14.4465348301
  0
VERTEX
  8
0
 62
7
  6
CONTINUOUS
 10
7.105572289
 20
14.4437519078
  0
VERTEX
  8
0
 62
7
  6
CONTINUOUS
 10
7.1106766863
 20
14.4408381844
  0
VERTEX
  8
0
 62
7
  6
CONTINUOUS
 10
7.1154190551
 20
14.4378036331
  0
VERTEX
  8
0
 62
7
  6
CONTINUOUS
 10
7.1198078803
 20
14.4346574264
  0
VERTEX
  8
0
 62
7
  6
CONTINUOUS
 10
7.1238519335
 20
14.4314078451
  0
VERTEX
  8
0
 62
7
  6
CONTINUOUS
 10
7.1275600968
 20
14.428062201
  0
VERTEX
  8
0
 62
7
  6
CONTINUOUS
 10
7.1309411715
 20
14.4246267771
  0
VERTEX
  8
0
 62
7
  6
CONTINUOUS
 10
7.1340036755
 20
14.4211067873
  0
VERTEX
  8
0
 62
7
  6
CONTINUOUS
 10
7.1367556347
 20
14.4175063607
  0
VERTEX
  8
0
 62
7
  6
CONTINUOUS
 10
7.139204373
 20
14.4138285517
  0
VERTEX
  8
0
 62
7
  6
CONTINUOUS
 10
7.1413563094
 20
14.4100753788
  0
VERTEX
  8
0
 62
7
  6
CONTINUOUS
 10
7.1432167662
 20
14.4062478931
  0
VERTEX
  8
0
 62
7
  6
CONTINUOUS
 10
7.1447897989
 20
14.4023462743
  0
VERTEX
  8
0
 62
7
  6
CONTINUOUS
 10
7.146078052
 20
14.3983699545
  0
VERTEX
  8
0
 62
7
  6
CONTINUOUS
 10
7.1466158653
 20
14.3963531674
  0
VERTEX
  8
0
 62
7
  6
CONTINUOUS
 10
7.1470826485
 20
14.3943177643
  0
VERTEX
  8
0
 62
7
  6
CONTINUOUS
 10
7.1478024077
 20
14.3901932165
  0
VERTEX
  8
0
 62
7
  6
CONTINUOUS
 10
7.1482362517
 20
14.3859953459
  0
VERTEX
  8
0
 62
7
  6
CONTINUOUS
 10
7.1483816873
 20
14.3817222633
  0
VERTEX
  8
0
 62
7
  6
CONTINUOUS
 10
7.1482362233
 20
14.3776813937
  0
VERTEX
  8
0
 62
7
  6
CONTINUOUS
 10
7.1478003666
 20
14.3736612162
  0
VERTEX
  8
0
 62
7
  6
CONTINUOUS
 10
7.147073286
 20
14.3696570351
  0
VERTEX
  8
0
 62
7
  6
CONTINUOUS
 10
7.1460520761
 20
14.365664847
  0
VERTEX
  8
0
 62
7
  6
CONTINUOUS
 10
7.1447319379
 20
14.361681557
  0
VERTEX
  8
0
 62
7
  6
CONTINUOUS
 10
7.1431064177
 20
14.3577051885
  0
VERTEX
  8
0
 62
7
  6
CONTINUOUS
 10
7.1411677044
 20
14.3537350818
  0
VERTEX
  8
0
 62
7
  6
CONTINUOUS
 10
7.1389069831
 20
14.349772077
  0
VERTEX
  8
0
 62
7
  6
CONTINUOUS
 10
7.1363148427
 20
14.3458186793
  0
VERTEX
  8
0
 62
7
  6
CONTINUOUS
 10
7.1333817359
 20
14.3418792036
  0
VERTEX
  8
0
 62
7
  6
CONTINUOUS
 10
7.1300984894
 20
14.3379598956
  0
VERTEX
  8
0
 62
7
  6
CONTINUOUS
 10
7.1264568615
 20
14.3340690256
  0
VERTEX
  8
0
 62
7
  6
CONTINUOUS
 10
7.1224501415
 20
14.3302169491
  0
VERTEX
  8
0
 62
7
  6
CONTINUOUS
 10
7.1180737823
 20
14.3264161274
  0
VERTEX
  8
0
 62
7
  6
CONTINUOUS
 10
7.1133260528
 20
14.3226810978
  0
VERTEX
  8
0
 62
7
  6
CONTINUOUS
 10
7.1082086892
 20
14.3190283823
  0
VERTEX
  8
0
 62
7
  6
CONTINUOUS
 10
7.1027275177
 20
14.3154763249
  0
VERTEX
  8
0
 62
7
  6
CONTINUOUS
 10
7.0968930111
 20
14.3120448433
  0
VERTEX
  8
0
 62
7
  6
CONTINUOUS
 10
7.0907207356
 20
14.3087550914
  0
VERTEX
  8
0
 62
7
  6
CONTINUOUS
 10
7.0842316414
 20
14.3056290264
  0
VERTEX
  8
0
 62
7
  6
CONTINUOUS
 10
7.0774521468
 20
14.3026888901
  0
VERTEX
  8
0
 62
7
  6
CONTINUOUS
 10
7.070413979
 20
14.2999566189
  0
VERTEX
  8
0
 62
7
  6
CONTINUOUS
 10
7.0631537441
 20
14.2974532095
  0
VERTEX
  8
0
 62
7
  6
CONTINUOUS
 10
7.0557122258
 20
14.295198079
  0
VERTEX
  8
0
 62
7
  6
CONTINUOUS
 10
7.0484870921
 20
14.293294593
  0
VERTEX
  8
0
 62
7
  6
CONTINUOUS
 10
7.0408404495
 20
14.2915758919
  0
VERTEX
  8
0
 62
7
  6
CONTINUOUS
 10
7.0331677984
 20
14.2901500411
  0
SEQEND
  0
LINE
  8
0
 62
7
  6
CONTINUOUS
 10
7.2708316873
 20
14.4654972633
 11
7.4092316873
 21
14.4654972633
  0
LINE
  8
0
 62
7
  6
CONTINUOUS
 10
7.6360191873
 20
14.4654972633
 11
7.7737066873
 21
14.4654972633
  0
LINE
  8
0
 62
7
  6
CONTINUOUS
 10
7.8512289095
 20
14.4654972633
 11
7.9570164095
 21
14.4654972633
  0
LINE
  8
0
 62
7
  6
CONTINUOUS
 10
8.2055650206
 20
14.4654972633
 11
8.3331011317
 21
14.4654972633
  0
LINE
  8
0
 62
7
  6
CONTINUOUS
 10
6.7317358539
 20
14.4680875411
 11
6.7339122428
 21
14.4680875411
  0
LINE
  8
0
 62
7
  6
CONTINUOUS
 10
6.0643830762
 20
14.46913893
 11
6.0665469651
 21
14.46913893
  0
LINE
  8
0
 62
7
  6
CONTINUOUS
 10
6.4158108539
 20
14.46913893
 11
6.4179802984
 21
14.46913893
  0
LINE
  8
0
 62
7
  6
CONTINUOUS
 10
5.5822664095
 20
14.5423667078
 11
8.9386650206
 21
14.5423667078
  0
LINE
  8
0
 62
7
  6
CONTINUOUS
 10
5.5755525206
 20
14.5490805967
 11
8.9453927984
 21
14.5490805967
  0
POLYLINE
  8
0
 62
7
  6
CONTINUOUS
 66
1
 70
0
  0
VERTEX
  8
0
 62
7
  6
CONTINUOUS
 10
8.9820677984
 20
14.5843667078
  0
VERTEX
  8
0
 62
7
  6
CONTINUOUS
 10
5.5373719651
 20
14.5843667078
  0
VERTEX
  8
0
 62
7
  6
CONTINUOUS
 10
5.5373719651
 20
14.0064250411
  0
SEQEND
  0
POLYLINE
  8
0
 62
7
  6
CONTINUOUS
 66
1
 70
0
  0
VERTEX
  8
0
 62
7
  6
CONTINUOUS
 10
5.5211025206
 20
14.5969597633
  0
VERTEX
  8
0
 62
7
  6
CONTINUOUS
 10
9.0023039095
 20
14.5969597633
  0
VERTEX
  8
0
 62
7
  6
CONTINUOUS
 10
9.0023039095
 20
13.9646222633
  0
SEQEND
  0
LINE
  8
0
 62
7
  6
CONTINUOUS
 10
8.9976927984
 20
14.60138893
 11
5.5232261317
 21
14.60138893
  0
POLYLINE
  8
0
 62
7
  6
CONTINUOUS
 66
1
 70
0
  0
VERTEX
  8
0
 62
7
  6
CONTINUOUS
 10
7.6941039095
 20
13.8686208745
  0
VERTEX
  8
0
 62
7
  6
CONTINUOUS
 10
7.6514261317
 20
13.8686750411
  0
VERTEX
  8
0
 62
7
  6
CONTINUOUS
 10
7.6376664095
 20
13.8362722633
  0
VERTEX
  8
0
 62
7
  6
CONTINUOUS
 10
7.6298400206
 20
13.8362722633
  0
SEQEND
  0
POLYLINE
  8
0
 62
7
  6
CONTINUOUS
 66
1
 70
0
  0
VERTEX
  8
0
 62
7
  6
CONTINUOUS
 10
8.8014719651
 20
13.8686208745
  0
VERTEX
  8
0
 62
7
  6
CONTINUOUS
 10
8.7588275206
 20
13.8686750411
  0
VERTEX
  8
0
 62
7
  6
CONTINUOUS
 10
8.7450344651
 20
13.8362722633
  0
VERTEX
  8
0
 62
7
  6
CONTINUOUS
 10
8.7372219651
 20
13.8362722633
  0
SEQEND
  0
LINE
  8
0
 62
7
  6
CONTINUOUS
 10
8.3561455762
 20
13.8130917078
 11
8.3193205762
 21
13.8131597633
  0
POLYLINE
  8
0
 62
7
  6
CONTINUOUS
 66
1
 70
0
  0
VERTEX
  8
0
 62
7
  6
CONTINUOUS
 10
7.3773511317
 20
14.1652917078
  0
VERTEX
  8
0
 62
7
  6
CONTINUOUS
 10
7.3894103507
 20
14.1646373049
  0
VERTEX
  8
0
 62
7
  6
CONTINUOUS
 10
7.4039216142
 20
14.1636886661
  0
VERTEX
  8
0
 62
7
  6
CONTINUOUS
 10
7.418881299
 20
14.1626299604
  0
VERTEX
  8
0
 62
7
  6
CONTINUOUS
 10
7.4346617381
 20
14.1615543985
  0
VERTEX
  8
0
 62
7
  6
CONTINUOUS
 10
7.4469954278
 20
14.1608351697
  0
VERTEX
  8
0
 62
7
  6
CONTINUOUS
 10
7.457641646
 20
14.1603599819
  0
VERTEX
  8
0
 62
7
  6
CONTINUOUS
 10
7.4672332875
 20
14.1600881082
  0
VERTEX
  8
0
 62
7
  6
CONTINUOUS
 10
7.4760843803
 20
14.159999459
  0
VERTEX
  8
0
 62
7
  6
CONTINUOUS
 10
7.4843788228
 20
14.1600825148
  0
VERTEX
  8
0
 62
7
  6
CONTINUOUS
 10
7.4922359918
 20
14.1603301233
  0
VERTEX
  8
0
 62
7
  6
CONTINUOUS
 10
7.4997390753
 20
14.1607376916
  0
VERTEX
  8
0
 62
7
  6
CONTINUOUS
 10
7.5069491481
 20
14.1613022973
  0
VERTEX
  8
0
 62
7
  6
CONTINUOUS
 10
7.5139128917
 20
14.1620222092
  0
VERTEX
  8
0
 62
7
  6
CONTINUOUS
 10
7.5206671516
 20
14.1628966111
  0
VERTEX
  8
0
 62
7
  6
CONTINUOUS
 10
7.5272417867
 20
14.1639254355
  0
VERTEX
  8
0
 62
7
  6
CONTINUOUS
 10
7.5336615339
 20
14.1651092594
  0
VERTEX
  8
0
 62
7
  6
CONTINUOUS
 10
7.5399472745
 20
14.1664492373
  0
VERTEX
  8
0
 62
7
  6
CONTINUOUS
 10
7.546116921
 20
14.1679470584
  0
VERTEX
  8
0
 62
7
  6
CONTINUOUS
 10
7.5521860554
 20
14.1696049177
  0
VERTEX
  8
0
 62
7
  6
CONTINUOUS
 10
7.5581683978
 20
14.1714254975
  0
VERTEX
  8
0
 62
7
  6
CONTINUOUS
 10
7.5640761583
 20
14.1734119543
  0
VERTEX
  8
0
 62
7
  6
CONTINUOUS
 10
7.569920305
 20
14.1755679109
  0
VERTEX
  8
0
 62
7
  6
CONTINUOUS
 10
7.5757107712
 20
14.1778974507
  0
VERTEX
  8
0
 62
7
  6
CONTINUOUS
 10
7.5814566186
 20
14.1804051136
  0
VERTEX
  8
0
 62
7
  6
CONTINUOUS
 10
7.5871661668
 20
14.1830958938
  0
VERTEX
  8
0
 62
7
  6
CONTINUOUS
 10
7.592847097
 20
14.1859752374
  0
VERTEX
  8
0
 62
7
  6
CONTINUOUS
 10
7.5985065372
 20
14.1890490413
  0
VERTEX
  8
0
 62
7
  6
CONTINUOUS
 10
7.6041511317
 20
14.1923236522
  0
SEQEND
  0
POLYLINE
  8
0
 62
7
  6
CONTINUOUS
 66
1
 70
0
  0
VERTEX
  8
0
 62
7
  6
CONTINUOUS
 10
8.8510052984
 20
14.1565236522
  0
VERTEX
  8
0
 62
7
  6
CONTINUOUS
 10
8.8524735425
 20
14.1567350283
  0
VERTEX
  8
0
 62
7
  6
CONTINUOUS
 10
8.8534749117
 20
14.1568652734
  0
VERTEX
  8
0
 62
7
  6
CONTINUOUS
 10
8.8543888762
 20
14.1569678999
  0
VERTEX
  8
0
 62
7
  6
CONTINUOUS
 10
8.8552709703
 20
14.1570493544
  0
VERTEX
  8
0
 62
7
  6
CONTINUOUS
 10
8.8561508948
 20
14.1571122345
  0
VERTEX
  8
0
 62
7
  6
CONTINUOUS
 10
8.857048239
 20
14.1571574705
  0
VERTEX
  8
0
 62
7
  6
CONTINUOUS
 10
8.8579779166
 20
14.1571850791
  0
VERTEX
  8
0
 62
7
  6
CONTINUOUS
 10
8.8589525206
 20
14.1571944856
  0
VERTEX
  8
0
 62
7
  6
CONTINUOUS
 10
8.8596207531
 20
14.1571870122
  0
VERTEX
  8
0
 62
7
  6
CONTINUOUS
 10
8.8603454207
 20
14.1571610423
  0
VERTEX
  8
0
 62
7
  6
CONTINUOUS
 10
8.8610376228
 20
14.157117281
  0
VERTEX
  8
0
 62
7
  6
CONTINUOUS
 10
8.8616980158
 20
14.1570565539
  0
VERTEX
  8
0
 62
7
  6
CONTINUOUS
 10
8.8623272583
 20
14.1569796752
  0
VERTEX
  8
0
 62
7
  6
CONTINUOUS
 10
8.8629260108
 20
14.1568874469
  0
VERTEX
  8
0
 62
7
  6
CONTINUOUS
 10
8.8634949345
 20
14.1567806567
  0
VERTEX
  8
0
 62
7
  6
CONTINUOUS
 10
8.864034691
 20
14.1566600775
  0
VERTEX
  8
0
 62
7
  6
CONTINUOUS
 10
8.8645459408
 20
14.156526465
  0
VERTEX
  8
0
 62
7
  6
CONTINUOUS
 10
8.865029342
 20
14.1563805566
  0
VERTEX
  8
0
 62
7
  6
CONTINUOUS
 10
8.8654855487
 20
14.1562230696
  0
VERTEX
  8
0
 62
7
  6
CONTINUOUS
 10
8.8659152088
 20
14.1560546997
  0
VERTEX
  8
0
 62
7
  6
CONTINUOUS
 10
8.8663189622
 20
14.1558761194
  0
VERTEX
  8
0
 62
7
  6
CONTINUOUS
 10
8.8666974372
 20
14.1556879766
  0
VERTEX
  8
0
 62
7
  6
CONTINUOUS
 10
8.8670512483
 20
14.1554908936
  0
VERTEX
  8
0
 62
7
  6
CONTINUOUS
 10
8.8673809919
 20
14.1552854661
  0
VERTEX
  8
0
 62
7
  6
CONTINUOUS
 10
8.8675370262
 20
14.1551797971
  0
VERTEX
  8
0
 62
7
  6
CONTINUOUS
 10
8.8676872428
 20
14.1550722633
  0
VERTEX
  8
0
 62
7
  6
CONTINUOUS
 10
8.8679618803
 20
14.1548582497
  0
VERTEX
  8
0
 62
7
  6
CONTINUOUS
 10
8.868219954
 20
14.1546329282
  0
VERTEX
  8
0
 62
7
  6
CONTINUOUS
 10
8.8684620165
 20
14.1543961329
  0
VERTEX
  8
0
 62
7
  6
CONTINUOUS
 10
8.8686885366
 20
14.154147614
  0
VERTEX
  8
0
 62
7
  6
CONTINUOUS
 10
8.8688998945
 20
14.1538870402
  0
VERTEX
  8
0
 62
7
  6
CONTINUOUS
 10
8.8690963776
 20
14.1536140019
  0
VERTEX
  8
0
 62
7
  6
CONTINUOUS
 10
8.8691891192
 20
14.1534726373
  0
VERTEX
  8
0
 62
7
  6
CONTINUOUS
 10
8.8692781687
 20
14.1533280287
  0
VERTEX
  8
0
 62
7
  6
CONTINUOUS
 10
8.8694451237
 20
14.1530290245
  0
VERTEX
  8
0
 62
7
  6
CONTINUOUS
 10
8.8695973117
 20
14.1527164145
  0
VERTEX
  8
0
 62
7
  6
CONTINUOUS
 10
8.8697347003
 20
14.1523895611
  0
VERTEX
  8
0
 62
7
  6
CONTINUOUS
 10
8.869857156
 20
14.1520477693
  0
VERTEX
  8
0
 62
7
  6
CONTINUOUS
 10
8.8699644457
 20
14.1516902923
  0
VERTEX
  8
0
 62
7
  6
CONTINUOUS
 10
8.8700562383
 20
14.1513163368
  0
VERTEX
  8
0
 62
7
  6
CONTINUOUS
 10
8.8701321083
 20
14.1509250681
  0
VERTEX
  8
0
 62
7
  6
CONTINUOUS
 10
8.8701915383
 20
14.1505156145
  0
VERTEX
  8
0
 62
7
  6
CONTINUOUS
 10
8.8702339236
 20
14.1500870719
  0
VERTEX
  8
0
 62
7
  6
CONTINUOUS
 10
8.8702585753
 20
14.1496385072
  0
VERTEX
  8
0
 62
7
  6
CONTINUOUS
 10
8.8702650206
 20
14.1492528189
  0
VERTEX
  8
0
 62
7
  6
CONTINUOUS
 10
8.8702554028
 20
14.1488571428
  0
VERTEX
  8
0
 62
7
  6
CONTINUOUS
 10
8.8702269035
 20
14.1484727577
  0
VERTEX
  8
0
 62
7
  6
CONTINUOUS
 10
8.8701800041
 20
14.1480993147
  0
VERTEX
  8
0
 62
7
  6
CONTINUOUS
 10
8.8701151192
 20
14.1477364818
  0
VERTEX
  8
0
 62
7
  6
CONTINUOUS
 10
8.8700325952
 20
14.147383949
  0
VERTEX
  8
0
 62
7
  6
CONTINUOUS
 10
8.869932711
 20
14.1470414335
  0
VERTEX
  8
0
 62
7
  6
CONTINUOUS
 10
8.8698156793
 20
14.1467086857
  0
VERTEX
  8
0
 62
7
  6
CONTINUOUS
 10
8.8696816493
 20
14.1463854949
  0
VERTEX
  8
0
 62
7
  6
CONTINUOUS
 10
8.8695307106
 20
14.1460716954
  0
VERTEX
  8
0
 62
7
  6
CONTINUOUS
 10
8.869362899
 20
14.1457671721
  0
VERTEX
  8
0
 62
7
  6
CONTINUOUS
 10
8.8691782036
 20
14.1454718664
  0
VERTEX
  8
0
 62
7
  6
CONTINUOUS
 10
8.8689765755
 20
14.1451857811
  0
VERTEX
  8
0
 62
7
  6
CONTINUOUS
 10
8.8687579386
 20
14.144908985
  0
VERTEX
  8
0
 62
7
  6
CONTINUOUS
 10
8.8685222019
 20
14.1446416169
  0
VERTEX
  8
0
 62
7
  6
CONTINUOUS
 10
8.8682692734
 20
14.1443838886
  0
VERTEX
  8
0
 62
7
  6
CONTINUOUS
 10
8.8679990762
 20
14.1441360864
  0
VERTEX
  8
0
 62
7
  6
CONTINUOUS
 10
8.8677115655
 20
14.1438985723
  0
VERTEX
  8
0
 62
7
  6
CONTINUOUS
 10
8.8674067482
 20
14.1436717826
  0
VERTEX
  8
0
 62
7
  6
CONTINUOUS
 10
8.8670847025
 20
14.1434562257
  0
VERTEX
  8
0
 62
7
  6
CONTINUOUS
 10
8.8667455997
 20
14.1432524776
  0
VERTEX
  8
0
 62
7
  6
CONTINUOUS
 10
8.8663897261
 20
14.1430611757
  0
VERTEX
  8
0
 62
7
  6
CONTINUOUS
 10
8.8660175046
 20
14.1428830098
  0
VERTEX
  8
0
 62
7
  6
CONTINUOUS
 10
8.8656295165
 20
14.1427187107
  0
VERTEX
  8
0
 62
7
  6
CONTINUOUS
 10
8.8652265209
 20
14.1425690366
  0
VERTEX
  8
0
 62
7
  6
CONTINUOUS
 10
8.8648094715
 20
14.1424347565
  0
VERTEX
  8
0
 62
7
  6
CONTINUOUS
 10
8.8647719651
 20
14.1424236522
  0
SEQEND
  0
POLYLINE
  8
0
 62
7
  6
CONTINUOUS
 66
1
 70
0
  0
VERTEX
  8
0
 62
7
  6
CONTINUOUS
 10
8.8243664095
 20
14.1304208745
  0
VERTEX
  8
0
 62
7
  6
CONTINUOUS
 10
8.8108520497
 20
14.1286050327
  0
VERTEX
  8
0
 62
7
  6
CONTINUOUS
 10
8.7769671481
 20
14.1241726339
  0
VERTEX
  8
0
 62
7
  6
CONTINUOUS
 10
8.7504560078
 20
14.1210185293
  0
VERTEX
  8
0
 62
7
  6
CONTINUOUS
 10
8.727456449
 20
14.1186602207
  0
VERTEX
  8
0
 62
7
  6
CONTINUOUS
 10
8.706588307
 20
14.1169263517
  0
VERTEX
  8
0
 62
7
  6
CONTINUOUS
 10
8.6871675285
 20
14.1157342176
  0
VERTEX
  8
0
 62
7
  6
CONTINUOUS
 10
8.6687928027
 20
14.1150378017
  0
VERTEX
  8
0
 62
7
  6
CONTINUOUS
 10
8.6512025206
 20
14.1148097633
  0
VERTEX
  8
0
 62
7
  6
CONTINUOUS
 10
8.6424527566
 20
14.1148643384
  0
VERTEX
  8
0
 62
7
  6
CONTINUOUS
 10
8.6247726121
 20
14.1153183935
  0
VERTEX
  8
0
 62
7
  6
CONTINUOUS
 10
8.6076759901
 20
14.1162195137
  0
VERTEX
  8
0
 62
7
  6
CONTINUOUS
 10
8.591169595
 20
14.1175516587
  0
VERTEX
  8
0
 62
7
  6
CONTINUOUS
 10
8.5752588908
 20
14.1192983239
  0
VERTEX
  8
0
 62
7
  6
CONTINUOUS
 10
8.5599480326
 20
14.1214426178
  0
VERTEX
  8
0
 62
7
  6
CONTINUOUS
 10
8.5452398106
 20
14.1239673489
  0
VERTEX
  8
0
 62
7
  6
CONTINUOUS
 10
8.5311356104
 20
14.1268551241
  0
VERTEX
  8
0
 62
7
  6
CONTINUOUS
 10
8.5176353905
 20
14.1300884571
  0
VERTEX
  8
0
 62
7
  6
CONTINUOUS
 10
8.5047376793
 20
14.1336498838
  0
VERTEX
  8
0
 62
7
  6
CONTINUOUS
 10
8.492439593
 20
14.1375220859
  0
VERTEX
  8
0
 62
7
  6
CONTINUOUS
 10
8.480736876
 20
14.1416880195
  0
VERTEX
  8
0
 62
7
  6
CONTINUOUS
 10
8.4696239631
 20
14.1461310464
  0
VERTEX
  8
0
 62
7
  6
CONTINUOUS
 10
8.4590940656
 20
14.1508350675
  0
VERTEX
  8
0
 62
7
  6
CONTINUOUS
 10
8.4491392795
 20
14.1557846539
  0
VERTEX
  8
0
 62
7
  6
CONTINUOUS
 10
8.4397507162
 20
14.1609651757
  0
VERTEX
  8
0
 62
7
  6
CONTINUOUS
 10
8.430918654
 20
14.1663629234
  0
VERTEX
  8
0
 62
7
  6
CONTINUOUS
 10
8.422632709
 20
14.1719652214
  0
VERTEX
  8
0
 62
7
  6
CONTINUOUS
 10
8.4148820238
 20
14.1777605295
  0
VERTEX
  8
0
 62
7
  6
CONTINUOUS
 10
8.4076554704
 20
14.183738531
  0
VERTEX
  8
0
 62
7
  6
CONTINUOUS
 10
8.4009418661
 20
14.1898902039
  0
VERTEX
  8
0
 62
7
  6
CONTINUOUS
 10
8.394730197
 20
14.1962078728
  0
VERTEX
  8
0
 62
7
  6
CONTINUOUS
 10
8.3890098467
 20
14.2026852397
  0
VERTEX
  8
0
 62
7
  6
CONTINUOUS
 10
8.3837708263
 20
14.2093173926
  0
VERTEX
  8
0
 62
7
  6
CONTINUOUS
 10
8.3790039989
 20
14.2161007879
  0
VERTEX
  8
0
 62
7
  6
CONTINUOUS
 10
8.3747012962
 20
14.2230332092
  0
VERTEX
  8
0
 62
7
  6
CONTINUOUS
 10
8.3708559208
 20
14.2301136998
  0
VERTEX
  8
0
 62
7
  6
CONTINUOUS
 10
8.3674625286
 20
14.2373424709
  0
VERTEX
  8
0
 62
7
  6
CONTINUOUS
 10
8.3645173885
 20
14.2447207875
  0
VERTEX
  8
0
 62
7
  6
CONTINUOUS
 10
8.3620185134
 20
14.2522508336
  0
VERTEX
  8
0
 62
7
  6
CONTINUOUS
 10
8.3599657597
 20
14.2599355616
  0
VERTEX
  8
0
 62
7
  6
CONTINUOUS
 10
8.3583618074
 20
14.2677732796
  0
VERTEX
  8
0
 62
7
  6
CONTINUOUS
 10
8.3572098016
 20
14.2757646751
  0
VERTEX
  8
0
 62
7
  6
CONTINUOUS
 10
8.3565139286
 20
14.2839138304
  0
VERTEX
  8
0
 62
7
  6
CONTINUOUS
 10
8.3562802984
 20
14.2922250411
  0
VERTEX
  8
0
 62
7
  6
CONTINUOUS
 10
8.356514357
 20
14.3005865486
  0
VERTEX
  8
0
 62
7
  6
CONTINUOUS
 10
8.3572114677
 20
14.3087814815
  0
VERTEX
  8
0
 62
7
  6
CONTINUOUS
 10
8.3583647218
 20
14.3168113304
  0
VERTEX
  8
0
 62
7
  6
CONTINUOUS
 10
8.3599684311
 20
14.3246786656
  0
VERTEX
  8
0
 62
7
  6
CONTINUOUS
 10
8.3620192831
 20
14.3323896275
  0
VERTEX
  8
0
 62
7
  6
CONTINUOUS
 10
8.364516086
 20
14.3399496968
  0
VERTEX
  8
0
 62
7
  6
CONTINUOUS
 10
8.3674597068
 20
14.3473635283
  0
VERTEX
  8
0
 62
7
  6
CONTINUOUS
 10
8.3708529727
 20
14.3546347914
  0
VERTEX
  8
0
 62
7
  6
CONTINUOUS
 10
8.3747005357
 20
14.3617660218
  0
VERTEX
  8
0
 62
7
  6
CONTINUOUS
 10
8.3790087034
 20
14.368758489
  0
VERTEX
  8
0
 62
7
  6
CONTINUOUS
 10
8.3837852381
 20
14.3756120822
  0
VERTEX
  8
0
 62
7
  6
CONTINUOUS
 10
8.3890391268
 20
14.3823252176
  0
VERTEX
  8
0
 62
7
  6
CONTINUOUS
 10
8.3947803285
 20
14.388894771
  0
VERTEX
  8
0
 62
7
  6
CONTINUOUS
 10
8.4010195002
 20
14.3953160333
  0
VERTEX
  8
0
 62
7
  6
CONTINUOUS
 10
8.4077677084
 20
14.4015826932
  0
VERTEX
  8
0
 62
7
  6
CONTINUOUS
 10
8.41503613
 20
14.4076868443
  0
VERTEX
  8
0
 62
7
  6
CONTINUOUS
 10
8.4228357459
 20
14.4136190188
  0
VERTEX
  8
0
 62
7
  6
CONTINUOUS
 10
8.4311770345
 20
14.4193682439
  0
VERTEX
  8
0
 62
7
  6
CONTINUOUS
 10
8.4400696667
 20
14.4249221228
  0
VERTEX
  8
0
 62
7
  6
CONTINUOUS
 10
8.4495222102
 20
14.430266938
  0
VERTEX
  8
0
 62
7
  6
CONTINUOUS
 10
8.4595418449
 20
14.4353877743
  0
VERTEX
  8
0
 62
7
  6
CONTINUOUS
 10
8.4701340973
 20
14.4402686624
  0
VERTEX
  8
0
 62
7
  6
CONTINUOUS
 10
8.481302597
 20
14.4448927384
  0
VERTEX
  8
0
 62
7
  6
CONTINUOUS
 10
8.4930488613
 20
14.4492424186
  0
VERTEX
  8
0
 62
7
  6
CONTINUOUS
 10
8.5053721117
 20
14.453299587
  0
VERTEX
  8
0
 62
7
  6
CONTINUOUS
 10
8.5182691289
 20
14.4570457907
  0
VERTEX
  8
0
 62
7
  6
CONTINUOUS
 10
8.5317341477
 20
14.4604624417
  0
VERTEX
  8
0
 62
7
  6
CONTINUOUS
 10
8.5457587963
 20
14.4635310202
  0
VERTEX
  8
0
 62
7
  6
CONTINUOUS
 10
8.5603320816
 20
14.4662332751
  0
VERTEX
  8
0
 62
7
  6
CONTINUOUS
 10
8.5754404211
 20
14.4685514187
  0
VERTEX
  8
0
 62
7
  6
CONTINUOUS
 10
8.5910677203
 20
14.4704683097
  0
VERTEX
  8
0
 62
7
  6
CONTINUOUS
 10
8.607195494
 20
14.4719676227
  0
VERTEX
  8
0
 62
7
  6
CONTINUOUS
 10
8.6238030275
 20
14.4730339987
  0
VERTEX
  8
0
 62
7
  6
CONTINUOUS
 10
8.6408675729
 20
14.4736531753
  0
VERTEX
  8
0
 62
7
  6
CONTINUOUS
 10
8.6555427984
 20
14.4738180967
  0
VERTEX
  8
0
 62
7
  6
CONTINUOUS
 10
8.6737629743
 20
14.473584245
  0
VERTEX
  8
0
 62
7
  6
CONTINUOUS
 10
8.6920959746
 20
14.4728807373
  0
VERTEX
  8
0
 62
7
  6
CONTINUOUS
 10
8.7105910571
 20
14.4717025519
  0
VERTEX
  8
0
 62
7
  6
CONTINUOUS
 10
8.729301998
 20
14.4700416378
  0
VERTEX
  8
0
 62
7
  6
CONTINUOUS
 10
8.7482882557
 20
14.4678865344
  0
VERTEX
  8
0
 62
7
  6
CONTINUOUS
 10
8.7676164738
 20
14.4652218629
  0
VERTEX
  8
0
 62
7
  6
CONTINUOUS
 10
8.7692983539
 20
14.4649680967
  0
SEQEND
  0
POLYLINE
  8
0
 62
7
  6
CONTINUOUS
 66
1
 70
0
  0
VERTEX
  8
0
 62
7
  6
CONTINUOUS
 10
6.9491080762
 20
14.3010819856
  0
VERTEX
  8
0
 62
7
  6
CONTINUOUS
 10
6.9573244368
 20
14.3020252439
  0
VERTEX
  8
0
 62
7
  6
CONTINUOUS
 10
6.9651905464
 20
14.3030592791
  0
VERTEX
  8
0
 62
7
  6
CONTINUOUS
 10
6.9724337924
 20
14.3041511467
  0
VERTEX
  8
0
 62
7
  6
CONTINUOUS
 10
6.9792039529
 20
14.3053150447
  0
VERTEX
  8
0
 62
7
  6
CONTINUOUS
 10
6.9855999075
 20
14.3065607975
  0
VERTEX
  8
0
 62
7
  6
CONTINUOUS
 10
6.9916914169
 20
14.3078958513
  0
VERTEX
  8
0
 62
7
  6
CONTINUOUS
 10
6.9975301821
 20
14.3093262934
  0
VERTEX
  8
0
 62
7
  6
CONTINUOUS
 10
7.0031560086
 20
14.3108574263
  0
VERTEX
  8
0
 62
7
  6
CONTINUOUS
 10
7.0086004928
 20
14.3124941178
  0
VERTEX
  8
0
 62
7
  6
CONTINUOUS
 10
7.0138893501
 20
14.3142410259
  0
VERTEX
  8
0
 62
7
  6
CONTINUOUS
 10
7.0190439511
 20
14.3161027527
  0
VERTEX
  8
0
 62
7
  6
CONTINUOUS
 10
7.0240823731
 20
14.3180839525
  0
VERTEX
  8
0
 62
7
  6
CONTINUOUS
 10
7.0290201412
 20
14.3201894117
  0
VERTEX
  8
0
 62
7
  6
CONTINUOUS
 10
7.0294385529
 20
14.320375749
  0
VERTEX
  8
0
 62
7
  6
CONTINUOUS
 10
7.0335194934
 20
14.3222814054
  0
VERTEX
  8
0
 62
7
  6
CONTINUOUS
 10
7.0373926403
 20
14.3242510078
  0
VERTEX
  8
0
 62
7
  6
CONTINUOUS
 10
7.0410520473
 20
14.3262757531
  0
VERTEX
  8
0
 62
7
  6
CONTINUOUS
 10
7.0444957163
 20
14.3283482773
  0
VERTEX
  8
0
 62
7
  6
CONTINUOUS
 10
7.0477244738
 20
14.3304624423
  0
VERTEX
  8
0
 62
7
  6
CONTINUOUS
 10
7.0507411549
 20
14.3326131763
  0
VERTEX
  8
0
 62
7
  6
CONTINUOUS
 10
7.0535499964
 20
14.3347963531
  0
VERTEX
  8
0
 62
7
  6
CONTINUOUS
 10
7.0561561781
 20
14.3370087004
  0
VERTEX
  8
0
 62
7
  6
CONTINUOUS
 10
7.058565467
 20
14.3392477287
  0
VERTEX
  8
0
 62
7
  6
CONTINUOUS
 10
7.0607839366
 20
14.3415116757
  0
VERTEX
  8
0
 62
7
  6
CONTINUOUS
 10
7.0628177395
 20
14.3437994607
  0
VERTEX
  8
0
 62
7
  6
CONTINUOUS
 10
7.0646729207
 20
14.3461106464
  0
VERTEX
  8
0
 62
7
  6
CONTINUOUS
 10
7.0663552606
 20
14.3484454054
  0
VERTEX
  8
0
 62
7
  6
CONTINUOUS
 10
7.0678701413
 20
14.3508044868
  0
VERTEX
  8
0
 62
7
  6
CONTINUOUS
 10
7.069222431
 20
14.3531891845
  0
VERTEX
  8
0
 62
7
  6
CONTINUOUS
 10
7.0704163851
 20
14.3556013025
  0
VERTEX
  8
0
 62
7
  6
CONTINUOUS
 10
7.0714555606
 20
14.3580431186
  0
VERTEX
  8
0
 62
7
  6
CONTINUOUS
 10
7.0723427435
 20
14.360517344
  0
VERTEX
  8
0
 62
7
  6
CONTINUOUS
 10
7.0730798897
 20
14.3630270802
  0
VERTEX
  8
0
 62
7
  6
CONTINUOUS
 10
7.0736680776
 20
14.3655757734
  0
VERTEX
  8
0
 62
7
  6
CONTINUOUS
 10
7.0741074742
 20
14.3681671657
  0
VERTEX
  8
0
 62
7
  6
CONTINUOUS
 10
7.0743973133
 20
14.3708052465
  0
VERTEX
  8
0
 62
7
  6
CONTINUOUS
 10
7.0745358856
 20
14.3734942033
  0
VERTEX
  8
0
 62
7
  6
CONTINUOUS
 10
7.0745205404
 20
14.3762383741
  0
VERTEX
  8
0
 62
7
  6
CONTINUOUS
 10
7.0743476975
 20
14.3790422032
  0
VERTEX
  8
0
 62
7
  6
CONTINUOUS
 10
7.0740128671
 20
14.3819102004
  0
VERTEX
  8
0
 62
7
  6
CONTINUOUS
 10
7.0735592358
 20
14.3845219286
  0
VERTEX
  8
0
 62
7
  6
CONTINUOUS
 10
7.0729604194
 20
14.3870714449
  0
VERTEX
  8
0
 62
7
  6
CONTINUOUS
 10
7.0722173873
 20
14.3895624872
  0
VERTEX
  8
0
 62
7
  6
CONTINUOUS
 10
7.0713302461
 20
14.3919984622
  0
VERTEX
  8
0
 62
7
  6
CONTINUOUS
 10
7.0702982692
 20
14.3943823908
  0
VERTEX
  8
0
 62
7
  6
CONTINUOUS
 10
7.0691199417
 20
14.396716853
  0
VERTEX
  8
0
 62
7
  6
CONTINUOUS
 10
7.0677930207
 20
14.3990039357
  0
VERTEX
  8
0
 62
7
  6
CONTINUOUS
 10
7.066314612
 20
14.4012451824
  0
VERTEX
  8
0
 62
7
  6
CONTINUOUS
 10
7.0646812646
 20
14.4034415455
  0
VERTEX
  8
0
 62
7
  6
CONTINUOUS
 10
7.0628890844
 20
14.4055933429
  0
VERTEX
  8
0
 62
7
  6
CONTINUOUS
 10
7.0609338686
 20
14.4077002156
  0
VERTEX
  8
0
 62
7
  6
CONTINUOUS
 10
7.0588112655
 20
14.4097610885
  0
VERTEX
  8
0
 62
7
  6
CONTINUOUS
 10
7.0565169632
 20
14.4117741315
  0
VERTEX
  8
0
 62
7
  6
CONTINUOUS
 10
7.0540469146
 20
14.413736721
  0
VERTEX
  8
0
 62
7
  6
CONTINUOUS
 10
7.0513976093
 20
14.4156453997
  0
VERTEX
  8
0
 62
7
  6
CONTINUOUS
 10
7.0485664021
 20
14.417495834
  0
VERTEX
  8
0
 62
7
  6
CONTINUOUS
 10
7.0455519176
 20
14.4192827692
  0
VERTEX
  8
0
 62
7
  6
CONTINUOUS
 10
7.04235455
 20
14.4209999827
  0
VERTEX
  8
0
 62
7
  6
CONTINUOUS
 10
7.0389770849
 20
14.4226402371
  0
VERTEX
  8
0
 62
7
  6
CONTINUOUS
 10
7.0354254748
 20
14.4241952388
  0
VERTEX
  8
0
 62
7
  6
CONTINUOUS
 10
7.0317098023
 20
14.425655612
  0
VERTEX
  8
0
 62
7
  6
CONTINUOUS
 10
7.0278454663
 20
14.4270109049
  0
VERTEX
  8
0
 62
7
  6
CONTINUOUS
 10
7.0238546126
 20
14.4282496583
  0
VERTEX
  8
0
 62
7
  6
CONTINUOUS
 10
7.0197677939
 20
14.4293595819
  0
VERTEX
  8
0
 62
7
  6
CONTINUOUS
 10
7.0156257654
 20
14.43032791
  0
VERTEX
  8
0
 62
7
  6
CONTINUOUS
 10
7.0138772122
 20
14.4306902517
  0
VERTEX
  8
0
 62
7
  6
CONTINUOUS
 10
7.009287426
 20
14.4315272252
  0
VERTEX
  8
0
 62
7
  6
CONTINUOUS
 10
7.0046236106
 20
14.4322218923
  0
VERTEX
  8
0
 62
7
  6
CONTINUOUS
 10
6.9998678121
 20
14.432775426
  0
VERTEX
  8
0
 62
7
  6
CONTINUOUS
 10
6.9949986477
 20
14.4331881516
  0
VERTEX
  8
0
 62
7
  6
CONTINUOUS
 10
6.9899900367
 20
14.4334594081
  0
VERTEX
  8
0
 62
7
  6
CONTINUOUS
 10
6.9848092581
 20
14.4335873273
  0
VERTEX
  8
0
 62
7
  6
CONTINUOUS
 10
6.979413836
 20
14.4335684711
  0
VERTEX
  8
0
 62
7
  6
CONTINUOUS
 10
6.9737462546
 20
14.4333972003
  0
VERTEX
  8
0
 62
7
  6
CONTINUOUS
 10
6.9677242943
 20
14.4330645043
  0
VERTEX
  8
0
 62
7
  6
CONTINUOUS
 10
6.9612215126
 20
14.4325556147
  0
VERTEX
  8
0
 62
7
  6
CONTINUOUS
 10
6.9540218179
 20
14.4318444267
  0
VERTEX
  8
0
 62
7
  6
CONTINUOUS
 10
6.9456877027
 20
14.4308773256
  0
VERTEX
  8
0
 62
7
  6
CONTINUOUS
 10
6.9349866528
 20
14.4295034269
  0
VERTEX
  8
0
 62
7
  6
CONTINUOUS
 10
6.9317205762
 20
14.4290722633
  0
SEQEND
  0
LINE
  8
0
 62
7
  6
CONTINUOUS
 10
6.3824858539
 20
14.4654972633
 11
6.4158108539
 21
14.46913893
  0
LINE
  8
0
 62
7
  6
CONTINUOUS
 10
6.6585469651
 20
14.3276250411
 11
6.6904344651
 21
14.3307375411
  0
LINE
  8
0
 62
7
  6
CONTINUOUS
 10
6.6976844651
 20
14.4654972633
 11
6.7317358539
 21
14.4680875411
  0
LINE
  8
0
 62
7
  6
CONTINUOUS
 10
6.6462316873
 20
14.4280347633
 11
6.5723247428
 21
14.4244000411
  0
LINE
  8
DEFAULT_2
 62
8
  6
HIDDEN
 10
2.1899803092
 20
15.6597643312
 11
2.5699803092
 21
15.6597643312
  0
LINE
  8
DEFAULT_2
 62
8
  6
HIDDEN
 10
22.9499803092
 20
15.6597643312
 11
23.3299803092
 21
15.6597643312
  0
LINE
  8
DEFAULT_2
 62
8
  6
HIDDEN
 10
23.1399803092
 20
5.6597643312
 11
23.1394190322
 21
5.8497635022
  0
LINE
  8
DEFAULT_2
 62
8
  6
HIDDEN
 10
23.1399803092
 20
5.6597643312
 11
23.1399803092
 21
5.4697643312
  0
LINE
  8
DEFAULT_2
 62
8
  6
HIDDEN
 10
23.1399803092
 20
5.8497643312
 11
23.1399803092
 21
5.8510311856
  0
LINE
  8
DEFAULT_2
 62
8
  6
HIDDEN
 10
23.1396193494
 20
15.4697646741
 11
23.140341269
 21
15.8497639884
  0
POLYLINE
  8
_CURVE
 62
9
  6
CONTINUOUS
 66
1
 70
0
  0
VERTEX
  8
_CURVE
 62
9
  6
CONTINUOUS
 10
3.2596447095
 20
10.4805137685
  0
VERTEX
  8
_CURVE
 62
9
  6
CONTINUOUS
 10
3.2606619592
 20
10.3019746663
  0
VERTEX
  8
_CURVE
 62
9
  6
CONTINUOUS
 10
3.2625244655
 20
10.103241012
  0
VERTEX
  8
_CURVE
 62
9
  6
CONTINUOUS
 10
3.2655855555
 20
9.9037780316
  0
VERTEX
  8
_CURVE
 62
9
  6
CONTINUOUS
 10
3.2689840223
 20
9.7515873669
  0
VERTEX
  8
_CURVE
 62
9
  6
CONTINUOUS
 10
3.2735136524
 20
9.5990615278
  0
VERTEX
  8
_CURVE
 62
9
  6
CONTINUOUS
 10
3.2793610888
 20
9.4462030101
  0
VERTEX
  8
_CURVE
 62
9
  6
CONTINUOUS
 10
3.2872851264
 20
9.282320078
  0
VERTEX
  8
_CURVE
 62
9
  6
CONTINUOUS
 10
3.2971470298
 20
9.1181364636
  0
VERTEX
  8
_CURVE
 62
9
  6
CONTINUOUS
 10
3.3091628277
 20
8.9537293779
  0
VERTEX
  8
_CURVE
 62
9
  6
CONTINUOUS
 10
3.318830894
 20
8.8400822879
  0
VERTEX
  8
_CURVE
 62
9
  6
CONTINUOUS
 10
3.3296901237
 20
8.7263687081
  0
VERTEX
  8
_CURVE
 62
9
  6
CONTINUOUS
 10
3.3418011217
 20
8.6125919212
  0
VERTEX
  8
_CURVE
 62
9
  6
CONTINUOUS
 10
3.3552244928
 20
8.4987552104
  0
VERTEX
  8
_CURVE
 62
9
  6
CONTINUOUS
 10
3.3680061159
 20
8.3998123863
  0
VERTEX
  8
_CURVE
 62
9
  6
CONTINUOUS
 10
3.3819106286
 20
8.3008179179
  0
VERTEX
  8
_CURVE
 62
9
  6
CONTINUOUS
 10
3.3970247132
 20
8.2017629088
  0
VERTEX
  8
_CURVE
 62
9
  6
CONTINUOUS
 10
3.4134350524
 20
8.1026384627
  0
VERTEX
  8
_CURVE
 62
9
  6
CONTINUOUS
 10
3.4342527676
 20
7.9873674746
  0
VERTEX
  8
_CURVE
 62
9
  6
CONTINUOUS
 10
3.4571065414
 20
7.8720544
  0
VERTEX
  8
_CURVE
 62
9
  6
CONTINUOUS
 10
3.482165055
 20
7.7567629259
  0
VERTEX
  8
_CURVE
 62
9
  6
CONTINUOUS
 10
3.5060532645
 20
7.6558655199
  0
VERTEX
  8
_CURVE
 62
9
  6
CONTINUOUS
 10
3.531868517
 20
7.5550997777
  0
VERTEX
  8
_CURVE
 62
9
  6
CONTINUOUS
 10
3.5597174915
 20
7.4545319495
  0
VERTEX
  8
_CURVE
 62
9
  6
CONTINUOUS
 10
3.5864183072
 20
7.3648659985
  0
VERTEX
  8
_CURVE
 62
9
  6
CONTINUOUS
 10
3.6149089764
 20
7.2754676059
  0
VERTEX
  8
_CURVE
 62
9
  6
CONTINUOUS
 10
3.6452693733
 20
7.1863932877
  0
VERTEX
  8
_CURVE
 62
9
  6
CONTINUOUS
 10
3.6745544959
 20
7.1057593498
  0
VERTEX
  8
_CURVE
 62
9
  6
CONTINUOUS
 10
3.7055056844
 20
7.0254993068
  0
VERTEX
  8
_CURVE
 62
9
  6
CONTINUOUS
 10
3.7381782082
 20
6.9456726027
  0
VERTEX
  8
_CURVE
 62
9
  6
CONTINUOUS
 10
3.7699079521
 20
6.8724348479
  0
VERTEX
  8
_CURVE
 62
9
  6
CONTINUOUS
 10
3.8031962026
 20
6.7996650306
  0
VERTEX
  8
_CURVE
 62
9
  6
CONTINUOUS
 10
3.8380881773
 20
6.7274113422
  0
VERTEX
  8
_CURVE
 62
9
  6
CONTINUOUS
 10
3.8725867417
 20
6.6596270166
  0
VERTEX
  8
_CURVE
 62
9
  6
CONTINUOUS
 10
3.9085720653
 20
6.5924283944
  0
VERTEX
  8
_CURVE
 62
9
  6
CONTINUOUS
 10
3.9460570883
 20
6.5258967916
  0
VERTEX
  8
_CURVE
 62
9
  6
CONTINUOUS
 10
3.9839899369
 20
6.4618518725
  0
VERTEX
  8
_CURVE
 62
9
  6
CONTINUOUS
 10
4.0233205637
 20
6.3985855357
  0
VERTEX
  8
_CURVE
 62
9
  6
CONTINUOUS
 10
4.0640135007
 20
6.3361673057
  0
VERTEX
  8
_CURVE
 62
9
  6
CONTINUOUS
 10
4.1061532114
 20
6.2744873612
  0
VERTEX
  8
_CURVE
 62
9
  6
CONTINUOUS
 10
4.1495818875
 20
6.2137670805
  0
VERTEX
  8
_CURVE
 62
9
  6
CONTINUOUS
 10
4.1942540833
 20
6.1540432611
  0
VERTEX
  8
_CURVE
 62
9
  6
CONTINUOUS
 10
4.2412213963
 20
6.0939753586
  0
VERTEX
  8
_CURVE
 62
9
  6
CONTINUOUS
 10
4.2894024136
 20
6.0349933748
  0
VERTEX
  8
_CURVE
 62
9
  6
CONTINUOUS
 10
4.3387555914
 20
5.9771006605
  0
VERTEX
  8
_CURVE
 62
9
  6
CONTINUOUS
 10
4.3906068049
 20
5.9187980248
  0
VERTEX
  8
_CURVE
 62
9
  6
CONTINUOUS
 10
4.4436234705
 20
5.8616534643
  0
VERTEX
  8
_CURVE
 62
9
  6
CONTINUOUS
 10
4.497779184
 20
5.8056732519
  0
VERTEX
  8
_CURVE
 62
9
  6
CONTINUOUS
 10
4.5542524049
 20
5.7496928989
  0
VERTEX
  8
_CURVE
 62
9
  6
CONTINUOUS
 10
4.6118504389
 20
5.6949441023
  0
VERTEX
  8
_CURVE
 62
9
  6
CONTINUOUS
 10
4.6705368552
 20
5.6414366644
  0
VERTEX
  8
_CURVE
 62
9
  6
CONTINUOUS
 10
4.7311460595
 20
5.588436681
  0
VERTEX
  8
_CURVE
 62
9
  6
CONTINUOUS
 10
4.792817846
 20
5.5367323619
  0
VERTEX
  8
_CURVE
 62
9
  6
CONTINUOUS
 10
4.8555323279
 20
5.4863319144
  0
VERTEX
  8
_CURVE
 62
9
  6
CONTINUOUS
 10
4.9199461211
 20
5.4367333667
  0
VERTEX
  8
_CURVE
 62
9
  6
CONTINUOUS
 10
4.9853605424
 20
5.3884991337
  0
VERTEX
  8
_CURVE
 62
9
  6
CONTINUOUS
 10
5.0517316323
 20
5.3416535135
  0
VERTEX
  8
_CURVE
 62
9
  6
CONTINUOUS
 10
5.1205621367
 20
5.2951949462
  0
VERTEX
  8
_CURVE
 62
9
  6
CONTINUOUS
 10
5.1902778111
 20
5.2502250364
  0
VERTEX
  8
_CURVE
 62
9
  6
CONTINUOUS
 10
5.2608088533
 20
5.2067541061
  0
VERTEX
  8
_CURVE
 62
9
  6
CONTINUOUS
 10
5.3353870928
 20
5.1628899597
  0
VERTEX
  8
_CURVE
 62
9
  6
CONTINUOUS
 10
5.4107100208
 20
5.1206526487
  0
VERTEX
  8
_CURVE
 62
9
  6
CONTINUOUS
 10
5.4867064886
 20
5.0800174525
  0
VERTEX
  8
_CURVE
 62
9
  6
CONTINUOUS
 10
5.5686486238
 20
5.0383023712
  0
VERTEX
  8
_CURVE
 62
9
  6
CONTINUOUS
 10
5.6512181597
 20
4.9983412385
  0
VERTEX
  8
_CURVE
 62
9
  6
CONTINUOUS
 10
5.7343535502
 20
4.960083958
  0
VERTEX
  8
_CURVE
 62
9
  6
CONTINUOUS
 10
5.8255931895
 20
4.9202450368
  0
VERTEX
  8
_CURVE
 62
9
  6
CONTINUOUS
 10
5.9173687983
 20
4.8823050571
  0
VERTEX
  8
_CURVE
 62
9
  6
CONTINUOUS
 10
6.0096165603
 20
4.8461961104
  0
VERTEX
  8
_CURVE
 62
9
  6
CONTINUOUS
 10
6.112488714
 20
4.8081758135
  0
VERTEX
  8
_CURVE
 62
9
  6
CONTINUOUS
 10
6.2157746217
 20
4.7722325237
  0
VERTEX
  8
_CURVE
 62
9
  6
CONTINUOUS
 10
6.3193849052
 20
4.7382708164
  0
VERTEX
  8
_CURVE
 62
9
  6
CONTINUOUS
 10
6.407798744
 20
4.7108421024
  0
VERTEX
  8
_CURVE
 62
9
  6
CONTINUOUS
 10
6.4963608659
 20
4.6847084842
  0
VERTEX
  8
_CURVE
 62
9
  6
CONTINUOUS
 10
6.5850491864
 20
4.6597976357
  0
VERTEX
  8
_CURVE
 62
9
  6
CONTINUOUS
 10
6.6738416208
 20
4.6360372306
  0
VERTEX
  8
_CURVE
 62
9
  6
CONTINUOUS
 10
6.775978543
 20
4.6100685787
  0
VERTEX
  8
_CURVE
 62
9
  6
CONTINUOUS
 10
6.8782251436
 20
4.5854593266
  0
VERTEX
  8
_CURVE
 62
9
  6
CONTINUOUS
 10
6.9805827879
 20
4.5621453005
  0
VERTEX
  8
_CURVE
 62
9
  6
CONTINUOUS
 10
7.0830528407
 20
4.5400623268
  0
VERTEX
  8
_CURVE
 62
9
  6
CONTINUOUS
 10
7.1996349721
 20
4.5163861227
  0
VERTEX
  8
_CURVE
 62
9
  6
CONTINUOUS
 10
7.3163390304
 20
4.4941601492
  0
VERTEX
  8
_CURVE
 62
9
  6
CONTINUOUS
 10
7.4331400109
 20
4.4733276855
  0
VERTEX
  8
_CURVE
 62
9
  6
CONTINUOUS
 10
7.5500129089
 20
4.4538320113
  0
VERTEX
  8
_CURVE
 62
9
  6
CONTINUOUS
 10
7.6817535852
 20
4.4333955549
  0
VERTEX
  8
_CURVE
 62
9
  6
CONTINUOUS
 10
7.8135249649
 20
4.4144979448
  0
VERTEX
  8
_CURVE
 62
9
  6
CONTINUOUS
 10
7.9452981939
 20
4.3970529445
  0
VERTEX
  8
_CURVE
 62
9
  6
CONTINUOUS
 10
8.0770444185
 20
4.3809743172
  0
VERTEX
  8
_CURVE
 62
9
  6
CONTINUOUS
 10
8.227167736
 20
4.3642002186
  0
VERTEX
  8
_CURVE
 62
9
  6
CONTINUOUS
 10
8.377177906
 20
4.3489569717
  0
SEQEND
  0
LINE
  8
_CURVE
 62
9
  6
DASHED
 10
2.7599803092
 20
16.5725691583
 11
2.7599803092
 21
4.7470215692
  0
POLYLINE
  8
_CURVE
 62
9
  6
DASHED
 66
1
 70
0
  0
VERTEX
  8
_CURVE
 62
9
  6
DASHED
 10
12.7599803092
 20
3.6624743312
  0
VERTEX
  8
_CURVE
 62
9
  6
DASHED
 10
13.1855717494
 20
3.6636341027
  0
VERTEX
  8
_CURVE
 62
9
  6
DASHED
 10
13.6111505092
 20
3.6671134201
  0
VERTEX
  8
_CURVE
 62
9
  6
DASHED
 10
14.0367039075
 20
3.6729122878
  0
VERTEX
  8
_CURVE
 62
9
  6
DASHED
 10
14.4622192632
 20
3.6810307103
  0
VERTEX
  8
_CURVE
 62
9
  6
DASHED
 10
14.8876838951
 20
3.6914686919
  0
VERTEX
  8
_CURVE
 62
9
  6
DASHED
 10
15.3130851221
 20
3.7042262372
  0
VERTEX
  8
_CURVE
 62
9
  6
DASHED
 10
15.738410263
 20
3.7193033505
  0
VERTEX
  8
_CURVE
 62
9
  6
DASHED
 10
16.1636466369
 20
3.7367000362
  0
VERTEX
  8
_CURVE
 62
9
  6
DASHED
 10
16.5887815625
 20
3.7564162988
  0
VERTEX
  8
_CURVE
 62
9
  6
DASHED
 10
17.0138023586
 20
3.7784521427
  0
VERTEX
  8
_CURVE
 62
9
  6
DASHED
 10
17.4386963443
 20
3.8028075723
  0
VERTEX
  8
_CURVE
 62
9
  6
DASHED
 10
17.8634508383
 20
3.8294825921
  0
VERTEX
  8
_CURVE
 62
9
  6
DASHED
 10
18.2880531596
 20
3.8584772065
  0
VERTEX
  8
_CURVE
 62
9
  6
DASHED
 10
18.712490627
 20
3.8897914198
  0
VERTEX
  8
_CURVE
 62
9
  6
DASHED
 10
19.1367505593
 20
3.9234252366
  0
VERTEX
  8
_CURVE
 62
9
  6
DASHED
 10
19.5608202756
 20
3.9593786612
  0
VERTEX
  8
_CURVE
 62
9
  6
DASHED
 10
19.9846870946
 20
3.9976516981
  0
VERTEX
  8
_CURVE
 62
9
  6
DASHED
 10
20.4083383352
 20
4.0382443517
  0
VERTEX
  8
_CURVE
 62
9
  6
DASHED
 10
20.8317613162
 20
4.0811566264
  0
VERTEX
  8
_CURVE
 62
9
  6
DASHED
 10
21.2549433567
 20
4.1263885266
  0
VERTEX
  8
_CURVE
 62
9
  6
DASHED
 10
21.6778717754
 20
4.1739400569
  0
VERTEX
  8
_CURVE
 62
9
  6
DASHED
 10
22.1005338912
 20
4.2238112215
  0
VERTEX
  8
_CURVE
 62
9
  6
DASHED
 10
22.3213571943
 20
4.2508029903
  0
SEQEND
  0
POLYLINE
  8
_CURVE
 62
9
  6
DASHED
 66
1
 70
0
  0
VERTEX
  8
_CURVE
 62
9
  6
DASHED
 10
3.1986034242
 20
4.2508029903
  0
VERTEX
  8
_CURVE
 62
9
  6
DASHED
 10
3.4194267272
 20
4.2238112215
  0
VERTEX
  8
_CURVE
 62
9
  6
DASHED
 10
3.842088843
 20
4.1739400569
  0
VERTEX
  8
_CURVE
 62
9
  6
DASHED
 10
4.2650172617
 20
4.1263885266
  0
VERTEX
  8
_CURVE
 62
9
  6
DASHED
 10
4.6881993022
 20
4.0811566264
  0
VERTEX
  8
_CURVE
 62
9
  6
DASHED
 10
5.1116222833
 20
4.0382443517
  0
VERTEX
  8
_CURVE
 62
9
  6
DASHED
 10
5.5352735239
 20
3.9976516981
  0
VERTEX
  8
_CURVE
 62
9
  6
DASHED
 10
5.9591403429
 20
3.9593786612
  0
VERTEX
  8
_CURVE
 62
9
  6
DASHED
 10
6.3832100591
 20
3.9234252366
  0
VERTEX
  8
_CURVE
 62
9
  6
DASHED
 10
6.8074699915
 20
3.8897914198
  0
VERTEX
  8
_CURVE
 62
9
  6
DASHED
 10
7.2319074588
 20
3.8584772065
  0
VERTEX
  8
_CURVE
 62
9
  6
DASHED
 10
7.6565097801
 20
3.8294825921
  0
VERTEX
  8
_CURVE
 62
9
  6
DASHED
 10
8.0812642741
 20
3.8028075723
  0
VERTEX
  8
_CURVE
 62
9
  6
DASHED
 10
8.5061582598
 20
3.7784521427
  0
VERTEX
  8
_CURVE
 62
9
  6
DASHED
 10
8.931179056
 20
3.7564162988
  0
VERTEX
  8
_CURVE
 62
9
  6
DASHED
 10
9.3563139816
 20
3.7367000362
  0
VERTEX
  8
_CURVE
 62
9
  6
DASHED
 10
9.7815503554
 20
3.7193033505
  0
VERTEX
  8
_CURVE
 62
9
  6
DASHED
 10
10.2068754964
 20
3.7042262372
  0
VERTEX
  8
_CURVE
 62
9
  6
DASHED
 10
10.6322767234
 20
3.6914686919
  0
VERTEX
  8
_CURVE
 62
9
  6
DASHED
 10
11.0577413552
 20
3.6810307103
  0
VERTEX
  8
_CURVE
 62
9
  6
DASHED
 10
11.4832567109
 20
3.6729122878
  0
VERTEX
  8
_CURVE
 62
9
  6
DASHED
 10
11.9088101092
 20
3.6671134201
  0
VERTEX
  8
_CURVE
 62
9
  6
DASHED
 10
12.334388869
 20
3.6636341027
  0
VERTEX
  8
_CURVE
 62
9
  6
DASHED
 10
12.7599803092
 20
3.6624743312
  0
SEQEND
  0
POLYLINE
  8
_CURVE
 62
9
  6
CONTINUOUS
 66
1
 70
0
  0
VERTEX
  8
_CURVE
 62
9
  6
CONTINUOUS
 10
16.2567852962
 20
4.282732163
  0
VERTEX
  8
_CURVE
 62
9
  6
CONTINUOUS
 10
16.4519647239
 20
4.2945718575
  0
VERTEX
  8
_CURVE
 62
9
  6
CONTINUOUS
 10
16.6474396536
 20
4.3077346584
  0
VERTEX
  8
_CURVE
 62
9
  6
CONTINUOUS
 10
16.8432640224
 20
4.3225315986
  0
VERTEX
  8
_CURVE
 62
9
  6
CONTINUOUS
 10
16.9929262417
 20
4.3351117179
  0
VERTEX
  8
_CURVE
 62
9
  6
CONTINUOUS
 10
17.1427827124
 20
4.3489569717
  0
VERTEX
  8
_CURVE
 62
9
  6
CONTINUOUS
 10
17.2927928825
 20
4.3642002186
  0
VERTEX
  8
_CURVE
 62
9
  6
CONTINUOUS
 10
17.4429161999
 20
4.3809743172
  0
VERTEX
  8
_CURVE
 62
9
  6
CONTINUOUS
 10
17.5746624245
 20
4.3970529445
  0
VERTEX
  8
_CURVE
 62
9
  6
CONTINUOUS
 10
17.7064356536
 20
4.4144979448
  0
VERTEX
  8
_CURVE
 62
9
  6
CONTINUOUS
 10
17.8382070332
 20
4.4333955549
  0
VERTEX
  8
_CURVE
 62
9
  6
CONTINUOUS
 10
17.9699477096
 20
4.4538320113
  0
VERTEX
  8
_CURVE
 62
9
  6
CONTINUOUS
 10
18.0868206075
 20
4.4733276855
  0
VERTEX
  8
_CURVE
 62
9
  6
CONTINUOUS
 10
18.203621588
 20
4.4941601492
  0
VERTEX
  8
_CURVE
 62
9
  6
CONTINUOUS
 10
18.3203256463
 20
4.5163861227
  0
VERTEX
  8
_CURVE
 62
9
  6
CONTINUOUS
 10
18.4369077777
 20
4.5400623268
  0
VERTEX
  8
_CURVE
 62
9
  6
CONTINUOUS
 10
18.5393778306
 20
4.5621453005
  0
VERTEX
  8
_CURVE
 62
9
  6
CONTINUOUS
 10
18.6417354748
 20
4.5854593266
  0
VERTEX
  8
_CURVE
 62
9
  6
CONTINUOUS
 10
18.7439820755
 20
4.6100685787
  0
VERTEX
  8
_CURVE
 62
9
  6
CONTINUOUS
 10
18.8461189976
 20
4.6360372306
  0
VERTEX
  8
_CURVE
 62
9
  6
CONTINUOUS
 10
18.934911432
 20
4.6597976357
  0
VERTEX
  8
_CURVE
 62
9
  6
CONTINUOUS
 10
19.0235997525
 20
4.6847084842
  0
VERTEX
  8
_CURVE
 62
9
  6
CONTINUOUS
 10
19.1121618745
 20
4.7108421024
  0
VERTEX
  8
_CURVE
 62
9
  6
CONTINUOUS
 10
19.2005757132
 20
4.7382708164
  0
VERTEX
  8
_CURVE
 62
9
  6
CONTINUOUS
 10
19.3041859967
 20
4.7722325237
  0
VERTEX
  8
_CURVE
 62
9
  6
CONTINUOUS
 10
19.4074719044
 20
4.8081758135
  0
VERTEX
  8
_CURVE
 62
9
  6
CONTINUOUS
 10
19.5103440581
 20
4.8461961104
  0
VERTEX
  8
_CURVE
 62
9
  6
CONTINUOUS
 10
19.6025918202
 20
4.8823050571
  0
VERTEX
  8
_CURVE
 62
9
  6
CONTINUOUS
 10
19.6943674289
 20
4.9202450368
  0
VERTEX
  8
_CURVE
 62
9
  6
CONTINUOUS
 10
19.7856070683
 20
4.960083958
  0
VERTEX
  8
_CURVE
 62
9
  6
CONTINUOUS
 10
19.8687424587
 20
4.9983412385
  0
VERTEX
  8
_CURVE
 62
9
  6
CONTINUOUS
 10
19.9513119947
 20
5.0383023712
  0
VERTEX
  8
_CURVE
 62
9
  6
CONTINUOUS
 10
20.0332541298
 20
5.0800174525
  0
VERTEX
  8
_CURVE
 62
9
  6
CONTINUOUS
 10
20.1092505977
 20
5.1206526487
  0
VERTEX
  8
_CURVE
 62
9
  6
CONTINUOUS
 10
20.1845735256
 20
5.1628899597
  0
VERTEX
  8
_CURVE
 62
9
  6
CONTINUOUS
 10
20.2591517651
 20
5.2067541061
  0
VERTEX
  8
_CURVE
 62
9
  6
CONTINUOUS
 10
20.3296828074
 20
5.2502250364
  0
VERTEX
  8
_CURVE
 62
9
  6
CONTINUOUS
 10
20.3993984817
 20
5.2951949462
  0
VERTEX
  8
_CURVE
 62
9
  6
CONTINUOUS
 10
20.4682289861
 20
5.3416535135
  0
VERTEX
  8
_CURVE
 62
9
  6
CONTINUOUS
 10
20.534600076
 20
5.3884991337
  0
VERTEX
  8
_CURVE
 62
9
  6
CONTINUOUS
 10
20.6000144974
 20
5.4367333667
  0
VERTEX
  8
_CURVE
 62
9
  6
CONTINUOUS
 10
20.6644282905
 20
5.4863319144
  0
VERTEX
  8
_CURVE
 62
9
  6
CONTINUOUS
 10
20.7271427725
 20
5.5367323619
  0
VERTEX
  8
_CURVE
 62
9
  6
CONTINUOUS
 10
20.7888145589
 20
5.588436681
  0
VERTEX
  8
_CURVE
 62
9
  6
CONTINUOUS
 10
20.8494237632
 20
5.6414366644
  0
VERTEX
  8
_CURVE
 62
9
  6
CONTINUOUS
 10
20.9081101796
 20
5.6949441023
  0
VERTEX
  8
_CURVE
 62
9
  6
CONTINUOUS
 10
20.9657082136
 20
5.7496928989
  0
VERTEX
  8
_CURVE
 62
9
  6
CONTINUOUS
 10
21.0221814344
 20
5.8056732519
  0
VERTEX
  8
_CURVE
 62
9
  6
CONTINUOUS
 10
21.076337148
 20
5.8616534643
  0
VERTEX
  8
_CURVE
 62
9
  6
CONTINUOUS
 10
21.1293538136
 20
5.9187980248
  0
VERTEX
  8
_CURVE
 62
9
  6
CONTINUOUS
 10
21.181205027
 20
5.9771006605
  0
VERTEX
  8
_CURVE
 62
9
  6
CONTINUOUS
 10
21.2305582048
 20
6.0349933748
  0
VERTEX
  8
_CURVE
 62
9
  6
CONTINUOUS
 10
21.2787392222
 20
6.0939753586
  0
VERTEX
  8
_CURVE
 62
9
  6
CONTINUOUS
 10
21.3257065351
 20
6.1540432611
  0
VERTEX
  8
_CURVE
 62
9
  6
CONTINUOUS
 10
21.3703787309
 20
6.2137670805
  0
VERTEX
  8
_CURVE
 62
9
  6
CONTINUOUS
 10
21.4138074071
 20
6.2744873612
  0
VERTEX
  8
_CURVE
 62
9
  6
CONTINUOUS
 10
21.4559471178
 20
6.3361673057
  0
VERTEX
  8
_CURVE
 62
9
  6
CONTINUOUS
 10
21.4966400547
 20
6.3985855357
  0
VERTEX
  8
_CURVE
 62
9
  6
CONTINUOUS
 10
21.5359706816
 20
6.4618518725
  0
VERTEX
  8
_CURVE
 62
9
  6
CONTINUOUS
 10
21.5739035302
 20
6.5258967916
  0
VERTEX
  8
_CURVE
 62
9
  6
CONTINUOUS
 10
21.6113885531
 20
6.5924283944
  0
VERTEX
  8
_CURVE
 62
9
  6
CONTINUOUS
 10
21.6473738767
 20
6.6596270166
  0
VERTEX
  8
_CURVE
 62
9
  6
CONTINUOUS
 10
21.6818724412
 20
6.7274113422
  0
VERTEX
  8
_CURVE
 62
9
  6
CONTINUOUS
 10
21.7167644158
 20
6.7996650306
  0
VERTEX
  8
_CURVE
 62
9
  6
CONTINUOUS
 10
21.7500526663
 20
6.8724348479
  0
VERTEX
  8
_CURVE
 62
9
  6
CONTINUOUS
 10
21.7817824103
 20
6.9456726027
  0
VERTEX
  8
_CURVE
 62
9
  6
CONTINUOUS
 10
21.814454934
 20
7.0254993068
  0
VERTEX
  8
_CURVE
 62
9
  6
CONTINUOUS
 10
21.8454061226
 20
7.1057593498
  0
VERTEX
  8
_CURVE
 62
9
  6
CONTINUOUS
 10
21.8746912451
 20
7.1863932877
  0
VERTEX
  8
_CURVE
 62
9
  6
CONTINUOUS
 10
21.905051642
 20
7.2754676059
  0
VERTEX
  8
_CURVE
 62
9
  6
CONTINUOUS
 10
21.9335423112
 20
7.3648659985
  0
VERTEX
  8
_CURVE
 62
9
  6
CONTINUOUS
 10
21.9602431269
 20
7.4545319495
  0
VERTEX
  8
_CURVE
 62
9
  6
CONTINUOUS
 10
21.9880921014
 20
7.5550997777
  0
VERTEX
  8
_CURVE
 62
9
  6
CONTINUOUS
 10
22.0139073539
 20
7.6558655199
  0
VERTEX
  8
_CURVE
 62
9
  6
CONTINUOUS
 10
22.0377955634
 20
7.7567629259
  0
VERTEX
  8
_CURVE
 62
9
  6
CONTINUOUS
 10
22.062854077
 20
7.8720544
  0
VERTEX
  8
_CURVE
 62
9
  6
CONTINUOUS
 10
22.0857078509
 20
7.9873674746
  0
VERTEX
  8
_CURVE
 62
9
  6
CONTINUOUS
 10
22.106525566
 20
8.1026384627
  0
VERTEX
  8
_CURVE
 62
9
  6
CONTINUOUS
 10
22.1229359052
 20
8.2017629088
  0
VERTEX
  8
_CURVE
 62
9
  6
CONTINUOUS
 10
22.1380499899
 20
8.3008179179
  0
VERTEX
  8
_CURVE
 62
9
  6
CONTINUOUS
 10
22.1519545025
 20
8.3998123863
  0
VERTEX
  8
_CURVE
 62
9
  6
CONTINUOUS
 10
22.1647361256
 20
8.4987552104
  0
VERTEX
  8
_CURVE
 62
9
  6
CONTINUOUS
 10
22.1781594967
 20
8.6125919212
  0
VERTEX
  8
_CURVE
 62
9
  6
CONTINUOUS
 10
22.1902704947
 20
8.7263687081
  0
VERTEX
  8
_CURVE
 62
9
  6
CONTINUOUS
 10
22.2011297245
 20
8.8400822879
  0
VERTEX
  8
_CURVE
 62
9
  6
CONTINUOUS
 10
22.2107977907
 20
8.9537293779
  0
VERTEX
  8
_CURVE
 62
9
  6
CONTINUOUS
 10
22.2228135886
 20
9.1181364636
  0
VERTEX
  8
_CURVE
 62
9
  6
CONTINUOUS
 10
22.232675492
 20
9.282320078
  0
VERTEX
  8
_CURVE
 62
9
  6
CONTINUOUS
 10
22.2405995296
 20
9.4462030101
  0
VERTEX
  8
_CURVE
 62
9
  6
CONTINUOUS
 10
22.2464469661
 20
9.5990615278
  0
VERTEX
  8
_CURVE
 62
9
  6
CONTINUOUS
 10
22.2509765961
 20
9.7515873669
  0
VERTEX
  8
_CURVE
 62
9
  6
CONTINUOUS
 10
22.2543750629
 20
9.9037780316
  0
VERTEX
  8
_CURVE
 62
9
  6
CONTINUOUS
 10
22.2574361529
 20
10.103241012
  0
VERTEX
  8
_CURVE
 62
9
  6
CONTINUOUS
 10
22.2592986592
 20
10.3019746663
  0
VERTEX
  8
_CURVE
 62
9
  6
CONTINUOUS
 10
22.260315909
 20
10.4805137685
  0
VERTEX
  8
_CURVE
 62
9
  6
CONTINUOUS
 10
22.2617834626
 20
10.82965175
  0
SEQEND
  0
LINE
  8
_CURVE
 62
9
  6
CONTINUOUS
 10
14.1269878687
 20
4.1478323446
 11
15.9599803092
 21
4.1788089607
  0
POLYLINE
  8
_CURVE
 62
9
  6
CONTINUOUS
 66
1
 70
0
  0
VERTEX
  8
_CURVE
 62
9
  6
CONTINUOUS
 10
12.7599811048
 20
4.1370651631
  0
VERTEX
  8
_CURVE
 62
9
  6
CONTINUOUS
 10
13.0292349795
 20
4.1374342025
  0
VERTEX
  8
_CURVE
 62
9
  6
CONTINUOUS
 10
13.2985728429
 20
4.1385888665
  0
VERTEX
  8
_CURVE
 62
9
  6
CONTINUOUS
 10
13.5679911196
 20
4.1406025006
  0
VERTEX
  8
_CURVE
 62
9
  6
CONTINUOUS
 10
13.7542890849
 20
4.142535122
  0
VERTEX
  8
_CURVE
 62
9
  6
CONTINUOUS
 10
13.940621944
 20
4.1449371306
  0
VERTEX
  8
_CURVE
 62
9
  6
CONTINUOUS
 10
14.1269878687
 20
4.1478323446
  0
SEQEND
  0
POLYLINE
  8
_CURVE
 62
9
  6
CONTINUOUS
 66
1
 70
0
  0
VERTEX
  8
_CURVE
 62
9
  6
CONTINUOUS
 10
11.3929743875
 20
4.1478323169
  0
VERTEX
  8
_CURVE
 62
9
  6
CONTINUOUS
 10
11.579339766
 20
4.1449371151
  0
VERTEX
  8
_CURVE
 62
9
  6
CONTINUOUS
 10
11.7656720792
 20
4.1425351157
  0
VERTEX
  8
_CURVE
 62
9
  6
CONTINUOUS
 10
11.9519694988
 20
4.1406025006
  0
VERTEX
  8
_CURVE
 62
9
  6
CONTINUOUS
 10
12.2213877755
 20
4.1385888665
  0
VERTEX
  8
_CURVE
 62
9
  6
CONTINUOUS
 10
12.4907256389
 20
4.1374342025
  0
VERTEX
  8
_CURVE
 62
9
  6
CONTINUOUS
 10
12.7599795136
 20
4.1370651631
  0
SEQEND
  0
POLYLINE
  8
_CURVE
 62
9
  6
CONTINUOUS
 66
1
 70
0
  0
VERTEX
  8
_CURVE
 62
9
  6
CONTINUOUS
 10
8.377177906
 20
4.3489569717
  0
VERTEX
  8
_CURVE
 62
9
  6
CONTINUOUS
 10
8.5270343767
 20
4.3351117179
  0
VERTEX
  8
_CURVE
 62
9
  6
CONTINUOUS
 10
8.6766965961
 20
4.3225315986
  0
VERTEX
  8
_CURVE
 62
9
  6
CONTINUOUS
 10
8.8480813225
 20
4.3094872166
  0
VERTEX
  8
_CURVE
 62
9
  6
CONTINUOUS
 10
9.0191932937
 20
4.2977239893
  0
VERTEX
  8
_CURVE
 62
9
  6
CONTINUOUS
 10
9.1900686547
 20
4.2870334826
  0
VERTEX
  8
_CURVE
 62
9
  6
CONTINUOUS
 10
9.3607435504
 20
4.2772072623
  0
VERTEX
  8
_CURVE
 62
9
  6
CONTINUOUS
 10
9.6191704205
 20
4.2636018495
  0
VERTEX
  8
_CURVE
 62
9
  6
CONTINUOUS
 10
9.8773720731
 20
4.2514238867
  0
VERTEX
  8
_CURVE
 62
9
  6
CONTINUOUS
 10
10.1355008847
 20
4.2405937315
  0
VERTEX
  8
_CURVE
 62
9
  6
CONTINUOUS
 10
10.4287343753
 20
4.2298363259
  0
VERTEX
  8
_CURVE
 62
9
  6
CONTINUOUS
 10
10.7220063893
 20
4.2206549347
  0
VERTEX
  8
_CURVE
 62
9
  6
CONTINUOUS
 10
11.0450995248
 20
4.2122920449
  0
SEQEND
  0
POLYLINE
  8
_CURVE
 62
9
  6
CONTINUOUS
 66
1
 70
0
  0
VERTEX
  8
_CURVE
 62
9
  6
CONTINUOUS
 10
11.0450995248
 20
4.2122920449
  0
VERTEX
  8
_CURVE
 62
9
  6
CONTINUOUS
 10
11.0566220268
 20
4.2081663699
  0
VERTEX
  8
_CURVE
 62
9
  6
CONTINUOUS
 10
11.0681913927
 20
4.2041728942
  0
VERTEX
  8
_CURVE
 62
9
  6
CONTINUOUS
 10
11.0839614458
 20
4.1989667478
  0
VERTEX
  8
_CURVE
 62
9
  6
CONTINUOUS
 10
11.099810959
 20
4.1940062454
  0
VERTEX
  8
_CURVE
 62
9
  6
CONTINUOUS
 10
11.1157357275
 20
4.1892926071
  0
VERTEX
  8
_CURVE
 62
9
  6
CONTINUOUS
 10
11.1317315467
 20
4.184827053
  0
VERTEX
  8
_CURVE
 62
9
  6
CONTINUOUS
 10
11.1477942119
 20
4.1806108032
  0
VERTEX
  8
_CURVE
 62
9
  6
CONTINUOUS
 10
11.1639069361
 20
4.176648016
  0
VERTEX
  8
_CURVE
 62
9
  6
CONTINUOUS
 10
11.1800786325
 20
4.1729361129
  0
VERTEX
  8
_CURVE
 62
9
  6
CONTINUOUS
 10
11.1963057302
 20
4.1694758467
  0
VERTEX
  8
_CURVE
 62
9
  6
CONTINUOUS
 10
11.2125846581
 20
4.1662679706
  0
VERTEX
  8
_CURVE
 62
9
  6
CONTINUOUS
 10
11.2289118455
 20
4.1633132374
  0
VERTEX
  8
_CURVE
 62
9
  6
CONTINUOUS
 10
11.2452324692
 20
4.1606203999
  0
VERTEX
  8
_CURVE
 62
9
  6
CONTINUOUS
 10
11.2615932479
 20
4.1581804481
  0
VERTEX
  8
_CURVE
 62
9
  6
CONTINUOUS
 10
11.2779899267
 20
4.155993953
  0
VERTEX
  8
_CURVE
 62
9
  6
CONTINUOUS
 10
11.2944182505
 20
4.1540614857
  0
VERTEX
  8
_CURVE
 62
9
  6
CONTINUOUS
 10
11.3108739642
 20
4.1523836175
  0
VERTEX
  8
_CURVE
 62
9
  6
CONTINUOUS
 10
11.3272627212
 20
4.1509679391
  0
VERTEX
  8
_CURVE
 62
9
  6
CONTINUOUS
 10
11.3436707513
 20
4.1498048086
  0
VERTEX
  8
_CURVE
 62
9
  6
CONTINUOUS
 10
11.3600944452
 20
4.1488943873
  0
VERTEX
  8
_CURVE
 62
9
  6
CONTINUOUS
 10
11.3765301937
 20
4.1482368365
  0
VERTEX
  8
_CURVE
 62
9
  6
CONTINUOUS
 10
11.3929743875
 20
4.1478323178
  0
SEQEND
  0
POLYLINE
  8
_CURVE
 62
9
  6
PHANTOM
 66
1
 70
0
  0
VERTEX
  8
_CURVE
 62
9
  6
PHANTOM
 10
12.7599803092
 20
4.9024743312
  0
VERTEX
  8
_CURVE
 62
9
  6
PHANTOM
 10
13.0051902968
 20
4.9027182624
  0
VERTEX
  8
_CURVE
 62
9
  6
PHANTOM
 10
13.2487869582
 20
4.9034830973
  0
VERTEX
  8
_CURVE
 62
9
  6
PHANTOM
 10
13.49094016
 20
4.9048183979
  0
VERTEX
  8
_CURVE
 62
9
  6
PHANTOM
 10
13.7318197684
 20
4.906773726
  0
VERTEX
  8
_CURVE
 62
9
  6
PHANTOM
 10
13.9715956499
 20
4.9093986437
  0
VERTEX
  8
_CURVE
 62
9
  6
PHANTOM
 10
14.2104376709
 20
4.912742713
  0
VERTEX
  8
_CURVE
 62
9
  6
PHANTOM
 10
14.4485156979
 20
4.9168554956
  0
VERTEX
  8
_CURVE
 62
9
  6
PHANTOM
 10
14.7808512207
 20
4.9239986641
  0
VERTEX
  8
_CURVE
 62
9
  6
PHANTOM
 10
15.1124065831
 20
4.93287846
  0
VERTEX
  8
_CURVE
 62
9
  6
PHANTOM
 10
15.4435661151
 20
4.9436276908
  0
VERTEX
  8
_CURVE
 62
9
  6
PHANTOM
 10
15.7747141467
 20
4.956379164
  0
VERTEX
  8
_CURVE
 62
9
  6
PHANTOM
 10
16.1062350076
 20
4.9712656872
  0
VERTEX
  8
_CURVE
 62
9
  6
PHANTOM
 10
16.2800206205
 20
4.9799879366
  0
VERTEX
  8
_CURVE
 62
9
  6
PHANTOM
 10
16.4539417214
 20
4.9895566057
  0
VERTEX
  8
_CURVE
 62
9
  6
PHANTOM
 10
16.6279263496
 20
5.00019676
  0
VERTEX
  8
_CURVE
 62
9
  6
PHANTOM
 10
16.8019025443
 20
5.0121334647
  0
VERTEX
  8
_CURVE
 62
9
  6
PHANTOM
 10
16.9757983447
 20
5.025591785
  0
VERTEX
  8
_CURVE
 62
9
  6
PHANTOM
 10
17.1495417901
 20
5.0407967864
  0
VERTEX
  8
_CURVE
 62
9
  6
PHANTOM
 10
17.3230609197
 20
5.0579735342
  0
VERTEX
  8
_CURVE
 62
9
  6
PHANTOM
 10
17.4578194552
 20
5.0728400383
  0
VERTEX
  8
_CURVE
 62
9
  6
PHANTOM
 10
17.5923670661
 20
5.0891386965
  0
VERTEX
  8
_CURVE
 62
9
  6
PHANTOM
 10
17.7266720567
 20
5.1069727276
  0
VERTEX
  8
_CURVE
 62
9
  6
PHANTOM
 10
17.8607027316
 20
5.1264453502
  0
VERTEX
  8
_CURVE
 62
9
  6
PHANTOM
 10
17.994427395
 20
5.1476597832
  0
VERTEX
  8
_CURVE
 62
9
  6
PHANTOM
 10
18.1278143514
 20
5.1707192452
  0
VERTEX
  8
_CURVE
 62
9
  6
PHANTOM
 10
18.2608319052
 20
5.1957269549
  0
VERTEX
  8
_CURVE
 62
9
  6
PHANTOM
 10
18.3934483608
 20
5.2227861311
  0
VERTEX
  8
_CURVE
 62
9
  6
PHANTOM
 10
18.5256320226
 20
5.2519999924
  0
VERTEX
  8
_CURVE
 62
9
  6
PHANTOM
 10
18.6275839151
 20
5.2761572984
  0
VERTEX
  8
_CURVE
 62
9
  6
PHANTOM
 10
18.7291522587
 20
5.3017581671
  0
VERTEX
  8
_CURVE
 62
9
  6
PHANTOM
 10
18.8302316277
 20
5.3288941928
  0
VERTEX
  8
_CURVE
 62
9
  6
PHANTOM
 10
18.9307165963
 20
5.3576569697
  0
VERTEX
  8
_CURVE
 62
9
  6
PHANTOM
 10
19.0305017387
 20
5.388138092
  0
VERTEX
  8
_CURVE
 62
9
  6
PHANTOM
 10
19.129481629
 20
5.4204291539
  0
VERTEX
  8
_CURVE
 62
9
  6
PHANTOM
 10
19.2275508414
 20
5.4546217498
  0
VERTEX
  8
_CURVE
 62
9
  6
PHANTOM
 10
19.3246039502
 20
5.4908074738
  0
VERTEX
  8
_CURVE
 62
9
  6
PHANTOM
 10
19.401446417
 20
5.5212532392
  0
VERTEX
  8
_CURVE
 62
9
  6
PHANTOM
 10
19.4775316503
 20
5.5530836194
  0
VERTEX
  8
_CURVE
 62
9
  6
PHANTOM
 10
19.5528201957
 20
5.5863490067
  0
VERTEX
  8
_CURVE
 62
9
  6
PHANTOM
 10
19.6272725986
 20
5.6210997935
  0
VERTEX
  8
_CURVE
 62
9
  6
PHANTOM
 10
19.7008494043
 20
5.6573863721
  0
VERTEX
  8
_CURVE
 62
9
  6
PHANTOM
 10
19.7735111584
 20
5.6952591349
  0
VERTEX
  8
_CURVE
 62
9
  6
PHANTOM
 10
19.8452184063
 20
5.7347684744
  0
VERTEX
  8
_CURVE
 62
9
  6
PHANTOM
 10
19.9159316935
 20
5.7759647828
  0
VERTEX
  8
_CURVE
 62
9
  6
PHANTOM
 10
19.9856115653
 20
5.8188984527
  0
VERTEX
  8
_CURVE
 62
9
  6
PHANTOM
 10
20.0542185672
 20
5.8636198763
  0
VERTEX
  8
_CURVE
 62
9
  6
PHANTOM
 10
20.1171633102
 20
5.9069477871
  0
VERTEX
  8
_CURVE
 62
9
  6
PHANTOM
 10
20.17908182
 20
5.9518404341
  0
VERTEX
  8
_CURVE
 62
9
  6
PHANTOM
 10
20.2399143115
 20
5.9982654715
  0
VERTEX
  8
_CURVE
 62
9
  6
PHANTOM
 10
20.2996009996
 20
6.0461905537
  0
VERTEX
  8
_CURVE
 62
9
  6
PHANTOM
 10
20.3580820994
 20
6.0955833349
  0
VERTEX
  8
_CURVE
 62
9
  6
PHANTOM
 10
20.4152978257
 20
6.1464114695
  0
VERTEX
  8
_CURVE
 62
9
  6
PHANTOM
 10
20.4711883935
 20
6.1986426118
  0
VERTEX
  8
_CURVE
 62
9
  6
PHANTOM
 10
20.5256940179
 20
6.2522444161
  0
VERTEX
  8
_CURVE
 62
9
  6
PHANTOM
 10
20.5787528838
 20
6.3071818761
  0
VERTEX
  8
_CURVE
 62
9
  6
PHANTOM
 10
20.6302950566
 20
6.3634093427
  0
VERTEX
  8
_CURVE
 62
9
  6
PHANTOM
 10
20.6802485717
 20
6.4208785061
  0
VERTEX
  8
_CURVE
 62
9
  6
PHANTOM
 10
20.7285414646
 20
6.4795410567
  0
VERTEX
  8
_CURVE
 62
9
  6
PHANTOM
 10
20.7751065231
 20
6.5393550791
  0
VERTEX
  8
_CURVE
 62
9
  6
PHANTOM
 10
20.8198955445
 20
6.6003042353
  0
VERTEX
  8
_CURVE
 62
9
  6
PHANTOM
 10
20.8628650785
 20
6.6623785815
  0
VERTEX
  8
_CURVE
 62
9
  6
PHANTOM
 10
20.9039716748
 20
6.7255681741
  0
VERTEX
  8
_CURVE
 62
9
  6
PHANTOM
 10
20.9419595403
 20
6.7877803125
  0
VERTEX
  8
_CURVE
 62
9
  6
PHANTOM
 10
20.9782129045
 20
6.8510002139
  0
VERTEX
  8
_CURVE
 62
9
  6
PHANTOM
 10
21.0127833025
 20
6.915200117
  0
VERTEX
  8
_CURVE
 62
9
  6
PHANTOM
 10
21.0457222694
 20
6.9803522604
  0
VERTEX
  8
_CURVE
 62
9
  6
PHANTOM
 10
21.0770813404
 20
7.0464288829
  0
VERTEX
  8
_CURVE
 62
9
  6
PHANTOM
 10
21.1069120505
 20
7.1134022233
  0
VERTEX
  8
_CURVE
 62
9
  6
PHANTOM
 10
21.1352642214
 20
7.1812416814
  0
VERTEX
  8
_CURVE
 62
9
  6
PHANTOM
 10
21.1621808213
 20
7.2499053015
  0
VERTEX
  8
_CURVE
 62
9
  6
PHANTOM
 10
21.1877031049
 20
7.3193482892
  0
VERTEX
  8
_CURVE
 62
9
  6
PHANTOM
 10
21.211872327
 20
7.3895258498
  0
VERTEX
  8
_CURVE
 62
9
  6
PHANTOM
 10
21.2347297422
 20
7.4603931888
  0
VERTEX
  8
_CURVE
 62
9
  6
PHANTOM
 10
21.2563166053
 20
7.5319055118
  0
VERTEX
  8
_CURVE
 62
9
  6
PHANTOM
 10
21.2806030499
 20
7.6185073544
  0
VERTEX
  8
_CURVE
 62
9
  6
PHANTOM
 10
21.3031981005
 20
7.7058885457
  0
VERTEX
  8
_CURVE
 62
9
  6
PHANTOM
 10
21.3241805514
 20
7.7939641618
  0
VERTEX
  8
_CURVE
 62
9
  6
PHANTOM
 10
21.343629197
 20
7.8826492789
  0
VERTEX
  8
_CURVE
 62
9
  6
PHANTOM
 10
21.3616228314
 20
7.9718589729
  0
VERTEX
  8
_CURVE
 62
9
  6
PHANTOM
 10
21.378240249
 20
8.0615083198
  0
VERTEX
  8
_CURVE
 62
9
  6
PHANTOM
 10
21.3935602441
 20
8.1515123958
  0
VERTEX
  8
_CURVE
 62
9
  6
PHANTOM
 10
21.4076616109
 20
8.2417862768
  0
VERTEX
  8
_CURVE
 62
9
  6
PHANTOM
 10
21.4206231437
 20
8.3322450389
  0
VERTEX
  8
_CURVE
 62
9
  6
PHANTOM
 10
21.4325236368
 20
8.4228037582
  0
VERTEX
  8
_CURVE
 62
9
  6
PHANTOM
 10
21.448931683
 20
8.5622884941
  0
VERTEX
  8
_CURVE
 62
9
  6
PHANTOM
 10
21.4631640952
 20
8.7018075002
  0
VERTEX
  8
_CURVE
 62
9
  6
PHANTOM
 10
21.4753738424
 20
8.8413594076
  0
VERTEX
  8
_CURVE
 62
9
  6
PHANTOM
 10
21.4857138936
 20
8.9809428474
  0
VERTEX
  8
_CURVE
 62
9
  6
PHANTOM
 10
21.4943372178
 20
9.1205564506
  0
VERTEX
  8
_CURVE
 62
9
  6
PHANTOM
 10
21.501396784
 20
9.2601988485
  0
VERTEX
  8
_CURVE
 62
9
  6
PHANTOM
 10
21.5070455612
 20
9.3998686721
  0
VERTEX
  8
_CURVE
 62
9
  6
PHANTOM
 10
21.5114365185
 20
9.5395645524
  0
VERTEX
  8
_CURVE
 62
9
  6
PHANTOM
 10
21.5156004568
 20
9.7258755942
  0
VERTEX
  8
_CURVE
 62
9
  6
PHANTOM
 10
21.518172088
 20
9.9122974876
  0
VERTEX
  8
_CURVE
 62
9
  6
PHANTOM
 10
21.5195232847
 20
10.0988971948
  0
VERTEX
  8
_CURVE
 62
9
  6
PHANTOM
 10
21.5200761506
 20
10.3791930745
  0
VERTEX
  8
_CURVE
 62
9
  6
PHANTOM
 10
21.5199803092
 20
10.6597643273
  0
VERTEX
  8
_CURVE
 62
9
  6
PHANTOM
 10
21.5200761326
 20
10.9403355806
  0
VERTEX
  8
_CURVE
 62
9
  6
PHANTOM
 10
21.5195232504
 20
11.2206314614
  0
VERTEX
  8
_CURVE
 62
9
  6
PHANTOM
 10
21.5181720447
 20
11.4072311696
  0
VERTEX
  8
_CURVE
 62
9
  6
PHANTOM
 10
21.5156004065
 20
11.5936530644
  0
VERTEX
  8
_CURVE
 62
9
  6
PHANTOM
 10
21.5114364637
 20
11.7799641081
  0
VERTEX
  8
_CURVE
 62
9
  6
PHANTOM
 10
21.507045505
 20
11.9196599904
  0
VERTEX
  8
_CURVE
 62
9
  6
PHANTOM
 10
21.5013967282
 20
12.0593298161
  0
VERTEX
  8
_CURVE
 62
9
  6
PHANTOM
 10
21.4943371645
 20
12.1989722164
  0
VERTEX
  8
_CURVE
 62
9
  6
PHANTOM
 10
21.4857138451
 20
12.3385858221
  0
VERTEX
  8
_CURVE
 62
9
  6
PHANTOM
 10
21.4753738013
 20
12.4781692643
  0
VERTEX
  8
_CURVE
 62
9
  6
PHANTOM
 10
21.4631640642
 20
12.617721174
  0
VERTEX
  8
_CURVE
 62
9
  6
PHANTOM
 10
21.448931665
 20
12.757240182
  0
VERTEX
  8
_CURVE
 62
9
  6
PHANTOM
 10
21.4325236349
 20
12.8967249194
  0
VERTEX
  8
_CURVE
 62
9
  6
PHANTOM
 10
21.420623154
 20
12.9872836394
  0
VERTEX
  8
_CURVE
 62
9
  6
PHANTOM
 10
21.4076616345
 20
13.077742402
  0
VERTEX
  8
_CURVE
 62
9
  6
PHANTOM
 10
21.3935602816
 20
13.1680162833
  0
VERTEX
  8
_CURVE
 62
9
  6
PHANTOM
 10
21.3782403008
 20
13.2580203591
  0
VERTEX
  8
_CURVE
 62
9
  6
PHANTOM
 10
21.3616228974
 20
13.3476697056
  0
VERTEX
  8
_CURVE
 62
9
  6
PHANTOM
 10
21.3436292767
 20
13.4368793988
  0
VERTEX
  8
_CURVE
 62
9
  6
PHANTOM
 10
21.3241806441
 20
13.5255645147
  0
VERTEX
  8
_CURVE
 62
9
  6
PHANTOM
 10
21.3031982049
 20
13.6136401292
  0
VERTEX
  8
_CURVE
 62
9
  6
PHANTOM
 10
21.2806031644
 20
13.7010213185
  0
VERTEX
  8
_CURVE
 62
9
  6
PHANTOM
 10
21.2563167281
 20
13.7876231585
  0
VERTEX
  8
_CURVE
 62
9
  6
PHANTOM
 10
21.2347298702
 20
13.8591354791
  0
VERTEX
  8
_CURVE
 62
9
  6
PHANTOM
 10
21.2118724584
 20
13.9300028153
  0
VERTEX
  8
_CURVE
 62
9
  6
PHANTOM
 10
21.1877032378
 20
14.0001803728
  0
VERTEX
  8
_CURVE
 62
9
  6
PHANTOM
 10
21.1621809535
 20
14.0696233569
  0
VERTEX
  8
_CURVE
 62
9
  6
PHANTOM
 10
21.1352643506
 20
14.1382869732
  0
VERTEX
  8
_CURVE
 62
9
  6
PHANTOM
 10
21.1069121742
 20
14.2061264271
  0
VERTEX
  8
_CURVE
 62
9
  6
PHANTOM
 10
21.077081456
 20
14.2730997631
  0
VERTEX
  8
_CURVE
 62
9
  6
PHANTOM
 10
21.0457223739
 20
14.3391763811
  0
VERTEX
  8
_CURVE
 62
9
  6
PHANTOM
 10
21.0127833924
 20
14.4043285201
  0
VERTEX
  8
_CURVE
 62
9
  6
PHANTOM
 10
20.9782129762
 20
14.468528419
  0
VERTEX
  8
_CURVE
 62
9
  6
PHANTOM
 10
20.9419595897
 20
14.5317483168
  0
VERTEX
  8
_CURVE
 62
9
  6
PHANTOM
 10
20.9039716974
 20
14.5939604525
  0
VERTEX
  8
_CURVE
 62
9
  6
PHANTOM
 10
20.8628650688
 20
14.6571500433
  0
VERTEX
  8
_CURVE
 62
9
  6
PHANTOM
 10
20.8198954987
 20
14.7192243888
  0
VERTEX
  8
_CURVE
 62
9
  6
PHANTOM
 10
20.7751064389
 20
14.7801735456
  0
VERTEX
  8
_CURVE
 62
9
  6
PHANTOM
 10
20.7285413412
 20
14.83998757
  0
VERTEX
  8
_CURVE
 62
9
  6
PHANTOM
 10
20.6802484096
 20
14.8986501242
  0
VERTEX
  8
_CURVE
 62
9
  6
PHANTOM
 10
20.6302948578
 20
14.9561192927
  0
VERTEX
  8
_CURVE
 62
9
  6
PHANTOM
 10
20.5787526517
 20
15.0123467655
  0
VERTEX
  8
_CURVE
 62
9
  6
PHANTOM
 10
20.5256937575
 20
15.0672842328
  0
VERTEX
  8
_CURVE
 62
9
  6
PHANTOM
 10
20.4711881113
 20
15.1208860454
  0
VERTEX
  8
_CURVE
 62
9
  6
PHANTOM
 10
20.4152975302
 20
15.1731171966
  0
VERTEX
  8
_CURVE
 62
9
  6
PHANTOM
 10
20.3580818014
 20
15.2239453403
  0
VERTEX
  8
_CURVE
 62
9
  6
PHANTOM
 10
20.299600712
 20
15.2733381304
  0
VERTEX
  8
_CURVE
 62
9
  6
PHANTOM
 10
20.2399140494
 20
15.3212632211
  0
VERTEX
  8
_CURVE
 62
9
  6
PHANTOM
 10
20.1790816008
 20
15.3676882661
  0
VERTEX
  8
_CURVE
 62
9
  6
PHANTOM
 10
20.1171631534
 20
15.4125809194
  0
VERTEX
  8
_CURVE
 62
9
  6
PHANTOM
 10
20.0542184943
 20
15.4559088351
  0
VERTEX
  8
_CURVE
 62
9
  6
PHANTOM
 10
19.9856116077
 20
15.5006302617
  0
VERTEX
  8
_CURVE
 62
9
  6
PHANTOM
 10
19.9159318734
 20
15.5435639326
  0
VERTEX
  8
_CURVE
 62
9
  6
PHANTOM
 10
19.8452187403
 20
15.5847602404
  0
VERTEX
  8
_CURVE
 62
9
  6
PHANTOM
 10
19.7735116577
 20
15.6242695775
  0
VERTEX
  8
_CURVE
 62
9
  6
PHANTOM
 10
19.7008500747
 20
15.6621423368
  0
VERTEX
  8
_CURVE
 62
9
  6
PHANTOM
 10
19.6272734405
 20
15.6984289107
  0
VERTEX
  8
_CURVE
 62
9
  6
PHANTOM
 10
19.5528212042
 20
15.7331796919
  0
VERTEX
  8
_CURVE
 62
9
  6
PHANTOM
 10
19.4775328149
 20
15.766445073
  0
VERTEX
  8
_CURVE
 62
9
  6
PHANTOM
 10
19.4014477217
 20
15.7982754466
  0
VERTEX
  8
_CURVE
 62
9
  6
PHANTOM
 10
19.3246053739
 20
15.8287212054
  0
VERTEX
  8
_CURVE
 62
9
  6
PHANTOM
 10
19.2275523756
 20
15.864906921
  0
VERTEX
  8
_CURVE
 62
9
  6
PHANTOM
 10
19.1294832201
 20
15.8990995087
  0
VERTEX
  8
_CURVE
 62
9
  6
PHANTOM
 10
19.0305033214
 20
15.931390563
  0
VERTEX
  8
_CURVE
 62
9
  6
PHANTOM
 10
18.9307180934
 20
15.9618716782
  0
VERTEX
  8
_CURVE
 62
9
  6
PHANTOM
 10
18.8302329502
 20
15.9906344488
  0
VERTEX
  8
_CURVE
 62
9
  6
PHANTOM
 10
18.7291533057
 20
16.0177704691
  0
VERTEX
  8
_CURVE
 62
9
  6
PHANTOM
 10
18.6275845739
 20
16.0433713335
  0
VERTEX
  8
_CURVE
 62
9
  6
PHANTOM
 10
18.5256321687
 20
16.0675286365
  0
VERTEX
  8
_CURVE
 62
9
  6
PHANTOM
 10
18.3934476535
 20
16.096742496
  0
VERTEX
  8
_CURVE
 62
9
  6
PHANTOM
 10
18.2608301682
 20
16.1238016723
  0
VERTEX
  8
_CURVE
 62
9
  6
PHANTOM
 10
18.12781146
 20
16.1488093839
  0
VERTEX
  8
_CURVE
 62
9
  6
PHANTOM
 10
17.994423276
 20
16.1718688491
  0
VERTEX
  8
_CURVE
 62
9
  6
PHANTOM
 10
17.8606973634
 20
16.1930832863
  0
VERTEX
  8
_CURVE
 62
9
  6
PHANTOM
 10
17.7266654693
 20
16.2125559138
  0
VERTEX
  8
_CURVE
 62
9
  6
PHANTOM
 10
17.5923593407
 20
16.2303899499
  0
VERTEX
  8
_CURVE
 62
9
  6
PHANTOM
 10
17.4578107248
 20
16.2466886131
  0
VERTEX
  8
_CURVE
 62
9
  6
PHANTOM
 10
17.3230513688
 20
16.2615551217
  0
VERTEX
  8
_CURVE
 62
9
  6
PHANTOM
 10
17.1495315382
 20
16.2787318742
  0
VERTEX
  8
_CURVE
 62
9
  6
PHANTOM
 10
16.9757878911
 20
16.2939368791
  0
VERTEX
  8
_CURVE
 62
9
  6
PHANTOM
 10
16.8018924975
 20
16.307395202
  0
VERTEX
  8
_CURVE
 62
9
  6
PHANTOM
 10
16.6279174275
 20
16.3193319083
  0
VERTEX
  8
_CURVE
 62
9
  6
PHANTOM
 10
16.453934751
 20
16.3299720635
  0
VERTEX
  8
_CURVE
 62
9
  6
PHANTOM
 10
16.280016538
 20
16.3395407331
  0
VERTEX
  8
_CURVE
 62
9
  6
PHANTOM
 10
16.1062348586
 20
16.3482629825
  0
VERTEX
  8
_CURVE
 62
9
  6
PHANTOM
 10
15.7747243914
 20
16.363149505
  0
VERTEX
  8
_CURVE
 62
9
  6
PHANTOM
 10
15.4435891893
 20
16.375900977
  0
VERTEX
  8
_CURVE
 62
9
  6
PHANTOM
 10
15.1124431439
 20
16.3866502062
  0
VERTEX
  8
_CURVE
 62
9
  6
PHANTOM
 10
14.7809001463
 20
16.3955300005
  0
VERTEX
  8
_CURVE
 62
9
  6
PHANTOM
 10
14.448574088
 20
16.4026731678
  0
VERTEX
  8
_CURVE
 62
9
  6
PHANTOM
 10
14.2105000604
 20
16.4067859499
  0
VERTEX
  8
_CURVE
 62
9
  6
PHANTOM
 10
13.971659004
 20
16.4101300188
  0
VERTEX
  8
_CURVE
 62
9
  6
PHANTOM
 10
13.7318804051
 20
16.4127549363
  0
VERTEX
  8
_CURVE
 62
9
  6
PHANTOM
 10
13.4909937499
 20
16.4147102644
  0
VERTEX
  8
_CURVE
 62
9
  6
PHANTOM
 10
13.2488285247
 20
16.416045565
  0
VERTEX
  8
_CURVE
 62
9
  6
PHANTOM
 10
13.0052142157
 20
16.4168104
  0
VERTEX
  8
_CURVE
 62
9
  6
PHANTOM
 10
12.7599803092
 20
16.4170543312
  0
SEQEND
  0
LINE
  8
_CURVE
 62
9
  6
CENTER
 10
4.2599803092
 20
10.6597643312
 11
2.2599803092
 21
10.6597643312
  0
LINE
  8
_CURVE
 62
9
  6
CENTER
 10
21.2599803092
 20
10.6597643312
 11
23.2599803092
 21
10.6597643312
  0
LINE
  8
_CURVE
 62
9
  6
CENTER
 10
12.7599803092
 20
5.1597643312
 11
12.7599803092
 21
3.1597643312
  0
LINE
  8
_CURVE
 62
9
  6
CENTER
 10
12.7599803092
 20
16.1597643312
 11
12.7599803092
 21
18.1597643312
  0
POLYLINE
  8
_CURVE
 62
9
  6
PHANTOM
 66
1
 70
0
  0
VERTEX
  8
_CURVE
 62
9
  6
PHANTOM
 10
12.7599803092
 20
16.4170543312
  0
VERTEX
  8
_CURVE
 62
9
  6
PHANTOM
 10
12.5147464027
 20
16.4168104
  0
VERTEX
  8
_CURVE
 62
9
  6
PHANTOM
 10
12.2711320937
 20
16.416045565
  0
VERTEX
  8
_CURVE
 62
9
  6
PHANTOM
 10
12.0289668685
 20
16.4147102644
  0
VERTEX
  8
_CURVE
 62
9
  6
PHANTOM
 10
11.7880802133
 20
16.4127549363
  0
VERTEX
  8
_CURVE
 62
9
  6
PHANTOM
 10
11.5483016144
 20
16.4101300188
  0
VERTEX
  8
_CURVE
 62
9
  6
PHANTOM
 10
11.309460558
 20
16.4067859499
  0
VERTEX
  8
_CURVE
 62
9
  6
PHANTOM
 10
11.0713865304
 20
16.4026731678
  0
VERTEX
  8
_CURVE
 62
9
  6
PHANTOM
 10
10.7390604721
 20
16.3955300005
  0
VERTEX
  8
_CURVE
 62
9
  6
PHANTOM
 10
10.4075174745
 20
16.3866502062
  0
VERTEX
  8
_CURVE
 62
9
  6
PHANTOM
 10
10.0763714291
 20
16.375900977
  0
VERTEX
  8
_CURVE
 62
9
  6
PHANTOM
 10
9.7452362271
 20
16.363149505
  0
VERTEX
  8
_CURVE
 62
9
  6
PHANTOM
 10
9.4137257599
 20
16.3482629825
  0
VERTEX
  8
_CURVE
 62
9
  6
PHANTOM
 10
9.2399440804
 20
16.3395407331
  0
VERTEX
  8
_CURVE
 62
9
  6
PHANTOM
 10
9.0660258674
 20
16.3299720635
  0
VERTEX
  8
_CURVE
 62
9
  6
PHANTOM
 10
8.8920431909
 20
16.3193319083
  0
VERTEX
  8
_CURVE
 62
9
  6
PHANTOM
 10
8.7180681209
 20
16.307395202
  0
VERTEX
  8
_CURVE
 62
9
  6
PHANTOM
 10
8.5441727273
 20
16.2939368791
  0
VERTEX
  8
_CURVE
 62
9
  6
PHANTOM
 10
8.3704290802
 20
16.2787318742
  0
VERTEX
  8
_CURVE
 62
9
  6
PHANTOM
 10
8.1969092496
 20
16.2615551217
  0
VERTEX
  8
_CURVE
 62
9
  6
PHANTOM
 10
8.0621498936
 20
16.2466886131
  0
VERTEX
  8
_CURVE
 62
9
  6
PHANTOM
 10
7.9276012777
 20
16.2303899499
  0
VERTEX
  8
_CURVE
 62
9
  6
PHANTOM
 10
7.7932951492
 20
16.2125559138
  0
VERTEX
  8
_CURVE
 62
9
  6
PHANTOM
 10
7.659263255
 20
16.1930832863
  0
VERTEX
  8
_CURVE
 62
9
  6
PHANTOM
 10
7.5255373424
 20
16.1718688491
  0
VERTEX
  8
_CURVE
 62
9
  6
PHANTOM
 10
7.3921491584
 20
16.1488093839
  0
VERTEX
  8
_CURVE
 62
9
  6
PHANTOM
 10
7.2591304503
 20
16.1238016723
  0
VERTEX
  8
_CURVE
 62
9
  6
PHANTOM
 10
7.126512965
 20
16.096742496
  0
VERTEX
  8
_CURVE
 62
9
  6
PHANTOM
 10
6.9943284497
 20
16.0675286365
  0
VERTEX
  8
_CURVE
 62
9
  6
PHANTOM
 10
6.8923760446
 20
16.0433713335
  0
VERTEX
  8
_CURVE
 62
9
  6
PHANTOM
 10
6.7908073127
 20
16.0177704691
  0
VERTEX
  8
_CURVE
 62
9
  6
PHANTOM
 10
6.6897276682
 20
15.9906344488
  0
VERTEX
  8
_CURVE
 62
9
  6
PHANTOM
 10
6.589242525
 20
15.9618716782
  0
VERTEX
  8
_CURVE
 62
9
  6
PHANTOM
 10
6.4894572971
 20
15.931390563
  0
VERTEX
  8
_CURVE
 62
9
  6
PHANTOM
 10
6.3904773984
 20
15.8990995087
  0
VERTEX
  8
_CURVE
 62
9
  6
PHANTOM
 10
6.2924082428
 20
15.864906921
  0
VERTEX
  8
_CURVE
 62
9
  6
PHANTOM
 10
6.1953552445
 20
15.8287212054
  0
VERTEX
  8
_CURVE
 62
9
  6
PHANTOM
 10
6.1185128967
 20
15.7982754466
  0
VERTEX
  8
_CURVE
 62
9
  6
PHANTOM
 10
6.0424278036
 20
15.766445073
  0
VERTEX
  8
_CURVE
 62
9
  6
PHANTOM
 10
5.9671394143
 20
15.7331796919
  0
VERTEX
  8
_CURVE
 62
9
  6
PHANTOM
 10
5.8926871779
 20
15.6984289107
  0
VERTEX
  8
_CURVE
 62
9
  6
PHANTOM
 10
5.8191105437
 20
15.6621423368
  0
VERTEX
  8
_CURVE
 62
9
  6
PHANTOM
 10
5.7464489607
 20
15.6242695775
  0
VERTEX
  8
_CURVE
 62
9
  6
PHANTOM
 10
5.6747418781
 20
15.5847602404
  0
VERTEX
  8
_CURVE
 62
9
  6
PHANTOM
 10
5.6040287451
 20
15.5435639326
  0
VERTEX
  8
_CURVE
 62
9
  6
PHANTOM
 10
5.5343490107
 20
15.5006302617
  0
VERTEX
  8
_CURVE
 62
9
  6
PHANTOM
 10
5.4657421241
 20
15.4559088351
  0
VERTEX
  8
_CURVE
 62
9
  6
PHANTOM
 10
5.4027974651
 20
15.4125809194
  0
VERTEX
  8
_CURVE
 62
9
  6
PHANTOM
 10
5.3408790176
 20
15.3676882661
  0
VERTEX
  8
_CURVE
 62
9
  6
PHANTOM
 10
5.280046569
 20
15.3212632211
  0
VERTEX
  8
_CURVE
 62
9
  6
PHANTOM
 10
5.2203599064
 20
15.2733381304
  0
VERTEX
  8
_CURVE
 62
9
  6
PHANTOM
 10
5.1618788171
 20
15.2239453403
  0
VERTEX
  8
_CURVE
 62
9
  6
PHANTOM
 10
5.1046630882
 20
15.1731171966
  0
VERTEX
  8
_CURVE
 62
9
  6
PHANTOM
 10
5.0487725071
 20
15.1208860454
  0
VERTEX
  8
_CURVE
 62
9
  6
PHANTOM
 10
4.9942668609
 20
15.0672842328
  0
VERTEX
  8
_CURVE
 62
9
  6
PHANTOM
 10
4.9412079667
 20
15.0123467655
  0
VERTEX
  8
_CURVE
 62
9
  6
PHANTOM
 10
4.8896657607
 20
14.9561192927
  0
VERTEX
  8
_CURVE
 62
9
  6
PHANTOM
 10
4.8397122089
 20
14.8986501242
  0
VERTEX
  8
_CURVE
 62
9
  6
PHANTOM
 10
4.7914192773
 20
14.83998757
  0
VERTEX
  8
_CURVE
 62
9
  6
PHANTOM
 10
4.7448541795
 20
14.7801735456
  0
VERTEX
  8
_CURVE
 62
9
  6
PHANTOM
 10
4.7000651198
 20
14.7192243888
  0
VERTEX
  8
_CURVE
 62
9
  6
PHANTOM
 10
4.6570955497
 20
14.6571500433
  0
VERTEX
  8
_CURVE
 62
9
  6
PHANTOM
 10
4.615988921
 20
14.5939604525
  0
VERTEX
  8
_CURVE
 62
9
  6
PHANTOM
 10
4.5780010287
 20
14.5317483168
  0
VERTEX
  8
_CURVE
 62
9
  6
PHANTOM
 10
4.5417476422
 20
14.468528419
  0
VERTEX
  8
_CURVE
 62
9
  6
PHANTOM
 10
4.507177226
 20
14.4043285201
  0
VERTEX
  8
_CURVE
 62
9
  6
PHANTOM
 10
4.4742382446
 20
14.3391763811
  0
VERTEX
  8
_CURVE
 62
9
  6
PHANTOM
 10
4.4428791625
 20
14.2730997631
  0
VERTEX
  8
_CURVE
 62
9
  6
PHANTOM
 10
4.4130484443
 20
14.2061264271
  0
VERTEX
  8
_CURVE
 62
9
  6
PHANTOM
 10
4.3846962679
 20
14.1382869732
  0
VERTEX
  8
_CURVE
 62
9
  6
PHANTOM
 10
4.357779665
 20
14.0696233569
  0
VERTEX
  8
_CURVE
 62
9
  6
PHANTOM
 10
4.3322573807
 20
14.0001803728
  0
VERTEX
  8
_CURVE
 62
9
  6
PHANTOM
 10
4.30808816
 20
13.9300028153
  0
VERTEX
  8
_CURVE
 62
9
  6
PHANTOM
 10
4.2852307482
 20
13.8591354791
  0
VERTEX
  8
_CURVE
 62
9
  6
PHANTOM
 10
4.2636438903
 20
13.7876231585
  0
VERTEX
  8
_CURVE
 62
9
  6
PHANTOM
 10
4.239357454
 20
13.7010213185
  0
VERTEX
  8
_CURVE
 62
9
  6
PHANTOM
 10
4.2167624136
 20
13.6136401292
  0
VERTEX
  8
_CURVE
 62
9
  6
PHANTOM
 10
4.1957799744
 20
13.5255645147
  0
VERTEX
  8
_CURVE
 62
9
  6
PHANTOM
 10
4.1763313417
 20
13.4368793988
  0
VERTEX
  8
_CURVE
 62
9
  6
PHANTOM
 10
4.1583377211
 20
13.3476697056
  0
VERTEX
  8
_CURVE
 62
9
  6
PHANTOM
 10
4.1417203176
 20
13.2580203591
  0
VERTEX
  8
_CURVE
 62
9
  6
PHANTOM
 10
4.1264003368
 20
13.1680162833
  0
VERTEX
  8
_CURVE
 62
9
  6
PHANTOM
 10
4.112298984
 20
13.077742402
  0
VERTEX
  8
_CURVE
 62
9
  6
PHANTOM
 10
4.0993374644
 20
12.9872836394
  0
VERTEX
  8
_CURVE
 62
9
  6
PHANTOM
 10
4.0874369835
 20
12.8967249194
  0
VERTEX
  8
_CURVE
 62
9
  6
PHANTOM
 10
4.0710289535
 20
12.757240182
  0
VERTEX
  8
_CURVE
 62
9
  6
PHANTOM
 10
4.0567965543
 20
12.617721174
  0
VERTEX
  8
_CURVE
 62
9
  6
PHANTOM
 10
4.0445868172
 20
12.4781692643
  0
VERTEX
  8
_CURVE
 62
9
  6
PHANTOM
 10
4.0342467733
 20
12.3385858221
  0
VERTEX
  8
_CURVE
 62
9
  6
PHANTOM
 10
4.0256234539
 20
12.1989722164
  0
VERTEX
  8
_CURVE
 62
9
  6
PHANTOM
 10
4.0185638902
 20
12.0593298161
  0
VERTEX
  8
_CURVE
 62
9
  6
PHANTOM
 10
4.0129151134
 20
11.9196599904
  0
VERTEX
  8
_CURVE
 62
9
  6
PHANTOM
 10
4.0085241547
 20
11.7799641081
  0
VERTEX
  8
_CURVE
 62
9
  6
PHANTOM
 10
4.0043602119
 20
11.5936530644
  0
VERTEX
  8
_CURVE
 62
9
  6
PHANTOM
 10
4.0017885737
 20
11.4072311696
  0
VERTEX
  8
_CURVE
 62
9
  6
PHANTOM
 10
4.000437368
 20
11.2206314614
  0
VERTEX
  8
_CURVE
 62
9
  6
PHANTOM
 10
3.9998844859
 20
10.9403355806
  0
VERTEX
  8
_CURVE
 62
9
  6
PHANTOM
 10
3.9999803092
 20
10.6597643273
  0
VERTEX
  8
_CURVE
 62
9
  6
PHANTOM
 10
3.9998844679
 20
10.3791930745
  0
VERTEX
  8
_CURVE
 62
9
  6
PHANTOM
 10
4.0004373338
 20
10.0988971948
  0
VERTEX
  8
_CURVE
 62
9
  6
PHANTOM
 10
4.0017885305
 20
9.9122974876
  0
VERTEX
  8
_CURVE
 62
9
  6
PHANTOM
 10
4.0043601617
 20
9.7258755942
  0
VERTEX
  8
_CURVE
 62
9
  6
PHANTOM
 10
4.0085240999
 20
9.5395645524
  0
VERTEX
  8
_CURVE
 62
9
  6
PHANTOM
 10
4.0129150572
 20
9.3998686721
  0
VERTEX
  8
_CURVE
 62
9
  6
PHANTOM
 10
4.0185638344
 20
9.2601988485
  0
VERTEX
  8
_CURVE
 62
9
  6
PHANTOM
 10
4.0256234006
 20
9.1205564506
  0
VERTEX
  8
_CURVE
 62
9
  6
PHANTOM
 10
4.0342467248
 20
8.9809428474
  0
VERTEX
  8
_CURVE
 62
9
  6
PHANTOM
 10
4.044586776
 20
8.8413594076
  0
VERTEX
  8
_CURVE
 62
9
  6
PHANTOM
 10
4.0567965232
 20
8.7018075002
  0
VERTEX
  8
_CURVE
 62
9
  6
PHANTOM
 10
4.0710289354
 20
8.5622884941
  0
VERTEX
  8
_CURVE
 62
9
  6
PHANTOM
 10
4.0874369816
 20
8.4228037582
  0
VERTEX
  8
_CURVE
 62
9
  6
PHANTOM
 10
4.0993374747
 20
8.3322450389
  0
VERTEX
  8
_CURVE
 62
9
  6
PHANTOM
 10
4.1122990075
 20
8.2417862768
  0
VERTEX
  8
_CURVE
 62
9
  6
PHANTOM
 10
4.1264003743
 20
8.1515123958
  0
VERTEX
  8
_CURVE
 62
9
  6
PHANTOM
 10
4.1417203694
 20
8.0615083198
  0
VERTEX
  8
_CURVE
 62
9
  6
PHANTOM
 10
4.158337787
 20
7.9718589729
  0
VERTEX
  8
_CURVE
 62
9
  6
PHANTOM
 10
4.1763314214
 20
7.8826492789
  0
VERTEX
  8
_CURVE
 62
9
  6
PHANTOM
 10
4.195780067
 20
7.7939641618
  0
VERTEX
  8
_CURVE
 62
9
  6
PHANTOM
 10
4.2167625179
 20
7.7058885457
  0
VERTEX
  8
_CURVE
 62
9
  6
PHANTOM
 10
4.2393575686
 20
7.6185073544
  0
VERTEX
  8
_CURVE
 62
9
  6
PHANTOM
 10
4.2636440131
 20
7.5319055118
  0
VERTEX
  8
_CURVE
 62
9
  6
PHANTOM
 10
4.2852308762
 20
7.4603931888
  0
VERTEX
  8
_CURVE
 62
9
  6
PHANTOM
 10
4.3080882914
 20
7.3895258498
  0
VERTEX
  8
_CURVE
 62
9
  6
PHANTOM
 10
4.3322575135
 20
7.3193482892
  0
VERTEX
  8
_CURVE
 62
9
  6
PHANTOM
 10
4.3577797971
 20
7.2499053015
  0
VERTEX
  8
_CURVE
 62
9
  6
PHANTOM
 10
4.384696397
 20
7.1812416814
  0
VERTEX
  8
_CURVE
 62
9
  6
PHANTOM
 10
4.413048568
 20
7.1134022233
  0
VERTEX
  8
_CURVE
 62
9
  6
PHANTOM
 10
4.4428792781
 20
7.0464288829
  0
VERTEX
  8
_CURVE
 62
9
  6
PHANTOM
 10
4.474238349
 20
6.9803522604
  0
VERTEX
  8
_CURVE
 62
9
  6
PHANTOM
 10
4.5071773159
 20
6.915200117
  0
VERTEX
  8
_CURVE
 62
9
  6
PHANTOM
 10
4.5417477139
 20
6.8510002139
  0
VERTEX
  8
_CURVE
 62
9
  6
PHANTOM
 10
4.5780010781
 20
6.7877803125
  0
VERTEX
  8
_CURVE
 62
9
  6
PHANTOM
 10
4.6159889436
 20
6.7255681741
  0
VERTEX
  8
_CURVE
 62
9
  6
PHANTOM
 10
4.6570955399
 20
6.6623785815
  0
VERTEX
  8
_CURVE
 62
9
  6
PHANTOM
 10
4.7000650739
 20
6.6003042353
  0
VERTEX
  8
_CURVE
 62
9
  6
PHANTOM
 10
4.7448540953
 20
6.5393550791
  0
VERTEX
  8
_CURVE
 62
9
  6
PHANTOM
 10
4.7914191538
 20
6.4795410567
  0
VERTEX
  8
_CURVE
 62
9
  6
PHANTOM
 10
4.8397120468
 20
6.4208785061
  0
VERTEX
  8
_CURVE
 62
9
  6
PHANTOM
 10
4.8896655619
 20
6.3634093427
  0
VERTEX
  8
_CURVE
 62
9
  6
PHANTOM
 10
4.9412077347
 20
6.3071818761
  0
VERTEX
  8
_CURVE
 62
9
  6
PHANTOM
 10
4.9942666006
 20
6.2522444161
  0
VERTEX
  8
_CURVE
 62
9
  6
PHANTOM
 10
5.0487722249
 20
6.1986426118
  0
VERTEX
  8
_CURVE
 62
9
  6
PHANTOM
 10
5.1046627927
 20
6.1464114695
  0
VERTEX
  8
_CURVE
 62
9
  6
PHANTOM
 10
5.1618785191
 20
6.0955833349
  0
VERTEX
  8
_CURVE
 62
9
  6
PHANTOM
 10
5.2203596188
 20
6.0461905537
  0
VERTEX
  8
_CURVE
 62
9
  6
PHANTOM
 10
5.2800463069
 20
5.9982654715
  0
VERTEX
  8
_CURVE
 62
9
  6
PHANTOM
 10
5.3408787984
 20
5.9518404341
  0
VERTEX
  8
_CURVE
 62
9
  6
PHANTOM
 10
5.4027973082
 20
5.9069477871
  0
VERTEX
  8
_CURVE
 62
9
  6
PHANTOM
 10
5.4657420513
 20
5.8636198763
  0
VERTEX
  8
_CURVE
 62
9
  6
PHANTOM
 10
5.5343490532
 20
5.8188984527
  0
VERTEX
  8
_CURVE
 62
9
  6
PHANTOM
 10
5.604028925
 20
5.7759647828
  0
VERTEX
  8
_CURVE
 62
9
  6
PHANTOM
 10
5.6747422121
 20
5.7347684744
  0
VERTEX
  8
_CURVE
 62
9
  6
PHANTOM
 10
5.74644946
 20
5.6952591349
  0
VERTEX
  8
_CURVE
 62
9
  6
PHANTOM
 10
5.8191112141
 20
5.6573863721
  0
VERTEX
  8
_CURVE
 62
9
  6
PHANTOM
 10
5.8926880199
 20
5.6210997935
  0
VERTEX
  8
_CURVE
 62
9
  6
PHANTOM
 10
5.9671404227
 20
5.5863490067
  0
VERTEX
  8
_CURVE
 62
9
  6
PHANTOM
 10
6.0424289681
 20
5.5530836194
  0
VERTEX
  8
_CURVE
 62
9
  6
PHANTOM
 10
6.1185142015
 20
5.5212532392
  0
VERTEX
  8
_CURVE
 62
9
  6
PHANTOM
 10
6.1953566683
 20
5.4908074738
  0
VERTEX
  8
_CURVE
 62
9
  6
PHANTOM
 10
6.292409777
 20
5.4546217498
  0
VERTEX
  8
_CURVE
 62
9
  6
PHANTOM
 10
6.3904789895
 20
5.4204291539
  0
VERTEX
  8
_CURVE
 62
9
  6
PHANTOM
 10
6.4894588798
 20
5.388138092
  0
VERTEX
  8
_CURVE
 62
9
  6
PHANTOM
 10
6.5892440221
 20
5.3576569697
  0
VERTEX
  8
_CURVE
 62
9
  6
PHANTOM
 10
6.6897289907
 20
5.3288941928
  0
VERTEX
  8
_CURVE
 62
9
  6
PHANTOM
 10
6.7908083597
 20
5.3017581671
  0
VERTEX
  8
_CURVE
 62
9
  6
PHANTOM
 10
6.8923767034
 20
5.2761572984
  0
VERTEX
  8
_CURVE
 62
9
  6
PHANTOM
 10
6.9943285958
 20
5.2519999924
  0
VERTEX
  8
_CURVE
 62
9
  6
PHANTOM
 10
7.1265122576
 20
5.2227861311
  0
VERTEX
  8
_CURVE
 62
9
  6
PHANTOM
 10
7.2591287132
 20
5.1957269549
  0
VERTEX
  8
_CURVE
 62
9
  6
PHANTOM
 10
7.392146267
 20
5.1707192452
  0
VERTEX
  8
_CURVE
 62
9
  6
PHANTOM
 10
7.5255332235
 20
5.1476597832
  0
VERTEX
  8
_CURVE
 62
9
  6
PHANTOM
 10
7.6592578869
 20
5.1264453502
  0
VERTEX
  8
_CURVE
 62
9
  6
PHANTOM
 10
7.7932885617
 20
5.1069727276
  0
VERTEX
  8
_CURVE
 62
9
  6
PHANTOM
 10
7.9275935524
 20
5.0891386965
  0
VERTEX
  8
_CURVE
 62
9
  6
PHANTOM
 10
8.0621411632
 20
5.0728400383
  0
VERTEX
  8
_CURVE
 62
9
  6
PHANTOM
 10
8.1968996987
 20
5.0579735342
  0
VERTEX
  8
_CURVE
 62
9
  6
PHANTOM
 10
8.3704188283
 20
5.0407967864
  0
VERTEX
  8
_CURVE
 62
9
  6
PHANTOM
 10
8.5441622737
 20
5.025591785
  0
VERTEX
  8
_CURVE
 62
9
  6
PHANTOM
 10
8.7180580742
 20
5.0121334647
  0
VERTEX
  8
_CURVE
 62
9
  6
PHANTOM
 10
8.8920342688
 20
5.00019676
  0
VERTEX
  8
_CURVE
 62
9
  6
PHANTOM
 10
9.066018897
 20
4.9895566057
  0
VERTEX
  8
_CURVE
 62
9
  6
PHANTOM
 10
9.2399399979
 20
4.9799879366
  0
VERTEX
  8
_CURVE
 62
9
  6
PHANTOM
 10
9.4137256108
 20
4.9712656872
  0
VERTEX
  8
_CURVE
 62
9
  6
PHANTOM
 10
9.7452464718
 20
4.956379164
  0
VERTEX
  8
_CURVE
 62
9
  6
PHANTOM
 10
10.0763945033
 20
4.9436276908
  0
VERTEX
  8
_CURVE
 62
9
  6
PHANTOM
 10
10.4075540353
 20
4.93287846
  0
VERTEX
  8
_CURVE
 62
9
  6
PHANTOM
 10
10.7391093978
 20
4.9239986641
  0
VERTEX
  8
_CURVE
 62
9
  6
PHANTOM
 10
11.0714449205
 20
4.9168554956
  0
VERTEX
  8
_CURVE
 62
9
  6
PHANTOM
 10
11.3095229475
 20
4.912742713
  0
VERTEX
  8
_CURVE
 62
9
  6
PHANTOM
 10
11.5483649685
 20
4.9093986437
  0
VERTEX
  8
_CURVE
 62
9
  6
PHANTOM
 10
11.7881408501
 20
4.906773726
  0
VERTEX
  8
_CURVE
 62
9
  6
PHANTOM
 10
12.0290204585
 20
4.9048183979
  0
VERTEX
  8
_CURVE
 62
9
  6
PHANTOM
 10
12.2711736602
 20
4.9034830973
  0
VERTEX
  8
_CURVE
 62
9
  6
PHANTOM
 10
12.5147703217
 20
4.9027182624
  0
VERTEX
  8
_CURVE
 62
9
  6
PHANTOM
 10
12.7599803092
 20
4.9024743312
  0
SEQEND
  0
POLYLINE
  8
_CURVE
 62
9
  6
DASHED
 66
1
 70
0
  0
VERTEX
  8
_CURVE
 62
9
  6
DASHED
 10
12.7599803092
 20
17.6584743312
  0
VERTEX
  8
_CURVE
 62
9
  6
DASHED
 10
12.334385158
 20
17.657309268
  0
VERTEX
  8
_CURVE
 62
9
  6
DASHED
 10
11.9088030161
 20
17.6538145613
  0
VERTEX
  8
_CURVE
 62
9
  6
DASHED
 10
11.4832465646
 20
17.6479909353
  0
VERTEX
  8
_CURVE
 62
9
  6
DASHED
 10
11.0577284846
 20
17.6398391144
  0
VERTEX
  8
_CURVE
 62
9
  6
DASHED
 10
10.6322614575
 20
17.6293598231
  0
VERTEX
  8
_CURVE
 62
9
  6
DASHED
 10
10.2068581643
 20
17.6165537855
  0
VERTEX
  8
_CURVE
 62
9
  6
DASHED
 10
9.7815312863
 20
17.6014217261
  0
VERTEX
  8
_CURVE
 62
9
  6
DASHED
 10
9.3562935047
 20
17.5839643692
  0
VERTEX
  8
_CURVE
 62
9
  6
DASHED
 10
8.9311575006
 20
17.5641824391
  0
VERTEX
  8
_CURVE
 62
9
  6
DASHED
 10
8.5061359552
 20
17.5420766602
  0
VERTEX
  8
_CURVE
 62
9
  6
DASHED
 10
8.0812415498
 20
17.5176477567
  0
VERTEX
  8
_CURVE
 62
9
  6
DASHED
 10
7.6564869655
 20
17.4908964532
  0
VERTEX
  8
_CURVE
 62
9
  6
DASHED
 10
7.2318848834
 20
17.4618234738
  0
VERTEX
  8
_CURVE
 62
9
  6
DASHED
 10
6.8074479849
 20
17.430429543
  0
VERTEX
  8
_CURVE
 62
9
  6
DASHED
 10
6.383188951
 20
17.396715385
  0
VERTEX
  8
_CURVE
 62
9
  6
DASHED
 10
5.959120463
 20
17.3606817242
  0
VERTEX
  8
_CURVE
 62
9
  6
DASHED
 10
5.535255202
 20
17.322329285
  0
VERTEX
  8
_CURVE
 62
9
  6
DASHED
 10
5.1116058493
 20
17.2816587917
  0
VERTEX
  8
_CURVE
 62
9
  6
DASHED
 10
4.6881850859
 20
17.2386709686
  0
VERTEX
  8
_CURVE
 62
9
  6
DASHED
 10
4.2650055932
 20
17.19336654
  0
VERTEX
  8
_CURVE
 62
9
  6
DASHED
 10
3.8420800524
 20
17.1457462304
  0
VERTEX
  8
_CURVE
 62
9
  6
DASHED
 10
3.4194211445
 20
17.095810764
  0
VERTEX
  8
_CURVE
 62
9
  6
DASHED
 10
3.1985333282
 20
17.068779062
  0
SEQEND
  0
POLYLINE
  8
_CURVE
 62
9
  6
CONTINUOUS
 66
1
 70
0
  0
VERTEX
  8
_CURVE
 62
9
  6
CONTINUOUS
 10
12.7599842878
 20
17.2886463507
  0
VERTEX
  8
_CURVE
 62
9
  6
CONTINUOUS
 10
12.4810874076
 20
17.2880799919
  0
VERTEX
  8
_CURVE
 62
9
  6
CONTINUOUS
 10
12.2021327234
 20
17.2863351858
  0
VERTEX
  8
_CURVE
 62
9
  6
CONTINUOUS
 10
11.9231142799
 20
17.2833538386
  0
VERTEX
  8
_CURVE
 62
9
  6
CONTINUOUS
 10
11.6440261222
 20
17.2790778559
  0
VERTEX
  8
_CURVE
 62
9
  6
CONTINUOUS
 10
11.3199045886
 20
17.272407544
  0
VERTEX
  8
_CURVE
 62
9
  6
CONTINUOUS
 10
10.9957394864
 20
17.2637947888
  0
VERTEX
  8
_CURVE
 62
9
  6
CONTINUOUS
 10
10.6715892536
 20
17.253120701
  0
VERTEX
  8
_CURVE
 62
9
  6
CONTINUOUS
 10
10.3881340987
 20
17.2420195801
  0
VERTEX
  8
_CURVE
 62
9
  6
CONTINUOUS
 10
10.104717427
 20
17.2292774575
  0
VERTEX
  8
_CURVE
 62
9
  6
CONTINUOUS
 10
9.8213216464
 20
17.2149210618
  0
VERTEX
  8
_CURVE
 62
9
  6
CONTINUOUS
 10
9.5722829364
 20
17.2009474731
  0
VERTEX
  8
_CURVE
 62
9
  6
CONTINUOUS
 10
9.32308755
 20
17.1854812684
  0
VERTEX
  8
_CURVE
 62
9
  6
CONTINUOUS
 10
9.0735762638
 20
17.1682555732
  0
VERTEX
  8
_CURVE
 62
9
  6
CONTINUOUS
 10
8.9096149308
 20
17.1558496598
  0
VERTEX
  8
_CURVE
 62
9
  6
CONTINUOUS
 10
8.7454488025
 20
17.1423843328
  0
VERTEX
  8
_CURVE
 62
9
  6
CONTINUOUS
 10
8.5810776493
 20
17.1276726346
  0
VERTEX
  8
_CURVE
 62
9
  6
CONTINUOUS
 10
8.4165012413
 20
17.1115276079
  0
VERTEX
  8
_CURVE
 62
9
  6
CONTINUOUS
 10
8.2736998595
 20
17.0962320583
  0
VERTEX
  8
_CURVE
 62
9
  6
CONTINUOUS
 10
8.1307821103
 20
17.0796077127
  0
VERTEX
  8
_CURVE
 62
9
  6
CONTINUOUS
 10
7.9877859866
 20
17.0615429375
  0
VERTEX
  8
_CURVE
 62
9
  6
CONTINUOUS
 10
7.8447494815
 20
17.0419260987
  0
VERTEX
  8
_CURVE
 62
9
  6
CONTINUOUS
 10
7.7183959543
 20
17.023218293
  0
VERTEX
  8
_CURVE
 62
9
  6
CONTINUOUS
 10
7.5920743824
 20
17.0031417771
  0
VERTEX
  8
_CURVE
 62
9
  6
CONTINUOUS
 10
7.4658185846
 20
16.9816260419
  0
VERTEX
  8
_CURVE
 62
9
  6
CONTINUOUS
 10
7.3396623799
 20
16.9586005782
  0
VERTEX
  8
_CURVE
 62
9
  6
CONTINUOUS
 10
7.2267946912
 20
16.93664049
  0
VERTEX
  8
_CURVE
 62
9
  6
CONTINUOUS
 10
7.1140420703
 20
16.9133574149
  0
VERTEX
  8
_CURVE
 62
9
  6
CONTINUOUS
 10
7.0014125909
 20
16.888695688
  0
VERTEX
  8
_CURVE
 62
9
  6
CONTINUOUS
 10
6.8889143266
 20
16.8625996441
  0
VERTEX
  8
_CURVE
 62
9
  6
CONTINUOUS
 10
6.7910576111
 20
16.8386550135
  0
VERTEX
  8
_CURVE
 62
9
  6
CONTINUOUS
 10
6.693314776
 20
16.8135030383
  0
VERTEX
  8
_CURVE
 62
9
  6
CONTINUOUS
 10
6.5956940649
 20
16.7870663754
  0
VERTEX
  8
_CURVE
 62
9
  6
CONTINUOUS
 10
6.4982037216
 20
16.7592676815
  0
VERTEX
  8
_CURVE
 62
9
  6
CONTINUOUS
 10
6.3856365138
 20
16.7253146993
  0
VERTEX
  8
_CURVE
 62
9
  6
CONTINUOUS
 10
6.2733297307
 20
16.6892999146
  0
VERTEX
  8
_CURVE
 62
9
  6
CONTINUOUS
 10
6.1613583937
 20
16.6510867926
  0
VERTEX
  8
_CURVE
 62
9
  6
CONTINUOUS
 10
6.062729124
 20
16.615372052
  0
VERTEX
  8
_CURVE
 62
9
  6
CONTINUOUS
 10
5.9645059139
 20
16.5777533983
  0
VERTEX
  8
_CURVE
 62
9
  6
CONTINUOUS
 10
5.8667741155
 20
16.5381512063
  0
VERTEX
  8
_CURVE
 62
9
  6
CONTINUOUS
 10
5.7782273262
 20
16.5002754792
  0
VERTEX
  8
_CURVE
 62
9
  6
CONTINUOUS
 10
5.6902124868
 20
16.4606302801
  0
VERTEX
  8
_CURVE
 62
9
  6
CONTINUOUS
 10
5.6027827588
 20
16.4191588288
  0
VERTEX
  8
_CURVE
 62
9
  6
CONTINUOUS
 10
5.5227414216
 20
16.3792550561
  0
VERTEX
  8
_CURVE
 62
9
  6
CONTINUOUS
 10
5.4433139876
 20
16.3377074533
  0
VERTEX
  8
_CURVE
 62
9
  6
CONTINUOUS
 10
5.3645717689
 20
16.294472941
  0
VERTEX
  8
_CURVE
 62
9
  6
CONTINUOUS
 10
5.2911512423
 20
16.2522068121
  0
VERTEX
  8
_CURVE
 62
9
  6
CONTINUOUS
 10
5.2184672588
 20
16.2084048304
  0
VERTEX
  8
_CURVE
 62
9
  6
CONTINUOUS
 10
5.1465861979
 20
16.1630636385
  0
VERTEX
  8
_CURVE
 62
9
  6
CONTINUOUS
 10
5.0779455842
 20
16.1177824414
  0
VERTEX
  8
_CURVE
 62
9
  6
CONTINUOUS
 10
5.0101740532
 20
16.0710690224
  0
VERTEX
  8
_CURVE
 62
9
  6
CONTINUOUS
 10
4.9433288307
 20
16.02293179
  0
VERTEX
  8
_CURVE
 62
9
  6
CONTINUOUS
 10
4.8785172195
 20
15.97419142
  0
VERTEX
  8
_CURVE
 62
9
  6
CONTINUOUS
 10
4.8146955815
 20
15.9241060963
  0
VERTEX
  8
_CURVE
 62
9
  6
CONTINUOUS
 10
4.7519017867
 20
15.8727010367
  0
VERTEX
  8
_CURVE
 62
9
  6
CONTINUOUS
 10
4.6907418336
 20
15.8204954074
  0
VERTEX
  8
_CURVE
 62
9
  6
CONTINUOUS
 10
4.6306501348
 20
15.7670237078
  0
VERTEX
  8
_CURVE
 62
9
  6
CONTINUOUS
 10
4.5716490129
 20
15.7122903571
  0
VERTEX
  8
_CURVE
 62
9
  6
CONTINUOUS
 10
4.5148169857
 20
15.6573416706
  0
VERTEX
  8
_CURVE
 62
9
  6
CONTINUOUS
 10
4.4590917929
 20
15.6011936551
  0
VERTEX
  8
_CURVE
 62
9
  6
CONTINUOUS
 10
4.4045079098
 20
15.543858416
  0
VERTEX
  8
_CURVE
 62
9
  6
CONTINUOUS
 10
4.3525050013
 20
15.486917579
  0
VERTEX
  8
_CURVE
 62
9
  6
CONTINUOUS
 10
4.301638054
 20
15.4288514385
  0
VERTEX
  8
_CURVE
 62
9
  6
CONTINUOUS
 10
4.2519290377
 20
15.3696480512
  0
VERTEX
  8
_CURVE
 62
9
  6
CONTINUOUS
 10
4.2048717834
 20
15.3111619908
  0
VERTEX
  8
_CURVE
 62
9
  6
CONTINUOUS
 10
4.1589868952
 20
15.2516206008
  0
VERTEX
  8
_CURVE
 62
9
  6
CONTINUOUS
 10
4.1143378172
 20
15.1910486102
  0
VERTEX
  8
_CURVE
 62
9
  6
CONTINUOUS
 10
4.0716953149
 20
15.1305115704
  0
VERTEX
  8
_CURVE
 62
9
  6
CONTINUOUS
 10
4.0303405161
 20
15.0690584608
  0
VERTEX
  8
_CURVE
 62
9
  6
CONTINUOUS
 10
3.9903048549
 20
15.0067458044
  0
VERTEX
  8
_CURVE
 62
9
  6
CONTINUOUS
 10
3.9512472589
 20
14.9430109653
  0
VERTEX
  8
_CURVE
 62
9
  6
CONTINUOUS
 10
3.9135831486
 20
14.8785098137
  0
VERTEX
  8
_CURVE
 62
9
  6
CONTINUOUS
 10
3.8773290139
 20
14.8132947723
  0
VERTEX
  8
_CURVE
 62
9
  6
CONTINUOUS
 10
3.8411167434
 20
14.7447436362
  0
VERTEX
  8
_CURVE
 62
9
  6
CONTINUOUS
 10
3.8064345489
 20
14.6755621391
  0
VERTEX
  8
_CURVE
 62
9
  6
CONTINUOUS
 10
3.7732682523
 20
14.6058360073
  0
VERTEX
  8
_CURVE
 62
9
  6
CONTINUOUS
 10
3.7394708146
 20
14.5307908804
  0
VERTEX
  8
_CURVE
 62
9
  6
CONTINUOUS
 10
3.707335495
 20
14.4552691181
  0
VERTEX
  8
_CURVE
 62
9
  6
CONTINUOUS
 10
3.6768086209
 20
14.3793184111
  0
VERTEX
  8
_CURVE
 62
9
  6
CONTINUOUS
 10
3.6453776419
 20
14.2962966246
  0
VERTEX
  8
_CURVE
 62
9
  6
CONTINUOUS
 10
3.615724949
 20
14.2128789626
  0
VERTEX
  8
_CURVE
 62
9
  6
CONTINUOUS
 10
3.587790369
 20
14.129120368
  0
VERTEX
  8
_CURVE
 62
9
  6
CONTINUOUS
 10
3.5589624739
 20
14.0366172712
  0
VERTEX
  8
_CURVE
 62
9
  6
CONTINUOUS
 10
3.5320581453
 20
13.9438336661
  0
VERTEX
  8
_CURVE
 62
9
  6
CONTINUOUS
 10
3.5069931443
 20
13.8508353853
  0
VERTEX
  8
_CURVE
 62
9
  6
CONTINUOUS
 10
3.4808619734
 20
13.7459269166
  0
VERTEX
  8
_CURVE
 62
9
  6
CONTINUOUS
 10
3.4568280993
 20
13.6408966036
  0
VERTEX
  8
_CURVE
 62
9
  6
CONTINUOUS
 10
3.4347630314
 20
13.5358113634
  0
VERTEX
  8
_CURVE
 62
9
  6
CONTINUOUS
 10
3.4172480332
 20
13.4453527595
  0
VERTEX
  8
_CURVE
 62
9
  6
CONTINUOUS
 10
3.4010185151
 20
13.3549171431
  0
VERTEX
  8
_CURVE
 62
9
  6
CONTINUOUS
 10
3.3859962185
 20
13.2645186163
  0
VERTEX
  8
_CURVE
 62
9
  6
CONTINUOUS
 10
3.3721028847
 20
13.1741712813
  0
VERTEX
  8
_CURVE
 62
9
  6
CONTINUOUS
 10
3.3574287529
 20
13.0703662275
  0
VERTEX
  8
_CURVE
 62
9
  6
CONTINUOUS
 10
3.3440648528
 20
12.9666382433
  0
VERTEX
  8
_CURVE
 62
9
  6
CONTINUOUS
 10
3.3319323393
 20
12.8629780766
  0
VERTEX
  8
_CURVE
 62
9
  6
CONTINUOUS
 10
3.3209523672
 20
12.7593764754
  0
VERTEX
  8
_CURVE
 62
9
  6
CONTINUOUS
 10
3.3096150304
 20
12.6398361132
  0
VERTEX
  8
_CURVE
 62
9
  6
CONTINUOUS
 10
3.2996390167
 20
12.5203786623
  0
VERTEX
  8
_CURVE
 62
9
  6
CONTINUOUS
 10
3.2909545921
 20
12.4010213074
  0
VERTEX
  8
_CURVE
 62
9
  6
CONTINUOUS
 10
3.2834920227
 20
12.2817812334
  0
VERTEX
  8
_CURVE
 62
9
  6
CONTINUOUS
 10
3.2752536875
 20
12.1216828989
  0
VERTEX
  8
_CURVE
 62
9
  6
CONTINUOUS
 10
3.2688788137
 20
11.9618804535
  0
VERTEX
  8
_CURVE
 62
9
  6
CONTINUOUS
 10
3.2641482753
 20
11.8024267244
  0
VERTEX
  8
_CURVE
 62
9
  6
CONTINUOUS
 10
3.261119859
 20
11.6594572241
  0
VERTEX
  8
_CURVE
 62
9
  6
CONTINUOUS
 10
3.2590878462
 20
11.5168188407
  0
VERTEX
  8
_CURVE
 62
9
  6
CONTINUOUS
 10
3.2578974847
 20
11.3745183605
  0
VERTEX
  8
_CURVE
 62
9
  6
CONTINUOUS
 10
3.2573448322
 20
11.1873878228
  0
VERTEX
  8
_CURVE
 62
9
  6
CONTINUOUS
 10
3.2575842808
 20
11.0009269321
  0
VERTEX
  8
_CURVE
 62
9
  6
CONTINUOUS
 10
3.2581771559
 20
10.82965175
  0
VERTEX
  8
_CURVE
 62
9
  6
CONTINUOUS
 10
3.2596447095
 20
10.4805137685
  0
SEQEND
  0
POLYLINE
  8
_CURVE
 62
9
  6
CONTINUOUS
 66
1
 70
0
  0
VERTEX
  8
_CURVE
 62
9
  6
CONTINUOUS
 10
14.2000560298
 20
17.272407544
  0
VERTEX
  8
_CURVE
 62
9
  6
CONTINUOUS
 10
13.8759344962
 20
17.2790778559
  0
VERTEX
  8
_CURVE
 62
9
  6
CONTINUOUS
 10
13.5968463385
 20
17.2833538386
  0
VERTEX
  8
_CURVE
 62
9
  6
CONTINUOUS
 10
13.3178278951
 20
17.2863351858
  0
VERTEX
  8
_CURVE
 62
9
  6
CONTINUOUS
 10
13.0388732108
 20
17.2880799919
  0
VERTEX
  8
_CURVE
 62
9
  6
CONTINUOUS
 10
12.7599763306
 20
17.2886463507
  0
SEQEND
  0
POLYLINE
  8
_CURVE
 62
9
  6
DASHED
 66
1
 70
0
  0
VERTEX
  8
_CURVE
 62
9
  6
DASHED
 10
22.3214272903
 20
17.068779062
  0
VERTEX
  8
_CURVE
 62
9
  6
DASHED
 10
22.100539474
 20
17.095810764
  0
VERTEX
  8
_CURVE
 62
9
  6
DASHED
 10
21.6778805661
 20
17.1457462304
  0
VERTEX
  8
_CURVE
 62
9
  6
DASHED
 10
21.2549550252
 20
17.19336654
  0
VERTEX
  8
_CURVE
 62
9
  6
DASHED
 10
20.8317755325
 20
17.2386709686
  0
VERTEX
  8
_CURVE
 62
9
  6
DASHED
 10
20.4083547692
 20
17.2816587917
  0
VERTEX
  8
_CURVE
 62
9
  6
DASHED
 10
19.9847054164
 20
17.322329285
  0
VERTEX
  8
_CURVE
 62
9
  6
DASHED
 10
19.5608401555
 20
17.3606817242
  0
VERTEX
  8
_CURVE
 62
9
  6
DASHED
 10
19.1367716675
 20
17.396715385
  0
VERTEX
  8
_CURVE
 62
9
  6
DASHED
 10
18.7125126336
 20
17.430429543
  0
VERTEX
  8
_CURVE
 62
9
  6
DASHED
 10
18.288075735
 20
17.4618234738
  0
VERTEX
  8
_CURVE
 62
9
  6
DASHED
 10
17.863473653
 20
17.4908964532
  0
VERTEX
  8
_CURVE
 62
9
  6
DASHED
 10
17.4387190686
 20
17.5176477567
  0
VERTEX
  8
_CURVE
 62
9
  6
DASHED
 10
17.0138246632
 20
17.5420766602
  0
VERTEX
  8
_CURVE
 62
9
  6
DASHED
 10
16.5888031178
 20
17.5641824391
  0
VERTEX
  8
_CURVE
 62
9
  6
DASHED
 10
16.1636671137
 20
17.5839643692
  0
VERTEX
  8
_CURVE
 62
9
  6
DASHED
 10
15.7384293321
 20
17.6014217261
  0
VERTEX
  8
_CURVE
 62
9
  6
DASHED
 10
15.3131024541
 20
17.6165537855
  0
VERTEX
  8
_CURVE
 62
9
  6
DASHED
 10
14.887699161
 20
17.6293598231
  0
VERTEX
  8
_CURVE
 62
9
  6
DASHED
 10
14.4622321338
 20
17.6398391144
  0
VERTEX
  8
_CURVE
 62
9
  6
DASHED
 10
14.0367140539
 20
17.6479909353
  0
VERTEX
  8
_CURVE
 62
9
  6
DASHED
 10
13.6111576023
 20
17.6538145613
  0
VERTEX
  8
_CURVE
 62
9
  6
DASHED
 10
13.1855754604
 20
17.657309268
  0
VERTEX
  8
_CURVE
 62
9
  6
DASHED
 10
12.7599803092
 20
17.6584743312
  0
SEQEND
  0
LINE
  8
_CURVE
 62
9
  6
CENTER
 10
1.7599803092
 20
18.9170543312
 11
23.7599803092
 21
18.9170543312
  0
POLYLINE
  8
_CURVE
 62
9
  6
CONTINUOUS
 66
1
 70
0
  0
VERTEX
  8
_CURVE
 62
9
  6
CONTINUOUS
 10
22.2617834626
 20
10.82965175
  0
VERTEX
  8
_CURVE
 62
9
  6
CONTINUOUS
 10
22.2623763376
 20
11.0009269321
  0
VERTEX
  8
_CURVE
 62
9
  6
CONTINUOUS
 10
22.2626157862
 20
11.1873878228
  0
VERTEX
  8
_CURVE
 62
9
  6
CONTINUOUS
 10
22.2620631337
 20
11.3745183605
  0
VERTEX
  8
_CURVE
 62
9
  6
CONTINUOUS
 10
22.2608727723
 20
11.5168188407
  0
VERTEX
  8
_CURVE
 62
9
  6
CONTINUOUS
 10
22.2588407594
 20
11.6594572241
  0
VERTEX
  8
_CURVE
 62
9
  6
CONTINUOUS
 10
22.2558123432
 20
11.8024267244
  0
VERTEX
  8
_CURVE
 62
9
  6
CONTINUOUS
 10
22.2510818047
 20
11.9618804535
  0
VERTEX
  8
_CURVE
 62
9
  6
CONTINUOUS
 10
22.2447069309
 20
12.1216828989
  0
VERTEX
  8
_CURVE
 62
9
  6
CONTINUOUS
 10
22.2364685957
 20
12.2817812334
  0
VERTEX
  8
_CURVE
 62
9
  6
CONTINUOUS
 10
22.2290060264
 20
12.4010213074
  0
VERTEX
  8
_CURVE
 62
9
  6
CONTINUOUS
 10
22.2203216018
 20
12.5203786623
  0
VERTEX
  8
_CURVE
 62
9
  6
CONTINUOUS
 10
22.210345588
 20
12.6398361132
  0
VERTEX
  8
_CURVE
 62
9
  6
CONTINUOUS
 10
22.1990082512
 20
12.7593764754
  0
VERTEX
  8
_CURVE
 62
9
  6
CONTINUOUS
 10
22.1880282792
 20
12.8629780766
  0
VERTEX
  8
_CURVE
 62
9
  6
CONTINUOUS
 10
22.1758957656
 20
12.9666382433
  0
VERTEX
  8
_CURVE
 62
9
  6
CONTINUOUS
 10
22.1625318655
 20
13.0703662275
  0
VERTEX
  8
_CURVE
 62
9
  6
CONTINUOUS
 10
22.1478577338
 20
13.1741712813
  0
VERTEX
  8
_CURVE
 62
9
  6
CONTINUOUS
 10
22.1339644
 20
13.2645186163
  0
VERTEX
  8
_CURVE
 62
9
  6
CONTINUOUS
 10
22.1189421034
 20
13.3549171431
  0
VERTEX
  8
_CURVE
 62
9
  6
CONTINUOUS
 10
22.1027125853
 20
13.4453527595
  0
VERTEX
  8
_CURVE
 62
9
  6
CONTINUOUS
 10
22.085197587
 20
13.5358113634
  0
VERTEX
  8
_CURVE
 62
9
  6
CONTINUOUS
 10
22.0631325191
 20
13.6408966036
  0
VERTEX
  8
_CURVE
 62
9
  6
CONTINUOUS
 10
22.0390986451
 20
13.7459269166
  0
VERTEX
  8
_CURVE
 62
9
  6
CONTINUOUS
 10
22.0129674741
 20
13.8508353853
  0
VERTEX
  8
_CURVE
 62
9
  6
CONTINUOUS
 10
21.9879024731
 20
13.9438336661
  0
VERTEX
  8
_CURVE
 62
9
  6
CONTINUOUS
 10
21.9609981445
 20
14.0366172712
  0
VERTEX
  8
_CURVE
 62
9
  6
CONTINUOUS
 10
21.9321702495
 20
14.129120368
  0
VERTEX
  8
_CURVE
 62
9
  6
CONTINUOUS
 10
21.9042356694
 20
14.2128789626
  0
VERTEX
  8
_CURVE
 62
9
  6
CONTINUOUS
 10
21.8745829766
 20
14.2962966246
  0
VERTEX
  8
_CURVE
 62
9
  6
CONTINUOUS
 10
21.8431519976
 20
14.3793184111
  0
VERTEX
  8
_CURVE
 62
9
  6
CONTINUOUS
 10
21.8126251234
 20
14.4552691181
  0
VERTEX
  8
_CURVE
 62
9
  6
CONTINUOUS
 10
21.7804898038
 20
14.5307908804
  0
VERTEX
  8
_CURVE
 62
9
  6
CONTINUOUS
 10
21.7466923661
 20
14.6058360073
  0
VERTEX
  8
_CURVE
 62
9
  6
CONTINUOUS
 10
21.7135260695
 20
14.6755621391
  0
VERTEX
  8
_CURVE
 62
9
  6
CONTINUOUS
 10
21.6788438751
 20
14.7447436362
  0
VERTEX
  8
_CURVE
 62
9
  6
CONTINUOUS
 10
21.6426316045
 20
14.8132947723
  0
VERTEX
  8
_CURVE
 62
9
  6
CONTINUOUS
 10
21.6063774699
 20
14.8785098137
  0
VERTEX
  8
_CURVE
 62
9
  6
CONTINUOUS
 10
21.5687133596
 20
14.9430109653
  0
VERTEX
  8
_CURVE
 62
9
  6
CONTINUOUS
 10
21.5296557635
 20
15.0067458044
  0
VERTEX
  8
_CURVE
 62
9
  6
CONTINUOUS
 10
21.4896201023
 20
15.0690584608
  0
VERTEX
  8
_CURVE
 62
9
  6
CONTINUOUS
 10
21.4482653035
 20
15.1305115704
  0
VERTEX
  8
_CURVE
 62
9
  6
CONTINUOUS
 10
21.4056228012
 20
15.1910486102
  0
VERTEX
  8
_CURVE
 62
9
  6
CONTINUOUS
 10
21.3609737233
 20
15.2516206008
  0
VERTEX
  8
_CURVE
 62
9
  6
CONTINUOUS
 10
21.3150888351
 20
15.3111619908
  0
VERTEX
  8
_CURVE
 62
9
  6
CONTINUOUS
 10
21.2680315808
 20
15.3696480512
  0
VERTEX
  8
_CURVE
 62
9
  6
CONTINUOUS
 10
21.2183225644
 20
15.4288514385
  0
VERTEX
  8
_CURVE
 62
9
  6
CONTINUOUS
 10
21.1674556172
 20
15.486917579
  0
VERTEX
  8
_CURVE
 62
9
  6
CONTINUOUS
 10
21.1154527086
 20
15.543858416
  0
VERTEX
  8
_CURVE
 62
9
  6
CONTINUOUS
 10
21.0608688255
 20
15.6011936551
  0
VERTEX
  8
_CURVE
 62
9
  6
CONTINUOUS
 10
21.0051436328
 20
15.6573416706
  0
VERTEX
  8
_CURVE
 62
9
  6
CONTINUOUS
 10
20.9483116055
 20
15.7122903571
  0
VERTEX
  8
_CURVE
 62
9
  6
CONTINUOUS
 10
20.8893104836
 20
15.7670237078
  0
VERTEX
  8
_CURVE
 62
9
  6
CONTINUOUS
 10
20.8292187848
 20
15.8204954074
  0
VERTEX
  8
_CURVE
 62
9
  6
CONTINUOUS
 10
20.7680588318
 20
15.8727010367
  0
VERTEX
  8
_CURVE
 62
9
  6
CONTINUOUS
 10
20.705265037
 20
15.9241060963
  0
VERTEX
  8
_CURVE
 62
9
  6
CONTINUOUS
 10
20.6414433989
 20
15.97419142
  0
VERTEX
  8
_CURVE
 62
9
  6
CONTINUOUS
 10
20.5766317877
 20
16.02293179
  0
VERTEX
  8
_CURVE
 62
9
  6
CONTINUOUS
 10
20.5097865653
 20
16.0710690224
  0
VERTEX
  8
_CURVE
 62
9
  6
CONTINUOUS
 10
20.4420150342
 20
16.1177824414
  0
VERTEX
  8
_CURVE
 62
9
  6
CONTINUOUS
 10
20.3733744205
 20
16.1630636385
  0
VERTEX
  8
_CURVE
 62
9
  6
CONTINUOUS
 10
20.3014933597
 20
16.2084048304
  0
VERTEX
  8
_CURVE
 62
9
  6
CONTINUOUS
 10
20.2288093761
 20
16.2522068121
  0
VERTEX
  8
_CURVE
 62
9
  6
CONTINUOUS
 10
20.1553888496
 20
16.294472941
  0
VERTEX
  8
_CURVE
 62
9
  6
CONTINUOUS
 10
20.0766466308
 20
16.3377074533
  0
VERTEX
  8
_CURVE
 62
9
  6
CONTINUOUS
 10
19.9972191968
 20
16.3792550561
  0
VERTEX
  8
_CURVE
 62
9
  6
CONTINUOUS
 10
19.9171778597
 20
16.4191588288
  0
VERTEX
  8
_CURVE
 62
9
  6
CONTINUOUS
 10
19.8297481317
 20
16.4606302801
  0
VERTEX
  8
_CURVE
 62
9
  6
CONTINUOUS
 10
19.7417332922
 20
16.5002754792
  0
VERTEX
  8
_CURVE
 62
9
  6
CONTINUOUS
 10
19.653186503
 20
16.5381512063
  0
VERTEX
  8
_CURVE
 62
9
  6
CONTINUOUS
 10
19.5554547045
 20
16.5777533983
  0
VERTEX
  8
_CURVE
 62
9
  6
CONTINUOUS
 10
19.4572314945
 20
16.615372052
  0
VERTEX
  8
_CURVE
 62
9
  6
CONTINUOUS
 10
19.3586022247
 20
16.6510867926
  0
VERTEX
  8
_CURVE
 62
9
  6
CONTINUOUS
 10
19.2466308878
 20
16.6892999146
  0
VERTEX
  8
_CURVE
 62
9
  6
CONTINUOUS
 10
19.1343241046
 20
16.7253146993
  0
VERTEX
  8
_CURVE
 62
9
  6
CONTINUOUS
 10
19.0217568969
 20
16.7592676815
  0
VERTEX
  8
_CURVE
 62
9
  6
CONTINUOUS
 10
18.9242665535
 20
16.7870663754
  0
VERTEX
  8
_CURVE
 62
9
  6
CONTINUOUS
 10
18.8266458424
 20
16.8135030383
  0
VERTEX
  8
_CURVE
 62
9
  6
CONTINUOUS
 10
18.7289030073
 20
16.8386550135
  0
VERTEX
  8
_CURVE
 62
9
  6
CONTINUOUS
 10
18.6310462919
 20
16.8625996441
  0
VERTEX
  8
_CURVE
 62
9
  6
CONTINUOUS
 10
18.5185480276
 20
16.888695688
  0
VERTEX
  8
_CURVE
 62
9
  6
CONTINUOUS
 10
18.4059185481
 20
16.9133574149
  0
VERTEX
  8
_CURVE
 62
9
  6
CONTINUOUS
 10
18.2931659272
 20
16.93664049
  0
VERTEX
  8
_CURVE
 62
9
  6
CONTINUOUS
 10
18.1802982385
 20
16.9586005782
  0
VERTEX
  8
_CURVE
 62
9
  6
CONTINUOUS
 10
18.0541420338
 20
16.9816260419
  0
VERTEX
  8
_CURVE
 62
9
  6
CONTINUOUS
 10
17.9278862361
 20
17.0031417771
  0
VERTEX
  8
_CURVE
 62
9
  6
CONTINUOUS
 10
17.8015646641
 20
17.023218293
  0
VERTEX
  8
_CURVE
 62
9
  6
CONTINUOUS
 10
17.675211137
 20
17.0419260987
  0
VERTEX
  8
_CURVE
 62
9
  6
CONTINUOUS
 10
17.5321746318
 20
17.0615429375
  0
VERTEX
  8
_CURVE
 62
9
  6
CONTINUOUS
 10
17.3891785082
 20
17.0796077127
  0
VERTEX
  8
_CURVE
 62
9
  6
CONTINUOUS
 10
17.246260759
 20
17.0962320583
  0
VERTEX
  8
_CURVE
 62
9
  6
CONTINUOUS
 10
17.1034593772
 20
17.1115276079
  0
VERTEX
  8
_CURVE
 62
9
  6
CONTINUOUS
 10
16.9388829691
 20
17.1276726346
  0
VERTEX
  8
_CURVE
 62
9
  6
CONTINUOUS
 10
16.7745118159
 20
17.1423843328
  0
VERTEX
  8
_CURVE
 62
9
  6
CONTINUOUS
 10
16.6103456876
 20
17.1558496598
  0
VERTEX
  8
_CURVE
 62
9
  6
CONTINUOUS
 10
16.4463843546
 20
17.1682555732
  0
VERTEX
  8
_CURVE
 62
9
  6
CONTINUOUS
 10
16.1968730685
 20
17.1854812684
  0
VERTEX
  8
_CURVE
 62
9
  6
CONTINUOUS
 10
15.9476776821
 20
17.2009474731
  0
VERTEX
  8
_CURVE
 62
9
  6
CONTINUOUS
 10
15.6986389721
 20
17.2149210618
  0
VERTEX
  8
_CURVE
 62
9
  6
CONTINUOUS
 10
15.4152431914
 20
17.2292774575
  0
VERTEX
  8
_CURVE
 62
9
  6
CONTINUOUS
 10
15.1318265198
 20
17.2420195801
  0
VERTEX
  8
_CURVE
 62
9
  6
CONTINUOUS
 10
14.8483713649
 20
17.253120701
  0
VERTEX
  8
_CURVE
 62
9
  6
CONTINUOUS
 10
14.524221132
 20
17.2637947888
  0
VERTEX
  8
_CURVE
 62
9
  6
CONTINUOUS
 10
14.2000560298
 20
17.272407544
  0
SEQEND
  0
LINE
  8
_CURVE
 62
9
  6
CENTER
 10
1.7599803092
 20
20.9170543312
 11
23.7599803092
 21
20.9170543312
  0
LINE
  8
_CURVE
 62
9
  6
DASHED
 10
22.7599803092
 20
16.5725691583
 11
22.7599803092
 21
4.7470215692
  0
ARC
  8
0
 62
7
  6
CONTINUOUS
 10
8.6521753807
 20
14.2122315533
 40
0.2245560651
 50
59.208555199
 51
93.5831215674
  0
ARC
  8
0
 62
7
  6
CONTINUOUS
 10
8.3377251243
 20
14.3059955352
 40
0.2039397004
 50
223.4269507726
 51
258.0242403069
  0
ARC
  8
0
 62
7
  6
CONTINUOUS
 10
6.1203420662
 20
14.2684104178
 40
0.1597808471
 50
87.4638787987
 51
119.6947324667
  0
ARC
  8
0
 62
7
  6
CONTINUOUS
 10
6.6605827496
 20
14.3010192309
 40
0.1278237007
 50
56.1755396367
 51
96.4463209909
  0
ARC
  8
0
 62
7
  6
CONTINUOUS
 10
7.1773749314
 20
14.2368759699
 40
0.1142552807
 50
230.1562195028
 51
275.4518816802
  0
ARC
  8
0
 62
7
  6
CONTINUOUS
 10
8.4357065626
 20
13.886861395
 40
0.0519079771
 50
180.5675053294
 51
310.5520051654
  0
CIRCLE
  8
0
 62
7
  6
CONTINUOUS
 10
8.5280852794
 20
13.8864299022
 40
0.0514756023
  0
ARC
  8
0
 62
7
  6
CONTINUOUS
 10
8.4351315722
 20
13.88635509
 40
0.0513304411
 50
47.5048873671
 51
180.0087362707
  0
CIRCLE
  8
0
 62
7
  6
CONTINUOUS
 10
8.5276538413
 20
13.8864292078
 40
0.043795935
  0
CIRCLE
  8
0
 62
7
  6
CONTINUOUS
 10
7.9222536484
 20
13.87587018
 40
0.0317997452
  0
ARC
  8
0
 62
7
  6
CONTINUOUS
 10
8.7272747552
 20
13.9098465689
 40
0.0271961756
 50
260.4787245939
 51
99.5212754061
  0
CIRCLE
  8
0
 62
7
  6
CONTINUOUS
 10
8.8602414095
 20
14.1441289935
 40
0.0202280646
  0
ARC
  8
_CURVE
 62
9
  6
DASHED
 10
3.2599803092
 20
4.7470215692
 40
0.5
 50
180.0
 51
262.9489427318
  0
ARC
  8
_CURVE
 62
9
  6
DASHED
 10
22.2599803092
 20
4.7470215692
 40
0.5
 50
277.0510572682
 51
360.0
  0
ARC
  8
_CURVE
 62
9
  6
DASHED
 10
22.2599803092
 20
16.5725691583
 40
0.5
 50
0.0
 51
82.9408490397
  0
ARC
  8
_CURVE
 62
9
  6
DASHED
 10
3.2599803092
 20
16.5725691583
 40
0.5
 50
97.0591509603
 51
180.0
  0
ARC
  8
_CURVE
 62
9
  6
CONTINUOUS
 10
15.9515317764
 20
4.6787375779
 40
0.5
 50
270.9681766255
 51
307.6261742731
  0
CIRCLE
  8
_CURVE
 62
9
  6
CONTINUOUS
 10
23.1399803092
 20
15.6597643312
 40
0.19
  0
CIRCLE
  8
_CURVE
 62
9
  6
CONTINUOUS
 10
2.3799803092
 20
15.6597643312
 40
0.19
  0
CIRCLE
  8
_CURVE
 62
9
  6
CONTINUOUS
 10
2.3799803092
 20
5.6597643312
 40
0.19
  0
CIRCLE
  8
_CURVE
 62
9
  6
CONTINUOUS
 10
23.1399803092
 20
5.6597643312
 40
0.19
  0
ENDSEC
  0
EOF
