999
DXF file: 1061196_7_c.dxf
999
Pro/ENGINEER 2005030 by Parametric Technology Corporation
0
SECTION
2
HEADER
9
$EXTMAX
10
44.0000000000
20
34.0000000000
30
0.0000000000
9
$EXTMIN
10
0.0000000000
20
0.0000000000
30
0.0000000000
9
$LIMMIN
10
0.0000000000
20
0.0000000000
9
$LIMMAX
10
44.0000000000
20
34.0000000000
9
$VIEWCTR
10
22.0000000000
20
17.0000000000
9
$VIEWSIZE
40
34.0000000000
9
$CLAYER
8
0
9
$LTSCALE
40
2.4200000000
9
$CELTYPE
6
BYLAYER
9
$DIMSCALE
40
1
9
$DIMASZ
40
0.1875000000
9
$DIMEXO
40
0.2750000000
9
$DIMDLI
40
1.6720000000
9
$DIMEXE
40
0.7920000000
9
$DIMCEN
40
0.3960000000
9
$DIMLFAC
40
1.0000000000
9
$DIMBLK
1
_FILLED
9
$DIMTXT
40
0.1562500000
9
$PDMODE
70
3
9
$PDSIZE
40
0.3125000000
0
ENDSEC
0
SECTION
2
TABLES
0
TABLE
2
LTYPE
70
6
0
LTYPE
2
BYBLOCK
70
0
3

72
65
73
0
40
0.0
0
LTYPE
2
BYLAYER
70
0
3

72
65
73
0
40
0.0
0
LTYPE
2
CONTINUOUS
70
64
3
Solid line
72
65
73
0
40
0
0
LTYPE
2
CENTER
70
64
3
____ _ ____ _ ____ _ ____ _ ____ _ ____ _ ____
72
65
73
4
40
0.6
49
0.375
49
-0.075
49
0.075
49
-0.075
0
LTYPE
2
HIDDEN
70
64
3
- - - - - - - - - - - - - - - - - - - -
72
65
73
2
40
0.2
49
0.1
49
-0.1
0
LTYPE
2
PHANTOM
70
64
3
_____ _ _ _____ _ _ _____ _ _ _____
72
65
73
6
40
0.8
49
0.45
49
-0.05
49
0.1
49
-0.05
49
0.1
49
-0.05
0
LTYPE
2
DOT
70
64
3
. . . . . . . . . . . . . . . . . . . .
72
65
73
2
40
0.2
49
0.1
49
-0.1
0
LTYPE
2
DASHED
70
64
3
- - - - - - - - - - - - - - - - - - - -
72
65
73
2
40
0.2
49
0.1
49
-0.1
0
ENDTAB
0
TABLE
2
LAYER
70
36
0
LAYER
2
0
70
0
62
7
6
CONTINUOUS
0
LAYER
2
DEFAULT_1
70
0
62
7
6
CENTER
0
LAYER
2
DEFAULT_2
70
0
62
8
6
HIDDEN
0
LAYER
2
DEFAULT_3
70
0
62
7
6
PHANTOM
0
LAYER
2
_2D_DELETED_OBJS
70
0
62
7
6
CONTINUOUS
0
LAYER
2
COSM_SKETCH
70
0
62
7
6
CONTINUOUS
0
LAYER
2
DATUM_AXIS
70
0
62
7
6
CONTINUOUS
0
LAYER
2
DATUM_CSYS
70
0
62
7
6
CONTINUOUS
0
LAYER
2
DATUM_PLANE
70
0
62
7
6
CONTINUOUS
0
LAYER
2
DATUM_POINT
70
0
62
7
6
CONTINUOUS
0
LAYER
2
_CURVE
70
0
62
7
6
CONTINUOUS
0
LAYER
2
_SURFACE
70
0
62
7
6
CONTINUOUS
0
LAYER
2
___NOTE
70
0
62
7
6
CONTINUOUS
0
LAYER
2
___SYMBOL
70
0
62
7
6
CONTINUOUS
0
ENDTAB
0
TABLE
2
STYLE
70
1
0
STYLE
2
STANDARD
70
0
40
0.0
41
0.8000000000
50
0.0
71
0
42
0.2
3
txt
4

0
ENDTAB
0
ENDSEC
0
SECTION
2
BLOCKS
0
BLOCK
8
0
62
2
6
CONTINUOUS
2
*D0
70
65
10
0.0000000000
20
0.0000000000
0
TEXT
8
0
62
2
6
CONTINUOUS
10
18.3770798737
20
18.1445395895
7
STANDARD
40
0.1562500000
1
"
41
0.8000000000
72
0
0
TEXT
8
0
62
2
6
CONTINUOUS
10
17.5645798737
20
17.9101645895
7
STANDARD
40
0.1562500000
1
[50 cm]
41
0.8000000000
72
0
0
TEXT
8
0
62
2
6
CONTINUOUS
10
17.5020798737
20
18.1445395895
7
STANDARD
40
0.1562500000
1
19-7/16
41
0.8000000000
72
0
0
LINE
8
0
62
2
6
CONTINUOUS
10
14.6761863524
20
28.7250733160
11
18.1270798737
21
28.7250733160
0
LINE
8
0
62
2
6
CONTINUOUS
10
14.6761844117
20
9.2641026004
11
18.1270798737
21
9.2641026004
0
LINE
8
0
62
2
6
CONTINUOUS
10
18.0020798737
20
28.7250733160
11
18.0020798737
21
18.3789145895
0
LINE
8
0
62
2
6
CONTINUOUS
10
18.0020798737
20
9.2641026004
11
18.0020798737
21
17.8320395895
0
INSERT
8
0
62
2
6
CONTINUOUS
2
_FILLED
10
18.0020798737
20
28.7250733160
41
  0.187500
42
  0.187500
43
  0.187500
50
 90.000000
0
INSERT
8
0
62
2
6
CONTINUOUS
2
_FILLED
10
18.0020798737
20
9.2641026004
41
  0.187500
42
  0.187500
43
  0.187500
50
270.000000
0
ENDBLK
8
0
6
BYBLOCK
62
0
0
BLOCK
8
0
62
2
6
CONTINUOUS
2
*D1
70
65
10
0.0000000000
20
0.0000000000
0
TEXT
8
0
62
2
6
CONTINUOUS
10
20.3491098526
20
19.5091139053
7
STANDARD
40
0.1562500000
1
"
41
0.8000000000
72
0
0
TEXT
8
0
62
2
6
CONTINUOUS
10
19.5366098526
20
19.2747389053
7
STANDARD
40
0.1562500000
1
[36 cm]
41
0.8000000000
72
0
0
TEXT
8
0
62
2
6
CONTINUOUS
10
19.4741098526
20
19.5091139053
7
STANDARD
40
0.1562500000
1
14-3/16
41
0.8000000000
72
0
0
LINE
8
0
62
2
6
CONTINUOUS
10
11.1485059932
20
19.0570879486
11
11.1485059932
21
19.7122389053
0
LINE
8
0
62
2
6
CONTINUOUS
10
25.3594766147
20
19.0570879486
11
25.3594766147
21
19.7122389053
0
LINE
8
0
62
2
6
CONTINUOUS
10
11.1485059932
20
19.5872389053
11
19.3959848526
21
19.5872389053
0
LINE
8
0
62
2
6
CONTINUOUS
10
25.3594766147
20
19.5872389053
11
20.5522348526
21
19.5872389053
0
INSERT
8
0
62
2
6
CONTINUOUS
2
_FILLED
10
11.1485059932
20
19.5872389053
41
  0.187500
42
  0.187500
43
  0.187500
50
180.000000
0
INSERT
8
0
62
2
6
CONTINUOUS
2
_FILLED
10
25.3594766147
20
19.5872389053
41
  0.187500
42
  0.187500
43
  0.187500
0
ENDBLK
8
0
6
BYBLOCK
62
0
0
BLOCK
8
0
62
2
6
CONTINUOUS
2
*D2
70
65
10
0.0000000000
20
0.0000000000
0
TEXT
8
0
62
2
6
CONTINUOUS
10
19.0750974251
20
21.5707617631
7
STANDARD
40
0.1562500000
1
"
41
0.8000000000
72
0
0
TEXT
8
0
62
2
6
CONTINUOUS
10
18.2625974251
20
21.3363867631
7
STANDARD
40
0.1562500000
1
[47 cm]
41
0.8000000000
72
0
0
TEXT
8
0
62
2
6
CONTINUOUS
10
18.2000974251
20
21.5707617631
7
STANDARD
40
0.1562500000
1
18-7/16
41
0.8000000000
72
0
0
LINE
8
0
62
2
6
CONTINUOUS
10
14.6761863524
20
28.2250733160
11
18.8250974251
21
28.2250733160
0
LINE
8
0
62
2
6
CONTINUOUS
10
14.6761844117
20
9.7641026004
11
18.8250974251
21
9.7641026004
0
LINE
8
0
62
2
6
CONTINUOUS
10
18.7000974251
20
28.2250733160
11
18.7000974251
21
21.8051367631
0
LINE
8
0
62
2
6
CONTINUOUS
10
18.7000974251
20
9.7641026004
11
18.7000974251
21
21.2582617631
0
INSERT
8
0
62
2
6
CONTINUOUS
2
_FILLED
10
18.7000974251
20
28.2250733160
41
  0.187500
42
  0.187500
43
  0.187500
50
 90.000000
0
INSERT
8
0
62
2
6
CONTINUOUS
2
_FILLED
10
18.7000974251
20
9.7641026004
41
  0.187500
42
  0.187500
43
  0.187500
50
270.000000
0
ENDBLK
8
0
6
BYBLOCK
62
0
0
BLOCK
8
0
62
2
6
CONTINUOUS
2
*D3
70
65
10
0.0000000000
20
0.0000000000
0
TEXT
8
0
62
2
6
CONTINUOUS
10
17.3845859304
20
20.5662589926
7
STANDARD
40
0.1562500000
1
"
41
0.8000000000
72
0
0
TEXT
8
0
62
2
6
CONTINUOUS
10
16.5720859304
20
20.3318839926
7
STANDARD
40
0.1562500000
1
[39 cm]
41
0.8000000000
72
0
0
TEXT
8
0
62
2
6
CONTINUOUS
10
16.5095859304
20
20.5662589926
7
STANDARD
40
0.1562500000
1
15-3/16
41
0.8000000000
72
0
0
LINE
8
0
62
2
6
CONTINUOUS
10
25.8594766147
20
19.0570879486
11
25.8594766147
21
20.7693839926
0
LINE
8
0
62
2
6
CONTINUOUS
10
10.6485059932
20
19.0570879486
11
10.6485059932
21
20.7693839926
0
LINE
8
0
62
2
6
CONTINUOUS
10
25.8594766147
20
20.6443839926
11
17.5877109304
21
20.6443839926
0
LINE
8
0
62
2
6
CONTINUOUS
10
10.6485059932
20
20.6443839926
11
16.4314609304
21
20.6443839926
0
INSERT
8
0
62
2
6
CONTINUOUS
2
_FILLED
10
25.8594766147
20
20.6443839926
41
  0.187500
42
  0.187500
43
  0.187500
0
INSERT
8
0
62
2
6
CONTINUOUS
2
_FILLED
10
10.6485059932
20
20.6443839926
41
  0.187500
42
  0.187500
43
  0.187500
50
180.000000
0
ENDBLK
8
0
6
BYBLOCK
62
0
0
BLOCK
8
___SYMBOL
62
2
6
CONTINUOUS
2
REVEAL-NOREVEAL_BL0
70
64
10
19.8744347651
20
16.5072264975
0
LINE
8
___SYMBOL
62
7
6
CONTINUOUS
10
20.5024379116
20
16.5107164975
11
19.1896679116
21
16.6081364975
0
LINE
8
___SYMBOL
62
7
6
CONTINUOUS
10
19.1896679116
20
16.6081364975
11
19.1183879116
21
16.7067364975
0
LINE
8
___SYMBOL
62
7
6
CONTINUOUS
10
19.1183879116
20
16.7067364975
11
19.1575879116
21
16.7257464975
0
LINE
8
___SYMBOL
62
7
6
CONTINUOUS
10
19.1575879116
20
16.7257464975
11
19.2158079116
21
16.6402064975
0
LINE
8
___SYMBOL
62
7
6
CONTINUOUS
10
19.2158079116
20
16.6402064975
11
20.4858079116
21
16.5522964975
0
LINE
8
___SYMBOL
62
7
6
CONTINUOUS
10
20.0165379116
20
16.7257464975
11
20.0165379116
21
16.9859264975
0
LINE
8
___SYMBOL
62
7
6
CONTINUOUS
10
20.0165379116
20
16.9859264975
11
19.8169479116
21
16.9859264975
0
LINE
8
___SYMBOL
62
7
6
CONTINUOUS
10
19.8739779116
20
16.5946476592
11
19.8739779116
21
16.9481464975
0
LINE
8
___SYMBOL
62
7
6
CONTINUOUS
10
19.8739779116
20
16.9481464975
11
19.9174579116
21
16.9859264975
0
LINE
8
___SYMBOL
62
7
6
CONTINUOUS
10
19.9174579116
20
16.9859264975
11
19.9644979116
21
16.9481464975
0
LINE
8
___SYMBOL
62
7
6
CONTINUOUS
10
19.9644979116
20
16.5883818220
11
19.9644979116
21
16.9481464975
0
LINE
8
___SYMBOL
62
7
6
CONTINUOUS
10
19.9644979116
20
16.9481464975
11
19.8739779116
21
16.9481464975
0
LINE
8
___SYMBOL
62
7
6
CONTINUOUS
10
19.8739779116
20
16.8497764975
11
19.9644979116
21
16.8497764975
0
LINE
8
___SYMBOL
62
7
6
CONTINUOUS
10
19.9645079116
20
16.8497764975
11
19.9174579116
21
16.8875564975
0
LINE
8
___SYMBOL
62
7
6
CONTINUOUS
10
19.9174579116
20
16.8875564975
11
19.8739779116
21
16.8497764975
0
LINE
8
___SYMBOL
62
2
6
CONTINUOUS
10
20.6545079116
20
16.8554864975
11
20.5099511256
21
16.7257464975
0
LINE
8
___SYMBOL
62
7
6
CONTINUOUS
10
19.9644979116
20
16.5506367538
11
19.9644979116
21
16.4738864975
0
LINE
8
___SYMBOL
62
7
6
CONTINUOUS
10
19.9644979116
20
16.4738864975
11
20.0094079116
21
16.4144864975
0
LINE
8
___SYMBOL
62
7
6
CONTINUOUS
10
20.0094079116
20
16.4144864975
11
19.8276379116
21
16.4144864975
0
LINE
8
___SYMBOL
62
7
6
CONTINUOUS
10
19.8276379116
20
16.4144864975
11
19.8739779116
21
16.4738864975
0
LINE
8
___SYMBOL
62
7
6
CONTINUOUS
10
19.8739779116
20
16.4738864975
11
19.8739779116
21
16.5573541974
0
POLYLINE
8
___SYMBOL
62
7
6
CONTINUOUS
66
1
70
0
0
VERTEX
8
___SYMBOL
62
7
6
CONTINUOUS
10
20.6545079116
20
17.1326464975
0
VERTEX
8
___SYMBOL
62
7
6
CONTINUOUS
10
20.6545767488
20
17.1344161563
0
VERTEX
8
___SYMBOL
62
7
6
CONTINUOUS
10
20.6545779370
20
17.1361866634
0
VERTEX
8
___SYMBOL
62
7
6
CONTINUOUS
10
20.6545119169
20
17.1379563704
0
VERTEX
8
___SYMBOL
62
7
6
CONTINUOUS
10
20.6543791293
20
17.1397236287
0
VERTEX
8
___SYMBOL
62
7
6
CONTINUOUS
10
20.6541800148
20
17.1414867898
0
VERTEX
8
___SYMBOL
62
7
6
CONTINUOUS
10
20.6539150144
20
17.1432442052
0
VERTEX
8
___SYMBOL
62
7
6
CONTINUOUS
10
20.6535845686
20
17.1449942262
0
VERTEX
8
___SYMBOL
62
7
6
CONTINUOUS
10
20.6531891182
20
17.1467352045
0
VERTEX
8
___SYMBOL
62
7
6
CONTINUOUS
10
20.6527291040
20
17.1484654915
0
VERTEX
8
___SYMBOL
62
7
6
CONTINUOUS
10
20.6522049667
20
17.1501834385
0
VERTEX
8
___SYMBOL
62
7
6
CONTINUOUS
10
20.6516171470
20
17.1518873972
0
VERTEX
8
___SYMBOL
62
7
6
CONTINUOUS
10
20.6509660856
20
17.1535757190
0
VERTEX
8
___SYMBOL
62
7
6
CONTINUOUS
10
20.6502522234
20
17.1552467552
0
VERTEX
8
___SYMBOL
62
7
6
CONTINUOUS
10
20.6494760010
20
17.1568988575
0
VERTEX
8
___SYMBOL
62
7
6
CONTINUOUS
10
20.6486378592
20
17.1585303773
0
VERTEX
8
___SYMBOL
62
7
6
CONTINUOUS
10
20.6477382387
20
17.1601396660
0
VERTEX
8
___SYMBOL
62
7
6
CONTINUOUS
10
20.6467775803
20
17.1617250751
0
VERTEX
8
___SYMBOL
62
7
6
CONTINUOUS
10
20.6457564846
20
17.1632850207
0
VERTEX
8
___SYMBOL
62
7
6
CONTINUOUS
10
20.6446761917
20
17.1648181778
0
VERTEX
8
___SYMBOL
62
7
6
CONTINUOUS
10
20.6435381017
20
17.1663232859
0
VERTEX
8
___SYMBOL
62
7
6
CONTINUOUS
10
20.6423436146
20
17.1677990845
0
VERTEX
8
___SYMBOL
62
7
6
CONTINUOUS
10
20.6410941305
20
17.1692443131
0
VERTEX
8
___SYMBOL
62
7
6
CONTINUOUS
10
20.6397910495
20
17.1706577114
0
VERTEX
8
___SYMBOL
62
7
6
CONTINUOUS
10
20.6384357715
20
17.1720380189
0
VERTEX
8
___SYMBOL
62
7
6
CONTINUOUS
10
20.6370296967
20
17.1733839751
0
VERTEX
8
___SYMBOL
62
7
6
CONTINUOUS
10
20.6355742251
20
17.1746943197
0
VERTEX
8
___SYMBOL
62
7
6
CONTINUOUS
10
20.6340707567
20
17.1759677920
0
VERTEX
8
___SYMBOL
62
7
6
CONTINUOUS
10
20.6325206916
20
17.1772031318
0
VERTEX
8
___SYMBOL
62
7
6
CONTINUOUS
10
20.6309254298
20
17.1783990785
0
VERTEX
8
___SYMBOL
62
7
6
CONTINUOUS
10
20.6292863715
20
17.1795543716
0
VERTEX
8
___SYMBOL
62
7
6
CONTINUOUS
10
20.6276049165
20
17.1806677509
0
VERTEX
8
___SYMBOL
62
7
6
CONTINUOUS
10
20.6258824650
20
17.1817379557
0
VERTEX
8
___SYMBOL
62
7
6
CONTINUOUS
10
20.6241204171
20
17.1827637257
0
VERTEX
8
___SYMBOL
62
7
6
CONTINUOUS
10
20.6223201728
20
17.1837438004
0
VERTEX
8
___SYMBOL
62
7
6
CONTINUOUS
10
20.6203643034
20
17.1847352339
0
VERTEX
8
___SYMBOL
62
7
6
CONTINUOUS
10
20.6183691358
20
17.1856728797
0
VERTEX
8
___SYMBOL
62
7
6
CONTINUOUS
10
20.6163370350
20
17.1865561167
0
VERTEX
8
___SYMBOL
62
7
6
CONTINUOUS
10
20.6142703663
20
17.1873843236
0
VERTEX
8
___SYMBOL
62
7
6
CONTINUOUS
10
20.6121714947
20
17.1881568792
0
VERTEX
8
___SYMBOL
62
7
6
CONTINUOUS
10
20.6100427855
20
17.1888731624
0
VERTEX
8
___SYMBOL
62
7
6
CONTINUOUS
10
20.6078866036
20
17.1895325521
0
VERTEX
8
___SYMBOL
62
7
6
CONTINUOUS
10
20.6057053143
20
17.1901344270
0
VERTEX
8
___SYMBOL
62
7
6
CONTINUOUS
10
20.6035012826
20
17.1906781660
0
VERTEX
8
___SYMBOL
62
7
6
CONTINUOUS
10
20.6012768738
20
17.1911631479
0
VERTEX
8
___SYMBOL
62
7
6
CONTINUOUS
10
20.5990344530
20
17.1915887515
0
VERTEX
8
___SYMBOL
62
7
6
CONTINUOUS
10
20.5967763852
20
17.1919543556
0
VERTEX
8
___SYMBOL
62
7
6
CONTINUOUS
10
20.5945050357
20
17.1922593392
0
VERTEX
8
___SYMBOL
62
7
6
CONTINUOUS
10
20.5922227695
20
17.1925030809
0
VERTEX
8
___SYMBOL
62
7
6
CONTINUOUS
10
20.5904891273
20
17.1926464975
0
SEQEND
0
LINE
8
___SYMBOL
62
7
6
CONTINUOUS
10
19.8739779116
20
16.7257464975
11
18.9408979116
21
16.7257464975
0
LINE
8
___SYMBOL
62
7
6
CONTINUOUS
10
18.9408979116
20
16.7257464975
11
18.9166579116
21
16.8340964975
0
LINE
8
___SYMBOL
62
7
6
CONTINUOUS
10
18.9166579116
20
16.8340964975
11
18.9694079116
21
16.8911264975
0
LINE
8
___SYMBOL
62
7
6
CONTINUOUS
10
18.9694079116
20
16.8911264975
11
18.9408979116
21
17.0080264975
0
LINE
8
___SYMBOL
62
7
6
CONTINUOUS
10
18.9408979116
20
17.0080264975
11
19.0135979116
21
17.0536464975
0
LINE
8
___SYMBOL
62
7
6
CONTINUOUS
10
19.0135979116
20
17.0536464975
11
19.0164479116
21
17.1463164975
0
LINE
8
___SYMBOL
62
7
6
CONTINUOUS
10
19.0164479116
20
17.1463164975
11
19.1076979116
21
17.1926464975
0
LINE
8
___SYMBOL
62
7
6
CONTINUOUS
10
19.1076979116
20
17.1926464975
11
20.5904891273
21
17.1926464975
0
LINE
8
___SYMBOL
62
7
6
CONTINUOUS
10
19.9644979116
20
16.7257464975
11
20.6545079116
21
16.7257464975
0
LINE
8
___SYMBOL
62
7
6
CONTINUOUS
10
20.6545079116
20
16.7257464975
11
20.6545079116
21
17.1326464975
0
LINE
8
___SYMBOL
62
2
6
CONTINUOUS
10
20.5989079116
20
16.7257464975
11
20.6545079116
21
16.7756464975
0
LINE
8
___SYMBOL
62
2
6
CONTINUOUS
10
20.4114519702
20
16.7257464975
11
20.6545079116
21
16.9438764975
0
LINE
8
___SYMBOL
62
2
6
CONTINUOUS
10
20.3034299116
20
16.7257464975
11
20.6545079116
21
17.0408164975
0
LINE
8
___SYMBOL
62
2
6
CONTINUOUS
10
20.2033561980
20
16.7257464975
11
20.6545079116
21
17.1306264975
0
LINE
8
___SYMBOL
62
2
6
CONTINUOUS
10
20.0936580934
20
16.7257464975
11
20.6180151086
21
17.1858318413
0
LINE
8
___SYMBOL
62
2
6
CONTINUOUS
10
20.0165379116
20
16.7589964975
11
20.4997530612
21
17.1926464975
0
LINE
8
___SYMBOL
62
2
6
CONTINUOUS
10
20.0165379116
20
16.8657764975
11
20.3807682264
21
17.1926464975
0
LINE
8
___SYMBOL
62
2
6
CONTINUOUS
10
20.0165379116
20
16.9659664975
11
20.2691199195
21
17.1926464975
0
LINE
8
___SYMBOL
62
2
6
CONTINUOUS
10
19.5297559120
20
16.7257464975
11
19.8169479116
21
16.9834817691
0
LINE
8
___SYMBOL
62
2
6
CONTINUOUS
10
19.4181133716
20
16.7257464975
11
19.9383699147
21
17.1926464975
0
LINE
8
___SYMBOL
62
2
6
CONTINUOUS
10
19.3097676187
20
16.7257464975
11
19.8300287772
21
17.1926464975
0
LINE
8
___SYMBOL
62
2
6
CONTINUOUS
10
19.9305679116
20
16.9860564975
11
20.1607661890
21
17.1926464975
0
LINE
8
___SYMBOL
62
2
6
CONTINUOUS
10
19.7488527376
20
16.7257464975
11
19.8169479116
21
16.7868564975
0
LINE
8
___SYMBOL
62
2
6
CONTINUOUS
10
19.2004359120
20
16.7257464975
11
19.7206982098
21
17.1926464975
0
LINE
8
___SYMBOL
62
2
6
CONTINUOUS
10
19.0887769792
20
16.7257464975
11
19.6095179116
21
17.1930664975
0
LINE
8
___SYMBOL
62
2
6
CONTINUOUS
10
18.9804376187
20
16.7257464975
11
19.5006987772
21
17.1926464975
0
LINE
8
___SYMBOL
62
2
6
CONTINUOUS
10
18.9282748352
20
16.7821701909
11
19.3856682314
21
17.1926464975
0
LINE
8
___SYMBOL
62
2
6
CONTINUOUS
10
18.9637751729
20
16.9142225046
11
19.2740199103
21
17.1926464975
0
LINE
8
___SYMBOL
62
2
6
CONTINUOUS
10
19.0136776121
20
17.0562380221
11
19.1656788495
21
17.1926464975
0
LINE
8
___SYMBOL
62
7
6
CONTINUOUS
10
19.8739779116
20
16.4738864975
11
19.9644979116
21
16.4738864975
0
LINE
8
___SYMBOL
62
2
6
CONTINUOUS
10
19.6406767533
20
16.7257464975
11
19.8169479116
21
16.8839364975
0
LINE
8
___SYMBOL
62
2
6
CONTINUOUS
10
19.8196720496
20
16.9859264975
11
20.0500182098
21
17.1926464975
0
LINE
8
___SYMBOL
62
7
6
CONTINUOUS
10
19.8169479116
20
16.9859264975
11
19.8169479116
21
16.7257464975
0
LINE
8
___SYMBOL
62
7
6
CONTINUOUS
10
20.5819855594
20
16.6188364975
11
20.5024379116
21
16.5107164975
0
LINE
8
___SYMBOL
62
7
6
CONTINUOUS
10
20.4844441149
20
16.5504326756
11
20.5342294807
21
16.6188364975
0
LINE
8
___SYMBOL
62
7
6
CONTINUOUS
10
20.8322088629
20
15.8347264975
11
20.8322088629
21
16.5356664975
0
POLYLINE
8
___SYMBOL
62
7
6
CONTINUOUS
66
1
70
0
0
VERTEX
8
___SYMBOL
62
7
6
CONTINUOUS
10
20.8322116186
20
16.5356656300
0
VERTEX
8
___SYMBOL
62
7
6
CONTINUOUS
10
20.8321482712
20
16.5398054371
0
VERTEX
8
___SYMBOL
62
7
6
CONTINUOUS
10
20.8319589473
20
16.5439387603
0
VERTEX
8
___SYMBOL
62
7
6
CONTINUOUS
10
20.8316446901
20
16.5480613857
0
VERTEX
8
___SYMBOL
62
7
6
CONTINUOUS
10
20.8312065427
20
16.5521690993
0
VERTEX
8
___SYMBOL
62
7
6
CONTINUOUS
10
20.8306455480
20
16.5562576873
0
VERTEX
8
___SYMBOL
62
7
6
CONTINUOUS
10
20.8299627491
20
16.5603229358
0
VERTEX
8
___SYMBOL
62
7
6
CONTINUOUS
10
20.8291591891
20
16.5643606309
0
VERTEX
8
___SYMBOL
62
7
6
CONTINUOUS
10
20.8282359110
20
16.5683665585
0
VERTEX
8
___SYMBOL
62
7
6
CONTINUOUS
10
20.8271939579
20
16.5723365049
0
VERTEX
8
___SYMBOL
62
7
6
CONTINUOUS
10
20.8260343728
20
16.5762662561
0
VERTEX
8
___SYMBOL
62
7
6
CONTINUOUS
10
20.8247581988
20
16.5801515982
0
VERTEX
8
___SYMBOL
62
7
6
CONTINUOUS
10
20.8233664790
20
16.5839883173
0
VERTEX
8
___SYMBOL
62
7
6
CONTINUOUS
10
20.8218602563
20
16.5877721994
0
VERTEX
8
___SYMBOL
62
7
6
CONTINUOUS
10
20.8202405738
20
16.5914990307
0
VERTEX
8
___SYMBOL
62
7
6
CONTINUOUS
10
20.8185084747
20
16.5951645973
0
VERTEX
8
___SYMBOL
62
7
6
CONTINUOUS
10
20.8166650018
20
16.5987646852
0
VERTEX
8
___SYMBOL
62
7
6
CONTINUOUS
10
20.8147115027
20
16.6022952657
0
VERTEX
8
___SYMBOL
62
7
6
CONTINUOUS
10
20.8126505416
20
16.6057530509
0
VERTEX
8
___SYMBOL
62
7
6
CONTINUOUS
10
20.8104849873
20
16.6091349379
0
VERTEX
8
___SYMBOL
62
7
6
CONTINUOUS
10
20.8082177086
20
16.6124378241
0
VERTEX
8
___SYMBOL
62
7
6
CONTINUOUS
10
20.8058515740
20
16.6156586066
0
VERTEX
8
___SYMBOL
62
7
6
CONTINUOUS
10
20.8033894524
20
16.6187941826
0
VERTEX
8
___SYMBOL
62
7
6
CONTINUOUS
10
20.8008342124
20
16.6218414495
0
VERTEX
8
___SYMBOL
62
7
6
CONTINUOUS
10
20.7981887227
20
16.6247973044
0
VERTEX
8
___SYMBOL
62
7
6
CONTINUOUS
10
20.7954558520
20
16.6276586446
0
VERTEX
8
___SYMBOL
62
7
6
CONTINUOUS
10
20.7926384691
20
16.6304223672
0
VERTEX
8
___SYMBOL
62
7
6
CONTINUOUS
10
20.7897394426
20
16.6330853696
0
VERTEX
8
___SYMBOL
62
7
6
CONTINUOUS
10
20.7867616413
20
16.6356445489
0
VERTEX
8
___SYMBOL
62
7
6
CONTINUOUS
10
20.7837079338
20
16.6380968024
0
VERTEX
8
___SYMBOL
62
7
6
CONTINUOUS
10
20.7805811889
20
16.6404390272
0
VERTEX
8
___SYMBOL
62
7
6
CONTINUOUS
10
20.7773842752
20
16.6426681208
0
VERTEX
8
___SYMBOL
62
7
6
CONTINUOUS
10
20.7741200616
20
16.6447809802
0
VERTEX
8
___SYMBOL
62
7
6
CONTINUOUS
10
20.7709890941
20
16.6466608700
0
VERTEX
8
___SYMBOL
62
7
6
CONTINUOUS
10
20.7678043007
20
16.6484341092
0
VERTEX
8
___SYMBOL
62
7
6
CONTINUOUS
10
20.7645689293
20
16.6500997571
0
VERTEX
8
___SYMBOL
62
7
6
CONTINUOUS
10
20.7612862280
20
16.6516568734
0
VERTEX
8
___SYMBOL
62
7
6
CONTINUOUS
10
20.7579594450
20
16.6531045175
0
VERTEX
8
___SYMBOL
62
7
6
CONTINUOUS
10
20.7545918283
20
16.6544417489
0
VERTEX
8
___SYMBOL
62
7
6
CONTINUOUS
10
20.7511866261
20
16.6556676271
0
VERTEX
8
___SYMBOL
62
7
6
CONTINUOUS
10
20.7477470864
20
16.6567812117
0
VERTEX
8
___SYMBOL
62
7
6
CONTINUOUS
10
20.7442764572
20
16.6577815621
0
VERTEX
8
___SYMBOL
62
7
6
CONTINUOUS
10
20.7407779868
20
16.6586677378
0
VERTEX
8
___SYMBOL
62
7
6
CONTINUOUS
10
20.7372549231
20
16.6594387984
0
VERTEX
8
___SYMBOL
62
7
6
CONTINUOUS
10
20.7337105143
20
16.6600938033
0
VERTEX
8
___SYMBOL
62
7
6
CONTINUOUS
10
20.7301480085
20
16.6606318121
0
VERTEX
8
___SYMBOL
62
7
6
CONTINUOUS
10
20.7265706537
20
16.6610518843
0
VERTEX
8
___SYMBOL
62
7
6
CONTINUOUS
10
20.7229816981
20
16.6613530793
0
VERTEX
8
___SYMBOL
62
7
6
CONTINUOUS
10
20.7193843897
20
16.6615344566
0
VERTEX
8
___SYMBOL
62
7
6
CONTINUOUS
10
20.7157819766
20
16.6615950758
0
SEQEND
0
LINE
8
___SYMBOL
62
7
6
CONTINUOUS
10
20.7918188629
20
15.8213864975
11
20.7918188629
21
16.5332864975
0
POLYLINE
8
___SYMBOL
62
7
6
CONTINUOUS
66
1
70
0
0
VERTEX
8
___SYMBOL
62
7
6
CONTINUOUS
10
20.7918187430
20
16.5332876572
0
VERTEX
8
___SYMBOL
62
7
6
CONTINUOUS
10
20.7917775842
20
16.5361161442
0
VERTEX
8
___SYMBOL
62
7
6
CONTINUOUS
10
20.7916545727
20
16.5389386862
0
VERTEX
8
___SYMBOL
62
7
6
CONTINUOUS
10
20.7914503713
20
16.5417524783
0
VERTEX
8
___SYMBOL
62
7
6
CONTINUOUS
10
20.7911656428
20
16.5445547161
0
VERTEX
8
___SYMBOL
62
7
6
CONTINUOUS
10
20.7908010500
20
16.5473425946
0
VERTEX
8
___SYMBOL
62
7
6
CONTINUOUS
10
20.7903572558
20
16.5501133094
0
VERTEX
8
___SYMBOL
62
7
6
CONTINUOUS
10
20.7898349230
20
16.5528640557
0
VERTEX
8
___SYMBOL
62
7
6
CONTINUOUS
10
20.7892347144
20
16.5555920288
0
VERTEX
8
___SYMBOL
62
7
6
CONTINUOUS
10
20.7885572928
20
16.5582944240
0
VERTEX
8
___SYMBOL
62
7
6
CONTINUOUS
10
20.7878033211
20
16.5609684367
0
VERTEX
8
___SYMBOL
62
7
6
CONTINUOUS
10
20.7869734621
20
16.5636112621
0
VERTEX
8
___SYMBOL
62
7
6
CONTINUOUS
10
20.7860683786
20
16.5662200957
0
VERTEX
8
___SYMBOL
62
7
6
CONTINUOUS
10
20.7850887334
20
16.5687921327
0
VERTEX
8
___SYMBOL
62
7
6
CONTINUOUS
10
20.7840351894
20
16.5713245684
0
VERTEX
8
___SYMBOL
62
7
6
CONTINUOUS
10
20.7829084094
20
16.5738145981
0
VERTEX
8
___SYMBOL
62
7
6
CONTINUOUS
10
20.7817090563
20
16.5762594173
0
VERTEX
8
___SYMBOL
62
7
6
CONTINUOUS
10
20.7804379867
20
16.5786563460
0
VERTEX
8
___SYMBOL
62
7
6
CONTINUOUS
10
20.7790968335
20
16.5810032043
0
VERTEX
8
___SYMBOL
62
7
6
CONTINUOUS
10
20.7776874233
20
16.5832979370
0
VERTEX
8
___SYMBOL
62
7
6
CONTINUOUS
10
20.7762115828
20
16.5855384891
0
VERTEX
8
___SYMBOL
62
7
6
CONTINUOUS
10
20.7746711385
20
16.5877228053
0
VERTEX
8
___SYMBOL
62
7
6
CONTINUOUS
10
20.7730679173
20
16.5898488307
0
VERTEX
8
___SYMBOL
62
7
6
CONTINUOUS
10
20.7714037458
20
16.5919145099
0
VERTEX
8
___SYMBOL
62
7
6
CONTINUOUS
10
20.7696804507
20
16.5939177880
0
VERTEX
8
___SYMBOL
62
7
6
CONTINUOUS
10
20.7678998585
20
16.5958566097
0
VERTEX
8
___SYMBOL
62
7
6
CONTINUOUS
10
20.7660637961
20
16.5977289201
0
VERTEX
8
___SYMBOL
62
7
6
CONTINUOUS
10
20.7641740901
20
16.5995326638
0
VERTEX
8
___SYMBOL
62
7
6
CONTINUOUS
10
20.7622325671
20
16.6012657859
0
VERTEX
8
___SYMBOL
62
7
6
CONTINUOUS
10
20.7602410538
20
16.6029262312
0
VERTEX
8
___SYMBOL
62
7
6
CONTINUOUS
10
20.7582013769
20
16.6045119446
0
VERTEX
8
___SYMBOL
62
7
6
CONTINUOUS
10
20.7561153630
20
16.6060208709
0
VERTEX
8
___SYMBOL
62
7
6
CONTINUOUS
10
20.7539848389
20
16.6074509550
0
VERTEX
8
___SYMBOL
62
7
6
CONTINUOUS
10
20.7519407084
20
16.6087232360
0
VERTEX
8
___SYMBOL
62
7
6
CONTINUOUS
10
20.7498608466
20
16.6099232353
0
VERTEX
8
___SYMBOL
62
7
6
CONTINUOUS
10
20.7477473320
20
16.6110503311
0
VERTEX
8
___SYMBOL
62
7
6
CONTINUOUS
10
20.7456022430
20
16.6121039017
0
VERTEX
8
___SYMBOL
62
7
6
CONTINUOUS
10
20.7434276580
20
16.6130833251
0
VERTEX
8
___SYMBOL
62
7
6
CONTINUOUS
10
20.7412256555
20
16.6139879796
0
VERTEX
8
___SYMBOL
62
7
6
CONTINUOUS
10
20.7389983138
20
16.6148172434
0
VERTEX
8
___SYMBOL
62
7
6
CONTINUOUS
10
20.7367477115
20
16.6155704948
0
VERTEX
8
___SYMBOL
62
7
6
CONTINUOUS
10
20.7344759270
20
16.6162471118
0
VERTEX
8
___SYMBOL
62
7
6
CONTINUOUS
10
20.7321850386
20
16.6168464727
0
VERTEX
8
___SYMBOL
62
7
6
CONTINUOUS
10
20.7298771248
20
16.6173679558
0
VERTEX
8
___SYMBOL
62
7
6
CONTINUOUS
10
20.7275542640
20
16.6178109391
0
VERTEX
8
___SYMBOL
62
7
6
CONTINUOUS
10
20.7252185347
20
16.6181748010
0
VERTEX
8
___SYMBOL
62
7
6
CONTINUOUS
10
20.7228720154
20
16.6184589195
0
VERTEX
8
___SYMBOL
62
7
6
CONTINUOUS
10
20.7205167843
20
16.6186626730
0
VERTEX
8
___SYMBOL
62
7
6
CONTINUOUS
10
20.7181549200
20
16.6187854395
0
VERTEX
8
___SYMBOL
62
7
6
CONTINUOUS
10
20.7157885009
20
16.6188265973
0
SEQEND
0
LINE
8
___SYMBOL
62
7
6
CONTINUOUS
10
20.7157888629
20
16.6188264975
11
20.3023488629
21
16.6188264975
0
LINE
8
___SYMBOL
62
7
6
CONTINUOUS
10
20.3023488629
20
16.6188264975
11
20.3023488629
21
16.6615964975
0
LINE
8
___SYMBOL
62
7
6
CONTINUOUS
10
20.3023488629
20
16.6615964975
11
20.7157888629
21
16.6615964975
0
LINE
8
___SYMBOL
62
2
6
CONTINUOUS
10
20.7492006266
20
16.6102850803
11
20.7812994485
21
16.6399155185
0
LINE
8
___SYMBOL
62
7
6
CONTINUOUS
10
20.3396888629
20
16.6687264975
11
20.3366288629
21
16.6748364975
0
LINE
8
___SYMBOL
62
7
6
CONTINUOUS
10
20.3366288629
20
16.6748364975
11
20.3325588629
21
16.6758464975
0
LINE
8
___SYMBOL
62
7
6
CONTINUOUS
10
20.3325588629
20
16.6758464975
11
20.3284888629
21
16.6778864975
0
LINE
8
___SYMBOL
62
7
6
CONTINUOUS
10
20.3284888629
20
16.6778864975
11
20.3244088629
21
16.6819664975
0
LINE
8
___SYMBOL
62
7
6
CONTINUOUS
10
20.3244088629
20
16.6819664975
11
20.3193188629
21
16.6809464975
0
LINE
8
___SYMBOL
62
7
6
CONTINUOUS
10
20.4445788629
20
16.6717764975
11
20.4486488629
21
16.6738164975
0
LINE
8
___SYMBOL
62
7
6
CONTINUOUS
10
20.4486488629
20
16.6738164975
11
20.4527188629
21
16.6748364975
0
LINE
8
___SYMBOL
62
7
6
CONTINUOUS
10
20.4527188629
20
16.6748364975
11
20.4608688629
21
16.6707564975
0
LINE
8
___SYMBOL
62
7
6
CONTINUOUS
10
20.4608688629
20
16.6707564975
11
20.4649388629
21
16.6707564975
0
LINE
8
___SYMBOL
62
7
6
CONTINUOUS
10
20.5853788629
20
16.6727964975
11
20.5914888629
21
16.6758464975
0
LINE
8
___SYMBOL
62
7
6
CONTINUOUS
10
20.5914888629
20
16.6758464975
11
20.6016688629
21
16.6727964975
0
LINE
8
___SYMBOL
62
7
6
CONTINUOUS
10
20.5784288629
20
16.7104764975
11
20.5743588629
21
16.7104764975
0
LINE
8
___SYMBOL
62
7
6
CONTINUOUS
10
20.5743588629
20
16.7104764975
11
20.5631588629
21
16.7186264975
0
LINE
8
___SYMBOL
62
7
6
CONTINUOUS
10
20.5631588629
20
16.7186264975
11
20.5550088629
21
16.7186264975
0
LINE
8
___SYMBOL
62
7
6
CONTINUOUS
10
20.5550088629
20
16.7186264975
11
20.5550088629
21
16.7125064975
0
LINE
8
___SYMBOL
62
7
6
CONTINUOUS
10
20.4476288629
20
16.7125064975
11
20.4476288629
21
16.7176064975
0
LINE
8
___SYMBOL
62
7
6
CONTINUOUS
10
20.4476288629
20
16.7176064975
11
20.4516988629
21
16.7186264975
0
LINE
8
___SYMBOL
62
7
6
CONTINUOUS
10
20.4516988629
20
16.7186264975
11
20.4557788629
21
16.7176064975
0
LINE
8
___SYMBOL
62
7
6
CONTINUOUS
10
20.4557788629
20
16.7176064975
11
20.4608688629
21
16.7104764975
0
LINE
8
___SYMBOL
62
7
6
CONTINUOUS
10
20.4608688629
20
16.7104764975
11
20.4659588629
21
16.7084364975
0
LINE
8
___SYMBOL
62
7
6
CONTINUOUS
10
20.4659588629
20
16.7084364975
11
20.4710488629
21
16.7084364975
0
POLYLINE
8
___SYMBOL
62
7
6
CONTINUOUS
66
1
70
0
0
VERTEX
8
___SYMBOL
62
7
6
CONTINUOUS
10
20.3111717165
20
16.6626175674
0
VERTEX
8
___SYMBOL
62
7
6
CONTINUOUS
10
20.3094964329
20
16.6640932070
0
VERTEX
8
___SYMBOL
62
7
6
CONTINUOUS
10
20.3078669538
20
16.6655506921
0
VERTEX
8
___SYMBOL
62
7
6
CONTINUOUS
10
20.3062830091
20
16.6669901874
0
VERTEX
8
___SYMBOL
62
7
6
CONTINUOUS
10
20.3047443286
20
16.6684118576
0
VERTEX
8
___SYMBOL
62
7
6
CONTINUOUS
10
20.3032506424
20
16.6698158677
0
VERTEX
8
___SYMBOL
62
7
6
CONTINUOUS
10
20.3018016801
20
16.6712023825
0
VERTEX
8
___SYMBOL
62
7
6
CONTINUOUS
10
20.3003971716
20
16.6725715666
0
VERTEX
8
___SYMBOL
62
7
6
CONTINUOUS
10
20.2990368469
20
16.6739235849
0
VERTEX
8
___SYMBOL
62
7
6
CONTINUOUS
10
20.2977204357
20
16.6752586023
0
VERTEX
8
___SYMBOL
62
7
6
CONTINUOUS
10
20.2964476680
20
16.6765767835
0
VERTEX
8
___SYMBOL
62
7
6
CONTINUOUS
10
20.2952182735
20
16.6778782933
0
VERTEX
8
___SYMBOL
62
7
6
CONTINUOUS
10
20.2940319822
20
16.6791632966
0
VERTEX
8
___SYMBOL
62
7
6
CONTINUOUS
10
20.2928885239
20
16.6804319581
0
VERTEX
8
___SYMBOL
62
7
6
CONTINUOUS
10
20.2917876285
20
16.6816844426
0
VERTEX
8
___SYMBOL
62
7
6
CONTINUOUS
10
20.2907290258
20
16.6829209150
0
VERTEX
8
___SYMBOL
62
7
6
CONTINUOUS
10
20.2897124457
20
16.6841415400
0
VERTEX
8
___SYMBOL
62
7
6
CONTINUOUS
10
20.2887376180
20
16.6853464824
0
VERTEX
8
___SYMBOL
62
7
6
CONTINUOUS
10
20.2878042726
20
16.6865359071
0
VERTEX
8
___SYMBOL
62
7
6
CONTINUOUS
10
20.2869121393
20
16.6877099789
0
VERTEX
8
___SYMBOL
62
7
6
CONTINUOUS
10
20.2860609481
20
16.6888688625
0
VERTEX
8
___SYMBOL
62
7
6
CONTINUOUS
10
20.2852504288
20
16.6900127228
0
VERTEX
8
___SYMBOL
62
7
6
CONTINUOUS
10
20.2844803401
20
16.6911417131
0
VERTEX
8
___SYMBOL
62
7
6
CONTINUOUS
10
20.2837505570
20
16.6922559414
0
VERTEX
8
___SYMBOL
62
7
6
CONTINUOUS
10
20.2830609830
20
16.6933555041
0
VERTEX
8
___SYMBOL
62
7
6
CONTINUOUS
10
20.2824115220
20
16.6944404978
0
VERTEX
8
___SYMBOL
62
7
6
CONTINUOUS
10
20.2818020777
20
16.6955110189
0
VERTEX
8
___SYMBOL
62
7
6
CONTINUOUS
10
20.2812325538
20
16.6965671639
0
VERTEX
8
___SYMBOL
62
7
6
CONTINUOUS
10
20.2807028541
20
16.6976090293
0
VERTEX
8
___SYMBOL
62
7
6
CONTINUOUS
10
20.2802128824
20
16.6986367117
0
VERTEX
8
___SYMBOL
62
7
6
CONTINUOUS
10
20.2797625422
20
16.6996503074
0
VERTEX
8
___SYMBOL
62
7
6
CONTINUOUS
10
20.2793517375
20
16.7006499131
0
VERTEX
8
___SYMBOL
62
7
6
CONTINUOUS
10
20.2789803718
20
16.7016356251
0
VERTEX
8
___SYMBOL
62
7
6
CONTINUOUS
10
20.2786483491
20
16.7026075400
0
VERTEX
8
___SYMBOL
62
7
6
CONTINUOUS
10
20.2783555730
20
16.7035657543
0
VERTEX
8
___SYMBOL
62
7
6
CONTINUOUS
10
20.2781019472
20
16.7045103645
0
VERTEX
8
___SYMBOL
62
7
6
CONTINUOUS
10
20.2778554037
20
16.7055953443
0
VERTEX
8
___SYMBOL
62
7
6
CONTINUOUS
10
20.2776618643
20
16.7066620919
0
VERTEX
8
___SYMBOL
62
7
6
CONTINUOUS
10
20.2775211761
20
16.7077107606
0
VERTEX
8
___SYMBOL
62
7
6
CONTINUOUS
10
20.2774331863
20
16.7087415036
0
VERTEX
8
___SYMBOL
62
7
6
CONTINUOUS
10
20.2773977421
20
16.7097544741
0
VERTEX
8
___SYMBOL
62
7
6
CONTINUOUS
10
20.2774146905
20
16.7107498254
0
VERTEX
8
___SYMBOL
62
7
6
CONTINUOUS
10
20.2774839184
20
16.7117276972
0
VERTEX
8
___SYMBOL
62
7
6
CONTINUOUS
10
20.2776054718
20
16.7126881758
0
VERTEX
8
___SYMBOL
62
7
6
CONTINUOUS
10
20.2777794363
20
16.7136313339
0
VERTEX
8
___SYMBOL
62
7
6
CONTINUOUS
10
20.2780058976
20
16.7145572445
0
VERTEX
8
___SYMBOL
62
7
6
CONTINUOUS
10
20.2782849412
20
16.7154659803
0
VERTEX
8
___SYMBOL
62
7
6
CONTINUOUS
10
20.2786166529
20
16.7163576142
0
VERTEX
8
___SYMBOL
62
7
6
CONTINUOUS
10
20.2790011183
20
16.7172322189
0
VERTEX
8
___SYMBOL
62
7
6
CONTINUOUS
10
20.2794384230
20
16.7180898672
0
VERTEX
8
___SYMBOL
62
7
6
CONTINUOUS
10
20.2799286527
20
16.7189306320
0
VERTEX
8
___SYMBOL
62
7
6
CONTINUOUS
10
20.2804718931
20
16.7197545861
0
VERTEX
8
___SYMBOL
62
7
6
CONTINUOUS
10
20.2810682297
20
16.7205618023
0
VERTEX
8
___SYMBOL
62
7
6
CONTINUOUS
10
20.2817177482
20
16.7213523535
0
VERTEX
8
___SYMBOL
62
7
6
CONTINUOUS
10
20.2824205343
20
16.7221263123
0
VERTEX
8
___SYMBOL
62
7
6
CONTINUOUS
10
20.2831766737
20
16.7228837517
0
VERTEX
8
___SYMBOL
62
7
6
CONTINUOUS
10
20.2839862519
20
16.7236247444
0
VERTEX
8
___SYMBOL
62
7
6
CONTINUOUS
10
20.2848493546
20
16.7243493633
0
VERTEX
8
___SYMBOL
62
7
6
CONTINUOUS
10
20.2857660675
20
16.7250576812
0
VERTEX
8
___SYMBOL
62
7
6
CONTINUOUS
10
20.2867364762
20
16.7257497708
0
SEQEND
0
LINE
8
___SYMBOL
62
7
6
CONTINUOUS
10
20.6129721853
20
16.7257464975
11
20.6292388629
21
16.7176064975
0
LINE
8
___SYMBOL
62
7
6
CONTINUOUS
10
20.6292388629
20
16.7176064975
11
20.6322988629
21
16.7135264975
0
LINE
8
___SYMBOL
62
7
6
CONTINUOUS
10
20.6322988629
20
16.7135264975
11
20.6343388629
21
16.7053864975
0
LINE
8
___SYMBOL
62
7
6
CONTINUOUS
10
20.6343388629
20
16.7053864975
11
20.6343388629
21
16.6992764975
0
LINE
8
___SYMBOL
62
7
6
CONTINUOUS
10
20.6343388629
20
16.6992764975
11
20.6333188629
21
16.6941864975
0
LINE
8
___SYMBOL
62
7
6
CONTINUOUS
10
20.6333188629
20
16.6941864975
11
20.6251688629
21
16.6890864975
0
LINE
8
___SYMBOL
62
7
6
CONTINUOUS
10
20.6251688629
20
16.6890864975
11
20.6129488629
21
16.6880664975
0
LINE
8
___SYMBOL
62
7
6
CONTINUOUS
10
20.6129488629
20
16.6880664975
11
20.6007288629
21
16.6850164975
0
LINE
8
___SYMBOL
62
7
6
CONTINUOUS
10
20.6007288629
20
16.6850164975
11
20.5935988629
21
16.6850164975
0
LINE
8
___SYMBOL
62
7
6
CONTINUOUS
10
20.5935988629
20
16.6850164975
11
20.5854588629
21
16.6829764975
0
LINE
8
___SYMBOL
62
7
6
CONTINUOUS
10
20.5854588629
20
16.6829764975
11
20.5579588629
21
16.6829764975
0
LINE
8
___SYMBOL
62
7
6
CONTINUOUS
10
20.5579588629
20
16.6829764975
11
20.5536798213
21
16.6844059590
0
LINE
8
___SYMBOL
62
7
6
CONTINUOUS
10
20.5536798213
20
16.6844059590
11
20.5087288629
21
16.6829764975
0
LINE
8
___SYMBOL
62
7
6
CONTINUOUS
10
20.5087288629
20
16.6829764975
11
20.4995588629
21
16.6850164975
0
LINE
8
___SYMBOL
62
7
6
CONTINUOUS
10
20.4995588629
20
16.6850164975
11
20.4608688629
21
16.6890864975
0
LINE
8
___SYMBOL
62
7
6
CONTINUOUS
10
20.4608688629
20
16.6890864975
11
20.4516988629
21
16.6829764975
0
LINE
8
___SYMBOL
62
7
6
CONTINUOUS
10
20.4516988629
20
16.6829764975
11
20.4466088629
21
16.6809464975
0
LINE
8
___SYMBOL
62
7
6
CONTINUOUS
10
20.4466088629
20
16.6809464975
11
20.4130088629
21
16.6778864975
0
LINE
8
___SYMBOL
62
7
6
CONTINUOUS
10
20.4130088629
20
16.6778864975
11
20.3651488629
21
16.6799264975
0
LINE
8
___SYMBOL
62
7
6
CONTINUOUS
10
20.3651488629
20
16.6799264975
11
20.3549688629
21
16.6799264975
0
LINE
8
___SYMBOL
62
7
6
CONTINUOUS
10
20.3549688629
20
16.6799264975
11
20.3447788629
21
16.6819664975
0
LINE
8
___SYMBOL
62
7
6
CONTINUOUS
10
20.3447788629
20
16.6819664975
11
20.3305188629
21
16.6901064975
0
LINE
8
___SYMBOL
62
7
6
CONTINUOUS
10
20.3305188629
20
16.6901064975
11
20.3295088629
21
16.6941864975
0
LINE
8
___SYMBOL
62
7
6
CONTINUOUS
10
20.3295088629
20
16.6941864975
11
20.3193188629
21
16.6972364975
0
LINE
8
___SYMBOL
62
7
6
CONTINUOUS
10
20.3193188629
20
16.6972364975
11
20.3070988629
21
16.7074164975
0
LINE
8
___SYMBOL
62
7
6
CONTINUOUS
10
20.3070988629
20
16.7074164975
11
20.3040488629
21
16.7114964975
0
LINE
8
___SYMBOL
62
7
6
CONTINUOUS
10
20.3040488629
20
16.7114964975
11
20.3040488629
21
16.7176064975
0
LINE
8
___SYMBOL
62
7
6
CONTINUOUS
10
20.3040488629
20
16.7176064975
11
20.3060788629
21
16.7216764975
0
LINE
8
___SYMBOL
62
7
6
CONTINUOUS
10
20.3060788629
20
16.7216764975
11
20.3111788629
21
16.7257464975
0
POLYLINE
8
___SYMBOL
62
7
6
CONTINUOUS
66
1
70
0
0
VERTEX
8
___SYMBOL
62
7
6
CONTINUOUS
10
20.5158526465
20
16.7033512236
0
VERTEX
8
___SYMBOL
62
7
6
CONTINUOUS
10
20.5156488917
20
16.7035808136
0
VERTEX
8
___SYMBOL
62
7
6
CONTINUOUS
10
20.5154376284
20
16.7038035089
0
VERTEX
8
___SYMBOL
62
7
6
CONTINUOUS
10
20.5152191292
20
16.7040191235
0
VERTEX
8
___SYMBOL
62
7
6
CONTINUOUS
10
20.5149936668
20
16.7042274713
0
VERTEX
8
___SYMBOL
62
7
6
CONTINUOUS
10
20.5147615139
20
16.7044283662
0
VERTEX
8
___SYMBOL
62
7
6
CONTINUOUS
10
20.5145229431
20
16.7046216222
0
VERTEX
8
___SYMBOL
62
7
6
CONTINUOUS
10
20.5142782271
20
16.7048070532
0
VERTEX
8
___SYMBOL
62
7
6
CONTINUOUS
10
20.5140276387
20
16.7049844732
0
VERTEX
8
___SYMBOL
62
7
6
CONTINUOUS
10
20.5137714505
20
16.7051536962
0
VERTEX
8
___SYMBOL
62
7
6
CONTINUOUS
10
20.5135099351
20
16.7053145361
0
VERTEX
8
___SYMBOL
62
7
6
CONTINUOUS
10
20.5132433653
20
16.7054668067
0
VERTEX
8
___SYMBOL
62
7
6
CONTINUOUS
10
20.5129720138
20
16.7056103222
0
VERTEX
8
___SYMBOL
62
7
6
CONTINUOUS
10
20.5126961532
20
16.7057448964
0
VERTEX
8
___SYMBOL
62
7
6
CONTINUOUS
10
20.5124160561
20
16.7058703432
0
VERTEX
8
___SYMBOL
62
7
6
CONTINUOUS
10
20.5121319954
20
16.7059864767
0
VERTEX
8
___SYMBOL
62
7
6
CONTINUOUS
10
20.5118442436
20
16.7060931108
0
VERTEX
8
___SYMBOL
62
7
6
CONTINUOUS
10
20.5115530834
20
16.7061900861
0
VERTEX
8
___SYMBOL
62
7
6
CONTINUOUS
10
20.5112588371
20
16.7062773504
0
VERTEX
8
___SYMBOL
62
7
6
CONTINUOUS
10
20.5109618371
20
16.7063548782
0
VERTEX
8
___SYMBOL
62
7
6
CONTINUOUS
10
20.5106624155
20
16.7064226439
0
VERTEX
8
___SYMBOL
62
7
6
CONTINUOUS
10
20.5103609049
20
16.7064806221
0
VERTEX
8
___SYMBOL
62
7
6
CONTINUOUS
10
20.5100576373
20
16.7065287872
0
VERTEX
8
___SYMBOL
62
7
6
CONTINUOUS
10
20.5097529452
20
16.7065671136
0
VERTEX
8
___SYMBOL
62
7
6
CONTINUOUS
10
20.5094471607
20
16.7065955758
0
VERTEX
8
___SYMBOL
62
7
6
CONTINUOUS
10
20.5091406163
20
16.7066141484
0
VERTEX
8
___SYMBOL
62
7
6
CONTINUOUS
10
20.5088336442
20
16.7066228058
0
VERTEX
8
___SYMBOL
62
7
6
CONTINUOUS
10
20.5085265767
20
16.7066215225
0
VERTEX
8
___SYMBOL
62
7
6
CONTINUOUS
10
20.5082197461
20
16.7066102729
0
VERTEX
8
___SYMBOL
62
7
6
CONTINUOUS
10
20.5079134847
20
16.7065890315
0
VERTEX
8
___SYMBOL
62
7
6
CONTINUOUS
10
20.5076081248
20
16.7065577728
0
VERTEX
8
___SYMBOL
62
7
6
CONTINUOUS
10
20.5073039987
20
16.7065164713
0
VERTEX
8
___SYMBOL
62
7
6
CONTINUOUS
10
20.5070014386
20
16.7064651014
0
VERTEX
8
___SYMBOL
62
7
6
CONTINUOUS
10
20.5067007712
20
16.7064036656
0
VERTEX
8
___SYMBOL
62
7
6
CONTINUOUS
10
20.5064023001
20
16.7063322782
0
VERTEX
8
___SYMBOL
62
7
6
CONTINUOUS
10
20.5061063232
20
16.7062510814
0
VERTEX
8
___SYMBOL
62
7
6
CONTINUOUS
10
20.5058131384
20
16.7061602173
0
VERTEX
8
___SYMBOL
62
7
6
CONTINUOUS
10
20.5055230436
20
16.7060598282
0
VERTEX
8
___SYMBOL
62
7
6
CONTINUOUS
10
20.5052363367
20
16.7059500564
0
VERTEX
8
___SYMBOL
62
7
6
CONTINUOUS
10
20.5049533156
20
16.7058310441
0
VERTEX
8
___SYMBOL
62
7
6
CONTINUOUS
10
20.5046742783
20
16.7057029334
0
VERTEX
8
___SYMBOL
62
7
6
CONTINUOUS
10
20.5043995226
20
16.7055658667
0
VERTEX
8
___SYMBOL
62
7
6
CONTINUOUS
10
20.5041293465
20
16.7054199861
0
VERTEX
8
___SYMBOL
62
7
6
CONTINUOUS
10
20.5038640478
20
16.7052654338
0
VERTEX
8
___SYMBOL
62
7
6
CONTINUOUS
10
20.5036039244
20
16.7051023522
0
VERTEX
8
___SYMBOL
62
7
6
CONTINUOUS
10
20.5033492744
20
16.7049308833
0
VERTEX
8
___SYMBOL
62
7
6
CONTINUOUS
10
20.5031003955
20
16.7047511695
0
VERTEX
8
___SYMBOL
62
7
6
CONTINUOUS
10
20.5028575857
20
16.7045633529
0
VERTEX
8
___SYMBOL
62
7
6
CONTINUOUS
10
20.5026211429
20
16.7043675758
0
SEQEND
0
POLYLINE
8
___SYMBOL
62
7
6
CONTINUOUS
66
1
70
0
0
VERTEX
8
___SYMBOL
62
7
6
CONTINUOUS
10
20.3814399226
20
16.7033464037
0
VERTEX
8
___SYMBOL
62
7
6
CONTINUOUS
10
20.3812000859
20
16.7037422941
0
VERTEX
8
___SYMBOL
62
7
6
CONTINUOUS
10
20.3809472385
20
16.7041299906
0
VERTEX
8
___SYMBOL
62
7
6
CONTINUOUS
10
20.3806817347
20
16.7045091431
0
VERTEX
8
___SYMBOL
62
7
6
CONTINUOUS
10
20.3804039285
20
16.7048794014
0
VERTEX
8
___SYMBOL
62
7
6
CONTINUOUS
10
20.3801141740
20
16.7052404154
0
VERTEX
8
___SYMBOL
62
7
6
CONTINUOUS
10
20.3798128252
20
16.7055918348
0
VERTEX
8
___SYMBOL
62
7
6
CONTINUOUS
10
20.3795002362
20
16.7059333096
0
VERTEX
8
___SYMBOL
62
7
6
CONTINUOUS
10
20.3791767611
20
16.7062644897
0
VERTEX
8
___SYMBOL
62
7
6
CONTINUOUS
10
20.3788427540
20
16.7065850247
0
VERTEX
8
___SYMBOL
62
7
6
CONTINUOUS
10
20.3784985690
20
16.7068945647
0
VERTEX
8
___SYMBOL
62
7
6
CONTINUOUS
10
20.3781445601
20
16.7071927594
0
VERTEX
8
___SYMBOL
62
7
6
CONTINUOUS
10
20.3777810813
20
16.7074792587
0
VERTEX
8
___SYMBOL
62
7
6
CONTINUOUS
10
20.3774084869
20
16.7077537124
0
VERTEX
8
___SYMBOL
62
7
6
CONTINUOUS
10
20.3770271308
20
16.7080157705
0
VERTEX
8
___SYMBOL
62
7
6
CONTINUOUS
10
20.3766373671
20
16.7082650826
0
VERTEX
8
___SYMBOL
62
7
6
CONTINUOUS
10
20.3762395499
20
16.7085012988
0
VERTEX
8
___SYMBOL
62
7
6
CONTINUOUS
10
20.3758340553
20
16.7087241058
0
VERTEX
8
___SYMBOL
62
7
6
CONTINUOUS
10
20.3754213474
20
16.7089333387
0
VERTEX
8
___SYMBOL
62
7
6
CONTINUOUS
10
20.3750019124
20
16.7091288694
0
VERTEX
8
___SYMBOL
62
7
6
CONTINUOUS
10
20.3745762363
20
16.7093105699
0
VERTEX
8
___SYMBOL
62
7
6
CONTINUOUS
10
20.3741448054
20
16.7094783124
0
VERTEX
8
___SYMBOL
62
7
6
CONTINUOUS
10
20.3737081058
20
16.7096319687
0
VERTEX
8
___SYMBOL
62
7
6
CONTINUOUS
10
20.3732666236
20
16.7097714109
0
VERTEX
8
___SYMBOL
62
7
6
CONTINUOUS
10
20.3728208449
20
16.7098965110
0
VERTEX
8
___SYMBOL
62
7
6
CONTINUOUS
10
20.3723712560
20
16.7100071411
0
VERTEX
8
___SYMBOL
62
7
6
CONTINUOUS
10
20.3719183428
20
16.7101031730
0
VERTEX
8
___SYMBOL
62
7
6
CONTINUOUS
10
20.3714625917
20
16.7101844789
0
VERTEX
8
___SYMBOL
62
7
6
CONTINUOUS
10
20.3710044887
20
16.7102509308
0
VERTEX
8
___SYMBOL
62
7
6
CONTINUOUS
10
20.3705445199
20
16.7103024006
0
VERTEX
8
___SYMBOL
62
7
6
CONTINUOUS
10
20.3700831715
20
16.7103387603
0
VERTEX
8
___SYMBOL
62
7
6
CONTINUOUS
10
20.3696209297
20
16.7103598821
0
VERTEX
8
___SYMBOL
62
7
6
CONTINUOUS
10
20.3691582805
20
16.7103656378
0
VERTEX
8
___SYMBOL
62
7
6
CONTINUOUS
10
20.3686957092
20
16.7103559425
0
VERTEX
8
___SYMBOL
62
7
6
CONTINUOUS
10
20.3682336974
20
16.7103308837
0
VERTEX
8
___SYMBOL
62
7
6
CONTINUOUS
10
20.3677727256
20
16.7102905917
0
VERTEX
8
___SYMBOL
62
7
6
CONTINUOUS
10
20.3673132744
20
16.7102351968
0
VERTEX
8
___SYMBOL
62
7
6
CONTINUOUS
10
20.3668558246
20
16.7101648296
0
VERTEX
8
___SYMBOL
62
7
6
CONTINUOUS
10
20.3664008566
20
16.7100796203
0
VERTEX
8
___SYMBOL
62
7
6
CONTINUOUS
10
20.3659488512
20
16.7099796994
0
VERTEX
8
___SYMBOL
62
7
6
CONTINUOUS
10
20.3655002888
20
16.7098651972
0
VERTEX
8
___SYMBOL
62
7
6
CONTINUOUS
10
20.3650556502
20
16.7097362443
0
VERTEX
8
___SYMBOL
62
7
6
CONTINUOUS
10
20.3646154160
20
16.7095929709
0
VERTEX
8
___SYMBOL
62
7
6
CONTINUOUS
10
20.3641800667
20
16.7094355075
0
VERTEX
8
___SYMBOL
62
7
6
CONTINUOUS
10
20.3637500830
20
16.7092639844
0
VERTEX
8
___SYMBOL
62
7
6
CONTINUOUS
10
20.3633259454
20
16.7090785321
0
VERTEX
8
___SYMBOL
62
7
6
CONTINUOUS
10
20.3629081347
20
16.7088792810
0
VERTEX
8
___SYMBOL
62
7
6
CONTINUOUS
10
20.3624971315
20
16.7086663614
0
VERTEX
8
___SYMBOL
62
7
6
CONTINUOUS
10
20.3620934162
20
16.7084399038
0
SEQEND
0
LINE
8
___SYMBOL
62
7
6
CONTINUOUS
10
20.5107688629
20
16.6697464975
11
20.5077088629
21
16.6738164975
0
LINE
8
___SYMBOL
62
7
6
CONTINUOUS
10
20.5077088629
20
16.6738164975
11
20.5036388629
21
16.6748364975
0
LINE
8
___SYMBOL
62
7
6
CONTINUOUS
10
20.5036388629
20
16.6748364975
11
20.4934488629
21
16.6748364975
0
POLYLINE
8
___SYMBOL
62
7
6
CONTINUOUS
66
1
70
0
0
VERTEX
8
___SYMBOL
62
7
6
CONTINUOUS
10
20.5507510012
20
16.6727988032
0
VERTEX
8
___SYMBOL
62
7
6
CONTINUOUS
10
20.5509202193
20
16.6726350014
0
VERTEX
8
___SYMBOL
62
7
6
CONTINUOUS
10
20.5510948013
20
16.6724769124
0
VERTEX
8
___SYMBOL
62
7
6
CONTINUOUS
10
20.5512745268
20
16.6723246631
0
VERTEX
8
___SYMBOL
62
7
6
CONTINUOUS
10
20.5514591752
20
16.6721783806
0
VERTEX
8
___SYMBOL
62
7
6
CONTINUOUS
10
20.5516485261
20
16.6720381918
0
VERTEX
8
___SYMBOL
62
7
6
CONTINUOUS
10
20.5518423592
20
16.6719042236
0
VERTEX
8
___SYMBOL
62
7
6
CONTINUOUS
10
20.5520404538
20
16.6717766031
0
VERTEX
8
___SYMBOL
62
7
6
CONTINUOUS
10
20.5522425897
20
16.6716554572
0
VERTEX
8
___SYMBOL
62
7
6
CONTINUOUS
10
20.5524485463
20
16.6715409129
0
VERTEX
8
___SYMBOL
62
7
6
CONTINUOUS
10
20.5526581033
20
16.6714330972
0
VERTEX
8
___SYMBOL
62
7
6
CONTINUOUS
10
20.5528710401
20
16.6713321369
0
VERTEX
8
___SYMBOL
62
7
6
CONTINUOUS
10
20.5530871364
20
16.6712381592
0
VERTEX
8
___SYMBOL
62
7
6
CONTINUOUS
10
20.5533061717
20
16.6711512909
0
VERTEX
8
___SYMBOL
62
7
6
CONTINUOUS
10
20.5535279255
20
16.6710716591
0
VERTEX
8
___SYMBOL
62
7
6
CONTINUOUS
10
20.5537521774
20
16.6709993907
0
VERTEX
8
___SYMBOL
62
7
6
CONTINUOUS
10
20.5539787070
20
16.6709346126
0
VERTEX
8
___SYMBOL
62
7
6
CONTINUOUS
10
20.5542072877
20
16.6708774307
0
VERTEX
8
___SYMBOL
62
7
6
CONTINUOUS
10
20.5544376687
20
16.6708278663
0
VERTEX
8
___SYMBOL
62
7
6
CONTINUOUS
10
20.5546695930
20
16.6707859192
0
VERTEX
8
___SYMBOL
62
7
6
CONTINUOUS
10
20.5549028037
20
16.6707515897
0
VERTEX
8
___SYMBOL
62
7
6
CONTINUOUS
10
20.5551370438
20
16.6707248778
0
VERTEX
8
___SYMBOL
62
7
6
CONTINUOUS
10
20.5553720564
20
16.6707057835
0
VERTEX
8
___SYMBOL
62
7
6
CONTINUOUS
10
20.5556075844
20
16.6706943068
0
VERTEX
8
___SYMBOL
62
7
6
CONTINUOUS
10
20.5558433710
20
16.6706904479
0
VERTEX
8
___SYMBOL
62
7
6
CONTINUOUS
10
20.5560791593
20
16.6706942068
0
VERTEX
8
___SYMBOL
62
7
6
CONTINUOUS
10
20.5563146921
20
16.6707055835
0
VERTEX
8
___SYMBOL
62
7
6
CONTINUOUS
10
20.5565497127
20
16.6707245781
0
VERTEX
8
___SYMBOL
62
7
6
CONTINUOUS
10
20.5567839640
20
16.6707511906
0
VERTEX
8
___SYMBOL
62
7
6
CONTINUOUS
10
20.5570171891
20
16.6707854211
0
VERTEX
8
___SYMBOL
62
7
6
CONTINUOUS
10
20.5572491310
20
16.6708272697
0
VERTEX
8
___SYMBOL
62
7
6
CONTINUOUS
10
20.5574795328
20
16.6708767364
0
VERTEX
8
___SYMBOL
62
7
6
CONTINUOUS
10
20.5577081375
20
16.6709338213
0
VERTEX
8
___SYMBOL
62
7
6
CONTINUOUS
10
20.5579346943
20
16.6709985032
0
VERTEX
8
___SYMBOL
62
7
6
CONTINUOUS
10
20.5581589765
20
16.6710706765
0
VERTEX
8
___SYMBOL
62
7
6
CONTINUOUS
10
20.5583807638
20
16.6711502142
0
VERTEX
8
___SYMBOL
62
7
6
CONTINUOUS
10
20.5585998355
20
16.6712369895
0
VERTEX
8
___SYMBOL
62
7
6
CONTINUOUS
10
20.5588159712
20
16.6713308755
0
VERTEX
8
___SYMBOL
62
7
6
CONTINUOUS
10
20.5590289504
20
16.6714317454
0
VERTEX
8
___SYMBOL
62
7
6
CONTINUOUS
10
20.5592385527
20
16.6715394722
0
VERTEX
8
___SYMBOL
62
7
6
CONTINUOUS
10
20.5594445574
20
16.6716539291
0
VERTEX
8
___SYMBOL
62
7
6
CONTINUOUS
10
20.5596467441
20
16.6717749892
0
VERTEX
8
___SYMBOL
62
7
6
CONTINUOUS
10
20.5598448924
20
16.6719025256
0
VERTEX
8
___SYMBOL
62
7
6
CONTINUOUS
10
20.5600387817
20
16.6720364115
0
VERTEX
8
___SYMBOL
62
7
6
CONTINUOUS
10
20.5602281915
20
16.6721765200
0
VERTEX
8
___SYMBOL
62
7
6
CONTINUOUS
10
20.5604129013
20
16.6723227241
0
VERTEX
8
___SYMBOL
62
7
6
CONTINUOUS
10
20.5605926907
20
16.6724748971
0
VERTEX
8
___SYMBOL
62
7
6
CONTINUOUS
10
20.5607673391
20
16.6726329120
0
VERTEX
8
___SYMBOL
62
7
6
CONTINUOUS
10
20.5609366261
20
16.6727966420
0
SEQEND
0
POLYLINE
8
___SYMBOL
62
7
6
CONTINUOUS
66
1
70
0
0
VERTEX
8
___SYMBOL
62
7
6
CONTINUOUS
10
20.3020104928
20
16.6850175363
0
VERTEX
8
___SYMBOL
62
7
6
CONTINUOUS
10
20.3019546678
20
16.6853663045
0
VERTEX
8
___SYMBOL
62
7
6
CONTINUOUS
10
20.3018872735
20
16.6857130400
0
VERTEX
8
___SYMBOL
62
7
6
CONTINUOUS
10
20.3018084603
20
16.6860573924
0
VERTEX
8
___SYMBOL
62
7
6
CONTINUOUS
10
20.3017183784
20
16.6863990111
0
VERTEX
8
___SYMBOL
62
7
6
CONTINUOUS
10
20.3016171782
20
16.6867375459
0
VERTEX
8
___SYMBOL
62
7
6
CONTINUOUS
10
20.3015050100
20
16.6870726461
0
VERTEX
8
___SYMBOL
62
7
6
CONTINUOUS
10
20.3013820241
20
16.6874039613
0
VERTEX
8
___SYMBOL
62
7
6
CONTINUOUS
10
20.3012483707
20
16.6877311411
0
VERTEX
8
___SYMBOL
62
7
6
CONTINUOUS
10
20.3011042002
20
16.6880538350
0
VERTEX
8
___SYMBOL
62
7
6
CONTINUOUS
10
20.3009496629
20
16.6883716926
0
VERTEX
8
___SYMBOL
62
7
6
CONTINUOUS
10
20.3007849091
20
16.6886843635
0
VERTEX
8
___SYMBOL
62
7
6
CONTINUOUS
10
20.3006100891
20
16.6889914970
0
VERTEX
8
___SYMBOL
62
7
6
CONTINUOUS
10
20.3004253532
20
16.6892927429
0
VERTEX
8
___SYMBOL
62
7
6
CONTINUOUS
10
20.3002308517
20
16.6895877506
0
VERTEX
8
___SYMBOL
62
7
6
CONTINUOUS
10
20.3000267350
20
16.6898761696
0
VERTEX
8
___SYMBOL
62
7
6
CONTINUOUS
10
20.2998131533
20
16.6901576496
0
VERTEX
8
___SYMBOL
62
7
6
CONTINUOUS
10
20.2995902832
20
16.6904318600
0
VERTEX
8
___SYMBOL
62
7
6
CONTINUOUS
10
20.2993584066
20
16.6906985498
0
VERTEX
8
___SYMBOL
62
7
6
CONTINUOUS
10
20.2991178315
20
16.6909574879
0
VERTEX
8
___SYMBOL
62
7
6
CONTINUOUS
10
20.2988688661
20
16.6912084433
0
VERTEX
8
___SYMBOL
62
7
6
CONTINUOUS
10
20.2986118184
20
16.6914511848
0
VERTEX
8
___SYMBOL
62
7
6
CONTINUOUS
10
20.2983469966
20
16.6916854815
0
VERTEX
8
___SYMBOL
62
7
6
CONTINUOUS
10
20.2980747088
20
16.6919111022
0
VERTEX
8
___SYMBOL
62
7
6
CONTINUOUS
10
20.2977952630
20
16.6921278159
0
VERTEX
8
___SYMBOL
62
7
6
CONTINUOUS
10
20.2975089675
20
16.6923353915
0
VERTEX
8
___SYMBOL
62
7
6
CONTINUOUS
10
20.2972161302
20
16.6925335980
0
VERTEX
8
___SYMBOL
62
7
6
CONTINUOUS
10
20.2969170593
20
16.6927222042
0
VERTEX
8
___SYMBOL
62
7
6
CONTINUOUS
10
20.2966120629
20
16.6929009792
0
VERTEX
8
___SYMBOL
62
7
6
CONTINUOUS
10
20.2963014491
20
16.6930696917
0
VERTEX
8
___SYMBOL
62
7
6
CONTINUOUS
10
20.2959855260
20
16.6932281109
0
VERTEX
8
___SYMBOL
62
7
6
CONTINUOUS
10
20.2956646018
20
16.6933760055
0
VERTEX
8
___SYMBOL
62
7
6
CONTINUOUS
10
20.2953389844
20
16.6935131445
0
VERTEX
8
___SYMBOL
62
7
6
CONTINUOUS
10
20.2950089938
20
16.6936393277
0
VERTEX
8
___SYMBOL
62
7
6
CONTINUOUS
10
20.2946749967
20
16.6937544782
0
VERTEX
8
___SYMBOL
62
7
6
CONTINUOUS
10
20.2943373715
20
16.6938585499
0
VERTEX
8
___SYMBOL
62
7
6
CONTINUOUS
10
20.2939964967
20
16.6939514965
0
VERTEX
8
___SYMBOL
62
7
6
CONTINUOUS
10
20.2936527507
20
16.6940332722
0
VERTEX
8
___SYMBOL
62
7
6
CONTINUOUS
10
20.2933065120
20
16.6941038307
0
VERTEX
8
___SYMBOL
62
7
6
CONTINUOUS
10
20.2929581591
20
16.6941631260
0
VERTEX
8
___SYMBOL
62
7
6
CONTINUOUS
10
20.2926080703
20
16.6942111120
0
VERTEX
8
___SYMBOL
62
7
6
CONTINUOUS
10
20.2922566241
20
16.6942477426
0
VERTEX
8
___SYMBOL
62
7
6
CONTINUOUS
10
20.2919041991
20
16.6942729716
0
VERTEX
8
___SYMBOL
62
7
6
CONTINUOUS
10
20.2915511736
20
16.6942867530
0
VERTEX
8
___SYMBOL
62
7
6
CONTINUOUS
10
20.2911979260
20
16.6942890407
0
VERTEX
8
___SYMBOL
62
7
6
CONTINUOUS
10
20.2908448349
20
16.6942797886
0
VERTEX
8
___SYMBOL
62
7
6
CONTINUOUS
10
20.2904922787
20
16.6942589506
0
VERTEX
8
___SYMBOL
62
7
6
CONTINUOUS
10
20.2901406359
20
16.6942264806
0
VERTEX
8
___SYMBOL
62
7
6
CONTINUOUS
10
20.2897902848
20
16.6941823325
0
SEQEND
0
POLYLINE
8
___SYMBOL
62
7
6
CONTINUOUS
66
1
70
0
0
VERTEX
8
___SYMBOL
62
7
6
CONTINUOUS
10
20.4221731340
20
16.7013051543
0
VERTEX
8
___SYMBOL
62
7
6
CONTINUOUS
10
20.4221207789
20
16.7014543390
0
VERTEX
8
___SYMBOL
62
7
6
CONTINUOUS
10
20.4220635001
20
16.7016016988
0
VERTEX
8
___SYMBOL
62
7
6
CONTINUOUS
10
20.4220013914
20
16.7017470918
0
VERTEX
8
___SYMBOL
62
7
6
CONTINUOUS
10
20.4219345465
20
16.7018903760
0
VERTEX
8
___SYMBOL
62
7
6
CONTINUOUS
10
20.4218630591
20
16.7020314095
0
VERTEX
8
___SYMBOL
62
7
6
CONTINUOUS
10
20.4217870230
20
16.7021700503
0
VERTEX
8
___SYMBOL
62
7
6
CONTINUOUS
10
20.4217065321
20
16.7023061566
0
VERTEX
8
___SYMBOL
62
7
6
CONTINUOUS
10
20.4216216799
20
16.7024395863
0
VERTEX
8
___SYMBOL
62
7
6
CONTINUOUS
10
20.4215325604
20
16.7025701976
0
VERTEX
8
___SYMBOL
62
7
6
CONTINUOUS
10
20.4214392671
20
16.7026978485
0
VERTEX
8
___SYMBOL
62
7
6
CONTINUOUS
10
20.4213418940
20
16.7028223971
0
VERTEX
8
___SYMBOL
62
7
6
CONTINUOUS
10
20.4212405347
20
16.7029437015
0
VERTEX
8
___SYMBOL
62
7
6
CONTINUOUS
10
20.4211352831
20
16.7030616197
0
VERTEX
8
___SYMBOL
62
7
6
CONTINUOUS
10
20.4210262327
20
16.7031760097
0
VERTEX
8
___SYMBOL
62
7
6
CONTINUOUS
10
20.4209134775
20
16.7032867298
0
VERTEX
8
___SYMBOL
62
7
6
CONTINUOUS
10
20.4207971112
20
16.7033936378
0
VERTEX
8
___SYMBOL
62
7
6
CONTINUOUS
10
20.4206772374
20
16.7034966028
0
VERTEX
8
___SYMBOL
62
7
6
CONTINUOUS
10
20.4205539998
20
16.7035955369
0
VERTEX
8
___SYMBOL
62
7
6
CONTINUOUS
10
20.4204275517
20
16.7036903632
0
VERTEX
8
___SYMBOL
62
7
6
CONTINUOUS
10
20.4202980468
20
16.7037810048
0
VERTEX
8
___SYMBOL
62
7
6
CONTINUOUS
10
20.4201656385
20
16.7038673847
0
VERTEX
8
___SYMBOL
62
7
6
CONTINUOUS
10
20.4200304803
20
16.7039494259
0
VERTEX
8
___SYMBOL
62
7
6
CONTINUOUS
10
20.4198927257
20
16.7040270517
0
VERTEX
8
___SYMBOL
62
7
6
CONTINUOUS
10
20.4197525282
20
16.7041001849
0
VERTEX
8
___SYMBOL
62
7
6
CONTINUOUS
10
20.4196100413
20
16.7041687487
0
VERTEX
8
___SYMBOL
62
7
6
CONTINUOUS
10
20.4194654185
20
16.7042326661
0
VERTEX
8
___SYMBOL
62
7
6
CONTINUOUS
10
20.4193188132
20
16.7042918602
0
VERTEX
8
___SYMBOL
62
7
6
CONTINUOUS
10
20.4191703791
20
16.7043462540
0
VERTEX
8
___SYMBOL
62
7
6
CONTINUOUS
10
20.4190202695
20
16.7043957706
0
VERTEX
8
___SYMBOL
62
7
6
CONTINUOUS
10
20.4188686380
20
16.7044403330
0
VERTEX
8
___SYMBOL
62
7
6
CONTINUOUS
10
20.4187156381
20
16.7044798644
0
VERTEX
8
___SYMBOL
62
7
6
CONTINUOUS
10
20.4185614233
20
16.7045142878
0
VERTEX
8
___SYMBOL
62
7
6
CONTINUOUS
10
20.4184061497
20
16.7045435406
0
VERTEX
8
___SYMBOL
62
7
6
CONTINUOUS
10
20.4182499845
20
16.7045676183
0
VERTEX
8
___SYMBOL
62
7
6
CONTINUOUS
10
20.4180930975
20
16.7045865307
0
VERTEX
8
___SYMBOL
62
7
6
CONTINUOUS
10
20.4179356584
20
16.7046002876
0
VERTEX
8
___SYMBOL
62
7
6
CONTINUOUS
10
20.4177778370
20
16.7046088989
0
VERTEX
8
___SYMBOL
62
7
6
CONTINUOUS
10
20.4176198032
20
16.7046123743
0
VERTEX
8
___SYMBOL
62
7
6
CONTINUOUS
10
20.4174617267
20
16.7046107238
0
VERTEX
8
___SYMBOL
62
7
6
CONTINUOUS
10
20.4173037773
20
16.7046039570
0
VERTEX
8
___SYMBOL
62
7
6
CONTINUOUS
10
20.4171461248
20
16.7045920840
0
VERTEX
8
___SYMBOL
62
7
6
CONTINUOUS
10
20.4169889390
20
16.7045751144
0
VERTEX
8
___SYMBOL
62
7
6
CONTINUOUS
10
20.4168323896
20
16.7045530582
0
VERTEX
8
___SYMBOL
62
7
6
CONTINUOUS
10
20.4166766466
20
16.7045259251
0
VERTEX
8
___SYMBOL
62
7
6
CONTINUOUS
10
20.4165218796
20
16.7044937251
0
VERTEX
8
___SYMBOL
62
7
6
CONTINUOUS
10
20.4163682585
20
16.7044564678
0
VERTEX
8
___SYMBOL
62
7
6
CONTINUOUS
10
20.4162159530
20
16.7044141631
0
VERTEX
8
___SYMBOL
62
7
6
CONTINUOUS
10
20.4160651330
20
16.7043668210
0
SEQEND
0
POLYLINE
8
___SYMBOL
62
7
6
CONTINUOUS
66
1
70
0
0
VERTEX
8
___SYMBOL
62
7
6
CONTINUOUS
10
20.6457319825
20
16.6997960136
0
VERTEX
8
___SYMBOL
62
7
6
CONTINUOUS
10
20.6458121933
20
16.6999805833
0
VERTEX
8
___SYMBOL
62
7
6
CONTINUOUS
10
20.6458862281
20
16.7001677119
0
VERTEX
8
___SYMBOL
62
7
6
CONTINUOUS
10
20.6459540517
20
16.7003571857
0
VERTEX
8
___SYMBOL
62
7
6
CONTINUOUS
10
20.6460156288
20
16.7005487912
0
VERTEX
8
___SYMBOL
62
7
6
CONTINUOUS
10
20.6460709241
20
16.7007423149
0
VERTEX
8
___SYMBOL
62
7
6
CONTINUOUS
10
20.6461199023
20
16.7009375432
0
VERTEX
8
___SYMBOL
62
7
6
CONTINUOUS
10
20.6461625282
20
16.7011342624
0
VERTEX
8
___SYMBOL
62
7
6
CONTINUOUS
10
20.6461987665
20
16.7013322591
0
VERTEX
8
___SYMBOL
62
7
6
CONTINUOUS
10
20.6462285820
20
16.7015313195
0
VERTEX
8
___SYMBOL
62
7
6
CONTINUOUS
10
20.6462519392
20
16.7017312303
0
VERTEX
8
___SYMBOL
62
7
6
CONTINUOUS
10
20.6462688031
20
16.7019317777
0
VERTEX
8
___SYMBOL
62
7
6
CONTINUOUS
10
20.6462791383
20
16.7021327483
0
VERTEX
8
___SYMBOL
62
7
6
CONTINUOUS
10
20.6462829095
20
16.7023339284
0
VERTEX
8
___SYMBOL
62
7
6
CONTINUOUS
10
20.6462800814
20
16.7025351044
0
VERTEX
8
___SYMBOL
62
7
6
CONTINUOUS
10
20.6462706188
20
16.7027360629
0
VERTEX
8
___SYMBOL
62
7
6
CONTINUOUS
10
20.6462544864
20
16.7029365901
0
VERTEX
8
___SYMBOL
62
7
6
CONTINUOUS
10
20.6462316676
20
16.7031364741
0
VERTEX
8
___SYMBOL
62
7
6
CONTINUOUS
10
20.6462022205
20
16.7033355087
0
VERTEX
8
___SYMBOL
62
7
6
CONTINUOUS
10
20.6461662217
20
16.7035334893
0
VERTEX
8
___SYMBOL
62
7
6
CONTINUOUS
10
20.6461237479
20
16.7037302111
0
VERTEX
8
___SYMBOL
62
7
6
CONTINUOUS
10
20.6460748759
20
16.7039254697
0
VERTEX
8
___SYMBOL
62
7
6
CONTINUOUS
10
20.6460196823
20
16.7041190602
0
VERTEX
8
___SYMBOL
62
7
6
CONTINUOUS
10
20.6459582438
20
16.7043107781
0
VERTEX
8
___SYMBOL
62
7
6
CONTINUOUS
10
20.6458906373
20
16.7045004187
0
VERTEX
8
___SYMBOL
62
7
6
CONTINUOUS
10
20.6458169392
20
16.7046877774
0
VERTEX
8
___SYMBOL
62
7
6
CONTINUOUS
10
20.6457372265
20
16.7048726496
0
VERTEX
8
___SYMBOL
62
7
6
CONTINUOUS
10
20.6456515757
20
16.7050548305
0
VERTEX
8
___SYMBOL
62
7
6
CONTINUOUS
10
20.6455600636
20
16.7052341156
0
VERTEX
8
___SYMBOL
62
7
6
CONTINUOUS
10
20.6454627669
20
16.7054103002
0
VERTEX
8
___SYMBOL
62
7
6
CONTINUOUS
10
20.6453597622
20
16.7055831796
0
VERTEX
8
___SYMBOL
62
7
6
CONTINUOUS
10
20.6452511264
20
16.7057525492
0
VERTEX
8
___SYMBOL
62
7
6
CONTINUOUS
10
20.6451369360
20
16.7059182045
0
VERTEX
8
___SYMBOL
62
7
6
CONTINUOUS
10
20.6450172828
20
16.7060799517
0
VERTEX
8
___SYMBOL
62
7
6
CONTINUOUS
10
20.6448923189
20
16.7062376421
0
VERTEX
8
___SYMBOL
62
7
6
CONTINUOUS
10
20.6447622110
20
16.7063911377
0
VERTEX
8
___SYMBOL
62
7
6
CONTINUOUS
10
20.6446271263
20
16.7065403009
0
VERTEX
8
___SYMBOL
62
7
6
CONTINUOUS
10
20.6444872317
20
16.7066849938
0
VERTEX
8
___SYMBOL
62
7
6
CONTINUOUS
10
20.6443426942
20
16.7068250785
0
VERTEX
8
___SYMBOL
62
7
6
CONTINUOUS
10
20.6441936807
20
16.7069604173
0
VERTEX
8
___SYMBOL
62
7
6
CONTINUOUS
10
20.6440403583
20
16.7070908723
0
VERTEX
8
___SYMBOL
62
7
6
CONTINUOUS
10
20.6438828939
20
16.7072163058
0
VERTEX
8
___SYMBOL
62
7
6
CONTINUOUS
10
20.6437214545
20
16.7073365799
0
VERTEX
8
___SYMBOL
62
7
6
CONTINUOUS
10
20.6435562070
20
16.7074515569
0
VERTEX
8
___SYMBOL
62
7
6
CONTINUOUS
10
20.6433873185
20
16.7075610988
0
VERTEX
8
___SYMBOL
62
7
6
CONTINUOUS
10
20.6432149559
20
16.7076650680
0
VERTEX
8
___SYMBOL
62
7
6
CONTINUOUS
10
20.6430392862
20
16.7077633266
0
VERTEX
8
___SYMBOL
62
7
6
CONTINUOUS
10
20.6428604764
20
16.7078557368
0
VERTEX
8
___SYMBOL
62
7
6
CONTINUOUS
10
20.6426786934
20
16.7079421608
0
SEQEND
0
LINE
8
___SYMBOL
62
7
6
CONTINUOUS
10
20.6373662934
20
16.6761828080
11
20.6220962934
21
16.6782228080
0
LINE
8
___SYMBOL
62
7
6
CONTINUOUS
10
20.6220962934
20
16.6782228080
11
20.6159862934
21
16.6802528080
0
LINE
8
___SYMBOL
62
7
6
CONTINUOUS
10
20.6159862934
20
16.6802528080
11
20.6088562934
21
16.6802528080
0
LINE
8
___SYMBOL
62
2
6
CONTINUOUS
10
20.3356188629
20
16.6188264975
11
20.3819488629
21
16.6615964975
0
LINE
8
___SYMBOL
62
2
6
CONTINUOUS
10
20.3902688629
20
16.6188264975
11
20.4365988629
21
16.6615964975
0
LINE
8
___SYMBOL
62
2
6
CONTINUOUS
10
20.4579788629
20
16.6188264975
11
20.5043188629
21
16.6615964975
0
LINE
8
___SYMBOL
62
2
6
CONTINUOUS
10
20.5173888629
20
16.6188264975
11
20.5637188629
21
16.6615964975
0
LINE
8
___SYMBOL
62
2
6
CONTINUOUS
10
20.5755988629
20
16.6188264975
11
20.6219288629
21
16.6615964975
0
LINE
8
___SYMBOL
62
2
6
CONTINUOUS
10
20.6326188629
20
16.6188264975
11
20.6789588629
21
16.6615964975
0
LINE
8
___SYMBOL
62
2
6
CONTINUOUS
10
20.6967788629
20
16.6188264975
11
20.7401089131
21
16.6588234669
0
LINE
8
___SYMBOL
62
2
6
CONTINUOUS
10
20.7832805948
20
16.5730145413
11
20.8148082577
21
16.6021265474
0
LINE
8
___SYMBOL
62
2
6
CONTINUOUS
10
20.7918188629
20
16.5081578725
11
20.8322088629
21
16.5454464975
0
LINE
8
___SYMBOL
62
2
6
CONTINUOUS
10
20.7918188629
20
16.4461064975
11
20.8322088629
21
16.4833864975
0
LINE
8
___SYMBOL
62
2
6
CONTINUOUS
10
20.7918188629
20
16.3760164975
11
20.8322088629
21
16.4132964975
0
LINE
8
___SYMBOL
62
2
6
CONTINUOUS
10
20.7918188629
20
16.3059164975
11
20.8322088629
21
16.3432064975
0
LINE
8
___SYMBOL
62
2
6
CONTINUOUS
10
20.7918188629
20
16.2298864975
11
20.8322088629
21
16.2671664975
0
LINE
8
___SYMBOL
62
2
6
CONTINUOUS
10
20.7918188629
20
16.1645464975
11
20.8322088629
21
16.2018264975
0
LINE
8
___SYMBOL
62
2
6
CONTINUOUS
10
20.7918188629
20
16.0980164975
11
20.8322088629
21
16.1352964975
0
LINE
8
___SYMBOL
62
2
6
CONTINUOUS
10
20.7918188629
20
16.0207964975
11
20.8322088629
21
16.0580764975
0
LINE
8
___SYMBOL
62
2
6
CONTINUOUS
10
20.7918188629
20
15.9518864975
11
20.8322088629
21
15.9891664975
0
LINE
8
___SYMBOL
62
2
6
CONTINUOUS
10
20.7918188629
20
15.8817964975
11
20.8322088629
21
15.9190764975
0
LINE
8
___SYMBOL
62
2
6
CONTINUOUS
10
20.7918188629
20
15.8235834206
11
20.8322088629
21
15.8608664975
0
POLYLINE
8
___SYMBOL
62
7
6
CONTINUOUS
66
1
70
0
0
VERTEX
8
___SYMBOL
62
7
6
CONTINUOUS
10
20.6545079116
20
16.7257464975
0
VERTEX
8
___SYMBOL
62
7
6
CONTINUOUS
10
20.6545111257
20
16.7246261519
0
VERTEX
8
___SYMBOL
62
7
6
CONTINUOUS
10
20.6545202485
20
16.7234882520
0
VERTEX
8
___SYMBOL
62
7
6
CONTINUOUS
10
20.6545345004
20
16.7223338359
0
VERTEX
8
___SYMBOL
62
7
6
CONTINUOUS
10
20.6545531020
20
16.7211639419
0
VERTEX
8
___SYMBOL
62
7
6
CONTINUOUS
10
20.6545752741
20
16.7199796080
0
VERTEX
8
___SYMBOL
62
7
6
CONTINUOUS
10
20.6546002370
20
16.7187818724
0
VERTEX
8
___SYMBOL
62
7
6
CONTINUOUS
10
20.6546272114
20
16.7175717733
0
VERTEX
8
___SYMBOL
62
7
6
CONTINUOUS
10
20.6546554179
20
16.7163503488
0
VERTEX
8
___SYMBOL
62
7
6
CONTINUOUS
10
20.6546840770
20
16.7151186371
0
VERTEX
8
___SYMBOL
62
7
6
CONTINUOUS
10
20.6547124093
20
16.7138776762
0
VERTEX
8
___SYMBOL
62
7
6
CONTINUOUS
10
20.6547396355
20
16.7126285045
0
VERTEX
8
___SYMBOL
62
7
6
CONTINUOUS
10
20.6547649759
20
16.7113721599
0
VERTEX
8
___SYMBOL
62
7
6
CONTINUOUS
10
20.6547876514
20
16.7101096807
0
VERTEX
8
___SYMBOL
62
7
6
CONTINUOUS
10
20.6548068823
20
16.7088421051
0
VERTEX
8
___SYMBOL
62
7
6
CONTINUOUS
10
20.6548218893
20
16.7075704711
0
VERTEX
8
___SYMBOL
62
7
6
CONTINUOUS
10
20.6548318930
20
16.7062958169
0
VERTEX
8
___SYMBOL
62
7
6
CONTINUOUS
10
20.6548361139
20
16.7050191808
0
VERTEX
8
___SYMBOL
62
7
6
CONTINUOUS
10
20.6548337726
20
16.7037416007
0
VERTEX
8
___SYMBOL
62
7
6
CONTINUOUS
10
20.6548240898
20
16.7024641149
0
VERTEX
8
___SYMBOL
62
7
6
CONTINUOUS
10
20.6548062858
20
16.7011877616
0
VERTEX
8
___SYMBOL
62
7
6
CONTINUOUS
10
20.6547795815
20
16.6999135788
0
VERTEX
8
___SYMBOL
62
7
6
CONTINUOUS
10
20.6547431972
20
16.6986426048
0
VERTEX
8
___SYMBOL
62
7
6
CONTINUOUS
10
20.6546963536
20
16.6973758776
0
VERTEX
8
___SYMBOL
62
7
6
CONTINUOUS
10
20.6546382713
20
16.6961144355
0
VERTEX
8
___SYMBOL
62
7
6
CONTINUOUS
10
20.6545681708
20
16.6948593166
0
VERTEX
8
___SYMBOL
62
7
6
CONTINUOUS
10
20.6544852728
20
16.6936115590
0
VERTEX
8
___SYMBOL
62
7
6
CONTINUOUS
10
20.6543887977
20
16.6923722009
0
VERTEX
8
___SYMBOL
62
7
6
CONTINUOUS
10
20.6542779662
20
16.6911422805
0
VERTEX
8
___SYMBOL
62
7
6
CONTINUOUS
10
20.6541519988
20
16.6899228358
0
VERTEX
8
___SYMBOL
62
7
6
CONTINUOUS
10
20.6540101162
20
16.6887149051
0
VERTEX
8
___SYMBOL
62
7
6
CONTINUOUS
10
20.6538515388
20
16.6875195264
0
VERTEX
8
___SYMBOL
62
7
6
CONTINUOUS
10
20.6536754873
20
16.6863377381
0
VERTEX
8
___SYMBOL
62
7
6
CONTINUOUS
10
20.6534811822
20
16.6851705781
0
VERTEX
8
___SYMBOL
62
7
6
CONTINUOUS
10
20.6532678442
20
16.6840190847
0
VERTEX
8
___SYMBOL
62
7
6
CONTINUOUS
10
20.6530346937
20
16.6828842959
0
VERTEX
8
___SYMBOL
62
7
6
CONTINUOUS
10
20.6527809514
20
16.6817672501
0
VERTEX
8
___SYMBOL
62
7
6
CONTINUOUS
10
20.6525058378
20
16.6806689852
0
VERTEX
8
___SYMBOL
62
7
6
CONTINUOUS
10
20.6522085736
20
16.6795905395
0
VERTEX
8
___SYMBOL
62
7
6
CONTINUOUS
10
20.6518883792
20
16.6785329511
0
VERTEX
8
___SYMBOL
62
7
6
CONTINUOUS
10
20.6515444753
20
16.6774972581
0
VERTEX
8
___SYMBOL
62
7
6
CONTINUOUS
10
20.6511760824
20
16.6764844988
0
VERTEX
8
___SYMBOL
62
7
6
CONTINUOUS
10
20.6507824212
20
16.6754957112
0
VERTEX
8
___SYMBOL
62
7
6
CONTINUOUS
10
20.6503627121
20
16.6745319336
0
VERTEX
8
___SYMBOL
62
7
6
CONTINUOUS
10
20.6499161758
20
16.6735942040
0
VERTEX
8
___SYMBOL
62
7
6
CONTINUOUS
10
20.6494420329
20
16.6726835606
0
VERTEX
8
___SYMBOL
62
7
6
CONTINUOUS
10
20.6489395038
20
16.6718010416
0
VERTEX
8
___SYMBOL
62
7
6
CONTINUOUS
10
20.6484078092
20
16.6709476851
0
VERTEX
8
___SYMBOL
62
7
6
CONTINUOUS
10
20.6478461698
20
16.6701245293
0
VERTEX
8
___SYMBOL
62
7
6
CONTINUOUS
10
20.6472538059
20
16.6693326123
0
VERTEX
8
___SYMBOL
62
7
6
CONTINUOUS
10
20.6466299383
20
16.6685729722
0
VERTEX
8
___SYMBOL
62
7
6
CONTINUOUS
10
20.6459737874
20
16.6678466473
0
VERTEX
8
___SYMBOL
62
7
6
CONTINUOUS
10
20.6452845739
20
16.6671546757
0
VERTEX
8
___SYMBOL
62
7
6
CONTINUOUS
10
20.6445615184
20
16.6664980955
0
VERTEX
8
___SYMBOL
62
7
6
CONTINUOUS
10
20.6438038413
20
16.6658779449
0
VERTEX
8
___SYMBOL
62
7
6
CONTINUOUS
10
20.6430107634
20
16.6652952620
0
VERTEX
8
___SYMBOL
62
7
6
CONTINUOUS
10
20.6421815051
20
16.6647510850
0
VERTEX
8
___SYMBOL
62
7
6
CONTINUOUS
10
20.6414746506
20
16.6643347030
0
VERTEX
8
___SYMBOL
62
7
6
CONTINUOUS
10
20.6407425629
20
16.6639454308
0
VERTEX
8
___SYMBOL
62
7
6
CONTINUOUS
10
20.6399848135
20
16.6635838393
0
VERTEX
8
___SYMBOL
62
7
6
CONTINUOUS
10
20.6392009737
20
16.6632504992
0
VERTEX
8
___SYMBOL
62
7
6
CONTINUOUS
10
20.6383906151
20
16.6629459813
0
VERTEX
8
___SYMBOL
62
7
6
CONTINUOUS
10
20.6375533092
20
16.6626708564
0
VERTEX
8
___SYMBOL
62
7
6
CONTINUOUS
10
20.6366886274
20
16.6624256952
0
VERTEX
8
___SYMBOL
62
7
6
CONTINUOUS
10
20.6357961411
20
16.6622110685
0
VERTEX
8
___SYMBOL
62
7
6
CONTINUOUS
10
20.6348754219
20
16.6620275472
0
VERTEX
8
___SYMBOL
62
7
6
CONTINUOUS
10
20.6339260413
20
16.6618757020
0
VERTEX
8
___SYMBOL
62
7
6
CONTINUOUS
10
20.6329475706
20
16.6617561036
0
VERTEX
8
___SYMBOL
62
7
6
CONTINUOUS
10
20.6319395814
20
16.6616693229
0
VERTEX
8
___SYMBOL
62
7
6
CONTINUOUS
10
20.6309016451
20
16.6616159306
0
VERTEX
8
___SYMBOL
62
7
6
CONTINUOUS
10
20.6298333332
20
16.6615964975
0
SEQEND
0
ENDBLK
8
0
6
BYBLOCK
62
0
0
BLOCK
8
___SYMBOL
62
2
6
CONTINUOUS
2
REVEAL-NOREVEAL_BL1
70
64
10
20.0042992504
20
14.5588395680
0
LINE
8
___SYMBOL
62
7
6
CONTINUOUS
10
20.8755978725
20
13.8863395680
11
20.8755978725
21
14.5872795680
0
POLYLINE
8
___SYMBOL
62
7
6
CONTINUOUS
66
1
70
0
0
VERTEX
8
___SYMBOL
62
7
6
CONTINUOUS
10
20.8756006282
20
14.5872787005
0
VERTEX
8
___SYMBOL
62
7
6
CONTINUOUS
10
20.8755372808
20
14.5914185076
0
VERTEX
8
___SYMBOL
62
7
6
CONTINUOUS
10
20.8753479569
20
14.5955518308
0
VERTEX
8
___SYMBOL
62
7
6
CONTINUOUS
10
20.8750336997
20
14.5996744562
0
VERTEX
8
___SYMBOL
62
7
6
CONTINUOUS
10
20.8745955522
20
14.6037821698
0
VERTEX
8
___SYMBOL
62
7
6
CONTINUOUS
10
20.8740345575
20
14.6078707578
0
VERTEX
8
___SYMBOL
62
7
6
CONTINUOUS
10
20.8733517587
20
14.6119360063
0
VERTEX
8
___SYMBOL
62
7
6
CONTINUOUS
10
20.8725481987
20
14.6159737014
0
VERTEX
8
___SYMBOL
62
7
6
CONTINUOUS
10
20.8716249206
20
14.6199796290
0
VERTEX
8
___SYMBOL
62
7
6
CONTINUOUS
10
20.8705829675
20
14.6239495754
0
VERTEX
8
___SYMBOL
62
7
6
CONTINUOUS
10
20.8694233824
20
14.6278793266
0
VERTEX
8
___SYMBOL
62
7
6
CONTINUOUS
10
20.8681472084
20
14.6317646687
0
VERTEX
8
___SYMBOL
62
7
6
CONTINUOUS
10
20.8667554885
20
14.6356013878
0
VERTEX
8
___SYMBOL
62
7
6
CONTINUOUS
10
20.8652492659
20
14.6393852699
0
VERTEX
8
___SYMBOL
62
7
6
CONTINUOUS
10
20.8636295834
20
14.6431121012
0
VERTEX
8
___SYMBOL
62
7
6
CONTINUOUS
10
20.8618974842
20
14.6467776678
0
VERTEX
8
___SYMBOL
62
7
6
CONTINUOUS
10
20.8600540114
20
14.6503777557
0
VERTEX
8
___SYMBOL
62
7
6
CONTINUOUS
10
20.8581005123
20
14.6539083362
0
VERTEX
8
___SYMBOL
62
7
6
CONTINUOUS
10
20.8560395512
20
14.6573661214
0
VERTEX
8
___SYMBOL
62
7
6
CONTINUOUS
10
20.8538739969
20
14.6607480084
0
VERTEX
8
___SYMBOL
62
7
6
CONTINUOUS
10
20.8516067182
20
14.6640508946
0
VERTEX
8
___SYMBOL
62
7
6
CONTINUOUS
10
20.8492405836
20
14.6672716771
0
VERTEX
8
___SYMBOL
62
7
6
CONTINUOUS
10
20.8467784620
20
14.6704072531
0
VERTEX
8
___SYMBOL
62
7
6
CONTINUOUS
10
20.8442232219
20
14.6734545200
0
VERTEX
8
___SYMBOL
62
7
6
CONTINUOUS
10
20.8415777323
20
14.6764103749
0
VERTEX
8
___SYMBOL
62
7
6
CONTINUOUS
10
20.8388448616
20
14.6792717151
0
VERTEX
8
___SYMBOL
62
7
6
CONTINUOUS
10
20.8360274787
20
14.6820354377
0
VERTEX
8
___SYMBOL
62
7
6
CONTINUOUS
10
20.8331284522
20
14.6846984401
0
VERTEX
8
___SYMBOL
62
7
6
CONTINUOUS
10
20.8301506509
20
14.6872576194
0
VERTEX
8
___SYMBOL
62
7
6
CONTINUOUS
10
20.8270969434
20
14.6897098729
0
VERTEX
8
___SYMBOL
62
7
6
CONTINUOUS
10
20.8239701985
20
14.6920520977
0
VERTEX
8
___SYMBOL
62
7
6
CONTINUOUS
10
20.8207732848
20
14.6942811913
0
VERTEX
8
___SYMBOL
62
7
6
CONTINUOUS
10
20.8175090711
20
14.6963940506
0
VERTEX
8
___SYMBOL
62
7
6
CONTINUOUS
10
20.8143781037
20
14.6982739405
0
VERTEX
8
___SYMBOL
62
7
6
CONTINUOUS
10
20.8111933102
20
14.7000471797
0
VERTEX
8
___SYMBOL
62
7
6
CONTINUOUS
10
20.8079579388
20
14.7017128276
0
VERTEX
8
___SYMBOL
62
7
6
CONTINUOUS
10
20.8046752376
20
14.7032699439
0
VERTEX
8
___SYMBOL
62
7
6
CONTINUOUS
10
20.8013484546
20
14.7047175880
0
VERTEX
8
___SYMBOL
62
7
6
CONTINUOUS
10
20.7979808379
20
14.7060548194
0
VERTEX
8
___SYMBOL
62
7
6
CONTINUOUS
10
20.7945756357
20
14.7072806976
0
VERTEX
8
___SYMBOL
62
7
6
CONTINUOUS
10
20.7911360960
20
14.7083942822
0
VERTEX
8
___SYMBOL
62
7
6
CONTINUOUS
10
20.7876654668
20
14.7093946326
0
VERTEX
8
___SYMBOL
62
7
6
CONTINUOUS
10
20.7841669964
20
14.7102808083
0
VERTEX
8
___SYMBOL
62
7
6
CONTINUOUS
10
20.7806439327
20
14.7110518689
0
VERTEX
8
___SYMBOL
62
7
6
CONTINUOUS
10
20.7770995239
20
14.7117068738
0
VERTEX
8
___SYMBOL
62
7
6
CONTINUOUS
10
20.7735370181
20
14.7122448826
0
VERTEX
8
___SYMBOL
62
7
6
CONTINUOUS
10
20.7699596633
20
14.7126649548
0
VERTEX
8
___SYMBOL
62
7
6
CONTINUOUS
10
20.7663707077
20
14.7129661498
0
VERTEX
8
___SYMBOL
62
7
6
CONTINUOUS
10
20.7627733993
20
14.7131475271
0
VERTEX
8
___SYMBOL
62
7
6
CONTINUOUS
10
20.7591709862
20
14.7132081463
0
SEQEND
0
POLYLINE
8
___SYMBOL
62
7
6
CONTINUOUS
66
1
70
0
0
VERTEX
8
___SYMBOL
62
7
6
CONTINUOUS
10
20.7591749377
20
14.7132085862
0
VERTEX
8
___SYMBOL
62
7
6
CONTINUOUS
10
20.7605005643
20
14.7135709321
0
VERTEX
8
___SYMBOL
62
7
6
CONTINUOUS
10
20.7618419078
20
14.7139880070
0
VERTEX
8
___SYMBOL
62
7
6
CONTINUOUS
10
20.7631966942
20
14.7144587400
0
VERTEX
8
___SYMBOL
62
7
6
CONTINUOUS
10
20.7645626498
20
14.7149820603
0
VERTEX
8
___SYMBOL
62
7
6
CONTINUOUS
10
20.7659375007
20
14.7155568970
0
VERTEX
8
___SYMBOL
62
7
6
CONTINUOUS
10
20.7673189729
20
14.7161821794
0
VERTEX
8
___SYMBOL
62
7
6
CONTINUOUS
10
20.7687047927
20
14.7168568367
0
VERTEX
8
___SYMBOL
62
7
6
CONTINUOUS
10
20.7700926861
20
14.7175797980
0
VERTEX
8
___SYMBOL
62
7
6
CONTINUOUS
10
20.7714803793
20
14.7183499926
0
VERTEX
8
___SYMBOL
62
7
6
CONTINUOUS
10
20.7728655985
20
14.7191663495
0
VERTEX
8
___SYMBOL
62
7
6
CONTINUOUS
10
20.7742460697
20
14.7200277981
0
VERTEX
8
___SYMBOL
62
7
6
CONTINUOUS
10
20.7756195190
20
14.7209332674
0
VERTEX
8
___SYMBOL
62
7
6
CONTINUOUS
10
20.7771071826
20
14.7219698196
0
VERTEX
8
___SYMBOL
62
7
6
CONTINUOUS
10
20.7785810438
20
14.7230550168
0
VERTEX
8
___SYMBOL
62
7
6
CONTINUOUS
10
20.7800383630
20
14.7241863899
0
VERTEX
8
___SYMBOL
62
7
6
CONTINUOUS
10
20.7814764004
20
14.7253614700
0
VERTEX
8
___SYMBOL
62
7
6
CONTINUOUS
10
20.7828924164
20
14.7265777880
0
VERTEX
8
___SYMBOL
62
7
6
CONTINUOUS
10
20.7842836713
20
14.7278328748
0
VERTEX
8
___SYMBOL
62
7
6
CONTINUOUS
10
20.7856474253
20
14.7291242616
0
VERTEX
8
___SYMBOL
62
7
6
CONTINUOUS
10
20.7869809387
20
14.7304494791
0
VERTEX
8
___SYMBOL
62
7
6
CONTINUOUS
10
20.7882814718
20
14.7318060585
0
VERTEX
8
___SYMBOL
62
7
6
CONTINUOUS
10
20.7895462850
20
14.7331915307
0
VERTEX
8
___SYMBOL
62
7
6
CONTINUOUS
10
20.7907726385
20
14.7346034267
0
VERTEX
8
___SYMBOL
62
7
6
CONTINUOUS
10
20.7919579375
20
14.7360391938
0
VERTEX
8
___SYMBOL
62
7
6
CONTINUOUS
10
20.7931001674
20
14.7374959457
0
VERTEX
8
___SYMBOL
62
7
6
CONTINUOUS
10
20.7941974583
20
14.7389707122
0
VERTEX
8
___SYMBOL
62
7
6
CONTINUOUS
10
20.7952479403
20
14.7404605233
0
VERTEX
8
___SYMBOL
62
7
6
CONTINUOUS
10
20.7962497437
20
14.7419624090
0
VERTEX
8
___SYMBOL
62
7
6
CONTINUOUS
10
20.7972009986
20
14.7434733992
0
VERTEX
8
___SYMBOL
62
7
6
CONTINUOUS
10
20.7980998352
20
14.7449905238
0
VERTEX
8
___SYMBOL
62
7
6
CONTINUOUS
10
20.7989443838
20
14.7465108129
0
VERTEX
8
___SYMBOL
62
7
6
CONTINUOUS
10
20.7997327744
20
14.7480312963
0
VERTEX
8
___SYMBOL
62
7
6
CONTINUOUS
10
20.8004631373
20
14.7495490040
0
VERTEX
8
___SYMBOL
62
7
6
CONTINUOUS
10
20.8011336027
20
14.7510609660
0
VERTEX
8
___SYMBOL
62
7
6
CONTINUOUS
10
20.8016941474
20
14.7524393702
0
VERTEX
8
___SYMBOL
62
7
6
CONTINUOUS
10
20.8022023505
20
14.7538083017
0
VERTEX
8
___SYMBOL
62
7
6
CONTINUOUS
10
20.8026577720
20
14.7551656116
0
VERTEX
8
___SYMBOL
62
7
6
CONTINUOUS
10
20.8030599720
20
14.7565091509
0
VERTEX
8
___SYMBOL
62
7
6
CONTINUOUS
10
20.8034085106
20
14.7578367705
0
VERTEX
8
___SYMBOL
62
7
6
CONTINUOUS
10
20.8037029479
20
14.7591463215
0
VERTEX
8
___SYMBOL
62
7
6
CONTINUOUS
10
20.8039119290
20
14.7602527837
0
VERTEX
8
___SYMBOL
62
7
6
CONTINUOUS
10
20.8040805620
20
14.7613430388
0
VERTEX
8
___SYMBOL
62
7
6
CONTINUOUS
10
20.8042085698
20
14.7624157336
0
VERTEX
8
___SYMBOL
62
7
6
CONTINUOUS
10
20.8042956754
20
14.7634695148
0
VERTEX
8
___SYMBOL
62
7
6
CONTINUOUS
10
20.8043416017
20
14.7645030290
0
VERTEX
8
___SYMBOL
62
7
6
CONTINUOUS
10
20.8043460717
20
14.7655149229
0
VERTEX
8
___SYMBOL
62
7
6
CONTINUOUS
10
20.8043088084
20
14.7665038434
0
VERTEX
8
___SYMBOL
62
7
6
CONTINUOUS
10
20.8042218321
20
14.7675416746
0
VERTEX
8
___SYMBOL
62
7
6
CONTINUOUS
10
20.8040866472
20
14.7685501095
0
VERTEX
8
___SYMBOL
62
7
6
CONTINUOUS
10
20.8039037672
20
14.7695279652
0
VERTEX
8
___SYMBOL
62
7
6
CONTINUOUS
10
20.8036737058
20
14.7704740589
0
VERTEX
8
___SYMBOL
62
7
6
CONTINUOUS
10
20.8033969764
20
14.7713872074
0
VERTEX
8
___SYMBOL
62
7
6
CONTINUOUS
10
20.8030740925
20
14.7722662281
0
VERTEX
8
___SYMBOL
62
7
6
CONTINUOUS
10
20.8027055676
20
14.7731099378
0
VERTEX
8
___SYMBOL
62
7
6
CONTINUOUS
10
20.8022919153
20
14.7739171538
0
VERTEX
8
___SYMBOL
62
7
6
CONTINUOUS
10
20.8018336491
20
14.7746866931
0
VERTEX
8
___SYMBOL
62
7
6
CONTINUOUS
10
20.8013312825
20
14.7754173729
0
VERTEX
8
___SYMBOL
62
7
6
CONTINUOUS
10
20.8007853290
20
14.7761080101
0
VERTEX
8
___SYMBOL
62
7
6
CONTINUOUS
10
20.8001963022
20
14.7767574218
0
VERTEX
8
___SYMBOL
62
7
6
CONTINUOUS
10
20.7995647155
20
14.7773644252
0
SEQEND
0
LINE
8
___SYMBOL
62
7
6
CONTINUOUS
10
20.8352078725
20
13.8729995680
11
20.8352078725
21
14.5848995680
0
POLYLINE
8
___SYMBOL
62
7
6
CONTINUOUS
66
1
70
0
0
VERTEX
8
___SYMBOL
62
7
6
CONTINUOUS
10
20.8352077526
20
14.5849007277
0
VERTEX
8
___SYMBOL
62
7
6
CONTINUOUS
10
20.8351665938
20
14.5877292147
0
VERTEX
8
___SYMBOL
62
7
6
CONTINUOUS
10
20.8350435823
20
14.5905517567
0
VERTEX
8
___SYMBOL
62
7
6
CONTINUOUS
10
20.8348393809
20
14.5933655488
0
VERTEX
8
___SYMBOL
62
7
6
CONTINUOUS
10
20.8345546524
20
14.5961677866
0
VERTEX
8
___SYMBOL
62
7
6
CONTINUOUS
10
20.8341900596
20
14.5989556651
0
VERTEX
8
___SYMBOL
62
7
6
CONTINUOUS
10
20.8337462654
20
14.6017263799
0
VERTEX
8
___SYMBOL
62
7
6
CONTINUOUS
10
20.8332239326
20
14.6044771262
0
VERTEX
8
___SYMBOL
62
7
6
CONTINUOUS
10
20.8326237240
20
14.6072050993
0
VERTEX
8
___SYMBOL
62
7
6
CONTINUOUS
10
20.8319463024
20
14.6099074945
0
VERTEX
8
___SYMBOL
62
7
6
CONTINUOUS
10
20.8311923307
20
14.6125815072
0
VERTEX
8
___SYMBOL
62
7
6
CONTINUOUS
10
20.8303624717
20
14.6152243326
0
VERTEX
8
___SYMBOL
62
7
6
CONTINUOUS
10
20.8294573882
20
14.6178331662
0
VERTEX
8
___SYMBOL
62
7
6
CONTINUOUS
10
20.8284777430
20
14.6204052032
0
VERTEX
8
___SYMBOL
62
7
6
CONTINUOUS
10
20.8274241990
20
14.6229376389
0
VERTEX
8
___SYMBOL
62
7
6
CONTINUOUS
10
20.8262974190
20
14.6254276686
0
VERTEX
8
___SYMBOL
62
7
6
CONTINUOUS
10
20.8250980659
20
14.6278724878
0
VERTEX
8
___SYMBOL
62
7
6
CONTINUOUS
10
20.8238269963
20
14.6302694165
0
VERTEX
8
___SYMBOL
62
7
6
CONTINUOUS
10
20.8224858431
20
14.6326162748
0
VERTEX
8
___SYMBOL
62
7
6
CONTINUOUS
10
20.8210764329
20
14.6349110075
0
VERTEX
8
___SYMBOL
62
7
6
CONTINUOUS
10
20.8196005923
20
14.6371515596
0
VERTEX
8
___SYMBOL
62
7
6
CONTINUOUS
10
20.8180601481
20
14.6393358758
0
VERTEX
8
___SYMBOL
62
7
6
CONTINUOUS
10
20.8164569269
20
14.6414619012
0
VERTEX
8
___SYMBOL
62
7
6
CONTINUOUS
10
20.8147927554
20
14.6435275804
0
VERTEX
8
___SYMBOL
62
7
6
CONTINUOUS
10
20.8130694603
20
14.6455308585
0
VERTEX
8
___SYMBOL
62
7
6
CONTINUOUS
10
20.8112888681
20
14.6474696802
0
VERTEX
8
___SYMBOL
62
7
6
CONTINUOUS
10
20.8094528057
20
14.6493419906
0
VERTEX
8
___SYMBOL
62
7
6
CONTINUOUS
10
20.8075630997
20
14.6511457343
0
VERTEX
8
___SYMBOL
62
7
6
CONTINUOUS
10
20.8056215766
20
14.6528788564
0
VERTEX
8
___SYMBOL
62
7
6
CONTINUOUS
10
20.8036300634
20
14.6545393017
0
VERTEX
8
___SYMBOL
62
7
6
CONTINUOUS
10
20.8015903865
20
14.6561250151
0
VERTEX
8
___SYMBOL
62
7
6
CONTINUOUS
10
20.7995043726
20
14.6576339414
0
VERTEX
8
___SYMBOL
62
7
6
CONTINUOUS
10
20.7973738485
20
14.6590640255
0
VERTEX
8
___SYMBOL
62
7
6
CONTINUOUS
10
20.7953297180
20
14.6603363065
0
VERTEX
8
___SYMBOL
62
7
6
CONTINUOUS
10
20.7932498562
20
14.6615363058
0
VERTEX
8
___SYMBOL
62
7
6
CONTINUOUS
10
20.7911363416
20
14.6626634016
0
VERTEX
8
___SYMBOL
62
7
6
CONTINUOUS
10
20.7889912526
20
14.6637169722
0
VERTEX
8
___SYMBOL
62
7
6
CONTINUOUS
10
20.7868166676
20
14.6646963956
0
VERTEX
8
___SYMBOL
62
7
6
CONTINUOUS
10
20.7846146651
20
14.6656010501
0
VERTEX
8
___SYMBOL
62
7
6
CONTINUOUS
10
20.7823873234
20
14.6664303139
0
VERTEX
8
___SYMBOL
62
7
6
CONTINUOUS
10
20.7801367211
20
14.6671835653
0
VERTEX
8
___SYMBOL
62
7
6
CONTINUOUS
10
20.7778649365
20
14.6678601823
0
VERTEX
8
___SYMBOL
62
7
6
CONTINUOUS
10
20.7755740481
20
14.6684595432
0
VERTEX
8
___SYMBOL
62
7
6
CONTINUOUS
10
20.7732661344
20
14.6689810263
0
VERTEX
8
___SYMBOL
62
7
6
CONTINUOUS
10
20.7709432736
20
14.6694240096
0
VERTEX
8
___SYMBOL
62
7
6
CONTINUOUS
10
20.7686075443
20
14.6697878715
0
VERTEX
8
___SYMBOL
62
7
6
CONTINUOUS
10
20.7662610249
20
14.6700719900
0
VERTEX
8
___SYMBOL
62
7
6
CONTINUOUS
10
20.7639057939
20
14.6702757435
0
VERTEX
8
___SYMBOL
62
7
6
CONTINUOUS
10
20.7615439296
20
14.6703985100
0
VERTEX
8
___SYMBOL
62
7
6
CONTINUOUS
10
20.7591775104
20
14.6704396678
0
SEQEND
0
LINE
8
___SYMBOL
62
7
6
CONTINUOUS
10
20.7591778725
20
14.6704395680
11
20.3457378725
21
14.6704395680
0
LINE
8
___SYMBOL
62
7
6
CONTINUOUS
10
20.3457378725
20
14.6704395680
11
20.3457378725
21
14.7132095680
0
LINE
8
___SYMBOL
62
7
6
CONTINUOUS
10
20.3457378725
20
14.7132095680
11
20.7591778725
21
14.7132095680
0
LINE
8
___SYMBOL
62
7
6
CONTINUOUS
10
20.8219963515
20
14.6334318315
11
20.7187778725
21
14.5623295680
0
LINE
8
___SYMBOL
62
7
6
CONTINUOUS
10
20.7187778725
20
14.5623295680
11
19.4060078725
21
14.6597495680
0
LINE
8
___SYMBOL
62
7
6
CONTINUOUS
10
19.4060078725
20
14.6597495680
11
19.3347278725
21
14.7583495680
0
LINE
8
___SYMBOL
62
7
6
CONTINUOUS
10
19.3347278725
20
14.7583495680
11
19.3739278725
21
14.7773595680
0
LINE
8
___SYMBOL
62
7
6
CONTINUOUS
10
19.3739278725
20
14.7773595680
11
19.4321478725
21
14.6918195680
0
LINE
8
___SYMBOL
62
7
6
CONTINUOUS
10
19.4321478725
20
14.6918195680
11
20.7021478725
21
14.6039095680
0
LINE
8
___SYMBOL
62
7
6
CONTINUOUS
10
20.7021478725
20
14.6039095680
11
20.7929146215
21
14.6617211618
0
LINE
8
___SYMBOL
62
2
6
CONTINUOUS
10
20.7925896362
20
14.6618981508
11
20.8246884581
21
14.6915285890
0
LINE
8
___SYMBOL
62
7
6
CONTINUOUS
10
20.3830778725
20
14.7203395680
11
20.3800178725
21
14.7264495680
0
LINE
8
___SYMBOL
62
7
6
CONTINUOUS
10
20.3800178725
20
14.7264495680
11
20.3759478725
21
14.7274595680
0
LINE
8
___SYMBOL
62
7
6
CONTINUOUS
10
20.3759478725
20
14.7274595680
11
20.3718778725
21
14.7294995680
0
LINE
8
___SYMBOL
62
7
6
CONTINUOUS
10
20.3718778725
20
14.7294995680
11
20.3677978725
21
14.7335795680
0
LINE
8
___SYMBOL
62
7
6
CONTINUOUS
10
20.3677978725
20
14.7335795680
11
20.3627078725
21
14.7325595680
0
LINE
8
___SYMBOL
62
7
6
CONTINUOUS
10
20.4879678725
20
14.7233895680
11
20.4920378725
21
14.7254295680
0
LINE
8
___SYMBOL
62
7
6
CONTINUOUS
10
20.4920378725
20
14.7254295680
11
20.4961078725
21
14.7264495680
0
LINE
8
___SYMBOL
62
7
6
CONTINUOUS
10
20.4961078725
20
14.7264495680
11
20.5042578725
21
14.7223695680
0
LINE
8
___SYMBOL
62
7
6
CONTINUOUS
10
20.5042578725
20
14.7223695680
11
20.5083278725
21
14.7223695680
0
LINE
8
___SYMBOL
62
7
6
CONTINUOUS
10
20.6437678725
20
14.7244095680
11
20.6498778725
21
14.7274595680
0
LINE
8
___SYMBOL
62
7
6
CONTINUOUS
10
20.6498778725
20
14.7274595680
11
20.6600578725
21
14.7244095680
0
LINE
8
___SYMBOL
62
7
6
CONTINUOUS
10
20.6468178725
20
14.7620895680
11
20.6427478725
21
14.7620895680
0
LINE
8
___SYMBOL
62
7
6
CONTINUOUS
10
20.6427478725
20
14.7620895680
11
20.6315478725
21
14.7702395680
0
LINE
8
___SYMBOL
62
7
6
CONTINUOUS
10
20.6315478725
20
14.7702395680
11
20.6233978725
21
14.7702395680
0
LINE
8
___SYMBOL
62
7
6
CONTINUOUS
10
20.6233978725
20
14.7702395680
11
20.6233978725
21
14.7641195680
0
LINE
8
___SYMBOL
62
7
6
CONTINUOUS
10
20.4910178725
20
14.7641195680
11
20.4910178725
21
14.7692195680
0
LINE
8
___SYMBOL
62
7
6
CONTINUOUS
10
20.4910178725
20
14.7692195680
11
20.4950878725
21
14.7702395680
0
LINE
8
___SYMBOL
62
7
6
CONTINUOUS
10
20.4950878725
20
14.7702395680
11
20.4991678725
21
14.7692195680
0
LINE
8
___SYMBOL
62
7
6
CONTINUOUS
10
20.4991678725
20
14.7692195680
11
20.5042578725
21
14.7620895680
0
LINE
8
___SYMBOL
62
7
6
CONTINUOUS
10
20.5042578725
20
14.7620895680
11
20.5093478725
21
14.7600495680
0
LINE
8
___SYMBOL
62
7
6
CONTINUOUS
10
20.5093478725
20
14.7600495680
11
20.5144378725
21
14.7600495680
0
POLYLINE
8
___SYMBOL
62
7
6
CONTINUOUS
66
1
70
0
0
VERTEX
8
___SYMBOL
62
7
6
CONTINUOUS
10
20.3545607261
20
14.7142306379
0
VERTEX
8
___SYMBOL
62
7
6
CONTINUOUS
10
20.3528854424
20
14.7157062775
0
VERTEX
8
___SYMBOL
62
7
6
CONTINUOUS
10
20.3512559633
20
14.7171637626
0
VERTEX
8
___SYMBOL
62
7
6
CONTINUOUS
10
20.3496720186
20
14.7186032579
0
VERTEX
8
___SYMBOL
62
7
6
CONTINUOUS
10
20.3481333382
20
14.7200249281
0
VERTEX
8
___SYMBOL
62
7
6
CONTINUOUS
10
20.3466396519
20
14.7214289382
0
VERTEX
8
___SYMBOL
62
7
6
CONTINUOUS
10
20.3451906897
20
14.7228154530
0
VERTEX
8
___SYMBOL
62
7
6
CONTINUOUS
10
20.3437861812
20
14.7241846371
0
VERTEX
8
___SYMBOL
62
7
6
CONTINUOUS
10
20.3424258565
20
14.7255366554
0
VERTEX
8
___SYMBOL
62
7
6
CONTINUOUS
10
20.3411094453
20
14.7268716728
0
VERTEX
8
___SYMBOL
62
7
6
CONTINUOUS
10
20.3398366776
20
14.7281898540
0
VERTEX
8
___SYMBOL
62
7
6
CONTINUOUS
10
20.3386072831
20
14.7294913638
0
VERTEX
8
___SYMBOL
62
7
6
CONTINUOUS
10
20.3374209918
20
14.7307763671
0
VERTEX
8
___SYMBOL
62
7
6
CONTINUOUS
10
20.3362775335
20
14.7320450286
0
VERTEX
8
___SYMBOL
62
7
6
CONTINUOUS
10
20.3351766381
20
14.7332975131
0
VERTEX
8
___SYMBOL
62
7
6
CONTINUOUS
10
20.3341180354
20
14.7345339855
0
VERTEX
8
___SYMBOL
62
7
6
CONTINUOUS
10
20.3331014552
20
14.7357546105
0
VERTEX
8
___SYMBOL
62
7
6
CONTINUOUS
10
20.3321266275
20
14.7369595529
0
VERTEX
8
___SYMBOL
62
7
6
CONTINUOUS
10
20.3311932822
20
14.7381489776
0
VERTEX
8
___SYMBOL
62
7
6
CONTINUOUS
10
20.3303011489
20
14.7393230494
0
VERTEX
8
___SYMBOL
62
7
6
CONTINUOUS
10
20.3294499577
20
14.7404819330
0
VERTEX
8
___SYMBOL
62
7
6
CONTINUOUS
10
20.3286394383
20
14.7416257933
0
VERTEX
8
___SYMBOL
62
7
6
CONTINUOUS
10
20.3278693497
20
14.7427547836
0
VERTEX
8
___SYMBOL
62
7
6
CONTINUOUS
10
20.3271395665
20
14.7438690119
0
VERTEX
8
___SYMBOL
62
7
6
CONTINUOUS
10
20.3264499926
20
14.7449685746
0
VERTEX
8
___SYMBOL
62
7
6
CONTINUOUS
10
20.3258005316
20
14.7460535683
0
VERTEX
8
___SYMBOL
62
7
6
CONTINUOUS
10
20.3251910873
20
14.7471240894
0
VERTEX
8
___SYMBOL
62
7
6
CONTINUOUS
10
20.3246215634
20
14.7481802344
0
VERTEX
8
___SYMBOL
62
7
6
CONTINUOUS
10
20.3240918637
20
14.7492220998
0
VERTEX
8
___SYMBOL
62
7
6
CONTINUOUS
10
20.3236018919
20
14.7502497822
0
VERTEX
8
___SYMBOL
62
7
6
CONTINUOUS
10
20.3231515518
20
14.7512633779
0
VERTEX
8
___SYMBOL
62
7
6
CONTINUOUS
10
20.3227407471
20
14.7522629836
0
VERTEX
8
___SYMBOL
62
7
6
CONTINUOUS
10
20.3223693814
20
14.7532486956
0
VERTEX
8
___SYMBOL
62
7
6
CONTINUOUS
10
20.3220373587
20
14.7542206105
0
VERTEX
8
___SYMBOL
62
7
6
CONTINUOUS
10
20.3217445825
20
14.7551788248
0
VERTEX
8
___SYMBOL
62
7
6
CONTINUOUS
10
20.3214909567
20
14.7561234350
0
VERTEX
8
___SYMBOL
62
7
6
CONTINUOUS
10
20.3212444133
20
14.7572084148
0
VERTEX
8
___SYMBOL
62
7
6
CONTINUOUS
10
20.3210508739
20
14.7582751624
0
VERTEX
8
___SYMBOL
62
7
6
CONTINUOUS
10
20.3209101857
20
14.7593238311
0
VERTEX
8
___SYMBOL
62
7
6
CONTINUOUS
10
20.3208221959
20
14.7603545741
0
VERTEX
8
___SYMBOL
62
7
6
CONTINUOUS
10
20.3207867516
20
14.7613675446
0
VERTEX
8
___SYMBOL
62
7
6
CONTINUOUS
10
20.3208037000
20
14.7623628959
0
VERTEX
8
___SYMBOL
62
7
6
CONTINUOUS
10
20.3208729280
20
14.7633407677
0
VERTEX
8
___SYMBOL
62
7
6
CONTINUOUS
10
20.3209944814
20
14.7643012463
0
VERTEX
8
___SYMBOL
62
7
6
CONTINUOUS
10
20.3211684459
20
14.7652444044
0
VERTEX
8
___SYMBOL
62
7
6
CONTINUOUS
10
20.3213949072
20
14.7661703150
0
VERTEX
8
___SYMBOL
62
7
6
CONTINUOUS
10
20.3216739508
20
14.7670790508
0
VERTEX
8
___SYMBOL
62
7
6
CONTINUOUS
10
20.3220056625
20
14.7679706847
0
VERTEX
8
___SYMBOL
62
7
6
CONTINUOUS
10
20.3223901279
20
14.7688452894
0
VERTEX
8
___SYMBOL
62
7
6
CONTINUOUS
10
20.3228274326
20
14.7697029377
0
VERTEX
8
___SYMBOL
62
7
6
CONTINUOUS
10
20.3233176623
20
14.7705437025
0
VERTEX
8
___SYMBOL
62
7
6
CONTINUOUS
10
20.3238609026
20
14.7713676566
0
VERTEX
8
___SYMBOL
62
7
6
CONTINUOUS
10
20.3244572393
20
14.7721748728
0
VERTEX
8
___SYMBOL
62
7
6
CONTINUOUS
10
20.3251067578
20
14.7729654240
0
VERTEX
8
___SYMBOL
62
7
6
CONTINUOUS
10
20.3258095439
20
14.7737393828
0
VERTEX
8
___SYMBOL
62
7
6
CONTINUOUS
10
20.3265656833
20
14.7744968222
0
VERTEX
8
___SYMBOL
62
7
6
CONTINUOUS
10
20.3273752615
20
14.7752378149
0
VERTEX
8
___SYMBOL
62
7
6
CONTINUOUS
10
20.3282383642
20
14.7759624338
0
VERTEX
8
___SYMBOL
62
7
6
CONTINUOUS
10
20.3291550771
20
14.7766707517
0
VERTEX
8
___SYMBOL
62
7
6
CONTINUOUS
10
20.3301254858
20
14.7773628413
0
SEQEND
0
LINE
8
___SYMBOL
62
7
6
CONTINUOUS
10
20.2328778725
20
14.7773595680
11
20.2328778725
21
15.0375395680
0
LINE
8
___SYMBOL
62
7
6
CONTINUOUS
10
20.2328778725
20
15.0375395680
11
20.0332878725
21
15.0375395680
0
LINE
8
___SYMBOL
62
7
6
CONTINUOUS
10
20.0903178725
20
14.6462607297
11
20.0903178725
21
14.9997595680
0
LINE
8
___SYMBOL
62
7
6
CONTINUOUS
10
20.0903178725
20
14.9997595680
11
20.1337978725
21
15.0375395680
0
LINE
8
___SYMBOL
62
7
6
CONTINUOUS
10
20.1337978725
20
15.0375395680
11
20.1808378725
21
14.9997595680
0
LINE
8
___SYMBOL
62
7
6
CONTINUOUS
10
20.1808378725
20
14.6399948925
11
20.1808378725
21
14.9997595680
0
LINE
8
___SYMBOL
62
7
6
CONTINUOUS
10
20.1808378725
20
14.9997595680
11
20.0903178725
21
14.9997595680
0
LINE
8
___SYMBOL
62
7
6
CONTINUOUS
10
20.0903178725
20
14.9013895680
11
20.1808378725
21
14.9013895680
0
LINE
8
___SYMBOL
62
7
6
CONTINUOUS
10
20.1808478725
20
14.9013895680
11
20.1337978725
21
14.9391695680
0
LINE
8
___SYMBOL
62
7
6
CONTINUOUS
10
20.1337978725
20
14.9391695680
11
20.0903178725
21
14.9013895680
0
LINE
8
___SYMBOL
62
2
6
CONTINUOUS
10
20.8708478725
20
14.9070995680
11
20.7262910865
21
14.7773595680
0
LINE
8
___SYMBOL
62
7
6
CONTINUOUS
10
20.7313611949
20
14.7773595680
11
20.7476278725
21
14.7692195680
0
LINE
8
___SYMBOL
62
7
6
CONTINUOUS
10
20.7476278725
20
14.7692195680
11
20.7506878725
21
14.7651395680
0
LINE
8
___SYMBOL
62
7
6
CONTINUOUS
10
20.7506878725
20
14.7651395680
11
20.7527278725
21
14.7569995680
0
LINE
8
___SYMBOL
62
7
6
CONTINUOUS
10
20.7527278725
20
14.7569995680
11
20.7527278725
21
14.7508895680
0
LINE
8
___SYMBOL
62
7
6
CONTINUOUS
10
20.7527278725
20
14.7508895680
11
20.7517078725
21
14.7457995680
0
LINE
8
___SYMBOL
62
7
6
CONTINUOUS
10
20.7517078725
20
14.7457995680
11
20.7435578725
21
14.7406995680
0
LINE
8
___SYMBOL
62
7
6
CONTINUOUS
10
20.7435578725
20
14.7406995680
11
20.7313378725
21
14.7396795680
0
LINE
8
___SYMBOL
62
7
6
CONTINUOUS
10
20.7313378725
20
14.7396795680
11
20.7191178725
21
14.7366295680
0
LINE
8
___SYMBOL
62
7
6
CONTINUOUS
10
20.7191178725
20
14.7366295680
11
20.7119878725
21
14.7366295680
0
LINE
8
___SYMBOL
62
7
6
CONTINUOUS
10
20.7119878725
20
14.7366295680
11
20.7038478725
21
14.7345895680
0
LINE
8
___SYMBOL
62
7
6
CONTINUOUS
10
20.7038478725
20
14.7345895680
11
20.6763478725
21
14.7345895680
0
LINE
8
___SYMBOL
62
7
6
CONTINUOUS
10
20.6763478725
20
14.7345895680
11
20.6671878725
21
14.7376495680
0
LINE
8
___SYMBOL
62
7
6
CONTINUOUS
10
20.6671878725
20
14.7376495680
11
20.6641278725
21
14.7406995680
0
LINE
8
___SYMBOL
62
7
6
CONTINUOUS
10
20.6641278725
20
14.7406995680
11
20.6600578725
21
14.7417195680
0
LINE
8
___SYMBOL
62
7
6
CONTINUOUS
10
20.6600578725
20
14.7417195680
11
20.6539478725
21
14.7417195680
0
LINE
8
___SYMBOL
62
7
6
CONTINUOUS
10
20.6539478725
20
14.7417195680
11
20.6427478725
21
14.7437595680
0
LINE
8
___SYMBOL
62
7
6
CONTINUOUS
10
20.6427478725
20
14.7437595680
11
20.6345978725
21
14.7437595680
0
LINE
8
___SYMBOL
62
7
6
CONTINUOUS
10
20.6345978725
20
14.7437595680
11
20.6254378725
21
14.7417195680
0
LINE
8
___SYMBOL
62
7
6
CONTINUOUS
10
20.6254378725
20
14.7417195680
11
20.6203478725
21
14.7376495680
0
LINE
8
___SYMBOL
62
7
6
CONTINUOUS
10
20.6203478725
20
14.7376495680
11
20.6162678725
21
14.7366295680
0
LINE
8
___SYMBOL
62
7
6
CONTINUOUS
10
20.6162678725
20
14.7366295680
11
20.5521178725
21
14.7345895680
0
LINE
8
___SYMBOL
62
7
6
CONTINUOUS
10
20.5521178725
20
14.7345895680
11
20.5429478725
21
14.7366295680
0
LINE
8
___SYMBOL
62
7
6
CONTINUOUS
10
20.5429478725
20
14.7366295680
11
20.5042578725
21
14.7406995680
0
LINE
8
___SYMBOL
62
7
6
CONTINUOUS
10
20.5042578725
20
14.7406995680
11
20.4950878725
21
14.7345895680
0
LINE
8
___SYMBOL
62
7
6
CONTINUOUS
10
20.4950878725
20
14.7345895680
11
20.4899978725
21
14.7325595680
0
LINE
8
___SYMBOL
62
7
6
CONTINUOUS
10
20.4899978725
20
14.7325595680
11
20.4563978725
21
14.7294995680
0
LINE
8
___SYMBOL
62
7
6
CONTINUOUS
10
20.4563978725
20
14.7294995680
11
20.4085378725
21
14.7315395680
0
LINE
8
___SYMBOL
62
7
6
CONTINUOUS
10
20.4085378725
20
14.7315395680
11
20.3983578725
21
14.7315395680
0
LINE
8
___SYMBOL
62
7
6
CONTINUOUS
10
20.3983578725
20
14.7315395680
11
20.3881678725
21
14.7335795680
0
LINE
8
___SYMBOL
62
7
6
CONTINUOUS
10
20.3881678725
20
14.7335795680
11
20.3739078725
21
14.7417195680
0
LINE
8
___SYMBOL
62
7
6
CONTINUOUS
10
20.3739078725
20
14.7417195680
11
20.3728978725
21
14.7457995680
0
LINE
8
___SYMBOL
62
7
6
CONTINUOUS
10
20.3728978725
20
14.7457995680
11
20.3627078725
21
14.7488495680
0
LINE
8
___SYMBOL
62
7
6
CONTINUOUS
10
20.3627078725
20
14.7488495680
11
20.3504878725
21
14.7590295680
0
LINE
8
___SYMBOL
62
7
6
CONTINUOUS
10
20.3504878725
20
14.7590295680
11
20.3474378725
21
14.7631095680
0
LINE
8
___SYMBOL
62
7
6
CONTINUOUS
10
20.3474378725
20
14.7631095680
11
20.3474378725
21
14.7692195680
0
LINE
8
___SYMBOL
62
7
6
CONTINUOUS
10
20.3474378725
20
14.7692195680
11
20.3494678725
21
14.7732895680
0
LINE
8
___SYMBOL
62
7
6
CONTINUOUS
10
20.3494678725
20
14.7732895680
11
20.3545678725
21
14.7773595680
0
LINE
8
___SYMBOL
62
7
6
CONTINUOUS
10
20.1808378725
20
14.6022498243
11
20.1808378725
21
14.5254995680
0
LINE
8
___SYMBOL
62
7
6
CONTINUOUS
10
20.1808378725
20
14.5254995680
11
20.2257478725
21
14.4660995680
0
LINE
8
___SYMBOL
62
7
6
CONTINUOUS
10
20.2257478725
20
14.4660995680
11
20.0439778725
21
14.4660995680
0
LINE
8
___SYMBOL
62
7
6
CONTINUOUS
10
20.0439778725
20
14.4660995680
11
20.0903178725
21
14.5254995680
0
LINE
8
___SYMBOL
62
7
6
CONTINUOUS
10
20.0903178725
20
14.5254995680
11
20.0903178725
21
14.6089672679
0
POLYLINE
8
___SYMBOL
62
7
6
CONTINUOUS
66
1
70
0
0
VERTEX
8
___SYMBOL
62
7
6
CONTINUOUS
10
20.5592416561
20
14.7549642941
0
VERTEX
8
___SYMBOL
62
7
6
CONTINUOUS
10
20.5590379013
20
14.7551938841
0
VERTEX
8
___SYMBOL
62
7
6
CONTINUOUS
10
20.5588266380
20
14.7554165794
0
VERTEX
8
___SYMBOL
62
7
6
CONTINUOUS
10
20.5586081388
20
14.7556321940
0
VERTEX
8
___SYMBOL
62
7
6
CONTINUOUS
10
20.5583826764
20
14.7558405418
0
VERTEX
8
___SYMBOL
62
7
6
CONTINUOUS
10
20.5581505235
20
14.7560414367
0
VERTEX
8
___SYMBOL
62
7
6
CONTINUOUS
10
20.5579119527
20
14.7562346927
0
VERTEX
8
___SYMBOL
62
7
6
CONTINUOUS
10
20.5576672367
20
14.7564201237
0
VERTEX
8
___SYMBOL
62
7
6
CONTINUOUS
10
20.5574166483
20
14.7565975437
0
VERTEX
8
___SYMBOL
62
7
6
CONTINUOUS
10
20.5571604601
20
14.7567667667
0
VERTEX
8
___SYMBOL
62
7
6
CONTINUOUS
10
20.5568989447
20
14.7569276066
0
VERTEX
8
___SYMBOL
62
7
6
CONTINUOUS
10
20.5566323749
20
14.7570798772
0
VERTEX
8
___SYMBOL
62
7
6
CONTINUOUS
10
20.5563610234
20
14.7572233927
0
VERTEX
8
___SYMBOL
62
7
6
CONTINUOUS
10
20.5560851627
20
14.7573579669
0
VERTEX
8
___SYMBOL
62
7
6
CONTINUOUS
10
20.5558050657
20
14.7574834137
0
VERTEX
8
___SYMBOL
62
7
6
CONTINUOUS
10
20.5555210050
20
14.7575995472
0
VERTEX
8
___SYMBOL
62
7
6
CONTINUOUS
10
20.5552332532
20
14.7577061813
0
VERTEX
8
___SYMBOL
62
7
6
CONTINUOUS
10
20.5549420930
20
14.7578031566
0
VERTEX
8
___SYMBOL
62
7
6
CONTINUOUS
10
20.5546478467
20
14.7578904209
0
VERTEX
8
___SYMBOL
62
7
6
CONTINUOUS
10
20.5543508466
20
14.7579679487
0
VERTEX
8
___SYMBOL
62
7
6
CONTINUOUS
10
20.5540514251
20
14.7580357144
0
VERTEX
8
___SYMBOL
62
7
6
CONTINUOUS
10
20.5537499145
20
14.7580936926
0
VERTEX
8
___SYMBOL
62
7
6
CONTINUOUS
10
20.5534466469
20
14.7581418576
0
VERTEX
8
___SYMBOL
62
7
6
CONTINUOUS
10
20.5531419548
20
14.7581801841
0
VERTEX
8
___SYMBOL
62
7
6
CONTINUOUS
10
20.5528361703
20
14.7582086463
0
VERTEX
8
___SYMBOL
62
7
6
CONTINUOUS
10
20.5525296259
20
14.7582272189
0
VERTEX
8
___SYMBOL
62
7
6
CONTINUOUS
10
20.5522226538
20
14.7582358763
0
VERTEX
8
___SYMBOL
62
7
6
CONTINUOUS
10
20.5519155863
20
14.7582345930
0
VERTEX
8
___SYMBOL
62
7
6
CONTINUOUS
10
20.5516087557
20
14.7582233434
0
VERTEX
8
___SYMBOL
62
7
6
CONTINUOUS
10
20.5513024943
20
14.7582021020
0
VERTEX
8
___SYMBOL
62
7
6
CONTINUOUS
10
20.5509971344
20
14.7581708433
0
VERTEX
8
___SYMBOL
62
7
6
CONTINUOUS
10
20.5506930083
20
14.7581295418
0
VERTEX
8
___SYMBOL
62
7
6
CONTINUOUS
10
20.5503904482
20
14.7580781719
0
VERTEX
8
___SYMBOL
62
7
6
CONTINUOUS
10
20.5500897808
20
14.7580167361
0
VERTEX
8
___SYMBOL
62
7
6
CONTINUOUS
10
20.5497913097
20
14.7579453487
0
VERTEX
8
___SYMBOL
62
7
6
CONTINUOUS
10
20.5494953328
20
14.7578641519
0
VERTEX
8
___SYMBOL
62
7
6
CONTINUOUS
10
20.5492021480
20
14.7577732878
0
VERTEX
8
___SYMBOL
62
7
6
CONTINUOUS
10
20.5489120532
20
14.7576728987
0
VERTEX
8
___SYMBOL
62
7
6
CONTINUOUS
10
20.5486253463
20
14.7575631269
0
VERTEX
8
___SYMBOL
62
7
6
CONTINUOUS
10
20.5483423252
20
14.7574441146
0
VERTEX
8
___SYMBOL
62
7
6
CONTINUOUS
10
20.5480632879
20
14.7573160039
0
VERTEX
8
___SYMBOL
62
7
6
CONTINUOUS
10
20.5477885322
20
14.7571789372
0
VERTEX
8
___SYMBOL
62
7
6
CONTINUOUS
10
20.5475183560
20
14.7570330566
0
VERTEX
8
___SYMBOL
62
7
6
CONTINUOUS
10
20.5472530574
20
14.7568785043
0
VERTEX
8
___SYMBOL
62
7
6
CONTINUOUS
10
20.5469929340
20
14.7567154227
0
VERTEX
8
___SYMBOL
62
7
6
CONTINUOUS
10
20.5467382840
20
14.7565439538
0
VERTEX
8
___SYMBOL
62
7
6
CONTINUOUS
10
20.5464894051
20
14.7563642400
0
VERTEX
8
___SYMBOL
62
7
6
CONTINUOUS
10
20.5462465953
20
14.7561764234
0
VERTEX
8
___SYMBOL
62
7
6
CONTINUOUS
10
20.5460101525
20
14.7559806463
0
SEQEND
0
POLYLINE
8
___SYMBOL
62
7
6
CONTINUOUS
66
1
70
0
0
VERTEX
8
___SYMBOL
62
7
6
CONTINUOUS
10
20.4248289322
20
14.7549594742
0
VERTEX
8
___SYMBOL
62
7
6
CONTINUOUS
10
20.4245890954
20
14.7553553646
0
VERTEX
8
___SYMBOL
62
7
6
CONTINUOUS
10
20.4243362481
20
14.7557430611
0
VERTEX
8
___SYMBOL
62
7
6
CONTINUOUS
10
20.4240707443
20
14.7561222136
0
VERTEX
8
___SYMBOL
62
7
6
CONTINUOUS
10
20.4237929381
20
14.7564924719
0
VERTEX
8
___SYMBOL
62
7
6
CONTINUOUS
10
20.4235031835
20
14.7568534859
0
VERTEX
8
___SYMBOL
62
7
6
CONTINUOUS
10
20.4232018348
20
14.7572049053
0
VERTEX
8
___SYMBOL
62
7
6
CONTINUOUS
10
20.4228892458
20
14.7575463801
0
VERTEX
8
___SYMBOL
62
7
6
CONTINUOUS
10
20.4225657707
20
14.7578775602
0
VERTEX
8
___SYMBOL
62
7
6
CONTINUOUS
10
20.4222317636
20
14.7581980952
0
VERTEX
8
___SYMBOL
62
7
6
CONTINUOUS
10
20.4218875786
20
14.7585076352
0
VERTEX
8
___SYMBOL
62
7
6
CONTINUOUS
10
20.4215335696
20
14.7588058299
0
VERTEX
8
___SYMBOL
62
7
6
CONTINUOUS
10
20.4211700909
20
14.7590923292
0
VERTEX
8
___SYMBOL
62
7
6
CONTINUOUS
10
20.4207974965
20
14.7593667829
0
VERTEX
8
___SYMBOL
62
7
6
CONTINUOUS
10
20.4204161403
20
14.7596288410
0
VERTEX
8
___SYMBOL
62
7
6
CONTINUOUS
10
20.4200263767
20
14.7598781531
0
VERTEX
8
___SYMBOL
62
7
6
CONTINUOUS
10
20.4196285595
20
14.7601143693
0
VERTEX
8
___SYMBOL
62
7
6
CONTINUOUS
10
20.4192230649
20
14.7603371763
0
VERTEX
8
___SYMBOL
62
7
6
CONTINUOUS
10
20.4188103570
20
14.7605464092
0
VERTEX
8
___SYMBOL
62
7
6
CONTINUOUS
10
20.4183909220
20
14.7607419399
0
VERTEX
8
___SYMBOL
62
7
6
CONTINUOUS
10
20.4179652459
20
14.7609236404
0
VERTEX
8
___SYMBOL
62
7
6
CONTINUOUS
10
20.4175338150
20
14.7610913829
0
VERTEX
8
___SYMBOL
62
7
6
CONTINUOUS
10
20.4170971154
20
14.7612450392
0
VERTEX
8
___SYMBOL
62
7
6
CONTINUOUS
10
20.4166556332
20
14.7613844814
0
VERTEX
8
___SYMBOL
62
7
6
CONTINUOUS
10
20.4162098545
20
14.7615095815
0
VERTEX
8
___SYMBOL
62
7
6
CONTINUOUS
10
20.4157602656
20
14.7616202116
0
VERTEX
8
___SYMBOL
62
7
6
CONTINUOUS
10
20.4153073524
20
14.7617162435
0
VERTEX
8
___SYMBOL
62
7
6
CONTINUOUS
10
20.4148516013
20
14.7617975494
0
VERTEX
8
___SYMBOL
62
7
6
CONTINUOUS
10
20.4143934982
20
14.7618640013
0
VERTEX
8
___SYMBOL
62
7
6
CONTINUOUS
10
20.4139335295
20
14.7619154711
0
VERTEX
8
___SYMBOL
62
7
6
CONTINUOUS
10
20.4134721811
20
14.7619518308
0
VERTEX
8
___SYMBOL
62
7
6
CONTINUOUS
10
20.4130099392
20
14.7619729526
0
VERTEX
8
___SYMBOL
62
7
6
CONTINUOUS
10
20.4125472901
20
14.7619787083
0
VERTEX
8
___SYMBOL
62
7
6
CONTINUOUS
10
20.4120847188
20
14.7619690130
0
VERTEX
8
___SYMBOL
62
7
6
CONTINUOUS
10
20.4116227070
20
14.7619439542
0
VERTEX
8
___SYMBOL
62
7
6
CONTINUOUS
10
20.4111617352
20
14.7619036622
0
VERTEX
8
___SYMBOL
62
7
6
CONTINUOUS
10
20.4107022840
20
14.7618482673
0
VERTEX
8
___SYMBOL
62
7
6
CONTINUOUS
10
20.4102448342
20
14.7617779001
0
VERTEX
8
___SYMBOL
62
7
6
CONTINUOUS
10
20.4097898662
20
14.7616926908
0
VERTEX
8
___SYMBOL
62
7
6
CONTINUOUS
10
20.4093378607
20
14.7615927699
0
VERTEX
8
___SYMBOL
62
7
6
CONTINUOUS
10
20.4088892984
20
14.7614782677
0
VERTEX
8
___SYMBOL
62
7
6
CONTINUOUS
10
20.4084446598
20
14.7613493148
0
VERTEX
8
___SYMBOL
62
7
6
CONTINUOUS
10
20.4080044256
20
14.7612060414
0
VERTEX
8
___SYMBOL
62
7
6
CONTINUOUS
10
20.4075690763
20
14.7610485780
0
VERTEX
8
___SYMBOL
62
7
6
CONTINUOUS
10
20.4071390925
20
14.7608770549
0
VERTEX
8
___SYMBOL
62
7
6
CONTINUOUS
10
20.4067149550
20
14.7606916026
0
VERTEX
8
___SYMBOL
62
7
6
CONTINUOUS
10
20.4062971443
20
14.7604923515
0
VERTEX
8
___SYMBOL
62
7
6
CONTINUOUS
10
20.4058861410
20
14.7602794319
0
VERTEX
8
___SYMBOL
62
7
6
CONTINUOUS
10
20.4054824258
20
14.7600529743
0
SEQEND
0
LINE
8
___SYMBOL
62
7
6
CONTINUOUS
10
20.5541578725
20
14.7213595680
11
20.5510978725
21
14.7254295680
0
LINE
8
___SYMBOL
62
7
6
CONTINUOUS
10
20.5510978725
20
14.7254295680
11
20.5470278725
21
14.7264495680
0
LINE
8
___SYMBOL
62
7
6
CONTINUOUS
10
20.5470278725
20
14.7264495680
11
20.5368378725
21
14.7264495680
0
POLYLINE
8
___SYMBOL
62
7
6
CONTINUOUS
66
1
70
0
0
VERTEX
8
___SYMBOL
62
7
6
CONTINUOUS
10
20.6091400107
20
14.7244118737
0
VERTEX
8
___SYMBOL
62
7
6
CONTINUOUS
10
20.6093092289
20
14.7242480719
0
VERTEX
8
___SYMBOL
62
7
6
CONTINUOUS
10
20.6094838109
20
14.7240899829
0
VERTEX
8
___SYMBOL
62
7
6
CONTINUOUS
10
20.6096635364
20
14.7239377336
0
VERTEX
8
___SYMBOL
62
7
6
CONTINUOUS
10
20.6098481848
20
14.7237914511
0
VERTEX
8
___SYMBOL
62
7
6
CONTINUOUS
10
20.6100375357
20
14.7236512623
0
VERTEX
8
___SYMBOL
62
7
6
CONTINUOUS
10
20.6102313687
20
14.7235172941
0
VERTEX
8
___SYMBOL
62
7
6
CONTINUOUS
10
20.6104294634
20
14.7233896736
0
VERTEX
8
___SYMBOL
62
7
6
CONTINUOUS
10
20.6106315993
20
14.7232685277
0
VERTEX
8
___SYMBOL
62
7
6
CONTINUOUS
10
20.6108375559
20
14.7231539834
0
VERTEX
8
___SYMBOL
62
7
6
CONTINUOUS
10
20.6110471129
20
14.7230461677
0
VERTEX
8
___SYMBOL
62
7
6
CONTINUOUS
10
20.6112600497
20
14.7229452074
0
VERTEX
8
___SYMBOL
62
7
6
CONTINUOUS
10
20.6114761460
20
14.7228512297
0
VERTEX
8
___SYMBOL
62
7
6
CONTINUOUS
10
20.6116951812
20
14.7227643614
0
VERTEX
8
___SYMBOL
62
7
6
CONTINUOUS
10
20.6119169351
20
14.7226847296
0
VERTEX
8
___SYMBOL
62
7
6
CONTINUOUS
10
20.6121411870
20
14.7226124612
0
VERTEX
8
___SYMBOL
62
7
6
CONTINUOUS
10
20.6123677166
20
14.7225476831
0
VERTEX
8
___SYMBOL
62
7
6
CONTINUOUS
10
20.6125962973
20
14.7224905012
0
VERTEX
8
___SYMBOL
62
7
6
CONTINUOUS
10
20.6128266783
20
14.7224409368
0
VERTEX
8
___SYMBOL
62
7
6
CONTINUOUS
10
20.6130586026
20
14.7223989897
0
VERTEX
8
___SYMBOL
62
7
6
CONTINUOUS
10
20.6132918133
20
14.7223646602
0
VERTEX
8
___SYMBOL
62
7
6
CONTINUOUS
10
20.6135260534
20
14.7223379483
0
VERTEX
8
___SYMBOL
62
7
6
CONTINUOUS
10
20.6137610660
20
14.7223188540
0
VERTEX
8
___SYMBOL
62
7
6
CONTINUOUS
10
20.6139965940
20
14.7223073773
0
VERTEX
8
___SYMBOL
62
7
6
CONTINUOUS
10
20.6142323806
20
14.7223035184
0
VERTEX
8
___SYMBOL
62
7
6
CONTINUOUS
10
20.6144681688
20
14.7223072773
0
VERTEX
8
___SYMBOL
62
7
6
CONTINUOUS
10
20.6147037017
20
14.7223186540
0
VERTEX
8
___SYMBOL
62
7
6
CONTINUOUS
10
20.6149387223
20
14.7223376486
0
VERTEX
8
___SYMBOL
62
7
6
CONTINUOUS
10
20.6151729736
20
14.7223642611
0
VERTEX
8
___SYMBOL
62
7
6
CONTINUOUS
10
20.6154061986
20
14.7223984916
0
VERTEX
8
___SYMBOL
62
7
6
CONTINUOUS
10
20.6156381406
20
14.7224403402
0
VERTEX
8
___SYMBOL
62
7
6
CONTINUOUS
10
20.6158685424
20
14.7224898069
0
VERTEX
8
___SYMBOL
62
7
6
CONTINUOUS
10
20.6160971471
20
14.7225468918
0
VERTEX
8
___SYMBOL
62
7
6
CONTINUOUS
10
20.6163237039
20
14.7226115737
0
VERTEX
8
___SYMBOL
62
7
6
CONTINUOUS
10
20.6165479861
20
14.7226837470
0
VERTEX
8
___SYMBOL
62
7
6
CONTINUOUS
10
20.6167697734
20
14.7227632847
0
VERTEX
8
___SYMBOL
62
7
6
CONTINUOUS
10
20.6169888451
20
14.7228500600
0
VERTEX
8
___SYMBOL
62
7
6
CONTINUOUS
10
20.6172049808
20
14.7229439460
0
VERTEX
8
___SYMBOL
62
7
6
CONTINUOUS
10
20.6174179600
20
14.7230448159
0
VERTEX
8
___SYMBOL
62
7
6
CONTINUOUS
10
20.6176275623
20
14.7231525427
0
VERTEX
8
___SYMBOL
62
7
6
CONTINUOUS
10
20.6178335670
20
14.7232669996
0
VERTEX
8
___SYMBOL
62
7
6
CONTINUOUS
10
20.6180357537
20
14.7233880597
0
VERTEX
8
___SYMBOL
62
7
6
CONTINUOUS
10
20.6182339020
20
14.7235155961
0
VERTEX
8
___SYMBOL
62
7
6
CONTINUOUS
10
20.6184277913
20
14.7236494820
0
VERTEX
8
___SYMBOL
62
7
6
CONTINUOUS
10
20.6186172011
20
14.7237895905
0
VERTEX
8
___SYMBOL
62
7
6
CONTINUOUS
10
20.6188019109
20
14.7239357946
0
VERTEX
8
___SYMBOL
62
7
6
CONTINUOUS
10
20.6189817003
20
14.7240879676
0
VERTEX
8
___SYMBOL
62
7
6
CONTINUOUS
10
20.6191563487
20
14.7242459825
0
VERTEX
8
___SYMBOL
62
7
6
CONTINUOUS
10
20.6193256356
20
14.7244097125
0
SEQEND
0
POLYLINE
8
___SYMBOL
62
7
6
CONTINUOUS
66
1
70
0
0
VERTEX
8
___SYMBOL
62
7
6
CONTINUOUS
10
20.3453995024
20
14.7366306068
0
VERTEX
8
___SYMBOL
62
7
6
CONTINUOUS
10
20.3453436774
20
14.7369793750
0
VERTEX
8
___SYMBOL
62
7
6
CONTINUOUS
10
20.3452762831
20
14.7373261105
0
VERTEX
8
___SYMBOL
62
7
6
CONTINUOUS
10
20.3451974699
20
14.7376704629
0
VERTEX
8
___SYMBOL
62
7
6
CONTINUOUS
10
20.3451073880
20
14.7380120816
0
VERTEX
8
___SYMBOL
62
7
6
CONTINUOUS
10
20.3450061878
20
14.7383506164
0
VERTEX
8
___SYMBOL
62
7
6
CONTINUOUS
10
20.3448940196
20
14.7386857166
0
VERTEX
8
___SYMBOL
62
7
6
CONTINUOUS
10
20.3447710336
20
14.7390170318
0
VERTEX
8
___SYMBOL
62
7
6
CONTINUOUS
10
20.3446373803
20
14.7393442116
0
VERTEX
8
___SYMBOL
62
7
6
CONTINUOUS
10
20.3444932098
20
14.7396669055
0
VERTEX
8
___SYMBOL
62
7
6
CONTINUOUS
10
20.3443386725
20
14.7399847631
0
VERTEX
8
___SYMBOL
62
7
6
CONTINUOUS
10
20.3441739187
20
14.7402974340
0
VERTEX
8
___SYMBOL
62
7
6
CONTINUOUS
10
20.3439990987
20
14.7406045675
0
VERTEX
8
___SYMBOL
62
7
6
CONTINUOUS
10
20.3438143628
20
14.7409058134
0
VERTEX
8
___SYMBOL
62
7
6
CONTINUOUS
10
20.3436198613
20
14.7412008211
0
VERTEX
8
___SYMBOL
62
7
6
CONTINUOUS
10
20.3434157446
20
14.7414892401
0
VERTEX
8
___SYMBOL
62
7
6
CONTINUOUS
10
20.3432021629
20
14.7417707201
0
VERTEX
8
___SYMBOL
62
7
6
CONTINUOUS
10
20.3429792928
20
14.7420449305
0
VERTEX
8
___SYMBOL
62
7
6
CONTINUOUS
10
20.3427474162
20
14.7423116203
0
VERTEX
8
___SYMBOL
62
7
6
CONTINUOUS
10
20.3425068411
20
14.7425705584
0
VERTEX
8
___SYMBOL
62
7
6
CONTINUOUS
10
20.3422578757
20
14.7428215138
0
VERTEX
8
___SYMBOL
62
7
6
CONTINUOUS
10
20.3420008280
20
14.7430642553
0
VERTEX
8
___SYMBOL
62
7
6
CONTINUOUS
10
20.3417360062
20
14.7432985520
0
VERTEX
8
___SYMBOL
62
7
6
CONTINUOUS
10
20.3414637184
20
14.7435241727
0
VERTEX
8
___SYMBOL
62
7
6
CONTINUOUS
10
20.3411842726
20
14.7437408864
0
VERTEX
8
___SYMBOL
62
7
6
CONTINUOUS
10
20.3408979771
20
14.7439484620
0
VERTEX
8
___SYMBOL
62
7
6
CONTINUOUS
10
20.3406051398
20
14.7441466685
0
VERTEX
8
___SYMBOL
62
7
6
CONTINUOUS
10
20.3403060689
20
14.7443352747
0
VERTEX
8
___SYMBOL
62
7
6
CONTINUOUS
10
20.3400010725
20
14.7445140497
0
VERTEX
8
___SYMBOL
62
7
6
CONTINUOUS
10
20.3396904587
20
14.7446827622
0
VERTEX
8
___SYMBOL
62
7
6
CONTINUOUS
10
20.3393745356
20
14.7448411814
0
VERTEX
8
___SYMBOL
62
7
6
CONTINUOUS
10
20.3390536114
20
14.7449890760
0
VERTEX
8
___SYMBOL
62
7
6
CONTINUOUS
10
20.3387279940
20
14.7451262150
0
VERTEX
8
___SYMBOL
62
7
6
CONTINUOUS
10
20.3383980034
20
14.7452523982
0
VERTEX
8
___SYMBOL
62
7
6
CONTINUOUS
10
20.3380640063
20
14.7453675487
0
VERTEX
8
___SYMBOL
62
7
6
CONTINUOUS
10
20.3377263811
20
14.7454716204
0
VERTEX
8
___SYMBOL
62
7
6
CONTINUOUS
10
20.3373855063
20
14.7455645670
0
VERTEX
8
___SYMBOL
62
7
6
CONTINUOUS
10
20.3370417603
20
14.7456463427
0
VERTEX
8
___SYMBOL
62
7
6
CONTINUOUS
10
20.3366955216
20
14.7457169012
0
VERTEX
8
___SYMBOL
62
7
6
CONTINUOUS
10
20.3363471687
20
14.7457761965
0
VERTEX
8
___SYMBOL
62
7
6
CONTINUOUS
10
20.3359970799
20
14.7458241825
0
VERTEX
8
___SYMBOL
62
7
6
CONTINUOUS
10
20.3356456337
20
14.7458608131
0
VERTEX
8
___SYMBOL
62
7
6
CONTINUOUS
10
20.3352932087
20
14.7458860421
0
VERTEX
8
___SYMBOL
62
7
6
CONTINUOUS
10
20.3349401831
20
14.7458998235
0
VERTEX
8
___SYMBOL
62
7
6
CONTINUOUS
10
20.3345869356
20
14.7459021112
0
VERTEX
8
___SYMBOL
62
7
6
CONTINUOUS
10
20.3342338445
20
14.7458928591
0
VERTEX
8
___SYMBOL
62
7
6
CONTINUOUS
10
20.3338812883
20
14.7458720211
0
VERTEX
8
___SYMBOL
62
7
6
CONTINUOUS
10
20.3335296455
20
14.7458395511
0
VERTEX
8
___SYMBOL
62
7
6
CONTINUOUS
10
20.3331792944
20
14.7457954030
0
SEQEND
0
POLYLINE
8
___SYMBOL
62
7
6
CONTINUOUS
66
1
70
0
0
VERTEX
8
___SYMBOL
62
7
6
CONTINUOUS
10
20.4655621436
20
14.7529182248
0
VERTEX
8
___SYMBOL
62
7
6
CONTINUOUS
10
20.4655097885
20
14.7530674095
0
VERTEX
8
___SYMBOL
62
7
6
CONTINUOUS
10
20.4654525097
20
14.7532147693
0
VERTEX
8
___SYMBOL
62
7
6
CONTINUOUS
10
20.4653904010
20
14.7533601623
0
VERTEX
8
___SYMBOL
62
7
6
CONTINUOUS
10
20.4653235560
20
14.7535034465
0
VERTEX
8
___SYMBOL
62
7
6
CONTINUOUS
10
20.4652520687
20
14.7536444800
0
VERTEX
8
___SYMBOL
62
7
6
CONTINUOUS
10
20.4651760326
20
14.7537831208
0
VERTEX
8
___SYMBOL
62
7
6
CONTINUOUS
10
20.4650955417
20
14.7539192271
0
VERTEX
8
___SYMBOL
62
7
6
CONTINUOUS
10
20.4650106895
20
14.7540526568
0
VERTEX
8
___SYMBOL
62
7
6
CONTINUOUS
10
20.4649215699
20
14.7541832681
0
VERTEX
8
___SYMBOL
62
7
6
CONTINUOUS
10
20.4648282767
20
14.7543109190
0
VERTEX
8
___SYMBOL
62
7
6
CONTINUOUS
10
20.4647309036
20
14.7544354676
0
VERTEX
8
___SYMBOL
62
7
6
CONTINUOUS
10
20.4646295443
20
14.7545567720
0
VERTEX
8
___SYMBOL
62
7
6
CONTINUOUS
10
20.4645242926
20
14.7546746902
0
VERTEX
8
___SYMBOL
62
7
6
CONTINUOUS
10
20.4644152423
20
14.7547890802
0
VERTEX
8
___SYMBOL
62
7
6
CONTINUOUS
10
20.4643024871
20
14.7548998003
0
VERTEX
8
___SYMBOL
62
7
6
CONTINUOUS
10
20.4641861208
20
14.7550067083
0
VERTEX
8
___SYMBOL
62
7
6
CONTINUOUS
10
20.4640662470
20
14.7551096733
0
VERTEX
8
___SYMBOL
62
7
6
CONTINUOUS
10
20.4639430094
20
14.7552086074
0
VERTEX
8
___SYMBOL
62
7
6
CONTINUOUS
10
20.4638165613
20
14.7553034337
0
VERTEX
8
___SYMBOL
62
7
6
CONTINUOUS
10
20.4636870564
20
14.7553940753
0
VERTEX
8
___SYMBOL
62
7
6
CONTINUOUS
10
20.4635546481
20
14.7554804552
0
VERTEX
8
___SYMBOL
62
7
6
CONTINUOUS
10
20.4634194899
20
14.7555624964
0
VERTEX
8
___SYMBOL
62
7
6
CONTINUOUS
10
20.4632817353
20
14.7556401222
0
VERTEX
8
___SYMBOL
62
7
6
CONTINUOUS
10
20.4631415378
20
14.7557132554
0
VERTEX
8
___SYMBOL
62
7
6
CONTINUOUS
10
20.4629990509
20
14.7557818192
0
VERTEX
8
___SYMBOL
62
7
6
CONTINUOUS
10
20.4628544280
20
14.7558457366
0
VERTEX
8
___SYMBOL
62
7
6
CONTINUOUS
10
20.4627078228
20
14.7559049307
0
VERTEX
8
___SYMBOL
62
7
6
CONTINUOUS
10
20.4625593887
20
14.7559593245
0
VERTEX
8
___SYMBOL
62
7
6
CONTINUOUS
10
20.4624092791
20
14.7560088411
0
VERTEX
8
___SYMBOL
62
7
6
CONTINUOUS
10
20.4622576476
20
14.7560534035
0
VERTEX
8
___SYMBOL
62
7
6
CONTINUOUS
10
20.4621046477
20
14.7560929349
0
VERTEX
8
___SYMBOL
62
7
6
CONTINUOUS
10
20.4619504329
20
14.7561273583
0
VERTEX
8
___SYMBOL
62
7
6
CONTINUOUS
10
20.4617951593
20
14.7561566111
0
VERTEX
8
___SYMBOL
62
7
6
CONTINUOUS
10
20.4616389941
20
14.7561806888
0
VERTEX
8
___SYMBOL
62
7
6
CONTINUOUS
10
20.4614821071
20
14.7561996012
0
VERTEX
8
___SYMBOL
62
7
6
CONTINUOUS
10
20.4613246680
20
14.7562133581
0
VERTEX
8
___SYMBOL
62
7
6
CONTINUOUS
10
20.4611668466
20
14.7562219694
0
VERTEX
8
___SYMBOL
62
7
6
CONTINUOUS
10
20.4610088128
20
14.7562254448
0
VERTEX
8
___SYMBOL
62
7
6
CONTINUOUS
10
20.4608507363
20
14.7562237943
0
VERTEX
8
___SYMBOL
62
7
6
CONTINUOUS
10
20.4606927869
20
14.7562170275
0
VERTEX
8
___SYMBOL
62
7
6
CONTINUOUS
10
20.4605351343
20
14.7562051545
0
VERTEX
8
___SYMBOL
62
7
6
CONTINUOUS
10
20.4603779485
20
14.7561881849
0
VERTEX
8
___SYMBOL
62
7
6
CONTINUOUS
10
20.4602213992
20
14.7561661287
0
VERTEX
8
___SYMBOL
62
7
6
CONTINUOUS
10
20.4600656562
20
14.7561389956
0
VERTEX
8
___SYMBOL
62
7
6
CONTINUOUS
10
20.4599108892
20
14.7561067956
0
VERTEX
8
___SYMBOL
62
7
6
CONTINUOUS
10
20.4597572681
20
14.7560695383
0
VERTEX
8
___SYMBOL
62
7
6
CONTINUOUS
10
20.4596049626
20
14.7560272336
0
VERTEX
8
___SYMBOL
62
7
6
CONTINUOUS
10
20.4594541426
20
14.7559798915
0
SEQEND
0
POLYLINE
8
___SYMBOL
62
7
6
CONTINUOUS
66
1
70
0
0
VERTEX
8
___SYMBOL
62
7
6
CONTINUOUS
10
20.7710540199
20
14.7519043004
0
VERTEX
8
___SYMBOL
62
7
6
CONTINUOUS
10
20.7711342307
20
14.7520888701
0
VERTEX
8
___SYMBOL
62
7
6
CONTINUOUS
10
20.7712082655
20
14.7522759986
0
VERTEX
8
___SYMBOL
62
7
6
CONTINUOUS
10
20.7712760891
20
14.7524654725
0
VERTEX
8
___SYMBOL
62
7
6
CONTINUOUS
10
20.7713376661
20
14.7526570780
0
VERTEX
8
___SYMBOL
62
7
6
CONTINUOUS
10
20.7713929614
20
14.7528506017
0
VERTEX
8
___SYMBOL
62
7
6
CONTINUOUS
10
20.7714419397
20
14.7530458299
0
VERTEX
8
___SYMBOL
62
7
6
CONTINUOUS
10
20.7714845656
20
14.7532425492
0
VERTEX
8
___SYMBOL
62
7
6
CONTINUOUS
10
20.7715208039
20
14.7534405458
0
VERTEX
8
___SYMBOL
62
7
6
CONTINUOUS
10
20.7715506194
20
14.7536396063
0
VERTEX
8
___SYMBOL
62
7
6
CONTINUOUS
10
20.7715739766
20
14.7538395171
0
VERTEX
8
___SYMBOL
62
7
6
CONTINUOUS
10
20.7715908405
20
14.7540400645
0
VERTEX
8
___SYMBOL
62
7
6
CONTINUOUS
10
20.7716011757
20
14.7542410350
0
VERTEX
8
___SYMBOL
62
7
6
CONTINUOUS
10
20.7716049468
20
14.7544422151
0
VERTEX
8
___SYMBOL
62
7
6
CONTINUOUS
10
20.7716021188
20
14.7546433912
0
VERTEX
8
___SYMBOL
62
7
6
CONTINUOUS
10
20.7715926562
20
14.7548443496
0
VERTEX
8
___SYMBOL
62
7
6
CONTINUOUS
10
20.7715765238
20
14.7550448769
0
VERTEX
8
___SYMBOL
62
7
6
CONTINUOUS
10
20.7715537050
20
14.7552447609
0
VERTEX
8
___SYMBOL
62
7
6
CONTINUOUS
10
20.7715242579
20
14.7554437955
0
VERTEX
8
___SYMBOL
62
7
6
CONTINUOUS
10
20.7714882591
20
14.7556417761
0
VERTEX
8
___SYMBOL
62
7
6
CONTINUOUS
10
20.7714457853
20
14.7558384979
0
VERTEX
8
___SYMBOL
62
7
6
CONTINUOUS
10
20.7713969132
20
14.7560337564
0
VERTEX
8
___SYMBOL
62
7
6
CONTINUOUS
10
20.7713417197
20
14.7562273470
0
VERTEX
8
___SYMBOL
62
7
6
CONTINUOUS
10
20.7712802812
20
14.7564190649
0
VERTEX
8
___SYMBOL
62
7
6
CONTINUOUS
10
20.7712126747
20
14.7566087055
0
VERTEX
8
___SYMBOL
62
7
6
CONTINUOUS
10
20.7711389766
20
14.7567960642
0
VERTEX
8
___SYMBOL
62
7
6
CONTINUOUS
10
20.7710592639
20
14.7569809364
0
VERTEX
8
___SYMBOL
62
7
6
CONTINUOUS
10
20.7709736131
20
14.7571631173
0
VERTEX
8
___SYMBOL
62
7
6
CONTINUOUS
10
20.7708821010
20
14.7573424024
0
VERTEX
8
___SYMBOL
62
7
6
CONTINUOUS
10
20.7707848043
20
14.7575185869
0
VERTEX
8
___SYMBOL
62
7
6
CONTINUOUS
10
20.7706817996
20
14.7576914664
0
VERTEX
8
___SYMBOL
62
7
6
CONTINUOUS
10
20.7705731637
20
14.7578608360
0
VERTEX
8
___SYMBOL
62
7
6
CONTINUOUS
10
20.7704589734
20
14.7580264912
0
VERTEX
8
___SYMBOL
62
7
6
CONTINUOUS
10
20.7703393202
20
14.7581882385
0
VERTEX
8
___SYMBOL
62
7
6
CONTINUOUS
10
20.7702143562
20
14.7583459289
0
VERTEX
8
___SYMBOL
62
7
6
CONTINUOUS
10
20.7700842484
20
14.7584994245
0
VERTEX
8
___SYMBOL
62
7
6
CONTINUOUS
10
20.7699491637
20
14.7586485877
0
VERTEX
8
___SYMBOL
62
7
6
CONTINUOUS
10
20.7698092691
20
14.7587932805
0
VERTEX
8
___SYMBOL
62
7
6
CONTINUOUS
10
20.7696647316
20
14.7589333652
0
VERTEX
8
___SYMBOL
62
7
6
CONTINUOUS
10
20.7695157181
20
14.7590687040
0
VERTEX
8
___SYMBOL
62
7
6
CONTINUOUS
10
20.7693623957
20
14.7591991591
0
VERTEX
8
___SYMBOL
62
7
6
CONTINUOUS
10
20.7692049313
20
14.7593245926
0
VERTEX
8
___SYMBOL
62
7
6
CONTINUOUS
10
20.7690434919
20
14.7594448667
0
VERTEX
8
___SYMBOL
62
7
6
CONTINUOUS
10
20.7688782444
20
14.7595598436
0
VERTEX
8
___SYMBOL
62
7
6
CONTINUOUS
10
20.7687093559
20
14.7596693856
0
VERTEX
8
___SYMBOL
62
7
6
CONTINUOUS
10
20.7685369933
20
14.7597733548
0
VERTEX
8
___SYMBOL
62
7
6
CONTINUOUS
10
20.7683613236
20
14.7598716134
0
VERTEX
8
___SYMBOL
62
7
6
CONTINUOUS
10
20.7681825138
20
14.7599640236
0
VERTEX
8
___SYMBOL
62
7
6
CONTINUOUS
10
20.7680007308
20
14.7600504476
0
SEQEND
0
LINE
8
___SYMBOL
62
7
6
CONTINUOUS
10
20.7730878725
20
14.7305195680
11
20.7578178725
21
14.7325595680
0
LINE
8
___SYMBOL
62
7
6
CONTINUOUS
10
20.7578178725
20
14.7325595680
11
20.7517078725
21
14.7345895680
0
LINE
8
___SYMBOL
62
7
6
CONTINUOUS
10
20.7517078725
20
14.7345895680
11
20.7445778725
21
14.7345895680
0
POLYLINE
8
___SYMBOL
62
7
6
CONTINUOUS
66
1
70
0
0
VERTEX
8
___SYMBOL
62
7
6
CONTINUOUS
10
20.8708478725
20
15.1842595680
0
VERTEX
8
___SYMBOL
62
7
6
CONTINUOUS
10
20.8709167097
20
15.1860292268
0
VERTEX
8
___SYMBOL
62
7
6
CONTINUOUS
10
20.8709178979
20
15.1877997339
0
VERTEX
8
___SYMBOL
62
7
6
CONTINUOUS
10
20.8708518778
20
15.1895694409
0
VERTEX
8
___SYMBOL
62
7
6
CONTINUOUS
10
20.8707190901
20
15.1913366992
0
VERTEX
8
___SYMBOL
62
7
6
CONTINUOUS
10
20.8705199757
20
15.1930998603
0
VERTEX
8
___SYMBOL
62
7
6
CONTINUOUS
10
20.8702549753
20
15.1948572757
0
VERTEX
8
___SYMBOL
62
7
6
CONTINUOUS
10
20.8699245295
20
15.1966072967
0
VERTEX
8
___SYMBOL
62
7
6
CONTINUOUS
10
20.8695290791
20
15.1983482750
0
VERTEX
8
___SYMBOL
62
7
6
CONTINUOUS
10
20.8690690649
20
15.2000785620
0
VERTEX
8
___SYMBOL
62
7
6
CONTINUOUS
10
20.8685449275
20
15.2017965090
0
VERTEX
8
___SYMBOL
62
7
6
CONTINUOUS
10
20.8679571078
20
15.2035004677
0
VERTEX
8
___SYMBOL
62
7
6
CONTINUOUS
10
20.8673060465
20
15.2051887895
0
VERTEX
8
___SYMBOL
62
7
6
CONTINUOUS
10
20.8665921843
20
15.2068598257
0
VERTEX
8
___SYMBOL
62
7
6
CONTINUOUS
10
20.8658159619
20
15.2085119280
0
VERTEX
8
___SYMBOL
62
7
6
CONTINUOUS
10
20.8649778201
20
15.2101434478
0
VERTEX
8
___SYMBOL
62
7
6
CONTINUOUS
10
20.8640781996
20
15.2117527365
0
VERTEX
8
___SYMBOL
62
7
6
CONTINUOUS
10
20.8631175412
20
15.2133381456
0
VERTEX
8
___SYMBOL
62
7
6
CONTINUOUS
10
20.8620964455
20
15.2148980912
0
VERTEX
8
___SYMBOL
62
7
6
CONTINUOUS
10
20.8610161526
20
15.2164312483
0
VERTEX
8
___SYMBOL
62
7
6
CONTINUOUS
10
20.8598780625
20
15.2179363564
0
VERTEX
8
___SYMBOL
62
7
6
CONTINUOUS
10
20.8586835755
20
15.2194121550
0
VERTEX
8
___SYMBOL
62
7
6
CONTINUOUS
10
20.8574340914
20
15.2208573836
0
VERTEX
8
___SYMBOL
62
7
6
CONTINUOUS
10
20.8561310104
20
15.2222707819
0
VERTEX
8
___SYMBOL
62
7
6
CONTINUOUS
10
20.8547757324
20
15.2236510894
0
VERTEX
8
___SYMBOL
62
7
6
CONTINUOUS
10
20.8533696576
20
15.2249970456
0
VERTEX
8
___SYMBOL
62
7
6
CONTINUOUS
10
20.8519141860
20
15.2263073902
0
VERTEX
8
___SYMBOL
62
7
6
CONTINUOUS
10
20.8504107176
20
15.2275808625
0
VERTEX
8
___SYMBOL
62
7
6
CONTINUOUS
10
20.8488606525
20
15.2288162023
0
VERTEX
8
___SYMBOL
62
7
6
CONTINUOUS
10
20.8472653907
20
15.2300121490
0
VERTEX
8
___SYMBOL
62
7
6
CONTINUOUS
10
20.8456263323
20
15.2311674421
0
VERTEX
8
___SYMBOL
62
7
6
CONTINUOUS
10
20.8439448774
20
15.2322808214
0
VERTEX
8
___SYMBOL
62
7
6
CONTINUOUS
10
20.8422224259
20
15.2333510262
0
VERTEX
8
___SYMBOL
62
7
6
CONTINUOUS
10
20.8404603780
20
15.2343767962
0
VERTEX
8
___SYMBOL
62
7
6
CONTINUOUS
10
20.8386601336
20
15.2353568709
0
VERTEX
8
___SYMBOL
62
7
6
CONTINUOUS
10
20.8367042643
20
15.2363483044
0
VERTEX
8
___SYMBOL
62
7
6
CONTINUOUS
10
20.8347090967
20
15.2372859502
0
VERTEX
8
___SYMBOL
62
7
6
CONTINUOUS
10
20.8326769959
20
15.2381691872
0
VERTEX
8
___SYMBOL
62
7
6
CONTINUOUS
10
20.8306103272
20
15.2389973941
0
VERTEX
8
___SYMBOL
62
7
6
CONTINUOUS
10
20.8285114556
20
15.2397699497
0
VERTEX
8
___SYMBOL
62
7
6
CONTINUOUS
10
20.8263827463
20
15.2404862329
0
VERTEX
8
___SYMBOL
62
7
6
CONTINUOUS
10
20.8242265645
20
15.2411456226
0
VERTEX
8
___SYMBOL
62
7
6
CONTINUOUS
10
20.8220452751
20
15.2417474975
0
VERTEX
8
___SYMBOL
62
7
6
CONTINUOUS
10
20.8198412435
20
15.2422912365
0
VERTEX
8
___SYMBOL
62
7
6
CONTINUOUS
10
20.8176168347
20
15.2427762184
0
VERTEX
8
___SYMBOL
62
7
6
CONTINUOUS
10
20.8153744138
20
15.2432018220
0
VERTEX
8
___SYMBOL
62
7
6
CONTINUOUS
10
20.8131163461
20
15.2435674261
0
VERTEX
8
___SYMBOL
62
7
6
CONTINUOUS
10
20.8108449966
20
15.2438724097
0
VERTEX
8
___SYMBOL
62
7
6
CONTINUOUS
10
20.8085627304
20
15.2441161514
0
VERTEX
8
___SYMBOL
62
7
6
CONTINUOUS
10
20.8068290881
20
15.2442595680
0
SEQEND
0
LINE
8
___SYMBOL
62
7
6
CONTINUOUS
10
20.0903178725
20
14.7773595680
11
19.1572378725
21
14.7773595680
0
LINE
8
___SYMBOL
62
7
6
CONTINUOUS
10
19.1572378725
20
14.7773595680
11
19.1329978725
21
14.8857095680
0
LINE
8
___SYMBOL
62
7
6
CONTINUOUS
10
19.1329978725
20
14.8857095680
11
19.1857478725
21
14.9427395680
0
LINE
8
___SYMBOL
62
7
6
CONTINUOUS
10
19.1857478725
20
14.9427395680
11
19.1572378725
21
15.0596395680
0
LINE
8
___SYMBOL
62
7
6
CONTINUOUS
10
19.1572378725
20
15.0596395680
11
19.2299378725
21
15.1052595680
0
LINE
8
___SYMBOL
62
7
6
CONTINUOUS
10
19.2299378725
20
15.1052595680
11
19.2327878725
21
15.1979295680
0
LINE
8
___SYMBOL
62
7
6
CONTINUOUS
10
19.2327878725
20
15.1979295680
11
19.3240378725
21
15.2442595680
0
LINE
8
___SYMBOL
62
7
6
CONTINUOUS
10
19.3240378725
20
15.2442595680
11
20.8068290881
21
15.2442595680
0
LINE
8
___SYMBOL
62
7
6
CONTINUOUS
10
20.1808378725
20
14.7773595680
11
20.8708478725
21
14.7773595680
0
LINE
8
___SYMBOL
62
7
6
CONTINUOUS
10
20.8708478725
20
14.7773595680
11
20.8708478725
21
15.1842595680
0
LINE
8
___SYMBOL
62
2
6
CONTINUOUS
10
20.8152478725
20
14.7773595680
11
20.8708478725
21
14.8272595680
0
LINE
8
___SYMBOL
62
2
6
CONTINUOUS
10
20.6277919311
20
14.7773595680
11
20.8708478725
21
14.9954895680
0
LINE
8
___SYMBOL
62
2
6
CONTINUOUS
10
20.5197698725
20
14.7773595680
11
20.8708478725
21
15.0924295680
0
LINE
8
___SYMBOL
62
2
6
CONTINUOUS
10
20.4196961588
20
14.7773595680
11
20.8708478725
21
15.1822395680
0
LINE
8
___SYMBOL
62
2
6
CONTINUOUS
10
20.3099980543
20
14.7773595680
11
20.8343550694
21
15.2374449118
0
LINE
8
___SYMBOL
62
2
6
CONTINUOUS
10
20.2328778725
20
14.8106095680
11
20.7160930221
21
15.2442595680
0
LINE
8
___SYMBOL
62
2
6
CONTINUOUS
10
20.2328778725
20
14.9173895680
11
20.5971081873
21
15.2442595680
0
LINE
8
___SYMBOL
62
2
6
CONTINUOUS
10
20.2328778725
20
15.0175795680
11
20.4854598804
21
15.2442595680
0
LINE
8
___SYMBOL
62
2
6
CONTINUOUS
10
19.7460958728
20
14.7773595680
11
20.0332878725
21
15.0350948396
0
LINE
8
___SYMBOL
62
2
6
CONTINUOUS
10
19.6344533325
20
14.7773595680
11
20.1547098756
21
15.2442595680
0
LINE
8
___SYMBOL
62
2
6
CONTINUOUS
10
19.5261075796
20
14.7773595680
11
20.0463687381
21
15.2442595680
0
LINE
8
___SYMBOL
62
2
6
CONTINUOUS
10
20.1469078725
20
15.0376695680
11
20.3771061498
21
15.2442595680
0
LINE
8
___SYMBOL
62
2
6
CONTINUOUS
10
19.9651926985
20
14.7773595680
11
20.0332878725
21
14.8384695680
0
LINE
8
___SYMBOL
62
2
6
CONTINUOUS
10
19.4167758728
20
14.7773595680
11
19.9370381707
21
15.2442595680
0
LINE
8
___SYMBOL
62
2
6
CONTINUOUS
10
19.3051169401
20
14.7773595680
11
19.8258578725
21
15.2446795680
0
LINE
8
___SYMBOL
62
2
6
CONTINUOUS
10
19.1967775796
20
14.7773595680
11
19.7170387381
21
15.2442595680
0
LINE
8
___SYMBOL
62
2
6
CONTINUOUS
10
19.1446147961
20
14.8337832614
11
19.6020081923
21
15.2442595680
0
LINE
8
___SYMBOL
62
2
6
CONTINUOUS
10
19.1801151337
20
14.9658355751
11
19.4903598712
21
15.2442595680
0
LINE
8
___SYMBOL
62
2
6
CONTINUOUS
10
19.2300175730
20
15.1078510926
11
19.3820188104
21
15.2442595680
0
LINE
8
___SYMBOL
62
2
6
CONTINUOUS
10
20.3790078725
20
14.6704395680
11
20.4253378725
21
14.7132095680
0
LINE
8
___SYMBOL
62
2
6
CONTINUOUS
10
20.4336578725
20
14.6704395680
11
20.4799878725
21
14.7132095680
0
LINE
8
___SYMBOL
62
2
6
CONTINUOUS
10
20.5013678725
20
14.6704395680
11
20.5477078725
21
14.7132095680
0
LINE
8
___SYMBOL
62
2
6
CONTINUOUS
10
20.5607778725
20
14.6704395680
11
20.6071078725
21
14.7132095680
0
LINE
8
___SYMBOL
62
2
6
CONTINUOUS
10
20.6189878725
20
14.6704395680
11
20.6653178725
21
14.7132095680
0
LINE
8
___SYMBOL
62
2
6
CONTINUOUS
10
20.6760078725
20
14.6704395680
11
20.7223478725
21
14.7132095680
0
LINE
8
___SYMBOL
62
2
6
CONTINUOUS
10
20.7401678725
20
14.6704395680
11
20.7834979227
21
14.7104365374
0
LINE
8
___SYMBOL
62
2
6
CONTINUOUS
10
20.8266696044
20
14.6246276118
11
20.8581972673
21
14.6537396179
0
LINE
8
___SYMBOL
62
2
6
CONTINUOUS
10
20.8352078725
20
14.5597709430
11
20.8755978725
21
14.5970595680
0
LINE
8
___SYMBOL
62
2
6
CONTINUOUS
10
20.8352078725
20
14.4977195680
11
20.8755978725
21
14.5349995680
0
LINE
8
___SYMBOL
62
2
6
CONTINUOUS
10
20.8352078725
20
14.4276295680
11
20.8755978725
21
14.4649095680
0
LINE
8
___SYMBOL
62
2
6
CONTINUOUS
10
20.8352078725
20
14.3575295680
11
20.8755978725
21
14.3948195680
0
LINE
8
___SYMBOL
62
2
6
CONTINUOUS
10
20.8352078725
20
14.2814995680
11
20.8755978725
21
14.3187795680
0
LINE
8
___SYMBOL
62
2
6
CONTINUOUS
10
20.8352078725
20
14.2161595680
11
20.8755978725
21
14.2534395680
0
LINE
8
___SYMBOL
62
2
6
CONTINUOUS
10
20.8352078725
20
14.1496295680
11
20.8755978725
21
14.1869095680
0
LINE
8
___SYMBOL
62
2
6
CONTINUOUS
10
20.8352078725
20
14.0724095680
11
20.8755978725
21
14.1096895680
0
LINE
8
___SYMBOL
62
2
6
CONTINUOUS
10
20.8352078725
20
14.0034995680
11
20.8755978725
21
14.0407795680
0
LINE
8
___SYMBOL
62
2
6
CONTINUOUS
10
20.8352078725
20
13.9334095680
11
20.8755978725
21
13.9706895680
0
LINE
8
___SYMBOL
62
2
6
CONTINUOUS
10
20.8352078725
20
13.8751964911
11
20.8755978725
21
13.9124795680
0
LINE
8
___SYMBOL
62
7
6
CONTINUOUS
10
20.0903178725
20
14.5254995680
11
20.1808378725
21
14.5254995680
0
LINE
8
___SYMBOL
62
2
6
CONTINUOUS
10
19.8570167142
20
14.7773595680
11
20.0332878725
21
14.9355495680
0
LINE
8
___SYMBOL
62
2
6
CONTINUOUS
10
20.0360120105
20
15.0375395680
11
20.2663581707
21
15.2442595680
0
LINE
8
___SYMBOL
62
7
6
CONTINUOUS
10
20.0332878725
20
15.0375395680
11
20.0332878725
21
14.7773595680
0
ENDBLK
8
0
6
BYBLOCK
62
0
0
BLOCK
8
___SYMBOL
62
2
6
CONTINUOUS
2
COPYRIGHT_YEAR_BL2
70
64
10
20.6602472779
20
10.3729804013
0
TEXT
8
___SYMBOL
62
2
6
CONTINUOUS
10
20.2865569744
20
10.3377069013
7
STANDARD
40
0.0704997506
1
2007
41
0.8000000000
72
0
0
TEXT
8
___SYMBOL
62
2
6
CONTINUOUS
10
20.5121561763
20
10.3377069013
7
STANDARD
40
0.0704997506
1
 KOHLER CO.
41
0.8000000000
72
0
0
TEXT
8
___SYMBOL
62
7
6
CONTINUOUS
10
20.2065315085
20
10.3541918432
7
STANDARD
40
0.0421873503
1
C
41
1.0000000000
72
0
0
CIRCLE
8
___SYMBOL
62
7
6
CONTINUOUS
10
20.2207664579
20
10.3754280178
40
0.0328258835
0
ENDBLK
8
0
6
BYBLOCK
62
0
0
BLOCK
8
___SYMBOL
62
2
6
CONTINUOUS
2
TEMPLATE_NUMBER_BL3
70
64
10
14.9169310188
20
9.9893891637
0
TEXT
8
___SYMBOL
62
2
6
CONTINUOUS
10
14.6067310188
20
9.9541391637
7
STANDARD
40
0.0705000000
1
1061196-7
41
0.8000000000
72
0
0
TEXT
8
___SYMBOL
62
2
6
CONTINUOUS
10
15.1143310188
20
9.9541391637
7
STANDARD
40
0.0705000000
1
-
41
0.8000000000
72
0
0
TEXT
8
___SYMBOL
62
2
6
CONTINUOUS
10
15.1707310188
20
9.9541391637
7
STANDARD
40
0.0705000000
1
C
41
0.8000000000
72
0
0
ENDBLK
8
0
6
BYBLOCK
62
0
0
BLOCK
8
___SYMBOL
62
2
6
CONTINUOUS
2
TEMPLATE_NUMBER_BL4
70
64
10
14.9096097884
20
8.5784053855
0
TEXT
8
___SYMBOL
62
2
6
CONTINUOUS
10
14.5994097884
20
8.5431553855
7
STANDARD
40
0.0705000000
1
1061196-7
41
0.8000000000
72
0
0
TEXT
8
___SYMBOL
62
2
6
CONTINUOUS
10
15.1070097884
20
8.5431553855
7
STANDARD
40
0.0705000000
1
-
41
0.8000000000
72
0
0
TEXT
8
___SYMBOL
62
2
6
CONTINUOUS
10
15.1634097884
20
8.5431553855
7
STANDARD
40
0.0705000000
1
C
41
0.8000000000
72
0
0
ENDBLK
8
0
6
BYBLOCK
62
0
0
BLOCK
8
0
2
_FILLED
70
64
10
0.0000000000
20
0.0000000000
0
SOLID
8
0
6
BYBLOCK
62
0
10
0.0000000000
20
0.0000000000
11
-1.0000000000
21
0.1666666667
12
-1.0000000000
22
-0.1666666667
13
-1.0000000000
23
-0.1666666667
0
ENDBLK
8
0
6
BYBLOCK
62
0
0
ENDSEC
0
SECTION
2
ENTITIES
0
SOLID
8
0
62
7
6
CONTINUOUS
10
14.7441103408
20
15.6627103327
11
14.7441103408
21
15.7843453329
12
15.0870628375
22
15.7843453329
13
15.0870628375
23
15.7843453329
0
SOLID
8
0
62
7
6
CONTINUOUS
10
15.0870628375
20
15.7843453329
11
15.0870628375
21
15.6627103327
12
14.7441103408
22
15.6627103327
13
14.7441103408
23
15.6627103327
0
SOLID
8
0
62
7
6
CONTINUOUS
10
13.1559028563
20
15.6627103327
11
13.1559028563
21
15.7843453329
12
14.0116078480
22
15.7843453329
13
14.0116078480
23
15.7843453329
0
SOLID
8
0
62
7
6
CONTINUOUS
10
14.0116078480
20
15.7843453329
11
14.0116078480
21
15.6627103327
12
13.1559028563
22
15.6627103327
13
13.1559028563
23
15.6627103327
0
SOLID
8
0
62
7
6
CONTINUOUS
10
13.1559028563
20
15.3760978461
11
13.1559028563
21
15.4110778282
12
14.0116078480
22
15.4110778282
13
14.0116078480
23
15.4110778282
0
SOLID
8
0
62
7
6
CONTINUOUS
10
14.0116078480
20
15.4110778282
11
14.0116078480
21
15.3760978461
12
13.1559028563
22
15.3760978461
13
13.1559028563
23
15.3760978461
0
SOLID
8
0
62
7
6
CONTINUOUS
10
13.2025528559
20
16.2559303318
11
13.2025528559
21
16.3175803219
12
14.0582578475
22
16.3175803219
13
14.0582578475
23
16.3175803219
0
SOLID
8
0
62
7
6
CONTINUOUS
10
14.0582578475
20
16.3175803219
11
14.0582578475
21
16.2559303318
12
13.2025528559
22
16.2559303318
13
13.2025528559
23
16.2559303318
0
SOLID
8
0
62
7
6
CONTINUOUS
10
13.2025528559
20
16.1559478236
11
13.2025528559
21
16.2175978477
12
14.0582578475
22
16.2175978477
13
14.0582578475
23
16.2175978477
0
SOLID
8
0
62
7
6
CONTINUOUS
10
14.0582578475
20
16.2175978477
11
14.0582578475
21
16.1559478236
12
13.2025528559
22
16.1559478236
13
13.2025528559
23
16.1559478236
0
SOLID
8
0
62
7
6
CONTINUOUS
10
13.2025528559
20
16.0559728294
11
13.2025528559
21
16.1176153395
12
14.0582578475
22
16.1176153395
13
14.0582578475
23
16.1176153395
0
SOLID
8
0
62
7
6
CONTINUOUS
10
14.0582578475
20
16.1176153395
11
14.0582578475
21
16.0559728294
12
13.2025528559
22
16.0559728294
13
13.2025528559
23
16.0559728294
0
SOLID
8
0
62
7
6
CONTINUOUS
10
13.2025528559
20
15.9559903552
11
13.2025528559
21
16.0176328313
12
14.0582578475
22
16.0176328313
13
14.0582578475
23
16.0176328313
0
SOLID
8
0
62
7
6
CONTINUOUS
10
14.0582578475
20
16.0176328313
11
14.0582578475
21
15.9559903552
12
13.2025528559
22
15.9559903552
13
13.2025528559
23
15.9559903552
0
SOLID
8
0
62
7
6
CONTINUOUS
10
13.2025528559
20
15.8293453530
11
13.2025528559
21
15.8909953431
12
14.0582578475
22
15.8909953431
13
14.0582578475
23
15.8909953431
0
SOLID
8
0
62
7
6
CONTINUOUS
10
14.0582578475
20
15.8909953431
11
14.0582578475
21
15.8293453530
12
13.2025528559
22
15.8293453530
13
13.2025528559
23
15.8293453530
0
DIMENSION
8
0
62
2
6
CONTINUOUS
2
*D0
10
18.0020798737
20
9.2641026004
11
18.0020798737
21
18.1054770895
70
128
13
14.6761863524
23
28.7250733160
14
14.6761844117
24
9.2641026004
50
270.000000
0
DIMENSION
8
0
62
2
6
CONTINUOUS
2
*D1
10
25.3594766147
20
19.5872389053
11
19.9741098526
21
19.4700514053
70
128
13
11.1485059932
23
19.0570879486
14
25.3594766147
24
19.0570879486
0
DIMENSION
8
0
62
2
6
CONTINUOUS
2
*D2
10
18.7000974251
20
9.7641026004
11
18.7000974251
21
21.5316992631
70
128
13
14.6761863524
23
28.2250733160
14
14.6761844117
24
9.7641026004
50
270.000000
0
DIMENSION
8
0
62
2
6
CONTINUOUS
2
*D3
10
10.6485059932
20
20.6443839926
11
17.0095859304
21
20.5271964926
70
128
13
25.8594766147
23
19.0570879486
14
10.6485059932
24
19.0570879486
50
180.000000
0
TEXT
8
___NOTE
62
2
6
CONTINUOUS
10
18.9758134544
20
26.8980080749
7
STANDARD
40
0.1562500000
1
WHEN PLOTTING TEMPLATE FULL SIZE:
41
0.8000000000
72
0
0
TEXT
8
___NOTE
62
2
6
CONTINUOUS
10
18.9758134544
20
26.6636330749
7
STANDARD
40
0.1562500000
1
Make sure horizontal and vertical dimensions
41
0.8000000000
72
0
0
TEXT
8
___NOTE
62
2
6
CONTINUOUS
10
18.9758134544
20
26.4292580749
7
STANDARD
40
0.1562500000
1
match the dimensions labeled on the template.
41
0.8000000000
72
0
0
TEXT
8
___NOTE
62
2
6
CONTINUOUS
10
18.9758134544
20
26.1948830749
7
STANDARD
40
0.1562500000
1
 
41
0.8000000000
72
0
0
TEXT
8
___NOTE
62
2
6
CONTINUOUS
10
18.9758134544
20
25.9605080749
7
STANDARD
40
0.1562500000
1
AU MOMENT DE TRACER LA DÉCOUPE À L'ÉCHELLE,
41
0.8000000000
72
0
0
TEXT
8
___NOTE
62
2
6
CONTINUOUS
10
18.9758134544
20
25.7261330749
7
STANDARD
40
0.1562500000
1
Assurez vos que les dimensions horizotales et
41
0.8000000000
72
0
0
TEXT
8
___NOTE
62
2
6
CONTINUOUS
10
18.9758134544
20
25.4917580749
7
STANDARD
40
0.1562500000
1
verticales correspondent avec les dimensions 
41
0.8000000000
72
0
0
TEXT
8
___NOTE
62
2
6
CONTINUOUS
10
18.9758134544
20
25.2573830749
7
STANDARD
40
0.1562500000
1
du plan.
41
0.8000000000
72
0
0
TEXT
8
___NOTE
62
2
6
CONTINUOUS
10
18.9758134544
20
25.0230080749
7
STANDARD
40
0.1562500000
1
 
41
0.8000000000
72
0
0
TEXT
8
___NOTE
62
2
6
CONTINUOUS
10
18.9758134544
20
24.7886330749
7
STANDARD
40
0.1562500000
1
AL TRAZAR LA PLANTILLA A ESCALA,
41
0.8000000000
72
0
0
TEXT
8
___NOTE
62
2
6
CONTINUOUS
10
18.9758134544
20
24.5542580749
7
STANDARD
40
0.1562500000
1
asegúrese de que las dimensiones horizontales
41
0.8000000000
72
0
0
TEXT
8
___NOTE
62
2
6
CONTINUOUS
10
18.9758134544
20
24.3198830749
7
STANDARD
40
0.1562500000
1
y verticales concuerden con las dimensiones 
41
0.8000000000
72
0
0
TEXT
8
___NOTE
62
2
6
CONTINUOUS
10
18.9758134544
20
24.0855080749
7
STANDARD
40
0.1562500000
1
marcadasen la plantilla.
41
0.8000000000
72
0
0
TEXT
8
___NOTE
62
2
6
CONTINUOUS
10
18.9758134544
20
23.8511330749
7
STANDARD
40
0.1562500000
1
 
41
0.8000000000
72
0
0
TEXT
8
___NOTE
62
2
6
CONTINUOUS
10
11.7552044027
20
24.9649665243
7
STANDARD
40
0.2500000000
1
CUT-OUT TEMPLATE
41
0.8000000000
72
0
0
TEXT
8
___NOTE
62
2
6
CONTINUOUS
10
11.7552044027
20
24.5899665243
7
STANDARD
40
0.2500000000
1
UNDERCOUNTER SINK
41
0.8000000000
72
0
0
TEXT
8
___NOTE
62
2
6
CONTINUOUS
10
11.7552044027
20
24.2149665243
7
STANDARD
40
0.2500000000
1
PLAN DE DÉCOUPE
41
0.8000000000
72
0
0
TEXT
8
___NOTE
62
2
6
CONTINUOUS
10
11.7552044027
20
23.8399665243
7
STANDARD
40
0.2500000000
1
ÉVIER SOUS-COMPTOIR
41
0.8000000000
72
0
0
TEXT
8
___NOTE
62
2
6
CONTINUOUS
10
11.7552044027
20
23.4649665243
7
STANDARD
40
0.2500000000
1
PLANTILLA DE RECORTE
41
0.8000000000
72
0
0
TEXT
8
___NOTE
62
2
6
CONTINUOUS
10
11.7552044027
20
23.0899665243
7
STANDARD
40
0.2500000000
1
FREGADERO MONTADO DEBAJO
41
0.8000000000
72
0
0
TEXT
8
___NOTE
62
2
6
CONTINUOUS
10
11.7552044027
20
22.7149665243
7
STANDARD
40
0.2500000000
1
  DEL MOSTRADOR
41
0.8000000000
72
0
0
TEXT
8
___NOTE
62
2
6
CONTINUOUS
10
11.7552044027
20
22.3399665243
7
STANDARD
40
0.2500000000
1
SPRINGDALE  16X20X8 UC ENT SINK
41
0.8000000000
72
0
0
TEXT
8
___NOTE
62
2
6
CONTINUOUS
10
11.7552044027
20
21.9649665243
7
STANDARD
40
0.2500000000
1
      11449-**-AA
41
0.8000000000
72
0
0
TEXT
8
___NOTE
62
2
6
CONTINUOUS
10
13.8361096028
20
22.5504404465
7
STANDARD
40
0.1000000000
1
TM
41
0.8000000000
72
0
0
TEXT
8
___NOTE
62
7
6
CONTINUOUS
10
13.3034428549
20
15.5085703432
7
STANDARD
40
0.0593587494
1
XXXXX-XX-X-XX
41
0.8258950223
72
0
0
TEXT
8
___NOTE
62
7
6
CONTINUOUS
10
14.9374228389
20
15.3794053445
7
STANDARD
40
0.0445192496
1
xxxxxx-xx
41
0.6740211631
72
0
0
TEXT
8
___NOTE
62
2
6
CONTINUOUS
10
12.1730985574
20
17.0521990080
7
STANDARD
40
0.1562500055
1
PACKAGING/UPC LABEL ON BOX
41
0.8000000000
72
0
0
TEXT
8
___NOTE
62
2
6
CONTINUOUS
10
12.1730985574
20
16.8178240066
7
STANDARD
40
0.1562500003
1
ETIQUETTE D'EMBALLAGE/UPC SUR LA BOÎTE
41
0.7999999985
72
0
0
TEXT
8
___NOTE
62
2
6
CONTINUOUS
10
12.1730985574
20
16.5834489997
7
STANDARD
40
0.1562500055
1
ETIQUETA DE EMBALAJE/UPC EN LA CAJA
41
0.8000000000
72
0
0
TEXT
8
___NOTE
62
2
6
CONTINUOUS
10
12.1730985574
20
16.3490739914
7
STANDARD
40
0.1562500055
1
 
41
0.8000000000
72
0
0
TEXT
8
___NOTE
62
2
6
CONTINUOUS
10
12.1499436482
20
14.8640600882
7
STANDARD
40
0.1562500055
1
The template and the label suffixes circled
41
0.8000000000
72
0
0
TEXT
8
___NOTE
62
2
6
CONTINUOUS
10
12.1499436482
20
14.6296850799
7
STANDARD
40
0.1562500055
1
must match for proper cut-out.
41
0.8000000000
72
0
0
TEXT
8
___NOTE
62
2
6
CONTINUOUS
10
12.1499436482
20
14.3953100785
7
STANDARD
40
0.1562500003
1
 
41
0.7999999985
72
0
0
TEXT
8
___NOTE
62
2
6
CONTINUOUS
10
12.1499436482
20
14.1609350785
7
STANDARD
40
0.1562500003
1
Afin de découper l'ouverture correctement,
41
0.7999999985
72
0
0
TEXT
8
___NOTE
62
2
6
CONTINUOUS
10
12.1499436482
20
13.9265600785
7
STANDARD
40
0.1562500003
1
le gabarit et les suffixes encerclés
41
0.7999999985
72
0
0
TEXT
8
___NOTE
62
2
6
CONTINUOUS
10
12.1499436482
20
13.6921850785
7
STANDARD
40
0.1562500003
1
doivent correspondre
41
0.7999999985
72
0
0
TEXT
8
___NOTE
62
2
6
CONTINUOUS
10
12.1499436482
20
13.4578100785
7
STANDARD
40
0.1562500003
1
 
41
0.7999999985
72
0
0
TEXT
8
___NOTE
62
2
6
CONTINUOUS
10
12.1499436482
20
13.2234350716
7
STANDARD
40
0.1562500055
1
A fin de realizar el corte apropiado, la
41
0.8000000000
72
0
0
TEXT
8
___NOTE
62
2
6
CONTINUOUS
10
12.1499436482
20
12.9890600702
7
STANDARD
40
0.1562500003
1
plantilla y los sufijos de la etiqueta
41
0.7999999985
72
0
0
TEXT
8
___NOTE
62
2
6
CONTINUOUS
10
12.1499436482
20
12.7546850702
7
STANDARD
40
0.1562500003
1
demarcados deben concordar.
41
0.7999999985
72
0
0
TEXT
8
___NOTE
62
2
6
CONTINUOUS
10
12.1499436482
20
12.5203100702
7
STANDARD
40
0.1562500003
1
 
41
0.7999999985
72
0
0
TEXT
8
___NOTE
62
2
6
CONTINUOUS
10
12.1499436482
20
12.2859350702
7
STANDARD
40
0.1562500003
1
 
41
0.7999999985
72
0
0
TEXT
8
___NOTE
62
2
6
CONTINUOUS
10
23.4945616457
20
17.7318714097
7
STANDARD
40
0.1562500000
1
RIM OF SINK
41
0.8000000000
72
0
0
TEXT
8
___NOTE
62
2
6
CONTINUOUS
10
23.1195616457
20
17.4974964097
7
STANDARD
40
0.1562500000
1
REBORD D'ÉVIER
41
0.8000000000
72
0
0
TEXT
8
___NOTE
62
2
6
CONTINUOUS
10
22.3695616457
20
17.2631214097
7
STANDARD
40
0.1562500000
1
REBORDE DE FREGADERO
41
0.8000000000
72
0
0
LINE
8
___NOTE
62
2
6
CONTINUOUS
10
26.3789913039
20
18.3799849627
11
25.1195616457
21
17.8099964097
0
LINE
8
___NOTE
62
2
6
CONTINUOUS
10
25.1195616457
20
17.8099964097
11
24.8695616457
21
17.8099964097
0
SOLID
8
___NOTE
62
2
6
CONTINUOUS
10
26.2210560018
20
18.2742056979
11
26.3789913039
21
18.3799849627
12
26.1952862566
22
18.3311457562
13
26.1952862566
23
18.3311457562
0
TEXT
8
___NOTE
62
2
6
CONTINUOUS
10
21.4824670152
20
14.7388558305
7
STANDARD
40
0.1562500000
1
CUT OUT LINE FOR NO REVEAL
41
0.8307692308
72
0
0
TEXT
8
___NOTE
62
2
6
CONTINUOUS
10
20.9824670152
20
14.5044808305
7
STANDARD
40
0.1562500000
1
LINGE DE COUPE SANS ÉBRASEMENTS
41
0.8000000000
72
0
0
TEXT
8
___NOTE
62
2
6
CONTINUOUS
10
21.3574670152
20
14.2701058305
7
STANDARD
40
0.1562500000
1
LÍNEA DE CORTE SIN BATIENTE
41
0.8296296296
72
0
0
LINE
8
___NOTE
62
2
6
CONTINUOUS
10
25.2489459057
20
15.2575297869
11
25.1074670152
21
14.8169808305
0
LINE
8
___NOTE
62
2
6
CONTINUOUS
10
25.1074670152
20
14.8169808305
11
24.8574670152
21
14.8169808305
0
SOLID
8
___NOTE
62
2
6
CONTINUOUS
10
25.2213688846
20
15.0694544818
11
25.2489459057
21
15.2575297869
12
25.1618621381
22
15.0885646132
13
25.1618621381
23
15.0885646132
0
TEXT
8
___NOTE
62
2
6
CONTINUOUS
10
21.7097159052
20
16.5856537745
7
STANDARD
40
0.1562500000
1
CUT OUT LINE FOR A REVEAL
41
0.8320000000
72
0
0
TEXT
8
___NOTE
62
2
6
CONTINUOUS
10
21.0847159052
20
16.3512787745
7
STANDARD
40
0.1562500000
1
LINGE DE COUPE AVEC EBRASEMENTS
41
0.8000000000
72
0
0
TEXT
8
___NOTE
62
2
6
CONTINUOUS
10
21.4597159052
20
16.1169037745
7
STANDARD
40
0.1562500000
1
LÍNEA DE CORTE CON BATIENTE
41
0.8296296296
72
0
0
LINE
8
___NOTE
62
2
6
CONTINUOUS
10
25.8217590842
20
16.8023082127
11
25.2097159052
21
16.6637787745
0
LINE
8
___NOTE
62
2
6
CONTINUOUS
10
25.2097159052
20
16.6637787745
11
24.9597159052
21
16.6637787745
0
SOLID
8
___NOTE
62
2
6
CONTINUOUS
10
25.6457834615
20
16.7304375461
11
25.8217590842
21
16.8023082127
12
25.6319862519
22
16.7913956219
13
25.6319862519
23
16.7913956219
0
INSERT
8
___SYMBOL
62
2
6
CONTINUOUS
2
REVEAL-NOREVEAL_BL0
10
19.8744347651
20
16.5072264975
0
INSERT
8
___SYMBOL
62
2
6
CONTINUOUS
2
REVEAL-NOREVEAL_BL1
10
20.0042992504
20
14.5588395680
0
INSERT
8
___SYMBOL
62
2
6
CONTINUOUS
2
COPYRIGHT_YEAR_BL2
10
20.6602472779
20
10.3729804013
0
INSERT
8
___SYMBOL
62
2
6
CONTINUOUS
2
TEMPLATE_NUMBER_BL3
10
14.9169310188
20
9.9893891637
0
INSERT
8
___SYMBOL
62
2
6
CONTINUOUS
2
TEMPLATE_NUMBER_BL4
10
14.9096097884
20
8.5784053855
0
LINE
8
0
62
2
6
CONTINUOUS
10
12.2932374732
20
25.9040327601
11
12.3186069176
21
25.9659633157
0
LINE
8
0
62
2
6
CONTINUOUS
10
12.6722041399
20
25.9659633157
11
12.6490249732
21
25.9040327601
0
POLYLINE
8
0
62
2
6
CONTINUOUS
66
1
70
0
0
VERTEX
8
0
62
2
6
CONTINUOUS
10
13.8840638621
20
25.3330966490
0
VERTEX
8
0
62
2
6
CONTINUOUS
10
13.9259749732
20
25.4361105379
0
VERTEX
8
0
62
2
6
CONTINUOUS
10
13.9267958065
20
25.4382660934
0
SEQEND
0
LINE
8
0
62
2
6
CONTINUOUS
10
13.9267958065
20
25.4173785934
11
13.9087833065
21
25.3731897046
0
LINE
8
0
62
2
6
CONTINUOUS
10
13.0547930287
20
25.6881313712
11
13.0221874732
21
25.6199619268
0
LINE
8
0
62
2
6
CONTINUOUS
10
13.8605458065
20
25.6891480379
11
13.8228805287
21
25.6199619268
0
LINE
8
0
62
2
6
CONTINUOUS
10
14.1259124732
20
25.4333022046
11
14.0772333065
21
25.3745869268
0
LINE
8
0
62
2
6
CONTINUOUS
10
14.7240305287
20
25.3561410934
11
14.7223485843
21
25.3541202601
0
LINE
8
0
62
2
6
CONTINUOUS
10
14.7223485843
20
25.3541202601
11
14.6900805287
21
25.3394577601
0
POLYLINE
8
0
62
2
6
CONTINUOUS
66
1
70
0
0
VERTEX
8
0
62
2
6
CONTINUOUS
10
14.1047263621
20
25.6215355379
0
VERTEX
8
0
62
2
6
CONTINUOUS
10
14.1105852686
20
25.6241716658
0
VERTEX
8
0
62
2
6
CONTINUOUS
10
14.1157034729
20
25.6268297343
0
VERTEX
8
0
62
2
6
CONTINUOUS
10
14.1201728083
20
25.6295186155
0
VERTEX
8
0
62
2
6
CONTINUOUS
10
14.1240735837
20
25.6322499566
0
VERTEX
8
0
62
2
6
CONTINUOUS
10
14.1274756341
20
25.6350389744
0
VERTEX
8
0
62
2
6
CONTINUOUS
10
14.1304391101
20
25.6379054458
0
VERTEX
8
0
62
2
6
CONTINUOUS
10
14.1330028338
20
25.6408595422
0
VERTEX
8
0
62
2
6
CONTINUOUS
10
14.1352061625
20
25.6439198992
0
VERTEX
8
0
62
2
6
CONTINUOUS
10
14.1370886519
20
25.6471203640
0
VERTEX
8
0
62
2
6
CONTINUOUS
10
14.1386817236
20
25.6505043223
0
VERTEX
8
0
62
2
6
CONTINUOUS
10
14.1400093159
20
25.6541283795
0
VERTEX
8
0
62
2
6
CONTINUOUS
10
14.1410886912
20
25.6580689512
0
VERTEX
8
0
62
2
6
CONTINUOUS
10
14.1419314751
20
25.6624351645
0
VERTEX
8
0
62
2
6
CONTINUOUS
10
14.1425450826
20
25.6673970704
0
VERTEX
8
0
62
2
6
CONTINUOUS
10
14.1429351008
20
25.6732585404
0
VERTEX
8
0
62
2
6
CONTINUOUS
10
14.1431117140
20
25.6807085314
0
VERTEX
8
0
62
2
6
CONTINUOUS
10
14.1431319176
20
25.6876022046
0
VERTEX
8
0
62
2
6
CONTINUOUS
10
14.1431319176
20
25.8952091490
0
VERTEX
8
0
62
2
6
CONTINUOUS
10
14.1431162890
20
25.9015886126
0
VERTEX
8
0
62
2
6
CONTINUOUS
10
14.1429523407
20
25.9092234290
0
VERTEX
8
0
62
2
6
CONTINUOUS
10
14.1425765665
20
25.9151811380
0
VERTEX
8
0
62
2
6
CONTINUOUS
10
14.1419783051
20
25.9202011580
0
VERTEX
8
0
62
2
6
CONTINUOUS
10
14.1411523700
20
25.9246028343
0
VERTEX
8
0
62
2
6
CONTINUOUS
10
14.1400920339
20
25.9285628870
0
VERTEX
8
0
62
2
6
CONTINUOUS
10
14.1387865317
20
25.9321939023
0
VERTEX
8
0
62
2
6
CONTINUOUS
10
14.1372195908
20
25.9355743029
0
VERTEX
8
0
62
2
6
CONTINUOUS
10
14.1353683641
20
25.9387619304
0
VERTEX
8
0
62
2
6
CONTINUOUS
10
14.1332026034
20
25.9418009339
0
VERTEX
8
0
62
2
6
CONTINUOUS
10
14.1306839980
20
25.9447255851
0
VERTEX
8
0
62
2
6
CONTINUOUS
10
14.1277718847
20
25.9475569777
0
VERTEX
8
0
62
2
6
CONTINUOUS
10
14.1244307675
20
25.9503027051
0
VERTEX
8
0
62
2
6
CONTINUOUS
10
14.1206018923
20
25.9529823902
0
VERTEX
8
0
62
2
6
CONTINUOUS
10
14.1162169293
20
25.9556108399
0
VERTEX
8
0
62
2
6
CONTINUOUS
10
14.1111972173
20
25.9581990457
0
VERTEX
8
0
62
2
6
CONTINUOUS
10
14.1054527510
20
25.9607549823
0
SEQEND
0
POLYLINE
8
0
62
2
6
CONTINUOUS
66
1
70
0
0
VERTEX
8
0
62
2
6
CONTINUOUS
10
14.5873249732
20
25.9607549823
0
VERTEX
8
0
62
2
6
CONTINUOUS
10
14.5814676347
20
25.9581459205
0
VERTEX
8
0
62
2
6
CONTINUOUS
10
14.5763634095
20
25.9555030015
0
VERTEX
8
0
62
2
6
CONTINUOUS
10
14.5719169817
20
25.9528176320
0
VERTEX
8
0
62
2
6
CONTINUOUS
10
14.5680452966
20
25.9500779036
0
VERTEX
8
0
62
2
6
CONTINUOUS
10
14.5646764566
20
25.9472676961
0
VERTEX
8
0
62
2
6
CONTINUOUS
10
14.5631599309
20
25.9458286607
0
VERTEX
8
0
62
2
6
CONTINUOUS
10
14.5617489041
20
25.9443655446
0
VERTEX
8
0
62
2
6
CONTINUOUS
10
14.5592281412
20
25.9413658347
0
VERTEX
8
0
62
2
6
CONTINUOUS
10
14.5570691087
20
25.9382426193
0
VERTEX
8
0
62
2
6
CONTINUOUS
10
14.5552323300
20
25.9349580772
0
VERTEX
8
0
62
2
6
CONTINUOUS
10
14.5536869824
20
25.9314631536
0
VERTEX
8
0
62
2
6
CONTINUOUS
10
14.5524101315
20
25.9276929194
0
VERTEX
8
0
62
2
6
CONTINUOUS
10
14.5513857656
20
25.9235579569
0
VERTEX
8
0
62
2
6
CONTINUOUS
10
14.5506035283
20
25.9189267787
0
VERTEX
8
0
62
2
6
CONTINUOUS
10
14.5500569004
20
25.9135850963
0
VERTEX
8
0
62
2
6
CONTINUOUS
10
14.5497397449
20
25.9071203453
0
VERTEX
8
0
62
2
6
CONTINUOUS
10
14.5496338938
20
25.8984449177
0
VERTEX
8
0
62
2
6
CONTINUOUS
10
14.5496319176
20
25.6033188712
0
SEQEND
0
POLYLINE
8
0
62
2
6
CONTINUOUS
66
1
70
0
0
VERTEX
8
0
62
2
6
CONTINUOUS
10
14.0279305287
20
25.9607549823
0
VERTEX
8
0
62
2
6
CONTINUOUS
10
14.0238949536
20
25.9594774250
0
VERTEX
8
0
62
2
6
CONTINUOUS
10
14.0220095629
20
25.9587465126
0
VERTEX
8
0
62
2
6
CONTINUOUS
10
14.0202098246
20
25.9579567321
0
VERTEX
8
0
62
2
6
CONTINUOUS
10
14.0168578295
20
25.9562072833
0
VERTEX
8
0
62
2
6
CONTINUOUS
10
14.0138099812
20
25.9542342270
0
VERTEX
8
0
62
2
6
CONTINUOUS
10
14.0110409592
20
25.9520373752
0
VERTEX
8
0
62
2
6
CONTINUOUS
10
14.0085294597
20
25.9496111020
0
VERTEX
8
0
62
2
6
CONTINUOUS
10
14.0062584813
20
25.9469443200
0
VERTEX
8
0
62
2
6
CONTINUOUS
10
14.0042154984
20
25.9440204873
0
VERTEX
8
0
62
2
6
CONTINUOUS
10
14.0023924779
20
25.9408175478
0
VERTEX
8
0
62
2
6
CONTINUOUS
10
14.0007857164
20
25.9373076351
0
VERTEX
8
0
62
2
6
CONTINUOUS
10
13.9993954856
20
25.9334562514
0
VERTEX
8
0
62
2
6
CONTINUOUS
10
13.9982254830
20
25.9292203890
0
VERTEX
8
0
62
2
6
CONTINUOUS
10
13.9972820699
20
25.9245444632
0
VERTEX
8
0
62
2
6
CONTINUOUS
10
13.9965732277
20
25.9193512881
0
VERTEX
8
0
62
2
6
CONTINUOUS
10
13.9961070084
20
25.9135200277
0
VERTEX
8
0
62
2
6
CONTINUOUS
10
13.9958886597
20
25.9068212820
0
VERTEX
8
0
62
2
6
CONTINUOUS
10
13.9959115285
20
25.8986432318
0
SEQEND
0
POLYLINE
8
0
62
2
6
CONTINUOUS
66
1
70
0
0
VERTEX
8
0
62
2
6
CONTINUOUS
10
12.4135305287
20
25.6215355379
0
VERTEX
8
0
62
2
6
CONTINUOUS
10
12.4174281640
20
25.6227611447
0
VERTEX
8
0
62
2
6
CONTINUOUS
10
12.4192532848
20
25.6234581317
0
VERTEX
8
0
62
2
6
CONTINUOUS
10
12.4209985237
20
25.6242090698
0
VERTEX
8
0
62
2
6
CONTINUOUS
10
12.4242564119
20
25.6258660963
0
VERTEX
8
0
62
2
6
CONTINUOUS
10
12.4272275377
20
25.6277268388
0
VERTEX
8
0
62
2
6
CONTINUOUS
10
12.4299351906
20
25.6297906467
0
VERTEX
8
0
62
2
6
CONTINUOUS
10
12.4323992852
20
25.6320614727
0
VERTEX
8
0
62
2
6
CONTINUOUS
10
12.4346361130
20
25.6345479190
0
VERTEX
8
0
62
2
6
CONTINUOUS
10
12.4366581734
20
25.6372632522
0
VERTEX
8
0
62
2
6
CONTINUOUS
10
12.4384741166
20
25.6402254515
0
VERTEX
8
0
62
2
6
CONTINUOUS
10
12.4400888242
20
25.6434574043
0
VERTEX
8
0
62
2
6
CONTINUOUS
10
12.4415036375
20
25.6469874390
0
VERTEX
8
0
62
2
6
CONTINUOUS
10
12.4427167382
20
25.6508505291
0
VERTEX
8
0
62
2
6
CONTINUOUS
10
12.4437236859
20
25.6550908245
0
VERTEX
8
0
62
2
6
CONTINUOUS
10
12.4445181409
20
25.6597669755
0
VERTEX
8
0
62
2
6
CONTINUOUS
10
12.4450928607
20
25.6649640463
0
VERTEX
8
0
62
2
6
CONTINUOUS
10
12.4454412564
20
25.6708238261
0
VERTEX
8
0
62
2
6
CONTINUOUS
10
12.4455606707
20
25.6776420489
0
VERTEX
8
0
62
2
6
CONTINUOUS
10
12.4453971954
20
25.6928105379
0
SEQEND
0
POLYLINE
8
0
62
2
6
CONTINUOUS
66
1
70
0
0
VERTEX
8
0
62
2
6
CONTINUOUS
10
13.6634555287
20
25.9607549823
0
VERTEX
8
0
62
2
6
CONTINUOUS
10
13.6595432026
20
25.9595489385
0
VERTEX
8
0
62
2
6
CONTINUOUS
10
13.6559616086
20
25.9581247508
0
VERTEX
8
0
62
2
6
CONTINUOUS
10
13.6526929405
20
25.9564944583
0
VERTEX
8
0
62
2
6
CONTINUOUS
10
13.6497140135
20
25.9546649122
0
VERTEX
8
0
62
2
6
CONTINUOUS
10
13.6470011650
20
25.9526373525
0
VERTEX
8
0
62
2
6
CONTINUOUS
10
13.6445340403
20
25.9504085194
0
VERTEX
8
0
62
2
6
CONTINUOUS
10
13.6422958439
20
25.9479705945
0
VERTEX
8
0
62
2
6
CONTINUOUS
10
13.6402735202
20
25.9453111752
0
VERTEX
8
0
62
2
6
CONTINUOUS
10
13.6384578291
20
25.9424132278
0
VERTEX
8
0
62
2
6
CONTINUOUS
10
13.6368432914
20
25.9392549120
0
VERTEX
8
0
62
2
6
CONTINUOUS
10
13.6354279920
20
25.9358091057
0
VERTEX
8
0
62
2
6
CONTINUOUS
10
13.6342132363
20
25.9320423267
0
VERTEX
8
0
62
2
6
CONTINUOUS
10
13.6332030611
20
25.9279124722
0
VERTEX
8
0
62
2
6
CONTINUOUS
10
13.6324035823
20
25.9233641055
0
VERTEX
8
0
62
2
6
CONTINUOUS
10
13.6318221250
20
25.9183180988
0
VERTEX
8
0
62
2
6
CONTINUOUS
10
13.6314659542
20
25.9126460494
0
VERTEX
8
0
62
2
6
CONTINUOUS
10
13.6313399156
20
25.9060923634
0
VERTEX
8
0
62
2
6
CONTINUOUS
10
13.6314380484
20
25.8979172011
0
VERTEX
8
0
62
2
6
CONTINUOUS
10
13.6314668481
20
25.8965307288
0
VERTEX
8
0
62
2
6
CONTINUOUS
10
13.6315749732
20
25.8889508157
0
SEQEND
0
POLYLINE
8
0
62
2
6
CONTINUOUS
66
1
70
0
0
VERTEX
8
0
62
2
6
CONTINUOUS
10
13.8902430287
20
25.6215355379
0
VERTEX
8
0
62
2
6
CONTINUOUS
10
13.8942751256
20
25.6227522529
0
VERTEX
8
0
62
2
6
CONTINUOUS
10
13.8961589323
20
25.6234542726
0
VERTEX
8
0
62
2
6
CONTINUOUS
10
13.8979572189
20
25.6242161650
0
VERTEX
8
0
62
2
6
CONTINUOUS
10
13.9013050739
20
25.6259118414
0
VERTEX
8
0
62
2
6
CONTINUOUS
10
13.9043481316
20
25.6278334733
0
VERTEX
8
0
62
2
6
CONTINUOUS
10
13.9071122341
20
25.6299807670
0
VERTEX
8
0
62
2
6
CONTINUOUS
10
13.9096191514
20
25.6323590150
0
VERTEX
8
0
62
2
6
CONTINUOUS
10
13.9118862782
20
25.6349791190
0
VERTEX
8
0
62
2
6
CONTINUOUS
10
13.9139264466
20
25.6378575725
0
VERTEX
8
0
62
2
6
CONTINUOUS
10
13.9157478981
20
25.6410165006
0
VERTEX
8
0
62
2
6
CONTINUOUS
10
13.9173544432
20
25.6444839285
0
VERTEX
8
0
62
2
6
CONTINUOUS
10
13.9187458177
20
25.6482945628
0
VERTEX
8
0
62
2
6
CONTINUOUS
10
13.9199182386
20
25.6524916154
0
VERTEX
8
0
62
2
6
CONTINUOUS
10
13.9208651746
20
25.6571307776
0
VERTEX
8
0
62
2
6
CONTINUOUS
10
13.9215783973
20
25.6622890520
0
VERTEX
8
0
62
2
6
CONTINUOUS
10
13.9220495282
20
25.6680862878
0
VERTEX
8
0
62
2
6
CONTINUOUS
10
13.9222728714
20
25.6747482473
0
VERTEX
8
0
62
2
6
CONTINUOUS
10
13.9222541629
20
25.6828695179
0
SEQEND
0
POLYLINE
8
0
62
2
6
CONTINUOUS
66
1
70
0
0
VERTEX
8
0
62
2
6
CONTINUOUS
10
12.7200291399
20
25.6215355379
0
VERTEX
8
0
62
2
6
CONTINUOUS
10
12.7241391374
20
25.6227513879
0
VERTEX
8
0
62
2
6
CONTINUOUS
10
12.7260587389
20
25.6234524801
0
VERTEX
8
0
62
2
6
CONTINUOUS
10
12.7278914882
20
25.6242133110
0
VERTEX
8
0
62
2
6
CONTINUOUS
10
12.7313043676
20
25.6259064873
0
VERTEX
8
0
62
2
6
CONTINUOUS
10
12.7344056882
20
25.6278237722
0
VERTEX
8
0
62
2
6
CONTINUOUS
10
12.7372218836
20
25.6299641171
0
VERTEX
8
0
62
2
6
CONTINUOUS
10
12.7397753923
20
25.6323319601
0
VERTEX
8
0
62
2
6
CONTINUOUS
10
12.7420843478
20
25.6349372674
0
VERTEX
8
0
62
2
6
CONTINUOUS
10
12.7441623755
20
25.6377955286
0
VERTEX
8
0
62
2
6
CONTINUOUS
10
12.7460185386
20
25.6409277963
0
VERTEX
8
0
62
2
6
CONTINUOUS
10
12.7476574669
20
25.6443609260
0
VERTEX
8
0
62
2
6
CONTINUOUS
10
12.7490796794
20
25.6481282825
0
VERTEX
8
0
62
2
6
CONTINUOUS
10
12.7502821070
20
25.6522714005
0
VERTEX
8
0
62
2
6
CONTINUOUS
10
12.7512588277
20
25.6568436022
0
VERTEX
8
0
62
2
6
CONTINUOUS
10
12.7520020731
20
25.6619179847
0
VERTEX
8
0
62
2
6
CONTINUOUS
10
12.7525036975
20
25.6676066109
0
VERTEX
8
0
62
2
6
CONTINUOUS
10
12.7527577855
20
25.6741152043
0
VERTEX
8
0
62
2
6
CONTINUOUS
10
12.7527680623
20
25.6819588837
0
SEQEND
0
POLYLINE
8
0
62
2
6
CONTINUOUS
66
1
70
0
0
VERTEX
8
0
62
2
6
CONTINUOUS
10
13.0801499732
20
25.6215355379
0
VERTEX
8
0
62
2
6
CONTINUOUS
10
13.0842451233
20
25.6227473877
0
VERTEX
8
0
62
2
6
CONTINUOUS
10
13.0879765968
20
25.6242029232
0
VERTEX
8
0
62
2
6
CONTINUOUS
10
13.0913655109
20
25.6258881527
0
VERTEX
8
0
62
2
6
CONTINUOUS
10
13.0944383277
20
25.6277949113
0
VERTEX
8
0
62
2
6
CONTINUOUS
10
13.0972223251
20
25.6299220682
0
VERTEX
8
0
62
2
6
CONTINUOUS
10
13.0997406524
20
25.6322741059
0
VERTEX
8
0
62
2
6
CONTINUOUS
10
13.1020120112
20
25.6348611777
0
VERTEX
8
0
62
2
6
CONTINUOUS
10
13.1040504460
20
25.6376991206
0
VERTEX
8
0
62
2
6
CONTINUOUS
10
13.1058652897
20
25.6408095214
0
VERTEX
8
0
62
2
6
CONTINUOUS
10
13.1074612981
20
25.6442200034
0
VERTEX
8
0
62
2
6
CONTINUOUS
10
13.1088389840
20
25.6479650253
0
VERTEX
8
0
62
2
6
CONTINUOUS
10
13.1099951542
20
25.6520877253
0
VERTEX
8
0
62
2
6
CONTINUOUS
10
13.1109236556
20
25.6566439222
0
VERTEX
8
0
62
2
6
CONTINUOUS
10
13.1116163792
20
25.6617109798
0
VERTEX
8
0
62
2
6
CONTINUOUS
10
13.1120646915
20
25.6674093281
0
VERTEX
8
0
62
2
6
CONTINUOUS
10
13.1122619173
20
25.6739651299
0
VERTEX
8
0
62
2
6
CONTINUOUS
10
13.1122105954
20
25.6819691979
0
VERTEX
8
0
62
2
6
CONTINUOUS
10
13.1121539334
20
25.6848253175
0
VERTEX
8
0
62
2
6
CONTINUOUS
10
13.1120374732
20
25.6928105379
0
VERTEX
8
0
62
2
6
CONTINUOUS
10
13.1120374732
20
25.8889508157
0
VERTEX
8
0
62
2
6
CONTINUOUS
10
13.1121539334
20
25.8970736614
0
VERTEX
8
0
62
2
6
CONTINUOUS
10
13.1122010072
20
25.8994393082
0
VERTEX
8
0
62
2
6
CONTINUOUS
10
13.1122654896
20
25.9076237385
0
VERTEX
8
0
62
2
6
CONTINUOUS
10
13.1120826802
20
25.9142584654
0
VERTEX
8
0
62
2
6
CONTINUOUS
10
13.1116490388
20
25.9200029177
0
VERTEX
8
0
62
2
6
CONTINUOUS
10
13.1109707170
20
25.9251026505
0
VERTEX
8
0
62
2
6
CONTINUOUS
10
13.1100558441
20
25.9296862113
0
VERTEX
8
0
62
2
6
CONTINUOUS
10
13.1089120270
20
25.9338350152
0
VERTEX
8
0
62
2
6
CONTINUOUS
10
13.1075449286
20
25.9376070876
0
VERTEX
8
0
62
2
6
CONTINUOUS
10
13.1059572706
20
25.9410468213
0
VERTEX
8
0
62
2
6
CONTINUOUS
10
13.1041480923
20
25.9441894066
0
VERTEX
8
0
62
2
6
CONTINUOUS
10
13.1021122156
20
25.9470629086
0
VERTEX
8
0
62
2
6
CONTINUOUS
10
13.0998399096
20
25.9496892071
0
VERTEX
8
0
62
2
6
CONTINUOUS
10
13.0973167513
20
25.9520843754
0
VERTEX
8
0
62
2
6
CONTINUOUS
10
13.0945236712
20
25.9542588082
0
VERTEX
8
0
62
2
6
CONTINUOUS
10
13.0914371495
20
25.9562172775
0
VERTEX
8
0
62
2
6
CONTINUOUS
10
13.0880295192
20
25.9579590163
0
VERTEX
8
0
62
2
6
CONTINUOUS
10
13.0842745101
20
25.9594760279
0
VERTEX
8
0
62
2
6
CONTINUOUS
10
13.0801499732
20
25.9607549823
0
SEQEND
0
POLYLINE
8
0
62
2
6
CONTINUOUS
66
1
70
0
0
VERTEX
8
0
62
2
6
CONTINUOUS
10
13.5250555287
20
25.6215355379
0
VERTEX
8
0
62
2
6
CONTINUOUS
10
13.5291655552
20
25.6227513957
0
VERTEX
8
0
62
2
6
CONTINUOUS
10
13.5310851762
20
25.6234524937
0
VERTEX
8
0
62
2
6
CONTINUOUS
10
13.5329179465
20
25.6242133312
0
VERTEX
8
0
62
2
6
CONTINUOUS
10
13.5363308725
20
25.6259065230
0
VERTEX
8
0
62
2
6
CONTINUOUS
10
13.5394322486
20
25.6278238283
0
VERTEX
8
0
62
2
6
CONTINUOUS
10
13.5422485066
20
25.6299641988
0
VERTEX
8
0
62
2
6
CONTINUOUS
10
13.5448020837
20
25.6323320726
0
VERTEX
8
0
62
2
6
CONTINUOUS
10
13.5471111125
20
25.6349374153
0
VERTEX
8
0
62
2
6
CONTINUOUS
10
13.5491892173
20
25.6377957159
0
VERTEX
8
0
62
2
6
CONTINUOUS
10
13.5510454608
20
25.6409280262
0
VERTEX
8
0
62
2
6
CONTINUOUS
10
13.5526844726
20
25.6443611997
0
VERTEX
8
0
62
2
6
CONTINUOUS
10
13.5541067717
20
25.6481285996
0
VERTEX
8
0
62
2
6
CONTINUOUS
10
13.5553092890
20
25.6522717570
0
VERTEX
8
0
62
2
6
CONTINUOUS
10
13.5562861031
20
25.6568439895
0
VERTEX
8
0
62
2
6
CONTINUOUS
10
13.5570294462
20
25.6619183857
0
VERTEX
8
0
62
2
6
CONTINUOUS
10
13.5575311731
20
25.6676069924
0
VERTEX
8
0
62
2
6
CONTINUOUS
10
13.5577853698
20
25.6741154941
0
VERTEX
8
0
62
2
6
CONTINUOUS
10
13.5577957630
20
25.6819588700
0
SEQEND
0
POLYLINE
8
0
62
2
6
CONTINUOUS
66
1
70
0
0
VERTEX
8
0
62
2
6
CONTINUOUS
10
12.7527680623
20
25.6819588837
0
VERTEX
8
0
62
2
6
CONTINUOUS
10
12.7526346954
20
25.6928105379
0
VERTEX
8
0
62
2
6
CONTINUOUS
10
12.7526346954
20
25.8889508157
0
SEQEND
0
LINE
8
0
62
2
6
CONTINUOUS
10
11.7753263621
20
25.4614466490
11
11.7753263621
21
26.0937841490
0
LINE
8
0
62
2
6
CONTINUOUS
10
11.7774499732
20
26.0982133157
11
11.7774499732
21
25.4840022046
0
LINE
8
0
62
2
6
CONTINUOUS
10
12.2389027510
20
25.9591883157
11
12.2389027510
21
25.9004119268
0
LINE
8
0
62
2
6
CONTINUOUS
10
12.4135305287
20
25.6199619268
11
12.4135305287
21
25.6215355379
0
LINE
8
0
62
2
6
CONTINUOUS
10
12.4453971954
20
25.6928105379
11
12.4453971954
21
25.9248591490
0
POLYLINE
8
0
62
2
6
CONTINUOUS
66
1
70
0
0
VERTEX
8
0
62
2
6
CONTINUOUS
10
12.5193110843
20
25.9248591490
0
VERTEX
8
0
62
2
6
CONTINUOUS
10
12.5193110843
20
25.6876022046
0
VERTEX
8
0
62
2
6
CONTINUOUS
10
12.5193189704
20
25.6804179119
0
VERTEX
8
0
62
2
6
CONTINUOUS
10
12.5194303651
20
25.6736960753
0
VERTEX
8
0
62
2
6
CONTINUOUS
10
12.5196907062
20
25.6684349254
0
VERTEX
8
0
62
2
6
CONTINUOUS
10
12.5201070833
20
25.6639897917
0
VERTEX
8
0
62
2
6
CONTINUOUS
10
12.5206822570
20
25.6600841767
0
VERTEX
8
0
62
2
6
CONTINUOUS
10
12.5214191825
20
25.6565664665
0
VERTEX
8
0
62
2
6
CONTINUOUS
10
12.5223224623
20
25.6533410337
0
VERTEX
8
0
62
2
6
CONTINUOUS
10
12.5233991308
20
25.6503418068
0
VERTEX
8
0
62
2
6
CONTINUOUS
10
12.5246592134
20
25.6475201735
0
VERTEX
8
0
62
2
6
CONTINUOUS
10
12.5261161710
20
25.6448387678
0
VERTEX
8
0
62
2
6
CONTINUOUS
10
12.5277872669
20
25.6422680039
0
VERTEX
8
0
62
2
6
CONTINUOUS
10
12.5296938793
20
25.6397840088
0
VERTEX
8
0
62
2
6
CONTINUOUS
10
12.5318617788
20
25.6373673054
0
VERTEX
8
0
62
2
6
CONTINUOUS
10
12.5343119645
20
25.6350103686
0
VERTEX
8
0
62
2
6
CONTINUOUS
10
12.5370720420
20
25.6327028707
0
VERTEX
8
0
62
2
6
CONTINUOUS
10
12.5401787637
20
25.6304321851
0
VERTEX
8
0
62
2
6
CONTINUOUS
10
12.5436740520
20
25.6281879650
0
VERTEX
8
0
62
2
6
CONTINUOUS
10
12.5476053954
20
25.6259616767
0
VERTEX
8
0
62
2
6
CONTINUOUS
10
12.5520263545
20
25.6237462086
0
VERTEX
8
0
62
2
6
CONTINUOUS
10
12.5569971954
20
25.6215355379
0
SEQEND
0
LINE
8
0
62
2
6
CONTINUOUS
10
12.5569971954
20
25.6215355379
11
12.5569971954
21
25.6199619268
0
LINE
8
0
62
2
6
CONTINUOUS
10
12.7200291399
20
25.6199619268
11
12.7200291399
21
25.6215355379
0
LINE
8
0
62
2
6
CONTINUOUS
10
12.7200291399
20
25.9607549823
11
12.7200291399
21
25.9623216490
0
LINE
8
0
62
2
6
CONTINUOUS
10
12.8265485843
20
25.9212244268
11
12.8265485843
21
25.8244494268
0
LINE
8
0
62
2
6
CONTINUOUS
10
12.8265485843
20
25.7869744268
11
12.8265485843
21
25.6636633157
0
LINE
8
0
62
2
6
CONTINUOUS
10
12.9468360843
20
25.8275619268
11
12.9468360843
21
25.7724202601
0
LINE
8
0
62
2
6
CONTINUOUS
10
12.9881360843
20
25.9649119268
11
12.9881360843
21
25.9040327601
0
POLYLINE
8
0
62
2
6
CONTINUOUS
66
1
70
0
0
VERTEX
8
0
62
2
6
CONTINUOUS
10
12.7526346954
20
25.8889508157
0
VERTEX
8
0
62
2
6
CONTINUOUS
10
12.7527620210
20
25.8994655346
0
VERTEX
8
0
62
2
6
CONTINUOUS
10
12.7527647235
20
25.9074738439
0
VERTEX
8
0
62
2
6
CONTINUOUS
10
12.7525250691
20
25.9140577772
0
VERTEX
8
0
62
2
6
CONTINUOUS
10
12.7520382249
20
25.9197913237
0
VERTEX
8
0
62
2
6
CONTINUOUS
10
12.7513095120
20
25.9248979898
0
VERTEX
8
0
62
2
6
CONTINUOUS
10
12.7503465346
20
25.9294975097
0
VERTEX
8
0
62
2
6
CONTINUOUS
10
12.7491565369
20
25.9336668718
0
VERTEX
8
0
62
2
6
CONTINUOUS
10
12.7477449359
20
25.9374615368
0
VERTEX
8
0
62
2
6
CONTINUOUS
10
12.7461143196
20
25.9409242608
0
VERTEX
8
0
62
2
6
CONTINUOUS
10
12.7442637139
20
25.9440891208
0
VERTEX
8
0
62
2
6
CONTINUOUS
10
12.7421880612
20
25.9469833997
0
VERTEX
8
0
62
2
6
CONTINUOUS
10
12.7398778961
20
25.9496284300
0
VERTEX
8
0
62
2
6
CONTINUOUS
10
12.7373192121
20
25.9520399235
0
VERTEX
8
0
62
2
6
CONTINUOUS
10
12.7344935056
20
25.9542280724
0
VERTEX
8
0
62
2
6
CONTINUOUS
10
12.7313779679
20
25.9561975865
0
VERTEX
8
0
62
2
6
CONTINUOUS
10
12.7279457786
20
25.9579477611
0
VERTEX
8
0
62
2
6
CONTINUOUS
10
12.7261015701
20
25.9587389184
0
VERTEX
8
0
62
2
6
CONTINUOUS
10
12.7241692464
20
25.9594716235
0
VERTEX
8
0
62
2
6
CONTINUOUS
10
12.7200291399
20
25.9607549823
0
SEQEND
0
LINE
8
0
62
2
6
CONTINUOUS
10
14.9278874732
20
25.4389716490
11
14.8912666399
21
25.3486133157
0
LINE
8
0
62
2
6
CONTINUOUS
10
14.8912666399
20
25.3282674823
11
14.9255277510
21
25.4127952601
0
POLYLINE
8
0
62
2
6
CONTINUOUS
66
1
70
0
0
VERTEX
8
0
62
2
6
CONTINUOUS
10
14.9914458065
20
25.3330966490
0
VERTEX
8
0
62
2
6
CONTINUOUS
10
15.0333291399
20
25.4361105379
0
VERTEX
8
0
62
2
6
CONTINUOUS
10
15.0341833065
20
25.4382660934
0
SEQEND
0
LINE
8
0
62
2
6
CONTINUOUS
10
15.0341833065
20
25.4174327601
11
15.0161583065
21
25.3731897046
0
LINE
8
0
62
2
6
CONTINUOUS
10
15.2195402510
20
25.3761063712
11
15.2530416399
21
25.4334924823
0
LINE
8
0
62
2
6
CONTINUOUS
10
15.2445249732
20
25.4334924823
11
15.2155388621
21
25.3844744268
0
POLYLINE
8
0
62
2
6
CONTINUOUS
66
1
70
0
0
VERTEX
8
0
62
2
6
CONTINUOUS
10
13.9222541629
20
25.6828695179
0
VERTEX
8
0
62
2
6
CONTINUOUS
10
13.9221305287
20
25.6928105379
0
VERTEX
8
0
62
2
6
CONTINUOUS
10
13.9221305287
20
25.8889508157
0
VERTEX
8
0
62
2
6
CONTINUOUS
10
13.9222471751
20
25.8970620303
0
VERTEX
8
0
62
2
6
CONTINUOUS
10
13.9222950670
20
25.8994569952
0
VERTEX
8
0
62
2
6
CONTINUOUS
10
13.9223601902
20
25.9076389247
0
VERTEX
8
0
62
2
6
CONTINUOUS
10
13.9221778826
20
25.9142715309
0
VERTEX
8
0
62
2
6
CONTINUOUS
10
13.9217446739
20
25.9200140557
0
VERTEX
8
0
62
2
6
CONTINUOUS
10
13.9210667377
20
25.9251120305
0
VERTEX
8
0
62
2
6
CONTINUOUS
10
13.9201522095
20
25.9296940014
0
VERTEX
8
0
62
2
6
CONTINUOUS
10
13.9190086952
20
25.9338413839
0
VERTEX
8
0
62
2
6
CONTINUOUS
10
13.9176418509
20
25.9376122025
0
VERTEX
8
0
62
2
6
CONTINUOUS
10
13.9160543877
20
25.9410508469
0
VERTEX
8
0
62
2
6
CONTINUOUS
10
13.9142453301
20
25.9441925019
0
VERTEX
8
0
62
2
6
CONTINUOUS
10
13.9122094819
20
25.9470652248
0
VERTEX
8
0
62
2
6
CONTINUOUS
10
13.9099370913
20
25.9496908851
0
VERTEX
8
0
62
2
6
CONTINUOUS
10
13.9074137119
20
25.9520855439
0
VERTEX
8
0
62
2
6
CONTINUOUS
10
13.9046202487
20
25.9542595824
0
VERTEX
8
0
62
2
6
CONTINUOUS
10
13.9015331552
20
25.9562177576
0
VERTEX
8
0
62
2
6
CONTINUOUS
10
13.8981247359
20
25.9579592872
0
VERTEX
8
0
62
2
6
CONTINUOUS
10
13.8943687780
20
25.9594761292
0
VERTEX
8
0
62
2
6
CONTINUOUS
10
13.8902430287
20
25.9607549823
0
SEQEND
0
POLYLINE
8
0
62
2
6
CONTINUOUS
66
1
70
0
0
VERTEX
8
0
62
2
6
CONTINUOUS
10
13.9959115285
20
25.8986432318
0
VERTEX
8
0
62
2
6
CONTINUOUS
10
13.9960305287
20
25.8889508157
0
VERTEX
8
0
62
2
6
CONTINUOUS
10
13.9960305287
20
25.6928105379
0
SEQEND
0
POLYLINE
8
0
62
2
6
CONTINUOUS
66
1
70
0
0
VERTEX
8
0
62
2
6
CONTINUOUS
10
13.5577957630
20
25.6819588700
0
VERTEX
8
0
62
2
6
CONTINUOUS
10
13.5576624732
20
25.6928105379
0
VERTEX
8
0
62
2
6
CONTINUOUS
10
13.5576624732
20
25.8889508157
0
SEQEND
0
LINE
8
0
62
7
6
CONTINUOUS
10
13.0738378571
20
15.2852578454
11
13.0738378571
21
16.3781653348
0
LINE
8
0
62
2
6
CONTINUOUS
10
13.0801499732
20
25.6199619268
11
13.0801499732
21
25.6215355379
0
LINE
8
0
62
2
6
CONTINUOUS
10
13.0801499732
20
25.9607549823
11
13.0801499732
21
25.9623216490
0
LINE
8
0
62
7
6
CONTINUOUS
10
13.1072053568
20
15.3526753448
11
13.1072053568
21
16.3457053351
0
LINE
8
0
62
7
6
CONTINUOUS
10
13.1559028563
20
15.3760978445
11
13.1559028563
21
15.4110778442
0
LINE
8
0
62
7
6
CONTINUOUS
10
13.1559028563
20
15.6627103417
11
13.1559028563
21
15.7843453406
0
POLYLINE
8
0
62
2
6
CONTINUOUS
66
1
70
0
0
VERTEX
8
0
62
2
6
CONTINUOUS
10
13.1859444176
20
25.9258966490
0
VERTEX
8
0
62
2
6
CONTINUOUS
10
13.1859444176
20
25.6928105379
0
VERTEX
8
0
62
2
6
CONTINUOUS
10
13.1858634979
20
25.6854967644
0
VERTEX
8
0
62
2
6
CONTINUOUS
10
13.1857991782
20
25.6806158587
0
VERTEX
8
0
62
2
6
CONTINUOUS
10
13.1858200791
20
25.6739649363
0
VERTEX
8
0
62
2
6
CONTINUOUS
10
13.1860177812
20
25.6683569236
0
VERTEX
8
0
62
2
6
CONTINUOUS
10
13.1863924542
20
25.6634047285
0
VERTEX
8
0
62
2
6
CONTINUOUS
10
13.1869401623
20
25.6589433381
0
VERTEX
8
0
62
2
6
CONTINUOUS
10
13.1876558015
20
25.6548815654
0
VERTEX
8
0
62
2
6
CONTINUOUS
10
13.1885342489
20
25.6511604740
0
VERTEX
8
0
62
2
6
CONTINUOUS
10
13.1895710443
20
25.6477377918
0
VERTEX
8
0
62
2
6
CONTINUOUS
10
13.1907628748
20
25.6445810055
0
VERTEX
8
0
62
2
6
CONTINUOUS
10
13.1921079486
20
25.6416639744
0
VERTEX
8
0
62
2
6
CONTINUOUS
10
13.1936062886
20
25.6389651710
0
VERTEX
8
0
62
2
6
CONTINUOUS
10
13.1952599563
20
25.6364667492
0
VERTEX
8
0
62
2
6
CONTINUOUS
10
13.1970732067
20
25.6341540612
0
VERTEX
8
0
62
2
6
CONTINUOUS
10
13.1990525768
20
25.6320154238
0
VERTEX
8
0
62
2
6
CONTINUOUS
10
13.2012069056
20
25.6300420177
0
VERTEX
8
0
62
2
6
CONTINUOUS
10
13.2035472948
20
25.6282278496
0
VERTEX
8
0
62
2
6
CONTINUOUS
10
13.2060870180
20
25.6265697312
0
VERTEX
8
0
62
2
6
CONTINUOUS
10
13.2088413933
20
25.6250672474
0
VERTEX
8
0
62
2
6
CONTINUOUS
10
13.2118276357
20
25.6237227002
0
VERTEX
8
0
62
2
6
CONTINUOUS
10
13.2150584358
20
25.6225430666
0
VERTEX
8
0
62
2
6
CONTINUOUS
10
13.2185499732
20
25.6215355379
0
SEQEND
0
LINE
8
0
62
7
6
CONTINUOUS
10
13.2025528559
20
15.8293453401
11
13.2025528559
21
15.8909953395
0
LINE
8
0
62
7
6
CONTINUOUS
10
13.2025528559
20
15.9559903389
11
13.2025528559
21
16.0176328383
0
LINE
8
0
62
7
6
CONTINUOUS
10
13.2025528559
20
16.0559728379
11
13.2025528559
21
16.1176153373
0
LINE
8
0
62
7
6
CONTINUOUS
10
13.2025528559
20
16.1559478369
11
13.2025528559
21
16.2175978363
0
LINE
8
0
62
7
6
CONTINUOUS
10
13.2025528559
20
16.2559303359
11
13.2025528559
21
16.3175803353
0
LINE
8
0
62
2
6
CONTINUOUS
10
13.2185499732
20
25.6215355379
11
13.2185499732
21
25.6199619268
0
LINE
8
0
62
2
6
CONTINUOUS
10
13.5250555287
20
25.6199619268
11
13.5250555287
21
25.6215355379
0
LINE
8
0
62
2
6
CONTINUOUS
10
13.5250555287
20
25.9607549823
11
13.5250555287
21
25.9623216490
0
LINE
8
0
62
2
6
CONTINUOUS
10
13.6315749732
20
25.8889508157
11
13.6315749732
21
25.6621160934
0
LINE
8
0
62
2
6
CONTINUOUS
10
13.6634555287
20
25.9623216490
11
13.6634555287
21
25.9607549823
0
LINE
8
0
62
2
6
CONTINUOUS
10
13.8902430287
20
25.6199619268
11
13.8902430287
21
25.6215355379
0
LINE
8
0
62
2
6
CONTINUOUS
10
13.8902430287
20
25.9607549823
11
13.8902430287
21
25.9623216490
0
LINE
8
0
62
7
6
CONTINUOUS
10
14.0116078480
20
15.7843453406
11
14.0116078480
21
15.6627103417
0
LINE
8
0
62
7
6
CONTINUOUS
10
14.0116078480
20
15.4110778442
11
14.0116078480
21
15.3760978445
0
POLYLINE
8
0
62
2
6
CONTINUOUS
66
1
70
0
0
VERTEX
8
0
62
2
6
CONTINUOUS
10
14.0166735843
20
25.3099841490
0
VERTEX
8
0
62
2
6
CONTINUOUS
10
14.0166735843
20
25.4333563712
0
VERTEX
8
0
62
2
6
CONTINUOUS
10
14.0503916399
20
25.4333563712
0
VERTEX
8
0
62
2
6
CONTINUOUS
10
14.0503916399
20
25.3963966490
0
VERTEX
8
0
62
2
6
CONTINUOUS
10
14.0501277510
20
25.3963966490
0
VERTEX
8
0
62
2
6
CONTINUOUS
10
14.0822319176
20
25.4333022046
0
VERTEX
8
0
62
2
6
CONTINUOUS
10
14.1259124732
20
25.4333022046
0
SEQEND
0
LINE
8
0
62
2
6
CONTINUOUS
10
14.0279305287
20
25.9623216490
11
14.0279305287
21
25.9607549823
0
LINE
8
0
62
2
6
CONTINUOUS
10
14.0279305287
20
25.6215355379
11
14.0279305287
21
25.6199619268
0
LINE
8
0
62
7
6
CONTINUOUS
10
14.0582578475
20
16.3175803353
11
14.0582578475
21
16.2559303359
0
LINE
8
0
62
7
6
CONTINUOUS
10
14.0582578475
20
16.2175978363
11
14.0582578475
21
16.1559478369
0
LINE
8
0
62
7
6
CONTINUOUS
10
14.0582578475
20
16.1176153373
11
14.0582578475
21
16.0559728379
0
LINE
8
0
62
7
6
CONTINUOUS
10
14.0582578475
20
16.0176328383
11
14.0582578475
21
15.9559903389
0
LINE
8
0
62
7
6
CONTINUOUS
10
14.0582578475
20
15.8909953395
11
14.0582578475
21
15.8293453401
0
LINE
8
0
62
2
6
CONTINUOUS
10
14.1047263621
20
25.6199619268
11
14.1047263621
21
25.6215355379
0
LINE
8
0
62
2
6
CONTINUOUS
10
14.1054527510
20
25.9607549823
11
14.1054527510
21
25.9623216490
0
POLYLINE
8
0
62
2
6
CONTINUOUS
66
1
70
0
0
VERTEX
8
0
62
2
6
CONTINUOUS
10
14.1953096954
20
25.8889508157
0
VERTEX
8
0
62
2
6
CONTINUOUS
10
14.1953096954
20
25.6876022046
0
VERTEX
8
0
62
2
6
CONTINUOUS
10
14.1953284987
20
25.6790328783
0
VERTEX
8
0
62
2
6
CONTINUOUS
10
14.1954571093
20
25.6730398586
0
VERTEX
8
0
62
2
6
CONTINUOUS
10
14.1957207301
20
25.6682053716
0
VERTEX
8
0
62
2
6
CONTINUOUS
10
14.1961240404
20
25.6640553963
0
VERTEX
8
0
62
2
6
CONTINUOUS
10
14.1966691247
20
25.6603716240
0
VERTEX
8
0
62
2
6
CONTINUOUS
10
14.1973582894
20
25.6570299303
0
VERTEX
8
0
62
2
6
CONTINUOUS
10
14.1981950695
20
25.6539503355
0
VERTEX
8
0
62
2
6
CONTINUOUS
10
14.1991847918
20
25.6510768284
0
VERTEX
8
0
62
2
6
CONTINUOUS
10
14.2003349766
20
25.6483678262
0
VERTEX
8
0
62
2
6
CONTINUOUS
10
14.2016556547
20
25.6457911565
0
VERTEX
8
0
62
2
6
CONTINUOUS
10
14.2031596265
20
25.6433212083
0
VERTEX
8
0
62
2
6
CONTINUOUS
10
14.2048626765
20
25.6409372136
0
VERTEX
8
0
62
2
6
CONTINUOUS
10
14.2067837554
20
25.6386221522
0
VERTEX
8
0
62
2
6
CONTINUOUS
10
14.2078334052
20
25.6374854453
0
VERTEX
8
0
62
2
6
CONTINUOUS
10
14.2089451441
20
25.6363620113
0
VERTEX
8
0
62
2
6
CONTINUOUS
10
14.2113620000
20
25.6341543366
0
VERTEX
8
0
62
2
6
CONTINUOUS
10
14.2140601526
20
25.6319891167
0
VERTEX
8
0
62
2
6
CONTINUOUS
10
14.2170700685
20
25.6298572586
0
VERTEX
8
0
62
2
6
CONTINUOUS
10
14.2204260074
20
25.6277513816
0
VERTEX
8
0
62
2
6
CONTINUOUS
10
14.2241662633
20
25.6256655172
0
VERTEX
8
0
62
2
6
CONTINUOUS
10
14.2283334696
20
25.6235948571
0
VERTEX
8
0
62
2
6
CONTINUOUS
10
14.2329749732
20
25.6215355379
0
SEQEND
0
LINE
8
0
62
2
6
CONTINUOUS
10
14.2112402510
20
25.9623216490
11
14.2112402510
21
25.9617924823
0
LINE
8
0
62
2
6
CONTINUOUS
10
14.2329749732
20
25.6215355379
11
14.2329749732
21
25.6199619268
0
POLYLINE
8
0
62
2
6
CONTINUOUS
66
1
70
0
0
VERTEX
8
0
62
2
6
CONTINUOUS
10
14.2438124732
20
25.3099841490
0
VERTEX
8
0
62
2
6
CONTINUOUS
10
14.2438124732
20
25.4333563712
0
VERTEX
8
0
62
2
6
CONTINUOUS
10
14.2774763621
20
25.4333563712
0
VERTEX
8
0
62
2
6
CONTINUOUS
10
14.2774763621
20
25.3900897046
0
VERTEX
8
0
62
2
6
CONTINUOUS
10
14.3115208065
20
25.3900897046
0
VERTEX
8
0
62
2
6
CONTINUOUS
10
14.3115208065
20
25.4333563712
0
VERTEX
8
0
62
2
6
CONTINUOUS
10
14.3451777510
20
25.4333563712
0
SEQEND
0
POLYLINE
8
0
62
2
6
CONTINUOUS
66
1
70
0
0
VERTEX
8
0
62
2
6
CONTINUOUS
10
14.3451777510
20
25.4333563712
0
VERTEX
8
0
62
2
6
CONTINUOUS
10
14.3451777510
20
25.3099841490
0
VERTEX
8
0
62
2
6
CONTINUOUS
10
14.3115208065
20
25.3099841490
0
VERTEX
8
0
62
2
6
CONTINUOUS
10
14.3115208065
20
25.3558827601
0
VERTEX
8
0
62
2
6
CONTINUOUS
10
14.2774763621
20
25.3558827601
0
VERTEX
8
0
62
2
6
CONTINUOUS
10
14.2774763621
20
25.3099841490
0
VERTEX
8
0
62
2
6
CONTINUOUS
10
14.2438124732
20
25.3099841490
0
SEQEND
0
POLYLINE
8
0
62
2
6
CONTINUOUS
66
1
70
0
0
VERTEX
8
0
62
2
6
CONTINUOUS
10
14.3549430287
20
25.3099841490
0
VERTEX
8
0
62
2
6
CONTINUOUS
10
14.3549430287
20
25.4333563712
0
VERTEX
8
0
62
2
6
CONTINUOUS
10
14.3886624732
20
25.4333563712
0
SEQEND
0
POLYLINE
8
0
62
2
6
CONTINUOUS
66
1
70
0
0
VERTEX
8
0
62
2
6
CONTINUOUS
10
14.3886624732
20
25.4333563712
0
VERTEX
8
0
62
2
6
CONTINUOUS
10
14.3886624732
20
25.3414785934
0
VERTEX
8
0
62
2
6
CONTINUOUS
10
14.4265180287
20
25.3414785934
0
VERTEX
8
0
62
2
6
CONTINUOUS
10
14.4265180287
20
25.3099841490
0
SEQEND
0
LINE
8
0
62
2
6
CONTINUOUS
10
14.4354416399
20
25.3099841490
11
14.4354416399
21
25.4333563712
0
LINE
8
0
62
2
6
CONTINUOUS
10
14.4597888621
20
25.9607549823
11
14.4597888621
21
25.9623216490
0
POLYLINE
8
0
62
2
6
CONTINUOUS
66
1
70
0
0
VERTEX
8
0
62
2
6
CONTINUOUS
10
14.5038694176
20
25.4333563712
0
VERTEX
8
0
62
2
6
CONTINUOUS
10
14.5038694176
20
25.4049147046
0
VERTEX
8
0
62
2
6
CONTINUOUS
10
14.4700013621
20
25.4048605379
0
VERTEX
8
0
62
2
6
CONTINUOUS
10
14.4698527510
20
25.3853966490
0
VERTEX
8
0
62
2
6
CONTINUOUS
10
14.5011569176
20
25.3853966490
0
VERTEX
8
0
62
2
6
CONTINUOUS
10
14.5011569176
20
25.3577549823
0
VERTEX
8
0
62
2
6
CONTINUOUS
10
14.4699471954
20
25.3577549823
0
VERTEX
8
0
62
2
6
CONTINUOUS
10
14.4699471954
20
25.3389285934
0
VERTEX
8
0
62
2
6
CONTINUOUS
10
14.5041277510
20
25.3389285934
0
VERTEX
8
0
62
2
6
CONTINUOUS
10
14.5041277510
20
25.3099841490
0
SEQEND
0
LINE
8
0
62
2
6
CONTINUOUS
10
14.5130388621
20
25.3100660934
11
14.5130388621
21
25.4333563712
0
POLYLINE
8
0
62
2
6
CONTINUOUS
66
1
70
0
0
VERTEX
8
0
62
2
6
CONTINUOUS
10
14.4974680287
20
25.6980049823
0
VERTEX
8
0
62
2
6
CONTINUOUS
10
14.4974687689
20
25.8974209916
0
VERTEX
8
0
62
2
6
CONTINUOUS
10
14.4974322068
20
25.9052043892
0
VERTEX
8
0
62
2
6
CONTINUOUS
10
14.4972768983
20
25.9108358922
0
VERTEX
8
0
62
2
6
CONTINUOUS
10
14.4969874427
20
25.9154602224
0
VERTEX
8
0
62
2
6
CONTINUOUS
10
14.4965604423
20
25.9194631679
0
VERTEX
8
0
62
2
6
CONTINUOUS
10
14.4959941240
20
25.9230331936
0
VERTEX
8
0
62
2
6
CONTINUOUS
10
14.4952862537
20
25.9262810340
0
VERTEX
8
0
62
2
6
CONTINUOUS
10
14.4944332972
20
25.9292795535
0
VERTEX
8
0
62
2
6
CONTINUOUS
10
14.4934299164
20
25.9320805114
0
VERTEX
8
0
62
2
6
CONTINUOUS
10
14.4922685990
20
25.9347227090
0
VERTEX
8
0
62
2
6
CONTINUOUS
10
14.4909393623
20
25.9372363572
0
VERTEX
8
0
62
2
6
CONTINUOUS
10
14.4894295101
20
25.9396455906
0
VERTEX
8
0
62
2
6
CONTINUOUS
10
14.4877234317
20
25.9419700003
0
VERTEX
8
0
62
2
6
CONTINUOUS
10
14.4858024311
20
25.9442256207
0
VERTEX
8
0
62
2
6
CONTINUOUS
10
14.4847539832
20
25.9453324830
0
VERTEX
8
0
62
2
6
CONTINUOUS
10
14.4836445729
20
25.9464256024
0
VERTEX
8
0
62
2
6
CONTINUOUS
10
14.4812360056
20
25.9485711242
0
VERTEX
8
0
62
2
6
CONTINUOUS
10
14.4785504716
20
25.9506724381
0
VERTEX
8
0
62
2
6
CONTINUOUS
10
14.4755581006
20
25.9527379007
0
VERTEX
8
0
62
2
6
CONTINUOUS
10
14.4722253462
20
25.9547741836
0
VERTEX
8
0
62
2
6
CONTINUOUS
10
14.4685147533
20
25.9567865539
0
VERTEX
8
0
62
2
6
CONTINUOUS
10
14.4643846650
20
25.9587791101
0
VERTEX
8
0
62
2
6
CONTINUOUS
10
14.4597888621
20
25.9607549823
0
SEQEND
0
POLYLINE
8
0
62
2
6
CONTINUOUS
66
1
70
0
0
VERTEX
8
0
62
2
6
CONTINUOUS
10
13.5576624732
20
25.8889508157
0
VERTEX
8
0
62
2
6
CONTINUOUS
10
13.5577897283
20
25.8994655778
0
VERTEX
8
0
62
2
6
CONTINUOUS
10
13.5577923143
20
25.9074735545
0
VERTEX
8
0
62
2
6
CONTINUOUS
10
13.5575525512
20
25.9140573892
0
VERTEX
8
0
62
2
6
CONTINUOUS
10
13.5570656047
20
25.9197909139
0
VERTEX
8
0
62
2
6
CONTINUOUS
10
13.5563367946
20
25.9248975929
0
VERTEX
8
0
62
2
6
CONTINUOUS
10
13.5553737240
20
25.9294971435
0
VERTEX
8
0
62
2
6
CONTINUOUS
10
13.5541836366
20
25.9336665453
0
VERTEX
8
0
62
2
6
CONTINUOUS
10
13.5527719491
20
25.9374612540
0
VERTEX
8
0
62
2
6
CONTINUOUS
10
13.5511412493
20
25.9409240226
0
VERTEX
8
0
62
2
6
CONTINUOUS
10
13.5492905629
20
25.9440889259
0
VERTEX
8
0
62
2
6
CONTINUOUS
10
13.5472148328
20
25.9469832452
0
VERTEX
8
0
62
2
6
CONTINUOUS
10
13.5449045940
20
25.9496283118
0
VERTEX
8
0
62
2
6
CONTINUOUS
10
13.5423458407
20
25.9520398371
0
VERTEX
8
0
62
2
6
CONTINUOUS
10
13.5395200708
20
25.9542280127
0
VERTEX
8
0
62
2
6
CONTINUOUS
10
13.5364044766
20
25.9561975483
0
VERTEX
8
0
62
2
6
CONTINUOUS
10
13.5329722396
20
25.9579477392
0
VERTEX
8
0
62
2
6
CONTINUOUS
10
13.5311280093
20
25.9587389036
0
VERTEX
8
0
62
2
6
CONTINUOUS
10
13.5291956655
20
25.9594716149
0
VERTEX
8
0
62
2
6
CONTINUOUS
10
13.5250555287
20
25.9607549823
0
SEQEND
0
POLYLINE
8
0
62
2
6
CONTINUOUS
66
1
70
0
0
VERTEX
8
0
62
2
6
CONTINUOUS
10
13.9960305287
20
25.6928105379
0
VERTEX
8
0
62
2
6
CONTINUOUS
10
13.9959168781
20
25.6835216620
0
VERTEX
8
0
62
2
6
CONTINUOUS
10
13.9958850785
20
25.6753047371
0
VERTEX
8
0
62
2
6
CONTINUOUS
10
13.9960933690
20
25.6686154677
0
VERTEX
8
0
62
2
6
CONTINUOUS
10
13.9965493612
20
25.6628058501
0
VERTEX
8
0
62
2
6
CONTINUOUS
10
13.9972481330
20
25.6576375134
0
VERTEX
8
0
62
2
6
CONTINUOUS
10
13.9981818859
20
25.6529861923
0
VERTEX
8
0
62
2
6
CONTINUOUS
10
13.9993428945
20
25.6487731098
0
VERTEX
8
0
62
2
6
CONTINUOUS
10
14.0007250793
20
25.6449418820
0
VERTEX
8
0
62
2
6
CONTINUOUS
10
14.0023250611
20
25.6414491046
0
VERTEX
8
0
62
2
6
CONTINUOUS
10
14.0041429298
20
25.6382601159
0
VERTEX
8
0
62
2
6
CONTINUOUS
10
14.0061827953
20
25.6353470323
0
VERTEX
8
0
62
2
6
CONTINUOUS
10
14.0084531406
20
25.6326878807
0
VERTEX
8
0
62
2
6
CONTINUOUS
10
14.0109669809
20
25.6302662719
0
VERTEX
8
0
62
2
6
CONTINUOUS
10
14.0137418402
20
25.6280713178
0
VERTEX
8
0
62
2
6
CONTINUOUS
10
14.0167995739
20
25.6260976198
0
VERTEX
8
0
62
2
6
CONTINUOUS
10
14.0201660792
20
25.6243452279
0
VERTEX
8
0
62
2
6
CONTINUOUS
10
14.0219751698
20
25.6235531145
0
VERTEX
8
0
62
2
6
CONTINUOUS
10
14.0238709455
20
25.6228195237
0
VERTEX
8
0
62
2
6
CONTINUOUS
10
14.0279305287
20
25.6215355379
0
SEQEND
0
POLYLINE
8
0
62
2
6
CONTINUOUS
66
1
70
0
0
VERTEX
8
0
62
2
6
CONTINUOUS
10
14.1097041399
20
25.3727147046
0
VERTEX
8
0
62
2
6
CONTINUOUS
10
14.1097609670
20
25.3757983933
0
VERTEX
8
0
62
2
6
CONTINUOUS
10
14.1099610196
20
25.3788634796
0
VERTEX
8
0
62
2
6
CONTINUOUS
10
14.1103035056
20
25.3819059536
0
VERTEX
8
0
62
2
6
CONTINUOUS
10
14.1107875336
20
25.3849215037
0
VERTEX
8
0
62
2
6
CONTINUOUS
10
14.1114120680
20
25.3879055141
0
VERTEX
8
0
62
2
6
CONTINUOUS
10
14.1121758826
20
25.3908530694
0
VERTEX
8
0
62
2
6
CONTINUOUS
10
14.1130775157
20
25.3937589670
0
VERTEX
8
0
62
2
6
CONTINUOUS
10
14.1141152270
20
25.3966177393
0
VERTEX
8
0
62
2
6
CONTINUOUS
10
14.1152869578
20
25.3994236834
0
VERTEX
8
0
62
2
6
CONTINUOUS
10
14.1165902974
20
25.4021709012
0
VERTEX
8
0
62
2
6
CONTINUOUS
10
14.1180224569
20
25.4048533467
0
VERTEX
8
0
62
2
6
CONTINUOUS
10
14.1195802518
20
25.4074648818
0
VERTEX
8
0
62
2
6
CONTINUOUS
10
14.1212600949
20
25.4099993372
0
VERTEX
8
0
62
2
6
CONTINUOUS
10
14.1230580006
20
25.4124505775
0
VERTEX
8
0
62
2
6
CONTINUOUS
10
14.1249696011
20
25.4148125686
0
VERTEX
8
0
62
2
6
CONTINUOUS
10
14.1253452924
20
25.4152507906
0
VERTEX
8
0
62
2
6
CONTINUOUS
10
14.1273850134
20
25.4174979003
0
VERTEX
8
0
62
2
6
CONTINUOUS
10
14.1295261117
20
25.4196419110
0
VERTEX
8
0
62
2
6
CONTINUOUS
10
14.1317630935
20
25.4216777950
0
VERTEX
8
0
62
2
6
CONTINUOUS
10
14.1340903188
20
25.4236008982
0
VERTEX
8
0
62
2
6
CONTINUOUS
10
14.1365020663
20
25.4254069657
0
VERTEX
8
0
62
2
6
CONTINUOUS
10
14.1389925979
20
25.4270921545
0
VERTEX
8
0
62
2
6
CONTINUOUS
10
14.1415562216
20
25.4286530351
0
VERTEX
8
0
62
2
6
CONTINUOUS
10
14.1441873491
20
25.4300865816
0
VERTEX
8
0
62
2
6
CONTINUOUS
10
14.1468805486
20
25.4313901505
0
VERTEX
8
0
62
2
6
CONTINUOUS
10
14.1496305886
20
25.4325614513
0
VERTEX
8
0
62
2
6
CONTINUOUS
10
14.1524324751
20
25.4335985104
0
VERTEX
8
0
62
2
6
CONTINUOUS
10
14.1552814785
20
25.4344996279
0
VERTEX
8
0
62
2
6
CONTINUOUS
10
14.1581731532
20
25.4352633330
0
VERTEX
8
0
62
2
6
CONTINUOUS
10
14.1611033478
20
25.4358883357
0
VERTEX
8
0
62
2
6
CONTINUOUS
10
14.1640682082
20
25.4363734796
0
VERTEX
8
0
62
2
6
CONTINUOUS
10
14.1670641729
20
25.4367176952
0
VERTEX
8
0
62
2
6
CONTINUOUS
10
14.1700879636
20
25.4369199555
0
VERTEX
8
0
62
2
6
CONTINUOUS
10
14.1731365691
20
25.4369792356
0
VERTEX
8
0
62
2
6
CONTINUOUS
10
14.1761762200
20
25.4368949683
0
VERTEX
8
0
62
2
6
CONTINUOUS
10
14.1791950680
20
25.4366677458
0
VERTEX
8
0
62
2
6
CONTINUOUS
10
14.1821899129
20
25.4362983874
0
VERTEX
8
0
62
2
6
CONTINUOUS
10
14.1851572545
20
25.4357877353
0
VERTEX
8
0
62
2
6
CONTINUOUS
10
14.1880932777
20
25.4351367006
0
VERTEX
8
0
62
2
6
CONTINUOUS
10
14.1909938435
20
25.4343463126
0
VERTEX
8
0
62
2
6
CONTINUOUS
10
14.1938544865
20
25.4334177701
0
VERTEX
8
0
62
2
6
CONTINUOUS
10
14.1966704210
20
25.4323524936
0
VERTEX
8
0
62
2
6
CONTINUOUS
10
14.1994365553
20
25.4311521758
0
VERTEX
8
0
62
2
6
CONTINUOUS
10
14.2021475164
20
25.4298188303
0
VERTEX
8
0
62
2
6
CONTINUOUS
10
14.2047976831
20
25.4283548353
0
VERTEX
8
0
62
2
6
CONTINUOUS
10
14.2073812299
20
25.4267629696
0
VERTEX
8
0
62
2
6
CONTINUOUS
10
14.2098921792
20
25.4250464415
0
VERTEX
8
0
62
2
6
CONTINUOUS
10
14.2123244612
20
25.4232089057
0
VERTEX
8
0
62
2
6
CONTINUOUS
10
14.2146719804
20
25.4212544690
0
VERTEX
8
0
62
2
6
CONTINUOUS
10
14.2169286862
20
25.4191876828
0
VERTEX
8
0
62
2
6
CONTINUOUS
10
14.2190886446
20
25.4170135219
0
VERTEX
8
0
62
2
6
CONTINUOUS
10
14.2211461093
20
25.4147373505
0
VERTEX
8
0
62
2
6
CONTINUOUS
10
14.2211962787
20
25.4146790785
0
VERTEX
8
0
62
2
6
CONTINUOUS
10
14.2231416892
20
25.4123059266
0
VERTEX
8
0
62
2
6
CONTINUOUS
10
14.2249726897
20
25.4098445452
0
VERTEX
8
0
62
2
6
CONTINUOUS
10
14.2266847879
20
25.4073012509
0
VERTEX
8
0
62
2
6
CONTINUOUS
10
14.2282739179
20
25.4046824436
0
VERTEX
8
0
62
2
6
CONTINUOUS
10
14.2297364550
20
25.4019945338
0
VERTEX
8
0
62
2
6
CONTINUOUS
10
14.2310692169
20
25.3992438719
0
VERTEX
8
0
62
2
6
CONTINUOUS
10
14.2322694530
20
25.3964366833
0
VERTEX
8
0
62
2
6
CONTINUOUS
10
14.2333348217
20
25.3935790101
0
VERTEX
8
0
62
2
6
CONTINUOUS
10
14.2342633593
20
25.3906766622
0
VERTEX
8
0
62
2
6
CONTINUOUS
10
14.2350534406
20
25.3877351774
0
VERTEX
8
0
62
2
6
CONTINUOUS
10
14.2357037336
20
25.3847597922
0
VERTEX
8
0
62
2
6
CONTINUOUS
10
14.2362131512
20
25.3817554215
0
VERTEX
8
0
62
2
6
CONTINUOUS
10
14.2365808003
20
25.3787266484
0
VERTEX
8
0
62
2
6
CONTINUOUS
10
14.2368059319
20
25.3756777229
0
VERTEX
8
0
62
2
6
CONTINUOUS
10
14.2368878910
20
25.3726125673
0
VERTEX
8
0
62
2
6
CONTINUOUS
10
14.2368262749
20
25.3695298189
0
VERTEX
8
0
62
2
6
CONTINUOUS
10
14.2366214656
20
25.3664659365
0
VERTEX
8
0
62
2
6
CONTINUOUS
10
14.2362742612
20
25.3634248960
0
VERTEX
8
0
62
2
6
CONTINUOUS
10
14.2357855565
20
25.3604109747
0
VERTEX
8
0
62
2
6
CONTINUOUS
10
14.2351563880
20
25.3574287540
0
VERTEX
8
0
62
2
6
CONTINUOUS
10
14.2343879801
20
25.3544831155
0
VERTEX
8
0
62
2
6
CONTINUOUS
10
14.2334817902
20
25.3515792289
0
VERTEX
8
0
62
2
6
CONTINUOUS
10
14.2324395524
20
25.3487225312
0
VERTEX
8
0
62
2
6
CONTINUOUS
10
14.2312633172
20
25.3459186965
0
VERTEX
8
0
62
2
6
CONTINUOUS
10
14.2299554861
20
25.3431735974
0
VERTEX
8
0
62
2
6
CONTINUOUS
10
14.2285188379
20
25.3404932575
0
VERTEX
8
0
62
2
6
CONTINUOUS
10
14.2269565470
20
25.3378837970
0
VERTEX
8
0
62
2
6
CONTINUOUS
10
14.2252721916
20
25.3353513714
0
VERTEX
8
0
62
2
6
CONTINUOUS
10
14.2234697495
20
25.3329021070
0
VERTEX
8
0
62
2
6
CONTINUOUS
10
14.2215535830
20
25.3305420335
0
VERTEX
8
0
62
2
6
CONTINUOUS
10
14.2211962480
20
25.3301263335
0
VERTEX
8
0
62
2
6
CONTINUOUS
10
14.2191527789
20
25.3278799435
0
VERTEX
8
0
62
2
6
CONTINUOUS
10
14.2170078424
20
25.3257365672
0
VERTEX
8
0
62
2
6
CONTINUOUS
10
14.2147669406
20
25.3237012469
0
VERTEX
8
0
62
2
6
CONTINUOUS
10
14.2124357268
20
25.3217786539
0
VERTEX
8
0
62
2
6
CONTINUOUS
10
14.2100199409
20
25.3199730624
0
VERTEX
8
0
62
2
6
CONTINUOUS
10
14.2075253443
20
25.3182883348
0
VERTEX
8
0
62
2
6
CONTINUOUS
10
14.2049576573
20
25.3167279196
0
VERTEX
8
0
62
2
6
CONTINUOUS
10
14.2023224999
20
25.3152948607
0
VERTEX
8
0
62
2
6
CONTINUOUS
10
14.1996253395
20
25.3139918176
0
VERTEX
8
0
62
2
6
CONTINUOUS
10
14.1968714457
20
25.3128210935
0
VERTEX
8
0
62
2
6
CONTINUOUS
10
14.1940658525
20
25.3117846722
0
VERTEX
8
0
62
2
6
CONTINUOUS
10
14.1912133305
20
25.3108842593
0
VERTEX
8
0
62
2
6
CONTINUOUS
10
14.1883183673
20
25.3101213281
0
VERTEX
8
0
62
2
6
CONTINUOUS
10
14.1853851557
20
25.3094971665
0
VERTEX
8
0
62
2
6
CONTINUOUS
10
14.1824175908
20
25.3090129250
0
VERTEX
8
0
62
2
6
CONTINUOUS
10
14.1794192734
20
25.3086696633
0
VERTEX
8
0
62
2
6
CONTINUOUS
10
14.1763935201
20
25.3084683948
0
VERTEX
8
0
62
2
6
CONTINUOUS
10
14.1733433780
20
25.3084101274
0
VERTEX
8
0
62
2
6
CONTINUOUS
10
14.1702868303
20
25.3084954851
0
VERTEX
8
0
62
2
6
CONTINUOUS
10
14.1672508706
20
25.3087238260
0
VERTEX
8
0
62
2
6
CONTINUOUS
10
14.1642390192
20
25.3090943210
0
VERTEX
8
0
62
2
6
CONTINUOUS
10
14.1612550967
20
25.3096060865
0
VERTEX
8
0
62
2
6
CONTINUOUS
10
14.1583032345
20
25.3102581378
0
VERTEX
8
0
62
2
6
CONTINUOUS
10
14.1553878778
20
25.3110493418
0
VERTEX
8
0
62
2
6
CONTINUOUS
10
14.1525137823
20
25.3119783678
0
VERTEX
8
0
62
2
6
CONTINUOUS
10
14.1496860019
20
25.3130436388
0
VERTEX
8
0
62
2
6
CONTINUOUS
10
14.1469098673
20
25.3142432856
0
VERTEX
8
0
62
2
6
CONTINUOUS
10
14.1441909559
20
25.3155751038
0
VERTEX
8
0
62
2
6
CONTINUOUS
10
14.1415350516
20
25.3170365181
0
VERTEX
8
0
62
2
6
CONTINUOUS
10
14.1389480969
20
25.3186245527
0
VERTEX
8
0
62
2
6
CONTINUOUS
10
14.1364361361
20
25.3203358130
0
VERTEX
8
0
62
2
6
CONTINUOUS
10
14.1340052530
20
25.3221664768
0
VERTEX
8
0
62
2
6
CONTINUOUS
10
14.1316615035
20
25.3241122982
0
VERTEX
8
0
62
2
6
CONTINUOUS
10
14.1294108469
20
25.3261686243
0
VERTEX
8
0
62
2
6
CONTINUOUS
10
14.1272590770
20
25.3283304241
0
VERTEX
8
0
62
2
6
CONTINUOUS
10
14.1270053246
20
25.3285992892
0
VERTEX
8
0
62
2
6
CONTINUOUS
10
14.1249725021
20
25.3308712140
0
VERTEX
8
0
62
2
6
CONTINUOUS
10
14.1230511412
20
25.3332350841
0
VERTEX
8
0
62
2
6
CONTINUOUS
10
14.1212458331
20
25.3356848923
0
VERTEX
8
0
62
2
6
CONTINUOUS
10
14.1195607610
20
25.3382145384
0
VERTEX
8
0
62
2
6
CONTINUOUS
10
14.1179996844
20
25.3408178988
0
VERTEX
8
0
62
2
6
CONTINUOUS
10
14.1165659357
20
25.3434888937
0
VERTEX
8
0
62
2
6
CONTINUOUS
10
14.1152624291
20
25.3462215492
0
VERTEX
8
0
62
2
6
CONTINUOUS
10
14.1140916805
20
25.3490100540
0
VERTEX
8
0
62
2
6
CONTINUOUS
10
14.1130558366
20
25.3518488072
0
VERTEX
8
0
62
2
6
CONTINUOUS
10
14.1121567115
20
25.3547324578
0
VERTEX
8
0
62
2
6
CONTINUOUS
10
14.1113958299
20
25.3576559349
0
VERTEX
8
0
62
2
6
CONTINUOUS
10
14.1107744734
20
25.3606144680
0
VERTEX
8
0
62
2
6
CONTINUOUS
10
14.1102937288
20
25.3636035992
0
VERTEX
8
0
62
2
6
CONTINUOUS
10
14.1099545377
20
25.3666191860
0
VERTEX
8
0
62
2
6
CONTINUOUS
10
14.1097577440
20
25.3696573978
0
VERTEX
8
0
62
2
6
CONTINUOUS
10
14.1097041399
20
25.3727147046
0
SEQEND
0
LINE
8
0
62
2
6
CONTINUOUS
10
14.7236777510
20
25.3442452601
11
14.7240305287
21
25.3535910934
0
LINE
8
0
62
2
6
CONTINUOUS
10
15.0785902510
20
25.7926980379
11
15.0749680287
21
25.7703244268
0
LINE
8
0
62
2
6
CONTINUOUS
10
14.8407152510
20
25.3330966490
11
14.8571277510
21
25.4127952601
0
LINE
8
0
62
2
6
CONTINUOUS
10
14.8547944176
20
25.4389716490
11
14.8327541399
21
25.3330966490
0
POLYLINE
8
0
62
2
6
CONTINUOUS
66
1
70
0
0
VERTEX
8
0
62
2
6
CONTINUOUS
10
15.0010623977
20
25.7343127833
0
VERTEX
8
0
62
2
6
CONTINUOUS
10
15.0010316417
20
25.7397351826
0
VERTEX
8
0
62
2
6
CONTINUOUS
10
15.0009323716
20
25.7440506860
0
VERTEX
8
0
62
2
6
CONTINUOUS
10
15.0007588060
20
25.7477802469
0
VERTEX
8
0
62
2
6
CONTINUOUS
10
15.0005098136
20
25.7511187384
0
VERTEX
8
0
62
2
6
CONTINUOUS
10
15.0001855366
20
25.7541649233
0
VERTEX
8
0
62
2
6
CONTINUOUS
10
14.9997865739
20
25.7569777081
0
VERTEX
8
0
62
2
6
CONTINUOUS
10
14.9993136533
20
25.7595960822
0
VERTEX
8
0
62
2
6
CONTINUOUS
10
14.9987674530
20
25.7620478068
0
VERTEX
8
0
62
2
6
CONTINUOUS
10
14.9981484867
20
25.7643537433
0
VERTEX
8
0
62
2
6
CONTINUOUS
10
14.9974570169
20
25.7665302215
0
VERTEX
8
0
62
2
6
CONTINUOUS
10
14.9966929872
20
25.7685904262
0
VERTEX
8
0
62
2
6
CONTINUOUS
10
14.9958559666
20
25.7705452512
0
VERTEX
8
0
62
2
6
CONTINUOUS
10
14.9949451026
20
25.7724038461
0
VERTEX
8
0
62
2
6
CONTINUOUS
10
14.9939590837
20
25.7741739752
0
VERTEX
8
0
62
2
6
CONTINUOUS
10
14.9928961087
20
25.7758622583
0
VERTEX
8
0
62
2
6
CONTINUOUS
10
14.9917538640
20
25.7774743348
0
VERTEX
8
0
62
2
6
CONTINUOUS
10
14.9905295086
20
25.7790149765
0
VERTEX
8
0
62
2
6
CONTINUOUS
10
14.9892196652
20
25.7804881669
0
VERTEX
8
0
62
2
6
CONTINUOUS
10
14.9878204182
20
25.7818971571
0
VERTEX
8
0
62
2
6
CONTINUOUS
10
14.9863273166
20
25.7832445085
0
VERTEX
8
0
62
2
6
CONTINUOUS
10
14.9847353823
20
25.7845321248
0
VERTEX
8
0
62
2
6
CONTINUOUS
10
14.9830391209
20
25.7857612796
0
VERTEX
8
0
62
2
6
CONTINUOUS
10
14.9812325356
20
25.7869326409
0
VERTEX
8
0
62
2
6
CONTINUOUS
10
14.9802856817
20
25.7874968031
0
VERTEX
8
0
62
2
6
CONTINUOUS
10
14.9793091780
20
25.7880462740
0
VERTEX
8
0
62
2
6
CONTINUOUS
10
14.9772653579
20
25.7891001219
0
VERTEX
8
0
62
2
6
CONTINUOUS
10
14.9750939388
20
25.7900936033
0
VERTEX
8
0
62
2
6
CONTINUOUS
10
14.9727873362
20
25.7910255933
0
VERTEX
8
0
62
2
6
CONTINUOUS
10
14.9703375318
20
25.7918944498
0
VERTEX
8
0
62
2
6
CONTINUOUS
10
14.9677360843
20
25.7926980379
0
SEQEND
0
POLYLINE
8
0
62
2
6
CONTINUOUS
66
1
70
0
0
VERTEX
8
0
62
2
6
CONTINUOUS
10
15.1392596954
20
25.6399202601
0
VERTEX
8
0
62
2
6
CONTINUOUS
10
15.1392667127
20
25.6381096401
0
VERTEX
8
0
62
2
6
CONTINUOUS
10
15.1392200561
20
25.6364158499
0
VERTEX
8
0
62
2
6
CONTINUOUS
10
15.1391230174
20
25.6348300356
0
VERTEX
8
0
62
2
6
CONTINUOUS
10
15.1389785336
20
25.6333441294
0
VERTEX
8
0
62
2
6
CONTINUOUS
10
15.1387892041
20
25.6319507528
0
VERTEX
8
0
62
2
6
CONTINUOUS
10
15.1385573008
20
25.6306431378
0
VERTEX
8
0
62
2
6
CONTINUOUS
10
15.1382847735
20
25.6294150633
0
VERTEX
8
0
62
2
6
CONTINUOUS
10
15.1379732503
20
25.6282608035
0
VERTEX
8
0
62
2
6
CONTINUOUS
10
15.1376240358
20
25.6271750871
0
VERTEX
8
0
62
2
6
CONTINUOUS
10
15.1372381049
20
25.6261530655
0
VERTEX
8
0
62
2
6
CONTINUOUS
10
15.1368160966
20
25.6251902893
0
VERTEX
8
0
62
2
6
CONTINUOUS
10
15.1363583053
20
25.6242826910
0
VERTEX
8
0
62
2
6
CONTINUOUS
10
15.1358646728
20
25.6234265742
0
VERTEX
8
0
62
2
6
CONTINUOUS
10
15.1353347799
20
25.6226186071
0
VERTEX
8
0
62
2
6
CONTINUOUS
10
15.1347678399
20
25.6218558199
0
VERTEX
8
0
62
2
6
CONTINUOUS
10
15.1341626923
20
25.6211356046
0
VERTEX
8
0
62
2
6
CONTINUOUS
10
15.1335177989
20
25.6204557168
0
VERTEX
8
0
62
2
6
CONTINUOUS
10
15.1328324507
20
25.6198153415
0
VERTEX
8
0
62
2
6
CONTINUOUS
10
15.1321050233
20
25.6192131279
0
VERTEX
8
0
62
2
6
CONTINUOUS
10
15.1313331247
20
25.6186476578
0
VERTEX
8
0
62
2
6
CONTINUOUS
10
15.1305139912
20
25.6181178833
0
VERTEX
8
0
62
2
6
CONTINUOUS
10
15.1296444887
20
25.6176231224
0
VERTEX
8
0
62
2
6
CONTINUOUS
10
15.1287211120
20
25.6171630522
0
VERTEX
8
0
62
2
6
CONTINUOUS
10
15.1277399806
20
25.6167377014
0
VERTEX
8
0
62
2
6
CONTINUOUS
10
15.1266968303
20
25.6163474413
0
VERTEX
8
0
62
2
6
CONTINUOUS
10
15.1255869997
20
25.6159929777
0
VERTEX
8
0
62
2
6
CONTINUOUS
10
15.1244054101
20
25.6156753421
0
VERTEX
8
0
62
2
6
CONTINUOUS
10
15.1231465377
20
25.6153958849
0
VERTEX
8
0
62
2
6
CONTINUOUS
10
15.1218043775
20
25.6151562708
0
VERTEX
8
0
62
2
6
CONTINUOUS
10
15.1203723971
20
25.6149584765
0
VERTEX
8
0
62
2
6
CONTINUOUS
10
15.1188434780
20
25.6148047926
0
VERTEX
8
0
62
2
6
CONTINUOUS
10
15.1172098445
20
25.6146978298
0
VERTEX
8
0
62
2
6
CONTINUOUS
10
15.1154629748
20
25.6146405310
0
VERTEX
8
0
62
2
6
CONTINUOUS
10
15.1144618527
20
25.6146313758
0
VERTEX
8
0
62
2
6
CONTINUOUS
10
15.1126717919
20
25.6146562941
0
VERTEX
8
0
62
2
6
CONTINUOUS
10
15.1109973926
20
25.6147329081
0
VERTEX
8
0
62
2
6
CONTINUOUS
10
15.1094298812
20
25.6148581042
0
VERTEX
8
0
62
2
6
CONTINUOUS
10
15.1079612481
20
25.6150291147
0
VERTEX
8
0
62
2
6
CONTINUOUS
10
15.1065841574
20
25.6152435045
0
VERTEX
8
0
62
2
6
CONTINUOUS
10
15.1052918743
20
25.6154991622
0
VERTEX
8
0
62
2
6
CONTINUOUS
10
15.1040782046
20
25.6157942978
0
VERTEX
8
0
62
2
6
CONTINUOUS
10
15.1029374468
20
25.6161274424
0
VERTEX
8
0
62
2
6
CONTINUOUS
10
15.1018643533
20
25.6164974522
0
VERTEX
8
0
62
2
6
CONTINUOUS
10
15.1008541004
20
25.6169035150
0
VERTEX
8
0
62
2
6
CONTINUOUS
10
15.0999022657
20
25.6173451573
0
VERTEX
8
0
62
2
6
CONTINUOUS
10
15.0990048124
20
25.6178222536
0
VERTEX
8
0
62
2
6
CONTINUOUS
10
15.0981580782
20
25.6183350351
0
VERTEX
8
0
62
2
6
CONTINUOUS
10
15.0973587688
20
25.6188840981
0
VERTEX
8
0
62
2
6
CONTINUOUS
10
15.0966039555
20
25.6194704123
0
VERTEX
8
0
62
2
6
CONTINUOUS
10
15.0958910741
20
25.6200953271
0
VERTEX
8
0
62
2
6
CONTINUOUS
10
15.0952185423
20
25.6207599304
0
VERTEX
8
0
62
2
6
CONTINUOUS
10
15.0945852916
20
25.6214651962
0
VERTEX
8
0
62
2
6
CONTINUOUS
10
15.0939895830
20
25.6222133436
0
VERTEX
8
0
62
2
6
CONTINUOUS
10
15.0934300477
20
25.6230069755
0
VERTEX
8
0
62
2
6
CONTINUOUS
10
15.0929056833
20
25.6238490807
0
VERTEX
8
0
62
2
6
CONTINUOUS
10
15.0924158467
20
25.6247430370
0
VERTEX
8
0
62
2
6
CONTINUOUS
10
15.0919602478
20
25.6256926190
0
VERTEX
8
0
62
2
6
CONTINUOUS
10
15.0915389403
20
25.6267020093
0
VERTEX
8
0
62
2
6
CONTINUOUS
10
15.0911523136
20
25.6277758166
0
VERTEX
8
0
62
2
6
CONTINUOUS
10
15.0908010842
20
25.6289191013
0
VERTEX
8
0
62
2
6
CONTINUOUS
10
15.0904862884
20
25.6301374093
0
VERTEX
8
0
62
2
6
CONTINUOUS
10
15.0902092774
20
25.6314368177
0
VERTEX
8
0
62
2
6
CONTINUOUS
10
15.0899717148
20
25.6328239927
0
VERTEX
8
0
62
2
6
CONTINUOUS
10
15.0897755785
20
25.6343062634
0
VERTEX
8
0
62
2
6
CONTINUOUS
10
15.0896231673
20
25.6358917149
0
VERTEX
8
0
62
2
6
CONTINUOUS
10
15.0895171143
20
25.6375893039
0
VERTEX
8
0
62
2
6
CONTINUOUS
10
15.0894604081
20
25.6394090054
0
VERTEX
8
0
62
2
6
CONTINUOUS
10
15.0894550179
20
25.6398134688
0
VERTEX
8
0
62
2
6
CONTINUOUS
10
15.0894692677
20
25.6411543535
0
VERTEX
8
0
62
2
6
CONTINUOUS
10
15.0895389055
20
25.6424584905
0
VERTEX
8
0
62
2
6
CONTINUOUS
10
15.0896624854
20
25.6437265187
0
VERTEX
8
0
62
2
6
CONTINUOUS
10
15.0898386772
20
25.6449590465
0
VERTEX
8
0
62
2
6
CONTINUOUS
10
15.0900662683
20
25.6461566418
0
VERTEX
8
0
62
2
6
CONTINUOUS
10
15.0903441632
20
25.6473198227
0
VERTEX
8
0
62
2
6
CONTINUOUS
10
15.0906713819
20
25.6484490461
0
VERTEX
8
0
62
2
6
CONTINUOUS
10
15.0910470565
20
25.6495446966
0
VERTEX
8
0
62
2
6
CONTINUOUS
10
15.0914704251
20
25.6506070749
0
VERTEX
8
0
62
2
6
CONTINUOUS
10
15.0919408233
20
25.6516363861
0
VERTEX
8
0
62
2
6
CONTINUOUS
10
15.0924576730
20
25.6526327278
0
VERTEX
8
0
62
2
6
CONTINUOUS
10
15.0930204682
20
25.6535960795
0
VERTEX
8
0
62
2
6
CONTINUOUS
10
15.0936287582
20
25.6545262915
0
VERTEX
8
0
62
2
6
CONTINUOUS
10
15.0942821271
20
25.6554230765
0
VERTEX
8
0
62
2
6
CONTINUOUS
10
15.0949801703
20
25.6562860015
0
VERTEX
8
0
62
2
6
CONTINUOUS
10
15.0957224684
20
25.6571144824
0
VERTEX
8
0
62
2
6
CONTINUOUS
10
15.0965085579
20
25.6579077809
0
VERTEX
8
0
62
2
6
CONTINUOUS
10
15.0973378992
20
25.6586650041
0
VERTEX
8
0
62
2
6
CONTINUOUS
10
15.0982098431
20
25.6593851078
0
VERTEX
8
0
62
2
6
CONTINUOUS
10
15.0991235955
20
25.6600669032
0
VERTEX
8
0
62
2
6
CONTINUOUS
10
15.1000781810
20
25.6607090680
0
VERTEX
8
0
62
2
6
CONTINUOUS
10
15.1010724081
20
25.6613101620
0
VERTEX
8
0
62
2
6
CONTINUOUS
10
15.1021048344
20
25.6618686470
0
VERTEX
8
0
62
2
6
CONTINUOUS
10
15.1031737360
20
25.6623829123
0
VERTEX
8
0
62
2
6
CONTINUOUS
10
15.1042770804
20
25.6628513037
0
VERTEX
8
0
62
2
6
CONTINUOUS
10
15.1054125066
20
25.6632721582
0
VERTEX
8
0
62
2
6
CONTINUOUS
10
15.1065773125
20
25.6636438413
0
VERTEX
8
0
62
2
6
CONTINUOUS
10
15.1077684514
20
25.6639647873
0
VERTEX
8
0
62
2
6
CONTINUOUS
10
15.1089825407
20
25.6642335412
0
VERTEX
8
0
62
2
6
CONTINUOUS
10
15.1102158813
20
25.6644488007
0
VERTEX
8
0
62
2
6
CONTINUOUS
10
15.1114644898
20
25.6646094551
0
VERTEX
8
0
62
2
6
CONTINUOUS
10
15.1127241425
20
25.6647146215
0
VERTEX
8
0
62
2
6
CONTINUOUS
10
15.1139904305
20
25.6647636746
0
VERTEX
8
0
62
2
6
CONTINUOUS
10
15.1148543435
20
25.6647647715
0
VERTEX
8
0
62
2
6
CONTINUOUS
10
15.1161200206
20
25.6647189532
0
VERTEX
8
0
62
2
6
CONTINUOUS
10
15.1173785086
20
25.6646170574
0
VERTEX
8
0
62
2
6
CONTINUOUS
10
15.1186254194
20
25.6644597274
0
VERTEX
8
0
62
2
6
CONTINUOUS
10
15.1198565582
20
25.6642478615
0
VERTEX
8
0
62
2
6
CONTINUOUS
10
15.1210679773
20
25.6639825830
0
VERTEX
8
0
62
2
6
CONTINUOUS
10
15.1222560187
20
25.6636652036
0
VERTEX
8
0
62
2
6
CONTINUOUS
10
15.1234173450
20
25.6632971840
0
VERTEX
8
0
62
2
6
CONTINUOUS
10
15.1245489575
20
25.6628800921
0
VERTEX
8
0
62
2
6
CONTINUOUS
10
15.1256482032
20
25.6624155606
0
VERTEX
8
0
62
2
6
CONTINUOUS
10
15.1267127701
20
25.6619052473
0
VERTEX
8
0
62
2
6
CONTINUOUS
10
15.1277406737
20
25.6613507973
0
VERTEX
8
0
62
2
6
CONTINUOUS
10
15.1287302358
20
25.6607538093
0
VERTEX
8
0
62
2
6
CONTINUOUS
10
15.1296800568
20
25.6601158063
0
VERTEX
8
0
62
2
6
CONTINUOUS
10
15.1305889841
20
25.6594382106
0
VERTEX
8
0
62
2
6
CONTINUOUS
10
15.1314560775
20
25.6587223242
0
VERTEX
8
0
62
2
6
CONTINUOUS
10
15.1322805731
20
25.6579693136
0
VERTEX
8
0
62
2
6
CONTINUOUS
10
15.1330618473
20
25.6571801989
0
VERTEX
8
0
62
2
6
CONTINUOUS
10
15.1337993814
20
25.6563558473
0
VERTEX
8
0
62
2
6
CONTINUOUS
10
15.1344927275
20
25.6554969707
0
VERTEX
8
0
62
2
6
CONTINUOUS
10
15.1351414773
20
25.6546041257
0
VERTEX
8
0
62
2
6
CONTINUOUS
10
15.1357452324
20
25.6536777171
0
VERTEX
8
0
62
2
6
CONTINUOUS
10
15.1363035784
20
25.6527180042
0
VERTEX
8
0
62
2
6
CONTINUOUS
10
15.1368160619
20
25.6517251083
0
VERTEX
8
0
62
2
6
CONTINUOUS
10
15.1372821702
20
25.6506990222
0
VERTEX
8
0
62
2
6
CONTINUOUS
10
15.1377013146
20
25.6496396206
0
VERTEX
8
0
62
2
6
CONTINUOUS
10
15.1380728167
20
25.6485466717
0
VERTEX
8
0
62
2
6
CONTINUOUS
10
15.1383958976
20
25.6474198490
0
VERTEX
8
0
62
2
6
CONTINUOUS
10
15.1386696695
20
25.6462587428
0
VERTEX
8
0
62
2
6
CONTINUOUS
10
15.1388931306
20
25.6450628723
0
VERTEX
8
0
62
2
6
CONTINUOUS
10
15.1390651612
20
25.6438316970
0
VERTEX
8
0
62
2
6
CONTINUOUS
10
15.1391845231
20
25.6425646271
0
VERTEX
8
0
62
2
6
CONTINUOUS
10
15.1392498591
20
25.6412610342
0
VERTEX
8
0
62
2
6
CONTINUOUS
10
15.1392618115
20
25.6405953000
0
VERTEX
8
0
62
2
6
CONTINUOUS
10
15.1392596954
20
25.6399202601
0
SEQEND
0
LINE
8
0
62
2
6
CONTINUOUS
10
14.5459708065
20
25.4047785934
11
14.5459708065
21
25.3810160934
0
LINE
8
0
62
2
6
CONTINUOUS
10
14.5460249732
20
25.3478397046
11
14.5460249732
21
25.3100660934
0
LINE
8
0
62
2
6
CONTINUOUS
10
14.5873249732
20
25.9623216490
11
14.5873249732
21
25.9607549823
0
LINE
8
0
62
2
6
CONTINUOUS
10
14.7240305287
20
25.3535910934
11
14.7240305287
21
25.3561410934
0
LINE
8
0
62
2
6
CONTINUOUS
10
14.7240305287
20
25.4098244268
11
14.7240305287
21
25.4210272046
0
LINE
8
0
62
7
6
CONTINUOUS
10
14.7441103408
20
15.6627103417
11
14.7441103408
21
15.7843453406
0
LINE
8
0
62
2
6
CONTINUOUS
10
14.9586902510
20
25.3330966490
11
14.9586902510
21
25.4334924823
0
LINE
8
0
62
2
6
CONTINUOUS
10
14.9668138621
20
25.4257619268
11
14.9668138621
21
25.3875674823
0
LINE
8
0
62
2
6
CONTINUOUS
10
14.9668138621
20
25.3798494268
11
14.9668138621
21
25.3330966490
0
LINE
8
0
62
2
6
CONTINUOUS
10
14.9677360843
20
25.7926980379
11
14.9677360843
21
25.7942508157
0
LINE
8
0
62
2
6
CONTINUOUS
10
15.0010624732
20
25.6589827601
11
15.0010623977
21
25.7343127833
0
LINE
8
0
62
2
6
CONTINUOUS
10
15.0235221954
20
25.9617924823
11
15.0235221954
21
25.9019577601
0
LINE
8
0
62
2
6
CONTINUOUS
10
15.0749680287
20
25.7703244268
11
15.0749680287
21
25.6506619268
0
LINE
8
0
62
2
6
CONTINUOUS
10
15.0785902510
20
25.7942508157
11
15.0785902510
21
25.7926980379
0
LINE
8
0
62
2
6
CONTINUOUS
10
15.0820763621
20
25.4361105379
11
15.0820763621
21
25.3330966490
0
LINE
8
0
62
7
6
CONTINUOUS
10
15.0870628375
20
15.7843453406
11
15.0870628375
21
15.6627103417
0
LINE
8
0
62
2
6
CONTINUOUS
10
15.0901735843
20
25.3330966490
11
15.0901735843
21
25.4163216490
0
LINE
8
0
62
2
6
CONTINUOUS
10
15.1052291399
20
25.6252508157
11
15.1052291399
21
25.6533480379
0
LINE
8
0
62
2
6
CONTINUOUS
10
15.1097041399
20
25.6503230379
11
15.1097041399
21
25.6408147046
0
LINE
8
0
62
2
6
CONTINUOUS
10
15.1097041399
20
25.6373494268
11
15.1097041399
21
25.6252508157
0
LINE
8
0
62
2
6
CONTINUOUS
10
15.1189958065
20
25.6392480379
11
15.1189958065
21
25.6390244268
0
LINE
8
0
62
2
6
CONTINUOUS
10
15.1648263621
20
25.4334924823
11
15.1648263621
21
25.3488022046
0
LINE
8
0
62
2
6
CONTINUOUS
10
15.1729235843
20
25.3284174823
11
15.1729235843
21
25.4334924823
0
LINE
8
0
62
2
6
CONTINUOUS
10
15.1928888621
20
26.0391910934
11
15.1928888621
21
25.5430160934
0
LINE
8
0
62
2
6
CONTINUOUS
10
15.1996166399
20
26.0459049823
11
15.1996166399
21
25.5363022046
0
LINE
8
0
62
2
6
CONTINUOUS
10
15.2195402510
20
25.3330966490
11
15.2195402510
21
25.3761063712
0
LINE
8
0
62
7
6
CONTINUOUS
10
15.2922478355
20
16.3457053351
11
15.2922478355
21
15.3526753448
0
LINE
8
0
62
7
6
CONTINUOUS
10
15.3264028351
20
16.3781653348
11
15.3264028351
21
15.2852578454
0
LINE
8
0
62
2
6
CONTINUOUS
10
15.2115652510
20
25.3756174823
11
15.2114166399
21
25.3330966490
0
LINE
8
0
62
2
6
CONTINUOUS
10
11.9570277510
20
25.6272452601
11
11.9360194176
21
25.6922813712
0
LINE
8
0
62
2
6
CONTINUOUS
10
15.1207860843
20
25.6252508157
11
15.1188874732
21
25.6324133157
0
LINE
8
0
62
2
6
CONTINUOUS
10
14.9499013621
20
25.3330966490
11
14.9278874732
21
25.4389716490
0
LINE
8
0
62
2
6
CONTINUOUS
10
14.9255277510
20
25.4127952601
11
14.9420069176
21
25.3330966490
0
LINE
8
0
62
2
6
CONTINUOUS
10
15.0749680287
20
25.6506619268
11
15.0785902510
21
25.6272452601
0
POLYLINE
8
0
62
2
6
CONTINUOUS
66
1
70
0
0
VERTEX
8
0
62
2
6
CONTINUOUS
10
12.6468471954
20
25.9040327601
0
VERTEX
8
0
62
2
6
CONTINUOUS
10
12.6457772237
20
25.9059050316
0
VERTEX
8
0
62
2
6
CONTINUOUS
10
12.6445495667
20
25.9076873206
0
VERTEX
8
0
62
2
6
CONTINUOUS
10
12.6431591365
20
25.9093854991
0
VERTEX
8
0
62
2
6
CONTINUOUS
10
12.6415987480
20
25.9110040649
0
VERTEX
8
0
62
2
6
CONTINUOUS
10
12.6398592483
20
25.9125460917
0
VERTEX
8
0
62
2
6
CONTINUOUS
10
12.6379296565
20
25.9140132171
0
VERTEX
8
0
62
2
6
CONTINUOUS
10
12.6357973019
20
25.9154056662
0
VERTEX
8
0
62
2
6
CONTINUOUS
10
12.6334479461
20
25.9167223066
0
VERTEX
8
0
62
2
6
CONTINUOUS
10
12.6308658739
20
25.9179607297
0
VERTEX
8
0
62
2
6
CONTINUOUS
10
12.6280339388
20
25.9191173521
0
VERTEX
8
0
62
2
6
CONTINUOUS
10
12.6249335425
20
25.9201875319
0
VERTEX
8
0
62
2
6
CONTINUOUS
10
12.6215445148
20
25.9211656981
0
VERTEX
8
0
62
2
6
CONTINUOUS
10
12.6178448400
20
25.9220454903
0
VERTEX
8
0
62
2
6
CONTINUOUS
10
12.6138101253
20
25.9228199125
0
VERTEX
8
0
62
2
6
CONTINUOUS
10
12.6094126051
20
25.9234815042
0
VERTEX
8
0
62
2
6
CONTINUOUS
10
12.6046192520
20
25.9240225398
0
VERTEX
8
0
62
2
6
CONTINUOUS
10
12.5993880070
20
25.9244352684
0
VERTEX
8
0
62
2
6
CONTINUOUS
10
12.5936596121
20
25.9247122189
0
VERTEX
8
0
62
2
6
CONTINUOUS
10
12.5873375007
20
25.9248466050
0
VERTEX
8
0
62
2
6
CONTINUOUS
10
12.5845374732
20
25.9248591490
0
VERTEX
8
0
62
2
6
CONTINUOUS
10
12.5193110843
20
25.9248591490
0
SEQEND
0
POLYLINE
8
0
62
2
6
CONTINUOUS
66
1
70
0
0
VERTEX
8
0
62
2
6
CONTINUOUS
10
13.9267958065
20
25.4382660934
0
VERTEX
8
0
62
2
6
CONTINUOUS
10
13.9692833065
20
25.3330966490
0
VERTEX
8
0
62
2
6
CONTINUOUS
10
13.9610360843
20
25.3330966490
0
VERTEX
8
0
62
2
6
CONTINUOUS
10
13.9483277510
20
25.3654452601
0
SEQEND
0
POLYLINE
8
0
62
2
6
CONTINUOUS
66
1
70
0
0
VERTEX
8
0
62
2
6
CONTINUOUS
10
15.0341833065
20
25.4382660934
0
VERTEX
8
0
62
2
6
CONTINUOUS
10
15.0766777510
20
25.3330966490
0
VERTEX
8
0
62
2
6
CONTINUOUS
10
15.0687291399
20
25.3330966490
0
VERTEX
8
0
62
2
6
CONTINUOUS
10
15.0556958065
20
25.3654452601
0
SEQEND
0
LINE
8
0
62
2
6
CONTINUOUS
10
14.8571277510
20
25.4127952601
11
14.8912666399
21
25.3282674823
0
LINE
8
0
62
2
6
CONTINUOUS
10
14.8912666399
20
25.3486133157
11
14.8547944176
21
25.4389716490
0
LINE
8
0
62
2
6
CONTINUOUS
10
13.9445708065
20
25.3731897046
11
13.9267958065
21
25.4173785934
0
LINE
8
0
62
2
6
CONTINUOUS
10
15.0519513621
20
25.3731897046
11
15.0341833065
21
25.4174327601
0
POLYLINE
8
0
62
7
6
CONTINUOUS
66
1
70
0
0
VERTEX
8
0
62
7
6
CONTINUOUS
10
13.8776128013
20
15.6228554624
0
VERTEX
8
0
62
7
6
CONTINUOUS
10
13.8614035994
20
15.6172027338
0
VERTEX
8
0
62
7
6
CONTINUOUS
10
13.8467197432
20
15.6083102005
0
VERTEX
8
0
62
7
6
CONTINUOUS
10
13.8342002069
20
15.5965648246
0
VERTEX
8
0
62
7
6
CONTINUOUS
10
13.8243897831
20
15.5824777111
0
VERTEX
8
0
62
7
6
CONTINUOUS
10
13.8177153767
20
15.5666618665
0
VERTEX
8
0
62
7
6
CONTINUOUS
10
13.8144674270
20
15.5498055239
0
VERTEX
8
0
62
7
6
CONTINUOUS
10
13.8147872701
20
15.5326421939
0
VERTEX
8
0
62
7
6
CONTINUOUS
10
13.8186609877
20
15.5159187459
0
VERTEX
8
0
62
7
6
CONTINUOUS
10
13.8259200135
20
15.5003629077
0
VERTEX
8
0
62
7
6
CONTINUOUS
10
13.8362484679
20
15.4866515980
0
VERTEX
8
0
62
7
6
CONTINUOUS
10
13.8491969041
20
15.4753814702
0
VERTEX
8
0
62
7
6
CONTINUOUS
10
13.8642018653
20
15.4670429484
0
VERTEX
8
0
62
7
6
CONTINUOUS
10
13.8806104047
20
15.4619988869
0
VERTEX
8
0
62
7
6
CONTINUOUS
10
13.8977084977
20
15.4604687801
0
VERTEX
8
0
62
7
6
CONTINUOUS
10
13.9147521139
20
15.4625192113
0
VERTEX
8
0
62
7
6
CONTINUOUS
10
13.9309995932
20
15.4680609551
0
VERTEX
8
0
62
7
6
CONTINUOUS
10
13.9457439198
20
15.4768528602
0
VERTEX
8
0
62
7
6
CONTINUOUS
10
13.9583434883
20
15.4885123432
0
VERTEX
8
0
62
7
6
CONTINUOUS
10
13.9682500233
20
15.5025320369
0
VERTEX
8
0
62
7
6
CONTINUOUS
10
13.9750324377
20
15.5183018686
0
VERTEX
8
0
62
7
6
CONTINUOUS
10
13.9783955921
20
15.5351356075
0
VERTEX
8
0
62
7
6
CONTINUOUS
10
13.9781931374
20
15.5523007265
0
VERTEX
8
0
62
7
6
CONTINUOUS
10
13.9744338834
20
15.5690502784
0
VERTEX
8
0
62
7
6
CONTINUOUS
10
13.9672814157
20
15.5846553995
0
VERTEX
8
0
62
7
6
CONTINUOUS
10
13.9570469768
20
15.5984370265
0
VERTEX
8
0
62
7
6
CONTINUOUS
10
13.9441759227
20
15.6097954462
0
VERTEX
8
0
62
7
6
CONTINUOUS
10
13.9292283425
20
15.6182363924
0
VERTEX
8
0
62
7
6
CONTINUOUS
10
13.9128546863
20
15.6233925536
0
VERTEX
8
0
62
7
6
CONTINUOUS
10
13.8957674606
20
15.6250395575
0
VERTEX
8
0
62
7
6
CONTINUOUS
10
13.8787102230
20
15.6231057340
0
SEQEND
0
LINE
8
0
62
7
6
CONTINUOUS
10
15.3264028351
20
15.2852578454
11
13.0738378571
21
15.2852578454
0
LINE
8
0
62
7
6
CONTINUOUS
10
15.2922478355
20
15.3526753448
11
13.1072053568
21
15.3526753448
0
LINE
8
0
62
7
6
CONTINUOUS
10
14.0116078480
20
15.3760978445
11
13.1559028563
21
15.3760978445
0
LINE
8
0
62
7
6
CONTINUOUS
10
13.1559028563
20
15.4110778442
11
14.0116078480
21
15.4110778442
0
LINE
8
0
62
7
6
CONTINUOUS
10
15.0870628375
20
15.6627103417
11
14.7441103408
21
15.6627103417
0
LINE
8
0
62
7
6
CONTINUOUS
10
14.0116078480
20
15.6627103417
11
13.1559028563
21
15.6627103417
0
LINE
8
0
62
2
6
CONTINUOUS
10
15.1779277510
20
25.4334924823
11
15.2115652510
21
25.3756174823
0
LINE
8
0
62
2
6
CONTINUOUS
10
15.2155388621
20
25.3844744268
11
15.1872055287
21
25.4334924823
0
LINE
8
0
62
2
6
CONTINUOUS
10
15.1189958065
20
25.6390244268
11
15.1254791399
21
25.6252508157
0
LINE
8
0
62
7
6
CONTINUOUS
10
13.1559028563
20
15.7843453406
11
14.0116078480
21
15.7843453406
0
LINE
8
0
62
7
6
CONTINUOUS
10
14.7441103408
20
15.7843453406
11
15.0870628375
21
15.7843453406
0
LINE
8
0
62
7
6
CONTINUOUS
10
14.0582578475
20
15.8293453401
11
13.2025528559
21
15.8293453401
0
LINE
8
0
62
7
6
CONTINUOUS
10
13.2025528559
20
15.8909953395
11
14.0582578475
21
15.8909953395
0
LINE
8
0
62
7
6
CONTINUOUS
10
14.0582578475
20
15.9559903389
11
13.2025528559
21
15.9559903389
0
LINE
8
0
62
7
6
CONTINUOUS
10
13.2025528559
20
16.0176328383
11
14.0582578475
21
16.0176328383
0
LINE
8
0
62
7
6
CONTINUOUS
10
14.0582578475
20
16.0559728379
11
13.2025528559
21
16.0559728379
0
LINE
8
0
62
7
6
CONTINUOUS
10
13.2025528559
20
16.1176153373
11
14.0582578475
21
16.1176153373
0
LINE
8
0
62
7
6
CONTINUOUS
10
14.0582578475
20
16.1559478369
11
13.2025528559
21
16.1559478369
0
LINE
8
0
62
7
6
CONTINUOUS
10
13.2025528559
20
16.2175978363
11
14.0582578475
21
16.2175978363
0
LINE
8
0
62
7
6
CONTINUOUS
10
14.0582578475
20
16.2559303359
11
13.2025528559
21
16.2559303359
0
LINE
8
0
62
7
6
CONTINUOUS
10
13.2025528559
20
16.3175803353
11
14.0582578475
21
16.3175803353
0
LINE
8
0
62
7
6
CONTINUOUS
10
13.1072053568
20
16.3457053351
11
15.2922478355
21
16.3457053351
0
LINE
8
0
62
7
6
CONTINUOUS
10
13.0738378571
20
16.3781653348
11
15.3264028351
21
16.3781653348
0
LINE
8
0
62
2
6
CONTINUOUS
10
13.2700027510
20
25.7245424823
11
13.2033319176
21
25.7979063712
0
POLYLINE
8
0
62
2
6
CONTINUOUS
66
1
70
0
0
VERTEX
8
0
62
2
6
CONTINUOUS
10
14.0772333065
20
25.3745869268
0
VERTEX
8
0
62
2
6
CONTINUOUS
10
14.1329319176
20
25.3099160934
0
VERTEX
8
0
62
2
6
CONTINUOUS
10
14.0882749732
20
25.3099841490
0
VERTEX
8
0
62
2
6
CONTINUOUS
10
14.0504527510
20
25.3539438712
0
VERTEX
8
0
62
2
6
CONTINUOUS
10
14.0503916399
20
25.3539438712
0
VERTEX
8
0
62
2
6
CONTINUOUS
10
14.0503916399
20
25.3099841490
0
VERTEX
8
0
62
2
6
CONTINUOUS
10
14.0166735843
20
25.3099841490
0
SEQEND
0
POLYLINE
8
0
62
2
6
CONTINUOUS
66
1
70
0
0
VERTEX
8
0
62
2
6
CONTINUOUS
10
12.9446583065
20
25.7724202601
0
VERTEX
8
0
62
2
6
CONTINUOUS
10
12.9433929007
20
25.7739253005
0
VERTEX
8
0
62
2
6
CONTINUOUS
10
12.9419667670
20
25.7753534231
0
VERTEX
8
0
62
2
6
CONTINUOUS
10
12.9403699818
20
25.7767080725
0
VERTEX
8
0
62
2
6
CONTINUOUS
10
12.9385904835
20
25.7779911775
0
VERTEX
8
0
62
2
6
CONTINUOUS
10
12.9366141530
20
25.7792032003
0
VERTEX
8
0
62
2
6
CONTINUOUS
10
12.9344248412
20
25.7803432236
0
VERTEX
8
0
62
2
6
CONTINUOUS
10
12.9320043120
20
25.7814090686
0
VERTEX
8
0
62
2
6
CONTINUOUS
10
12.9293320553
20
25.7823974376
0
VERTEX
8
0
62
2
6
CONTINUOUS
10
12.9263849051
20
25.7833040754
0
VERTEX
8
0
62
2
6
CONTINUOUS
10
12.9231363411
20
25.7841239487
0
VERTEX
8
0
62
2
6
CONTINUOUS
10
12.9195552569
20
25.7848514472
0
VERTEX
8
0
62
2
6
CONTINUOUS
10
12.9156037508
20
25.7854806167
0
VERTEX
8
0
62
2
6
CONTINUOUS
10
12.9112329776
20
25.7860054482
0
VERTEX
8
0
62
2
6
CONTINUOUS
10
12.9063747311
20
25.7864202780
0
VERTEX
8
0
62
2
6
CONTINUOUS
10
12.9009222409
20
25.7867204364
0
VERTEX
8
0
62
2
6
CONTINUOUS
10
12.8946776122
20
25.7869035939
0
VERTEX
8
0
62
2
6
CONTINUOUS
10
12.8871543616
20
25.7869740848
0
VERTEX
8
0
62
2
6
CONTINUOUS
10
12.8265485843
20
25.7869744268
0
SEQEND
0
LINE
8
0
62
2
6
CONTINUOUS
10
14.2112402510
20
25.9617924823
11
14.2221249732
21
25.9487855379
0
LINE
8
0
62
2
6
CONTINUOUS
10
14.5735444176
20
25.3099841490
11
14.5460249732
21
25.3478397046
0
LINE
8
0
62
2
6
CONTINUOUS
10
14.5752541399
20
25.3593008157
11
14.6103694176
21
25.3099160934
0
LINE
8
0
62
2
6
CONTINUOUS
10
13.3583958065
20
25.6459758157
11
13.2700027510
21
25.7245424823
0
POLYLINE
8
0
62
2
6
CONTINUOUS
66
1
70
0
0
VERTEX
8
0
62
2
6
CONTINUOUS
10
13.2873916399
20
25.7869744268
0
VERTEX
8
0
62
2
6
CONTINUOUS
10
13.3917346954
20
25.6928105379
0
VERTEX
8
0
62
2
6
CONTINUOUS
10
13.3974171343
20
25.6879028800
0
VERTEX
8
0
62
2
6
CONTINUOUS
10
13.4036327114
20
25.6828272892
0
VERTEX
8
0
62
2
6
CONTINUOUS
10
13.4103876169
20
25.6775968399
0
VERTEX
8
0
62
2
6
CONTINUOUS
10
13.4176807249
20
25.6722291310
0
VERTEX
8
0
62
2
6
CONTINUOUS
10
13.4255019570
20
25.6667468612
0
VERTEX
8
0
62
2
6
CONTINUOUS
10
13.4338305542
20
25.6611783532
0
VERTEX
8
0
62
2
6
CONTINUOUS
10
13.4426333638
20
25.6555579492
0
VERTEX
8
0
62
2
6
CONTINUOUS
10
13.4518633085
20
25.6499261808
0
VERTEX
8
0
62
2
6
CONTINUOUS
10
13.4614582740
20
25.6443295904
0
VERTEX
8
0
62
2
6
CONTINUOUS
10
13.4713407083
20
25.6388200750
0
VERTEX
8
0
62
2
6
CONTINUOUS
10
13.4814182543
20
25.6334536403
0
VERTEX
8
0
62
2
6
CONTINUOUS
10
13.4915856948
20
25.6282885088
0
VERTEX
8
0
62
2
6
CONTINUOUS
10
13.4991426050
20
25.6246098518
0
VERTEX
8
0
62
2
6
CONTINUOUS
10
13.5091249732
20
25.6199619268
0
SEQEND
0
LINE
8
0
62
2
6
CONTINUOUS
10
14.2322569176
20
25.9383813712
11
14.4974680287
21
25.6980049823
0
LINE
8
0
62
2
6
CONTINUOUS
10
14.4438374732
20
25.6626258157
11
14.1953096954
21
25.8889508157
0
LINE
8
0
62
2
6
CONTINUOUS
10
14.2221249732
20
25.9487855379
11
14.2322569176
21
25.9383813712
0
LINE
8
0
62
2
6
CONTINUOUS
10
15.1648263621
20
25.3488022046
11
15.0820763621
21
25.4361105379
0
LINE
8
0
62
2
6
CONTINUOUS
10
15.0901735843
20
25.4163216490
11
15.1729235843
21
25.3284174823
0
POLYLINE
8
0
62
2
6
CONTINUOUS
66
1
70
0
0
VERTEX
8
0
62
2
6
CONTINUOUS
10
11.9360194176
20
25.6922813712
0
VERTEX
8
0
62
2
6
CONTINUOUS
10
11.9444248772
20
25.6875486601
0
VERTEX
8
0
62
2
6
CONTINUOUS
10
11.9533940143
20
25.6829085868
0
VERTEX
8
0
62
2
6
CONTINUOUS
10
11.9628555701
20
25.6784161214
0
VERTEX
8
0
62
2
6
CONTINUOUS
10
11.9661179402
20
25.6769549678
0
VERTEX
8
0
62
2
6
CONTINUOUS
10
11.9760729961
20
25.6727555721
0
VERTEX
8
0
62
2
6
CONTINUOUS
10
11.9862814017
20
25.6688322071
0
VERTEX
8
0
62
2
6
CONTINUOUS
10
11.9966593997
20
25.6652189139
0
VERTEX
8
0
62
2
6
CONTINUOUS
10
12.0071283102
20
25.6619425217
0
VERTEX
8
0
62
2
6
CONTINUOUS
10
12.0176163090
20
25.6590228660
0
VERTEX
8
0
62
2
6
CONTINUOUS
10
12.0280594759
20
25.6564733272
0
VERTEX
8
0
62
2
6
CONTINUOUS
10
12.0384022277
20
25.6543015658
0
VERTEX
8
0
62
2
6
CONTINUOUS
10
12.0485972784
20
25.6525103530
0
VERTEX
8
0
62
2
6
CONTINUOUS
10
12.0586052647
20
25.6510984173
0
VERTEX
8
0
62
2
6
CONTINUOUS
10
12.0683941602
20
25.6500612563
0
VERTEX
8
0
62
2
6
CONTINUOUS
10
12.0779385721
20
25.6493918816
0
VERTEX
8
0
62
2
6
CONTINUOUS
10
12.0872189931
20
25.6490814820
0
VERTEX
8
0
62
2
6
CONTINUOUS
10
12.0962210557
20
25.6491200028
0
VERTEX
8
0
62
2
6
CONTINUOUS
10
12.1049348187
20
25.6494966418
0
VERTEX
8
0
62
2
6
CONTINUOUS
10
12.1133541040
20
25.6502002719
0
VERTEX
8
0
62
2
6
CONTINUOUS
10
12.1214758911
20
25.6512197969
0
VERTEX
8
0
62
2
6
CONTINUOUS
10
12.1292997710
20
25.6525444498
0
VERTEX
8
0
62
2
6
CONTINUOUS
10
12.1368274561
20
25.6541640430
0
VERTEX
8
0
62
2
6
CONTINUOUS
10
12.1440623435
20
25.6560691757
0
VERTEX
8
0
62
2
6
CONTINUOUS
10
12.1510091247
20
25.6582514066
0
VERTEX
8
0
62
2
6
CONTINUOUS
10
12.1576734369
20
25.6607033942
0
VERTEX
8
0
62
2
6
CONTINUOUS
10
12.1640615507
20
25.6634190114
0
VERTEX
8
0
62
2
6
CONTINUOUS
10
12.1693119115
20
25.6659959077
0
VERTEX
8
0
62
2
6
CONTINUOUS
10
12.1740337184
20
25.6686881678
0
VERTEX
8
0
62
2
6
CONTINUOUS
10
12.1782500915
20
25.6714796924
0
VERTEX
8
0
62
2
6
CONTINUOUS
10
12.1819843092
20
25.6743561277
0
VERTEX
8
0
62
2
6
CONTINUOUS
10
12.1852593817
20
25.6773050988
0
VERTEX
8
0
62
2
6
CONTINUOUS
10
12.1880975423
20
25.6803163992
0
VERTEX
8
0
62
2
6
CONTINUOUS
10
12.1905196649
20
25.6833821093
0
VERTEX
8
0
62
2
6
CONTINUOUS
10
12.1925446323
20
25.6864966147
0
VERTEX
8
0
62
2
6
CONTINUOUS
10
12.1941886857
20
25.6896564958
0
VERTEX
8
0
62
2
6
CONTINUOUS
10
12.1954648058
20
25.6928602671
0
VERTEX
8
0
62
2
6
CONTINUOUS
10
12.1963813432
20
25.6961042456
0
VERTEX
8
0
62
2
6
CONTINUOUS
10
12.1969437655
20
25.6993827937
0
VERTEX
8
0
62
2
6
CONTINUOUS
10
12.1971560338
20
25.7026968704
0
VERTEX
8
0
62
2
6
CONTINUOUS
10
12.1970178551
20
25.7060474496
0
VERTEX
8
0
62
2
6
CONTINUOUS
10
12.1965248826
20
25.7094347435
0
VERTEX
8
0
62
2
6
CONTINUOUS
10
12.1956691812
20
25.7128574456
0
VERTEX
8
0
62
2
6
CONTINUOUS
10
12.1944399333
20
25.7163120534
0
VERTEX
8
0
62
2
6
CONTINUOUS
10
12.1928243344
20
25.7197923249
0
VERTEX
8
0
62
2
6
CONTINUOUS
10
12.1908086146
20
25.7232889050
0
VERTEX
8
0
62
2
6
CONTINUOUS
10
12.1883791127
20
25.7267891452
0
VERTEX
8
0
62
2
6
CONTINUOUS
10
12.1855233289
20
25.7302771220
0
VERTEX
8
0
62
2
6
CONTINUOUS
10
12.1822308839
20
25.7337338493
0
VERTEX
8
0
62
2
6
CONTINUOUS
10
12.1784943207
20
25.7371376627
0
VERTEX
8
0
62
2
6
CONTINUOUS
10
12.1743096995
20
25.7404647447
0
VERTEX
8
0
62
2
6
CONTINUOUS
10
12.1696769533
20
25.7436897474
0
VERTEX
8
0
62
2
6
CONTINUOUS
10
12.1645999944
20
25.7467864631
0
VERTEX
8
0
62
2
6
CONTINUOUS
10
12.1597782052
20
25.7493807778
0
VERTEX
8
0
62
2
6
CONTINUOUS
10
12.1514057779
20
25.7534347266
0
VERTEX
8
0
62
2
6
CONTINUOUS
10
12.1424332024
20
25.7573998092
0
VERTEX
8
0
62
2
6
CONTINUOUS
10
12.1326920594
20
25.7613338851
0
VERTEX
8
0
62
2
6
CONTINUOUS
10
12.1219036761
20
25.7653297225
0
VERTEX
8
0
62
2
6
CONTINUOUS
10
12.1095337803
20
25.7695624586
0
VERTEX
8
0
62
2
6
CONTINUOUS
10
12.0942420931
20
25.7744696734
0
VERTEX
8
0
62
2
6
CONTINUOUS
10
12.0754619276
20
25.7803330649
0
VERTEX
8
0
62
2
6
CONTINUOUS
10
12.0603559942
20
25.7851919448
0
VERTEX
8
0
62
2
6
CONTINUOUS
10
12.0480729683
20
25.7894086635
0
VERTEX
8
0
62
2
6
CONTINUOUS
10
12.0391699029
20
25.7926345193
0
VERTEX
8
0
62
2
6
CONTINUOUS
10
12.0287258835
20
25.7966333573
0
VERTEX
8
0
62
2
6
CONTINUOUS
10
12.0194743694
20
25.8004728053
0
VERTEX
8
0
62
2
6
CONTINUOUS
10
12.0111180424
20
25.8042628862
0
VERTEX
8
0
62
2
6
CONTINUOUS
10
12.0035193408
20
25.8080470437
0
VERTEX
8
0
62
2
6
CONTINUOUS
10
11.9965962738
20
25.8118450486
0
VERTEX
8
0
62
2
6
CONTINUOUS
10
11.9902909574
20
25.8156665250
0
VERTEX
8
0
62
2
6
CONTINUOUS
10
11.9845577025
20
25.8195164281
0
VERTEX
8
0
62
2
6
CONTINUOUS
10
11.9793578749
20
25.8233976526
0
VERTEX
8
0
62
2
6
CONTINUOUS
10
11.9746575094
20
25.8273124288
0
VERTEX
8
0
62
2
6
CONTINUOUS
10
11.9704261786
20
25.8312631404
0
VERTEX
8
0
62
2
6
CONTINUOUS
10
11.9666364835
20
25.8352528352
0
VERTEX
8
0
62
2
6
CONTINUOUS
10
11.9632638747
20
25.8392855557
0
VERTEX
8
0
62
2
6
CONTINUOUS
10
11.9602866556
20
25.8433665522
0
VERTEX
8
0
62
2
6
CONTINUOUS
10
11.9576860877
20
25.8475024082
0
VERTEX
8
0
62
2
6
CONTINUOUS
10
11.9554465504
20
25.8517010959
0
VERTEX
8
0
62
2
6
CONTINUOUS
10
11.9535557194
20
25.8559719682
0
VERTEX
8
0
62
2
6
CONTINUOUS
10
11.9517178485
20
25.8610449110
0
VERTEX
8
0
62
2
6
CONTINUOUS
10
11.9502936712
20
25.8659850190
0
VERTEX
8
0
62
2
6
CONTINUOUS
10
11.9492641742
20
25.8708029024
0
VERTEX
8
0
62
2
6
CONTINUOUS
10
11.9486142234
20
25.8755031255
0
VERTEX
8
0
62
2
6
CONTINUOUS
10
11.9483301628
20
25.8800914342
0
VERTEX
8
0
62
2
6
CONTINUOUS
10
11.9484005316
20
25.8845784706
0
VERTEX
8
0
62
2
6
CONTINUOUS
10
11.9488174074
20
25.8889746100
0
VERTEX
8
0
62
2
6
CONTINUOUS
10
11.9495764430
20
25.8932896774
0
VERTEX
8
0
62
2
6
CONTINUOUS
10
11.9506768151
20
25.8975326368
0
VERTEX
8
0
62
2
6
CONTINUOUS
10
11.9521210729
20
25.9017112695
0
VERTEX
8
0
62
2
6
CONTINUOUS
10
11.9539148801
20
25.9058318498
0
VERTEX
8
0
62
2
6
CONTINUOUS
10
11.9560666442
20
25.9098988306
0
VERTEX
8
0
62
2
6
CONTINUOUS
10
11.9585870306
20
25.9139145460
0
VERTEX
8
0
62
2
6
CONTINUOUS
10
11.9614883572
20
25.9178789328
0
VERTEX
8
0
62
2
6
CONTINUOUS
10
11.9647838586
20
25.9217892717
0
VERTEX
8
0
62
2
6
CONTINUOUS
10
11.9684868070
20
25.9256399455
0
VERTEX
8
0
62
2
6
CONTINUOUS
10
11.9726094653
20
25.9294222113
0
VERTEX
8
0
62
2
6
CONTINUOUS
10
11.9771618436
20
25.9331239888
0
VERTEX
8
0
62
2
6
CONTINUOUS
10
11.9821502238
20
25.9367296701
0
VERTEX
8
0
62
2
6
CONTINUOUS
10
11.9875754195
20
25.9402199704
0
VERTEX
8
0
62
2
6
CONTINUOUS
10
11.9934307520
20
25.9435718516
0
VERTEX
8
0
62
2
6
CONTINUOUS
10
11.9996997536
20
25.9467585750
0
VERTEX
8
0
62
2
6
CONTINUOUS
10
12.0045949293
20
25.9489954795
0
VERTEX
8
0
62
2
6
CONTINUOUS
10
12.0120146683
20
25.9520414088
0
VERTEX
8
0
62
2
6
CONTINUOUS
10
12.0199280762
20
25.9549101278
0
VERTEX
8
0
62
2
6
CONTINUOUS
10
12.0283482342
20
25.9575889427
0
VERTEX
8
0
62
2
6
CONTINUOUS
10
12.0372857827
20
25.9600639854
0
VERTEX
8
0
62
2
6
CONTINUOUS
10
12.0467481408
20
25.9623203500
0
VERTEX
8
0
62
2
6
CONTINUOUS
10
12.0567385911
20
25.9643422615
0
VERTEX
8
0
62
2
6
CONTINUOUS
10
12.0672552082
20
25.9661132894
0
VERTEX
8
0
62
2
6
CONTINUOUS
10
12.0782896114
20
25.9676166193
0
VERTEX
8
0
62
2
6
CONTINUOUS
10
12.0898255267
20
25.9688353995
0
VERTEX
8
0
62
2
6
CONTINUOUS
10
12.1018371569
20
25.9697531852
0
VERTEX
8
0
62
2
6
CONTINUOUS
10
12.1142873798
20
25.9703544997
0
VERTEX
8
0
62
2
6
CONTINUOUS
10
12.1271258326
20
25.9706255395
0
VERTEX
8
0
62
2
6
CONTINUOUS
10
12.1402869955
20
25.9705550380
0
VERTEX
8
0
62
2
6
CONTINUOUS
10
12.1536884690
20
25.9701352961
0
VERTEX
8
0
62
2
6
CONTINUOUS
10
12.1672297396
20
25.9693633623
0
VERTEX
8
0
62
2
6
CONTINUOUS
10
12.1807918420
20
25.9682423055
0
VERTEX
8
0
62
2
6
CONTINUOUS
10
12.1942384160
20
25.9667824717
0
VERTEX
8
0
62
2
6
CONTINUOUS
10
12.2074186826
20
25.9650025477
0
VERTEX
8
0
62
2
6
CONTINUOUS
10
12.2149439114
20
25.9638232475
0
VERTEX
8
0
62
2
6
CONTINUOUS
10
12.2272987999
20
25.9616106812
0
VERTEX
8
0
62
2
6
CONTINUOUS
10
12.2389027510
20
25.9591883157
0
SEQEND
0
POLYLINE
8
0
62
2
6
CONTINUOUS
66
1
70
0
0
VERTEX
8
0
62
2
6
CONTINUOUS
10
12.2389027510
20
25.9004119268
0
VERTEX
8
0
62
2
6
CONTINUOUS
10
12.2308583880
20
25.9052815742
0
VERTEX
8
0
62
2
6
CONTINUOUS
10
12.2229267957
20
25.9096720034
0
VERTEX
8
0
62
2
6
CONTINUOUS
10
12.2150636856
20
25.9136200364
0
VERTEX
8
0
62
2
6
CONTINUOUS
10
12.2072266652
20
25.9171563401
0
VERTEX
8
0
62
2
6
CONTINUOUS
10
12.1993743017
20
25.9203061150
0
VERTEX
8
0
62
2
6
CONTINUOUS
10
12.1914652706
20
25.9230896083
0
VERTEX
8
0
62
2
6
CONTINUOUS
10
12.1874769065
20
25.9243489189
0
VERTEX
8
0
62
2
6
CONTINUOUS
10
12.1834630732
20
25.9255209380
0
VERTEX
8
0
62
2
6
CONTINUOUS
10
12.1753446584
20
25.9276074202
0
VERTEX
8
0
62
2
6
CONTINUOUS
10
12.1670660127
20
25.9293593497
0
VERTEX
8
0
62
2
6
CONTINUOUS
10
12.1585807428
20
25.9307828801
0
VERTEX
8
0
62
2
6
CONTINUOUS
10
12.1498391180
20
25.9318801289
0
VERTEX
8
0
62
2
6
CONTINUOUS
10
12.1407869600
20
25.9326491861
0
VERTEX
8
0
62
2
6
CONTINUOUS
10
12.1313643009
20
25.9330840172
0
VERTEX
8
0
62
2
6
CONTINUOUS
10
12.1295084850
20
25.9331284425
0
VERTEX
8
0
62
2
6
CONTINUOUS
10
12.1219994896
20
25.9331359024
0
VERTEX
8
0
62
2
6
CONTINUOUS
10
12.1133259570
20
25.9328237346
0
VERTEX
8
0
62
2
6
CONTINUOUS
10
12.1046631521
20
25.9321861323
0
VERTEX
8
0
62
2
6
CONTINUOUS
10
12.0963185104
20
25.9312477870
0
VERTEX
8
0
62
2
6
CONTINUOUS
10
12.0884533403
20
25.9300383185
0
VERTEX
8
0
62
2
6
CONTINUOUS
10
12.0811474825
20
25.9285876034
0
VERTEX
8
0
62
2
6
CONTINUOUS
10
12.0744335088
20
25.9269238850
0
VERTEX
8
0
62
2
6
CONTINUOUS
10
12.0683157143
20
25.9250729451
0
VERTEX
8
0
62
2
6
CONTINUOUS
10
12.0627812340
20
25.9230576967
0
VERTEX
8
0
62
2
6
CONTINUOUS
10
12.0578068872
20
25.9208979403
0
VERTEX
8
0
62
2
6
CONTINUOUS
10
12.0533636046
20
25.9186101755
0
VERTEX
8
0
62
2
6
CONTINUOUS
10
12.0494194429
20
25.9162074262
0
VERTEX
8
0
62
2
6
CONTINUOUS
10
12.0459417580
20
25.9136990663
0
VERTEX
8
0
62
2
6
CONTINUOUS
10
12.0428988734
20
25.9110906562
0
VERTEX
8
0
62
2
6
CONTINUOUS
10
12.0402614439
20
25.9083838109
0
VERTEX
8
0
62
2
6
CONTINUOUS
10
12.0380036290
20
25.9055761332
0
VERTEX
8
0
62
2
6
CONTINUOUS
10
12.0361041266
20
25.9026612474
0
VERTEX
8
0
62
2
6
CONTINUOUS
10
12.0345470742
20
25.8996289642
0
VERTEX
8
0
62
2
6
CONTINUOUS
10
12.0333227890
20
25.8964655908
0
VERTEX
8
0
62
2
6
CONTINUOUS
10
12.0324283081
20
25.8931543746
0
VERTEX
8
0
62
2
6
CONTINUOUS
10
12.0318676914
20
25.8896760431
0
VERTEX
8
0
62
2
6
CONTINUOUS
10
12.0316829509
20
25.8863438065
0
VERTEX
8
0
62
2
6
CONTINUOUS
10
12.0318593030
20
25.8830870209
0
VERTEX
8
0
62
2
6
CONTINUOUS
10
12.0323903443
20
25.8798861055
0
VERTEX
8
0
62
2
6
CONTINUOUS
10
12.0332780549
20
25.8767223989
0
VERTEX
8
0
62
2
6
CONTINUOUS
10
12.0345325579
20
25.8735787615
0
VERTEX
8
0
62
2
6
CONTINUOUS
10
12.0361716242
20
25.8704400878
0
VERTEX
8
0
62
2
6
CONTINUOUS
10
12.0382199839
20
25.8672936758
0
VERTEX
8
0
62
2
6
CONTINUOUS
10
12.0407085199
20
25.8641294349
0
VERTEX
8
0
62
2
6
CONTINUOUS
10
12.0436734114
20
25.8609399416
0
VERTEX
8
0
62
2
6
CONTINUOUS
10
12.0471552759
20
25.8577203692
0
VERTEX
8
0
62
2
6
CONTINUOUS
10
12.0511983371
20
25.8544683217
0
VERTEX
8
0
62
2
6
CONTINUOUS
10
12.0558496356
20
25.8511835816
0
VERTEX
8
0
62
2
6
CONTINUOUS
10
12.0611583184
20
25.8478677562
0
VERTEX
8
0
62
2
6
CONTINUOUS
10
12.0671751285
20
25.8445237353
0
VERTEX
8
0
62
2
6
CONTINUOUS
10
12.0739524839
20
25.8411547224
0
VERTEX
8
0
62
2
6
CONTINUOUS
10
12.0815464029
20
25.8377621764
0
VERTEX
8
0
62
2
6
CONTINUOUS
10
12.0900246993
20
25.8343405711
0
VERTEX
8
0
62
2
6
CONTINUOUS
10
12.0995003713
20
25.8308606285
0
VERTEX
8
0
62
2
6
CONTINUOUS
10
12.1103085740
20
25.8271901148
0
VERTEX
8
0
62
2
6
CONTINUOUS
10
12.1180184157
20
25.8246277357
0
VERTEX
8
0
62
2
6
CONTINUOUS
10
12.1352972695
20
25.8188954685
0
VERTEX
8
0
62
2
6
CONTINUOUS
10
12.1530745314
20
25.8131303622
0
VERTEX
8
0
62
2
6
CONTINUOUS
10
12.1702951683
20
25.8074158939
0
VERTEX
8
0
62
2
6
CONTINUOUS
10
12.1841336246
20
25.8025555620
0
VERTEX
8
0
62
2
6
CONTINUOUS
10
12.1961729272
20
25.7980146282
0
VERTEX
8
0
62
2
6
CONTINUOUS
10
12.2070309789
20
25.7935837812
0
VERTEX
8
0
62
2
6
CONTINUOUS
10
12.2170266013
20
25.7891537006
0
VERTEX
8
0
62
2
6
CONTINUOUS
10
12.2263511088
20
25.7846571229
0
VERTEX
8
0
62
2
6
CONTINUOUS
10
12.2332529163
20
25.7809868407
0
VERTEX
8
0
62
2
6
CONTINUOUS
10
12.2395604349
20
25.7772377737
0
VERTEX
8
0
62
2
6
CONTINUOUS
10
12.2453008918
20
25.7734199665
0
VERTEX
8
0
62
2
6
CONTINUOUS
10
12.2505008927
20
25.7695422284
0
VERTEX
8
0
62
2
6
CONTINUOUS
10
12.2551862094
20
25.7656120354
0
VERTEX
8
0
62
2
6
CONTINUOUS
10
12.2593815401
20
25.7616354463
0
VERTEX
8
0
62
2
6
CONTINUOUS
10
12.2631102426
20
25.7576170375
0
VERTEX
8
0
62
2
6
CONTINUOUS
10
12.2663940448
20
25.7535598679
0
VERTEX
8
0
62
2
6
CONTINUOUS
10
12.2692527378
20
25.7494654817
0
VERTEX
8
0
62
2
6
CONTINUOUS
10
12.2717038624
20
25.7453339606
0
VERTEX
8
0
62
2
6
CONTINUOUS
10
12.2737624013
20
25.7411640329
0
VERTEX
8
0
62
2
6
CONTINUOUS
10
12.2754385100
20
25.7369588853
0
VERTEX
8
0
62
2
6
CONTINUOUS
10
12.2767416310
20
25.7327194528
0
VERTEX
8
0
62
2
6
CONTINUOUS
10
12.2776800080
20
25.7284423651
0
VERTEX
8
0
62
2
6
CONTINUOUS
10
12.2782586690
20
25.7241237660
0
VERTEX
8
0
62
2
6
CONTINUOUS
10
12.2784793976
20
25.7197597017
0
VERTEX
8
0
62
2
6
CONTINUOUS
10
12.2783408144
20
25.7153465469
0
VERTEX
8
0
62
2
6
CONTINUOUS
10
12.2778385788
20
25.7108814532
0
VERTEX
8
0
62
2
6
CONTINUOUS
10
12.2769657108
20
25.7063628005
0
VERTEX
8
0
62
2
6
CONTINUOUS
10
12.2757130312
20
25.7017906333
0
VERTEX
8
0
62
2
6
CONTINUOUS
10
12.2740697106
20
25.6971670661
0
VERTEX
8
0
62
2
6
CONTINUOUS
10
12.2720239136
20
25.6924966427
0
VERTEX
8
0
62
2
6
CONTINUOUS
10
12.2695635238
20
25.6877866352
0
VERTEX
8
0
62
2
6
CONTINUOUS
10
12.2666769281
20
25.6830472702
0
VERTEX
8
0
62
2
6
CONTINUOUS
10
12.2633538364
20
25.6782918669
0
VERTEX
8
0
62
2
6
CONTINUOUS
10
12.2595861076
20
25.6735368741
0
VERTEX
8
0
62
2
6
CONTINUOUS
10
12.2553685450
20
25.6688017926
0
VERTEX
8
0
62
2
6
CONTINUOUS
10
12.2506996218
20
25.6641089724
0
VERTEX
8
0
62
2
6
CONTINUOUS
10
12.2455820908
20
25.6594832799
0
VERTEX
8
0
62
2
6
CONTINUOUS
10
12.2400234346
20
25.6549516382
0
VERTEX
8
0
62
2
6
CONTINUOUS
10
12.2340361168
20
25.6505424529
0
VERTEX
8
0
62
2
6
CONTINUOUS
10
12.2276376074
20
25.6462849499
0
VERTEX
8
0
62
2
6
CONTINUOUS
10
12.2208501685
20
25.6422084592
0
VERTEX
8
0
62
2
6
CONTINUOUS
10
12.2137004118
20
25.6383416888
0
VERTEX
8
0
62
2
6
CONTINUOUS
10
12.2062186552
20
25.6347120344
0
VERTEX
8
0
62
2
6
CONTINUOUS
10
12.2015571448
20
25.6326472789
0
VERTEX
8
0
62
2
6
CONTINUOUS
10
12.1936301294
20
25.6294563607
0
VERTEX
8
0
62
2
6
CONTINUOUS
10
12.1854778573
20
25.6265675082
0
VERTEX
8
0
62
2
6
CONTINUOUS
10
12.1768131845
20
25.6238881067
0
VERTEX
8
0
62
2
6
CONTINUOUS
10
12.1676487740
20
25.6214326860
0
VERTEX
8
0
62
2
6
CONTINUOUS
10
12.1579803803
20
25.6192164387
0
VERTEX
8
0
62
2
6
CONTINUOUS
10
12.1478079485
20
25.6172552969
0
VERTEX
8
0
62
2
6
CONTINUOUS
10
12.1371365477
20
25.6155656844
0
VERTEX
8
0
62
2
6
CONTINUOUS
10
12.1259774099
20
25.6141642105
0
VERTEX
8
0
62
2
6
CONTINUOUS
10
12.1143490690
20
25.6130672928
0
VERTEX
8
0
62
2
6
CONTINUOUS
10
12.1022785738
20
25.6122906962
0
VERTEX
8
0
62
2
6
CONTINUOUS
10
12.0898027342
20
25.6118489769
0
VERTEX
8
0
62
2
6
CONTINUOUS
10
12.0769693254
20
25.6117548236
0
VERTEX
8
0
62
2
6
CONTINUOUS
10
12.0638381433
20
25.6120182980
0
VERTEX
8
0
62
2
6
CONTINUOUS
10
12.0504817595
20
25.6126459869
0
VERTEX
8
0
62
2
6
CONTINUOUS
10
12.0369857869
20
25.6136401019
0
VERTEX
8
0
62
2
6
CONTINUOUS
10
12.0234484354
20
25.6149975833
0
VERTEX
8
0
62
2
6
CONTINUOUS
10
12.0099791403
20
25.6167092953
0
VERTEX
8
0
62
2
6
CONTINUOUS
10
11.9966960893
20
25.6187594241
0
VERTEX
8
0
62
2
6
CONTINUOUS
10
11.9939378933
20
25.6192316264
0
VERTEX
8
0
62
2
6
CONTINUOUS
10
11.9810820951
20
25.6216527785
0
VERTEX
8
0
62
2
6
CONTINUOUS
10
11.9687427706
20
25.6243373585
0
VERTEX
8
0
62
2
6
CONTINUOUS
10
11.9570277510
20
25.6272452601
0
SEQEND
0
LINE
8
0
62
2
6
CONTINUOUS
10
14.6900805287
20
25.4270494268
11
14.7240305287
21
25.4098244268
0
LINE
8
0
62
2
6
CONTINUOUS
10
15.1188874732
20
25.6324133157
11
15.1097041399
21
25.6373494268
0
POLYLINE
8
0
62
2
6
CONTINUOUS
66
1
70
0
0
VERTEX
8
0
62
2
6
CONTINUOUS
10
14.6900805287
20
25.3394577601
0
VERTEX
8
0
62
2
6
CONTINUOUS
10
14.6879229640
20
25.3396024610
0
VERTEX
8
0
62
2
6
CONTINUOUS
10
14.6858182972
20
25.3398211901
0
VERTEX
8
0
62
2
6
CONTINUOUS
10
14.6837659251
20
25.3401123180
0
VERTEX
8
0
62
2
6
CONTINUOUS
10
14.6817652834
20
25.3404743156
0
VERTEX
8
0
62
2
6
CONTINUOUS
10
14.6798158549
20
25.3409057536
0
VERTEX
8
0
62
2
6
CONTINUOUS
10
14.6779171777
20
25.3414053010
0
VERTEX
8
0
62
2
6
CONTINUOUS
10
14.6760688542
20
25.3419717232
0
VERTEX
8
0
62
2
6
CONTINUOUS
10
14.6742705596
20
25.3426038770
0
VERTEX
8
0
62
2
6
CONTINUOUS
10
14.6725220522
20
25.3433007055
0
VERTEX
8
0
62
2
6
CONTINUOUS
10
14.6708231815
20
25.3440612305
0
VERTEX
8
0
62
2
6
CONTINUOUS
10
14.6691738986
20
25.3448845435
0
VERTEX
8
0
62
2
6
CONTINUOUS
10
14.6675742638
20
25.3457697939
0
VERTEX
8
0
62
2
6
CONTINUOUS
10
14.6660244558
20
25.3467161759
0
VERTEX
8
0
62
2
6
CONTINUOUS
10
14.6645247788
20
25.3477229131
0
VERTEX
8
0
62
2
6
CONTINUOUS
10
14.6630756691
20
25.3487892411
0
VERTEX
8
0
62
2
6
CONTINUOUS
10
14.6616777001
20
25.3499143872
0
VERTEX
8
0
62
2
6
CONTINUOUS
10
14.6603315857
20
25.3510975492
0
VERTEX
8
0
62
2
6
CONTINUOUS
10
14.6590381825
20
25.3523378718
0
VERTEX
8
0
62
2
6
CONTINUOUS
10
14.6577984885
20
25.3536344215
0
VERTEX
8
0
62
2
6
CONTINUOUS
10
14.6566136406
20
25.3549861598
0
VERTEX
8
0
62
2
6
CONTINUOUS
10
14.6554849085
20
25.3563919165
0
VERTEX
8
0
62
2
6
CONTINUOUS
10
14.6544136857
20
25.3578503617
0
VERTEX
8
0
62
2
6
CONTINUOUS
10
14.6534014778
20
25.3593599784
0
VERTEX
8
0
62
2
6
CONTINUOUS
10
14.6524498868
20
25.3609190360
0
VERTEX
8
0
62
2
6
CONTINUOUS
10
14.6515605920
20
25.3625255659
0
VERTEX
8
0
62
2
6
CONTINUOUS
10
14.6507353280
20
25.3641773394
0
VERTEX
8
0
62
2
6
CONTINUOUS
10
14.6499758591
20
25.3658718492
0
VERTEX
8
0
62
2
6
CONTINUOUS
10
14.6492839504
20
25.3676062960
0
VERTEX
8
0
62
2
6
CONTINUOUS
10
14.6486613374
20
25.3693775805
0
VERTEX
8
0
62
2
6
CONTINUOUS
10
14.6481096928
20
25.3711823016
0
VERTEX
8
0
62
2
6
CONTINUOUS
10
14.6476305928
20
25.3730167622
0
VERTEX
8
0
62
2
6
CONTINUOUS
10
14.6472254830
20
25.3748769835
0
VERTEX
8
0
62
2
6
CONTINUOUS
10
14.6468956463
20
25.3767587258
0
VERTEX
8
0
62
2
6
CONTINUOUS
10
14.6466421716
20
25.3786575189
0
VERTEX
8
0
62
2
6
CONTINUOUS
10
14.6464659272
20
25.3805686994
0
VERTEX
8
0
62
2
6
CONTINUOUS
10
14.6463675382
20
25.3824874544
0
VERTEX
8
0
62
2
6
CONTINUOUS
10
14.6463453080
20
25.3837921324
0
VERTEX
8
0
62
2
6
CONTINUOUS
10
14.6463782696
20
25.3857111211
0
VERTEX
8
0
62
2
6
CONTINUOUS
10
14.6464892093
20
25.3876228042
0
VERTEX
8
0
62
2
6
CONTINUOUS
10
14.6466775677
20
25.3895223530
0
VERTEX
8
0
62
2
6
CONTINUOUS
10
14.6469425365
20
25.3914050832
0
VERTEX
8
0
62
2
6
CONTINUOUS
10
14.6472830787
20
25.3932664998
0
VERTEX
8
0
62
2
6
CONTINUOUS
10
14.6476979553
20
25.3951023365
0
VERTEX
8
0
62
2
6
CONTINUOUS
10
14.6481857546
20
25.3969085874
0
VERTEX
8
0
62
2
6
CONTINUOUS
10
14.6487449249
20
25.3986815304
0
VERTEX
8
0
62
2
6
CONTINUOUS
10
14.6493738087
20
25.4004177423
0
VERTEX
8
0
62
2
6
CONTINUOUS
10
14.6500706769
20
25.4021141068
0
VERTEX
8
0
62
2
6
CONTINUOUS
10
14.6508337631
20
25.4037678131
0
VERTEX
8
0
62
2
6
CONTINUOUS
10
14.6516612951
20
25.4053763496
0
VERTEX
8
0
62
2
6
CONTINUOUS
10
14.6525515254
20
25.4069374904
0
VERTEX
8
0
62
2
6
CONTINUOUS
10
14.6535027582
20
25.4084492766
0
VERTEX
8
0
62
2
6
CONTINUOUS
10
14.6545133728
20
25.4099099948
0
VERTEX
8
0
62
2
6
CONTINUOUS
10
14.6555818448
20
25.4113181517
0
VERTEX
8
0
62
2
6
CONTINUOUS
10
14.6567067624
20
25.4126724463
0
VERTEX
8
0
62
2
6
CONTINUOUS
10
14.6578868399
20
25.4139717424
0
VERTEX
8
0
62
2
6
CONTINUOUS
10
14.6591209278
20
25.4152150391
0
VERTEX
8
0
62
2
6
CONTINUOUS
10
14.6604080193
20
25.4164014424
0
VERTEX
8
0
62
2
6
CONTINUOUS
10
14.6617472547
20
25.4175301376
0
VERTEX
8
0
62
2
6
CONTINUOUS
10
14.6631379215
20
25.4186003629
0
VERTEX
8
0
62
2
6
CONTINUOUS
10
14.6645794541
20
25.4196113846
0
VERTEX
8
0
62
2
6
CONTINUOUS
10
14.6660714297
20
25.4205624740
0
VERTEX
8
0
62
2
6
CONTINUOUS
10
14.6676135634
20
25.4214528868
0
VERTEX
8
0
62
2
6
CONTINUOUS
10
14.6692057017
20
25.4222818445
0
VERTEX
8
0
62
2
6
CONTINUOUS
10
14.6708478142
20
25.4230485184
0
VERTEX
8
0
62
2
6
CONTINUOUS
10
14.6725399854
20
25.4237520148
0
VERTEX
8
0
62
2
6
CONTINUOUS
10
14.6742824052
20
25.4243913642
0
VERTEX
8
0
62
2
6
CONTINUOUS
10
14.6760753590
20
25.4249655110
0
VERTEX
8
0
62
2
6
CONTINUOUS
10
14.6779192180
20
25.4254733057
0
VERTEX
8
0
62
2
6
CONTINUOUS
10
14.6798144292
20
25.4259135000
0
VERTEX
8
0
62
2
6
CONTINUOUS
10
14.6817615056
20
25.4262847418
0
VERTEX
8
0
62
2
6
CONTINUOUS
10
14.6837610173
20
25.4265855733
0
VERTEX
8
0
62
2
6
CONTINUOUS
10
14.6858135819
20
25.4268144299
0
VERTEX
8
0
62
2
6
CONTINUOUS
10
14.6879198562
20
25.4269696401
0
VERTEX
8
0
62
2
6
CONTINUOUS
10
14.6900805287
20
25.4270494268
0
SEQEND
0
LINE
8
0
62
2
6
CONTINUOUS
10
12.3207708065
20
25.9659633157
11
12.3483180287
21
25.9623216490
0
LINE
8
0
62
2
6
CONTINUOUS
10
12.9004555287
20
25.9248591490
11
12.8265485843
21
25.9212244268
0
POLYLINE
8
0
62
2
6
CONTINUOUS
66
1
70
0
0
VERTEX
8
0
62
2
6
CONTINUOUS
10
14.9777318547
20
25.3875688895
0
VERTEX
8
0
62
2
6
CONTINUOUS
10
14.9802548926
20
25.3876353233
0
VERTEX
8
0
62
2
6
CONTINUOUS
10
14.9823798771
20
25.3877975129
0
VERTEX
8
0
62
2
6
CONTINUOUS
10
14.9842422029
20
25.3880528022
0
VERTEX
8
0
62
2
6
CONTINUOUS
10
14.9859171604
20
25.3884008699
0
VERTEX
8
0
62
2
6
CONTINUOUS
10
14.9874527953
20
25.3888435405
0
VERTEX
8
0
62
2
6
CONTINUOUS
10
14.9888826570
20
25.3893848811
0
VERTEX
8
0
62
2
6
CONTINUOUS
10
14.9902316633
20
25.3900313904
0
VERTEX
8
0
62
2
6
CONTINUOUS
10
14.9915191200
20
25.3907922079
0
VERTEX
8
0
62
2
6
CONTINUOUS
10
14.9927604122
20
25.3916793200
0
VERTEX
8
0
62
2
6
CONTINUOUS
10
14.9933680868
20
25.3921751029
0
VERTEX
8
0
62
2
6
CONTINUOUS
10
14.9939680287
20
25.3927077601
0
VERTEX
8
0
62
2
6
CONTINUOUS
10
14.9950626859
20
25.3937980906
0
VERTEX
8
0
62
2
6
CONTINUOUS
10
14.9961032402
20
25.3950110565
0
VERTEX
8
0
62
2
6
CONTINUOUS
10
14.9970186172
20
25.3962774107
0
VERTEX
8
0
62
2
6
CONTINUOUS
10
14.9978121316
20
25.3975982022
0
VERTEX
8
0
62
2
6
CONTINUOUS
10
14.9984859450
20
25.3989752723
0
VERTEX
8
0
62
2
6
CONTINUOUS
10
14.9990405622
20
25.4004099706
0
VERTEX
8
0
62
2
6
CONTINUOUS
10
14.9994751439
20
25.4019023678
0
VERTEX
8
0
62
2
6
CONTINUOUS
10
14.9997889301
20
25.4034556390
0
VERTEX
8
0
62
2
6
CONTINUOUS
10
14.9999798222
20
25.4050733176
0
VERTEX
8
0
62
2
6
CONTINUOUS
10
15.0000444176
20
25.4067591490
0
VERTEX
8
0
62
2
6
CONTINUOUS
10
14.9999791293
20
25.4084277434
0
VERTEX
8
0
62
2
6
CONTINUOUS
10
14.9997844144
20
25.4100698849
0
VERTEX
8
0
62
2
6
CONTINUOUS
10
14.9994624701
20
25.4116766216
0
VERTEX
8
0
62
2
6
CONTINUOUS
10
14.9990162900
20
25.4132382430
0
VERTEX
8
0
62
2
6
CONTINUOUS
10
14.9984498470
20
25.4147444558
0
VERTEX
8
0
62
2
6
CONTINUOUS
10
14.9977682218
20
25.4161846426
0
VERTEX
8
0
62
2
6
CONTINUOUS
10
14.9969949623
20
25.4175209819
0
VERTEX
8
0
62
2
6
CONTINUOUS
10
14.9961074963
20
25.4187959764
0
VERTEX
8
0
62
2
6
CONTINUOUS
10
14.9951292930
20
25.4199728530
0
VERTEX
8
0
62
2
6
CONTINUOUS
10
14.9940695375
20
25.4210441084
0
VERTEX
8
0
62
2
6
CONTINUOUS
10
14.9929374732
20
25.4220035934
0
VERTEX
8
0
62
2
6
CONTINUOUS
10
14.9918353529
20
25.4227755060
0
VERTEX
8
0
62
2
6
CONTINUOUS
10
14.9906385539
20
25.4234566626
0
VERTEX
8
0
62
2
6
CONTINUOUS
10
14.9893370197
20
25.4240496264
0
VERTEX
8
0
62
2
6
CONTINUOUS
10
14.9879178686
20
25.4245554364
0
VERTEX
8
0
62
2
6
CONTINUOUS
10
14.9863643498
20
25.4249738590
0
VERTEX
8
0
62
2
6
CONTINUOUS
10
14.9846535214
20
25.4253037770
0
VERTEX
8
0
62
2
6
CONTINUOUS
10
14.9827507064
20
25.4255438120
0
VERTEX
8
0
62
2
6
CONTINUOUS
10
14.9805941020
20
25.4256935079
0
VERTEX
8
0
62
2
6
CONTINUOUS
10
14.9780376430
20
25.4257566929
0
VERTEX
8
0
62
2
6
CONTINUOUS
10
14.9762402510
20
25.4257619268
0
VERTEX
8
0
62
2
6
CONTINUOUS
10
14.9668138621
20
25.4257619268
0
SEQEND
0
POLYLINE
8
0
62
2
6
CONTINUOUS
66
1
70
0
0
VERTEX
8
0
62
2
6
CONTINUOUS
10
14.8923652510
20
25.9331730379
0
VERTEX
8
0
62
2
6
CONTINUOUS
10
14.8825000585
20
25.9330369359
0
VERTEX
8
0
62
2
6
CONTINUOUS
10
14.8717802294
20
25.9325732992
0
VERTEX
8
0
62
2
6
CONTINUOUS
10
14.8612805901
20
25.9317878174
0
VERTEX
8
0
62
2
6
CONTINUOUS
10
14.8510197118
20
25.9306886832
0
VERTEX
8
0
62
2
6
CONTINUOUS
10
14.8410151987
20
25.9292849970
0
VERTEX
8
0
62
2
6
CONTINUOUS
10
14.8312835082
20
25.9275866929
0
VERTEX
8
0
62
2
6
CONTINUOUS
10
14.8218397900
20
25.9256044443
0
VERTEX
8
0
62
2
6
CONTINUOUS
10
14.8126977481
20
25.9233495530
0
VERTEX
8
0
62
2
6
CONTINUOUS
10
14.8038695313
20
25.9208338234
0
VERTEX
8
0
62
2
6
CONTINUOUS
10
14.7953656540
20
25.9180694249
0
VERTEX
8
0
62
2
6
CONTINUOUS
10
14.7871949513
20
25.9150687465
0
VERTEX
8
0
62
2
6
CONTINUOUS
10
14.7793645682
20
25.9118442466
0
VERTEX
8
0
62
2
6
CONTINUOUS
10
14.7718799834
20
25.9084083025
0
VERTEX
8
0
62
2
6
CONTINUOUS
10
14.7647450657
20
25.9047730623
0
VERTEX
8
0
62
2
6
CONTINUOUS
10
14.7579621614
20
25.9009503037
0
VERTEX
8
0
62
2
6
CONTINUOUS
10
14.7515322101
20
25.8969513011
0
VERTEX
8
0
62
2
6
CONTINUOUS
10
14.7454548830
20
25.8927867055
0
VERTEX
8
0
62
2
6
CONTINUOUS
10
14.7397287433
20
25.8884664369
0
VERTEX
8
0
62
2
6
CONTINUOUS
10
14.7343514209
20
25.8839995933
0
VERTEX
8
0
62
2
6
CONTINUOUS
10
14.7293197995
20
25.8793943755
0
VERTEX
8
0
62
2
6
CONTINUOUS
10
14.7246302110
20
25.8746580301
0
VERTEX
8
0
62
2
6
CONTINUOUS
10
14.7202786335
20
25.8697968096
0
VERTEX
8
0
62
2
6
CONTINUOUS
10
14.7162608883
20
25.8648159514
0
VERTEX
8
0
62
2
6
CONTINUOUS
10
14.7125728337
20
25.8597196743
0
VERTEX
8
0
62
2
6
CONTINUOUS
10
14.7092105500
20
25.8545111921
0
VERTEX
8
0
62
2
6
CONTINUOUS
10
14.7061705159
20
25.8491927448
0
VERTEX
8
0
62
2
6
CONTINUOUS
10
14.7034497694
20
25.8437656441
0
VERTEX
8
0
62
2
6
CONTINUOUS
10
14.7010460544
20
25.8382303341
0
VERTEX
8
0
62
2
6
CONTINUOUS
10
14.6989579488
20
25.8325864636
0
VERTEX
8
0
62
2
6
CONTINUOUS
10
14.6971849728
20
25.8268329690
0
VERTEX
8
0
62
2
6
CONTINUOUS
10
14.6957276774
20
25.8209681648
0
VERTEX
8
0
62
2
6
CONTINUOUS
10
14.6945877104
20
25.8149898399
0
VERTEX
8
0
62
2
6
CONTINUOUS
10
14.6937678624
20
25.8088953568
0
VERTEX
8
0
62
2
6
CONTINUOUS
10
14.6932720915
20
25.8026817504
0
VERTEX
8
0
62
2
6
CONTINUOUS
10
14.6931472918
20
25.7995292483
0
VERTEX
8
0
62
2
6
CONTINUOUS
10
14.6931055287
20
25.7963466490
0
VERTEX
8
0
62
2
6
CONTINUOUS
10
14.6932720643
20
25.7902164597
0
VERTEX
8
0
62
2
6
CONTINUOUS
10
14.6937700257
20
25.7841401389
0
VERTEX
8
0
62
2
6
CONTINUOUS
10
14.6945977039
20
25.7781172967
0
VERTEX
8
0
62
2
6
CONTINUOUS
10
14.6957543599
20
25.7721479719
0
VERTEX
8
0
62
2
6
CONTINUOUS
10
14.6972401541
20
25.7662327364
0
VERTEX
8
0
62
2
6
CONTINUOUS
10
14.6990560546
20
25.7603727975
0
VERTEX
8
0
62
2
6
CONTINUOUS
10
14.7012037235
20
25.7545700936
0
VERTEX
8
0
62
2
6
CONTINUOUS
10
14.7036853830
20
25.7488273823
0
VERTEX
8
0
62
2
6
CONTINUOUS
10
14.7065036626
20
25.7431483175
0
VERTEX
8
0
62
2
6
CONTINUOUS
10
14.7096614292
20
25.7375375128
0
VERTEX
8
0
62
2
6
CONTINUOUS
10
14.7131616033
20
25.7320005901
0
VERTEX
8
0
62
2
6
CONTINUOUS
10
14.7170069639
20
25.7265442093
0
VERTEX
8
0
62
2
6
CONTINUOUS
10
14.7211999468
20
25.7211760801
0
VERTEX
8
0
62
2
6
CONTINUOUS
10
14.7257424398
20
25.7159049519
0
VERTEX
8
0
62
2
6
CONTINUOUS
10
14.7306355799
20
25.7107405820
0
VERTEX
8
0
62
2
6
CONTINUOUS
10
14.7358795580
20
25.7056936817
0
VERTEX
8
0
62
2
6
CONTINUOUS
10
14.7414734354
20
25.7007758392
0
VERTEX
8
0
62
2
6
CONTINUOUS
10
14.7474149801
20
25.6959994210
0
VERTEX
8
0
62
2
6
CONTINUOUS
10
14.7537005251
20
25.6913774526
0
VERTEX
8
0
62
2
6
CONTINUOUS
10
14.7603248567
20
25.6869234808
0
VERTEX
8
0
62
2
6
CONTINUOUS
10
14.7672811362
20
25.6826514200
0
VERTEX
8
0
62
2
6
CONTINUOUS
10
14.7745608583
20
25.6785753875
0
VERTEX
8
0
62
2
6
CONTINUOUS
10
14.7821538491
20
25.6747095309
0
VERTEX
8
0
62
2
6
CONTINUOUS
10
14.7900483042
20
25.6710678532
0
VERTEX
8
0
62
2
6
CONTINUOUS
10
14.7982308664
20
25.6676640410
0
VERTEX
8
0
62
2
6
CONTINUOUS
10
14.8066867408
20
25.6645113005
0
VERTEX
8
0
62
2
6
CONTINUOUS
10
14.8153998422
20
25.6616222072
0
VERTEX
8
0
62
2
6
CONTINUOUS
10
14.8243529710
20
25.6590085729
0
VERTEX
8
0
62
2
6
CONTINUOUS
10
14.8335280095
20
25.6566813337
0
VERTEX
8
0
62
2
6
CONTINUOUS
10
14.8411944728
20
25.6549956738
0
VERTEX
8
0
62
2
6
CONTINUOUS
10
14.8507161701
20
25.6532156569
0
VERTEX
8
0
62
2
6
CONTINUOUS
10
14.8603978849
20
25.6517479426
0
VERTEX
8
0
62
2
6
CONTINUOUS
10
14.8702201489
20
25.6505987400
0
VERTEX
8
0
62
2
6
CONTINUOUS
10
14.8801637443
20
25.6497732290
0
VERTEX
8
0
62
2
6
CONTINUOUS
10
14.8902098643
20
25.6492756069
0
VERTEX
8
0
62
2
6
CONTINUOUS
10
14.9003402510
20
25.6491091490
0
VERTEX
8
0
62
2
6
CONTINUOUS
10
14.9125949776
20
25.6492492611
0
VERTEX
8
0
62
2
6
CONTINUOUS
10
14.9259263743
20
25.6497195763
0
VERTEX
8
0
62
2
6
CONTINUOUS
10
14.9391429164
20
25.6505156888
0
VERTEX
8
0
62
2
6
CONTINUOUS
10
14.9521649871
20
25.6516285734
0
VERTEX
8
0
62
2
6
CONTINUOUS
10
14.9649227242
20
25.6530463968
0
VERTEX
8
0
62
2
6
CONTINUOUS
10
14.9773564053
20
25.6547551858
0
VERTEX
8
0
62
2
6
CONTINUOUS
10
14.9894163513
20
25.6567394537
0
VERTEX
8
0
62
2
6
CONTINUOUS
10
15.0010624732
20
25.6589827601
0
SEQEND
0
LINE
8
0
62
2
6
CONTINUOUS
10
14.5041277510
20
25.3099841490
11
14.4354416399
21
25.3099841490
0
LINE
8
0
62
2
6
CONTINUOUS
10
14.4265180287
20
25.3099841490
11
14.3549430287
21
25.3099841490
0
LINE
8
0
62
2
6
CONTINUOUS
10
14.5460249732
20
25.3100660934
11
14.5130388621
21
25.3100660934
0
LINE
8
0
62
2
6
CONTINUOUS
10
14.9668138621
20
25.3330966490
11
14.9586902510
21
25.3330966490
0
LINE
8
0
62
2
6
CONTINUOUS
10
14.8327541399
20
25.3330966490
11
14.8407152510
21
25.3330966490
0
LINE
8
0
62
2
6
CONTINUOUS
10
14.9420069176
20
25.3330966490
11
14.9499013621
21
25.3330966490
0
LINE
8
0
62
2
6
CONTINUOUS
10
15.0820763621
20
25.3330966490
11
15.0901735843
21
25.3330966490
0
LINE
8
0
62
2
6
CONTINUOUS
10
15.2114166399
20
25.3330966490
11
15.2195402510
21
25.3330966490
0
LINE
8
0
62
2
6
CONTINUOUS
10
13.9087833065
20
25.3731897046
11
13.9445708065
21
25.3731897046
0
LINE
8
0
62
2
6
CONTINUOUS
10
15.0161583065
20
25.3731897046
11
15.0519513621
21
25.3731897046
0
LINE
8
0
62
2
6
CONTINUOUS
10
14.9769999732
20
25.3798494268
11
14.9668138621
21
25.3798494268
0
POLYLINE
8
0
62
2
6
CONTINUOUS
66
1
70
0
0
VERTEX
8
0
62
2
6
CONTINUOUS
10
14.5459708065
20
25.3810160934
0
VERTEX
8
0
62
2
6
CONTINUOUS
10
14.5555194176
20
25.3810160934
0
VERTEX
8
0
62
2
6
CONTINUOUS
10
14.5567547940
20
25.3810800734
0
VERTEX
8
0
62
2
6
CONTINUOUS
10
14.5579704815
20
25.3812710547
0
VERTEX
8
0
62
2
6
CONTINUOUS
10
14.5591582129
20
25.3815873267
0
VERTEX
8
0
62
2
6
CONTINUOUS
10
14.5603083380
20
25.3820264472
0
VERTEX
8
0
62
2
6
CONTINUOUS
10
14.5614099378
20
25.3825847834
0
VERTEX
8
0
62
2
6
CONTINUOUS
10
14.5624511314
20
25.3832571192
0
VERTEX
8
0
62
2
6
CONTINUOUS
10
14.5634195692
20
25.3840364141
0
VERTEX
8
0
62
2
6
CONTINUOUS
10
14.5634662133
20
25.3840783539
0
VERTEX
8
0
62
2
6
CONTINUOUS
10
14.5643441844
20
25.3849593629
0
VERTEX
8
0
62
2
6
CONTINUOUS
10
14.5651230633
20
25.3859238067
0
VERTEX
8
0
62
2
6
CONTINUOUS
10
14.5657943564
20
25.3869597644
0
VERTEX
8
0
62
2
6
CONTINUOUS
10
14.5663514499
20
25.3880554251
0
VERTEX
8
0
62
2
6
CONTINUOUS
10
14.5667894885
20
25.3891996581
0
VERTEX
8
0
62
2
6
CONTINUOUS
10
14.5671050571
20
25.3903824228
0
VERTEX
8
0
62
2
6
CONTINUOUS
10
14.5672957481
20
25.3915949898
0
VERTEX
8
0
62
2
6
CONTINUOUS
10
14.5673596954
20
25.3928299823
0
VERTEX
8
0
62
2
6
CONTINUOUS
10
14.5672957481
20
25.3940732910
0
VERTEX
8
0
62
2
6
CONTINUOUS
10
14.5671049276
20
25.3952960064
0
VERTEX
8
0
62
2
6
CONTINUOUS
10
14.5667889812
20
25.3964902841
0
VERTEX
8
0
62
2
6
CONTINUOUS
10
14.5663503127
20
25.3976468704
0
VERTEX
8
0
62
2
6
CONTINUOUS
10
14.5657924577
20
25.3987551755
0
VERTEX
8
0
62
2
6
CONTINUOUS
10
14.5651205104
20
25.3998035363
0
VERTEX
8
0
62
2
6
CONTINUOUS
10
14.5643414175
20
25.4007796764
0
VERTEX
8
0
62
2
6
CONTINUOUS
10
14.5642643361
20
25.4008657729
0
VERTEX
8
0
62
2
6
CONTINUOUS
10
14.5633786088
20
25.4017488354
0
VERTEX
8
0
62
2
6
CONTINUOUS
10
14.5624099271
20
25.4025322440
0
VERTEX
8
0
62
2
6
CONTINUOUS
10
14.5613706932
20
25.4032072826
0
VERTEX
8
0
62
2
6
CONTINUOUS
10
14.5602733009
20
25.4037671866
0
VERTEX
8
0
62
2
6
CONTINUOUS
10
14.5591295104
20
25.4042070657
0
VERTEX
8
0
62
2
6
CONTINUOUS
10
14.5579499801
20
25.4045236044
0
VERTEX
8
0
62
2
6
CONTINUOUS
10
14.5567439998
20
25.4047146241
0
VERTEX
8
0
62
2
6
CONTINUOUS
10
14.5555194176
20
25.4047785934
0
VERTEX
8
0
62
2
6
CONTINUOUS
10
14.5459708065
20
25.4047785934
0
SEQEND
0
LINE
8
0
62
2
6
CONTINUOUS
10
14.9668138621
20
25.3875674823
11
14.9777318547
21
25.3875688895
0
LINE
8
0
62
2
6
CONTINUOUS
10
14.4354416399
20
25.4333563712
11
14.5038694176
21
25.4333563712
0
POLYLINE
8
0
62
2
6
CONTINUOUS
66
1
70
0
0
VERTEX
8
0
62
2
6
CONTINUOUS
10
14.5130388621
20
25.4333563712
0
VERTEX
8
0
62
2
6
CONTINUOUS
10
14.5553152510
20
25.4333563712
0
VERTEX
8
0
62
2
6
CONTINUOUS
10
14.5572927181
20
25.4333120597
0
VERTEX
8
0
62
2
6
CONTINUOUS
10
14.5592547726
20
25.4331795369
0
VERTEX
8
0
62
2
6
CONTINUOUS
10
14.5611995317
20
25.4329594172
0
VERTEX
8
0
62
2
6
CONTINUOUS
10
14.5631249232
20
25.4326523308
0
VERTEX
8
0
62
2
6
CONTINUOUS
10
14.5650286740
20
25.4322589520
0
VERTEX
8
0
62
2
6
CONTINUOUS
10
14.5669083026
20
25.4317800294
0
VERTEX
8
0
62
2
6
CONTINUOUS
10
14.5687611142
20
25.4312164180
0
VERTEX
8
0
62
2
6
CONTINUOUS
10
14.5705842017
20
25.4305691127
0
VERTEX
8
0
62
2
6
CONTINUOUS
10
14.5723744508
20
25.4298392818
0
VERTEX
8
0
62
2
6
CONTINUOUS
10
14.5741285520
20
25.4290282999
0
VERTEX
8
0
62
2
6
CONTINUOUS
10
14.5758430186
20
25.4281377784
0
VERTEX
8
0
62
2
6
CONTINUOUS
10
14.5775142110
20
25.4271695931
0
VERTEX
8
0
62
2
6
CONTINUOUS
10
14.5791383682
20
25.4261259064
0
VERTEX
8
0
62
2
6
CONTINUOUS
10
14.5807116450
20
25.4250091841
0
VERTEX
8
0
62
2
6
CONTINUOUS
10
14.5822301557
20
25.4238222039
0
VERTEX
8
0
62
2
6
CONTINUOUS
10
14.5836900210
20
25.4225680558
0
VERTEX
8
0
62
2
6
CONTINUOUS
10
14.5850874193
20
25.4212501329
0
VERTEX
8
0
62
2
6
CONTINUOUS
10
14.5864186380
20
25.4198721124
0
VERTEX
8
0
62
2
6
CONTINUOUS
10
14.5875824340
20
25.4185539437
0
VERTEX
8
0
62
2
6
CONTINUOUS
10
14.5887753491
20
25.4170735789
0
VERTEX
8
0
62
2
6
CONTINUOUS
10
14.5898916157
20
25.4155465893
0
VERTEX
8
0
62
2
6
CONTINUOUS
10
14.5909286393
20
25.4139774593
0
VERTEX
8
0
62
2
6
CONTINUOUS
10
14.5918841506
20
25.4123706965
0
VERTEX
8
0
62
2
6
CONTINUOUS
10
14.5927562132
20
25.4107307767
0
VERTEX
8
0
62
2
6
CONTINUOUS
10
14.5935432216
20
25.4090620909
0
VERTEX
8
0
62
2
6
CONTINUOUS
10
14.5942438897
20
25.4073688977
0
VERTEX
8
0
62
2
6
CONTINUOUS
10
14.5948572295
20
25.4056552811
0
VERTEX
8
0
62
2
6
CONTINUOUS
10
14.5953825235
20
25.4039251164
0
VERTEX
8
0
62
2
6
CONTINUOUS
10
14.5958192908
20
25.4021820436
0
VERTEX
8
0
62
2
6
CONTINUOUS
10
14.5961672487
20
25.4004294491
0
VERTEX
8
0
62
2
6
CONTINUOUS
10
14.5964262719
20
25.3986704556
0
VERTEX
8
0
62
2
6
CONTINUOUS
10
14.5965963512
20
25.3969079193
0
VERTEX
8
0
62
2
6
CONTINUOUS
10
14.5966775515
20
25.3951444344
0
VERTEX
8
0
62
2
6
CONTINUOUS
10
14.5966699726
20
25.3933823432
0
VERTEX
8
0
62
2
6
CONTINUOUS
10
14.5965737114
20
25.3916237515
0
VERTEX
8
0
62
2
6
CONTINUOUS
10
14.5963888288
20
25.3898705478
0
VERTEX
8
0
62
2
6
CONTINUOUS
10
14.5961153190
20
25.3881244255
0
VERTEX
8
0
62
2
6
CONTINUOUS
10
14.5957530841
20
25.3863869075
0
VERTEX
8
0
62
2
6
CONTINUOUS
10
14.5953019128
20
25.3846593718
0
VERTEX
8
0
62
2
6
CONTINUOUS
10
14.5947614631
20
25.3829430770
0
VERTEX
8
0
62
2
6
CONTINUOUS
10
14.5941312496
20
25.3812391882
0
VERTEX
8
0
62
2
6
CONTINUOUS
10
14.5934106343
20
25.3795488018
0
VERTEX
8
0
62
2
6
CONTINUOUS
10
14.5925988220
20
25.3778729689
0
VERTEX
8
0
62
2
6
CONTINUOUS
10
14.5916948577
20
25.3762127170
0
VERTEX
8
0
62
2
6
CONTINUOUS
10
14.5906976281
20
25.3745690694
0
VERTEX
8
0
62
2
6
CONTINUOUS
10
14.5896058641
20
25.3729430638
0
VERTEX
8
0
62
2
6
CONTINUOUS
10
14.5884181472
20
25.3713357668
0
VERTEX
8
0
62
2
6
CONTINUOUS
10
14.5871329156
20
25.3697482879
0
VERTEX
8
0
62
2
6
CONTINUOUS
10
14.5857484727
20
25.3681817900
0
VERTEX
8
0
62
2
6
CONTINUOUS
10
14.5842629964
20
25.3666374990
0
VERTEX
8
0
62
2
6
CONTINUOUS
10
14.5826745479
20
25.3651167104
0
VERTEX
8
0
62
2
6
CONTINUOUS
10
14.5809814194
20
25.3636210811
0
VERTEX
8
0
62
2
6
CONTINUOUS
10
14.5791817735
20
25.3621522344
0
VERTEX
8
0
62
2
6
CONTINUOUS
10
14.5772734340
20
25.3607116312
0
VERTEX
8
0
62
2
6
CONTINUOUS
10
14.5752541399
20
25.3593008157
0
SEQEND
0
LINE
8
0
62
2
6
CONTINUOUS
10
15.2530416399
20
25.4334924823
11
15.2445249732
21
25.4334924823
0
LINE
8
0
62
2
6
CONTINUOUS
10
15.1872055287
20
25.4334924823
11
15.1779277510
21
25.4334924823
0
LINE
8
0
62
2
6
CONTINUOUS
10
15.1729235843
20
25.4334924823
11
15.1648263621
21
25.4334924823
0
LINE
8
0
62
2
6
CONTINUOUS
10
14.9586902510
20
25.4334924823
11
14.9769999732
21
25.4334924823
0
LINE
8
0
62
2
6
CONTINUOUS
10
15.2565277510
20
25.4614466490
11
11.7753263621
21
25.4614466490
0
POLYLINE
8
0
62
2
6
CONTINUOUS
66
1
70
0
0
VERTEX
8
0
62
2
6
CONTINUOUS
10
11.7774499732
20
25.4840022046
0
VERTEX
8
0
62
2
6
CONTINUOUS
10
15.2519166399
20
25.4840022046
0
VERTEX
8
0
62
2
6
CONTINUOUS
10
15.2519166399
20
26.0982133157
0
SEQEND
0
POLYLINE
8
0
62
2
6
CONTINUOUS
66
1
70
0
0
VERTEX
8
0
62
2
6
CONTINUOUS
10
11.7915958065
20
25.5032494268
0
VERTEX
8
0
62
2
6
CONTINUOUS
10
15.2362916399
20
25.5032494268
0
VERTEX
8
0
62
2
6
CONTINUOUS
10
15.2362916399
20
26.0811910934
0
SEQEND
0
POLYLINE
8
0
62
2
6
CONTINUOUS
66
1
70
0
0
VERTEX
8
0
62
2
6
CONTINUOUS
10
15.1996166399
20
25.5363022046
0
VERTEX
8
0
62
2
6
CONTINUOUS
10
11.8297763621
20
25.5363022046
0
VERTEX
8
0
62
2
6
CONTINUOUS
10
11.8297763621
20
26.0459049823
0
SEQEND
0
POLYLINE
8
0
62
2
6
CONTINUOUS
66
1
70
0
0
VERTEX
8
0
62
2
6
CONTINUOUS
10
15.1928888621
20
25.5430160934
0
VERTEX
8
0
62
2
6
CONTINUOUS
10
11.8364902510
20
25.5430160934
0
VERTEX
8
0
62
2
6
CONTINUOUS
10
11.8364902510
20
26.0391910934
0
SEQEND
0
LINE
8
0
62
2
6
CONTINUOUS
10
14.2329749732
20
25.6199619268
11
14.1047263621
21
25.6199619268
0
LINE
8
0
62
2
6
CONTINUOUS
10
14.0279305287
20
25.6199619268
11
13.8902430287
21
25.6199619268
0
LINE
8
0
62
2
6
CONTINUOUS
10
13.8228805287
20
25.6199619268
11
13.5250555287
21
25.6199619268
0
LINE
8
0
62
2
6
CONTINUOUS
10
13.5091249732
20
25.6199619268
11
13.4424541399
21
25.6199619268
0
LINE
8
0
62
2
6
CONTINUOUS
10
13.2185499732
20
25.6199619268
11
13.0801499732
21
25.6199619268
0
LINE
8
0
62
2
6
CONTINUOUS
10
13.0221874732
20
25.6199619268
11
12.7200291399
21
25.6199619268
0
LINE
8
0
62
2
6
CONTINUOUS
10
12.5569971954
20
25.6199619268
11
12.4135305287
21
25.6199619268
0
LINE
8
0
62
2
6
CONTINUOUS
10
15.1097041399
20
25.6252508157
11
15.1052291399
21
25.6252508157
0
LINE
8
0
62
2
6
CONTINUOUS
10
15.1254791399
20
25.6252508157
11
15.1207860843
21
25.6252508157
0
POLYLINE
8
0
62
2
6
CONTINUOUS
66
1
70
0
0
VERTEX
8
0
62
2
6
CONTINUOUS
10
15.1097041399
20
25.6408147046
0
VERTEX
8
0
62
2
6
CONTINUOUS
10
15.1129458065
20
25.6408147046
0
VERTEX
8
0
62
2
6
CONTINUOUS
10
15.1132451852
20
25.6408176721
0
VERTEX
8
0
62
2
6
CONTINUOUS
10
15.1136412208
20
25.6408310348
0
VERTEX
8
0
62
2
6
CONTINUOUS
10
15.1140244922
20
25.6408548118
0
VERTEX
8
0
62
2
6
CONTINUOUS
10
15.1143945292
20
25.6408886126
0
VERTEX
8
0
62
2
6
CONTINUOUS
10
15.1147509907
20
25.6409320298
0
VERTEX
8
0
62
2
6
CONTINUOUS
10
15.1150936531
20
25.6409846479
0
VERTEX
8
0
62
2
6
CONTINUOUS
10
15.1154223976
20
25.6410460497
0
VERTEX
8
0
62
2
6
CONTINUOUS
10
15.1157371980
20
25.6411158232
0
VERTEX
8
0
62
2
6
CONTINUOUS
10
15.1160381088
20
25.6411935673
0
VERTEX
8
0
62
2
6
CONTINUOUS
10
15.1163252534
20
25.6412788966
0
VERTEX
8
0
62
2
6
CONTINUOUS
10
15.1165988136
20
25.6413714457
0
VERTEX
8
0
62
2
6
CONTINUOUS
10
15.1168590187
20
25.6414708734
0
VERTEX
8
0
62
2
6
CONTINUOUS
10
15.1171061360
20
25.6415768657
0
VERTEX
8
0
62
2
6
CONTINUOUS
10
15.1173404618
20
25.6416891385
0
VERTEX
8
0
62
2
6
CONTINUOUS
10
15.1175623131
20
25.6418074405
0
VERTEX
8
0
62
2
6
CONTINUOUS
10
15.1177720190
20
25.6419315548
0
VERTEX
8
0
62
2
6
CONTINUOUS
10
15.1179699143
20
25.6420613008
0
VERTEX
8
0
62
2
6
CONTINUOUS
10
15.1181563317
20
25.6421965355
0
VERTEX
8
0
62
2
6
CONTINUOUS
10
15.1183315960
20
25.6423371540
0
VERTEX
8
0
62
2
6
CONTINUOUS
10
15.1184960175
20
25.6424830907
0
VERTEX
8
0
62
2
6
CONTINUOUS
10
15.1186498871
20
25.6426343190
0
VERTEX
8
0
62
2
6
CONTINUOUS
10
15.1187934705
20
25.6427908509
0
VERTEX
8
0
62
2
6
CONTINUOUS
10
15.1189270039
20
25.6429527370
0
VERTEX
8
0
62
2
6
CONTINUOUS
10
15.1190506894
20
25.6431200648
0
VERTEX
8
0
62
2
6
CONTINUOUS
10
15.1191646914
20
25.6432929577
0
VERTEX
8
0
62
2
6
CONTINUOUS
10
15.1192691333
20
25.6434715728
0
VERTEX
8
0
62
2
6
CONTINUOUS
10
15.1193640950
20
25.6436560994
0
VERTEX
8
0
62
2
6
CONTINUOUS
10
15.1194496105
20
25.6438467561
0
VERTEX
8
0
62
2
6
CONTINUOUS
10
15.1195256663
20
25.6440437887
0
VERTEX
8
0
62
2
6
CONTINUOUS
10
15.1195922007
20
25.6442474671
0
VERTEX
8
0
62
2
6
CONTINUOUS
10
15.1196491034
20
25.6444580831
0
VERTEX
8
0
62
2
6
CONTINUOUS
10
15.1196961793
20
25.6446757576
0
VERTEX
8
0
62
2
6
CONTINUOUS
10
15.1197332406
20
25.6449007509
0
VERTEX
8
0
62
2
6
CONTINUOUS
10
15.1197600687
20
25.6451333962
0
VERTEX
8
0
62
2
6
CONTINUOUS
10
15.1197763981
20
25.6453740396
0
VERTEX
8
0
62
2
6
CONTINUOUS
10
15.1197819176
20
25.6456230379
0
VERTEX
8
0
62
2
6
CONTINUOUS
10
15.1197775411
20
25.6458336410
0
VERTEX
8
0
62
2
6
CONTINUOUS
10
15.1197623088
20
25.6460665127
0
VERTEX
8
0
62
2
6
CONTINUOUS
10
15.1197363329
20
25.6462953369
0
VERTEX
8
0
62
2
6
CONTINUOUS
10
15.1196997977
20
25.6465197621
0
VERTEX
8
0
62
2
6
CONTINUOUS
10
15.1196528863
20
25.6467395018
0
VERTEX
8
0
62
2
6
CONTINUOUS
10
15.1195957724
20
25.6469543265
0
VERTEX
8
0
62
2
6
CONTINUOUS
10
15.1195286145
20
25.6471640559
0
VERTEX
8
0
62
2
6
CONTINUOUS
10
15.1194515499
20
25.6473685507
0
VERTEX
8
0
62
2
6
CONTINUOUS
10
15.1193646914
20
25.6475677046
0
VERTEX
8
0
62
2
6
CONTINUOUS
10
15.1192681230
20
25.6477614369
0
VERTEX
8
0
62
2
6
CONTINUOUS
10
15.1191618983
20
25.6479496857
0
VERTEX
8
0
62
2
6
CONTINUOUS
10
15.1190460383
20
25.6481324009
0
VERTEX
8
0
62
2
6
CONTINUOUS
10
15.1189205310
20
25.6483095382
0
VERTEX
8
0
62
2
6
CONTINUOUS
10
15.1187853311
20
25.6484810541
0
VERTEX
8
0
62
2
6
CONTINUOUS
10
15.1186403602
20
25.6486469007
0
VERTEX
8
0
62
2
6
CONTINUOUS
10
15.1184855078
20
25.6488070219
0
VERTEX
8
0
62
2
6
CONTINUOUS
10
15.1183206326
20
25.6489613494
0
VERTEX
8
0
62
2
6
CONTINUOUS
10
15.1181455639
20
25.6491098000
0
VERTEX
8
0
62
2
6
CONTINUOUS
10
15.1179601034
20
25.6492522730
0
VERTEX
8
0
62
2
6
CONTINUOUS
10
15.1177640273
20
25.6493886488
0
VERTEX
8
0
62
2
6
CONTINUOUS
10
15.1175570883
20
25.6495187868
0
VERTEX
8
0
62
2
6
CONTINUOUS
10
15.1173390176
20
25.6496425248
0
VERTEX
8
0
62
2
6
CONTINUOUS
10
15.1171095269
20
25.6497596785
0
VERTEX
8
0
62
2
6
CONTINUOUS
10
15.1168683794
20
25.6498700113
0
VERTEX
8
0
62
2
6
CONTINUOUS
10
15.1166153375
20
25.6499732719
0
VERTEX
8
0
62
2
6
CONTINUOUS
10
15.1163500739
20
25.6500692266
0
VERTEX
8
0
62
2
6
CONTINUOUS
10
15.1160722478
20
25.6501576193
0
VERTEX
8
0
62
2
6
CONTINUOUS
10
15.1157815075
20
25.6502381723
0
VERTEX
8
0
62
2
6
CONTINUOUS
10
15.1154774912
20
25.6503105868
0
VERTEX
8
0
62
2
6
CONTINUOUS
10
15.1151598289
20
25.6503745441
0
VERTEX
8
0
62
2
6
CONTINUOUS
10
15.1148281434
20
25.6504297062
0
VERTEX
8
0
62
2
6
CONTINUOUS
10
15.1144820517
20
25.6504757169
0
VERTEX
8
0
62
2
6
CONTINUOUS
10
15.1141211657
20
25.6505122026
0
VERTEX
8
0
62
2
6
CONTINUOUS
10
15.1137450934
20
25.6505387738
0
VERTEX
8
0
62
2
6
CONTINUOUS
10
15.1133534396
20
25.6505550253
0
VERTEX
8
0
62
2
6
CONTINUOUS
10
15.1129458065
20
25.6505605379
0
VERTEX
8
0
62
2
6
CONTINUOUS
10
15.1124274755
20
25.6505551744
0
VERTEX
8
0
62
2
6
CONTINUOUS
10
15.1119335086
20
25.6505394586
0
VERTEX
8
0
62
2
6
CONTINUOUS
10
15.1114601891
20
25.6505138594
0
VERTEX
8
0
62
2
6
CONTINUOUS
10
15.1110026331
20
25.6504786610
0
VERTEX
8
0
62
2
6
CONTINUOUS
10
15.1105535988
20
25.6504338038
0
VERTEX
8
0
62
2
6
CONTINUOUS
10
15.1101002209
20
25.6503784539
0
VERTEX
8
0
62
2
6
CONTINUOUS
10
15.1097041399
20
25.6503230379
0
SEQEND
0
LINE
8
0
62
2
6
CONTINUOUS
10
13.0526235843
20
25.6881313712
11
13.0547930287
21
25.6881313712
0
LINE
8
0
62
2
6
CONTINUOUS
10
13.8583749732
20
25.6891480379
11
13.8605458065
21
25.6891480379
0
LINE
8
0
62
2
6
CONTINUOUS
10
12.9468360843
20
25.7724202601
11
12.9446583065
21
25.7724202601
0
LINE
8
0
62
2
6
CONTINUOUS
10
14.9677360843
20
25.7942508157
11
15.0785902510
21
25.7942508157
0
LINE
8
0
62
2
6
CONTINUOUS
10
12.8265485843
20
25.8244494268
11
12.9127708065
21
25.8244494268
0
LINE
8
0
62
2
6
CONTINUOUS
10
12.9446583065
20
25.8275619268
11
12.9468360843
21
25.8275619268
0
LINE
8
0
62
2
6
CONTINUOUS
10
15.0235221954
20
25.9019577601
11
15.0213527510
21
25.9019577601
0
LINE
8
0
62
2
6
CONTINUOUS
10
12.9881360843
20
25.9040327601
11
12.9859596954
21
25.9040327601
0
LINE
8
0
62
2
6
CONTINUOUS
10
12.6490249732
20
25.9040327601
11
12.6468471954
21
25.9040327601
0
LINE
8
0
62
2
6
CONTINUOUS
10
12.2954138621
20
25.9040327601
11
12.2932374732
21
25.9040327601
0
LINE
8
0
62
2
6
CONTINUOUS
10
12.4453971954
20
25.9248591490
11
12.3816360843
21
25.9248591490
0
LINE
8
0
62
2
6
CONTINUOUS
10
12.3483180287
20
25.9623216490
11
12.6367096954
21
25.9623216490
0
LINE
8
0
62
2
6
CONTINUOUS
10
12.7200291399
20
25.9623216490
11
12.9519083065
21
25.9623216490
0
POLYLINE
8
0
62
2
6
CONTINUOUS
66
1
70
0
0
VERTEX
8
0
62
2
6
CONTINUOUS
10
13.0801499732
20
25.9623216490
0
VERTEX
8
0
62
2
6
CONTINUOUS
10
13.2526013621
20
25.9623216490
0
VERTEX
8
0
62
2
6
CONTINUOUS
10
13.2578714025
20
25.9622854409
0
VERTEX
8
0
62
2
6
CONTINUOUS
10
13.2681286224
20
25.9619992740
0
VERTEX
8
0
62
2
6
CONTINUOUS
10
13.2779827689
20
25.9614376845
0
VERTEX
8
0
62
2
6
CONTINUOUS
10
13.2874317789
20
25.9606124541
0
VERTEX
8
0
62
2
6
CONTINUOUS
10
13.2964743688
20
25.9595356540
0
VERTEX
8
0
62
2
6
CONTINUOUS
10
13.3051100898
20
25.9582195938
0
VERTEX
8
0
62
2
6
CONTINUOUS
10
13.3133393757
20
25.9566767600
0
VERTEX
8
0
62
2
6
CONTINUOUS
10
13.3211635792
20
25.9549197451
0
VERTEX
8
0
62
2
6
CONTINUOUS
10
13.3285849960
20
25.9529611664
0
VERTEX
8
0
62
2
6
CONTINUOUS
10
13.3356068727
20
25.9508135769
0
VERTEX
8
0
62
2
6
CONTINUOUS
10
13.3422333979
20
25.9484893673
0
VERTEX
8
0
62
2
6
CONTINUOUS
10
13.3484696733
20
25.9460006630
0
VERTEX
8
0
62
2
6
CONTINUOUS
10
13.3543216647
20
25.9433592158
0
VERTEX
8
0
62
2
6
CONTINUOUS
10
13.3597961305
20
25.9405762935
0
VERTEX
8
0
62
2
6
CONTINUOUS
10
13.3649005277
20
25.9376625700
0
VERTEX
8
0
62
2
6
CONTINUOUS
10
13.3696428965
20
25.9346280188
0
VERTEX
8
0
62
2
6
CONTINUOUS
10
13.3740317217
20
25.9314818121
0
VERTEX
8
0
62
2
6
CONTINUOUS
10
13.3780757749
20
25.9282322307
0
VERTEX
8
0
62
2
6
CONTINUOUS
10
13.3817839383
20
25.9248865867
0
VERTEX
8
0
62
2
6
CONTINUOUS
10
13.3851650130
20
25.9214511628
0
VERTEX
8
0
62
2
6
CONTINUOUS
10
13.3882275170
20
25.9179311730
0
VERTEX
8
0
62
2
6
CONTINUOUS
10
13.3909794761
20
25.9143307464
0
VERTEX
8
0
62
2
6
CONTINUOUS
10
13.3934282145
20
25.9106529373
0
VERTEX
8
0
62
2
6
CONTINUOUS
10
13.3955801508
20
25.9068997645
0
VERTEX
8
0
62
2
6
CONTINUOUS
10
13.3974406077
20
25.9030722788
0
VERTEX
8
0
62
2
6
CONTINUOUS
10
13.3990136404
20
25.8991706599
0
VERTEX
8
0
62
2
6
CONTINUOUS
10
13.4003018935
20
25.8951943401
0
VERTEX
8
0
62
2
6
CONTINUOUS
10
13.4008397067
20
25.8931775530
0
VERTEX
8
0
62
2
6
CONTINUOUS
10
13.4013064899
20
25.8911421499
0
VERTEX
8
0
62
2
6
CONTINUOUS
10
13.4020262492
20
25.8870176022
0
VERTEX
8
0
62
2
6
CONTINUOUS
10
13.4024600931
20
25.8828197315
0
VERTEX
8
0
62
2
6
CONTINUOUS
10
13.4026055287
20
25.8785466490
0
VERTEX
8
0
62
2
6
CONTINUOUS
10
13.4024600647
20
25.8745057794
0
VERTEX
8
0
62
2
6
CONTINUOUS
10
13.4020242080
20
25.8704856018
0
VERTEX
8
0
62
2
6
CONTINUOUS
10
13.4012971274
20
25.8664814208
0
VERTEX
8
0
62
2
6
CONTINUOUS
10
13.4002759176
20
25.8624892327
0
VERTEX
8
0
62
2
6
CONTINUOUS
10
13.3989557794
20
25.8585059427
0
VERTEX
8
0
62
2
6
CONTINUOUS
10
13.3973302592
20
25.8545295742
0
VERTEX
8
0
62
2
6
CONTINUOUS
10
13.3953915459
20
25.8505594675
0
VERTEX
8
0
62
2
6
CONTINUOUS
10
13.3931308246
20
25.8465964627
0
VERTEX
8
0
62
2
6
CONTINUOUS
10
13.3905386842
20
25.8426430650
0
VERTEX
8
0
62
2
6
CONTINUOUS
10
13.3876055773
20
25.8387035893
0
VERTEX
8
0
62
2
6
CONTINUOUS
10
13.3843223308
20
25.8347842813
0
VERTEX
8
0
62
2
6
CONTINUOUS
10
13.3806807030
20
25.8308934112
0
VERTEX
8
0
62
2
6
CONTINUOUS
10
13.3766739830
20
25.8270413347
0
VERTEX
8
0
62
2
6
CONTINUOUS
10
13.3722976238
20
25.8232405131
0
VERTEX
8
0
62
2
6
CONTINUOUS
10
13.3675498942
20
25.8195054834
0
VERTEX
8
0
62
2
6
CONTINUOUS
10
13.3624325306
20
25.8158527680
0
VERTEX
8
0
62
2
6
CONTINUOUS
10
13.3569513592
20
25.8123007105
0
VERTEX
8
0
62
2
6
CONTINUOUS
10
13.3511168525
20
25.8088692290
0
VERTEX
8
0
62
2
6
CONTINUOUS
10
13.3449445771
20
25.8055794770
0
VERTEX
8
0
62
2
6
CONTINUOUS
10
13.3384554828
20
25.8024534120
0
VERTEX
8
0
62
2
6
CONTINUOUS
10
13.3316759883
20
25.7995132758
0
VERTEX
8
0
62
2
6
CONTINUOUS
10
13.3246378205
20
25.7967810046
0
VERTEX
8
0
62
2
6
CONTINUOUS
10
13.3173775855
20
25.7942775952
0
VERTEX
8
0
62
2
6
CONTINUOUS
10
13.3099360673
20
25.7920224647
0
VERTEX
8
0
62
2
6
CONTINUOUS
10
13.3027109336
20
25.7901189786
0
VERTEX
8
0
62
2
6
CONTINUOUS
10
13.2950642910
20
25.7884002776
0
VERTEX
8
0
62
2
6
CONTINUOUS
10
13.2873916399
20
25.7869744268
0
SEQEND
0
LINE
8
0
62
2
6
CONTINUOUS
10
13.5250555287
20
25.9623216490
11
13.6634555287
21
25.9623216490
0
LINE
8
0
62
2
6
CONTINUOUS
10
13.8902430287
20
25.9623216490
11
14.0279305287
21
25.9623216490
0
LINE
8
0
62
2
6
CONTINUOUS
10
14.1054527510
20
25.9623216490
11
14.2112402510
21
25.9623216490
0
LINE
8
0
62
2
6
CONTINUOUS
10
14.4597888621
20
25.9623216490
11
14.5873249732
21
25.9623216490
0
LINE
8
0
62
2
6
CONTINUOUS
10
12.9859596954
20
25.9649119268
11
12.9881360843
21
25.9649119268
0
LINE
8
0
62
2
6
CONTINUOUS
10
12.3186069176
20
25.9659633157
11
12.3207708065
21
25.9659633157
0
LINE
8
0
62
2
6
CONTINUOUS
10
12.6700346954
20
25.9659633157
11
12.6722041399
21
25.9659633157
0
LINE
8
0
62
2
6
CONTINUOUS
10
11.8364902510
20
26.0391910934
11
15.1928888621
21
26.0391910934
0
LINE
8
0
62
2
6
CONTINUOUS
10
11.8297763621
20
26.0459049823
11
15.1996166399
21
26.0459049823
0
POLYLINE
8
0
62
2
6
CONTINUOUS
66
1
70
0
0
VERTEX
8
0
62
2
6
CONTINUOUS
10
15.2362916399
20
26.0811910934
0
VERTEX
8
0
62
2
6
CONTINUOUS
10
11.7915958065
20
26.0811910934
0
VERTEX
8
0
62
2
6
CONTINUOUS
10
11.7915958065
20
25.5032494268
0
SEQEND
0
POLYLINE
8
0
62
2
6
CONTINUOUS
66
1
70
0
0
VERTEX
8
0
62
2
6
CONTINUOUS
10
11.7753263621
20
26.0937841490
0
VERTEX
8
0
62
2
6
CONTINUOUS
10
15.2565277510
20
26.0937841490
0
VERTEX
8
0
62
2
6
CONTINUOUS
10
15.2565277510
20
25.4614466490
0
SEQEND
0
LINE
8
0
62
2
6
CONTINUOUS
10
15.2519166399
20
26.0982133157
11
11.7774499732
21
26.0982133157
0
POLYLINE
8
0
62
2
6
CONTINUOUS
66
1
70
0
0
VERTEX
8
0
62
2
6
CONTINUOUS
10
13.9483277510
20
25.3654452601
0
VERTEX
8
0
62
2
6
CONTINUOUS
10
13.9056499732
20
25.3654994268
0
VERTEX
8
0
62
2
6
CONTINUOUS
10
13.8918902510
20
25.3330966490
0
VERTEX
8
0
62
2
6
CONTINUOUS
10
13.8840638621
20
25.3330966490
0
SEQEND
0
POLYLINE
8
0
62
2
6
CONTINUOUS
66
1
70
0
0
VERTEX
8
0
62
2
6
CONTINUOUS
10
15.0556958065
20
25.3654452601
0
VERTEX
8
0
62
2
6
CONTINUOUS
10
15.0130513621
20
25.3654994268
0
VERTEX
8
0
62
2
6
CONTINUOUS
10
14.9992583065
20
25.3330966490
0
VERTEX
8
0
62
2
6
CONTINUOUS
10
14.9914458065
20
25.3330966490
0
SEQEND
0
LINE
8
0
62
2
6
CONTINUOUS
10
14.6103694176
20
25.3099160934
11
14.5735444176
21
25.3099841490
0
POLYLINE
8
0
62
2
6
CONTINUOUS
66
1
70
0
0
VERTEX
8
0
62
2
6
CONTINUOUS
10
13.6315749732
20
25.6621160934
0
VERTEX
8
0
62
2
6
CONTINUOUS
10
13.6436341922
20
25.6614616905
0
VERTEX
8
0
62
2
6
CONTINUOUS
10
13.6581454556
20
25.6605130517
0
VERTEX
8
0
62
2
6
CONTINUOUS
10
13.6731051404
20
25.6594543461
0
VERTEX
8
0
62
2
6
CONTINUOUS
10
13.6888855796
20
25.6583787841
0
VERTEX
8
0
62
2
6
CONTINUOUS
10
13.7012192693
20
25.6576595553
0
VERTEX
8
0
62
2
6
CONTINUOUS
10
13.7118654874
20
25.6571843675
0
VERTEX
8
0
62
2
6
CONTINUOUS
10
13.7214571289
20
25.6569124938
0
VERTEX
8
0
62
2
6
CONTINUOUS
10
13.7303082218
20
25.6568238446
0
VERTEX
8
0
62
2
6
CONTINUOUS
10
13.7386026642
20
25.6569069005
0
VERTEX
8
0
62
2
6
CONTINUOUS
10
13.7464598332
20
25.6571545090
0
VERTEX
8
0
62
2
6
CONTINUOUS
10
13.7539629167
20
25.6575620773
0
VERTEX
8
0
62
2
6
CONTINUOUS
10
13.7611729896
20
25.6581266830
0
VERTEX
8
0
62
2
6
CONTINUOUS
10
13.7681367332
20
25.6588465948
0
VERTEX
8
0
62
2
6
CONTINUOUS
10
13.7748909931
20
25.6597209967
0
VERTEX
8
0
62
2
6
CONTINUOUS
10
13.7814656281
20
25.6607498212
0
VERTEX
8
0
62
2
6
CONTINUOUS
10
13.7878853754
20
25.6619336450
0
VERTEX
8
0
62
2
6
CONTINUOUS
10
13.7941711159
20
25.6632736229
0
VERTEX
8
0
62
2
6
CONTINUOUS
10
13.8003407625
20
25.6647714440
0
VERTEX
8
0
62
2
6
CONTINUOUS
10
13.8064098968
20
25.6664293034
0
VERTEX
8
0
62
2
6
CONTINUOUS
10
13.8123922392
20
25.6682498831
0
VERTEX
8
0
62
2
6
CONTINUOUS
10
13.8182999998
20
25.6702363399
0
VERTEX
8
0
62
2
6
CONTINUOUS
10
13.8241441464
20
25.6723922966
0
VERTEX
8
0
62
2
6
CONTINUOUS
10
13.8299346126
20
25.6747218364
0
VERTEX
8
0
62
2
6
CONTINUOUS
10
13.8356804601
20
25.6772294993
0
VERTEX
8
0
62
2
6
CONTINUOUS
10
13.8413900083
20
25.6799202795
0
VERTEX
8
0
62
2
6
CONTINUOUS
10
13.8470709384
20
25.6827996230
0
VERTEX
8
0
62
2
6
CONTINUOUS
10
13.8527303786
20
25.6858734270
0
VERTEX
8
0
62
2
6
CONTINUOUS
10
13.8583749732
20
25.6891480379
0
SEQEND
0
POLYLINE
8
0
62
2
6
CONTINUOUS
66
1
70
0
0
VERTEX
8
0
62
2
6
CONTINUOUS
10
12.8265485843
20
25.6636633157
0
VERTEX
8
0
62
2
6
CONTINUOUS
10
12.8394459794
20
25.6627109825
0
VERTEX
8
0
62
2
6
CONTINUOUS
10
12.8557063152
20
25.6613568831
0
VERTEX
8
0
62
2
6
CONTINUOUS
10
12.8693617835
20
25.6601846660
0
VERTEX
8
0
62
2
6
CONTINUOUS
10
12.8839474195
20
25.6590042000
0
VERTEX
8
0
62
2
6
CONTINUOUS
10
12.8957957472
20
25.6581757789
0
VERTEX
8
0
62
2
6
CONTINUOUS
10
12.9061747879
20
25.6575989724
0
VERTEX
8
0
62
2
6
CONTINUOUS
10
12.9155982523
20
25.6572329641
0
VERTEX
8
0
62
2
6
CONTINUOUS
10
12.9243358383
20
25.6570564791
0
VERTEX
8
0
62
2
6
CONTINUOUS
10
12.9325508935
20
25.6570568935
0
VERTEX
8
0
62
2
6
CONTINUOUS
10
12.9403518769
20
25.6572261631
0
VERTEX
8
0
62
2
6
CONTINUOUS
10
12.9478156123
20
25.6575589916
0
VERTEX
8
0
62
2
6
CONTINUOUS
10
12.9549992077
20
25.6580518998
0
VERTEX
8
0
62
2
6
CONTINUOUS
10
12.9619467445
20
25.6587027115
0
VERTEX
8
0
62
2
6
CONTINUOUS
10
12.9686932973
20
25.6595102508
0
VERTEX
8
0
62
2
6
CONTINUOUS
10
12.9752674826
20
25.6604741556
0
VERTEX
8
0
62
2
6
CONTINUOUS
10
12.9816931456
20
25.6615947593
0
VERTEX
8
0
62
2
6
CONTINUOUS
10
12.9879905176
20
25.6628730130
0
VERTEX
8
0
62
2
6
CONTINUOUS
10
12.9941770321
20
25.6643104342
0
VERTEX
8
0
62
2
6
CONTINUOUS
10
13.0002679170
20
25.6659090716
0
VERTEX
8
0
62
2
6
CONTINUOUS
10
13.0062766320
20
25.6676714812
0
VERTEX
8
0
62
2
6
CONTINUOUS
10
13.0122151979
20
25.6696007107
0
VERTEX
8
0
62
2
6
CONTINUOUS
10
13.0180944499
20
25.6717002870
0
VERTEX
8
0
62
2
6
CONTINUOUS
10
13.0239242336
20
25.6739742090
0
VERTEX
8
0
62
2
6
CONTINUOUS
10
13.0297135598
20
25.6764269414
0
VERTEX
8
0
62
2
6
CONTINUOUS
10
13.0354707283
20
25.6790634107
0
VERTEX
8
0
62
2
6
CONTINUOUS
10
13.0412034269
20
25.6818890021
0
VERTEX
8
0
62
2
6
CONTINUOUS
10
13.0469188139
20
25.6849095570
0
VERTEX
8
0
62
2
6
CONTINUOUS
10
13.0526235843
20
25.6881313712
0
SEQEND
0
POLYLINE
8
0
62
2
6
CONTINUOUS
66
1
70
0
0
VERTEX
8
0
62
2
6
CONTINUOUS
10
15.1052291399
20
25.6533480379
0
VERTEX
8
0
62
2
6
CONTINUOUS
10
15.1066973840
20
25.6535594140
0
VERTEX
8
0
62
2
6
CONTINUOUS
10
15.1076987531
20
25.6536896591
0
VERTEX
8
0
62
2
6
CONTINUOUS
10
15.1086127176
20
25.6537922855
0
VERTEX
8
0
62
2
6
CONTINUOUS
10
15.1094948117
20
25.6538737400
0
VERTEX
8
0
62
2
6
CONTINUOUS
10
15.1103747363
20
25.6539366202
0
VERTEX
8
0
62
2
6
CONTINUOUS
10
15.1112720804
20
25.6539818562
0
VERTEX
8
0
62
2
6
CONTINUOUS
10
15.1122017581
20
25.6540094648
0
VERTEX
8
0
62
2
6
CONTINUOUS
10
15.1131763621
20
25.6540188712
0
VERTEX
8
0
62
2
6
CONTINUOUS
10
15.1138445946
20
25.6540113978
0
VERTEX
8
0
62
2
6
CONTINUOUS
10
15.1145692622
20
25.6539854279
0
VERTEX
8
0
62
2
6
CONTINUOUS
10
15.1152614643
20
25.6539416667
0
VERTEX
8
0
62
2
6
CONTINUOUS
10
15.1159218573
20
25.6538809396
0
VERTEX
8
0
62
2
6
CONTINUOUS
10
15.1165510998
20
25.6538040609
0
VERTEX
8
0
62
2
6
CONTINUOUS
10
15.1171498522
20
25.6537118325
0
VERTEX
8
0
62
2
6
CONTINUOUS
10
15.1177187760
20
25.6536050424
0
VERTEX
8
0
62
2
6
CONTINUOUS
10
15.1182585325
20
25.6534844632
0
VERTEX
8
0
62
2
6
CONTINUOUS
10
15.1187697823
20
25.6533508507
0
VERTEX
8
0
62
2
6
CONTINUOUS
10
15.1192531835
20
25.6532049423
0
VERTEX
8
0
62
2
6
CONTINUOUS
10
15.1197093901
20
25.6530474553
0
VERTEX
8
0
62
2
6
CONTINUOUS
10
15.1201390503
20
25.6528790854
0
VERTEX
8
0
62
2
6
CONTINUOUS
10
15.1205428036
20
25.6527005051
0
VERTEX
8
0
62
2
6
CONTINUOUS
10
15.1209212787
20
25.6525123622
0
VERTEX
8
0
62
2
6
CONTINUOUS
10
15.1212750898
20
25.6523152792
0
VERTEX
8
0
62
2
6
CONTINUOUS
10
15.1216048334
20
25.6521098518
0
VERTEX
8
0
62
2
6
CONTINUOUS
10
15.1217608677
20
25.6520041828
0
VERTEX
8
0
62
2
6
CONTINUOUS
10
15.1219110843
20
25.6518966490
0
VERTEX
8
0
62
2
6
CONTINUOUS
10
15.1221857218
20
25.6516826353
0
VERTEX
8
0
62
2
6
CONTINUOUS
10
15.1224437955
20
25.6514573139
0
VERTEX
8
0
62
2
6
CONTINUOUS
10
15.1226858579
20
25.6512205186
0
VERTEX
8
0
62
2
6
CONTINUOUS
10
15.1229123780
20
25.6509719997
0
VERTEX
8
0
62
2
6
CONTINUOUS
10
15.1231237360
20
25.6507114259
0
VERTEX
8
0
62
2
6
CONTINUOUS
10
15.1233202191
20
25.6504383876
0
VERTEX
8
0
62
2
6
CONTINUOUS
10
15.1234129606
20
25.6502970229
0
VERTEX
8
0
62
2
6
CONTINUOUS
10
15.1235020102
20
25.6501524143
0
VERTEX
8
0
62
2
6
CONTINUOUS
10
15.1236689652
20
25.6498534101
0
VERTEX
8
0
62
2
6
CONTINUOUS
10
15.1238211532
20
25.6495408002
0
VERTEX
8
0
62
2
6
CONTINUOUS
10
15.1239585418
20
25.6492139468
0
VERTEX
8
0
62
2
6
CONTINUOUS
10
15.1240809975
20
25.6488721550
0
VERTEX
8
0
62
2
6
CONTINUOUS
10
15.1241882871
20
25.6485146780
0
VERTEX
8
0
62
2
6
CONTINUOUS
10
15.1242800798
20
25.6481407225
0
VERTEX
8
0
62
2
6
CONTINUOUS
10
15.1243559497
20
25.6477494537
0
VERTEX
8
0
62
2
6
CONTINUOUS
10
15.1244153798
20
25.6473400001
0
VERTEX
8
0
62
2
6
CONTINUOUS
10
15.1244577650
20
25.6469114575
0
VERTEX
8
0
62
2
6
CONTINUOUS
10
15.1244824167
20
25.6464628929
0
VERTEX
8
0
62
2
6
CONTINUOUS
10
15.1244888621
20
25.6460772046
0
VERTEX
8
0
62
2
6
CONTINUOUS
10
15.1244792443
20
25.6456815284
0
VERTEX
8
0
62
2
6
CONTINUOUS
10
15.1244507449
20
25.6452971433
0
VERTEX
8
0
62
2
6
CONTINUOUS
10
15.1244038456
20
25.6449237003
0
VERTEX
8
0
62
2
6
CONTINUOUS
10
15.1243389607
20
25.6445608675
0
VERTEX
8
0
62
2
6
CONTINUOUS
10
15.1242564367
20
25.6442083347
0
VERTEX
8
0
62
2
6
CONTINUOUS
10
15.1241565524
20
25.6438658192
0
VERTEX
8
0
62
2
6
CONTINUOUS
10
15.1240395207
20
25.6435330713
0
VERTEX
8
0
62
2
6
CONTINUOUS
10
15.1239054907
20
25.6432098805
0
VERTEX
8
0
62
2
6
CONTINUOUS
10
15.1237545520
20
25.6428960810
0
VERTEX
8
0
62
2
6
CONTINUOUS
10
15.1235867405
20
25.6425915578
0
VERTEX
8
0
62
2
6
CONTINUOUS
10
15.1234020451
20
25.6422962521
0
VERTEX
8
0
62
2
6
CONTINUOUS
10
15.1232004170
20
25.6420101667
0
VERTEX
8
0
62
2
6
CONTINUOUS
10
15.1229817801
20
25.6417333706
0
VERTEX
8
0
62
2
6
CONTINUOUS
10
15.1227460434
20
25.6414660025
0
VERTEX
8
0
62
2
6
CONTINUOUS
10
15.1224931149
20
25.6412082742
0
VERTEX
8
0
62
2
6
CONTINUOUS
10
15.1222229176
20
25.6409604721
0
VERTEX
8
0
62
2
6
CONTINUOUS
10
15.1219354070
20
25.6407229580
0
VERTEX
8
0
62
2
6
CONTINUOUS
10
15.1216305897
20
25.6404961683
0
VERTEX
8
0
62
2
6
CONTINUOUS
10
15.1213085440
20
25.6402806113
0
VERTEX
8
0
62
2
6
CONTINUOUS
10
15.1209694412
20
25.6400768633
0
VERTEX
8
0
62
2
6
CONTINUOUS
10
15.1206135675
20
25.6398855614
0
VERTEX
8
0
62
2
6
CONTINUOUS
10
15.1202413460
20
25.6397073954
0
VERTEX
8
0
62
2
6
CONTINUOUS
10
15.1198533580
20
25.6395430963
0
VERTEX
8
0
62
2
6
CONTINUOUS
10
15.1194503624
20
25.6393934222
0
VERTEX
8
0
62
2
6
CONTINUOUS
10
15.1190333130
20
25.6392591422
0
VERTEX
8
0
62
2
6
CONTINUOUS
10
15.1189958065
20
25.6392480379
0
SEQEND
0
POLYLINE
8
0
62
2
6
CONTINUOUS
66
1
70
0
0
VERTEX
8
0
62
2
6
CONTINUOUS
10
15.0785902510
20
25.6272452601
0
VERTEX
8
0
62
2
6
CONTINUOUS
10
15.0650758912
20
25.6254294183
0
VERTEX
8
0
62
2
6
CONTINUOUS
10
15.0311909895
20
25.6209970196
0
VERTEX
8
0
62
2
6
CONTINUOUS
10
15.0046798493
20
25.6178429150
0
VERTEX
8
0
62
2
6
CONTINUOUS
10
14.9816802904
20
25.6154846063
0
VERTEX
8
0
62
2
6
CONTINUOUS
10
14.9608121484
20
25.6137507373
0
VERTEX
8
0
62
2
6
CONTINUOUS
10
14.9413913700
20
25.6125586033
0
VERTEX
8
0
62
2
6
CONTINUOUS
10
14.9230166442
20
25.6118621873
0
VERTEX
8
0
62
2
6
CONTINUOUS
10
14.9054263621
20
25.6116341490
0
VERTEX
8
0
62
2
6
CONTINUOUS
10
14.8966765980
20
25.6116887240
0
VERTEX
8
0
62
2
6
CONTINUOUS
10
14.8789964535
20
25.6121427791
0
VERTEX
8
0
62
2
6
CONTINUOUS
10
14.8618998316
20
25.6130438994
0
VERTEX
8
0
62
2
6
CONTINUOUS
10
14.8453934365
20
25.6143760443
0
VERTEX
8
0
62
2
6
CONTINUOUS
10
14.8294827323
20
25.6161227096
0
VERTEX
8
0
62
2
6
CONTINUOUS
10
14.8141718740
20
25.6182670035
0
VERTEX
8
0
62
2
6
CONTINUOUS
10
14.7994636521
20
25.6207917345
0
VERTEX
8
0
62
2
6
CONTINUOUS
10
14.7853594519
20
25.6236795098
0
VERTEX
8
0
62
2
6
CONTINUOUS
10
14.7718592320
20
25.6269128428
0
VERTEX
8
0
62
2
6
CONTINUOUS
10
14.7589615207
20
25.6304742695
0
VERTEX
8
0
62
2
6
CONTINUOUS
10
14.7466634345
20
25.6343464716
0
VERTEX
8
0
62
2
6
CONTINUOUS
10
14.7349607174
20
25.6385124051
0
VERTEX
8
0
62
2
6
CONTINUOUS
10
14.7238478046
20
25.6429554321
0
VERTEX
8
0
62
2
6
CONTINUOUS
10
14.7133179071
20
25.6476594531
0
VERTEX
8
0
62
2
6
CONTINUOUS
10
14.7033631210
20
25.6526090396
0
VERTEX
8
0
62
2
6
CONTINUOUS
10
14.6939745577
20
25.6577895614
0
VERTEX
8
0
62
2
6
CONTINUOUS
10
14.6851424954
20
25.6631873091
0
VERTEX
8
0
62
2
6
CONTINUOUS
10
14.6768565504
20
25.6687896070
0
VERTEX
8
0
62
2
6
CONTINUOUS
10
14.6691058652
20
25.6745849151
0
VERTEX
8
0
62
2
6
CONTINUOUS
10
14.6618793119
20
25.6805629167
0
VERTEX
8
0
62
2
6
CONTINUOUS
10
14.6551657076
20
25.6867145896
0
VERTEX
8
0
62
2
6
CONTINUOUS
10
14.6489540384
20
25.6930322584
0
VERTEX
8
0
62
2
6
CONTINUOUS
10
14.6432336882
20
25.6995096254
0
VERTEX
8
0
62
2
6
CONTINUOUS
10
14.6379946677
20
25.7061417782
0
VERTEX
8
0
62
2
6
CONTINUOUS
10
14.6332278403
20
25.7129251735
0
VERTEX
8
0
62
2
6
CONTINUOUS
10
14.6289251377
20
25.7198575949
0
VERTEX
8
0
62
2
6
CONTINUOUS
10
14.6250797622
20
25.7269380854
0
VERTEX
8
0
62
2
6
CONTINUOUS
10
14.6216863700
20
25.7341668565
0
VERTEX
8
0
62
2
6
CONTINUOUS
10
14.6187412300
20
25.7415451731
0
VERTEX
8
0
62
2
6
CONTINUOUS
10
14.6162423549
20
25.7490752192
0
VERTEX
8
0
62
2
6
CONTINUOUS
10
14.6141896012
20
25.7567599473
0
VERTEX
8
0
62
2
6
CONTINUOUS
10
14.6125856489
20
25.7645976653
0
VERTEX
8
0
62
2
6
CONTINUOUS
10
14.6114336431
20
25.7725890608
0
VERTEX
8
0
62
2
6
CONTINUOUS
10
14.6107377700
20
25.7807382160
0
VERTEX
8
0
62
2
6
CONTINUOUS
10
14.6105041399
20
25.7890494268
0
VERTEX
8
0
62
2
6
CONTINUOUS
10
14.6107381985
20
25.7974109342
0
VERTEX
8
0
62
2
6
CONTINUOUS
10
14.6114353092
20
25.8056058672
0
VERTEX
8
0
62
2
6
CONTINUOUS
10
14.6125885632
20
25.8136357161
0
VERTEX
8
0
62
2
6
CONTINUOUS
10
14.6141922726
20
25.8215030512
0
VERTEX
8
0
62
2
6
CONTINUOUS
10
14.6162431246
20
25.8292140131
0
VERTEX
8
0
62
2
6
CONTINUOUS
10
14.6187399275
20
25.8367740825
0
VERTEX
8
0
62
2
6
CONTINUOUS
10
14.6216835483
20
25.8441879140
0
VERTEX
8
0
62
2
6
CONTINUOUS
10
14.6250768141
20
25.8514591770
0
VERTEX
8
0
62
2
6
CONTINUOUS
10
14.6289243771
20
25.8585904075
0
VERTEX
8
0
62
2
6
CONTINUOUS
10
14.6332325449
20
25.8655828747
0
VERTEX
8
0
62
2
6
CONTINUOUS
10
14.6380090795
20
25.8724364678
0
VERTEX
8
0
62
2
6
CONTINUOUS
10
14.6432629683
20
25.8791496033
0
VERTEX
8
0
62
2
6
CONTINUOUS
10
14.6490041700
20
25.8857191567
0
VERTEX
8
0
62
2
6
CONTINUOUS
10
14.6552433416
20
25.8921404190
0
VERTEX
8
0
62
2
6
CONTINUOUS
10
14.6619915499
20
25.8984070788
0
VERTEX
8
0
62
2
6
CONTINUOUS
10
14.6692599714
20
25.9045112300
0
VERTEX
8
0
62
2
6
CONTINUOUS
10
14.6770595874
20
25.9104434045
0
VERTEX
8
0
62
2
6
CONTINUOUS
10
14.6854008759
20
25.9161926295
0
VERTEX
8
0
62
2
6
CONTINUOUS
10
14.6942935082
20
25.9217465085
0
VERTEX
8
0
62
2
6
CONTINUOUS
10
14.7037460517
20
25.9270913236
0
VERTEX
8
0
62
2
6
CONTINUOUS
10
14.7137656863
20
25.9322121600
0
VERTEX
8
0
62
2
6
CONTINUOUS
10
14.7243579387
20
25.9370930481
0
VERTEX
8
0
62
2
6
CONTINUOUS
10
14.7355264385
20
25.9417171240
0
VERTEX
8
0
62
2
6
CONTINUOUS
10
14.7472727027
20
25.9460668043
0
VERTEX
8
0
62
2
6
CONTINUOUS
10
14.7595959532
20
25.9501239727
0
VERTEX
8
0
62
2
6
CONTINUOUS
10
14.7724929704
20
25.9538701764
0
VERTEX
8
0
62
2
6
CONTINUOUS
10
14.7859579892
20
25.9572868274
0
VERTEX
8
0
62
2
6
CONTINUOUS
10
14.7999826378
20
25.9603554059
0
VERTEX
8
0
62
2
6
CONTINUOUS
10
14.8145559231
20
25.9630576608
0
VERTEX
8
0
62
2
6
CONTINUOUS
10
14.8296642626
20
25.9653758043
0
VERTEX
8
0
62
2
6
CONTINUOUS
10
14.8452915617
20
25.9672926953
0
VERTEX
8
0
62
2
6
CONTINUOUS
10
14.8614193354
20
25.9687920083
0
VERTEX
8
0
62
2
6
CONTINUOUS
10
14.8780268689
20
25.9698583844
0
VERTEX
8
0
62
2
6
CONTINUOUS
10
14.8950914143
20
25.9704775609
0
VERTEX
8
0
62
2
6
CONTINUOUS
10
14.9097666399
20
25.9706424823
0
VERTEX
8
0
62
2
6
CONTINUOUS
10
14.9279868158
20
25.9704086307
0
VERTEX
8
0
62
2
6
CONTINUOUS
10
14.9463198161
20
25.9697051230
0
VERTEX
8
0
62
2
6
CONTINUOUS
10
14.9648148986
20
25.9685269376
0
VERTEX
8
0
62
2
6
CONTINUOUS
10
14.9835258395
20
25.9668660235
0
VERTEX
8
0
62
2
6
CONTINUOUS
10
15.0025120971
20
25.9647109201
0
VERTEX
8
0
62
2
6
CONTINUOUS
10
15.0218403153
20
25.9620462485
0
VERTEX
8
0
62
2
6
CONTINUOUS
10
15.0235221954
20
25.9617924823
0
SEQEND
0
POLYLINE
8
0
62
2
6
CONTINUOUS
66
1
70
0
0
VERTEX
8
0
62
2
6
CONTINUOUS
10
13.2033319176
20
25.7979063712
0
VERTEX
8
0
62
2
6
CONTINUOUS
10
13.2115482782
20
25.7988496296
0
VERTEX
8
0
62
2
6
CONTINUOUS
10
13.2194143878
20
25.7998836647
0
VERTEX
8
0
62
2
6
CONTINUOUS
10
13.2266576339
20
25.8009755324
0
VERTEX
8
0
62
2
6
CONTINUOUS
10
13.2334277944
20
25.8021394303
0
VERTEX
8
0
62
2
6
CONTINUOUS
10
13.2398237490
20
25.8033851831
0
VERTEX
8
0
62
2
6
CONTINUOUS
10
13.2459152584
20
25.8047202370
0
VERTEX
8
0
62
2
6
CONTINUOUS
10
13.2517540236
20
25.8061506790
0
VERTEX
8
0
62
2
6
CONTINUOUS
10
13.2573798501
20
25.8076818120
0
VERTEX
8
0
62
2
6
CONTINUOUS
10
13.2628243343
20
25.8093185034
0
VERTEX
8
0
62
2
6
CONTINUOUS
10
13.2681131916
20
25.8110654115
0
VERTEX
8
0
62
2
6
CONTINUOUS
10
13.2732677926
20
25.8129271383
0
VERTEX
8
0
62
2
6
CONTINUOUS
10
13.2783062146
20
25.8149083382
0
VERTEX
8
0
62
2
6
CONTINUOUS
10
13.2832439827
20
25.8170137974
0
VERTEX
8
0
62
2
6
CONTINUOUS
10
13.2836623944
20
25.8172001347
0
VERTEX
8
0
62
2
6
CONTINUOUS
10
13.2877433349
20
25.8191057911
0
VERTEX
8
0
62
2
6
CONTINUOUS
10
13.2916164817
20
25.8210753934
0
VERTEX
8
0
62
2
6
CONTINUOUS
10
13.2952758888
20
25.8231001387
0
VERTEX
8
0
62
2
6
CONTINUOUS
10
13.2987195577
20
25.8251726629
0
VERTEX
8
0
62
2
6
CONTINUOUS
10
13.3019483153
20
25.8272868280
0
VERTEX
8
0
62
2
6
CONTINUOUS
10
13.3049649963
20
25.8294375619
0
VERTEX
8
0
62
2
6
CONTINUOUS
10
13.3077738378
20
25.8316207387
0
VERTEX
8
0
62
2
6
CONTINUOUS
10
13.3103800195
20
25.8338330861
0
VERTEX
8
0
62
2
6
CONTINUOUS
10
13.3127893085
20
25.8360721144
0
VERTEX
8
0
62
2
6
CONTINUOUS
10
13.3150077781
20
25.8383360614
0
VERTEX
8
0
62
2
6
CONTINUOUS
10
13.3170415809
20
25.8406238463
0
VERTEX
8
0
62
2
6
CONTINUOUS
10
13.3188967622
20
25.8429350321
0
VERTEX
8
0
62
2
6
CONTINUOUS
10
13.3205791021
20
25.8452697910
0
VERTEX
8
0
62
2
6
CONTINUOUS
10
13.3220939827
20
25.8476288725
0
VERTEX
8
0
62
2
6
CONTINUOUS
10
13.3234462724
20
25.8500135701
0
VERTEX
8
0
62
2
6
CONTINUOUS
10
13.3246402266
20
25.8524256882
0
VERTEX
8
0
62
2
6
CONTINUOUS
10
13.3256794021
20
25.8548675043
0
VERTEX
8
0
62
2
6
CONTINUOUS
10
13.3265665850
20
25.8573417296
0
VERTEX
8
0
62
2
6
CONTINUOUS
10
13.3273037312
20
25.8598514659
0
VERTEX
8
0
62
2
6
CONTINUOUS
10
13.3278919190
20
25.8624001590
0
VERTEX
8
0
62
2
6
CONTINUOUS
10
13.3283313156
20
25.8649915514
0
VERTEX
8
0
62
2
6
CONTINUOUS
10
13.3286211547
20
25.8676296322
0
VERTEX
8
0
62
2
6
CONTINUOUS
10
13.3287597270
20
25.8703185889
0
VERTEX
8
0
62
2
6
CONTINUOUS
10
13.3287443819
20
25.8730627597
0
VERTEX
8
0
62
2
6
CONTINUOUS
10
13.3285715389
20
25.8758665889
0
VERTEX
8
0
62
2
6
CONTINUOUS
10
13.3282367086
20
25.8787345861
0
VERTEX
8
0
62
2
6
CONTINUOUS
10
13.3277830772
20
25.8813463143
0
VERTEX
8
0
62
2
6
CONTINUOUS
10
13.3271842609
20
25.8838958306
0
VERTEX
8
0
62
2
6
CONTINUOUS
10
13.3264412288
20
25.8863868728
0
VERTEX
8
0
62
2
6
CONTINUOUS
10
13.3255540875
20
25.8888228479
0
VERTEX
8
0
62
2
6
CONTINUOUS
10
13.3245221106
20
25.8912067764
0
VERTEX
8
0
62
2
6
CONTINUOUS
10
13.3233437832
20
25.8935412386
0
VERTEX
8
0
62
2
6
CONTINUOUS
10
13.3220168622
20
25.8958283214
0
VERTEX
8
0
62
2
6
CONTINUOUS
10
13.3205384535
20
25.8980695680
0
VERTEX
8
0
62
2
6
CONTINUOUS
10
13.3189051061
20
25.9002659312
0
VERTEX
8
0
62
2
6
CONTINUOUS
10
13.3171129259
20
25.9024177286
0
VERTEX
8
0
62
2
6
CONTINUOUS
10
13.3151577101
20
25.9045246013
0
VERTEX
8
0
62
2
6
CONTINUOUS
10
13.3130351070
20
25.9065854741
0
VERTEX
8
0
62
2
6
CONTINUOUS
10
13.3107408046
20
25.9085985171
0
VERTEX
8
0
62
2
6
CONTINUOUS
10
13.3082707561
20
25.9105611067
0
VERTEX
8
0
62
2
6
CONTINUOUS
10
13.3056214508
20
25.9124697854
0
VERTEX
8
0
62
2
6
CONTINUOUS
10
13.3027902435
20
25.9143202196
0
VERTEX
8
0
62
2
6
CONTINUOUS
10
13.2997757590
20
25.9161071548
0
VERTEX
8
0
62
2
6
CONTINUOUS
10
13.2965783914
20
25.9178243684
0
VERTEX
8
0
62
2
6
CONTINUOUS
10
13.2932009264
20
25.9194646228
0
VERTEX
8
0
62
2
6
CONTINUOUS
10
13.2896493163
20
25.9210196245
0
VERTEX
8
0
62
2
6
CONTINUOUS
10
13.2859336437
20
25.9224799976
0
VERTEX
8
0
62
2
6
CONTINUOUS
10
13.2820693077
20
25.9238352905
0
VERTEX
8
0
62
2
6
CONTINUOUS
10
13.2780784541
20
25.9250740439
0
VERTEX
8
0
62
2
6
CONTINUOUS
10
13.2739916354
20
25.9261839676
0
VERTEX
8
0
62
2
6
CONTINUOUS
10
13.2698496069
20
25.9271522957
0
VERTEX
8
0
62
2
6
CONTINUOUS
10
13.2681010536
20
25.9275146373
0
VERTEX
8
0
62
2
6
CONTINUOUS
10
13.2635112675
20
25.9283516108
0
VERTEX
8
0
62
2
6
CONTINUOUS
10
13.2588474521
20
25.9290462780
0
VERTEX
8
0
62
2
6
CONTINUOUS
10
13.2540916535
20
25.9295998117
0
VERTEX
8
0
62
2
6
CONTINUOUS
10
13.2492224891
20
25.9300125373
0
VERTEX
8
0
62
2
6
CONTINUOUS
10
13.2442138782
20
25.9302837937
0
VERTEX
8
0
62
2
6
CONTINUOUS
10
13.2390330996
20
25.9304117130
0
VERTEX
8
0
62
2
6
CONTINUOUS
10
13.2336376775
20
25.9303928568
0
VERTEX
8
0
62
2
6
CONTINUOUS
10
13.2279700961
20
25.9302215859
0
VERTEX
8
0
62
2
6
CONTINUOUS
10
13.2219481357
20
25.9298888899
0
VERTEX
8
0
62
2
6
CONTINUOUS
10
13.2154453541
20
25.9293800004
0
VERTEX
8
0
62
2
6
CONTINUOUS
10
13.2082456593
20
25.9286688123
0
VERTEX
8
0
62
2
6
CONTINUOUS
10
13.1999115441
20
25.9277017112
0
VERTEX
8
0
62
2
6
CONTINUOUS
10
13.1892104943
20
25.9263278125
0
VERTEX
8
0
62
2
6
CONTINUOUS
10
13.1859444176
20
25.9258966490
0
SEQEND
0
LINE
8
0
62
2
6
CONTINUOUS
10
12.6367096954
20
25.9623216490
11
12.6700346954
21
25.9659633157
0
LINE
8
0
62
2
6
CONTINUOUS
10
12.9127708065
20
25.8244494268
11
12.9446583065
21
25.8275619268
0
LINE
8
0
62
2
6
CONTINUOUS
10
12.9519083065
20
25.9623216490
11
12.9859596954
21
25.9649119268
0
LINE
8
_CURVE
62
8
6
PHANTOM
10
11.6289913039
20
29.2445879486
11
10.1289913039
21
27.7445879486
0
LINE
8
_CURVE
62
8
6
PHANTOM
10
10.1289913039
20
10.2445879486
11
11.6289913039
21
8.7445879486
0
LINE
8
_CURVE
62
8
6
PHANTOM
10
11.6289913039
20
8.7445879486
11
24.8789913039
21
8.7445879486
0
POLYLINE
8
_CURVE
62
7
6
CONTINUOUS
66
1
70
0
0
VERTEX
8
_CURVE
62
7
6
CONTINUOUS
10
21.8941609761
20
9.2641050589
0
VERTEX
8
_CURVE
62
7
6
CONTINUOUS
10
22.0332740740
20
9.2658648763
0
VERTEX
8
_CURVE
62
7
6
CONTINUOUS
10
22.1732276337
20
9.2714245965
0
VERTEX
8
_CURVE
62
7
6
CONTINUOUS
10
22.3005644219
20
9.2799947228
0
VERTEX
8
_CURVE
62
7
6
CONTINUOUS
10
22.4284702247
20
9.2921975549
0
VERTEX
8
_CURVE
62
7
6
CONTINUOUS
10
22.5456826018
20
9.3067418798
0
VERTEX
8
_CURVE
62
7
6
CONTINUOUS
10
22.6631878450
20
9.3247507301
0
VERTEX
8
_CURVE
62
7
6
CONTINUOUS
10
22.7721053294
20
9.3446917976
0
VERTEX
8
_CURVE
62
7
6
CONTINUOUS
10
22.8810476577
20
9.3679500930
0
VERTEX
8
_CURVE
62
7
6
CONTINUOUS
10
22.9829984645
20
9.3928918155
0
VERTEX
8
_CURVE
62
7
6
CONTINUOUS
10
23.0847349302
20
9.4210253722
0
VERTEX
8
_CURVE
62
7
6
CONTINUOUS
10
23.1804172076
20
9.4506185952
0
VERTEX
8
_CURVE
62
7
6
CONTINUOUS
10
23.2756487156
20
9.4832705241
0
VERTEX
8
_CURVE
62
7
6
CONTINUOUS
10
23.3657857495
20
9.5172941404
0
VERTEX
8
_CURVE
62
7
6
CONTINUOUS
10
23.4552354973
20
9.5542417776
0
VERTEX
8
_CURVE
62
7
6
CONTINUOUS
10
23.5405787948
20
9.5926358074
0
VERTEX
8
_CURVE
62
7
6
CONTINUOUS
10
23.6249739048
20
9.6338090278
0
VERTEX
8
_CURVE
62
7
6
CONTINUOUS
10
23.7061679698
20
9.6766234661
0
VERTEX
8
_CURVE
62
7
6
CONTINUOUS
10
23.7861444144
20
9.7220565166
0
VERTEX
8
_CURVE
62
7
6
CONTINUOUS
10
23.8636483422
20
9.7693724593
0
VERTEX
8
_CURVE
62
7
6
CONTINUOUS
10
23.9396954938
20
9.8191477913
0
VERTEX
8
_CURVE
62
7
6
CONTINUOUS
10
24.0139328013
20
9.8711564108
0
VERTEX
8
_CURVE
62
7
6
CONTINUOUS
10
24.0864847205
20
9.9254688755
0
VERTEX
8
_CURVE
62
7
6
CONTINUOUS
10
24.1577470304
20
9.9824114197
0
VERTEX
8
_CURVE
62
7
6
CONTINUOUS
10
24.2270910272
20
10.0414884629
0
VERTEX
8
_CURVE
62
7
6
CONTINUOUS
10
24.2956056500
20
10.1036838690
0
VERTEX
8
_CURVE
62
7
6
CONTINUOUS
10
24.3619723814
20
10.1678300864
0
VERTEX
8
_CURVE
62
7
6
CONTINUOUS
10
24.4279682283
20
10.2357319160
0
VERTEX
8
_CURVE
62
7
6
CONTINUOUS
10
24.4915962790
20
10.3053984444
0
VERTEX
8
_CURVE
62
7
6
CONTINUOUS
10
24.5552342326
20
10.3795580606
0
VERTEX
8
_CURVE
62
7
6
CONTINUOUS
10
24.6162926102
20
10.4552956486
0
VERTEX
8
_CURVE
62
7
6
CONTINUOUS
10
24.6777088195
20
10.5364289633
0
VERTEX
8
_CURVE
62
7
6
CONTINUOUS
10
24.7363326006
20
10.6189483268
0
VERTEX
8
_CURVE
62
7
6
CONTINUOUS
10
24.7955834409
20
10.7078975824
0
VERTEX
8
_CURVE
62
7
6
CONTINUOUS
10
24.8518313571
20
10.7980364702
0
VERTEX
8
_CURVE
62
7
6
CONTINUOUS
10
24.9089918193
20
10.8959520353
0
VERTEX
8
_CURVE
62
7
6
CONTINUOUS
10
24.9629324812
20
10.9948601604
0
VERTEX
8
_CURVE
62
7
6
CONTINUOUS
10
25.0179764345
20
11.1031017282
0
VERTEX
8
_CURVE
62
7
6
CONTINUOUS
10
25.0695792353
20
11.2121398171
0
VERTEX
8
_CURVE
62
7
6
CONTINUOUS
10
25.1224081120
20
11.3323842146
0
VERTEX
8
_CURVE
62
7
6
CONTINUOUS
10
25.1715657848
20
11.4532368864
0
VERTEX
8
_CURVE
62
7
6
CONTINUOUS
10
25.2220308469
20
11.5876929485
0
VERTEX
8
_CURVE
62
7
6
CONTINUOUS
10
25.2685667379
20
11.7225629386
0
VERTEX
8
_CURVE
62
7
6
CONTINUOUS
10
25.3163695294
20
11.8739407046
0
VERTEX
8
_CURVE
62
7
6
CONTINUOUS
10
25.3599621605
20
12.0255386353
0
VERTEX
8
_CURVE
62
7
6
CONTINUOUS
10
25.3902530672
20
12.1399026200
0
VERTEX
8
_CURVE
62
7
6
CONTINUOUS
10
25.4184747289
20
12.2543011622
0
VERTEX
8
_CURVE
62
7
6
CONTINUOUS
10
25.4447471770
20
12.3687074279
0
VERTEX
8
_CURVE
62
7
6
CONTINUOUS
10
25.4724857652
20
12.4991975312
0
VERTEX
8
_CURVE
62
7
6
CONTINUOUS
10
25.4979860822
20
12.6296326172
0
VERTEX
8
_CURVE
62
7
6
CONTINUOUS
10
25.5213903515
20
12.7599825388
0
VERTEX
8
_CURVE
62
7
6
CONTINUOUS
10
25.5458890496
20
12.9097352910
0
VERTEX
8
_CURVE
62
7
6
CONTINUOUS
10
25.5679740229
20
13.0593294556
0
VERTEX
8
_CURVE
62
7
6
CONTINUOUS
10
25.5878150691
20
13.2087589201
0
VERTEX
8
_CURVE
62
7
6
CONTINUOUS
10
25.6080820932
20
13.3805359214
0
VERTEX
8
_CURVE
62
7
6
CONTINUOUS
10
25.6257837189
20
13.5520651711
0
VERTEX
8
_CURVE
62
7
6
CONTINUOUS
10
25.6411022782
20
13.7233252038
0
SEQEND
0
POLYLINE
8
_CURVE
62
7
6
CONTINUOUS
66
1
70
0
0
VERTEX
8
_CURVE
62
7
6
CONTINUOUS
10
21.8942991027
20
9.7641050398
0
VERTEX
8
_CURVE
62
7
6
CONTINUOUS
10
22.0203546668
20
9.7656984074
0
VERTEX
8
_CURVE
62
7
6
CONTINUOUS
10
22.1463288452
20
9.7707005274
0
VERTEX
8
_CURVE
62
7
6
CONTINUOUS
10
22.2601758584
20
9.7783613809
0
VERTEX
8
_CURVE
62
7
6
CONTINUOUS
10
22.3737611104
20
9.7891954551
0
VERTEX
8
_CURVE
62
7
6
CONTINUOUS
10
22.4771516148
20
9.8020231030
0
VERTEX
8
_CURVE
62
7
6
CONTINUOUS
10
22.5801319961
20
9.8178042018
0
VERTEX
8
_CURVE
62
7
6
CONTINUOUS
10
22.6749927975
20
9.8351705198
0
VERTEX
8
_CURVE
62
7
6
CONTINUOUS
10
22.7693040728
20
9.8553035287
0
VERTEX
8
_CURVE
62
7
6
CONTINUOUS
10
22.8570443132
20
9.8767674606
0
VERTEX
8
_CURVE
62
7
6
CONTINUOUS
10
22.9441038945
20
9.9008408699
0
VERTEX
8
_CURVE
62
7
6
CONTINUOUS
10
23.0255351868
20
9.9260252699
0
VERTEX
8
_CURVE
62
7
6
CONTINUOUS
10
23.1061639757
20
9.9536692092
0
VERTEX
8
_CURVE
62
7
6
CONTINUOUS
10
23.1821072934
20
9.9823341914
0
VERTEX
8
_CURVE
62
7
6
CONTINUOUS
10
23.2571319991
20
10.0133223849
0
VERTEX
8
_CURVE
62
7
6
CONTINUOUS
10
23.3284191596
20
10.0453916505
0
VERTEX
8
_CURVE
62
7
6
CONTINUOUS
10
23.3986726279
20
10.0796652065
0
VERTEX
8
_CURVE
62
7
6
CONTINUOUS
10
23.4660764235
20
10.1152072234
0
VERTEX
8
_CURVE
62
7
6
CONTINUOUS
10
23.5323321531
20
10.1528457180
0
VERTEX
8
_CURVE
62
7
6
CONTINUOUS
10
23.5964470007
20
10.1919872346
0
VERTEX
8
_CURVE
62
7
6
CONTINUOUS
10
23.6592989713
20
10.2331257981
0
VERTEX
8
_CURVE
62
7
6
CONTINUOUS
10
23.7206300949
20
10.2760924566
0
VERTEX
8
_CURVE
62
7
6
CONTINUOUS
10
23.7805775155
20
10.3209695480
0
VERTEX
8
_CURVE
62
7
6
CONTINUOUS
10
23.8395024924
20
10.3680538714
0
VERTEX
8
_CURVE
62
7
6
CONTINUOUS
10
23.8969172921
20
10.4169685617
0
VERTEX
8
_CURVE
62
7
6
CONTINUOUS
10
23.9537561046
20
10.4685654563
0
VERTEX
8
_CURVE
62
7
6
CONTINUOUS
10
24.0089524858
20
10.5219161682
0
VERTEX
8
_CURVE
62
7
6
CONTINUOUS
10
24.0640121219
20
10.5785668660
0
VERTEX
8
_CURVE
62
7
6
CONTINUOUS
10
24.1172873875
20
10.6368993551
0
VERTEX
8
_CURVE
62
7
6
CONTINUOUS
10
24.1707881987
20
10.6992471419
0
VERTEX
8
_CURVE
62
7
6
CONTINUOUS
10
24.2223508786
20
10.7632078311
0
VERTEX
8
_CURVE
62
7
6
CONTINUOUS
10
24.2744712567
20
10.8320628995
0
VERTEX
8
_CURVE
62
7
6
CONTINUOUS
10
24.3244846301
20
10.9024641980
0
VERTEX
8
_CURVE
62
7
6
CONTINUOUS
10
24.3753182697
20
10.9787799460
0
VERTEX
8
_CURVE
62
7
6
CONTINUOUS
10
24.4238612575
20
11.0565738830
0
VERTEX
8
_CURVE
62
7
6
CONTINUOUS
10
24.4734971886
20
11.1416033898
0
VERTEX
8
_CURVE
62
7
6
CONTINUOUS
10
24.5206365521
20
11.2280431596
0
VERTEX
8
_CURVE
62
7
6
CONTINUOUS
10
24.5690559102
20
11.3232622736
0
VERTEX
8
_CURVE
62
7
6
CONTINUOUS
10
24.6147507115
20
11.4198198928
0
VERTEX
8
_CURVE
62
7
6
CONTINUOUS
10
24.6618446876
20
11.5270167679
0
VERTEX
8
_CURVE
62
7
6
CONTINUOUS
10
24.7059595198
20
11.6354752084
0
VERTEX
8
_CURVE
62
7
6
CONTINUOUS
10
24.7515478630
20
11.7569446627
0
VERTEX
8
_CURVE
62
7
6
CONTINUOUS
10
24.7938654194
20
11.8795936943
0
VERTEX
8
_CURVE
62
7
6
CONTINUOUS
10
24.8376195933
20
12.0181602611
0
VERTEX
8
_CURVE
62
7
6
CONTINUOUS
10
24.8777762598
20
12.1578139435
0
VERTEX
8
_CURVE
62
7
6
CONTINUOUS
10
24.9058223528
20
12.2637069285
0
VERTEX
8
_CURVE
62
7
6
CONTINUOUS
10
24.9320594298
20
12.3700631892
0
VERTEX
8
_CURVE
62
7
6
CONTINUOUS
10
24.9565775392
20
12.4768296032
0
VERTEX
8
_CURVE
62
7
6
CONTINUOUS
10
24.9825602966
20
12.5990644640
0
VERTEX
8
_CURVE
62
7
6
CONTINUOUS
10
25.0065369524
20
12.7217092873
0
VERTEX
8
_CURVE
62
7
6
CONTINUOUS
10
25.0286212782
20
12.8447093962
0
VERTEX
8
_CURVE
62
7
6
CONTINUOUS
10
25.0518193101
20
12.9865216731
0
VERTEX
8
_CURVE
62
7
6
CONTINUOUS
10
25.0728056716
20
13.1286792463
0
VERTEX
8
_CURVE
62
7
6
CONTINUOUS
10
25.0917204628
20
13.2711299195
0
VERTEX
8
_CURVE
62
7
6
CONTINUOUS
10
25.1110995580
20
13.4353873484
0
VERTEX
8
_CURVE
62
7
6
CONTINUOUS
10
25.1280775507
20
13.5999089042
0
VERTEX
8
_CURVE
62
7
6
CONTINUOUS
10
25.1428120787
20
13.7646395730
0
SEQEND
0
LINE
8
_CURVE
62
7
6
CONTINUOUS
10
14.6136844117
20
9.2641026004
11
21.8942981962
21
9.2641026004
0
LINE
8
_CURVE
62
7
6
CONTINUOUS
10
14.6136844117
20
9.7641026004
11
21.8942981962
21
9.7641026004
0
POLYLINE
8
_CURVE
62
7
6
CONTINUOUS
66
1
70
0
0
VERTEX
8
_CURVE
62
7
6
CONTINUOUS
10
10.8668803297
20
13.7233252038
0
VERTEX
8
_CURVE
62
7
6
CONTINUOUS
10
10.8821988890
20
13.5520651711
0
VERTEX
8
_CURVE
62
7
6
CONTINUOUS
10
10.8999005147
20
13.3805359214
0
VERTEX
8
_CURVE
62
7
6
CONTINUOUS
10
10.9201675388
20
13.2087589201
0
VERTEX
8
_CURVE
62
7
6
CONTINUOUS
10
10.9400085850
20
13.0593294556
0
VERTEX
8
_CURVE
62
7
6
CONTINUOUS
10
10.9620935583
20
12.9097352910
0
VERTEX
8
_CURVE
62
7
6
CONTINUOUS
10
10.9865922564
20
12.7599825388
0
VERTEX
8
_CURVE
62
7
6
CONTINUOUS
10
11.0099965257
20
12.6296326172
0
VERTEX
8
_CURVE
62
7
6
CONTINUOUS
10
11.0354968427
20
12.4991975312
0
VERTEX
8
_CURVE
62
7
6
CONTINUOUS
10
11.0632354309
20
12.3687074279
0
VERTEX
8
_CURVE
62
7
6
CONTINUOUS
10
11.0895078790
20
12.2543011622
0
VERTEX
8
_CURVE
62
7
6
CONTINUOUS
10
11.1177295407
20
12.1399026200
0
VERTEX
8
_CURVE
62
7
6
CONTINUOUS
10
11.1480204474
20
12.0255386353
0
VERTEX
8
_CURVE
62
7
6
CONTINUOUS
10
11.1916130785
20
11.8739407046
0
VERTEX
8
_CURVE
62
7
6
CONTINUOUS
10
11.2394158700
20
11.7225629386
0
VERTEX
8
_CURVE
62
7
6
CONTINUOUS
10
11.2859517610
20
11.5876929485
0
VERTEX
8
_CURVE
62
7
6
CONTINUOUS
10
11.3364168231
20
11.4532368864
0
VERTEX
8
_CURVE
62
7
6
CONTINUOUS
10
11.3855744959
20
11.3323842146
0
VERTEX
8
_CURVE
62
7
6
CONTINUOUS
10
11.4384033726
20
11.2121398171
0
VERTEX
8
_CURVE
62
7
6
CONTINUOUS
10
11.4900061734
20
11.1031017282
0
VERTEX
8
_CURVE
62
7
6
CONTINUOUS
10
11.5450501267
20
10.9948601604
0
VERTEX
8
_CURVE
62
7
6
CONTINUOUS
10
11.5989907886
20
10.8959520353
0
VERTEX
8
_CURVE
62
7
6
CONTINUOUS
10
11.6561512508
20
10.7980364702
0
VERTEX
8
_CURVE
62
7
6
CONTINUOUS
10
11.7123991670
20
10.7078975824
0
VERTEX
8
_CURVE
62
7
6
CONTINUOUS
10
11.7716500073
20
10.6189483268
0
VERTEX
8
_CURVE
62
7
6
CONTINUOUS
10
11.8302737884
20
10.5364289633
0
VERTEX
8
_CURVE
62
7
6
CONTINUOUS
10
11.8916899977
20
10.4552956486
0
VERTEX
8
_CURVE
62
7
6
CONTINUOUS
10
11.9527483753
20
10.3795580606
0
VERTEX
8
_CURVE
62
7
6
CONTINUOUS
10
12.0163863289
20
10.3053984444
0
VERTEX
8
_CURVE
62
7
6
CONTINUOUS
10
12.0800143796
20
10.2357319160
0
VERTEX
8
_CURVE
62
7
6
CONTINUOUS
10
12.1460102265
20
10.1678300864
0
VERTEX
8
_CURVE
62
7
6
CONTINUOUS
10
12.2123769579
20
10.1036838690
0
VERTEX
8
_CURVE
62
7
6
CONTINUOUS
10
12.2808915807
20
10.0414884629
0
VERTEX
8
_CURVE
62
7
6
CONTINUOUS
10
12.3502355775
20
9.9824114197
0
VERTEX
8
_CURVE
62
7
6
CONTINUOUS
10
12.4214978874
20
9.9254688755
0
VERTEX
8
_CURVE
62
7
6
CONTINUOUS
10
12.4940498066
20
9.8711564108
0
VERTEX
8
_CURVE
62
7
6
CONTINUOUS
10
12.5682871141
20
9.8191477913
0
VERTEX
8
_CURVE
62
7
6
CONTINUOUS
10
12.6443342657
20
9.7693724593
0
VERTEX
8
_CURVE
62
7
6
CONTINUOUS
10
12.7218381935
20
9.7220565166
0
VERTEX
8
_CURVE
62
7
6
CONTINUOUS
10
12.8018146381
20
9.6766234661
0
VERTEX
8
_CURVE
62
7
6
CONTINUOUS
10
12.8830087031
20
9.6338090278
0
VERTEX
8
_CURVE
62
7
6
CONTINUOUS
10
12.9674038131
20
9.5926358074
0
VERTEX
8
_CURVE
62
7
6
CONTINUOUS
10
13.0527471106
20
9.5542417776
0
VERTEX
8
_CURVE
62
7
6
CONTINUOUS
10
13.1421968584
20
9.5172941404
0
VERTEX
8
_CURVE
62
7
6
CONTINUOUS
10
13.2323338923
20
9.4832705241
0
VERTEX
8
_CURVE
62
7
6
CONTINUOUS
10
13.3275654003
20
9.4506185952
0
VERTEX
8
_CURVE
62
7
6
CONTINUOUS
10
13.4232476777
20
9.4210253722
0
VERTEX
8
_CURVE
62
7
6
CONTINUOUS
10
13.5249841434
20
9.3928918155
0
VERTEX
8
_CURVE
62
7
6
CONTINUOUS
10
13.6269349502
20
9.3679500930
0
VERTEX
8
_CURVE
62
7
6
CONTINUOUS
10
13.7358772785
20
9.3446917976
0
VERTEX
8
_CURVE
62
7
6
CONTINUOUS
10
13.8447947629
20
9.3247507301
0
VERTEX
8
_CURVE
62
7
6
CONTINUOUS
10
13.9623000061
20
9.3067418798
0
VERTEX
8
_CURVE
62
7
6
CONTINUOUS
10
14.0795123832
20
9.2921975549
0
VERTEX
8
_CURVE
62
7
6
CONTINUOUS
10
14.2074181860
20
9.2799947228
0
VERTEX
8
_CURVE
62
7
6
CONTINUOUS
10
14.3347549742
20
9.2714245965
0
VERTEX
8
_CURVE
62
7
6
CONTINUOUS
10
14.4747085339
20
9.2658648763
0
VERTEX
8
_CURVE
62
7
6
CONTINUOUS
10
14.6138216318
20
9.2641050589
0
SEQEND
0
POLYLINE
8
_CURVE
62
7
6
CONTINUOUS
66
1
70
0
0
VERTEX
8
_CURVE
62
7
6
CONTINUOUS
10
11.3651705292
20
13.7646395730
0
VERTEX
8
_CURVE
62
7
6
CONTINUOUS
10
11.3799050572
20
13.5999089042
0
VERTEX
8
_CURVE
62
7
6
CONTINUOUS
10
11.3968830499
20
13.4353873484
0
VERTEX
8
_CURVE
62
7
6
CONTINUOUS
10
11.4162621451
20
13.2711299195
0
VERTEX
8
_CURVE
62
7
6
CONTINUOUS
10
11.4351769363
20
13.1286792463
0
VERTEX
8
_CURVE
62
7
6
CONTINUOUS
10
11.4561632978
20
12.9865216731
0
VERTEX
8
_CURVE
62
7
6
CONTINUOUS
10
11.4793613297
20
12.8447093962
0
VERTEX
8
_CURVE
62
7
6
CONTINUOUS
10
11.5014456555
20
12.7217092873
0
VERTEX
8
_CURVE
62
7
6
CONTINUOUS
10
11.5254223113
20
12.5990644640
0
VERTEX
8
_CURVE
62
7
6
CONTINUOUS
10
11.5514050687
20
12.4768296032
0
VERTEX
8
_CURVE
62
7
6
CONTINUOUS
10
11.5759231781
20
12.3700631892
0
VERTEX
8
_CURVE
62
7
6
CONTINUOUS
10
11.6021602551
20
12.2637069285
0
VERTEX
8
_CURVE
62
7
6
CONTINUOUS
10
11.6302063481
20
12.1578139435
0
VERTEX
8
_CURVE
62
7
6
CONTINUOUS
10
11.6703630146
20
12.0181602611
0
VERTEX
8
_CURVE
62
7
6
CONTINUOUS
10
11.7141171885
20
11.8795936943
0
VERTEX
8
_CURVE
62
7
6
CONTINUOUS
10
11.7564347449
20
11.7569446627
0
VERTEX
8
_CURVE
62
7
6
CONTINUOUS
10
11.8020230881
20
11.6354752084
0
VERTEX
8
_CURVE
62
7
6
CONTINUOUS
10
11.8461379203
20
11.5270167679
0
VERTEX
8
_CURVE
62
7
6
CONTINUOUS
10
11.8932318964
20
11.4198198928
0
VERTEX
8
_CURVE
62
7
6
CONTINUOUS
10
11.9389266977
20
11.3232622736
0
VERTEX
8
_CURVE
62
7
6
CONTINUOUS
10
11.9873460558
20
11.2280431596
0
VERTEX
8
_CURVE
62
7
6
CONTINUOUS
10
12.0344854193
20
11.1416033898
0
VERTEX
8
_CURVE
62
7
6
CONTINUOUS
10
12.0841213504
20
11.0565738830
0
VERTEX
8
_CURVE
62
7
6
CONTINUOUS
10
12.1326643382
20
10.9787799460
0
VERTEX
8
_CURVE
62
7
6
CONTINUOUS
10
12.1834979778
20
10.9024641980
0
VERTEX
8
_CURVE
62
7
6
CONTINUOUS
10
12.2335113512
20
10.8320628995
0
VERTEX
8
_CURVE
62
7
6
CONTINUOUS
10
12.2856317293
20
10.7632078311
0
VERTEX
8
_CURVE
62
7
6
CONTINUOUS
10
12.3371944092
20
10.6992471419
0
VERTEX
8
_CURVE
62
7
6
CONTINUOUS
10
12.3906952204
20
10.6368993551
0
VERTEX
8
_CURVE
62
7
6
CONTINUOUS
10
12.4439704860
20
10.5785668660
0
VERTEX
8
_CURVE
62
7
6
CONTINUOUS
10
12.4990301221
20
10.5219161682
0
VERTEX
8
_CURVE
62
7
6
CONTINUOUS
10
12.5542265033
20
10.4685654563
0
VERTEX
8
_CURVE
62
7
6
CONTINUOUS
10
12.6110653158
20
10.4169685617
0
VERTEX
8
_CURVE
62
7
6
CONTINUOUS
10
12.6684801155
20
10.3680538714
0
VERTEX
8
_CURVE
62
7
6
CONTINUOUS
10
12.7274050924
20
10.3209695480
0
VERTEX
8
_CURVE
62
7
6
CONTINUOUS
10
12.7873525130
20
10.2760924566
0
VERTEX
8
_CURVE
62
7
6
CONTINUOUS
10
12.8486836366
20
10.2331257981
0
VERTEX
8
_CURVE
62
7
6
CONTINUOUS
10
12.9115356072
20
10.1919872346
0
VERTEX
8
_CURVE
62
7
6
CONTINUOUS
10
12.9756504548
20
10.1528457180
0
VERTEX
8
_CURVE
62
7
6
CONTINUOUS
10
13.0419061844
20
10.1152072234
0
VERTEX
8
_CURVE
62
7
6
CONTINUOUS
10
13.1093099800
20
10.0796652065
0
VERTEX
8
_CURVE
62
7
6
CONTINUOUS
10
13.1795634483
20
10.0453916505
0
VERTEX
8
_CURVE
62
7
6
CONTINUOUS
10
13.2508506088
20
10.0133223849
0
VERTEX
8
_CURVE
62
7
6
CONTINUOUS
10
13.3258753145
20
9.9823341914
0
VERTEX
8
_CURVE
62
7
6
CONTINUOUS
10
13.4018186322
20
9.9536692092
0
VERTEX
8
_CURVE
62
7
6
CONTINUOUS
10
13.4824474211
20
9.9260252699
0
VERTEX
8
_CURVE
62
7
6
CONTINUOUS
10
13.5638787134
20
9.9008408699
0
VERTEX
8
_CURVE
62
7
6
CONTINUOUS
10
13.6509382947
20
9.8767674606
0
VERTEX
8
_CURVE
62
7
6
CONTINUOUS
10
13.7386785351
20
9.8553035287
0
VERTEX
8
_CURVE
62
7
6
CONTINUOUS
10
13.8329898104
20
9.8351705198
0
VERTEX
8
_CURVE
62
7
6
CONTINUOUS
10
13.9278506118
20
9.8178042018
0
VERTEX
8
_CURVE
62
7
6
CONTINUOUS
10
14.0308309931
20
9.8020231030
0
VERTEX
8
_CURVE
62
7
6
CONTINUOUS
10
14.1342214975
20
9.7891954551
0
VERTEX
8
_CURVE
62
7
6
CONTINUOUS
10
14.2478067495
20
9.7783613809
0
VERTEX
8
_CURVE
62
7
6
CONTINUOUS
10
14.3616537627
20
9.7707005274
0
VERTEX
8
_CURVE
62
7
6
CONTINUOUS
10
14.4876279411
20
9.7656984074
0
VERTEX
8
_CURVE
62
7
6
CONTINUOUS
10
14.6136835052
20
9.7641050398
0
SEQEND
0
LINE
8
_CURVE
62
8
6
PHANTOM
10
10.1289913039
20
27.7445879486
11
10.1289913039
21
10.2445879486
0
LINE
8
_CURVE
62
8
6
PHANTOM
10
18.2539913039
20
29.7250733160
11
18.2539913039
21
28.2250733160
0
LINE
8
_CURVE
62
8
6
PHANTOM
10
18.2539913039
20
8.2641026004
11
18.2539913039
21
9.7641026004
0
LINE
8
_CURVE
62
8
6
PHANTOM
10
9.6485059932
20
18.9945879486
11
11.1485059932
21
18.9945879486
0
LINE
8
_CURVE
62
8
6
PHANTOM
10
25.3594766147
20
18.9945879486
11
26.8594766147
21
18.9945879486
0
POLYLINE
8
_CURVE
62
7
6
CONTINUOUS
66
1
70
0
0
VERTEX
8
_CURVE
62
7
6
CONTINUOUS
10
25.1428110152
20
24.2245489078
0
VERTEX
8
_CURVE
62
7
6
CONTINUOUS
10
25.1280685305
20
24.3893854357
0
VERTEX
8
_CURVE
62
7
6
CONTINUOUS
10
25.1110797666
20
24.5540125820
0
VERTEX
8
_CURVE
62
7
6
CONTINUOUS
10
25.0916822038
20
24.7183745603
0
VERTEX
8
_CURVE
62
7
6
CONTINUOUS
10
25.0727437042
20
24.8609068370
0
VERTEX
8
_CURVE
62
7
6
CONTINUOUS
10
25.0517287342
20
25.0031452238
0
VERTEX
8
_CURVE
62
7
6
CONTINUOUS
10
25.0285015715
20
25.1450380771
0
VERTEX
8
_CURVE
62
7
6
CONTINUOUS
10
25.0063967813
20
25.2680942783
0
VERTEX
8
_CURVE
62
7
6
CONTINUOUS
10
24.9824013646
20
25.3907952854
0
VERTEX
8
_CURVE
62
7
6
CONTINUOUS
10
24.9563999296
20
25.5130862060
0
VERTEX
8
_CURVE
62
7
6
CONTINUOUS
10
24.9318894882
20
25.6197953387
0
VERTEX
8
_CURVE
62
7
6
CONTINUOUS
10
24.9056612703
20
25.7260945277
0
VERTEX
8
_CURVE
62
7
6
CONTINUOUS
10
24.8776243568
20
25.8319304105
0
VERTEX
8
_CURVE
62
7
6
CONTINUOUS
10
24.8374979235
20
25.9714464604
0
VERTEX
8
_CURVE
62
7
6
CONTINUOUS
10
24.7937773104
20
26.1098761703
0
VERTEX
8
_CURVE
62
7
6
CONTINUOUS
10
24.7514766526
20
26.2324514010
0
VERTEX
8
_CURVE
62
7
6
CONTINUOUS
10
24.7059076086
20
26.3538477035
0
VERTEX
8
_CURVE
62
7
6
CONTINUOUS
10
24.6617943370
20
26.4622855373
0
VERTEX
8
_CURVE
62
7
6
CONTINUOUS
10
24.6147029344
20
26.5694620591
0
VERTEX
8
_CURVE
62
7
6
CONTINUOUS
10
24.5690087500
20
26.6660076256
0
VERTEX
8
_CURVE
62
7
6
CONTINUOUS
10
24.5205909333
20
26.7612150025
0
VERTEX
8
_CURVE
62
7
6
CONTINUOUS
10
24.4734531844
20
26.8476453615
0
VERTEX
8
_CURVE
62
7
6
CONTINUOUS
10
24.4238196014
20
26.9326657783
0
VERTEX
8
_CURVE
62
7
6
CONTINUOUS
10
24.3752803167
20
27.0104502888
0
VERTEX
8
_CURVE
62
7
6
CONTINUOUS
10
24.3244511249
20
27.0867570368
0
VERTEX
8
_CURVE
62
7
6
CONTINUOUS
10
24.2744458778
20
27.1571458033
0
VERTEX
8
_CURVE
62
7
6
CONTINUOUS
10
24.2223343832
20
27.2259888774
0
VERTEX
8
_CURVE
62
7
6
CONTINUOUS
10
24.1707874259
20
27.2899304788
0
VERTEX
8
_CURVE
62
7
6
CONTINUOUS
10
24.1173031921
20
27.3522599038
0
VERTEX
8
_CURVE
62
7
6
CONTINUOUS
10
24.0640528746
20
27.4105664759
0
VERTEX
8
_CURVE
62
7
6
CONTINUOUS
10
24.0090192338
20
27.4671922924
0
VERTEX
8
_CURVE
62
7
6
CONTINUOUS
10
23.9538514645
20
27.5205174300
0
VERTEX
8
_CURVE
62
7
6
CONTINUOUS
10
23.8970421303
20
27.5720897368
0
VERTEX
8
_CURVE
62
7
6
CONTINUOUS
10
23.8396479137
20
27.6209888440
0
VERTEX
8
_CURVE
62
7
6
CONTINUOUS
10
23.7807441857
20
27.6680584884
0
VERTEX
8
_CURVE
62
7
6
CONTINUOUS
10
23.7207916705
20
27.7129422564
0
VERTEX
8
_CURVE
62
7
6
CONTINUOUS
10
23.6594556321
20
27.7559159949
0
VERTEX
8
_CURVE
62
7
6
CONTINUOUS
10
23.5965592779
20
27.7970879381
0
VERTEX
8
_CURVE
62
7
6
CONTINUOUS
10
23.5323992656
20
27.8362618272
0
VERTEX
8
_CURVE
62
7
6
CONTINUOUS
10
23.4660810735
20
27.8739415143
0
VERTEX
8
_CURVE
62
7
6
CONTINUOUS
10
23.3986141440
20
27.9095238953
0
VERTEX
8
_CURVE
62
7
6
CONTINUOUS
10
23.3283224988
20
27.9438257669
0
VERTEX
8
_CURVE
62
7
6
CONTINUOUS
10
23.2569970435
20
27.9759237583
0
VERTEX
8
_CURVE
62
7
6
CONTINUOUS
10
23.1820027354
20
28.0069127664
0
VERTEX
8
_CURVE
62
7
6
CONTINUOUS
10
23.1060899924
20
28.0355799884
0
VERTEX
8
_CURVE
62
7
6
CONTINUOUS
10
23.0255903291
20
28.0631937862
0
VERTEX
8
_CURVE
62
7
6
CONTINUOUS
10
22.9442889035
20
28.0883516685
0
VERTEX
8
_CURVE
62
7
6
CONTINUOUS
10
22.8574259732
20
28.1123835520
0
VERTEX
8
_CURVE
62
7
6
CONTINUOUS
10
22.7698827737
20
28.1338083940
0
VERTEX
8
_CURVE
62
7
6
CONTINUOUS
10
22.6757427248
20
28.1539079811
0
VERTEX
8
_CURVE
62
7
6
CONTINUOUS
10
22.5810536006
20
28.1712438968
0
VERTEX
8
_CURVE
62
7
6
CONTINUOUS
10
22.4781136116
20
28.1870229793
0
VERTEX
8
_CURVE
62
7
6
CONTINUOUS
10
22.3747643889
20
28.1998571537
0
VERTEX
8
_CURVE
62
7
6
CONTINUOUS
10
22.2610515306
20
28.2107269138
0
VERTEX
8
_CURVE
62
7
6
CONTINUOUS
10
22.1470762898
20
28.2184235332
0
VERTEX
8
_CURVE
62
7
6
CONTINUOUS
10
22.0207274570
20
28.2234635940
0
VERTEX
8
_CURVE
62
7
6
CONTINUOUS
10
21.8942962094
20
28.2250708530
0
SEQEND
0
POLYLINE
8
_CURVE
62
7
6
CONTINUOUS
66
1
70
0
0
VERTEX
8
_CURVE
62
7
6
CONTINUOUS
10
25.6411013615
20
24.2658615071
0
VERTEX
8
_CURVE
62
7
6
CONTINUOUS
10
25.6257747251
20
24.4372278465
0
VERTEX
8
_CURVE
62
7
6
CONTINUOUS
10
25.6080606816
20
24.6088776401
0
VERTEX
8
_CURVE
62
7
6
CONTINUOUS
10
25.5877727347
20
24.7807779667
0
VERTEX
8
_CURVE
62
7
6
CONTINUOUS
10
25.5679058293
20
24.9303007425
0
VERTEX
8
_CURVE
62
7
6
CONTINUOUS
10
25.5457906726
20
25.0799811180
0
VERTEX
8
_CURVE
62
7
6
CONTINUOUS
10
25.5212624732
20
25.2298124467
0
VERTEX
8
_CURVE
62
7
6
CONTINUOUS
10
25.4978387715
20
25.3602100767
0
VERTEX
8
_CURVE
62
7
6
CONTINUOUS
10
25.4723209178
20
25.4906922155
0
VERTEX
8
_CURVE
62
7
6
CONTINUOUS
10
25.4445638341
20
25.6212342633
0
VERTEX
8
_CURVE
62
7
6
CONTINUOUS
10
25.4182994060
20
25.7355794959
0
VERTEX
8
_CURVE
62
7
6
CONTINUOUS
10
25.3900858533
20
25.8499224888
0
VERTEX
8
_CURVE
62
7
6
CONTINUOUS
10
25.3598025189
20
25.9642339249
0
VERTEX
8
_CURVE
62
7
6
CONTINUOUS
10
25.3162388296
20
26.1156959866
0
VERTEX
8
_CURVE
62
7
6
CONTINUOUS
10
25.2684689499
20
26.2669361822
0
VERTEX
8
_CURVE
62
7
6
CONTINUOUS
10
25.2219491187
20
26.4017323434
0
VERTEX
8
_CURVE
62
7
6
CONTINUOUS
10
25.1715039384
20
26.5361114073
0
VERTEX
8
_CURVE
62
7
6
CONTINUOUS
10
25.1223475939
20
26.6569421569
0
VERTEX
8
_CURVE
62
7
6
CONTINUOUS
10
25.0695218684
20
26.7771631359
0
VERTEX
8
_CURVE
62
7
6
CONTINUOUS
10
25.0179203937
20
26.8861862929
0
VERTEX
8
_CURVE
62
7
6
CONTINUOUS
10
24.9628789424
20
26.9944130234
0
VERTEX
8
_CURVE
62
7
6
CONTINUOUS
10
24.9089407710
20
27.0933091881
0
VERTEX
8
_CURVE
62
7
6
CONTINUOUS
10
24.8517837213
20
27.1912130893
0
VERTEX
8
_CURVE
62
7
6
CONTINUOUS
10
24.7955409060
20
27.2813397692
0
VERTEX
8
_CURVE
62
7
6
CONTINUOUS
10
24.7362960084
20
27.3702773922
0
VERTEX
8
_CURVE
62
7
6
CONTINUOUS
10
24.6776821597
20
27.4527814988
0
VERTEX
8
_CURVE
62
7
6
CONTINUOUS
10
24.6162761649
20
27.5339009958
0
VERTEX
8
_CURVE
62
7
6
CONTINUOUS
10
24.5552352784
20
27.6096173596
0
VERTEX
8
_CURVE
62
7
6
CONTINUOUS
10
24.4916150649
20
27.6837574481
0
VERTEX
8
_CURVE
62
7
6
CONTINUOUS
10
24.4280140946
20
27.7533960196
0
VERTEX
8
_CURVE
62
7
6
CONTINUOUS
10
24.3620455089
20
27.8212720138
0
VERTEX
8
_CURVE
62
7
6
CONTINUOUS
10
24.2957081005
20
27.8853923544
0
VERTEX
8
_CURVE
62
7
6
CONTINUOUS
10
24.2272237266
20
27.9475629229
0
VERTEX
8
_CURVE
62
7
6
CONTINUOUS
10
24.1579005982
20
28.0066245381
0
VERTEX
8
_CURVE
62
7
6
CONTINUOUS
10
24.0866629283
20
28.0635502367
0
VERTEX
8
_CURVE
62
7
6
CONTINUOUS
10
24.0141080520
20
28.1178684361
0
VERTEX
8
_CURVE
62
7
6
CONTINUOUS
10
23.9398718297
20
28.1698806747
0
VERTEX
8
_CURVE
62
7
6
CONTINUOUS
10
23.8637813761
20
28.2196895532
0
VERTEX
8
_CURVE
62
7
6
CONTINUOUS
10
23.7862374385
20
28.2670357609
0
VERTEX
8
_CURVE
62
7
6
CONTINUOUS
10
23.7062052078
20
28.3125074486
0
VERTEX
8
_CURVE
62
7
6
CONTINUOUS
10
23.6249573623
20
28.3553587835
0
VERTEX
8
_CURVE
62
7
6
CONTINUOUS
10
23.5405383890
20
28.3965553426
0
VERTEX
8
_CURVE
62
7
6
CONTINUOUS
10
23.4551645935
20
28.4349767205
0
VERTEX
8
_CURVE
62
7
6
CONTINUOUS
10
23.3657547448
20
28.4719236482
0
VERTEX
8
_CURVE
62
7
6
CONTINUOUS
10
23.2756465615
20
28.5059527872
0
VERTEX
8
_CURVE
62
7
6
CONTINUOUS
10
23.1805498406
20
28.5385753143
0
VERTEX
8
_CURVE
62
7
6
CONTINUOUS
10
23.0849895008
20
28.5681467726
0
VERTEX
8
_CURVE
62
7
6
CONTINUOUS
10
22.9834348331
20
28.5962448570
0
VERTEX
8
_CURVE
62
7
6
CONTINUOUS
10
22.8816587603
20
28.6211543993
0
VERTEX
8
_CURVE
62
7
6
CONTINUOUS
10
22.7728645941
20
28.6443846009
0
VERTEX
8
_CURVE
62
7
6
CONTINUOUS
10
22.6641211972
20
28.6642953894
0
VERTEX
8
_CURVE
62
7
6
CONTINUOUS
10
22.5466802776
20
28.6822996717
0
VERTEX
8
_CURVE
62
7
6
CONTINUOUS
10
22.4295563358
20
28.6968459287
0
VERTEX
8
_CURVE
62
7
6
CONTINUOUS
10
22.3015483425
20
28.7090847685
0
VERTEX
8
_CURVE
62
7
6
CONTINUOUS
10
22.1740903638
20
28.7176932396
0
VERTEX
8
_CURVE
62
7
6
CONTINUOUS
10
22.0337150688
20
28.7232952309
0
VERTEX
8
_CURVE
62
7
6
CONTINUOUS
10
21.8941635301
20
28.7250708354
0
SEQEND
0
LINE
8
_CURVE
62
8
6
PHANTOM
10
26.3789913039
20
27.7445879486
11
26.3789913039
21
10.2445879486
0
POLYLINE
8
_CURVE
62
7
6
CONTINUOUS
66
1
70
0
0
VERTEX
8
_CURVE
62
7
6
CONTINUOUS
10
14.6136863985
20
28.2250708530
0
VERTEX
8
_CURVE
62
7
6
CONTINUOUS
10
14.4872551509
20
28.2234635940
0
VERTEX
8
_CURVE
62
7
6
CONTINUOUS
10
14.3609063181
20
28.2184235332
0
VERTEX
8
_CURVE
62
7
6
CONTINUOUS
10
14.2469310773
20
28.2107269138
0
VERTEX
8
_CURVE
62
7
6
CONTINUOUS
10
14.1332182190
20
28.1998571537
0
VERTEX
8
_CURVE
62
7
6
CONTINUOUS
10
14.0298689963
20
28.1870229793
0
VERTEX
8
_CURVE
62
7
6
CONTINUOUS
10
13.9269290073
20
28.1712438968
0
VERTEX
8
_CURVE
62
7
6
CONTINUOUS
10
13.8322398831
20
28.1539079811
0
VERTEX
8
_CURVE
62
7
6
CONTINUOUS
10
13.7380998342
20
28.1338083940
0
VERTEX
8
_CURVE
62
7
6
CONTINUOUS
10
13.6505566347
20
28.1123835520
0
VERTEX
8
_CURVE
62
7
6
CONTINUOUS
10
13.5636937044
20
28.0883516685
0
VERTEX
8
_CURVE
62
7
6
CONTINUOUS
10
13.4823922788
20
28.0631937862
0
VERTEX
8
_CURVE
62
7
6
CONTINUOUS
10
13.4018926155
20
28.0355799884
0
VERTEX
8
_CURVE
62
7
6
CONTINUOUS
10
13.3259798725
20
28.0069127664
0
VERTEX
8
_CURVE
62
7
6
CONTINUOUS
10
13.2509855644
20
27.9759237583
0
VERTEX
8
_CURVE
62
7
6
CONTINUOUS
10
13.1796601091
20
27.9438257669
0
VERTEX
8
_CURVE
62
7
6
CONTINUOUS
10
13.1093684639
20
27.9095238953
0
VERTEX
8
_CURVE
62
7
6
CONTINUOUS
10
13.0419015344
20
27.8739415143
0
VERTEX
8
_CURVE
62
7
6
CONTINUOUS
10
12.9755833423
20
27.8362618272
0
VERTEX
8
_CURVE
62
7
6
CONTINUOUS
10
12.9114233300
20
27.7970879381
0
VERTEX
8
_CURVE
62
7
6
CONTINUOUS
10
12.8485269758
20
27.7559159949
0
VERTEX
8
_CURVE
62
7
6
CONTINUOUS
10
12.7871909374
20
27.7129422564
0
VERTEX
8
_CURVE
62
7
6
CONTINUOUS
10
12.7272384222
20
27.6680584884
0
VERTEX
8
_CURVE
62
7
6
CONTINUOUS
10
12.6683346942
20
27.6209888440
0
VERTEX
8
_CURVE
62
7
6
CONTINUOUS
10
12.6109404776
20
27.5720897368
0
VERTEX
8
_CURVE
62
7
6
CONTINUOUS
10
12.5541311434
20
27.5205174300
0
VERTEX
8
_CURVE
62
7
6
CONTINUOUS
10
12.4989633741
20
27.4671922924
0
VERTEX
8
_CURVE
62
7
6
CONTINUOUS
10
12.4439297333
20
27.4105664759
0
VERTEX
8
_CURVE
62
7
6
CONTINUOUS
10
12.3906794158
20
27.3522599038
0
VERTEX
8
_CURVE
62
7
6
CONTINUOUS
10
12.3371951820
20
27.2899304788
0
VERTEX
8
_CURVE
62
7
6
CONTINUOUS
10
12.2856482247
20
27.2259888774
0
VERTEX
8
_CURVE
62
7
6
CONTINUOUS
10
12.2335367300
20
27.1571458033
0
VERTEX
8
_CURVE
62
7
6
CONTINUOUS
10
12.1835314830
20
27.0867570368
0
VERTEX
8
_CURVE
62
7
6
CONTINUOUS
10
12.1327022912
20
27.0104502888
0
VERTEX
8
_CURVE
62
7
6
CONTINUOUS
10
12.0841630065
20
26.9326657783
0
VERTEX
8
_CURVE
62
7
6
CONTINUOUS
10
12.0345294234
20
26.8476453615
0
VERTEX
8
_CURVE
62
7
6
CONTINUOUS
10
11.9873916746
20
26.7612150025
0
VERTEX
8
_CURVE
62
7
6
CONTINUOUS
10
11.9389738579
20
26.6660076256
0
VERTEX
8
_CURVE
62
7
6
CONTINUOUS
10
11.8932796735
20
26.5694620591
0
VERTEX
8
_CURVE
62
7
6
CONTINUOUS
10
11.8461882709
20
26.4622855373
0
VERTEX
8
_CURVE
62
7
6
CONTINUOUS
10
11.8020749993
20
26.3538477035
0
VERTEX
8
_CURVE
62
7
6
CONTINUOUS
10
11.7565059553
20
26.2324514010
0
VERTEX
8
_CURVE
62
7
6
CONTINUOUS
10
11.7142052975
20
26.1098761703
0
VERTEX
8
_CURVE
62
7
6
CONTINUOUS
10
11.6704846844
20
25.9714464604
0
VERTEX
8
_CURVE
62
7
6
CONTINUOUS
10
11.6303582511
20
25.8319304105
0
VERTEX
8
_CURVE
62
7
6
CONTINUOUS
10
11.6023213375
20
25.7260945277
0
VERTEX
8
_CURVE
62
7
6
CONTINUOUS
10
11.5760931197
20
25.6197953387
0
VERTEX
8
_CURVE
62
7
6
CONTINUOUS
10
11.5515826783
20
25.5130862060
0
VERTEX
8
_CURVE
62
7
6
CONTINUOUS
10
11.5255812433
20
25.3907952854
0
VERTEX
8
_CURVE
62
7
6
CONTINUOUS
10
11.5015858266
20
25.2680942783
0
VERTEX
8
_CURVE
62
7
6
CONTINUOUS
10
11.4794810364
20
25.1450380771
0
VERTEX
8
_CURVE
62
7
6
CONTINUOUS
10
11.4562538737
20
25.0031452238
0
VERTEX
8
_CURVE
62
7
6
CONTINUOUS
10
11.4352389037
20
24.8609068370
0
VERTEX
8
_CURVE
62
7
6
CONTINUOUS
10
11.4163004041
20
24.7183745603
0
VERTEX
8
_CURVE
62
7
6
CONTINUOUS
10
11.3969028413
20
24.5540125820
0
VERTEX
8
_CURVE
62
7
6
CONTINUOUS
10
11.3799140774
20
24.3893854357
0
VERTEX
8
_CURVE
62
7
6
CONTINUOUS
10
11.3651715927
20
24.2245489078
0
SEQEND
0
LINE
8
_CURVE
62
7
6
CONTINUOUS
10
21.8942962555
20
28.2250733160
11
14.6136863524
21
28.2250733160
0
POLYLINE
8
_CURVE
62
7
6
CONTINUOUS
66
1
70
0
0
VERTEX
8
_CURVE
62
7
6
CONTINUOUS
10
14.6138190778
20
28.7250708354
0
VERTEX
8
_CURVE
62
7
6
CONTINUOUS
10
14.4742675391
20
28.7232952309
0
VERTEX
8
_CURVE
62
7
6
CONTINUOUS
10
14.3338922441
20
28.7176932396
0
VERTEX
8
_CURVE
62
7
6
CONTINUOUS
10
14.2064342654
20
28.7090847685
0
VERTEX
8
_CURVE
62
7
6
CONTINUOUS
10
14.0784262721
20
28.6968459287
0
VERTEX
8
_CURVE
62
7
6
CONTINUOUS
10
13.9613023303
20
28.6822996717
0
VERTEX
8
_CURVE
62
7
6
CONTINUOUS
10
13.8438614107
20
28.6642953894
0
VERTEX
8
_CURVE
62
7
6
CONTINUOUS
10
13.7351180138
20
28.6443846009
0
VERTEX
8
_CURVE
62
7
6
CONTINUOUS
10
13.6263238476
20
28.6211543993
0
VERTEX
8
_CURVE
62
7
6
CONTINUOUS
10
13.5245477748
20
28.5962448570
0
VERTEX
8
_CURVE
62
7
6
CONTINUOUS
10
13.4229931071
20
28.5681467726
0
VERTEX
8
_CURVE
62
7
6
CONTINUOUS
10
13.3274327673
20
28.5385753143
0
VERTEX
8
_CURVE
62
7
6
CONTINUOUS
10
13.2323360464
20
28.5059527872
0
VERTEX
8
_CURVE
62
7
6
CONTINUOUS
10
13.1422278631
20
28.4719236482
0
VERTEX
8
_CURVE
62
7
6
CONTINUOUS
10
13.0528180144
20
28.4349767205
0
VERTEX
8
_CURVE
62
7
6
CONTINUOUS
10
12.9674442189
20
28.3965553426
0
VERTEX
8
_CURVE
62
7
6
CONTINUOUS
10
12.8830252455
20
28.3553587835
0
VERTEX
8
_CURVE
62
7
6
CONTINUOUS
10
12.8017774001
20
28.3125074486
0
VERTEX
8
_CURVE
62
7
6
CONTINUOUS
10
12.7217451694
20
28.2670357609
0
VERTEX
8
_CURVE
62
7
6
CONTINUOUS
10
12.6442012318
20
28.2196895532
0
VERTEX
8
_CURVE
62
7
6
CONTINUOUS
10
12.5681107782
20
28.1698806747
0
VERTEX
8
_CURVE
62
7
6
CONTINUOUS
10
12.4938745559
20
28.1178684361
0
VERTEX
8
_CURVE
62
7
6
CONTINUOUS
10
12.4213196796
20
28.0635502367
0
VERTEX
8
_CURVE
62
7
6
CONTINUOUS
10
12.3500820097
20
28.0066245381
0
VERTEX
8
_CURVE
62
7
6
CONTINUOUS
10
12.2807588813
20
27.9475629229
0
VERTEX
8
_CURVE
62
7
6
CONTINUOUS
10
12.2122745074
20
27.8853923544
0
VERTEX
8
_CURVE
62
7
6
CONTINUOUS
10
12.1459370990
20
27.8212720138
0
VERTEX
8
_CURVE
62
7
6
CONTINUOUS
10
12.0799685133
20
27.7533960196
0
VERTEX
8
_CURVE
62
7
6
CONTINUOUS
10
12.0163675430
20
27.6837574481
0
VERTEX
8
_CURVE
62
7
6
CONTINUOUS
10
11.9527473295
20
27.6096173596
0
VERTEX
8
_CURVE
62
7
6
CONTINUOUS
10
11.8917064430
20
27.5339009958
0
VERTEX
8
_CURVE
62
7
6
CONTINUOUS
10
11.8303004482
20
27.4527814988
0
VERTEX
8
_CURVE
62
7
6
CONTINUOUS
10
11.7716865995
20
27.3702773922
0
VERTEX
8
_CURVE
62
7
6
CONTINUOUS
10
11.7124417019
20
27.2813397692
0
VERTEX
8
_CURVE
62
7
6
CONTINUOUS
10
11.6561988866
20
27.1912130893
0
VERTEX
8
_CURVE
62
7
6
CONTINUOUS
10
11.5990418369
20
27.0933091881
0
VERTEX
8
_CURVE
62
7
6
CONTINUOUS
10
11.5451036655
20
26.9944130234
0
VERTEX
8
_CURVE
62
7
6
CONTINUOUS
10
11.4900622142
20
26.8861862929
0
VERTEX
8
_CURVE
62
7
6
CONTINUOUS
10
11.4384607395
20
26.7771631359
0
VERTEX
8
_CURVE
62
7
6
CONTINUOUS
10
11.3856350140
20
26.6569421569
0
VERTEX
8
_CURVE
62
7
6
CONTINUOUS
10
11.3364786695
20
26.5361114073
0
VERTEX
8
_CURVE
62
7
6
CONTINUOUS
10
11.2860334892
20
26.4017323434
0
VERTEX
8
_CURVE
62
7
6
CONTINUOUS
10
11.2395136580
20
26.2669361822
0
VERTEX
8
_CURVE
62
7
6
CONTINUOUS
10
11.1917437783
20
26.1156959866
0
VERTEX
8
_CURVE
62
7
6
CONTINUOUS
10
11.1481800890
20
25.9642339249
0
VERTEX
8
_CURVE
62
7
6
CONTINUOUS
10
11.1178967546
20
25.8499224888
0
VERTEX
8
_CURVE
62
7
6
CONTINUOUS
10
11.0896832019
20
25.7355794959
0
VERTEX
8
_CURVE
62
7
6
CONTINUOUS
10
11.0634187738
20
25.6212342633
0
VERTEX
8
_CURVE
62
7
6
CONTINUOUS
10
11.0356616901
20
25.4906922155
0
VERTEX
8
_CURVE
62
7
6
CONTINUOUS
10
11.0101438364
20
25.3602100767
0
VERTEX
8
_CURVE
62
7
6
CONTINUOUS
10
10.9867201347
20
25.2298124467
0
VERTEX
8
_CURVE
62
7
6
CONTINUOUS
10
10.9621919353
20
25.0799811180
0
VERTEX
8
_CURVE
62
7
6
CONTINUOUS
10
10.9400767786
20
24.9303007425
0
VERTEX
8
_CURVE
62
7
6
CONTINUOUS
10
10.9202098732
20
24.7807779667
0
VERTEX
8
_CURVE
62
7
6
CONTINUOUS
10
10.8999774158
20
24.6093800218
0
VERTEX
8
_CURVE
62
7
6
CONTINUOUS
10
10.8823043710
20
24.4382310509
0
VERTEX
8
_CURVE
62
7
6
CONTINUOUS
10
10.8670058739
20
24.2673636872
0
SEQEND
0
LINE
8
_CURVE
62
7
6
CONTINUOUS
10
21.8942962555
20
28.7250733160
11
14.6136863524
21
28.7250733160
0
LINE
8
_CURVE
62
8
6
PHANTOM
10
24.8789913039
20
29.2445879486
11
11.6289913039
21
29.2445879486
0
LINE
8
_CURVE
62
8
6
PHANTOM
10
24.8789913039
20
8.7445879486
11
26.3789913039
21
10.2445879486
0
LINE
8
_CURVE
62
8
6
PHANTOM
10
26.3789913039
20
27.7445879486
11
24.8789913039
21
29.2445879486
0
CIRCLE
8
0
62
2
6
CONTINUOUS
10
14.9592538003
20
22.0513647602
40
0.2513022906
0
ARC
8
0
62
2
6
CONTINUOUS
10
14.9814985967
20
25.4066709546
40
0.0271961756
50
260.4787245939
51
99.5212754061
0
CIRCLE
8
0
62
2
6
CONTINUOUS
10
14.7818776828
20
25.3832535934
40
0.0437959350
0
CIRCLE
8
0
62
2
6
CONTINUOUS
10
14.7823091209
20
25.3832542879
40
0.0514756023
0
ARC
8
0
62
2
6
CONTINUOUS
10
14.6893554137
20
25.3831794757
40
0.0513304411
50
47.5048873671
51
180.0087362707
0
ARC
8
0
62
2
6
CONTINUOUS
10
14.6899304040
20
25.3836857806
40
0.0519079771
50
180.5675053294
51
310.5520051654
0
CIRCLE
8
0
62
2
6
CONTINUOUS
10
14.1764774898
20
25.3726945657
40
0.0317997452
0
CIRCLE
8
0
62
2
6
CONTINUOUS
10
15.1144652510
20
25.6409533791
40
0.0202280646
0
ARC
8
0
62
2
6
CONTINUOUS
10
14.9063992222
20
25.7090559390
40
0.2245560651
50
59.2085551990
51
93.5831215674
0
ARC
8
0
62
2
6
CONTINUOUS
10
14.5919489658
20
25.8028199209
40
0.2039397004
50
223.4269507726
51
258.0242403069
0
ARC
8
0
62
2
6
CONTINUOUS
10
13.4315987728
20
25.7337003555
40
0.1142552807
50
230.1562195028
51
275.4518816802
0
ARC
8
0
62
2
6
CONTINUOUS
10
12.9148065910
20
25.7978436166
40
0.1278237007
50
56.1755396367
51
96.4463209909
0
ARC
8
0
62
2
6
CONTINUOUS
10
12.3745659076
20
25.7652348034
40
0.1597808471
50
87.4638787987
51
119.6947324667
0
ARC
8
_CURVE
62
7
6
CONTINUOUS
10
-37.8710086961
20
18.9945879486
40
63.2304853108
50
355.2555052761
51
4.7445061970
0
ARC
8
_CURVE
62
7
6
CONTINUOUS
10
74.3789913039
20
18.9945879486
40
63.2304853108
50
175.2554938030
51
184.7444947239
0
ARC
8
_CURVE
62
7
6
CONTINUOUS
10
-37.8710086961
20
18.9945879486
40
63.7304853108
50
355.2555052761
51
4.7445061970
0
ARC
8
_CURVE
62
7
6
CONTINUOUS
10
74.3789913039
20
18.9945879486
40
63.7304853108
50
175.2541780430
51
184.7444947239
0
ENDSEC
0
EOF
