999
DXF file: 1033457-7.dxf
999
Pro/ENGINEER 2005030 by Parametric Technology Corporation
0
SECTION
2
HEADER
9
$EXTMAX
10
34.0000000000
20
22.0000000000
30
0.0000000000
9
$EXTMIN
10
0.0000000000
20
0.0000000000
30
0.0000000000
9
$LIMMIN
10
0.0000000000
20
0.0000000000
9
$LIMMAX
10
34.0000000000
20
22.0000000000
9
$VIEWCTR
10
17.0000000000
20
11.0000000000
9
$VIEWSIZE
40
22.0000000000
9
$CLAYER
8
0
9
$LTSCALE
40
1.8700000000
9
$CELTYPE
6
BYLAYER
9
$DIMSCALE
40
1
9
$DIMASZ
40
0.1875000000
9
$DIMEXO
40
0.2125000000
9
$DIMDLI
40
1.2920000000
9
$DIMEXE
40
0.6120000000
9
$DIMCEN
40
0.3060000000
9
$DIMLFAC
40
1.0000000000
9
$DIMBLK
1
_FILLED
9
$DIMTXT
40
0.1562500000
9
$PDMODE
70
3
9
$PDSIZE
40
0.3125000000
0
ENDSEC
0
SECTION
2
TABLES
0
TABLE
2
LTYPE
70
6
0
LTYPE
2
BYBLOCK
70
0
3

72
65
73
0
40
0.0
0
LTYPE
2
BYLAYER
70
0
3

72
65
73
0
40
0.0
0
LTYPE
2
CONTINUOUS
70
64
3
Solid line
72
65
73
0
40
0
0
LTYPE
2
CENTER
70
64
3
____ _ ____ _ ____ _ ____ _ ____ _ ____ _ ____
72
65
73
4
40
0.6
49
0.375
49
-0.075
49
0.075
49
-0.075
0
LTYPE
2
HIDDEN
70
64
3
- - - - - - - - - - - - - - - - - - - -
72
65
73
2
40
0.2
49
0.1
49
-0.1
0
LTYPE
2
PHANTOM
70
64
3
_____ _ _ _____ _ _ _____ _ _ _____
72
65
73
6
40
0.8
49
0.45
49
-0.05
49
0.1
49
-0.05
49
0.1
49
-0.05
0
LTYPE
2
DOT
70
64
3
. . . . . . . . . . . . . . . . . . . .
72
65
73
2
40
0.2
49
0.1
49
-0.1
0
LTYPE
2
DASHED
70
64
3
- - - - - - - - - - - - - - - - - - - -
72
65
73
2
40
0.2
49
0.1
49
-0.1
0
ENDTAB
0
TABLE
2
LAYER
70
36
0
LAYER
2
0
70
0
62
7
6
CONTINUOUS
0
LAYER
2
DEFAULT_1
70
0
62
7
6
CENTER
0
LAYER
2
DEFAULT_2
70
0
62
8
6
HIDDEN
0
LAYER
2
DEFAULT_3
70
0
62
7
6
PHANTOM
0
LAYER
2
_2D_DELETED_OBJS
70
0
62
7
6
CONTINUOUS
0
LAYER
2
DATUMS
70
0
62
7
6
CONTINUOUS
0
LAYER
2
DATUM_AXIS
70
0
62
7
6
CONTINUOUS
0
LAYER
2
DATUM_CSYS
70
0
62
7
6
CONTINUOUS
0
LAYER
2
DATUM_PLANE
70
0
62
7
6
CONTINUOUS
0
LAYER
2
DATUM_POINT
70
0
62
7
6
CONTINUOUS
0
LAYER
2
_CURVE
70
0
62
7
6
CONTINUOUS
0
LAYER
2
_SURFACE
70
0
62
7
6
CONTINUOUS
0
LAYER
2
__REF_CURVE
70
0
62
7
6
CONTINUOUS
0
LAYER
2
__REF_SURFACE
70
0
62
7
6
CONTINUOUS
0
LAYER
2
___NOTE
70
0
62
7
6
CONTINUOUS
0
LAYER
2
___SYMBOL
70
0
62
7
6
CONTINUOUS
0
ENDTAB
0
TABLE
2
STYLE
70
1
0
STYLE
2
STANDARD
70
0
40
0.0
41
0.8000000000
50
0.0
71
0
42
0.2
3
txt
4

0
ENDTAB
0
ENDSEC
0
SECTION
2
BLOCKS
0
BLOCK
8
0
62
2
6
CONTINUOUS
2
*D0
70
65
10
0.0000000000
20
0.0000000000
0
TEXT
8
0
62
2
6
CONTINUOUS
10
9.5839489068
20
12.9175372943
7
STANDARD
40
0.1562500000
1
%%c
41
1.3333333333
72
0
0
TEXT
8
0
62
2
6
CONTINUOUS
10
10.5422822401
20
12.9175372943
7
STANDARD
40
0.1562500000
1
"
41
0.8000000000
72
0
0
TEXT
8
0
62
2
6
CONTINUOUS
10
9.4381155734
20
12.6831622943
7
STANDARD
40
0.1562500000
1
[46,355 cm]
41
0.8000000000
72
0
0
TEXT
8
0
62
2
6
CONTINUOUS
10
9.7922822401
20
12.9175372943
7
STANDARD
40
0.1562500000
1
18-1/4
41
0.8000000000
72
0
0
LINE
8
0
62
2
6
CONTINUOUS
10
5.7871903908
20
17.9930364667
11
9.9899685493
21
13.1519122943
0
LINE
8
0
62
2
6
CONTINUOUS
10
17.7512711477
20
4.2117712257
11
10.4647331337
21
12.6050372943
0
INSERT
8
0
62
2
6
CONTINUOUS
2
_FILLED
10
5.7871903908
20
17.9930364667
41
  0.187500
42
  0.187500
43
  0.187500
50
130.962586
0
INSERT
8
0
62
2
6
CONTINUOUS
2
_FILLED
10
17.7512711477
20
4.2117712257
41
  0.187500
42
  0.187500
43
  0.187500
50
310.962586
0
ENDBLK
8
0
6
BYBLOCK
62
0
0
BLOCK
8
0
62
2
6
CONTINUOUS
2
PLOTTING_TEMPLATE_NOTE_BL0
70
64
10
7.7948539975
20
8.9226838679
0
TEXT
8
0
62
2
6
CONTINUOUS
10
4.4823539975
20
10.1336213679
7
STANDARD
40
0.1562500000
1
WHEN PLOTTING TEMPLATE FULL SIZE:
41
0.8000000000
72
0
0
TEXT
8
0
62
2
6
CONTINUOUS
10
4.4823539975
20
9.8992463679
7
STANDARD
40
0.1562500000
1
Make sure horizontal and vertical dimensions
41
0.8000000000
72
0
0
TEXT
8
0
62
2
6
CONTINUOUS
10
4.4823539975
20
9.6648713679
7
STANDARD
40
0.1562500000
1
match the dimensions labeled on the template.
41
0.8000000000
72
0
0
TEXT
8
0
62
2
6
CONTINUOUS
10
4.4823539975
20
9.4304963679
7
STANDARD
40
0.1562500000
1
 
41
0.8000000000
72
0
0
TEXT
8
0
62
2
6
CONTINUOUS
10
4.4823539975
20
9.1961213679
7
STANDARD
40
0.1562500000
1
AL TRAZAR LA PLANTILLA A ESCALA,
41
0.8000000000
72
0
0
TEXT
8
0
62
2
6
CONTINUOUS
10
4.4823539975
20
8.9617463679
7
STANDARD
40
0.1562500000
1
asegúrese de que las dimensiones horizontales
41
0.8000000000
72
0
0
TEXT
8
0
62
2
6
CONTINUOUS
10
4.4823539975
20
8.7273713679
7
STANDARD
40
0.1562500000
1
y verticales concuerden con las dimensiones marcadas
41
0.8000000000
72
0
0
TEXT
8
0
62
2
6
CONTINUOUS
10
4.4823539975
20
8.4929963679
7
STANDARD
40
0.1562500000
1
en la plantilla.
41
0.8000000000
72
0
0
TEXT
8
0
62
2
6
CONTINUOUS
10
4.4823539975
20
8.2586213679
7
STANDARD
40
0.1562500000
1
 
41
0.8000000000
72
0
0
TEXT
8
0
62
2
6
CONTINUOUS
10
4.4823539975
20
8.0242463679
7
STANDARD
40
0.1562500000
1
AU MOMENT DE TRACER LA DÉCOUPE À L'ÉCHELLE,
41
0.8000000000
72
0
0
TEXT
8
0
62
2
6
CONTINUOUS
10
4.4823539975
20
7.7898713679
7
STANDARD
40
0.1562500000
1
Assurez vos que les dimensions horizotales et
41
0.8000000000
72
0
0
TEXT
8
0
62
2
6
CONTINUOUS
10
4.4823539975
20
7.5554963679
7
STANDARD
40
0.1562500000
1
verticales correspondent avec les dimensions du plan.
41
0.8000000000
72
0
0
ENDBLK
8
0
6
BYBLOCK
62
0
0
BLOCK
8
0
62
2
6
CONTINUOUS
2
TEMPLATE_NUMBER_BL1
70
64
10
9.2787636358
20
2.8838264386
0
TEXT
8
0
62
2
6
CONTINUOUS
10
8.9685636358
20
2.8485764386
7
STANDARD
40
0.0705000000
1
1033457-7
41
0.8000000000
72
0
0
TEXT
8
0
62
2
6
CONTINUOUS
10
9.4761636358
20
2.8485764386
7
STANDARD
40
0.0705000000
1
-
41
0.8000000000
72
0
0
TEXT
8
0
62
2
6
CONTINUOUS
10
9.5325636358
20
2.8485764386
7
STANDARD
40
0.0705000000
1
A
41
0.8000000000
72
0
0
ENDBLK
8
0
6
BYBLOCK
62
0
0
BLOCK
8
0
62
2
6
CONTINUOUS
2
TEMPLATE_NUMBER_BL2
70
64
10
9.2951404625
20
1.7119143097
0
TEXT
8
0
62
2
6
CONTINUOUS
10
8.9849404625
20
1.6766643097
7
STANDARD
40
0.0705000000
1
1033457-7
41
0.8000000000
72
0
0
TEXT
8
0
62
2
6
CONTINUOUS
10
9.4925404625
20
1.6766643097
7
STANDARD
40
0.0705000000
1
-
41
0.8000000000
72
0
0
TEXT
8
0
62
2
6
CONTINUOUS
10
9.5489404625
20
1.6766643097
7
STANDARD
40
0.0705000000
1
A
41
0.8000000000
72
0
0
ENDBLK
8
0
6
BYBLOCK
62
0
0
BLOCK
8
0
62
2
6
CONTINUOUS
2
COPYRIGHT_YEAR_BL3
70
64
10
14.0025142154
20
2.9386144000
0
TEXT
8
0
62
2
6
CONTINUOUS
10
13.6288225898
20
2.9033407752
7
STANDARD
40
0.0705000000
1
2005
41
0.8000000000
72
0
0
TEXT
8
0
62
2
6
CONTINUOUS
10
13.8544225898
20
2.9033407752
7
STANDARD
40
0.0705000000
1
 KOHLER CO.
41
0.8000000000
72
0
0
TEXT
8
0
62
7
6
CONTINUOUS
10
13.5487968407
20
2.9198257754
7
STANDARD
40
0.0421874995
1
C
41
1.0000000000
72
0
0
CIRCLE
8
0
62
7
6
CONTINUOUS
10
13.5630318406
20
2.9410620252
40
0.0328259996
0
ENDBLK
8
0
6
BYBLOCK
62
0
0
BLOCK
8
0
2
_FILLED
70
64
10
0.0000000000
20
0.0000000000
0
SOLID
8
0
6
BYBLOCK
62
0
10
0.0000000000
20
0.0000000000
11
-1.0000000000
21
0.1666666667
12
-1.0000000000
22
-0.1666666667
13
-1.0000000000
23
-0.1666666667
0
ENDBLK
8
0
6
BYBLOCK
62
0
0
ENDSEC
0
SECTION
2
ENTITIES
0
DIMENSION
8
0
62
2
6
CONTINUOUS
2
*D0
10
5.7871903908
20
17.9930364667
11
10.1256155734
21
12.8784747943
70
131
15
17.7512711477
25
4.2117712257
0
TEXT
8
___NOTE
62
2
6
CONTINUOUS
10
12.1961577176
20
15.4424777563
7
STANDARD
40
0.2500000000
1
CUT-OUT TEMPLATE
41
0.8000000000
72
0
0
TEXT
8
___NOTE
62
2
6
CONTINUOUS
10
12.1961577176
20
15.0674777563
7
STANDARD
40
0.2500000000
1
SELF-RIMMING SINK
41
0.8000000000
72
0
0
TEXT
8
___NOTE
62
2
6
CONTINUOUS
10
12.1961577176
20
14.6924777563
7
STANDARD
40
0.2500000000
1
PLANTILLA DE RECORTE
41
0.8000000000
72
0
0
TEXT
8
___NOTE
62
2
6
CONTINUOUS
10
12.1961577176
20
14.3174777563
7
STANDARD
40
0.2500000000
1
FREGADERO CON BORDE TERMINADO
41
0.8000000000
72
0
0
TEXT
8
___NOTE
62
2
6
CONTINUOUS
10
12.1961577176
20
13.9424777563
7
STANDARD
40
0.2500000000
1
PLAN DE DÉCOUPE
41
0.8000000000
72
0
0
TEXT
8
___NOTE
62
2
6
CONTINUOUS
10
12.1961577176
20
13.5674777563
7
STANDARD
40
0.2500000000
1
ÉVIER AVEC REBORD INTÉGRÉ
41
0.8000000000
72
0
0
TEXT
8
___NOTE
62
2
6
CONTINUOUS
10
12.1961577176
20
13.1924777563
7
STANDARD
40
0.2500000000
1
VIKRELL ROUND LAVATORY   65020140-**
41
0.8000000000
72
0
0
TEXT
8
___NOTE
62
2
6
CONTINUOUS
10
12.1942043325
20
12.3033923422
7
STANDARD
40
0.2500000000
1
VIKRELL ROUND LAVATORY   75020140-**
41
0.8000000000
72
0
0
TEXT
8
___NOTE
62
2
6
CONTINUOUS
10
16.3101744741
20
10.2002762648
7
STANDARD
40
0.2083333333
1
CUT ALONG THIS LINE
41
0.8000000000
72
0
0
TEXT
8
___NOTE
62
2
6
CONTINUOUS
10
14.4768411408
20
9.8877762648
7
STANDARD
40
0.2083333333
1
CORTE A LO LARGO DE ESTA LÍNEA
41
0.8000000000
72
0
0
TEXT
8
___NOTE
62
2
6
CONTINUOUS
10
14.3101744741
20
9.5752762648
7
STANDARD
40
0.2083333333
1
DÉCOUPEZ LE LONG DE CETTE LIGNE
41
0.8000000000
72
0
0
LINE
8
___NOTE
62
2
6
CONTINUOUS
10
20.8088101028
20
9.8567592453
11
19.7268411408
21
10.3044429314
0
LINE
8
___NOTE
62
2
6
CONTINUOUS
10
19.7268411408
20
10.3044429314
11
19.4768411408
21
10.3044429314
0
SOLID
8
___NOTE
62
2
6
CONTINUOUS
10
20.6236075205
20
9.8995706455
11
20.8088101028
21
9.8567592453
12
20.6475032493
22
9.9573222181
13
20.6475032493
23
9.9573222181
0
TEXT
8
___NOTE
62
2
6
CONTINUOUS
10
7.5238901599
20
5.2694500788
7
STANDARD
40
0.2083333333
1
RIM OF LAVATORY
41
0.8000000000
72
0
0
TEXT
8
___NOTE
62
2
6
CONTINUOUS
10
7.5238901599
20
4.9569500788
7
STANDARD
40
0.2083333333
1
REBORDE DEL LAVABO
41
0.8000000000
72
0
0
TEXT
8
___NOTE
62
2
6
CONTINUOUS
10
7.5238901599
20
4.6444500788
7
STANDARD
40
0.2083333333
1
REBORD DU LAVABO
41
0.8000000000
72
0
0
LINE
8
___NOTE
62
2
6
CONTINUOUS
10
5.9859971936
20
3.5655471134
11
7.2738901599
21
5.3736167455
0
LINE
8
___NOTE
62
2
6
CONTINUOUS
10
7.2738901599
20
5.3736167455
11
7.5238901599
21
5.3736167455
0
SOLID
8
___NOTE
62
2
6
CONTINUOUS
10
6.0693257138
20
3.7363954971
11
5.9859971936
21
3.5655471134
12
6.1202317561
22
3.7001349834
13
6.1202317561
23
3.7001349834
0
INSERT
8
0
62
2
6
CONTINUOUS
2
PLOTTING_TEMPLATE_NOTE_BL0
10
7.7948539975
20
8.9226838679
0
INSERT
8
0
62
2
6
CONTINUOUS
2
TEMPLATE_NUMBER_BL1
10
9.2787636358
20
2.8838264386
0
INSERT
8
0
62
2
6
CONTINUOUS
2
TEMPLATE_NUMBER_BL2
10
9.2951404625
20
1.7119143097
0
INSERT
8
0
62
2
6
CONTINUOUS
2
COPYRIGHT_YEAR_BL3
10
14.0025142154
20
2.9386144000
0
LINE
8
0
62
2
6
CONTINUOUS
10
12.7342142041
20
16.3825588160
11
12.7595836486
21
16.4444893716
0
POLYLINE
8
0
62
2
6
CONTINUOUS
66
1
70
0
0
VERTEX
8
0
62
2
6
CONTINUOUS
10
14.4689072597
20
16.4392810383
0
VERTEX
8
0
62
2
6
CONTINUOUS
10
14.4648716845
20
16.4380034810
0
VERTEX
8
0
62
2
6
CONTINUOUS
10
14.4629862938
20
16.4372725685
0
VERTEX
8
0
62
2
6
CONTINUOUS
10
14.4611865555
20
16.4364827880
0
VERTEX
8
0
62
2
6
CONTINUOUS
10
14.4578345604
20
16.4347333393
0
VERTEX
8
0
62
2
6
CONTINUOUS
10
14.4547867121
20
16.4327602829
0
VERTEX
8
0
62
2
6
CONTINUOUS
10
14.4520176901
20
16.4305634311
0
VERTEX
8
0
62
2
6
CONTINUOUS
10
14.4495061906
20
16.4281371580
0
VERTEX
8
0
62
2
6
CONTINUOUS
10
14.4472352123
20
16.4254703759
0
VERTEX
8
0
62
2
6
CONTINUOUS
10
14.4451922294
20
16.4225465432
0
VERTEX
8
0
62
2
6
CONTINUOUS
10
14.4433692089
20
16.4193436037
0
VERTEX
8
0
62
2
6
CONTINUOUS
10
14.4417624474
20
16.4158336910
0
VERTEX
8
0
62
2
6
CONTINUOUS
10
14.4403722166
20
16.4119823074
0
VERTEX
8
0
62
2
6
CONTINUOUS
10
14.4392022139
20
16.4077464450
0
VERTEX
8
0
62
2
6
CONTINUOUS
10
14.4382588008
20
16.4030705191
0
VERTEX
8
0
62
2
6
CONTINUOUS
10
14.4375499586
20
16.3978773440
0
VERTEX
8
0
62
2
6
CONTINUOUS
10
14.4370837393
20
16.3920460836
0
VERTEX
8
0
62
2
6
CONTINUOUS
10
14.4368653906
20
16.3853473379
0
VERTEX
8
0
62
2
6
CONTINUOUS
10
14.4368882594
20
16.3771692878
0
SEQEND
0
POLYLINE
8
0
62
2
6
CONTINUOUS
66
1
70
0
0
VERTEX
8
0
62
2
6
CONTINUOUS
10
12.8545072597
20
16.1000615938
0
VERTEX
8
0
62
2
6
CONTINUOUS
10
12.8584048950
20
16.1012872007
0
VERTEX
8
0
62
2
6
CONTINUOUS
10
12.8602300157
20
16.1019841876
0
VERTEX
8
0
62
2
6
CONTINUOUS
10
12.8619752547
20
16.1027351257
0
VERTEX
8
0
62
2
6
CONTINUOUS
10
12.8652331428
20
16.1043921522
0
VERTEX
8
0
62
2
6
CONTINUOUS
10
12.8682042686
20
16.1062528947
0
VERTEX
8
0
62
2
6
CONTINUOUS
10
12.8709119215
20
16.1083167026
0
VERTEX
8
0
62
2
6
CONTINUOUS
10
12.8733760161
20
16.1105875286
0
VERTEX
8
0
62
2
6
CONTINUOUS
10
12.8756128440
20
16.1130739749
0
VERTEX
8
0
62
2
6
CONTINUOUS
10
12.8776349044
20
16.1157893081
0
VERTEX
8
0
62
2
6
CONTINUOUS
10
12.8794508476
20
16.1187515075
0
VERTEX
8
0
62
2
6
CONTINUOUS
10
12.8810655551
20
16.1219834603
0
VERTEX
8
0
62
2
6
CONTINUOUS
10
12.8824803684
20
16.1255134949
0
VERTEX
8
0
62
2
6
CONTINUOUS
10
12.8836934691
20
16.1293765851
0
VERTEX
8
0
62
2
6
CONTINUOUS
10
12.8847004169
20
16.1336168804
0
VERTEX
8
0
62
2
6
CONTINUOUS
10
12.8854948719
20
16.1382930315
0
VERTEX
8
0
62
2
6
CONTINUOUS
10
12.8860695916
20
16.1434901022
0
VERTEX
8
0
62
2
6
CONTINUOUS
10
12.8864179874
20
16.1493498820
0
VERTEX
8
0
62
2
6
CONTINUOUS
10
12.8865374016
20
16.1561681049
0
VERTEX
8
0
62
2
6
CONTINUOUS
10
12.8863739263
20
16.1713365938
0
SEQEND
0
POLYLINE
8
0
62
2
6
CONTINUOUS
66
1
70
0
0
VERTEX
8
0
62
2
6
CONTINUOUS
10
14.1044322597
20
16.4392810383
0
VERTEX
8
0
62
2
6
CONTINUOUS
10
14.1005199335
20
16.4380749944
0
VERTEX
8
0
62
2
6
CONTINUOUS
10
14.0969383395
20
16.4366508067
0
VERTEX
8
0
62
2
6
CONTINUOUS
10
14.0936696715
20
16.4350205142
0
VERTEX
8
0
62
2
6
CONTINUOUS
10
14.0906907445
20
16.4331909681
0
VERTEX
8
0
62
2
6
CONTINUOUS
10
14.0879778960
20
16.4311634084
0
VERTEX
8
0
62
2
6
CONTINUOUS
10
14.0855107712
20
16.4289345754
0
VERTEX
8
0
62
2
6
CONTINUOUS
10
14.0832725749
20
16.4264966504
0
VERTEX
8
0
62
2
6
CONTINUOUS
10
14.0812502512
20
16.4238372312
0
VERTEX
8
0
62
2
6
CONTINUOUS
10
14.0794345601
20
16.4209392837
0
VERTEX
8
0
62
2
6
CONTINUOUS
10
14.0778200224
20
16.4177809679
0
VERTEX
8
0
62
2
6
CONTINUOUS
10
14.0764047229
20
16.4143351616
0
VERTEX
8
0
62
2
6
CONTINUOUS
10
14.0751899672
20
16.4105683827
0
VERTEX
8
0
62
2
6
CONTINUOUS
10
14.0741797920
20
16.4064385281
0
VERTEX
8
0
62
2
6
CONTINUOUS
10
14.0733803132
20
16.4018901614
0
VERTEX
8
0
62
2
6
CONTINUOUS
10
14.0727988559
20
16.3968441548
0
VERTEX
8
0
62
2
6
CONTINUOUS
10
14.0724426851
20
16.3911721054
0
VERTEX
8
0
62
2
6
CONTINUOUS
10
14.0723166466
20
16.3846184193
0
VERTEX
8
0
62
2
6
CONTINUOUS
10
14.0724147794
20
16.3764432571
0
VERTEX
8
0
62
2
6
CONTINUOUS
10
14.0724435790
20
16.3750567847
0
VERTEX
8
0
62
2
6
CONTINUOUS
10
14.0725517041
20
16.3674768716
0
SEQEND
0
POLYLINE
8
0
62
2
6
CONTINUOUS
66
1
70
0
0
VERTEX
8
0
62
2
6
CONTINUOUS
10
13.1610058708
20
16.1000615938
0
VERTEX
8
0
62
2
6
CONTINUOUS
10
13.1651158684
20
16.1012774438
0
VERTEX
8
0
62
2
6
CONTINUOUS
10
13.1670354699
20
16.1019785360
0
VERTEX
8
0
62
2
6
CONTINUOUS
10
13.1688682191
20
16.1027393669
0
VERTEX
8
0
62
2
6
CONTINUOUS
10
13.1722810985
20
16.1044325433
0
VERTEX
8
0
62
2
6
CONTINUOUS
10
13.1753824191
20
16.1063498282
0
VERTEX
8
0
62
2
6
CONTINUOUS
10
13.1781986146
20
16.1084901730
0
VERTEX
8
0
62
2
6
CONTINUOUS
10
13.1807521232
20
16.1108580161
0
VERTEX
8
0
62
2
6
CONTINUOUS
10
13.1830610788
20
16.1134633233
0
VERTEX
8
0
62
2
6
CONTINUOUS
10
13.1851391065
20
16.1163215845
0
VERTEX
8
0
62
2
6
CONTINUOUS
10
13.1869952696
20
16.1194538523
0
VERTEX
8
0
62
2
6
CONTINUOUS
10
13.1886341978
20
16.1228869819
0
VERTEX
8
0
62
2
6
CONTINUOUS
10
13.1900564103
20
16.1266543384
0
VERTEX
8
0
62
2
6
CONTINUOUS
10
13.1912588379
20
16.1307974564
0
VERTEX
8
0
62
2
6
CONTINUOUS
10
13.1922355586
20
16.1353696581
0
VERTEX
8
0
62
2
6
CONTINUOUS
10
13.1929788041
20
16.1404440406
0
VERTEX
8
0
62
2
6
CONTINUOUS
10
13.1934804284
20
16.1461326668
0
VERTEX
8
0
62
2
6
CONTINUOUS
10
13.1937345164
20
16.1526412603
0
VERTEX
8
0
62
2
6
CONTINUOUS
10
13.1937447933
20
16.1604849397
0
SEQEND
0
POLYLINE
8
0
62
2
6
CONTINUOUS
66
1
70
0
0
VERTEX
8
0
62
2
6
CONTINUOUS
10
13.5211267041
20
16.1000615938
0
VERTEX
8
0
62
2
6
CONTINUOUS
10
13.5252218542
20
16.1012734437
0
VERTEX
8
0
62
2
6
CONTINUOUS
10
13.5289533278
20
16.1027289791
0
VERTEX
8
0
62
2
6
CONTINUOUS
10
13.5323422418
20
16.1044142086
0
VERTEX
8
0
62
2
6
CONTINUOUS
10
13.5354150586
20
16.1063209672
0
VERTEX
8
0
62
2
6
CONTINUOUS
10
13.5381990560
20
16.1084481241
0
VERTEX
8
0
62
2
6
CONTINUOUS
10
13.5407173833
20
16.1108001619
0
VERTEX
8
0
62
2
6
CONTINUOUS
10
13.5429887421
20
16.1133872336
0
VERTEX
8
0
62
2
6
CONTINUOUS
10
13.5450271769
20
16.1162251765
0
VERTEX
8
0
62
2
6
CONTINUOUS
10
13.5468420206
20
16.1193355773
0
VERTEX
8
0
62
2
6
CONTINUOUS
10
13.5484380290
20
16.1227460593
0
VERTEX
8
0
62
2
6
CONTINUOUS
10
13.5498157149
20
16.1264910813
0
VERTEX
8
0
62
2
6
CONTINUOUS
10
13.5509718851
20
16.1306137812
0
VERTEX
8
0
62
2
6
CONTINUOUS
10
13.5519003865
20
16.1351699781
0
VERTEX
8
0
62
2
6
CONTINUOUS
10
13.5525931101
20
16.1402370357
0
VERTEX
8
0
62
2
6
CONTINUOUS
10
13.5530414225
20
16.1459353840
0
VERTEX
8
0
62
2
6
CONTINUOUS
10
13.5532386483
20
16.1524911858
0
VERTEX
8
0
62
2
6
CONTINUOUS
10
13.5531873263
20
16.1604952538
0
VERTEX
8
0
62
2
6
CONTINUOUS
10
13.5531306644
20
16.1633513734
0
VERTEX
8
0
62
2
6
CONTINUOUS
10
13.5530142041
20
16.1713365938
0
VERTEX
8
0
62
2
6
CONTINUOUS
10
13.5530142041
20
16.3674768716
0
VERTEX
8
0
62
2
6
CONTINUOUS
10
13.5531306644
20
16.3755997173
0
VERTEX
8
0
62
2
6
CONTINUOUS
10
13.5531777382
20
16.3779653642
0
VERTEX
8
0
62
2
6
CONTINUOUS
10
13.5532422205
20
16.3861497945
0
VERTEX
8
0
62
2
6
CONTINUOUS
10
13.5530594111
20
16.3927845213
0
VERTEX
8
0
62
2
6
CONTINUOUS
10
13.5526257698
20
16.3985289737
0
VERTEX
8
0
62
2
6
CONTINUOUS
10
13.5519474480
20
16.4036287064
0
VERTEX
8
0
62
2
6
CONTINUOUS
10
13.5510325750
20
16.4082122672
0
VERTEX
8
0
62
2
6
CONTINUOUS
10
13.5498887580
20
16.4123610712
0
VERTEX
8
0
62
2
6
CONTINUOUS
10
13.5485216595
20
16.4161331435
0
VERTEX
8
0
62
2
6
CONTINUOUS
10
13.5469340015
20
16.4195728772
0
VERTEX
8
0
62
2
6
CONTINUOUS
10
13.5451248232
20
16.4227154625
0
VERTEX
8
0
62
2
6
CONTINUOUS
10
13.5430889466
20
16.4255889645
0
VERTEX
8
0
62
2
6
CONTINUOUS
10
13.5408166405
20
16.4282152630
0
VERTEX
8
0
62
2
6
CONTINUOUS
10
13.5382934823
20
16.4306104313
0
VERTEX
8
0
62
2
6
CONTINUOUS
10
13.5355004021
20
16.4327848641
0
VERTEX
8
0
62
2
6
CONTINUOUS
10
13.5324138804
20
16.4347433335
0
VERTEX
8
0
62
2
6
CONTINUOUS
10
13.5290062502
20
16.4364850722
0
VERTEX
8
0
62
2
6
CONTINUOUS
10
13.5252512410
20
16.4380020838
0
VERTEX
8
0
62
2
6
CONTINUOUS
10
13.5211267041
20
16.4392810383
0
SEQEND
0
LINE
8
0
62
2
6
CONTINUOUS
10
12.2163030930
20
15.9399727049
11
12.2163030930
21
16.5723102049
0
LINE
8
0
62
2
6
CONTINUOUS
10
12.2184267041
20
16.5767393716
11
12.2184267041
21
15.9625282605
0
LINE
8
0
62
2
6
CONTINUOUS
10
13.1131808708
20
16.4444893716
11
13.0900017041
21
16.3825588160
0
LINE
8
0
62
2
6
CONTINUOUS
10
13.4957697597
20
16.1666574271
11
13.4631642041
21
16.0984879827
0
LINE
8
0
62
2
6
CONTINUOUS
10
14.3015225375
20
16.1676740938
11
14.2638572597
21
16.0984879827
0
LINE
8
0
62
2
6
CONTINUOUS
10
14.5668892041
20
15.9118282605
11
14.5182100375
21
15.8531129827
0
LINE
8
0
62
2
6
CONTINUOUS
10
15.1633253152
20
15.8326463160
11
15.1310572597
21
15.8179838160
0
POLYLINE
8
0
62
2
6
CONTINUOUS
66
1
70
0
0
VERTEX
8
0
62
2
6
CONTINUOUS
10
14.5457030930
20
16.1000615938
0
VERTEX
8
0
62
2
6
CONTINUOUS
10
14.5515619995
20
16.1026977218
0
VERTEX
8
0
62
2
6
CONTINUOUS
10
14.5566802038
20
16.1053557902
0
VERTEX
8
0
62
2
6
CONTINUOUS
10
14.5611495392
20
16.1080446714
0
VERTEX
8
0
62
2
6
CONTINUOUS
10
14.5650503147
20
16.1107760125
0
VERTEX
8
0
62
2
6
CONTINUOUS
10
14.5684523650
20
16.1135650304
0
VERTEX
8
0
62
2
6
CONTINUOUS
10
14.5714158410
20
16.1164315017
0
VERTEX
8
0
62
2
6
CONTINUOUS
10
14.5739795647
20
16.1193855982
0
VERTEX
8
0
62
2
6
CONTINUOUS
10
14.5761828934
20
16.1224459552
0
VERTEX
8
0
62
2
6
CONTINUOUS
10
14.5780653829
20
16.1256464199
0
VERTEX
8
0
62
2
6
CONTINUOUS
10
14.5796584545
20
16.1290303783
0
VERTEX
8
0
62
2
6
CONTINUOUS
10
14.5809860468
20
16.1326544354
0
VERTEX
8
0
62
2
6
CONTINUOUS
10
14.5820654222
20
16.1365950071
0
VERTEX
8
0
62
2
6
CONTINUOUS
10
14.5829082060
20
16.1409612204
0
VERTEX
8
0
62
2
6
CONTINUOUS
10
14.5835218135
20
16.1459231263
0
VERTEX
8
0
62
2
6
CONTINUOUS
10
14.5839118317
20
16.1517845963
0
VERTEX
8
0
62
2
6
CONTINUOUS
10
14.5840884450
20
16.1592345873
0
VERTEX
8
0
62
2
6
CONTINUOUS
10
14.5841086486
20
16.1661282605
0
VERTEX
8
0
62
2
6
CONTINUOUS
10
14.5841086486
20
16.3737352049
0
VERTEX
8
0
62
2
6
CONTINUOUS
10
14.5840930199
20
16.3801146685
0
VERTEX
8
0
62
2
6
CONTINUOUS
10
14.5839290716
20
16.3877494849
0
VERTEX
8
0
62
2
6
CONTINUOUS
10
14.5835532974
20
16.3937071939
0
VERTEX
8
0
62
2
6
CONTINUOUS
10
14.5829550361
20
16.3987272139
0
VERTEX
8
0
62
2
6
CONTINUOUS
10
14.5821291010
20
16.4031288902
0
VERTEX
8
0
62
2
6
CONTINUOUS
10
14.5810687649
20
16.4070889429
0
VERTEX
8
0
62
2
6
CONTINUOUS
10
14.5797632626
20
16.4107199582
0
VERTEX
8
0
62
2
6
CONTINUOUS
10
14.5781963217
20
16.4141003588
0
VERTEX
8
0
62
2
6
CONTINUOUS
10
14.5763450950
20
16.4172879863
0
VERTEX
8
0
62
2
6
CONTINUOUS
10
14.5741793344
20
16.4203269898
0
VERTEX
8
0
62
2
6
CONTINUOUS
10
14.5716607289
20
16.4232516411
0
VERTEX
8
0
62
2
6
CONTINUOUS
10
14.5687486156
20
16.4260830337
0
VERTEX
8
0
62
2
6
CONTINUOUS
10
14.5654074984
20
16.4288287610
0
VERTEX
8
0
62
2
6
CONTINUOUS
10
14.5615786233
20
16.4315084461
0
VERTEX
8
0
62
2
6
CONTINUOUS
10
14.5571936603
20
16.4341368958
0
VERTEX
8
0
62
2
6
CONTINUOUS
10
14.5521739482
20
16.4367251016
0
VERTEX
8
0
62
2
6
CONTINUOUS
10
14.5464294819
20
16.4392810383
0
SEQEND
0
POLYLINE
8
0
62
2
6
CONTINUOUS
66
1
70
0
0
VERTEX
8
0
62
2
6
CONTINUOUS
10
15.0283017041
20
16.4392810383
0
VERTEX
8
0
62
2
6
CONTINUOUS
10
15.0224443656
20
16.4366719764
0
VERTEX
8
0
62
2
6
CONTINUOUS
10
15.0173401404
20
16.4340290574
0
VERTEX
8
0
62
2
6
CONTINUOUS
10
15.0128937126
20
16.4313436879
0
VERTEX
8
0
62
2
6
CONTINUOUS
10
15.0090220275
20
16.4286039595
0
VERTEX
8
0
62
2
6
CONTINUOUS
10
15.0056531875
20
16.4257937520
0
VERTEX
8
0
62
2
6
CONTINUOUS
10
15.0041366618
20
16.4243547166
0
VERTEX
8
0
62
2
6
CONTINUOUS
10
15.0027256350
20
16.4228916005
0
VERTEX
8
0
62
2
6
CONTINUOUS
10
15.0002048722
20
16.4198918906
0
VERTEX
8
0
62
2
6
CONTINUOUS
10
14.9980458396
20
16.4167686752
0
VERTEX
8
0
62
2
6
CONTINUOUS
10
14.9962090610
20
16.4134841331
0
VERTEX
8
0
62
2
6
CONTINUOUS
10
14.9946637133
20
16.4099892095
0
VERTEX
8
0
62
2
6
CONTINUOUS
10
14.9933868625
20
16.4062189754
0
VERTEX
8
0
62
2
6
CONTINUOUS
10
14.9923624966
20
16.4020840128
0
VERTEX
8
0
62
2
6
CONTINUOUS
10
14.9915802593
20
16.3974528346
0
VERTEX
8
0
62
2
6
CONTINUOUS
10
14.9910336313
20
16.3921111522
0
VERTEX
8
0
62
2
6
CONTINUOUS
10
14.9907164758
20
16.3856464012
0
VERTEX
8
0
62
2
6
CONTINUOUS
10
14.9906106248
20
16.3769709736
0
VERTEX
8
0
62
2
6
CONTINUOUS
10
14.9906086486
20
16.0818449271
0
SEQEND
0
POLYLINE
8
0
62
2
6
CONTINUOUS
66
1
70
0
0
VERTEX
8
0
62
2
6
CONTINUOUS
10
14.3312197597
20
16.1000615938
0
VERTEX
8
0
62
2
6
CONTINUOUS
10
14.3352518565
20
16.1012783088
0
VERTEX
8
0
62
2
6
CONTINUOUS
10
14.3371356633
20
16.1019803285
0
VERTEX
8
0
62
2
6
CONTINUOUS
10
14.3389339499
20
16.1027422209
0
VERTEX
8
0
62
2
6
CONTINUOUS
10
14.3422818049
20
16.1044378973
0
VERTEX
8
0
62
2
6
CONTINUOUS
10
14.3453248625
20
16.1063595292
0
VERTEX
8
0
62
2
6
CONTINUOUS
10
14.3480889650
20
16.1085068230
0
VERTEX
8
0
62
2
6
CONTINUOUS
10
14.3505958823
20
16.1108850710
0
VERTEX
8
0
62
2
6
CONTINUOUS
10
14.3528630092
20
16.1135051750
0
VERTEX
8
0
62
2
6
CONTINUOUS
10
14.3549031775
20
16.1163836284
0
VERTEX
8
0
62
2
6
CONTINUOUS
10
14.3567246290
20
16.1195425565
0
VERTEX
8
0
62
2
6
CONTINUOUS
10
14.3583311742
20
16.1230099844
0
VERTEX
8
0
62
2
6
CONTINUOUS
10
14.3597225487
20
16.1268206187
0
VERTEX
8
0
62
2
6
CONTINUOUS
10
14.3608949695
20
16.1310176713
0
VERTEX
8
0
62
2
6
CONTINUOUS
10
14.3618419056
20
16.1356568336
0
VERTEX
8
0
62
2
6
CONTINUOUS
10
14.3625551283
20
16.1408151080
0
VERTEX
8
0
62
2
6
CONTINUOUS
10
14.3630262592
20
16.1466123437
0
VERTEX
8
0
62
2
6
CONTINUOUS
10
14.3632496024
20
16.1532743032
0
VERTEX
8
0
62
2
6
CONTINUOUS
10
14.3632308938
20
16.1613955738
0
SEQEND
0
POLYLINE
8
0
62
2
6
CONTINUOUS
66
1
70
0
0
VERTEX
8
0
62
2
6
CONTINUOUS
10
13.9660322597
20
16.1000615938
0
VERTEX
8
0
62
2
6
CONTINUOUS
10
13.9701422861
20
16.1012774516
0
VERTEX
8
0
62
2
6
CONTINUOUS
10
13.9720619071
20
16.1019785496
0
VERTEX
8
0
62
2
6
CONTINUOUS
10
13.9738946774
20
16.1027393871
0
VERTEX
8
0
62
2
6
CONTINUOUS
10
13.9773076034
20
16.1044325789
0
VERTEX
8
0
62
2
6
CONTINUOUS
10
13.9804089795
20
16.1063498842
0
VERTEX
8
0
62
2
6
CONTINUOUS
10
13.9832252376
20
16.1084902547
0
VERTEX
8
0
62
2
6
CONTINUOUS
10
13.9857788147
20
16.1108581285
0
VERTEX
8
0
62
2
6
CONTINUOUS
10
13.9880878435
20
16.1134634712
0
VERTEX
8
0
62
2
6
CONTINUOUS
10
13.9901659482
20
16.1163217719
0
VERTEX
8
0
62
2
6
CONTINUOUS
10
13.9920221918
20
16.1194540821
0
VERTEX
8
0
62
2
6
CONTINUOUS
10
13.9936612035
20
16.1228872557
0
VERTEX
8
0
62
2
6
CONTINUOUS
10
13.9950835026
20
16.1266546555
0
VERTEX
8
0
62
2
6
CONTINUOUS
10
13.9962860200
20
16.1307978130
0
VERTEX
8
0
62
2
6
CONTINUOUS
10
13.9972628341
20
16.1353700454
0
VERTEX
8
0
62
2
6
CONTINUOUS
10
13.9980061771
20
16.1404444416
0
VERTEX
8
0
62
2
6
CONTINUOUS
10
13.9985079040
20
16.1461330483
0
VERTEX
8
0
62
2
6
CONTINUOUS
10
13.9987621008
20
16.1526415501
0
VERTEX
8
0
62
2
6
CONTINUOUS
10
13.9987724939
20
16.1604849259
0
SEQEND
0
POLYLINE
8
0
62
2
6
CONTINUOUS
66
1
70
0
0
VERTEX
8
0
62
2
6
CONTINUOUS
10
13.1937447933
20
16.1604849397
0
VERTEX
8
0
62
2
6
CONTINUOUS
10
13.1936114263
20
16.1713365938
0
VERTEX
8
0
62
2
6
CONTINUOUS
10
13.1936114263
20
16.3674768716
0
SEQEND
0
LINE
8
0
62
2
6
CONTINUOUS
10
12.6798794819
20
16.4377143716
11
12.6798794819
21
16.3789379827
0
LINE
8
0
62
2
6
CONTINUOUS
10
12.8545072597
20
16.0984879827
11
12.8545072597
21
16.1000615938
0
LINE
8
0
62
2
6
CONTINUOUS
10
12.8863739263
20
16.1713365938
11
12.8863739263
21
16.4033852049
0
POLYLINE
8
0
62
2
6
CONTINUOUS
66
1
70
0
0
VERTEX
8
0
62
2
6
CONTINUOUS
10
12.9602878152
20
16.4033852049
0
VERTEX
8
0
62
2
6
CONTINUOUS
10
12.9602878152
20
16.1661282605
0
VERTEX
8
0
62
2
6
CONTINUOUS
10
12.9602957013
20
16.1589439678
0
VERTEX
8
0
62
2
6
CONTINUOUS
10
12.9604070961
20
16.1522221312
0
VERTEX
8
0
62
2
6
CONTINUOUS
10
12.9606674371
20
16.1469609813
0
VERTEX
8
0
62
2
6
CONTINUOUS
10
12.9610838143
20
16.1425158476
0
VERTEX
8
0
62
2
6
CONTINUOUS
10
12.9616589879
20
16.1386102326
0
VERTEX
8
0
62
2
6
CONTINUOUS
10
12.9623959135
20
16.1350925224
0
VERTEX
8
0
62
2
6
CONTINUOUS
10
12.9632991932
20
16.1318670897
0
VERTEX
8
0
62
2
6
CONTINUOUS
10
12.9643758617
20
16.1288678627
0
VERTEX
8
0
62
2
6
CONTINUOUS
10
12.9656359444
20
16.1260462294
0
VERTEX
8
0
62
2
6
CONTINUOUS
10
12.9670929019
20
16.1233648237
0
VERTEX
8
0
62
2
6
CONTINUOUS
10
12.9687639978
20
16.1207940599
0
VERTEX
8
0
62
2
6
CONTINUOUS
10
12.9706706102
20
16.1183100647
0
VERTEX
8
0
62
2
6
CONTINUOUS
10
12.9728385098
20
16.1158933613
0
VERTEX
8
0
62
2
6
CONTINUOUS
10
12.9752886954
20
16.1135364245
0
VERTEX
8
0
62
2
6
CONTINUOUS
10
12.9780487729
20
16.1112289267
0
VERTEX
8
0
62
2
6
CONTINUOUS
10
12.9811554947
20
16.1089582410
0
VERTEX
8
0
62
2
6
CONTINUOUS
10
12.9846507830
20
16.1067140210
0
VERTEX
8
0
62
2
6
CONTINUOUS
10
12.9885821264
20
16.1044877326
0
VERTEX
8
0
62
2
6
CONTINUOUS
10
12.9930030854
20
16.1022722645
0
VERTEX
8
0
62
2
6
CONTINUOUS
10
12.9979739263
20
16.1000615938
0
SEQEND
0
LINE
8
0
62
2
6
CONTINUOUS
10
12.9979739263
20
16.1000615938
11
12.9979739263
21
16.0984879827
0
LINE
8
0
62
2
6
CONTINUOUS
10
13.1610058708
20
16.0984879827
11
13.1610058708
21
16.1000615938
0
LINE
8
0
62
2
6
CONTINUOUS
10
13.1610058708
20
16.4392810383
11
13.1610058708
21
16.4408477049
0
LINE
8
0
62
2
6
CONTINUOUS
10
13.2675253152
20
16.3997504827
11
13.2675253152
21
16.3029754827
0
LINE
8
0
62
2
6
CONTINUOUS
10
13.2675253152
20
16.2655004827
11
13.2675253152
21
16.1421893716
0
LINE
8
0
62
2
6
CONTINUOUS
10
13.3878128152
20
16.3060879827
11
13.3878128152
21
16.2509463160
0
LINE
8
0
62
2
6
CONTINUOUS
10
13.4291128152
20
16.4434379827
11
13.4291128152
21
16.3825588160
0
LINE
8
0
62
2
6
CONTINUOUS
10
13.5211267041
20
16.0984879827
11
13.5211267041
21
16.1000615938
0
LINE
8
0
62
2
6
CONTINUOUS
10
13.5211267041
20
16.4392810383
11
13.5211267041
21
16.4408477049
0
POLYLINE
8
0
62
2
6
CONTINUOUS
66
1
70
0
0
VERTEX
8
0
62
2
6
CONTINUOUS
10
13.1936114263
20
16.3674768716
0
VERTEX
8
0
62
2
6
CONTINUOUS
10
13.1937387519
20
16.3779915906
0
VERTEX
8
0
62
2
6
CONTINUOUS
10
13.1937414544
20
16.3859998998
0
VERTEX
8
0
62
2
6
CONTINUOUS
10
13.1935018000
20
16.3925838331
0
VERTEX
8
0
62
2
6
CONTINUOUS
10
13.1930149558
20
16.3983173796
0
VERTEX
8
0
62
2
6
CONTINUOUS
10
13.1922862430
20
16.4034240457
0
VERTEX
8
0
62
2
6
CONTINUOUS
10
13.1913232656
20
16.4080235657
0
VERTEX
8
0
62
2
6
CONTINUOUS
10
13.1901332678
20
16.4121929277
0
VERTEX
8
0
62
2
6
CONTINUOUS
10
13.1887216669
20
16.4159875927
0
VERTEX
8
0
62
2
6
CONTINUOUS
10
13.1870910505
20
16.4194503167
0
VERTEX
8
0
62
2
6
CONTINUOUS
10
13.1852404448
20
16.4226151768
0
VERTEX
8
0
62
2
6
CONTINUOUS
10
13.1831647921
20
16.4255094557
0
VERTEX
8
0
62
2
6
CONTINUOUS
10
13.1808546271
20
16.4281544859
0
VERTEX
8
0
62
2
6
CONTINUOUS
10
13.1782959430
20
16.4305659794
0
VERTEX
8
0
62
2
6
CONTINUOUS
10
13.1754702365
20
16.4327541283
0
VERTEX
8
0
62
2
6
CONTINUOUS
10
13.1723546988
20
16.4347236425
0
VERTEX
8
0
62
2
6
CONTINUOUS
10
13.1689225095
20
16.4364738170
0
VERTEX
8
0
62
2
6
CONTINUOUS
10
13.1670783010
20
16.4372649744
0
VERTEX
8
0
62
2
6
CONTINUOUS
10
13.1651459773
20
16.4379976794
0
VERTEX
8
0
62
2
6
CONTINUOUS
10
13.1610058708
20
16.4392810383
0
SEQEND
0
POLYLINE
8
0
62
2
6
CONTINUOUS
66
1
70
0
0
VERTEX
8
0
62
2
6
CONTINUOUS
10
14.3250405930
20
15.8116227049
0
VERTEX
8
0
62
2
6
CONTINUOUS
10
14.3669517041
20
15.9146365938
0
VERTEX
8
0
62
2
6
CONTINUOUS
10
14.3677725375
20
15.9167921494
0
SEQEND
0
LINE
8
0
62
2
6
CONTINUOUS
10
14.3677725375
20
15.8959046494
11
14.3497600375
21
15.8517157605
0
LINE
8
0
62
2
6
CONTINUOUS
10
15.6605169819
20
15.8546324271
11
15.6940183708
21
15.9120185383
0
LINE
8
0
62
2
6
CONTINUOUS
10
15.6855017041
20
15.9120185383
11
15.6565155930
21
15.8630004827
0
LINE
8
0
62
2
6
CONTINUOUS
10
15.1650072597
20
15.8346671494
11
15.1633253152
21
15.8326463160
0
POLYLINE
8
0
62
2
6
CONTINUOUS
66
1
70
0
0
VERTEX
8
0
62
2
6
CONTINUOUS
10
14.3632308938
20
16.1613955738
0
VERTEX
8
0
62
2
6
CONTINUOUS
10
14.3631072597
20
16.1713365938
0
VERTEX
8
0
62
2
6
CONTINUOUS
10
14.3631072597
20
16.3674768716
0
VERTEX
8
0
62
2
6
CONTINUOUS
10
14.3632239060
20
16.3755880862
0
VERTEX
8
0
62
2
6
CONTINUOUS
10
14.3632717979
20
16.3779830511
0
VERTEX
8
0
62
2
6
CONTINUOUS
10
14.3633369212
20
16.3861649806
0
VERTEX
8
0
62
2
6
CONTINUOUS
10
14.3631546135
20
16.3927975868
0
VERTEX
8
0
62
2
6
CONTINUOUS
10
14.3627214049
20
16.3985401116
0
VERTEX
8
0
62
2
6
CONTINUOUS
10
14.3620434686
20
16.4036380864
0
VERTEX
8
0
62
2
6
CONTINUOUS
10
14.3611289404
20
16.4082200573
0
VERTEX
8
0
62
2
6
CONTINUOUS
10
14.3599854262
20
16.4123674398
0
VERTEX
8
0
62
2
6
CONTINUOUS
10
14.3586185819
20
16.4161382584
0
VERTEX
8
0
62
2
6
CONTINUOUS
10
14.3570311186
20
16.4195769028
0
VERTEX
8
0
62
2
6
CONTINUOUS
10
14.3552220610
20
16.4227185578
0
VERTEX
8
0
62
2
6
CONTINUOUS
10
14.3531862129
20
16.4255912807
0
VERTEX
8
0
62
2
6
CONTINUOUS
10
14.3509138222
20
16.4282169410
0
VERTEX
8
0
62
2
6
CONTINUOUS
10
14.3483904429
20
16.4306115999
0
VERTEX
8
0
62
2
6
CONTINUOUS
10
14.3455969797
20
16.4327856383
0
VERTEX
8
0
62
2
6
CONTINUOUS
10
14.3425098861
20
16.4347438136
0
VERTEX
8
0
62
2
6
CONTINUOUS
10
14.3391014669
20
16.4364853431
0
VERTEX
8
0
62
2
6
CONTINUOUS
10
14.3353455089
20
16.4380021851
0
VERTEX
8
0
62
2
6
CONTINUOUS
10
14.3312197597
20
16.4392810383
0
SEQEND
0
POLYLINE
8
0
62
2
6
CONTINUOUS
66
1
70
0
0
VERTEX
8
0
62
2
6
CONTINUOUS
10
14.4368882594
20
16.3771692878
0
VERTEX
8
0
62
2
6
CONTINUOUS
10
14.4370072597
20
16.3674768716
0
VERTEX
8
0
62
2
6
CONTINUOUS
10
14.4370072597
20
16.1713365938
0
SEQEND
0
POLYLINE
8
0
62
2
6
CONTINUOUS
66
1
70
0
0
VERTEX
8
0
62
2
6
CONTINUOUS
10
13.9987724939
20
16.1604849259
0
VERTEX
8
0
62
2
6
CONTINUOUS
10
13.9986392041
20
16.1713365938
0
VERTEX
8
0
62
2
6
CONTINUOUS
10
13.9986392041
20
16.3674768716
0
SEQEND
0
POLYLINE
8
0
62
2
6
CONTINUOUS
66
1
70
0
0
VERTEX
8
0
62
2
6
CONTINUOUS
10
13.6269211486
20
16.4044227049
0
VERTEX
8
0
62
2
6
CONTINUOUS
10
13.6269211486
20
16.1713365938
0
VERTEX
8
0
62
2
6
CONTINUOUS
10
13.6268402288
20
16.1640228203
0
VERTEX
8
0
62
2
6
CONTINUOUS
10
13.6267759091
20
16.1591419147
0
VERTEX
8
0
62
2
6
CONTINUOUS
10
13.6267968101
20
16.1524909922
0
VERTEX
8
0
62
2
6
CONTINUOUS
10
13.6269945121
20
16.1468829795
0
VERTEX
8
0
62
2
6
CONTINUOUS
10
13.6273691851
20
16.1419307844
0
VERTEX
8
0
62
2
6
CONTINUOUS
10
13.6279168932
20
16.1374693940
0
VERTEX
8
0
62
2
6
CONTINUOUS
10
13.6286325325
20
16.1334076213
0
VERTEX
8
0
62
2
6
CONTINUOUS
10
13.6295109799
20
16.1296865300
0
VERTEX
8
0
62
2
6
CONTINUOUS
10
13.6305477752
20
16.1262638477
0
VERTEX
8
0
62
2
6
CONTINUOUS
10
13.6317396057
20
16.1231070614
0
VERTEX
8
0
62
2
6
CONTINUOUS
10
13.6330846795
20
16.1201900304
0
VERTEX
8
0
62
2
6
CONTINUOUS
10
13.6345830196
20
16.1174912270
0
VERTEX
8
0
62
2
6
CONTINUOUS
10
13.6362366872
20
16.1149928051
0
VERTEX
8
0
62
2
6
CONTINUOUS
10
13.6380499377
20
16.1126801171
0
VERTEX
8
0
62
2
6
CONTINUOUS
10
13.6400293077
20
16.1105414798
0
VERTEX
8
0
62
2
6
CONTINUOUS
10
13.6421836366
20
16.1085680737
0
VERTEX
8
0
62
2
6
CONTINUOUS
10
13.6445240258
20
16.1067539056
0
VERTEX
8
0
62
2
6
CONTINUOUS
10
13.6470637489
20
16.1050957871
0
VERTEX
8
0
62
2
6
CONTINUOUS
10
13.6498181242
20
16.1035933033
0
VERTEX
8
0
62
2
6
CONTINUOUS
10
13.6528043667
20
16.1022487561
0
VERTEX
8
0
62
2
6
CONTINUOUS
10
13.6560351668
20
16.1010691226
0
VERTEX
8
0
62
2
6
CONTINUOUS
10
13.6595267041
20
16.1000615938
0
SEQEND
0
LINE
8
0
62
2
6
CONTINUOUS
10
13.6595267041
20
16.1000615938
11
13.6595267041
21
16.0984879827
0
LINE
8
0
62
2
6
CONTINUOUS
10
13.9660322597
20
16.0984879827
11
13.9660322597
21
16.1000615938
0
LINE
8
0
62
2
6
CONTINUOUS
10
13.9660322597
20
16.4392810383
11
13.9660322597
21
16.4408477049
0
LINE
8
0
62
2
6
CONTINUOUS
10
14.0725517041
20
16.3674768716
11
14.0725517041
21
16.1406421494
0
LINE
8
0
62
2
6
CONTINUOUS
10
14.1044322597
20
16.4408477049
11
14.1044322597
21
16.4392810383
0
LINE
8
0
62
2
6
CONTINUOUS
10
14.3312197597
20
16.0984879827
11
14.3312197597
21
16.1000615938
0
LINE
8
0
62
2
6
CONTINUOUS
10
14.3312197597
20
16.4392810383
11
14.3312197597
21
16.4408477049
0
POLYLINE
8
0
62
2
6
CONTINUOUS
66
1
70
0
0
VERTEX
8
0
62
2
6
CONTINUOUS
10
14.4576503152
20
15.7885102049
0
VERTEX
8
0
62
2
6
CONTINUOUS
10
14.4576503152
20
15.9118824271
0
VERTEX
8
0
62
2
6
CONTINUOUS
10
14.4913683708
20
15.9118824271
0
VERTEX
8
0
62
2
6
CONTINUOUS
10
14.4913683708
20
15.8749227049
0
VERTEX
8
0
62
2
6
CONTINUOUS
10
14.4911044819
20
15.8749227049
0
VERTEX
8
0
62
2
6
CONTINUOUS
10
14.5232086486
20
15.9118282605
0
VERTEX
8
0
62
2
6
CONTINUOUS
10
14.5668892041
20
15.9118282605
0
SEQEND
0
LINE
8
0
62
2
6
CONTINUOUS
10
14.4689072597
20
16.4408477049
11
14.4689072597
21
16.4392810383
0
LINE
8
0
62
2
6
CONTINUOUS
10
14.4689072597
20
16.1000615938
11
14.4689072597
21
16.0984879827
0
LINE
8
0
62
2
6
CONTINUOUS
10
14.5457030930
20
16.0984879827
11
14.5457030930
21
16.1000615938
0
LINE
8
0
62
2
6
CONTINUOUS
10
14.5464294819
20
16.4392810383
11
14.5464294819
21
16.4408477049
0
POLYLINE
8
0
62
2
6
CONTINUOUS
66
1
70
0
0
VERTEX
8
0
62
2
6
CONTINUOUS
10
14.6362864263
20
16.3674768716
0
VERTEX
8
0
62
2
6
CONTINUOUS
10
14.6362864263
20
16.1661282605
0
VERTEX
8
0
62
2
6
CONTINUOUS
10
14.6363052296
20
16.1575589342
0
VERTEX
8
0
62
2
6
CONTINUOUS
10
14.6364338403
20
16.1515659146
0
VERTEX
8
0
62
2
6
CONTINUOUS
10
14.6366974611
20
16.1467314276
0
VERTEX
8
0
62
2
6
CONTINUOUS
10
14.6371007713
20
16.1425814522
0
VERTEX
8
0
62
2
6
CONTINUOUS
10
14.6376458556
20
16.1388976800
0
VERTEX
8
0
62
2
6
CONTINUOUS
10
14.6383350204
20
16.1355559863
0
VERTEX
8
0
62
2
6
CONTINUOUS
10
14.6391718004
20
16.1324763914
0
VERTEX
8
0
62
2
6
CONTINUOUS
10
14.6401615227
20
16.1296028843
0
VERTEX
8
0
62
2
6
CONTINUOUS
10
14.6413117076
20
16.1268938822
0
VERTEX
8
0
62
2
6
CONTINUOUS
10
14.6426323857
20
16.1243172125
0
VERTEX
8
0
62
2
6
CONTINUOUS
10
14.6441363574
20
16.1218472642
0
VERTEX
8
0
62
2
6
CONTINUOUS
10
14.6458394074
20
16.1194632695
0
VERTEX
8
0
62
2
6
CONTINUOUS
10
14.6477604863
20
16.1171482081
0
VERTEX
8
0
62
2
6
CONTINUOUS
10
14.6488101362
20
16.1160115013
0
VERTEX
8
0
62
2
6
CONTINUOUS
10
14.6499218751
20
16.1148880672
0
VERTEX
8
0
62
2
6
CONTINUOUS
10
14.6523387309
20
16.1126803925
0
VERTEX
8
0
62
2
6
CONTINUOUS
10
14.6550368835
20
16.1105151727
0
VERTEX
8
0
62
2
6
CONTINUOUS
10
14.6580467995
20
16.1083833146
0
VERTEX
8
0
62
2
6
CONTINUOUS
10
14.6614027383
20
16.1062774375
0
VERTEX
8
0
62
2
6
CONTINUOUS
10
14.6651429942
20
16.1041915731
0
VERTEX
8
0
62
2
6
CONTINUOUS
10
14.6693102005
20
16.1021209130
0
VERTEX
8
0
62
2
6
CONTINUOUS
10
14.6739517041
20
16.1000615938
0
SEQEND
0
LINE
8
0
62
2
6
CONTINUOUS
10
14.6522169819
20
16.4408477049
11
14.6522169819
21
16.4403185383
0
LINE
8
0
62
2
6
CONTINUOUS
10
14.6739517041
20
16.1000615938
11
14.6739517041
21
16.0984879827
0
POLYLINE
8
0
62
2
6
CONTINUOUS
66
1
70
0
0
VERTEX
8
0
62
2
6
CONTINUOUS
10
14.6847892041
20
15.7885102049
0
VERTEX
8
0
62
2
6
CONTINUOUS
10
14.6847892041
20
15.9118824271
0
VERTEX
8
0
62
2
6
CONTINUOUS
10
14.7184530930
20
15.9118824271
0
VERTEX
8
0
62
2
6
CONTINUOUS
10
14.7184530930
20
15.8686157605
0
VERTEX
8
0
62
2
6
CONTINUOUS
10
14.7524975375
20
15.8686157605
0
VERTEX
8
0
62
2
6
CONTINUOUS
10
14.7524975375
20
15.9118824271
0
VERTEX
8
0
62
2
6
CONTINUOUS
10
14.7861544819
20
15.9118824271
0
SEQEND
0
POLYLINE
8
0
62
2
6
CONTINUOUS
66
1
70
0
0
VERTEX
8
0
62
2
6
CONTINUOUS
10
14.7861544819
20
15.9118824271
0
VERTEX
8
0
62
2
6
CONTINUOUS
10
14.7861544819
20
15.7885102049
0
VERTEX
8
0
62
2
6
CONTINUOUS
10
14.7524975375
20
15.7885102049
0
VERTEX
8
0
62
2
6
CONTINUOUS
10
14.7524975375
20
15.8344088160
0
VERTEX
8
0
62
2
6
CONTINUOUS
10
14.7184530930
20
15.8344088160
0
VERTEX
8
0
62
2
6
CONTINUOUS
10
14.7184530930
20
15.7885102049
0
VERTEX
8
0
62
2
6
CONTINUOUS
10
14.6847892041
20
15.7885102049
0
SEQEND
0
POLYLINE
8
0
62
2
6
CONTINUOUS
66
1
70
0
0
VERTEX
8
0
62
2
6
CONTINUOUS
10
13.9986392041
20
16.3674768716
0
VERTEX
8
0
62
2
6
CONTINUOUS
10
13.9987664592
20
16.3779916337
0
VERTEX
8
0
62
2
6
CONTINUOUS
10
13.9987690452
20
16.3859996104
0
VERTEX
8
0
62
2
6
CONTINUOUS
10
13.9985292822
20
16.3925834451
0
VERTEX
8
0
62
2
6
CONTINUOUS
10
13.9980423356
20
16.3983169698
0
VERTEX
8
0
62
2
6
CONTINUOUS
10
13.9973135255
20
16.4034236488
0
VERTEX
8
0
62
2
6
CONTINUOUS
10
13.9963504549
20
16.4080231994
0
VERTEX
8
0
62
2
6
CONTINUOUS
10
13.9951603675
20
16.4121926012
0
VERTEX
8
0
62
2
6
CONTINUOUS
10
13.9937486801
20
16.4159873099
0
VERTEX
8
0
62
2
6
CONTINUOUS
10
13.9921179802
20
16.4194500785
0
VERTEX
8
0
62
2
6
CONTINUOUS
10
13.9902672938
20
16.4226149819
0
VERTEX
8
0
62
2
6
CONTINUOUS
10
13.9881915637
20
16.4255093011
0
VERTEX
8
0
62
2
6
CONTINUOUS
10
13.9858813249
20
16.4281543677
0
VERTEX
8
0
62
2
6
CONTINUOUS
10
13.9833225717
20
16.4305658930
0
VERTEX
8
0
62
2
6
CONTINUOUS
10
13.9804968017
20
16.4327540686
0
VERTEX
8
0
62
2
6
CONTINUOUS
10
13.9773812076
20
16.4347236042
0
VERTEX
8
0
62
2
6
CONTINUOUS
10
13.9739489705
20
16.4364737951
0
VERTEX
8
0
62
2
6
CONTINUOUS
10
13.9721047403
20
16.4372649595
0
VERTEX
8
0
62
2
6
CONTINUOUS
10
13.9701723965
20
16.4379976708
0
VERTEX
8
0
62
2
6
CONTINUOUS
10
13.9660322597
20
16.4392810383
0
SEQEND
0
POLYLINE
8
0
62
2
6
CONTINUOUS
66
1
70
0
0
VERTEX
8
0
62
2
6
CONTINUOUS
10
14.4370072597
20
16.1713365938
0
VERTEX
8
0
62
2
6
CONTINUOUS
10
14.4368936090
20
16.1620477179
0
VERTEX
8
0
62
2
6
CONTINUOUS
10
14.4368618095
20
16.1538307931
0
VERTEX
8
0
62
2
6
CONTINUOUS
10
14.4370700999
20
16.1471415236
0
VERTEX
8
0
62
2
6
CONTINUOUS
10
14.4375260922
20
16.1413319060
0
VERTEX
8
0
62
2
6
CONTINUOUS
10
14.4382248639
20
16.1361635694
0
VERTEX
8
0
62
2
6
CONTINUOUS
10
14.4391586168
20
16.1315122482
0
VERTEX
8
0
62
2
6
CONTINUOUS
10
14.4403196255
20
16.1272991657
0
VERTEX
8
0
62
2
6
CONTINUOUS
10
14.4417018102
20
16.1234679379
0
VERTEX
8
0
62
2
6
CONTINUOUS
10
14.4433017920
20
16.1199751605
0
VERTEX
8
0
62
2
6
CONTINUOUS
10
14.4451196607
20
16.1167861718
0
VERTEX
8
0
62
2
6
CONTINUOUS
10
14.4471595262
20
16.1138730882
0
VERTEX
8
0
62
2
6
CONTINUOUS
10
14.4494298716
20
16.1112139367
0
VERTEX
8
0
62
2
6
CONTINUOUS
10
14.4519437119
20
16.1087923278
0
VERTEX
8
0
62
2
6
CONTINUOUS
10
14.4547185712
20
16.1065973738
0
VERTEX
8
0
62
2
6
CONTINUOUS
10
14.4577763048
20
16.1046236758
0
VERTEX
8
0
62
2
6
CONTINUOUS
10
14.4611428101
20
16.1028712838
0
VERTEX
8
0
62
2
6
CONTINUOUS
10
14.4629519007
20
16.1020791704
0
VERTEX
8
0
62
2
6
CONTINUOUS
10
14.4648476765
20
16.1013455797
0
VERTEX
8
0
62
2
6
CONTINUOUS
10
14.4689072597
20
16.1000615938
0
SEQEND
0
POLYLINE
8
0
62
2
6
CONTINUOUS
66
1
70
0
0
VERTEX
8
0
62
2
6
CONTINUOUS
10
14.5506808708
20
15.8512407605
0
VERTEX
8
0
62
2
6
CONTINUOUS
10
14.5507376979
20
15.8543244492
0
VERTEX
8
0
62
2
6
CONTINUOUS
10
14.5509377505
20
15.8573895355
0
VERTEX
8
0
62
2
6
CONTINUOUS
10
14.5512802365
20
15.8604320095
0
VERTEX
8
0
62
2
6
CONTINUOUS
10
14.5517642646
20
15.8634475596
0
VERTEX
8
0
62
2
6
CONTINUOUS
10
14.5523887989
20
15.8664315700
0
VERTEX
8
0
62
2
6
CONTINUOUS
10
14.5531526135
20
15.8693791253
0
VERTEX
8
0
62
2
6
CONTINUOUS
10
14.5540542467
20
15.8722850230
0
VERTEX
8
0
62
2
6
CONTINUOUS
10
14.5550919580
20
15.8751437953
0
VERTEX
8
0
62
2
6
CONTINUOUS
10
14.5562636887
20
15.8779497394
0
VERTEX
8
0
62
2
6
CONTINUOUS
10
14.5575670283
20
15.8806969571
0
VERTEX
8
0
62
2
6
CONTINUOUS
10
14.5589991878
20
15.8833794026
0
VERTEX
8
0
62
2
6
CONTINUOUS
10
14.5605569827
20
15.8859909378
0
VERTEX
8
0
62
2
6
CONTINUOUS
10
14.5622368258
20
15.8885253931
0
VERTEX
8
0
62
2
6
CONTINUOUS
10
14.5640347315
20
15.8909766335
0
VERTEX
8
0
62
2
6
CONTINUOUS
10
14.5659463320
20
15.8933386245
0
VERTEX
8
0
62
2
6
CONTINUOUS
10
14.5663220233
20
15.8937768466
0
VERTEX
8
0
62
2
6
CONTINUOUS
10
14.5683617443
20
15.8960239563
0
VERTEX
8
0
62
2
6
CONTINUOUS
10
14.5705028427
20
15.8981679669
0
VERTEX
8
0
62
2
6
CONTINUOUS
10
14.5727398245
20
15.9002038509
0
VERTEX
8
0
62
2
6
CONTINUOUS
10
14.5750670498
20
15.9021269542
0
VERTEX
8
0
62
2
6
CONTINUOUS
10
14.5774787972
20
15.9039330216
0
VERTEX
8
0
62
2
6
CONTINUOUS
10
14.5799693289
20
15.9056182104
0
VERTEX
8
0
62
2
6
CONTINUOUS
10
14.5825329525
20
15.9071790911
0
VERTEX
8
0
62
2
6
CONTINUOUS
10
14.5851640801
20
15.9086126376
0
VERTEX
8
0
62
2
6
CONTINUOUS
10
14.5878572795
20
15.9099162064
0
VERTEX
8
0
62
2
6
CONTINUOUS
10
14.5906073196
20
15.9110875073
0
VERTEX
8
0
62
2
6
CONTINUOUS
10
14.5934092060
20
15.9121245663
0
VERTEX
8
0
62
2
6
CONTINUOUS
10
14.5962582094
20
15.9130256838
0
VERTEX
8
0
62
2
6
CONTINUOUS
10
14.5991498841
20
15.9137893889
0
VERTEX
8
0
62
2
6
CONTINUOUS
10
14.6020800788
20
15.9144143916
0
VERTEX
8
0
62
2
6
CONTINUOUS
10
14.6050449391
20
15.9148995355
0
VERTEX
8
0
62
2
6
CONTINUOUS
10
14.6080409039
20
15.9152437511
0
VERTEX
8
0
62
2
6
CONTINUOUS
10
14.6110646945
20
15.9154460115
0
VERTEX
8
0
62
2
6
CONTINUOUS
10
14.6141133000
20
15.9155052916
0
VERTEX
8
0
62
2
6
CONTINUOUS
10
14.6171529509
20
15.9154210243
0
VERTEX
8
0
62
2
6
CONTINUOUS
10
14.6201717990
20
15.9151938017
0
VERTEX
8
0
62
2
6
CONTINUOUS
10
14.6231666438
20
15.9148244433
0
VERTEX
8
0
62
2
6
CONTINUOUS
10
14.6261339854
20
15.9143137912
0
VERTEX
8
0
62
2
6
CONTINUOUS
10
14.6290700086
20
15.9136627565
0
VERTEX
8
0
62
2
6
CONTINUOUS
10
14.6319705744
20
15.9128723685
0
VERTEX
8
0
62
2
6
CONTINUOUS
10
14.6348312174
20
15.9119438261
0
VERTEX
8
0
62
2
6
CONTINUOUS
10
14.6376471519
20
15.9108785495
0
VERTEX
8
0
62
2
6
CONTINUOUS
10
14.6404132863
20
15.9096782317
0
VERTEX
8
0
62
2
6
CONTINUOUS
10
14.6431242473
20
15.9083448863
0
VERTEX
8
0
62
2
6
CONTINUOUS
10
14.6457744140
20
15.9068808912
0
VERTEX
8
0
62
2
6
CONTINUOUS
10
14.6483579609
20
15.9052890255
0
VERTEX
8
0
62
2
6
CONTINUOUS
10
14.6508689101
20
15.9035724974
0
VERTEX
8
0
62
2
6
CONTINUOUS
10
14.6533011921
20
15.9017349616
0
VERTEX
8
0
62
2
6
CONTINUOUS
10
14.6556487113
20
15.8997805249
0
VERTEX
8
0
62
2
6
CONTINUOUS
10
14.6579054171
20
15.8977137387
0
VERTEX
8
0
62
2
6
CONTINUOUS
10
14.6600653756
20
15.8955395778
0
VERTEX
8
0
62
2
6
CONTINUOUS
10
14.6621228402
20
15.8932634064
0
VERTEX
8
0
62
2
6
CONTINUOUS
10
14.6621730096
20
15.8932051344
0
VERTEX
8
0
62
2
6
CONTINUOUS
10
14.6641184201
20
15.8908319825
0
VERTEX
8
0
62
2
6
CONTINUOUS
10
14.6659494207
20
15.8883706012
0
VERTEX
8
0
62
2
6
CONTINUOUS
10
14.6676615189
20
15.8858273068
0
VERTEX
8
0
62
2
6
CONTINUOUS
10
14.6692506488
20
15.8832084995
0
VERTEX
8
0
62
2
6
CONTINUOUS
10
14.6707131859
20
15.8805205897
0
VERTEX
8
0
62
2
6
CONTINUOUS
10
14.6720459479
20
15.8777699279
0
VERTEX
8
0
62
2
6
CONTINUOUS
10
14.6732461839
20
15.8749627392
0
VERTEX
8
0
62
2
6
CONTINUOUS
10
14.6743115526
20
15.8721050660
0
VERTEX
8
0
62
2
6
CONTINUOUS
10
14.6752400903
20
15.8692027181
0
VERTEX
8
0
62
2
6
CONTINUOUS
10
14.6760301716
20
15.8662612333
0
VERTEX
8
0
62
2
6
CONTINUOUS
10
14.6766804646
20
15.8632858481
0
VERTEX
8
0
62
2
6
CONTINUOUS
10
14.6771898821
20
15.8602814774
0
VERTEX
8
0
62
2
6
CONTINUOUS
10
14.6775575313
20
15.8572527044
0
VERTEX
8
0
62
2
6
CONTINUOUS
10
14.6777826628
20
15.8542037788
0
VERTEX
8
0
62
2
6
CONTINUOUS
10
14.6778646219
20
15.8511386233
0
VERTEX
8
0
62
2
6
CONTINUOUS
10
14.6778030059
20
15.8480558748
0
VERTEX
8
0
62
2
6
CONTINUOUS
10
14.6775981966
20
15.8449919924
0
VERTEX
8
0
62
2
6
CONTINUOUS
10
14.6772509921
20
15.8419509520
0
VERTEX
8
0
62
2
6
CONTINUOUS
10
14.6767622874
20
15.8389370306
0
VERTEX
8
0
62
2
6
CONTINUOUS
10
14.6761331190
20
15.8359548099
0
VERTEX
8
0
62
2
6
CONTINUOUS
10
14.6753647110
20
15.8330091714
0
VERTEX
8
0
62
2
6
CONTINUOUS
10
14.6744585211
20
15.8301052849
0
VERTEX
8
0
62
2
6
CONTINUOUS
10
14.6734162833
20
15.8272485872
0
VERTEX
8
0
62
2
6
CONTINUOUS
10
14.6722400482
20
15.8244447524
0
VERTEX
8
0
62
2
6
CONTINUOUS
10
14.6709322170
20
15.8216996533
0
VERTEX
8
0
62
2
6
CONTINUOUS
10
14.6694955688
20
15.8190193134
0
VERTEX
8
0
62
2
6
CONTINUOUS
10
14.6679332780
20
15.8164098529
0
VERTEX
8
0
62
2
6
CONTINUOUS
10
14.6662489226
20
15.8138774273
0
VERTEX
8
0
62
2
6
CONTINUOUS
10
14.6644464804
20
15.8114281629
0
VERTEX
8
0
62
2
6
CONTINUOUS
10
14.6625303140
20
15.8090680894
0
VERTEX
8
0
62
2
6
CONTINUOUS
10
14.6621729789
20
15.8086523895
0
VERTEX
8
0
62
2
6
CONTINUOUS
10
14.6601295098
20
15.8064059995
0
VERTEX
8
0
62
2
6
CONTINUOUS
10
14.6579845733
20
15.8042626231
0
VERTEX
8
0
62
2
6
CONTINUOUS
10
14.6557436715
20
15.8022273028
0
VERTEX
8
0
62
2
6
CONTINUOUS
10
14.6534124577
20
15.8003047098
0
VERTEX
8
0
62
2
6
CONTINUOUS
10
14.6509966718
20
15.7984991184
0
VERTEX
8
0
62
2
6
CONTINUOUS
10
14.6485020753
20
15.7968143907
0
VERTEX
8
0
62
2
6
CONTINUOUS
10
14.6459343882
20
15.7952539755
0
VERTEX
8
0
62
2
6
CONTINUOUS
10
14.6432992308
20
15.7938209167
0
VERTEX
8
0
62
2
6
CONTINUOUS
10
14.6406020705
20
15.7925178735
0
VERTEX
8
0
62
2
6
CONTINUOUS
10
14.6378481766
20
15.7913471495
0
VERTEX
8
0
62
2
6
CONTINUOUS
10
14.6350425834
20
15.7903107281
0
VERTEX
8
0
62
2
6
CONTINUOUS
10
14.6321900615
20
15.7894103153
0
VERTEX
8
0
62
2
6
CONTINUOUS
10
14.6292950982
20
15.7886473840
0
VERTEX
8
0
62
2
6
CONTINUOUS
10
14.6263618866
20
15.7880232224
0
VERTEX
8
0
62
2
6
CONTINUOUS
10
14.6233943217
20
15.7875389809
0
VERTEX
8
0
62
2
6
CONTINUOUS
10
14.6203960044
20
15.7871957192
0
VERTEX
8
0
62
2
6
CONTINUOUS
10
14.6173702511
20
15.7869944507
0
VERTEX
8
0
62
2
6
CONTINUOUS
10
14.6143201089
20
15.7869361833
0
VERTEX
8
0
62
2
6
CONTINUOUS
10
14.6112635613
20
15.7870215410
0
VERTEX
8
0
62
2
6
CONTINUOUS
10
14.6082276016
20
15.7872498819
0
VERTEX
8
0
62
2
6
CONTINUOUS
10
14.6052157501
20
15.7876203770
0
VERTEX
8
0
62
2
6
CONTINUOUS
10
14.6022318277
20
15.7881321424
0
VERTEX
8
0
62
2
6
CONTINUOUS
10
14.5992799654
20
15.7887841937
0
VERTEX
8
0
62
2
6
CONTINUOUS
10
14.5963646087
20
15.7895753977
0
VERTEX
8
0
62
2
6
CONTINUOUS
10
14.5934905133
20
15.7905044237
0
VERTEX
8
0
62
2
6
CONTINUOUS
10
14.5906627328
20
15.7915696947
0
VERTEX
8
0
62
2
6
CONTINUOUS
10
14.5878865983
20
15.7927693415
0
VERTEX
8
0
62
2
6
CONTINUOUS
10
14.5851676868
20
15.7941011598
0
VERTEX
8
0
62
2
6
CONTINUOUS
10
14.5825117825
20
15.7955625740
0
VERTEX
8
0
62
2
6
CONTINUOUS
10
14.5799248278
20
15.7971506087
0
VERTEX
8
0
62
2
6
CONTINUOUS
10
14.5774128671
20
15.7988618689
0
VERTEX
8
0
62
2
6
CONTINUOUS
10
14.5749819839
20
15.8006925327
0
VERTEX
8
0
62
2
6
CONTINUOUS
10
14.5726382344
20
15.8026383541
0
VERTEX
8
0
62
2
6
CONTINUOUS
10
14.5703875779
20
15.8046946802
0
VERTEX
8
0
62
2
6
CONTINUOUS
10
14.5682358080
20
15.8068564800
0
VERTEX
8
0
62
2
6
CONTINUOUS
10
14.5679820556
20
15.8071253451
0
VERTEX
8
0
62
2
6
CONTINUOUS
10
14.5659492331
20
15.8093972699
0
VERTEX
8
0
62
2
6
CONTINUOUS
10
14.5640278721
20
15.8117611400
0
VERTEX
8
0
62
2
6
CONTINUOUS
10
14.5622225640
20
15.8142109482
0
VERTEX
8
0
62
2
6
CONTINUOUS
10
14.5605374920
20
15.8167405943
0
VERTEX
8
0
62
2
6
CONTINUOUS
10
14.5589764154
20
15.8193439548
0
VERTEX
8
0
62
2
6
CONTINUOUS
10
14.5575426666
20
15.8220149496
0
VERTEX
8
0
62
2
6
CONTINUOUS
10
14.5562391601
20
15.8247476051
0
VERTEX
8
0
62
2
6
CONTINUOUS
10
14.5550684115
20
15.8275361099
0
VERTEX
8
0
62
2
6
CONTINUOUS
10
14.5540325675
20
15.8303748631
0
VERTEX
8
0
62
2
6
CONTINUOUS
10
14.5531334424
20
15.8332585138
0
VERTEX
8
0
62
2
6
CONTINUOUS
10
14.5523725609
20
15.8361819908
0
VERTEX
8
0
62
2
6
CONTINUOUS
10
14.5517512043
20
15.8391405240
0
VERTEX
8
0
62
2
6
CONTINUOUS
10
14.5512704598
20
15.8421296551
0
VERTEX
8
0
62
2
6
CONTINUOUS
10
14.5509312686
20
15.8451452420
0
VERTEX
8
0
62
2
6
CONTINUOUS
10
14.5507344750
20
15.8481834537
0
VERTEX
8
0
62
2
6
CONTINUOUS
10
14.5506808708
20
15.8512407605
0
SEQEND
0
LINE
8
0
62
2
6
CONTINUOUS
10
15.5195669819
20
16.2712240938
11
15.5159447597
21
16.2488504827
0
LINE
8
0
62
2
6
CONTINUOUS
10
15.2816919819
20
15.8116227049
11
15.2981044819
21
15.8913213160
0
LINE
8
0
62
2
6
CONTINUOUS
10
15.2957711486
20
15.9174977049
11
15.2737308708
21
15.8116227049
0
LINE
8
0
62
2
6
CONTINUOUS
10
15.3688642041
20
15.9174977049
11
15.3322433708
21
15.8271393716
0
LINE
8
0
62
2
6
CONTINUOUS
10
15.3322433708
20
15.8067935383
11
15.3665044819
21
15.8913213160
0
POLYLINE
8
0
62
2
6
CONTINUOUS
66
1
70
0
0
VERTEX
8
0
62
2
6
CONTINUOUS
10
15.4324225375
20
15.8116227049
0
VERTEX
8
0
62
2
6
CONTINUOUS
10
15.4743058708
20
15.9146365938
0
VERTEX
8
0
62
2
6
CONTINUOUS
10
15.4751600375
20
15.9167921494
0
SEQEND
0
LINE
8
0
62
2
6
CONTINUOUS
10
15.4751600375
20
15.8959588160
11
15.4571350375
21
15.8517157605
0
LINE
8
0
62
2
6
CONTINUOUS
10
12.3980044819
20
16.1057713160
11
12.3769961486
21
16.1708074271
0
POLYLINE
8
0
62
2
6
CONTINUOUS
66
1
70
0
0
VERTEX
8
0
62
2
6
CONTINUOUS
10
15.4420391286
20
16.2128388393
0
VERTEX
8
0
62
2
6
CONTINUOUS
10
15.4420083727
20
16.2182612386
0
VERTEX
8
0
62
2
6
CONTINUOUS
10
15.4419091025
20
16.2225767419
0
VERTEX
8
0
62
2
6
CONTINUOUS
10
15.4417355369
20
16.2263063028
0
VERTEX
8
0
62
2
6
CONTINUOUS
10
15.4414865445
20
16.2296447943
0
VERTEX
8
0
62
2
6
CONTINUOUS
10
15.4411622675
20
16.2326909792
0
VERTEX
8
0
62
2
6
CONTINUOUS
10
15.4407633049
20
16.2355037640
0
VERTEX
8
0
62
2
6
CONTINUOUS
10
15.4402903842
20
16.2381221382
0
VERTEX
8
0
62
2
6
CONTINUOUS
10
15.4397441840
20
16.2405738627
0
VERTEX
8
0
62
2
6
CONTINUOUS
10
15.4391252176
20
16.2428797992
0
VERTEX
8
0
62
2
6
CONTINUOUS
10
15.4384337478
20
16.2450562774
0
VERTEX
8
0
62
2
6
CONTINUOUS
10
15.4376697181
20
16.2471164821
0
VERTEX
8
0
62
2
6
CONTINUOUS
10
15.4368326975
20
16.2490713071
0
VERTEX
8
0
62
2
6
CONTINUOUS
10
15.4359218336
20
16.2509299021
0
VERTEX
8
0
62
2
6
CONTINUOUS
10
15.4349358147
20
16.2527000311
0
VERTEX
8
0
62
2
6
CONTINUOUS
10
15.4338728396
20
16.2543883142
0
VERTEX
8
0
62
2
6
CONTINUOUS
10
15.4327305949
20
16.2560003907
0
VERTEX
8
0
62
2
6
CONTINUOUS
10
15.4315062395
20
16.2575410324
0
VERTEX
8
0
62
2
6
CONTINUOUS
10
15.4301963961
20
16.2590142228
0
VERTEX
8
0
62
2
6
CONTINUOUS
10
15.4287971491
20
16.2604232131
0
VERTEX
8
0
62
2
6
CONTINUOUS
10
15.4273040475
20
16.2617705644
0
VERTEX
8
0
62
2
6
CONTINUOUS
10
15.4257121132
20
16.2630581807
0
VERTEX
8
0
62
2
6
CONTINUOUS
10
15.4240158518
20
16.2642873355
0
VERTEX
8
0
62
2
6
CONTINUOUS
10
15.4222092666
20
16.2654586969
0
VERTEX
8
0
62
2
6
CONTINUOUS
10
15.4212624127
20
16.2660228591
0
VERTEX
8
0
62
2
6
CONTINUOUS
10
15.4202859089
20
16.2665723299
0
VERTEX
8
0
62
2
6
CONTINUOUS
10
15.4182420889
20
16.2676261778
0
VERTEX
8
0
62
2
6
CONTINUOUS
10
15.4160706697
20
16.2686196592
0
VERTEX
8
0
62
2
6
CONTINUOUS
10
15.4137640672
20
16.2695516492
0
VERTEX
8
0
62
2
6
CONTINUOUS
10
15.4113142628
20
16.2704205057
0
VERTEX
8
0
62
2
6
CONTINUOUS
10
15.4087128152
20
16.2712240938
0
SEQEND
0
POLYLINE
8
0
62
2
6
CONTINUOUS
66
1
70
0
0
VERTEX
8
0
62
2
6
CONTINUOUS
10
15.5802364263
20
16.1184463160
0
VERTEX
8
0
62
2
6
CONTINUOUS
10
15.5802434436
20
16.1166356960
0
VERTEX
8
0
62
2
6
CONTINUOUS
10
15.5801967870
20
16.1149419058
0
VERTEX
8
0
62
2
6
CONTINUOUS
10
15.5800997483
20
16.1133560915
0
VERTEX
8
0
62
2
6
CONTINUOUS
10
15.5799552645
20
16.1118701854
0
VERTEX
8
0
62
2
6
CONTINUOUS
10
15.5797659351
20
16.1104768087
0
VERTEX
8
0
62
2
6
CONTINUOUS
10
15.5795340318
20
16.1091691937
0
VERTEX
8
0
62
2
6
CONTINUOUS
10
15.5792615044
20
16.1079411192
0
VERTEX
8
0
62
2
6
CONTINUOUS
10
15.5789499813
20
16.1067868594
0
VERTEX
8
0
62
2
6
CONTINUOUS
10
15.5786007667
20
16.1057011430
0
VERTEX
8
0
62
2
6
CONTINUOUS
10
15.5782148358
20
16.1046791215
0
VERTEX
8
0
62
2
6
CONTINUOUS
10
15.5777928275
20
16.1037163453
0
VERTEX
8
0
62
2
6
CONTINUOUS
10
15.5773350362
20
16.1028087470
0
VERTEX
8
0
62
2
6
CONTINUOUS
10
15.5768414037
20
16.1019526302
0
VERTEX
8
0
62
2
6
CONTINUOUS
10
15.5763115109
20
16.1011446630
0
VERTEX
8
0
62
2
6
CONTINUOUS
10
15.5757445709
20
16.1003818758
0
VERTEX
8
0
62
2
6
CONTINUOUS
10
15.5751394232
20
16.0996616605
0
VERTEX
8
0
62
2
6
CONTINUOUS
10
15.5744945298
20
16.0989817727
0
VERTEX
8
0
62
2
6
CONTINUOUS
10
15.5738091816
20
16.0983413974
0
VERTEX
8
0
62
2
6
CONTINUOUS
10
15.5730817542
20
16.0977391839
0
VERTEX
8
0
62
2
6
CONTINUOUS
10
15.5723098556
20
16.0971737137
0
VERTEX
8
0
62
2
6
CONTINUOUS
10
15.5714907221
20
16.0966439392
0
VERTEX
8
0
62
2
6
CONTINUOUS
10
15.5706212196
20
16.0961491783
0
VERTEX
8
0
62
2
6
CONTINUOUS
10
15.5696978430
20
16.0956891081
0
VERTEX
8
0
62
2
6
CONTINUOUS
10
15.5687167116
20
16.0952637573
0
VERTEX
8
0
62
2
6
CONTINUOUS
10
15.5676735613
20
16.0948734972
0
VERTEX
8
0
62
2
6
CONTINUOUS
10
15.5665637307
20
16.0945190336
0
VERTEX
8
0
62
2
6
CONTINUOUS
10
15.5653821411
20
16.0942013980
0
VERTEX
8
0
62
2
6
CONTINUOUS
10
15.5641232686
20
16.0939219408
0
VERTEX
8
0
62
2
6
CONTINUOUS
10
15.5627811085
20
16.0936823267
0
VERTEX
8
0
62
2
6
CONTINUOUS
10
15.5613491280
20
16.0934845324
0
VERTEX
8
0
62
2
6
CONTINUOUS
10
15.5598202089
20
16.0933308485
0
VERTEX
8
0
62
2
6
CONTINUOUS
10
15.5581865755
20
16.0932238857
0
VERTEX
8
0
62
2
6
CONTINUOUS
10
15.5564397058
20
16.0931665869
0
VERTEX
8
0
62
2
6
CONTINUOUS
10
15.5554385837
20
16.0931574317
0
VERTEX
8
0
62
2
6
CONTINUOUS
10
15.5536485229
20
16.0931823500
0
VERTEX
8
0
62
2
6
CONTINUOUS
10
15.5519741235
20
16.0932589641
0
VERTEX
8
0
62
2
6
CONTINUOUS
10
15.5504066122
20
16.0933841601
0
VERTEX
8
0
62
2
6
CONTINUOUS
10
15.5489379790
20
16.0935551707
0
VERTEX
8
0
62
2
6
CONTINUOUS
10
15.5475608883
20
16.0937695604
0
VERTEX
8
0
62
2
6
CONTINUOUS
10
15.5462686052
20
16.0940252182
0
VERTEX
8
0
62
2
6
CONTINUOUS
10
15.5450549355
20
16.0943203538
0
VERTEX
8
0
62
2
6
CONTINUOUS
10
15.5439141778
20
16.0946534983
0
VERTEX
8
0
62
2
6
CONTINUOUS
10
15.5428410843
20
16.0950235082
0
VERTEX
8
0
62
2
6
CONTINUOUS
10
15.5418308313
20
16.0954295709
0
VERTEX
8
0
62
2
6
CONTINUOUS
10
15.5408789967
20
16.0958712132
0
VERTEX
8
0
62
2
6
CONTINUOUS
10
15.5399815434
20
16.0963483095
0
VERTEX
8
0
62
2
6
CONTINUOUS
10
15.5391348091
20
16.0968610910
0
VERTEX
8
0
62
2
6
CONTINUOUS
10
15.5383354997
20
16.0974101541
0
VERTEX
8
0
62
2
6
CONTINUOUS
10
15.5375806864
20
16.0979964683
0
VERTEX
8
0
62
2
6
CONTINUOUS
10
15.5368678050
20
16.0986213831
0
VERTEX
8
0
62
2
6
CONTINUOUS
10
15.5361952732
20
16.0992859864
0
VERTEX
8
0
62
2
6
CONTINUOUS
10
15.5355620226
20
16.0999912521
0
VERTEX
8
0
62
2
6
CONTINUOUS
10
15.5349663139
20
16.1007393995
0
VERTEX
8
0
62
2
6
CONTINUOUS
10
15.5344067787
20
16.1015330315
0
VERTEX
8
0
62
2
6
CONTINUOUS
10
15.5338824142
20
16.1023751366
0
VERTEX
8
0
62
2
6
CONTINUOUS
10
15.5333925777
20
16.1032690930
0
VERTEX
8
0
62
2
6
CONTINUOUS
10
15.5329369787
20
16.1042186749
0
VERTEX
8
0
62
2
6
CONTINUOUS
10
15.5325156713
20
16.1052280652
0
VERTEX
8
0
62
2
6
CONTINUOUS
10
15.5321290446
20
16.1063018726
0
VERTEX
8
0
62
2
6
CONTINUOUS
10
15.5317778151
20
16.1074451572
0
VERTEX
8
0
62
2
6
CONTINUOUS
10
15.5314630193
20
16.1086634652
0
VERTEX
8
0
62
2
6
CONTINUOUS
10
15.5311860083
20
16.1099628736
0
VERTEX
8
0
62
2
6
CONTINUOUS
10
15.5309484457
20
16.1113500486
0
VERTEX
8
0
62
2
6
CONTINUOUS
10
15.5307523094
20
16.1128323194
0
VERTEX
8
0
62
2
6
CONTINUOUS
10
15.5305998982
20
16.1144177708
0
VERTEX
8
0
62
2
6
CONTINUOUS
10
15.5304938452
20
16.1161153598
0
VERTEX
8
0
62
2
6
CONTINUOUS
10
15.5304371390
20
16.1179350613
0
VERTEX
8
0
62
2
6
CONTINUOUS
10
15.5304317488
20
16.1183395247
0
VERTEX
8
0
62
2
6
CONTINUOUS
10
15.5304459987
20
16.1196804095
0
VERTEX
8
0
62
2
6
CONTINUOUS
10
15.5305156364
20
16.1209845464
0
VERTEX
8
0
62
2
6
CONTINUOUS
10
15.5306392163
20
16.1222525747
0
VERTEX
8
0
62
2
6
CONTINUOUS
10
15.5308154082
20
16.1234851024
0
VERTEX
8
0
62
2
6
CONTINUOUS
10
15.5310429993
20
16.1246826977
0
VERTEX
8
0
62
2
6
CONTINUOUS
10
15.5313208941
20
16.1258458786
0
VERTEX
8
0
62
2
6
CONTINUOUS
10
15.5316481128
20
16.1269751020
0
VERTEX
8
0
62
2
6
CONTINUOUS
10
15.5320237874
20
16.1280707525
0
VERTEX
8
0
62
2
6
CONTINUOUS
10
15.5324471561
20
16.1291331308
0
VERTEX
8
0
62
2
6
CONTINUOUS
10
15.5329175543
20
16.1301624420
0
VERTEX
8
0
62
2
6
CONTINUOUS
10
15.5334344039
20
16.1311587837
0
VERTEX
8
0
62
2
6
CONTINUOUS
10
15.5339971991
20
16.1321221354
0
VERTEX
8
0
62
2
6
CONTINUOUS
10
15.5346054892
20
16.1330523474
0
VERTEX
8
0
62
2
6
CONTINUOUS
10
15.5352588580
20
16.1339491324
0
VERTEX
8
0
62
2
6
CONTINUOUS
10
15.5359569012
20
16.1348120574
0
VERTEX
8
0
62
2
6
CONTINUOUS
10
15.5366991993
20
16.1356405383
0
VERTEX
8
0
62
2
6
CONTINUOUS
10
15.5374852888
20
16.1364338368
0
VERTEX
8
0
62
2
6
CONTINUOUS
10
15.5383146301
20
16.1371910600
0
VERTEX
8
0
62
2
6
CONTINUOUS
10
15.5391865741
20
16.1379111637
0
VERTEX
8
0
62
2
6
CONTINUOUS
10
15.5401003264
20
16.1385929591
0
VERTEX
8
0
62
2
6
CONTINUOUS
10
15.5410549120
20
16.1392351240
0
VERTEX
8
0
62
2
6
CONTINUOUS
10
15.5420491391
20
16.1398362179
0
VERTEX
8
0
62
2
6
CONTINUOUS
10
15.5430815654
20
16.1403947030
0
VERTEX
8
0
62
2
6
CONTINUOUS
10
15.5441504669
20
16.1409089682
0
VERTEX
8
0
62
2
6
CONTINUOUS
10
15.5452538113
20
16.1413773596
0
VERTEX
8
0
62
2
6
CONTINUOUS
10
15.5463892376
20
16.1417982142
0
VERTEX
8
0
62
2
6
CONTINUOUS
10
15.5475540434
20
16.1421698973
0
VERTEX
8
0
62
2
6
CONTINUOUS
10
15.5487451823
20
16.1424908432
0
VERTEX
8
0
62
2
6
CONTINUOUS
10
15.5499592716
20
16.1427595972
0
VERTEX
8
0
62
2
6
CONTINUOUS
10
15.5511926122
20
16.1429748566
0
VERTEX
8
0
62
2
6
CONTINUOUS
10
15.5524412207
20
16.1431355110
0
VERTEX
8
0
62
2
6
CONTINUOUS
10
15.5537008734
20
16.1432406775
0
VERTEX
8
0
62
2
6
CONTINUOUS
10
15.5549671615
20
16.1432897306
0
VERTEX
8
0
62
2
6
CONTINUOUS
10
15.5558310744
20
16.1432908275
0
VERTEX
8
0
62
2
6
CONTINUOUS
10
15.5570967515
20
16.1432450091
0
VERTEX
8
0
62
2
6
CONTINUOUS
10
15.5583552395
20
16.1431431133
0
VERTEX
8
0
62
2
6
CONTINUOUS
10
15.5596021503
20
16.1429857833
0
VERTEX
8
0
62
2
6
CONTINUOUS
10
15.5608332891
20
16.1427739175
0
VERTEX
8
0
62
2
6
CONTINUOUS
10
15.5620447082
20
16.1425086389
0
VERTEX
8
0
62
2
6
CONTINUOUS
10
15.5632327496
20
16.1421912595
0
VERTEX
8
0
62
2
6
CONTINUOUS
10
15.5643940759
20
16.1418232400
0
VERTEX
8
0
62
2
6
CONTINUOUS
10
15.5655256885
20
16.1414061480
0
VERTEX
8
0
62
2
6
CONTINUOUS
10
15.5666249341
20
16.1409416165
0
VERTEX
8
0
62
2
6
CONTINUOUS
10
15.5676895010
20
16.1404313032
0
VERTEX
8
0
62
2
6
CONTINUOUS
10
15.5687174046
20
16.1398768532
0
VERTEX
8
0
62
2
6
CONTINUOUS
10
15.5697069667
20
16.1392798653
0
VERTEX
8
0
62
2
6
CONTINUOUS
10
15.5706567877
20
16.1386418622
0
VERTEX
8
0
62
2
6
CONTINUOUS
10
15.5715657151
20
16.1379642665
0
VERTEX
8
0
62
2
6
CONTINUOUS
10
15.5724328085
20
16.1372483801
0
VERTEX
8
0
62
2
6
CONTINUOUS
10
15.5732573040
20
16.1364953695
0
VERTEX
8
0
62
2
6
CONTINUOUS
10
15.5740385782
20
16.1357062548
0
VERTEX
8
0
62
2
6
CONTINUOUS
10
15.5747761123
20
16.1348819033
0
VERTEX
8
0
62
2
6
CONTINUOUS
10
15.5754694584
20
16.1340230267
0
VERTEX
8
0
62
2
6
CONTINUOUS
10
15.5761182082
20
16.1331301816
0
VERTEX
8
0
62
2
6
CONTINUOUS
10
15.5767219633
20
16.1322037730
0
VERTEX
8
0
62
2
6
CONTINUOUS
10
15.5772803093
20
16.1312440601
0
VERTEX
8
0
62
2
6
CONTINUOUS
10
15.5777927928
20
16.1302511642
0
VERTEX
8
0
62
2
6
CONTINUOUS
10
15.5782589011
20
16.1292250781
0
VERTEX
8
0
62
2
6
CONTINUOUS
10
15.5786780455
20
16.1281656765
0
VERTEX
8
0
62
2
6
CONTINUOUS
10
15.5790495477
20
16.1270727276
0
VERTEX
8
0
62
2
6
CONTINUOUS
10
15.5793726285
20
16.1259459049
0
VERTEX
8
0
62
2
6
CONTINUOUS
10
15.5796464004
20
16.1247847987
0
VERTEX
8
0
62
2
6
CONTINUOUS
10
15.5798698615
20
16.1235889282
0
VERTEX
8
0
62
2
6
CONTINUOUS
10
15.5800418922
20
16.1223577529
0
VERTEX
8
0
62
2
6
CONTINUOUS
10
15.5801612540
20
16.1210906830
0
VERTEX
8
0
62
2
6
CONTINUOUS
10
15.5802265900
20
16.1197870901
0
VERTEX
8
0
62
2
6
CONTINUOUS
10
15.5802385425
20
16.1191213560
0
VERTEX
8
0
62
2
6
CONTINUOUS
10
15.5802364263
20
16.1184463160
0
SEQEND
0
POLYLINE
8
0
62
2
6
CONTINUOUS
66
1
70
0
0
VERTEX
8
0
62
2
6
CONTINUOUS
10
14.7959197597
20
15.7885102049
0
VERTEX
8
0
62
2
6
CONTINUOUS
10
14.7959197597
20
15.9118824271
0
VERTEX
8
0
62
2
6
CONTINUOUS
10
14.8296392041
20
15.9118824271
0
SEQEND
0
POLYLINE
8
0
62
2
6
CONTINUOUS
66
1
70
0
0
VERTEX
8
0
62
2
6
CONTINUOUS
10
14.8296392041
20
15.9118824271
0
VERTEX
8
0
62
2
6
CONTINUOUS
10
14.8296392041
20
15.8200046494
0
VERTEX
8
0
62
2
6
CONTINUOUS
10
14.8674947597
20
15.8200046494
0
VERTEX
8
0
62
2
6
CONTINUOUS
10
14.8674947597
20
15.7885102049
0
SEQEND
0
LINE
8
0
62
2
6
CONTINUOUS
10
14.8764183708
20
15.7885102049
11
14.8764183708
21
15.9118824271
0
LINE
8
0
62
2
6
CONTINUOUS
10
14.9007655930
20
16.4392810383
11
14.9007655930
21
16.4408477049
0
POLYLINE
8
0
62
2
6
CONTINUOUS
66
1
70
0
0
VERTEX
8
0
62
2
6
CONTINUOUS
10
14.9448461486
20
15.9118824271
0
VERTEX
8
0
62
2
6
CONTINUOUS
10
14.9448461486
20
15.8834407605
0
VERTEX
8
0
62
2
6
CONTINUOUS
10
14.9109780930
20
15.8833865938
0
VERTEX
8
0
62
2
6
CONTINUOUS
10
14.9108294819
20
15.8639227049
0
VERTEX
8
0
62
2
6
CONTINUOUS
10
14.9421336486
20
15.8639227049
0
VERTEX
8
0
62
2
6
CONTINUOUS
10
14.9421336486
20
15.8362810383
0
VERTEX
8
0
62
2
6
CONTINUOUS
10
14.9109239263
20
15.8362810383
0
VERTEX
8
0
62
2
6
CONTINUOUS
10
14.9109239263
20
15.8174546494
0
VERTEX
8
0
62
2
6
CONTINUOUS
10
14.9451044819
20
15.8174546494
0
VERTEX
8
0
62
2
6
CONTINUOUS
10
14.9451044819
20
15.7885102049
0
SEQEND
0
LINE
8
0
62
2
6
CONTINUOUS
10
14.9540155930
20
15.7885921494
11
14.9540155930
21
15.9118824271
0
LINE
8
0
62
2
6
CONTINUOUS
10
14.9869475375
20
15.8833046494
11
14.9869475375
21
15.8595421494
0
LINE
8
0
62
2
6
CONTINUOUS
10
14.9870017041
20
15.8263657605
11
14.9870017041
21
15.7885921494
0
LINE
8
0
62
2
6
CONTINUOUS
10
15.0283017041
20
16.4408477049
11
15.0283017041
21
16.4392810383
0
LINE
8
0
62
2
6
CONTINUOUS
10
15.1650072597
20
15.8321171494
11
15.1650072597
21
15.8346671494
0
LINE
8
0
62
2
6
CONTINUOUS
10
15.1650072597
20
15.8883504827
11
15.1650072597
21
15.8995532605
0
LINE
8
0
62
2
6
CONTINUOUS
10
15.3996669819
20
15.8116227049
11
15.3996669819
21
15.9120185383
0
LINE
8
0
62
2
6
CONTINUOUS
10
15.4077905930
20
15.9042879827
11
15.4077905930
21
15.8660935383
0
LINE
8
0
62
2
6
CONTINUOUS
10
15.4077905930
20
15.8583754827
11
15.4077905930
21
15.8116227049
0
LINE
8
0
62
2
6
CONTINUOUS
10
15.4087128152
20
16.2712240938
11
15.4087128152
21
16.2727768716
0
LINE
8
0
62
2
6
CONTINUOUS
10
15.4420392041
20
16.1375088160
11
15.4420391286
21
16.2128388393
0
LINE
8
0
62
2
6
CONTINUOUS
10
15.4644989263
20
16.4403185383
11
15.4644989263
21
16.3804838160
0
LINE
8
0
62
2
6
CONTINUOUS
10
15.5159447597
20
16.2488504827
11
15.5159447597
21
16.1291879827
0
LINE
8
0
62
2
6
CONTINUOUS
10
15.5195669819
20
16.2727768716
11
15.5195669819
21
16.2712240938
0
LINE
8
0
62
2
6
CONTINUOUS
10
15.5230530930
20
15.9146365938
11
15.5230530930
21
15.8116227049
0
LINE
8
0
62
2
6
CONTINUOUS
10
15.5311503152
20
15.8116227049
11
15.5311503152
21
15.8948477049
0
LINE
8
0
62
2
6
CONTINUOUS
10
15.5462058708
20
16.1037768716
11
15.5462058708
21
16.1318740938
0
LINE
8
0
62
2
6
CONTINUOUS
10
15.5506808708
20
16.1288490938
11
15.5506808708
21
16.1193407605
0
LINE
8
0
62
2
6
CONTINUOUS
10
15.5506808708
20
16.1158754827
11
15.5506808708
21
16.1037768716
0
LINE
8
0
62
2
6
CONTINUOUS
10
15.5599725375
20
16.1177740938
11
15.5599725375
21
16.1175504827
0
LINE
8
0
62
2
6
CONTINUOUS
10
15.6058030930
20
15.9120185383
11
15.6058030930
21
15.8273282605
0
LINE
8
0
62
2
6
CONTINUOUS
10
15.6139003152
20
15.8069435383
11
15.6139003152
21
15.9120185383
0
LINE
8
0
62
2
6
CONTINUOUS
10
15.6338655930
20
16.5177171494
11
15.6338655930
21
16.0215421494
0
LINE
8
0
62
2
6
CONTINUOUS
10
15.6405933708
20
16.5244310383
11
15.6405933708
21
16.0148282605
0
LINE
8
0
62
2
6
CONTINUOUS
10
15.6605169819
20
15.8116227049
11
15.6605169819
21
15.8546324271
0
POLYLINE
8
0
62
2
6
CONTINUOUS
66
1
70
0
0
VERTEX
8
0
62
2
6
CONTINUOUS
10
14.9384447597
20
16.1765310383
0
VERTEX
8
0
62
2
6
CONTINUOUS
10
14.9384454998
20
16.3759470475
0
VERTEX
8
0
62
2
6
CONTINUOUS
10
14.9384089377
20
16.3837304451
0
VERTEX
8
0
62
2
6
CONTINUOUS
10
14.9382536292
20
16.3893619481
0
VERTEX
8
0
62
2
6
CONTINUOUS
10
14.9379641736
20
16.3939862783
0
VERTEX
8
0
62
2
6
CONTINUOUS
10
14.9375371733
20
16.3979892238
0
VERTEX
8
0
62
2
6
CONTINUOUS
10
14.9369708549
20
16.4015592495
0
VERTEX
8
0
62
2
6
CONTINUOUS
10
14.9362629847
20
16.4048070899
0
VERTEX
8
0
62
2
6
CONTINUOUS
10
14.9354100282
20
16.4078056095
0
VERTEX
8
0
62
2
6
CONTINUOUS
10
14.9344066473
20
16.4106065674
0
VERTEX
8
0
62
2
6
CONTINUOUS
10
14.9332453299
20
16.4132487650
0
VERTEX
8
0
62
2
6
CONTINUOUS
10
14.9319160932
20
16.4157624132
0
VERTEX
8
0
62
2
6
CONTINUOUS
10
14.9304062411
20
16.4181716465
0
VERTEX
8
0
62
2
6
CONTINUOUS
10
14.9287001627
20
16.4204960562
0
VERTEX
8
0
62
2
6
CONTINUOUS
10
14.9267791621
20
16.4227516767
0
VERTEX
8
0
62
2
6
CONTINUOUS
10
14.9257307141
20
16.4238585390
0
VERTEX
8
0
62
2
6
CONTINUOUS
10
14.9246213038
20
16.4249516584
0
VERTEX
8
0
62
2
6
CONTINUOUS
10
14.9222127365
20
16.4270971802
0
VERTEX
8
0
62
2
6
CONTINUOUS
10
14.9195272026
20
16.4291984941
0
VERTEX
8
0
62
2
6
CONTINUOUS
10
14.9165348315
20
16.4312639566
0
VERTEX
8
0
62
2
6
CONTINUOUS
10
14.9132020771
20
16.4333002395
0
VERTEX
8
0
62
2
6
CONTINUOUS
10
14.9094914842
20
16.4353126099
0
VERTEX
8
0
62
2
6
CONTINUOUS
10
14.9053613960
20
16.4373051660
0
VERTEX
8
0
62
2
6
CONTINUOUS
10
14.9007655930
20
16.4392810383
0
SEQEND
0
LINE
8
0
62
2
6
CONTINUOUS
10
15.6525419819
20
15.8541435383
11
15.6523933708
21
15.8116227049
0
LINE
8
0
62
2
6
CONTINUOUS
10
15.1646544819
20
15.8227713160
11
15.1650072597
21
15.8321171494
0
POLYLINE
8
0
62
2
6
CONTINUOUS
66
1
70
0
0
VERTEX
8
0
62
2
6
CONTINUOUS
10
13.0878239263
20
16.3825588160
0
VERTEX
8
0
62
2
6
CONTINUOUS
10
13.0867539546
20
16.3844310876
0
VERTEX
8
0
62
2
6
CONTINUOUS
10
13.0855262977
20
16.3862133765
0
VERTEX
8
0
62
2
6
CONTINUOUS
10
13.0841358674
20
16.3879115550
0
VERTEX
8
0
62
2
6
CONTINUOUS
10
13.0825754790
20
16.3895301208
0
VERTEX
8
0
62
2
6
CONTINUOUS
10
13.0808359793
20
16.3910721476
0
VERTEX
8
0
62
2
6
CONTINUOUS
10
13.0789063874
20
16.3925392731
0
VERTEX
8
0
62
2
6
CONTINUOUS
10
13.0767740329
20
16.3939317221
0
VERTEX
8
0
62
2
6
CONTINUOUS
10
13.0744246770
20
16.3952483625
0
VERTEX
8
0
62
2
6
CONTINUOUS
10
13.0718426048
20
16.3964867856
0
VERTEX
8
0
62
2
6
CONTINUOUS
10
13.0690106698
20
16.3976434080
0
VERTEX
8
0
62
2
6
CONTINUOUS
10
13.0659102735
20
16.3987135879
0
VERTEX
8
0
62
2
6
CONTINUOUS
10
13.0625212457
20
16.3996917541
0
VERTEX
8
0
62
2
6
CONTINUOUS
10
13.0588215710
20
16.4005715463
0
VERTEX
8
0
62
2
6
CONTINUOUS
10
13.0547868562
20
16.4013459684
0
VERTEX
8
0
62
2
6
CONTINUOUS
10
13.0503893360
20
16.4020075602
0
VERTEX
8
0
62
2
6
CONTINUOUS
10
13.0455959829
20
16.4025485957
0
VERTEX
8
0
62
2
6
CONTINUOUS
10
13.0403647380
20
16.4029613243
0
VERTEX
8
0
62
2
6
CONTINUOUS
10
13.0346363430
20
16.4032382748
0
VERTEX
8
0
62
2
6
CONTINUOUS
10
13.0283142317
20
16.4033726609
0
VERTEX
8
0
62
2
6
CONTINUOUS
10
13.0255142041
20
16.4033852049
0
VERTEX
8
0
62
2
6
CONTINUOUS
10
12.9602878152
20
16.4033852049
0
SEQEND
0
POLYLINE
8
0
62
2
6
CONTINUOUS
66
1
70
0
0
VERTEX
8
0
62
2
6
CONTINUOUS
10
14.3677725375
20
15.9167921494
0
VERTEX
8
0
62
2
6
CONTINUOUS
10
14.4102600375
20
15.8116227049
0
VERTEX
8
0
62
2
6
CONTINUOUS
10
14.4020128152
20
15.8116227049
0
VERTEX
8
0
62
2
6
CONTINUOUS
10
14.3893044819
20
15.8439713160
0
SEQEND
0
LINE
8
0
62
2
6
CONTINUOUS
10
14.3855475375
20
15.8517157605
11
14.3677725375
21
15.8959046494
0
LINE
8
0
62
2
6
CONTINUOUS
10
15.5617628152
20
16.1037768716
11
15.5598642041
21
16.1109393716
0
LINE
8
0
62
2
6
CONTINUOUS
10
15.3908780930
20
15.8116227049
11
15.3688642041
21
15.9174977049
0
LINE
8
0
62
2
6
CONTINUOUS
10
15.3665044819
20
15.8913213160
11
15.3829836486
21
15.8116227049
0
LINE
8
0
62
2
6
CONTINUOUS
10
15.5159447597
20
16.1291879827
11
15.5195669819
21
16.1057713160
0
LINE
8
0
62
2
6
CONTINUOUS
10
13.7109794819
20
16.2030685383
11
13.6443086486
21
16.2764324271
0
POLYLINE
8
0
62
2
6
CONTINUOUS
66
1
70
0
0
VERTEX
8
0
62
2
6
CONTINUOUS
10
14.5182100375
20
15.8531129827
0
VERTEX
8
0
62
2
6
CONTINUOUS
10
14.5739086486
20
15.7884421494
0
VERTEX
8
0
62
2
6
CONTINUOUS
10
14.5292517041
20
15.7885102049
0
VERTEX
8
0
62
2
6
CONTINUOUS
10
14.4914294819
20
15.8324699271
0
VERTEX
8
0
62
2
6
CONTINUOUS
10
14.4913683708
20
15.8324699271
0
VERTEX
8
0
62
2
6
CONTINUOUS
10
14.4913683708
20
15.7885102049
0
VERTEX
8
0
62
2
6
CONTINUOUS
10
14.4576503152
20
15.7885102049
0
SEQEND
0
POLYLINE
8
0
62
2
6
CONTINUOUS
66
1
70
0
0
VERTEX
8
0
62
2
6
CONTINUOUS
10
13.3856350375
20
16.2509463160
0
VERTEX
8
0
62
2
6
CONTINUOUS
10
13.3843696316
20
16.2524513564
0
VERTEX
8
0
62
2
6
CONTINUOUS
10
13.3829434980
20
16.2538794790
0
VERTEX
8
0
62
2
6
CONTINUOUS
10
13.3813467128
20
16.2552341284
0
VERTEX
8
0
62
2
6
CONTINUOUS
10
13.3795672144
20
16.2565172334
0
VERTEX
8
0
62
2
6
CONTINUOUS
10
13.3775908839
20
16.2577292562
0
VERTEX
8
0
62
2
6
CONTINUOUS
10
13.3754015722
20
16.2588692795
0
VERTEX
8
0
62
2
6
CONTINUOUS
10
13.3729810429
20
16.2599351245
0
VERTEX
8
0
62
2
6
CONTINUOUS
10
13.3703087863
20
16.2609234935
0
VERTEX
8
0
62
2
6
CONTINUOUS
10
13.3673616361
20
16.2618301313
0
VERTEX
8
0
62
2
6
CONTINUOUS
10
13.3641130721
20
16.2626500046
0
VERTEX
8
0
62
2
6
CONTINUOUS
10
13.3605319879
20
16.2633775032
0
VERTEX
8
0
62
2
6
CONTINUOUS
10
13.3565804818
20
16.2640066727
0
VERTEX
8
0
62
2
6
CONTINUOUS
10
13.3522097085
20
16.2645315041
0
VERTEX
8
0
62
2
6
CONTINUOUS
10
13.3473514621
20
16.2649463340
0
VERTEX
8
0
62
2
6
CONTINUOUS
10
13.3418989719
20
16.2652464923
0
VERTEX
8
0
62
2
6
CONTINUOUS
10
13.3356543431
20
16.2654296498
0
VERTEX
8
0
62
2
6
CONTINUOUS
10
13.3281310926
20
16.2655001408
0
VERTEX
8
0
62
2
6
CONTINUOUS
10
13.2675253152
20
16.2655004827
0
SEQEND
0
LINE
8
0
62
2
6
CONTINUOUS
10
15.0145211486
20
15.7885102049
11
14.9870017041
21
15.8263657605
0
LINE
8
0
62
2
6
CONTINUOUS
10
15.0162308708
20
15.8378268716
11
15.0513461486
21
15.7884421494
0
LINE
8
0
62
2
6
CONTINUOUS
10
15.6189044819
20
15.9120185383
11
15.6525419819
21
15.8541435383
0
LINE
8
0
62
2
6
CONTINUOUS
10
15.6565155930
20
15.8630004827
11
15.6281822597
21
15.9120185383
0
LINE
8
0
62
2
6
CONTINUOUS
10
15.5599725375
20
16.1175504827
11
15.5664558708
21
16.1037768716
0
POLYLINE
8
0
62
2
6
CONTINUOUS
66
1
70
0
0
VERTEX
8
0
62
2
6
CONTINUOUS
10
15.4751600375
20
15.9167921494
0
VERTEX
8
0
62
2
6
CONTINUOUS
10
15.5176544819
20
15.8116227049
0
VERTEX
8
0
62
2
6
CONTINUOUS
10
15.5097058708
20
15.8116227049
0
VERTEX
8
0
62
2
6
CONTINUOUS
10
15.4966725375
20
15.8439713160
0
SEQEND
0
LINE
8
0
62
2
6
CONTINUOUS
10
15.2981044819
20
15.8913213160
11
15.3322433708
21
15.8067935383
0
LINE
8
0
62
2
6
CONTINUOUS
10
15.3322433708
20
15.8271393716
11
15.2957711486
21
15.9174977049
0
LINE
8
0
62
2
6
CONTINUOUS
10
15.4929280930
20
15.8517157605
11
15.4751600375
21
15.8959588160
0
POLYLINE
8
0
62
2
6
CONTINUOUS
66
1
70
0
0
VERTEX
8
0
62
2
6
CONTINUOUS
10
12.3769961486
20
16.1708074271
0
VERTEX
8
0
62
2
6
CONTINUOUS
10
12.3854016082
20
16.1660747160
0
VERTEX
8
0
62
2
6
CONTINUOUS
10
12.3943707452
20
16.1614346427
0
VERTEX
8
0
62
2
6
CONTINUOUS
10
12.4038323010
20
16.1569421773
0
VERTEX
8
0
62
2
6
CONTINUOUS
10
12.4070946711
20
16.1554810237
0
VERTEX
8
0
62
2
6
CONTINUOUS
10
12.4170497271
20
16.1512816281
0
VERTEX
8
0
62
2
6
CONTINUOUS
10
12.4272581327
20
16.1473582630
0
VERTEX
8
0
62
2
6
CONTINUOUS
10
12.4376361307
20
16.1437449699
0
VERTEX
8
0
62
2
6
CONTINUOUS
10
12.4481050412
20
16.1404685776
0
VERTEX
8
0
62
2
6
CONTINUOUS
10
12.4585930400
20
16.1375489220
0
VERTEX
8
0
62
2
6
CONTINUOUS
10
12.4690362068
20
16.1349993831
0
VERTEX
8
0
62
2
6
CONTINUOUS
10
12.4793789586
20
16.1328276218
0
VERTEX
8
0
62
2
6
CONTINUOUS
10
12.4895740093
20
16.1310364089
0
VERTEX
8
0
62
2
6
CONTINUOUS
10
12.4995819957
20
16.1296244732
0
VERTEX
8
0
62
2
6
CONTINUOUS
10
12.5093708911
20
16.1285873122
0
VERTEX
8
0
62
2
6
CONTINUOUS
10
12.5189153030
20
16.1279179375
0
VERTEX
8
0
62
2
6
CONTINUOUS
10
12.5281957241
20
16.1276075379
0
VERTEX
8
0
62
2
6
CONTINUOUS
10
12.5371977867
20
16.1276460587
0
VERTEX
8
0
62
2
6
CONTINUOUS
10
12.5459115496
20
16.1280226977
0
VERTEX
8
0
62
2
6
CONTINUOUS
10
12.5543308349
20
16.1287263279
0
VERTEX
8
0
62
2
6
CONTINUOUS
10
12.5624526221
20
16.1297458528
0
VERTEX
8
0
62
2
6
CONTINUOUS
10
12.5702765020
20
16.1310705057
0
VERTEX
8
0
62
2
6
CONTINUOUS
10
12.5778041871
20
16.1326900989
0
VERTEX
8
0
62
2
6
CONTINUOUS
10
12.5850390745
20
16.1345952317
0
VERTEX
8
0
62
2
6
CONTINUOUS
10
12.5919858556
20
16.1367774625
0
VERTEX
8
0
62
2
6
CONTINUOUS
10
12.5986501679
20
16.1392294501
0
VERTEX
8
0
62
2
6
CONTINUOUS
10
12.6050382817
20
16.1419450674
0
VERTEX
8
0
62
2
6
CONTINUOUS
10
12.6102886424
20
16.1445219636
0
VERTEX
8
0
62
2
6
CONTINUOUS
10
12.6150104494
20
16.1472142237
0
VERTEX
8
0
62
2
6
CONTINUOUS
10
12.6192268225
20
16.1500057484
0
VERTEX
8
0
62
2
6
CONTINUOUS
10
12.6229610401
20
16.1528821836
0
VERTEX
8
0
62
2
6
CONTINUOUS
10
12.6262361127
20
16.1558311547
0
VERTEX
8
0
62
2
6
CONTINUOUS
10
12.6290742732
20
16.1588424551
0
VERTEX
8
0
62
2
6
CONTINUOUS
10
12.6314963958
20
16.1619081653
0
VERTEX
8
0
62
2
6
CONTINUOUS
10
12.6335213632
20
16.1650226706
0
VERTEX
8
0
62
2
6
CONTINUOUS
10
12.6351654167
20
16.1681825517
0
VERTEX
8
0
62
2
6
CONTINUOUS
10
12.6364415367
20
16.1713863230
0
VERTEX
8
0
62
2
6
CONTINUOUS
10
12.6373580741
20
16.1746303015
0
VERTEX
8
0
62
2
6
CONTINUOUS
10
12.6379204964
20
16.1779088496
0
VERTEX
8
0
62
2
6
CONTINUOUS
10
12.6381327647
20
16.1812229264
0
VERTEX
8
0
62
2
6
CONTINUOUS
10
12.6379945861
20
16.1845735055
0
VERTEX
8
0
62
2
6
CONTINUOUS
10
12.6375016135
20
16.1879607994
0
VERTEX
8
0
62
2
6
CONTINUOUS
10
12.6366459121
20
16.1913835015
0
VERTEX
8
0
62
2
6
CONTINUOUS
10
12.6354166642
20
16.1948381093
0
VERTEX
8
0
62
2
6
CONTINUOUS
10
12.6338010653
20
16.1983183808
0
VERTEX
8
0
62
2
6
CONTINUOUS
10
12.6317853455
20
16.2018149610
0
VERTEX
8
0
62
2
6
CONTINUOUS
10
12.6293558436
20
16.2053152011
0
VERTEX
8
0
62
2
6
CONTINUOUS
10
12.6265000598
20
16.2088031779
0
VERTEX
8
0
62
2
6
CONTINUOUS
10
12.6232076148
20
16.2122599052
0
VERTEX
8
0
62
2
6
CONTINUOUS
10
12.6194710516
20
16.2156637186
0
VERTEX
8
0
62
2
6
CONTINUOUS
10
12.6152864305
20
16.2189908006
0
VERTEX
8
0
62
2
6
CONTINUOUS
10
12.6106536842
20
16.2222158033
0
VERTEX
8
0
62
2
6
CONTINUOUS
10
12.6055767254
20
16.2253125191
0
VERTEX
8
0
62
2
6
CONTINUOUS
10
12.6007549362
20
16.2279068338
0
VERTEX
8
0
62
2
6
CONTINUOUS
10
12.5923825088
20
16.2319607825
0
VERTEX
8
0
62
2
6
CONTINUOUS
10
12.5834099333
20
16.2359258651
0
VERTEX
8
0
62
2
6
CONTINUOUS
10
12.5736687903
20
16.2398599410
0
VERTEX
8
0
62
2
6
CONTINUOUS
10
12.5628804070
20
16.2438557784
0
VERTEX
8
0
62
2
6
CONTINUOUS
10
12.5505105113
20
16.2480885145
0
VERTEX
8
0
62
2
6
CONTINUOUS
10
12.5352188240
20
16.2529957294
0
VERTEX
8
0
62
2
6
CONTINUOUS
10
12.5164386585
20
16.2588591208
0
VERTEX
8
0
62
2
6
CONTINUOUS
10
12.5013327251
20
16.2637180007
0
VERTEX
8
0
62
2
6
CONTINUOUS
10
12.4890496993
20
16.2679347194
0
VERTEX
8
0
62
2
6
CONTINUOUS
10
12.4801466338
20
16.2711605752
0
VERTEX
8
0
62
2
6
CONTINUOUS
10
12.4697026144
20
16.2751594133
0
VERTEX
8
0
62
2
6
CONTINUOUS
10
12.4604511004
20
16.2789988613
0
VERTEX
8
0
62
2
6
CONTINUOUS
10
12.4520947734
20
16.2827889421
0
VERTEX
8
0
62
2
6
CONTINUOUS
10
12.4444960717
20
16.2865730997
0
VERTEX
8
0
62
2
6
CONTINUOUS
10
12.4375730047
20
16.2903711045
0
VERTEX
8
0
62
2
6
CONTINUOUS
10
12.4312676883
20
16.2941925809
0
VERTEX
8
0
62
2
6
CONTINUOUS
10
12.4255344334
20
16.2980424840
0
VERTEX
8
0
62
2
6
CONTINUOUS
10
12.4203346059
20
16.3019237085
0
VERTEX
8
0
62
2
6
CONTINUOUS
10
12.4156342404
20
16.3058384847
0
VERTEX
8
0
62
2
6
CONTINUOUS
10
12.4114029095
20
16.3097891963
0
VERTEX
8
0
62
2
6
CONTINUOUS
10
12.4076132145
20
16.3137788911
0
VERTEX
8
0
62
2
6
CONTINUOUS
10
12.4042406057
20
16.3178116116
0
VERTEX
8
0
62
2
6
CONTINUOUS
10
12.4012633865
20
16.3218926081
0
VERTEX
8
0
62
2
6
CONTINUOUS
10
12.3986628186
20
16.3260284642
0
VERTEX
8
0
62
2
6
CONTINUOUS
10
12.3964232814
20
16.3302271518
0
VERTEX
8
0
62
2
6
CONTINUOUS
10
12.3945324504
20
16.3344980242
0
VERTEX
8
0
62
2
6
CONTINUOUS
10
12.3926945795
20
16.3395709669
0
VERTEX
8
0
62
2
6
CONTINUOUS
10
12.3912704022
20
16.3445110750
0
VERTEX
8
0
62
2
6
CONTINUOUS
10
12.3902409052
20
16.3493289583
0
VERTEX
8
0
62
2
6
CONTINUOUS
10
12.3895909544
20
16.3540291814
0
VERTEX
8
0
62
2
6
CONTINUOUS
10
12.3893068938
20
16.3586174902
0
VERTEX
8
0
62
2
6
CONTINUOUS
10
12.3893772625
20
16.3631045265
0
VERTEX
8
0
62
2
6
CONTINUOUS
10
12.3897941383
20
16.3675006660
0
VERTEX
8
0
62
2
6
CONTINUOUS
10
12.3905531740
20
16.3718157333
0
VERTEX
8
0
62
2
6
CONTINUOUS
10
12.3916535460
20
16.3760586927
0
VERTEX
8
0
62
2
6
CONTINUOUS
10
12.3930978038
20
16.3802373254
0
VERTEX
8
0
62
2
6
CONTINUOUS
10
12.3948916110
20
16.3843579057
0
VERTEX
8
0
62
2
6
CONTINUOUS
10
12.3970433751
20
16.3884248865
0
VERTEX
8
0
62
2
6
CONTINUOUS
10
12.3995637616
20
16.3924406019
0
VERTEX
8
0
62
2
6
CONTINUOUS
10
12.4024650882
20
16.3964049887
0
VERTEX
8
0
62
2
6
CONTINUOUS
10
12.4057605896
20
16.4003153277
0
VERTEX
8
0
62
2
6
CONTINUOUS
10
12.4094635379
20
16.4041660014
0
VERTEX
8
0
62
2
6
CONTINUOUS
10
12.4135861963
20
16.4079482673
0
VERTEX
8
0
62
2
6
CONTINUOUS
10
12.4181385746
20
16.4116500448
0
VERTEX
8
0
62
2
6
CONTINUOUS
10
12.4231269547
20
16.4152557261
0
VERTEX
8
0
62
2
6
CONTINUOUS
10
12.4285521504
20
16.4187460263
0
VERTEX
8
0
62
2
6
CONTINUOUS
10
12.4344074829
20
16.4220979075
0
VERTEX
8
0
62
2
6
CONTINUOUS
10
12.4406764846
20
16.4252846310
0
VERTEX
8
0
62
2
6
CONTINUOUS
10
12.4455716603
20
16.4275215354
0
VERTEX
8
0
62
2
6
CONTINUOUS
10
12.4529913993
20
16.4305674647
0
VERTEX
8
0
62
2
6
CONTINUOUS
10
12.4609048072
20
16.4334361837
0
VERTEX
8
0
62
2
6
CONTINUOUS
10
12.4693249652
20
16.4361149986
0
VERTEX
8
0
62
2
6
CONTINUOUS
10
12.4782625137
20
16.4385900414
0
VERTEX
8
0
62
2
6
CONTINUOUS
10
12.4877248718
20
16.4408464059
0
VERTEX
8
0
62
2
6
CONTINUOUS
10
12.4977153220
20
16.4428683174
0
VERTEX
8
0
62
2
6
CONTINUOUS
10
12.5082319391
20
16.4446393453
0
VERTEX
8
0
62
2
6
CONTINUOUS
10
12.5192663423
20
16.4461426752
0
VERTEX
8
0
62
2
6
CONTINUOUS
10
12.5308022576
20
16.4473614555
0
VERTEX
8
0
62
2
6
CONTINUOUS
10
12.5428138878
20
16.4482792411
0
VERTEX
8
0
62
2
6
CONTINUOUS
10
12.5552641108
20
16.4488805556
0
VERTEX
8
0
62
2
6
CONTINUOUS
10
12.5681025636
20
16.4491515954
0
VERTEX
8
0
62
2
6
CONTINUOUS
10
12.5812637264
20
16.4490810939
0
VERTEX
8
0
62
2
6
CONTINUOUS
10
12.5946651999
20
16.4486613521
0
VERTEX
8
0
62
2
6
CONTINUOUS
10
12.6082064706
20
16.4478894182
0
VERTEX
8
0
62
2
6
CONTINUOUS
10
12.6217685729
20
16.4467683614
0
VERTEX
8
0
62
2
6
CONTINUOUS
10
12.6352151470
20
16.4453085277
0
VERTEX
8
0
62
2
6
CONTINUOUS
10
12.6483954135
20
16.4435286036
0
VERTEX
8
0
62
2
6
CONTINUOUS
10
12.6559206423
20
16.4423493034
0
VERTEX
8
0
62
2
6
CONTINUOUS
10
12.6682755308
20
16.4401367371
0
VERTEX
8
0
62
2
6
CONTINUOUS
10
12.6798794819
20
16.4377143716
0
SEQEND
0
POLYLINE
8
0
62
2
6
CONTINUOUS
66
1
70
0
0
VERTEX
8
0
62
2
6
CONTINUOUS
10
12.6798794819
20
16.3789379827
0
VERTEX
8
0
62
2
6
CONTINUOUS
10
12.6718351189
20
16.3838076301
0
VERTEX
8
0
62
2
6
CONTINUOUS
10
12.6639035266
20
16.3881980593
0
VERTEX
8
0
62
2
6
CONTINUOUS
10
12.6560404166
20
16.3921460923
0
VERTEX
8
0
62
2
6
CONTINUOUS
10
12.6482033962
20
16.3956823961
0
VERTEX
8
0
62
2
6
CONTINUOUS
10
12.6403510326
20
16.3988321710
0
VERTEX
8
0
62
2
6
CONTINUOUS
10
12.6324420015
20
16.4016156642
0
VERTEX
8
0
62
2
6
CONTINUOUS
10
12.6284536374
20
16.4028749748
0
VERTEX
8
0
62
2
6
CONTINUOUS
10
12.6244398042
20
16.4040469939
0
VERTEX
8
0
62
2
6
CONTINUOUS
10
12.6163213894
20
16.4061334761
0
VERTEX
8
0
62
2
6
CONTINUOUS
10
12.6080427437
20
16.4078854056
0
VERTEX
8
0
62
2
6
CONTINUOUS
10
12.5995574737
20
16.4093089360
0
VERTEX
8
0
62
2
6
CONTINUOUS
10
12.5908158490
20
16.4104061848
0
VERTEX
8
0
62
2
6
CONTINUOUS
10
12.5817636909
20
16.4111752420
0
VERTEX
8
0
62
2
6
CONTINUOUS
10
12.5723410318
20
16.4116100731
0
VERTEX
8
0
62
2
6
CONTINUOUS
10
12.5704852160
20
16.4116544985
0
VERTEX
8
0
62
2
6
CONTINUOUS
10
12.5629762206
20
16.4116619583
0
VERTEX
8
0
62
2
6
CONTINUOUS
10
12.5543026879
20
16.4113497905
0
VERTEX
8
0
62
2
6
CONTINUOUS
10
12.5456398830
20
16.4107121882
0
VERTEX
8
0
62
2
6
CONTINUOUS
10
12.5372952414
20
16.4097738429
0
VERTEX
8
0
62
2
6
CONTINUOUS
10
12.5294300712
20
16.4085643744
0
VERTEX
8
0
62
2
6
CONTINUOUS
10
12.5221242134
20
16.4071136593
0
VERTEX
8
0
62
2
6
CONTINUOUS
10
12.5154102397
20
16.4054499409
0
VERTEX
8
0
62
2
6
CONTINUOUS
10
12.5092924452
20
16.4035990010
0
VERTEX
8
0
62
2
6
CONTINUOUS
10
12.5037579649
20
16.4015837527
0
VERTEX
8
0
62
2
6
CONTINUOUS
10
12.4987836182
20
16.3994239962
0
VERTEX
8
0
62
2
6
CONTINUOUS
10
12.4943403356
20
16.3971362315
0
VERTEX
8
0
62
2
6
CONTINUOUS
10
12.4903961739
20
16.3947334821
0
VERTEX
8
0
62
2
6
CONTINUOUS
10
12.4869184889
20
16.3922251223
0
VERTEX
8
0
62
2
6
CONTINUOUS
10
12.4838756043
20
16.3896167121
0
VERTEX
8
0
62
2
6
CONTINUOUS
10
12.4812381748
20
16.3869098668
0
VERTEX
8
0
62
2
6
CONTINUOUS
10
12.4789803599
20
16.3841021891
0
VERTEX
8
0
62
2
6
CONTINUOUS
10
12.4770808575
20
16.3811873033
0
VERTEX
8
0
62
2
6
CONTINUOUS
10
12.4755238051
20
16.3781550202
0
VERTEX
8
0
62
2
6
CONTINUOUS
10
12.4742995200
20
16.3749916467
0
VERTEX
8
0
62
2
6
CONTINUOUS
10
12.4734050390
20
16.3716804305
0
VERTEX
8
0
62
2
6
CONTINUOUS
10
12.4728444224
20
16.3682020990
0
VERTEX
8
0
62
2
6
CONTINUOUS
10
12.4726596819
20
16.3648698624
0
VERTEX
8
0
62
2
6
CONTINUOUS
10
12.4728360340
20
16.3616130768
0
VERTEX
8
0
62
2
6
CONTINUOUS
10
12.4733670753
20
16.3584121614
0
VERTEX
8
0
62
2
6
CONTINUOUS
10
12.4742547859
20
16.3552484548
0
VERTEX
8
0
62
2
6
CONTINUOUS
10
12.4755092889
20
16.3521048175
0
VERTEX
8
0
62
2
6
CONTINUOUS
10
12.4771483551
20
16.3489661437
0
VERTEX
8
0
62
2
6
CONTINUOUS
10
12.4791967148
20
16.3458197317
0
VERTEX
8
0
62
2
6
CONTINUOUS
10
12.4816852508
20
16.3426554909
0
VERTEX
8
0
62
2
6
CONTINUOUS
10
12.4846501423
20
16.3394659975
0
VERTEX
8
0
62
2
6
CONTINUOUS
10
12.4881320068
20
16.3362464252
0
VERTEX
8
0
62
2
6
CONTINUOUS
10
12.4921750681
20
16.3329943776
0
VERTEX
8
0
62
2
6
CONTINUOUS
10
12.4968263666
20
16.3297096375
0
VERTEX
8
0
62
2
6
CONTINUOUS
10
12.5021350494
20
16.3263938121
0
VERTEX
8
0
62
2
6
CONTINUOUS
10
12.5081518594
20
16.3230497913
0
VERTEX
8
0
62
2
6
CONTINUOUS
10
12.5149292148
20
16.3196807783
0
VERTEX
8
0
62
2
6
CONTINUOUS
10
12.5225231339
20
16.3162882323
0
VERTEX
8
0
62
2
6
CONTINUOUS
10
12.5310014302
20
16.3128666270
0
VERTEX
8
0
62
2
6
CONTINUOUS
10
12.5404771023
20
16.3093866845
0
VERTEX
8
0
62
2
6
CONTINUOUS
10
12.5512853050
20
16.3057161708
0
VERTEX
8
0
62
2
6
CONTINUOUS
10
12.5589951466
20
16.3031537917
0
VERTEX
8
0
62
2
6
CONTINUOUS
10
12.5762740005
20
16.2974215245
0
VERTEX
8
0
62
2
6
CONTINUOUS
10
12.5940512624
20
16.2916564182
0
VERTEX
8
0
62
2
6
CONTINUOUS
10
12.6112718992
20
16.2859419499
0
VERTEX
8
0
62
2
6
CONTINUOUS
10
12.6251103555
20
16.2810816179
0
VERTEX
8
0
62
2
6
CONTINUOUS
10
12.6371496582
20
16.2765406841
0
VERTEX
8
0
62
2
6
CONTINUOUS
10
12.6480077099
20
16.2721098371
0
VERTEX
8
0
62
2
6
CONTINUOUS
10
12.6580033322
20
16.2676797565
0
VERTEX
8
0
62
2
6
CONTINUOUS
10
12.6673278398
20
16.2631831788
0
VERTEX
8
0
62
2
6
CONTINUOUS
10
12.6742296472
20
16.2595128966
0
VERTEX
8
0
62
2
6
CONTINUOUS
10
12.6805371659
20
16.2557638296
0
VERTEX
8
0
62
2
6
CONTINUOUS
10
12.6862776228
20
16.2519460224
0
VERTEX
8
0
62
2
6
CONTINUOUS
10
12.6914776236
20
16.2480682843
0
VERTEX
8
0
62
2
6
CONTINUOUS
10
12.6961629403
20
16.2441380914
0
VERTEX
8
0
62
2
6
CONTINUOUS
10
12.7003582710
20
16.2401615023
0
VERTEX
8
0
62
2
6
CONTINUOUS
10
12.7040869736
20
16.2361430935
0
VERTEX
8
0
62
2
6
CONTINUOUS
10
12.7073707758
20
16.2320859238
0
VERTEX
8
0
62
2
6
CONTINUOUS
10
12.7102294688
20
16.2279915377
0
VERTEX
8
0
62
2
6
CONTINUOUS
10
12.7126805933
20
16.2238600165
0
VERTEX
8
0
62
2
6
CONTINUOUS
10
12.7147391322
20
16.2196900889
0
VERTEX
8
0
62
2
6
CONTINUOUS
10
12.7164152410
20
16.2154849412
0
VERTEX
8
0
62
2
6
CONTINUOUS
10
12.7177183620
20
16.2112455087
0
VERTEX
8
0
62
2
6
CONTINUOUS
10
12.7186567389
20
16.2069684210
0
VERTEX
8
0
62
2
6
CONTINUOUS
10
12.7192354000
20
16.2026498220
0
VERTEX
8
0
62
2
6
CONTINUOUS
10
12.7194561285
20
16.1982857576
0
VERTEX
8
0
62
2
6
CONTINUOUS
10
12.7193175454
20
16.1938726028
0
VERTEX
8
0
62
2
6
CONTINUOUS
10
12.7188153097
20
16.1894075091
0
VERTEX
8
0
62
2
6
CONTINUOUS
10
12.7179424417
20
16.1848888565
0
VERTEX
8
0
62
2
6
CONTINUOUS
10
12.7166897622
20
16.1803166893
0
VERTEX
8
0
62
2
6
CONTINUOUS
10
12.7150464416
20
16.1756931221
0
VERTEX
8
0
62
2
6
CONTINUOUS
10
12.7130006445
20
16.1710226986
0
VERTEX
8
0
62
2
6
CONTINUOUS
10
12.7105402547
20
16.1663126911
0
VERTEX
8
0
62
2
6
CONTINUOUS
10
12.7076536590
20
16.1615733261
0
VERTEX
8
0
62
2
6
CONTINUOUS
10
12.7043305673
20
16.1568179228
0
VERTEX
8
0
62
2
6
CONTINUOUS
10
12.7005628385
20
16.1520629301
0
VERTEX
8
0
62
2
6
CONTINUOUS
10
12.6963452759
20
16.1473278485
0
VERTEX
8
0
62
2
6
CONTINUOUS
10
12.6916763528
20
16.1426350283
0
VERTEX
8
0
62
2
6
CONTINUOUS
10
12.6865588218
20
16.1380093359
0
VERTEX
8
0
62
2
6
CONTINUOUS
10
12.6810001655
20
16.1334776941
0
VERTEX
8
0
62
2
6
CONTINUOUS
10
12.6750128478
20
16.1290685088
0
VERTEX
8
0
62
2
6
CONTINUOUS
10
12.6686143383
20
16.1248110058
0
VERTEX
8
0
62
2
6
CONTINUOUS
10
12.6618268995
20
16.1207345151
0
VERTEX
8
0
62
2
6
CONTINUOUS
10
12.6546771428
20
16.1168677447
0
VERTEX
8
0
62
2
6
CONTINUOUS
10
12.6471953861
20
16.1132380903
0
VERTEX
8
0
62
2
6
CONTINUOUS
10
12.6425338758
20
16.1111733349
0
VERTEX
8
0
62
2
6
CONTINUOUS
10
12.6346068603
20
16.1079824167
0
VERTEX
8
0
62
2
6
CONTINUOUS
10
12.6264545883
20
16.1050935642
0
VERTEX
8
0
62
2
6
CONTINUOUS
10
12.6177899154
20
16.1024141626
0
VERTEX
8
0
62
2
6
CONTINUOUS
10
12.6086255049
20
16.0999587419
0
VERTEX
8
0
62
2
6
CONTINUOUS
10
12.5989571112
20
16.0977424946
0
VERTEX
8
0
62
2
6
CONTINUOUS
10
12.5887846795
20
16.0957813528
0
VERTEX
8
0
62
2
6
CONTINUOUS
10
12.5781132786
20
16.0940917403
0
VERTEX
8
0
62
2
6
CONTINUOUS
10
12.5669541409
20
16.0926902664
0
VERTEX
8
0
62
2
6
CONTINUOUS
10
12.5553257999
20
16.0915933487
0
VERTEX
8
0
62
2
6
CONTINUOUS
10
12.5432553048
20
16.0908167521
0
VERTEX
8
0
62
2
6
CONTINUOUS
10
12.5307794651
20
16.0903750328
0
VERTEX
8
0
62
2
6
CONTINUOUS
10
12.5179460563
20
16.0902808796
0
VERTEX
8
0
62
2
6
CONTINUOUS
10
12.5048148742
20
16.0905443539
0
VERTEX
8
0
62
2
6
CONTINUOUS
10
12.4914584904
20
16.0911720428
0
VERTEX
8
0
62
2
6
CONTINUOUS
10
12.4779625178
20
16.0921661578
0
VERTEX
8
0
62
2
6
CONTINUOUS
10
12.4644251663
20
16.0935236392
0
VERTEX
8
0
62
2
6
CONTINUOUS
10
12.4509558712
20
16.0952353512
0
VERTEX
8
0
62
2
6
CONTINUOUS
10
12.4376728202
20
16.0972854801
0
VERTEX
8
0
62
2
6
CONTINUOUS
10
12.4349146242
20
16.0977576823
0
VERTEX
8
0
62
2
6
CONTINUOUS
10
12.4220588260
20
16.1001788345
0
VERTEX
8
0
62
2
6
CONTINUOUS
10
12.4097195016
20
16.1028634144
0
VERTEX
8
0
62
2
6
CONTINUOUS
10
12.3980044819
20
16.1057713160
0
SEQEND
0
LINE
8
0
62
2
6
CONTINUOUS
10
13.7993725375
20
16.1245018716
11
13.7109794819
21
16.2030685383
0
POLYLINE
8
0
62
2
6
CONTINUOUS
66
1
70
0
0
VERTEX
8
0
62
2
6
CONTINUOUS
10
13.7283683708
20
16.2655004827
0
VERTEX
8
0
62
2
6
CONTINUOUS
10
13.8327114263
20
16.1713365938
0
VERTEX
8
0
62
2
6
CONTINUOUS
10
13.8383938653
20
16.1664289359
0
VERTEX
8
0
62
2
6
CONTINUOUS
10
13.8446094423
20
16.1613533452
0
VERTEX
8
0
62
2
6
CONTINUOUS
10
13.8513643478
20
16.1561228959
0
VERTEX
8
0
62
2
6
CONTINUOUS
10
13.8586574559
20
16.1507551869
0
VERTEX
8
0
62
2
6
CONTINUOUS
10
13.8664786879
20
16.1452729172
0
VERTEX
8
0
62
2
6
CONTINUOUS
10
13.8748072851
20
16.1397044091
0
VERTEX
8
0
62
2
6
CONTINUOUS
10
13.8836100947
20
16.1340840051
0
VERTEX
8
0
62
2
6
CONTINUOUS
10
13.8928400394
20
16.1284522367
0
VERTEX
8
0
62
2
6
CONTINUOUS
10
13.9024350049
20
16.1228556463
0
VERTEX
8
0
62
2
6
CONTINUOUS
10
13.9123174393
20
16.1173461309
0
VERTEX
8
0
62
2
6
CONTINUOUS
10
13.9223949852
20
16.1119796962
0
VERTEX
8
0
62
2
6
CONTINUOUS
10
13.9325624258
20
16.1068145647
0
VERTEX
8
0
62
2
6
CONTINUOUS
10
13.9401193359
20
16.1031359077
0
VERTEX
8
0
62
2
6
CONTINUOUS
10
13.9501017041
20
16.0984879827
0
SEQEND
0
LINE
8
0
62
2
6
CONTINUOUS
10
14.6732336486
20
16.4169074271
11
14.9384447597
21
16.1765310383
0
LINE
8
0
62
2
6
CONTINUOUS
10
14.8848142041
20
16.1411518716
11
14.6362864263
21
16.3674768716
0
LINE
8
0
62
2
6
CONTINUOUS
10
14.6631017041
20
16.4273115938
11
14.6732336486
21
16.4169074271
0
LINE
8
0
62
2
6
CONTINUOUS
10
15.6058030930
20
15.8273282605
11
15.5230530930
21
15.9146365938
0
LINE
8
0
62
2
6
CONTINUOUS
10
15.5311503152
20
15.8948477049
11
15.6139003152
21
15.8069435383
0
LINE
8
0
62
2
6
CONTINUOUS
10
14.6522169819
20
16.4403185383
11
14.6631017041
21
16.4273115938
0
LINE
8
0
62
2
6
CONTINUOUS
10
15.1310572597
20
15.9055754827
11
15.1650072597
21
15.8883504827
0
LINE
8
0
62
2
6
CONTINUOUS
10
14.9451044819
20
15.7885102049
11
14.8764183708
21
15.7885102049
0
LINE
8
0
62
2
6
CONTINUOUS
10
14.8674947597
20
15.7885102049
11
14.7959197597
21
15.7885102049
0
LINE
8
0
62
2
6
CONTINUOUS
10
14.9870017041
20
15.7885921494
11
14.9540155930
21
15.7885921494
0
LINE
8
0
62
2
6
CONTINUOUS
10
15.4077905930
20
15.8116227049
11
15.3996669819
21
15.8116227049
0
LINE
8
0
62
2
6
CONTINUOUS
10
15.2737308708
20
15.8116227049
11
15.2816919819
21
15.8116227049
0
LINE
8
0
62
2
6
CONTINUOUS
10
15.3829836486
20
15.8116227049
11
15.3908780930
21
15.8116227049
0
LINE
8
0
62
2
6
CONTINUOUS
10
15.5230530930
20
15.8116227049
11
15.5311503152
21
15.8116227049
0
LINE
8
0
62
2
6
CONTINUOUS
10
15.6523933708
20
15.8116227049
11
15.6605169819
21
15.8116227049
0
LINE
8
0
62
2
6
CONTINUOUS
10
14.3497600375
20
15.8517157605
11
14.3855475375
21
15.8517157605
0
LINE
8
0
62
2
6
CONTINUOUS
10
15.4571350375
20
15.8517157605
11
15.4929280930
21
15.8517157605
0
LINE
8
0
62
2
6
CONTINUOUS
10
15.4179767041
20
15.8583754827
11
15.4077905930
21
15.8583754827
0
POLYLINE
8
0
62
2
6
CONTINUOUS
66
1
70
0
0
VERTEX
8
0
62
2
6
CONTINUOUS
10
14.9869475375
20
15.8595421494
0
VERTEX
8
0
62
2
6
CONTINUOUS
10
14.9964961486
20
15.8595421494
0
VERTEX
8
0
62
2
6
CONTINUOUS
10
14.9977315249
20
15.8596061293
0
VERTEX
8
0
62
2
6
CONTINUOUS
10
14.9989472124
20
15.8597971106
0
VERTEX
8
0
62
2
6
CONTINUOUS
10
15.0001349439
20
15.8601133826
0
VERTEX
8
0
62
2
6
CONTINUOUS
10
15.0012850690
20
15.8605525031
0
VERTEX
8
0
62
2
6
CONTINUOUS
10
15.0023866688
20
15.8611108393
0
VERTEX
8
0
62
2
6
CONTINUOUS
10
15.0034278623
20
15.8617831751
0
VERTEX
8
0
62
2
6
CONTINUOUS
10
15.0043963001
20
15.8625624700
0
VERTEX
8
0
62
2
6
CONTINUOUS
10
15.0044429443
20
15.8626044098
0
VERTEX
8
0
62
2
6
CONTINUOUS
10
15.0053209153
20
15.8634854189
0
VERTEX
8
0
62
2
6
CONTINUOUS
10
15.0060997942
20
15.8644498626
0
VERTEX
8
0
62
2
6
CONTINUOUS
10
15.0067710873
20
15.8654858203
0
VERTEX
8
0
62
2
6
CONTINUOUS
10
15.0073281808
20
15.8665814810
0
VERTEX
8
0
62
2
6
CONTINUOUS
10
15.0077662194
20
15.8677257140
0
VERTEX
8
0
62
2
6
CONTINUOUS
10
15.0080817880
20
15.8689084787
0
VERTEX
8
0
62
2
6
CONTINUOUS
10
15.0082724791
20
15.8701210458
0
VERTEX
8
0
62
2
6
CONTINUOUS
10
15.0083364263
20
15.8713560383
0
VERTEX
8
0
62
2
6
CONTINUOUS
10
15.0082724791
20
15.8725993469
0
VERTEX
8
0
62
2
6
CONTINUOUS
10
15.0080816585
20
15.8738220624
0
VERTEX
8
0
62
2
6
CONTINUOUS
10
15.0077657121
20
15.8750163400
0
VERTEX
8
0
62
2
6
CONTINUOUS
10
15.0073270437
20
15.8761729263
0
VERTEX
8
0
62
2
6
CONTINUOUS
10
15.0067691887
20
15.8772812314
0
VERTEX
8
0
62
2
6
CONTINUOUS
10
15.0060972414
20
15.8783295922
0
VERTEX
8
0
62
2
6
CONTINUOUS
10
15.0053181484
20
15.8793057323
0
VERTEX
8
0
62
2
6
CONTINUOUS
10
15.0052410670
20
15.8793918288
0
VERTEX
8
0
62
2
6
CONTINUOUS
10
15.0043553397
20
15.8802748913
0
VERTEX
8
0
62
2
6
CONTINUOUS
10
15.0033866580
20
15.8810582999
0
VERTEX
8
0
62
2
6
CONTINUOUS
10
15.0023474241
20
15.8817333385
0
VERTEX
8
0
62
2
6
CONTINUOUS
10
15.0012500319
20
15.8822932426
0
VERTEX
8
0
62
2
6
CONTINUOUS
10
15.0001062413
20
15.8827331216
0
VERTEX
8
0
62
2
6
CONTINUOUS
10
14.9989267111
20
15.8830496603
0
VERTEX
8
0
62
2
6
CONTINUOUS
10
14.9977207307
20
15.8832406801
0
VERTEX
8
0
62
2
6
CONTINUOUS
10
14.9964961486
20
15.8833046494
0
VERTEX
8
0
62
2
6
CONTINUOUS
10
14.9869475375
20
15.8833046494
0
SEQEND
0
LINE
8
0
62
2
6
CONTINUOUS
10
15.4077905930
20
15.8660935383
11
15.4187085856
21
15.8660949454
0
POLYLINE
8
0
62
2
6
CONTINUOUS
66
1
70
0
0
VERTEX
8
0
62
2
6
CONTINUOUS
10
14.3893044819
20
15.8439713160
0
VERTEX
8
0
62
2
6
CONTINUOUS
10
14.3466267041
20
15.8440254827
0
VERTEX
8
0
62
2
6
CONTINUOUS
10
14.3328669819
20
15.8116227049
0
VERTEX
8
0
62
2
6
CONTINUOUS
10
14.3250405930
20
15.8116227049
0
SEQEND
0
POLYLINE
8
0
62
2
6
CONTINUOUS
66
1
70
0
0
VERTEX
8
0
62
2
6
CONTINUOUS
10
15.4966725375
20
15.8439713160
0
VERTEX
8
0
62
2
6
CONTINUOUS
10
15.4540280930
20
15.8440254827
0
VERTEX
8
0
62
2
6
CONTINUOUS
10
15.4402350375
20
15.8116227049
0
VERTEX
8
0
62
2
6
CONTINUOUS
10
15.4324225375
20
15.8116227049
0
SEQEND
0
LINE
8
0
62
2
6
CONTINUOUS
10
15.0513461486
20
15.7884421494
11
15.0145211486
21
15.7885102049
0
POLYLINE
8
0
62
2
6
CONTINUOUS
66
1
70
0
0
VERTEX
8
0
62
2
6
CONTINUOUS
10
15.1310572597
20
15.8179838160
0
VERTEX
8
0
62
2
6
CONTINUOUS
10
15.1288996950
20
15.8181285170
0
VERTEX
8
0
62
2
6
CONTINUOUS
10
15.1267950282
20
15.8183472460
0
VERTEX
8
0
62
2
6
CONTINUOUS
10
15.1247426560
20
15.8186383739
0
VERTEX
8
0
62
2
6
CONTINUOUS
10
15.1227420143
20
15.8190003715
0
VERTEX
8
0
62
2
6
CONTINUOUS
10
15.1207925858
20
15.8194318095
0
VERTEX
8
0
62
2
6
CONTINUOUS
10
15.1188939087
20
15.8199313570
0
VERTEX
8
0
62
2
6
CONTINUOUS
10
15.1170455851
20
15.8204977791
0
VERTEX
8
0
62
2
6
CONTINUOUS
10
15.1152472906
20
15.8211299329
0
VERTEX
8
0
62
2
6
CONTINUOUS
10
15.1134987831
20
15.8218267614
0
VERTEX
8
0
62
2
6
CONTINUOUS
10
15.1117999125
20
15.8225872865
0
VERTEX
8
0
62
2
6
CONTINUOUS
10
15.1101506295
20
15.8234105995
0
VERTEX
8
0
62
2
6
CONTINUOUS
10
15.1085509947
20
15.8242958498
0
VERTEX
8
0
62
2
6
CONTINUOUS
10
15.1070011867
20
15.8252422318
0
VERTEX
8
0
62
2
6
CONTINUOUS
10
15.1055015098
20
15.8262489691
0
VERTEX
8
0
62
2
6
CONTINUOUS
10
15.1040524001
20
15.8273152970
0
VERTEX
8
0
62
2
6
CONTINUOUS
10
15.1026544310
20
15.8284404431
0
VERTEX
8
0
62
2
6
CONTINUOUS
10
15.1013083167
20
15.8296236051
0
VERTEX
8
0
62
2
6
CONTINUOUS
10
15.1000149134
20
15.8308639277
0
VERTEX
8
0
62
2
6
CONTINUOUS
10
15.0987752195
20
15.8321604774
0
VERTEX
8
0
62
2
6
CONTINUOUS
10
15.0975903716
20
15.8335122157
0
VERTEX
8
0
62
2
6
CONTINUOUS
10
15.0964616394
20
15.8349179725
0
VERTEX
8
0
62
2
6
CONTINUOUS
10
15.0953904167
20
15.8363764176
0
VERTEX
8
0
62
2
6
CONTINUOUS
10
15.0943782088
20
15.8378860343
0
VERTEX
8
0
62
2
6
CONTINUOUS
10
15.0934266177
20
15.8394450919
0
VERTEX
8
0
62
2
6
CONTINUOUS
10
15.0925373229
20
15.8410516218
0
VERTEX
8
0
62
2
6
CONTINUOUS
10
15.0917120589
20
15.8427033953
0
VERTEX
8
0
62
2
6
CONTINUOUS
10
15.0909525900
20
15.8443979051
0
VERTEX
8
0
62
2
6
CONTINUOUS
10
15.0902606814
20
15.8461323520
0
VERTEX
8
0
62
2
6
CONTINUOUS
10
15.0896380684
20
15.8479036365
0
VERTEX
8
0
62
2
6
CONTINUOUS
10
15.0890864238
20
15.8497083575
0
VERTEX
8
0
62
2
6
CONTINUOUS
10
15.0886073237
20
15.8515428182
0
VERTEX
8
0
62
2
6
CONTINUOUS
10
15.0882022139
20
15.8534030394
0
VERTEX
8
0
62
2
6
CONTINUOUS
10
15.0878723772
20
15.8552847817
0
VERTEX
8
0
62
2
6
CONTINUOUS
10
15.0876189025
20
15.8571835749
0
VERTEX
8
0
62
2
6
CONTINUOUS
10
15.0874426581
20
15.8590947553
0
VERTEX
8
0
62
2
6
CONTINUOUS
10
15.0873442691
20
15.8610135103
0
VERTEX
8
0
62
2
6
CONTINUOUS
10
15.0873220389
20
15.8623181884
0
VERTEX
8
0
62
2
6
CONTINUOUS
10
15.0873550005
20
15.8642371771
0
VERTEX
8
0
62
2
6
CONTINUOUS
10
15.0874659402
20
15.8661488601
0
VERTEX
8
0
62
2
6
CONTINUOUS
10
15.0876542987
20
15.8680484090
0
VERTEX
8
0
62
2
6
CONTINUOUS
10
15.0879192674
20
15.8699311391
0
VERTEX
8
0
62
2
6
CONTINUOUS
10
15.0882598097
20
15.8717925557
0
VERTEX
8
0
62
2
6
CONTINUOUS
10
15.0886746863
20
15.8736283924
0
VERTEX
8
0
62
2
6
CONTINUOUS
10
15.0891624856
20
15.8754346433
0
VERTEX
8
0
62
2
6
CONTINUOUS
10
15.0897216558
20
15.8772075863
0
VERTEX
8
0
62
2
6
CONTINUOUS
10
15.0903505396
20
15.8789437983
0
VERTEX
8
0
62
2
6
CONTINUOUS
10
15.0910474079
20
15.8806401627
0
VERTEX
8
0
62
2
6
CONTINUOUS
10
15.0918104940
20
15.8822938690
0
VERTEX
8
0
62
2
6
CONTINUOUS
10
15.0926380260
20
15.8839024056
0
VERTEX
8
0
62
2
6
CONTINUOUS
10
15.0935282564
20
15.8854635463
0
VERTEX
8
0
62
2
6
CONTINUOUS
10
15.0944794891
20
15.8869753325
0
VERTEX
8
0
62
2
6
CONTINUOUS
10
15.0954901038
20
15.8884360508
0
VERTEX
8
0
62
2
6
CONTINUOUS
10
15.0965585758
20
15.8898442076
0
VERTEX
8
0
62
2
6
CONTINUOUS
10
15.0976834934
20
15.8911985023
0
VERTEX
8
0
62
2
6
CONTINUOUS
10
15.0988635708
20
15.8924977984
0
VERTEX
8
0
62
2
6
CONTINUOUS
10
15.1000976587
20
15.8937410950
0
VERTEX
8
0
62
2
6
CONTINUOUS
10
15.1013847503
20
15.8949274983
0
VERTEX
8
0
62
2
6
CONTINUOUS
10
15.1027239856
20
15.8960561935
0
VERTEX
8
0
62
2
6
CONTINUOUS
10
15.1041146525
20
15.8971264189
0
VERTEX
8
0
62
2
6
CONTINUOUS
10
15.1055561850
20
15.8981374406
0
VERTEX
8
0
62
2
6
CONTINUOUS
10
15.1070481606
20
15.8990885299
0
VERTEX
8
0
62
2
6
CONTINUOUS
10
15.1085902944
20
15.8999789427
0
VERTEX
8
0
62
2
6
CONTINUOUS
10
15.1101824326
20
15.9008079005
0
VERTEX
8
0
62
2
6
CONTINUOUS
10
15.1118245451
20
15.9015745743
0
VERTEX
8
0
62
2
6
CONTINUOUS
10
15.1135167164
20
15.9022780707
0
VERTEX
8
0
62
2
6
CONTINUOUS
10
15.1152591362
20
15.9029174202
0
VERTEX
8
0
62
2
6
CONTINUOUS
10
15.1170520900
20
15.9034915669
0
VERTEX
8
0
62
2
6
CONTINUOUS
10
15.1188959489
20
15.9039993617
0
VERTEX
8
0
62
2
6
CONTINUOUS
10
15.1207911601
20
15.9044395559
0
VERTEX
8
0
62
2
6
CONTINUOUS
10
15.1227382366
20
15.9048107977
0
VERTEX
8
0
62
2
6
CONTINUOUS
10
15.1247377483
20
15.9051116292
0
VERTEX
8
0
62
2
6
CONTINUOUS
10
15.1267903128
20
15.9053404858
0
VERTEX
8
0
62
2
6
CONTINUOUS
10
15.1288965871
20
15.9054956960
0
VERTEX
8
0
62
2
6
CONTINUOUS
10
15.1310572597
20
15.9055754827
0
SEQEND
0
POLYLINE
8
0
62
2
6
CONTINUOUS
66
1
70
0
0
VERTEX
8
0
62
2
6
CONTINUOUS
10
13.2675253152
20
16.1421893716
0
VERTEX
8
0
62
2
6
CONTINUOUS
10
13.2804227104
20
16.1412370385
0
VERTEX
8
0
62
2
6
CONTINUOUS
10
13.2966830461
20
16.1398829390
0
VERTEX
8
0
62
2
6
CONTINUOUS
10
13.3103385144
20
16.1387107219
0
VERTEX
8
0
62
2
6
CONTINUOUS
10
13.3249241504
20
16.1375302560
0
VERTEX
8
0
62
2
6
CONTINUOUS
10
13.3367724781
20
16.1367018349
0
VERTEX
8
0
62
2
6
CONTINUOUS
10
13.3471515189
20
16.1361250283
0
VERTEX
8
0
62
2
6
CONTINUOUS
10
13.3565749832
20
16.1357590201
0
VERTEX
8
0
62
2
6
CONTINUOUS
10
13.3653125693
20
16.1355825350
0
VERTEX
8
0
62
2
6
CONTINUOUS
10
13.3735276245
20
16.1355829494
0
VERTEX
8
0
62
2
6
CONTINUOUS
10
13.3813286078
20
16.1357522191
0
VERTEX
8
0
62
2
6
CONTINUOUS
10
13.3887923432
20
16.1360850476
0
VERTEX
8
0
62
2
6
CONTINUOUS
10
13.3959759386
20
16.1365779558
0
VERTEX
8
0
62
2
6
CONTINUOUS
10
13.4029234755
20
16.1372287675
0
VERTEX
8
0
62
2
6
CONTINUOUS
10
13.4096700283
20
16.1380363067
0
VERTEX
8
0
62
2
6
CONTINUOUS
10
13.4162442135
20
16.1390002115
0
VERTEX
8
0
62
2
6
CONTINUOUS
10
13.4226698766
20
16.1401208152
0
VERTEX
8
0
62
2
6
CONTINUOUS
10
13.4289672485
20
16.1413990690
0
VERTEX
8
0
62
2
6
CONTINUOUS
10
13.4351537630
20
16.1428364902
0
VERTEX
8
0
62
2
6
CONTINUOUS
10
13.4412446480
20
16.1444351275
0
VERTEX
8
0
62
2
6
CONTINUOUS
10
13.4472533629
20
16.1461975372
0
VERTEX
8
0
62
2
6
CONTINUOUS
10
13.4531919288
20
16.1481267666
0
VERTEX
8
0
62
2
6
CONTINUOUS
10
13.4590711809
20
16.1502263429
0
VERTEX
8
0
62
2
6
CONTINUOUS
10
13.4649009645
20
16.1525002649
0
VERTEX
8
0
62
2
6
CONTINUOUS
10
13.4706902908
20
16.1549529973
0
VERTEX
8
0
62
2
6
CONTINUOUS
10
13.4764474592
20
16.1575894667
0
VERTEX
8
0
62
2
6
CONTINUOUS
10
13.4821801579
20
16.1604150581
0
VERTEX
8
0
62
2
6
CONTINUOUS
10
13.4878955448
20
16.1634356129
0
VERTEX
8
0
62
2
6
CONTINUOUS
10
13.4936003152
20
16.1666574271
0
SEQEND
0
LINE
8
0
62
2
6
CONTINUOUS
10
12.7617475375
20
16.4444893716
11
12.7892947597
21
16.4408477049
0
LINE
8
0
62
2
6
CONTINUOUS
10
15.5598642041
20
16.1109393716
11
15.5506808708
21
16.1158754827
0
POLYLINE
8
0
62
2
6
CONTINUOUS
66
1
70
0
0
VERTEX
8
0
62
2
6
CONTINUOUS
10
15.5462058708
20
16.1318740938
0
VERTEX
8
0
62
2
6
CONTINUOUS
10
15.5476741149
20
16.1320854699
0
VERTEX
8
0
62
2
6
CONTINUOUS
10
15.5486754841
20
16.1322157150
0
VERTEX
8
0
62
2
6
CONTINUOUS
10
15.5495894486
20
16.1323183414
0
VERTEX
8
0
62
2
6
CONTINUOUS
10
15.5504715427
20
16.1323997959
0
VERTEX
8
0
62
2
6
CONTINUOUS
10
15.5513514672
20
16.1324626761
0
VERTEX
8
0
62
2
6
CONTINUOUS
10
15.5522488114
20
16.1325079121
0
VERTEX
8
0
62
2
6
CONTINUOUS
10
15.5531784890
20
16.1325355207
0
VERTEX
8
0
62
2
6
CONTINUOUS
10
15.5541530930
20
16.1325449271
0
VERTEX
8
0
62
2
6
CONTINUOUS
10
15.5548213255
20
16.1325374537
0
VERTEX
8
0
62
2
6
CONTINUOUS
10
15.5555459931
20
16.1325114838
0
VERTEX
8
0
62
2
6
CONTINUOUS
10
15.5562381952
20
16.1324677226
0
VERTEX
8
0
62
2
6
CONTINUOUS
10
15.5568985882
20
16.1324069955
0
VERTEX
8
0
62
2
6
CONTINUOUS
10
15.5575278307
20
16.1323301168
0
VERTEX
8
0
62
2
6
CONTINUOUS
10
15.5581265832
20
16.1322378884
0
VERTEX
8
0
62
2
6
CONTINUOUS
10
15.5586955069
20
16.1321310983
0
VERTEX
8
0
62
2
6
CONTINUOUS
10
15.5592352634
20
16.1320105191
0
VERTEX
8
0
62
2
6
CONTINUOUS
10
15.5597465132
20
16.1318769066
0
VERTEX
8
0
62
2
6
CONTINUOUS
10
15.5602299144
20
16.1317309982
0
VERTEX
8
0
62
2
6
CONTINUOUS
10
15.5606861211
20
16.1315735112
0
VERTEX
8
0
62
2
6
CONTINUOUS
10
15.5611157812
20
16.1314051413
0
VERTEX
8
0
62
2
6
CONTINUOUS
10
15.5615195346
20
16.1312265610
0
VERTEX
8
0
62
2
6
CONTINUOUS
10
15.5618980096
20
16.1310384182
0
VERTEX
8
0
62
2
6
CONTINUOUS
10
15.5622518207
20
16.1308413352
0
VERTEX
8
0
62
2
6
CONTINUOUS
10
15.5625815643
20
16.1306359077
0
VERTEX
8
0
62
2
6
CONTINUOUS
10
15.5627375986
20
16.1305302387
0
VERTEX
8
0
62
2
6
CONTINUOUS
10
15.5628878152
20
16.1304227049
0
VERTEX
8
0
62
2
6
CONTINUOUS
10
15.5631624527
20
16.1302086913
0
VERTEX
8
0
62
2
6
CONTINUOUS
10
15.5634205264
20
16.1299833698
0
VERTEX
8
0
62
2
6
CONTINUOUS
10
15.5636625889
20
16.1297465745
0
VERTEX
8
0
62
2
6
CONTINUOUS
10
15.5638891090
20
16.1294980556
0
VERTEX
8
0
62
2
6
CONTINUOUS
10
15.5641004669
20
16.1292374818
0
VERTEX
8
0
62
2
6
CONTINUOUS
10
15.5642969500
20
16.1289644435
0
VERTEX
8
0
62
2
6
CONTINUOUS
10
15.5643896916
20
16.1288230788
0
VERTEX
8
0
62
2
6
CONTINUOUS
10
15.5644787411
20
16.1286784702
0
VERTEX
8
0
62
2
6
CONTINUOUS
10
15.5646456961
20
16.1283794661
0
VERTEX
8
0
62
2
6
CONTINUOUS
10
15.5647978841
20
16.1280668561
0
VERTEX
8
0
62
2
6
CONTINUOUS
10
15.5649352727
20
16.1277400027
0
VERTEX
8
0
62
2
6
CONTINUOUS
10
15.5650577284
20
16.1273982109
0
VERTEX
8
0
62
2
6
CONTINUOUS
10
15.5651650181
20
16.1270407339
0
VERTEX
8
0
62
2
6
CONTINUOUS
10
15.5652568107
20
16.1266667784
0
VERTEX
8
0
62
2
6
CONTINUOUS
10
15.5653326807
20
16.1262755097
0
VERTEX
8
0
62
2
6
CONTINUOUS
10
15.5653921107
20
16.1258660561
0
VERTEX
8
0
62
2
6
CONTINUOUS
10
15.5654344960
20
16.1254375135
0
VERTEX
8
0
62
2
6
CONTINUOUS
10
15.5654591477
20
16.1249889488
0
VERTEX
8
0
62
2
6
CONTINUOUS
10
15.5654655930
20
16.1246032605
0
VERTEX
8
0
62
2
6
CONTINUOUS
10
15.5654559752
20
16.1242075844
0
VERTEX
8
0
62
2
6
CONTINUOUS
10
15.5654274759
20
16.1238231992
0
VERTEX
8
0
62
2
6
CONTINUOUS
10
15.5653805765
20
16.1234497563
0
VERTEX
8
0
62
2
6
CONTINUOUS
10
15.5653156916
20
16.1230869234
0
VERTEX
8
0
62
2
6
CONTINUOUS
10
15.5652331676
20
16.1227343906
0
VERTEX
8
0
62
2
6
CONTINUOUS
10
15.5651332834
20
16.1223918751
0
VERTEX
8
0
62
2
6
CONTINUOUS
10
15.5650162517
20
16.1220591273
0
VERTEX
8
0
62
2
6
CONTINUOUS
10
15.5648822217
20
16.1217359365
0
VERTEX
8
0
62
2
6
CONTINUOUS
10
15.5647312830
20
16.1214221370
0
VERTEX
8
0
62
2
6
CONTINUOUS
10
15.5645634714
20
16.1211176137
0
VERTEX
8
0
62
2
6
CONTINUOUS
10
15.5643787760
20
16.1208223080
0
VERTEX
8
0
62
2
6
CONTINUOUS
10
15.5641771479
20
16.1205362227
0
VERTEX
8
0
62
2
6
CONTINUOUS
10
15.5639585110
20
16.1202594266
0
VERTEX
8
0
62
2
6
CONTINUOUS
10
15.5637227743
20
16.1199920585
0
VERTEX
8
0
62
2
6
CONTINUOUS
10
15.5634698458
20
16.1197343301
0
VERTEX
8
0
62
2
6
CONTINUOUS
10
15.5631996486
20
16.1194865280
0
VERTEX
8
0
62
2
6
CONTINUOUS
10
15.5629121379
20
16.1192490139
0
VERTEX
8
0
62
2
6
CONTINUOUS
10
15.5626073206
20
16.1190222242
0
VERTEX
8
0
62
2
6
CONTINUOUS
10
15.5622852749
20
16.1188066673
0
VERTEX
8
0
62
2
6
CONTINUOUS
10
15.5619461721
20
16.1186029192
0
VERTEX
8
0
62
2
6
CONTINUOUS
10
15.5615902985
20
16.1184116173
0
VERTEX
8
0
62
2
6
CONTINUOUS
10
15.5612180770
20
16.1182334514
0
VERTEX
8
0
62
2
6
CONTINUOUS
10
15.5608300889
20
16.1180691522
0
VERTEX
8
0
62
2
6
CONTINUOUS
10
15.5604270933
20
16.1179194782
0
VERTEX
8
0
62
2
6
CONTINUOUS
10
15.5600100439
20
16.1177851981
0
VERTEX
8
0
62
2
6
CONTINUOUS
10
15.5599725375
20
16.1177740938
0
SEQEND
0
POLYLINE
8
0
62
2
6
CONTINUOUS
66
1
70
0
0
VERTEX
8
0
62
2
6
CONTINUOUS
10
15.5195669819
20
16.1057713160
0
VERTEX
8
0
62
2
6
CONTINUOUS
10
15.5060526221
20
16.1039554743
0
VERTEX
8
0
62
2
6
CONTINUOUS
10
15.4721677205
20
16.0995230755
0
VERTEX
8
0
62
2
6
CONTINUOUS
10
15.4456565802
20
16.0963689709
0
VERTEX
8
0
62
2
6
CONTINUOUS
10
15.4226570214
20
16.0940106623
0
VERTEX
8
0
62
2
6
CONTINUOUS
10
15.4017888794
20
16.0922767933
0
VERTEX
8
0
62
2
6
CONTINUOUS
10
15.3823681009
20
16.0910846592
0
VERTEX
8
0
62
2
6
CONTINUOUS
10
15.3639933751
20
16.0903882432
0
VERTEX
8
0
62
2
6
CONTINUOUS
10
15.3464030930
20
16.0901602049
0
VERTEX
8
0
62
2
6
CONTINUOUS
10
15.3376533290
20
16.0902147799
0
VERTEX
8
0
62
2
6
CONTINUOUS
10
15.3199731845
20
16.0906688351
0
VERTEX
8
0
62
2
6
CONTINUOUS
10
15.3028765625
20
16.0915699553
0
VERTEX
8
0
62
2
6
CONTINUOUS
10
15.2863701674
20
16.0929021002
0
VERTEX
8
0
62
2
6
CONTINUOUS
10
15.2704594632
20
16.0946487655
0
VERTEX
8
0
62
2
6
CONTINUOUS
10
15.2551486050
20
16.0967930594
0
VERTEX
8
0
62
2
6
CONTINUOUS
10
15.2404403830
20
16.0993177904
0
VERTEX
8
0
62
2
6
CONTINUOUS
10
15.2263361828
20
16.1022055657
0
VERTEX
8
0
62
2
6
CONTINUOUS
10
15.2128359629
20
16.1054388987
0
VERTEX
8
0
62
2
6
CONTINUOUS
10
15.1999382517
20
16.1090003254
0
VERTEX
8
0
62
2
6
CONTINUOUS
10
15.1876401654
20
16.1128725275
0
VERTEX
8
0
62
2
6
CONTINUOUS
10
15.1759374484
20
16.1170384611
0
VERTEX
8
0
62
2
6
CONTINUOUS
10
15.1648245355
20
16.1214814880
0
VERTEX
8
0
62
2
6
CONTINUOUS
10
15.1542946380
20
16.1261855091
0
VERTEX
8
0
62
2
6
CONTINUOUS
10
15.1443398519
20
16.1311350955
0
VERTEX
8
0
62
2
6
CONTINUOUS
10
15.1349512886
20
16.1363156173
0
VERTEX
8
0
62
2
6
CONTINUOUS
10
15.1261192264
20
16.1417133650
0
VERTEX
8
0
62
2
6
CONTINUOUS
10
15.1178332814
20
16.1473156629
0
VERTEX
8
0
62
2
6
CONTINUOUS
10
15.1100825962
20
16.1531109710
0
VERTEX
8
0
62
2
6
CONTINUOUS
10
15.1028560428
20
16.1590889726
0
VERTEX
8
0
62
2
6
CONTINUOUS
10
15.0961424385
20
16.1652406455
0
VERTEX
8
0
62
2
6
CONTINUOUS
10
15.0899307694
20
16.1715583143
0
VERTEX
8
0
62
2
6
CONTINUOUS
10
15.0842104191
20
16.1780356813
0
VERTEX
8
0
62
2
6
CONTINUOUS
10
15.0789713987
20
16.1846678342
0
VERTEX
8
0
62
2
6
CONTINUOUS
10
15.0742045713
20
16.1914512295
0
VERTEX
8
0
62
2
6
CONTINUOUS
10
15.0699018686
20
16.1983836508
0
VERTEX
8
0
62
2
6
CONTINUOUS
10
15.0660564932
20
16.2054641414
0
VERTEX
8
0
62
2
6
CONTINUOUS
10
15.0626631010
20
16.2126929125
0
VERTEX
8
0
62
2
6
CONTINUOUS
10
15.0597179609
20
16.2200712290
0
VERTEX
8
0
62
2
6
CONTINUOUS
10
15.0572190858
20
16.2276012751
0
VERTEX
8
0
62
2
6
CONTINUOUS
10
15.0551663321
20
16.2352860032
0
VERTEX
8
0
62
2
6
CONTINUOUS
10
15.0535623798
20
16.2431237212
0
VERTEX
8
0
62
2
6
CONTINUOUS
10
15.0524103740
20
16.2511151167
0
VERTEX
8
0
62
2
6
CONTINUOUS
10
15.0517145010
20
16.2592642719
0
VERTEX
8
0
62
2
6
CONTINUOUS
10
15.0514808708
20
16.2675754827
0
VERTEX
8
0
62
2
6
CONTINUOUS
10
15.0517149294
20
16.2759369902
0
VERTEX
8
0
62
2
6
CONTINUOUS
10
15.0524120401
20
16.2841319231
0
VERTEX
8
0
62
2
6
CONTINUOUS
10
15.0535652942
20
16.2921617720
0
VERTEX
8
0
62
2
6
CONTINUOUS
10
15.0551690035
20
16.3000291072
0
VERTEX
8
0
62
2
6
CONTINUOUS
10
15.0572198555
20
16.3077400691
0
VERTEX
8
0
62
2
6
CONTINUOUS
10
15.0597166584
20
16.3153001384
0
VERTEX
8
0
62
2
6
CONTINUOUS
10
15.0626602792
20
16.3227139699
0
VERTEX
8
0
62
2
6
CONTINUOUS
10
15.0660535451
20
16.3299852329
0
VERTEX
8
0
62
2
6
CONTINUOUS
10
15.0699011081
20
16.3371164634
0
VERTEX
8
0
62
2
6
CONTINUOUS
10
15.0742092758
20
16.3441089306
0
VERTEX
8
0
62
2
6
CONTINUOUS
10
15.0789858105
20
16.3509625237
0
VERTEX
8
0
62
2
6
CONTINUOUS
10
15.0842396992
20
16.3576756592
0
VERTEX
8
0
62
2
6
CONTINUOUS
10
15.0899809009
20
16.3642452126
0
VERTEX
8
0
62
2
6
CONTINUOUS
10
15.0962200726
20
16.3706664749
0
VERTEX
8
0
62
2
6
CONTINUOUS
10
15.1029682808
20
16.3769331347
0
VERTEX
8
0
62
2
6
CONTINUOUS
10
15.1102367024
20
16.3830372859
0
VERTEX
8
0
62
2
6
CONTINUOUS
10
15.1180363183
20
16.3889694604
0
VERTEX
8
0
62
2
6
CONTINUOUS
10
15.1263776069
20
16.3947186855
0
VERTEX
8
0
62
2
6
CONTINUOUS
10
15.1352702391
20
16.4002725644
0
VERTEX
8
0
62
2
6
CONTINUOUS
10
15.1447227826
20
16.4056173796
0
VERTEX
8
0
62
2
6
CONTINUOUS
10
15.1547424173
20
16.4107382159
0
VERTEX
8
0
62
2
6
CONTINUOUS
10
15.1653346697
20
16.4156191040
0
VERTEX
8
0
62
2
6
CONTINUOUS
10
15.1765031695
20
16.4202431800
0
VERTEX
8
0
62
2
6
CONTINUOUS
10
15.1882494337
20
16.4245928602
0
VERTEX
8
0
62
2
6
CONTINUOUS
10
15.2005726841
20
16.4286500286
0
VERTEX
8
0
62
2
6
CONTINUOUS
10
15.2134697013
20
16.4323962323
0
VERTEX
8
0
62
2
6
CONTINUOUS
10
15.2269347201
20
16.4358128833
0
VERTEX
8
0
62
2
6
CONTINUOUS
10
15.2409593687
20
16.4388814618
0
VERTEX
8
0
62
2
6
CONTINUOUS
10
15.2555326540
20
16.4415837167
0
VERTEX
8
0
62
2
6
CONTINUOUS
10
15.2706409935
20
16.4439018603
0
VERTEX
8
0
62
2
6
CONTINUOUS
10
15.2862682927
20
16.4458187513
0
VERTEX
8
0
62
2
6
CONTINUOUS
10
15.3023960664
20
16.4473180643
0
VERTEX
8
0
62
2
6
CONTINUOUS
10
15.3190035999
20
16.4483844403
0
VERTEX
8
0
62
2
6
CONTINUOUS
10
15.3360681453
20
16.4490036169
0
VERTEX
8
0
62
2
6
CONTINUOUS
10
15.3507433708
20
16.4491685383
0
VERTEX
8
0
62
2
6
CONTINUOUS
10
15.3689635467
20
16.4489346866
0
VERTEX
8
0
62
2
6
CONTINUOUS
10
15.3872965470
20
16.4482311789
0
VERTEX
8
0
62
2
6
CONTINUOUS
10
15.4057916295
20
16.4470529935
0
VERTEX
8
0
62
2
6
CONTINUOUS
10
15.4245025704
20
16.4453920794
0
VERTEX
8
0
62
2
6
CONTINUOUS
10
15.4434888281
20
16.4432369760
0
VERTEX
8
0
62
2
6
CONTINUOUS
10
15.4628170462
20
16.4405723045
0
VERTEX
8
0
62
2
6
CONTINUOUS
10
15.4644989263
20
16.4403185383
0
SEQEND
0
POLYLINE
8
0
62
2
6
CONTINUOUS
66
1
70
0
0
VERTEX
8
0
62
2
6
CONTINUOUS
10
13.6443086486
20
16.2764324271
0
VERTEX
8
0
62
2
6
CONTINUOUS
10
13.6525250092
20
16.2773756855
0
VERTEX
8
0
62
2
6
CONTINUOUS
10
13.6603911188
20
16.2784097207
0
VERTEX
8
0
62
2
6
CONTINUOUS
10
13.6676343648
20
16.2795015883
0
VERTEX
8
0
62
2
6
CONTINUOUS
10
13.6744045253
20
16.2806654863
0
VERTEX
8
0
62
2
6
CONTINUOUS
10
13.6808004799
20
16.2819112391
0
VERTEX
8
0
62
2
6
CONTINUOUS
10
13.6868919893
20
16.2832462929
0
VERTEX
8
0
62
2
6
CONTINUOUS
10
13.6927307545
20
16.2846767350
0
VERTEX
8
0
62
2
6
CONTINUOUS
10
13.6983565810
20
16.2862078679
0
VERTEX
8
0
62
2
6
CONTINUOUS
10
13.7038010652
20
16.2878445593
0
VERTEX
8
0
62
2
6
CONTINUOUS
10
13.7090899225
20
16.2895914675
0
VERTEX
8
0
62
2
6
CONTINUOUS
10
13.7142445235
20
16.2914531943
0
VERTEX
8
0
62
2
6
CONTINUOUS
10
13.7192829455
20
16.2934343941
0
VERTEX
8
0
62
2
6
CONTINUOUS
10
13.7242207136
20
16.2955398533
0
VERTEX
8
0
62
2
6
CONTINUOUS
10
13.7246391253
20
16.2957261906
0
VERTEX
8
0
62
2
6
CONTINUOUS
10
13.7287200658
20
16.2976318470
0
VERTEX
8
0
62
2
6
CONTINUOUS
10
13.7325932127
20
16.2996014494
0
VERTEX
8
0
62
2
6
CONTINUOUS
10
13.7362526197
20
16.3016261947
0
VERTEX
8
0
62
2
6
CONTINUOUS
10
13.7396962887
20
16.3036987189
0
VERTEX
8
0
62
2
6
CONTINUOUS
10
13.7429250462
20
16.3058128839
0
VERTEX
8
0
62
2
6
CONTINUOUS
10
13.7459417273
20
16.3079636179
0
VERTEX
8
0
62
2
6
CONTINUOUS
10
13.7487505688
20
16.3101467947
0
VERTEX
8
0
62
2
6
CONTINUOUS
10
13.7513567505
20
16.3123591420
0
VERTEX
8
0
62
2
6
CONTINUOUS
10
13.7537660394
20
16.3145981703
0
VERTEX
8
0
62
2
6
CONTINUOUS
10
13.7559845090
20
16.3168621173
0
VERTEX
8
0
62
2
6
CONTINUOUS
10
13.7580183119
20
16.3191499022
0
VERTEX
8
0
62
2
6
CONTINUOUS
10
13.7598734931
20
16.3214610880
0
VERTEX
8
0
62
2
6
CONTINUOUS
10
13.7615558330
20
16.3237958470
0
VERTEX
8
0
62
2
6
CONTINUOUS
10
13.7630707137
20
16.3261549284
0
VERTEX
8
0
62
2
6
CONTINUOUS
10
13.7644230034
20
16.3285396261
0
VERTEX
8
0
62
2
6
CONTINUOUS
10
13.7656169575
20
16.3309517441
0
VERTEX
8
0
62
2
6
CONTINUOUS
10
13.7666561330
20
16.3333935602
0
VERTEX
8
0
62
2
6
CONTINUOUS
10
13.7675433159
20
16.3358677855
0
VERTEX
8
0
62
2
6
CONTINUOUS
10
13.7682804621
20
16.3383775218
0
VERTEX
8
0
62
2
6
CONTINUOUS
10
13.7688686500
20
16.3409262150
0
VERTEX
8
0
62
2
6
CONTINUOUS
10
13.7693080466
20
16.3435176073
0
VERTEX
8
0
62
2
6
CONTINUOUS
10
13.7695978857
20
16.3461556881
0
VERTEX
8
0
62
2
6
CONTINUOUS
10
13.7697364580
20
16.3488446448
0
VERTEX
8
0
62
2
6
CONTINUOUS
10
13.7697211128
20
16.3515888156
0
VERTEX
8
0
62
2
6
CONTINUOUS
10
13.7695482699
20
16.3543926448
0
VERTEX
8
0
62
2
6
CONTINUOUS
10
13.7692134395
20
16.3572606420
0
VERTEX
8
0
62
2
6
CONTINUOUS
10
13.7687598082
20
16.3598723702
0
VERTEX
8
0
62
2
6
CONTINUOUS
10
13.7681609918
20
16.3624218865
0
VERTEX
8
0
62
2
6
CONTINUOUS
10
13.7674179597
20
16.3649129287
0
VERTEX
8
0
62
2
6
CONTINUOUS
10
13.7665308185
20
16.3673489038
0
VERTEX
8
0
62
2
6
CONTINUOUS
10
13.7654988416
20
16.3697328324
0
VERTEX
8
0
62
2
6
CONTINUOUS
10
13.7643205141
20
16.3720672946
0
VERTEX
8
0
62
2
6
CONTINUOUS
10
13.7629935931
20
16.3743543773
0
VERTEX
8
0
62
2
6
CONTINUOUS
10
13.7615151844
20
16.3765956239
0
VERTEX
8
0
62
2
6
CONTINUOUS
10
13.7598818370
20
16.3787919871
0
VERTEX
8
0
62
2
6
CONTINUOUS
10
13.7580896568
20
16.3809437845
0
VERTEX
8
0
62
2
6
CONTINUOUS
10
13.7561344410
20
16.3830506572
0
VERTEX
8
0
62
2
6
CONTINUOUS
10
13.7540118379
20
16.3851115300
0
VERTEX
8
0
62
2
6
CONTINUOUS
10
13.7517175356
20
16.3871245731
0
VERTEX
8
0
62
2
6
CONTINUOUS
10
13.7492474870
20
16.3890871626
0
VERTEX
8
0
62
2
6
CONTINUOUS
10
13.7465981817
20
16.3909958413
0
VERTEX
8
0
62
2
6
CONTINUOUS
10
13.7437669745
20
16.3928462755
0
VERTEX
8
0
62
2
6
CONTINUOUS
10
13.7407524900
20
16.3946332108
0
VERTEX
8
0
62
2
6
CONTINUOUS
10
13.7375551224
20
16.3963504243
0
VERTEX
8
0
62
2
6
CONTINUOUS
10
13.7341776573
20
16.3979906787
0
VERTEX
8
0
62
2
6
CONTINUOUS
10
13.7306260472
20
16.3995456804
0
VERTEX
8
0
62
2
6
CONTINUOUS
10
13.7269103747
20
16.4010060536
0
VERTEX
8
0
62
2
6
CONTINUOUS
10
13.7230460387
20
16.4023613464
0
VERTEX
8
0
62
2
6
CONTINUOUS
10
13.7190551850
20
16.4036000998
0
VERTEX
8
0
62
2
6
CONTINUOUS
10
13.7149683663
20
16.4047100235
0
VERTEX
8
0
62
2
6
CONTINUOUS
10
13.7108263378
20
16.4056783516
0
VERTEX
8
0
62
2
6
CONTINUOUS
10
13.7090777846
20
16.4060406933
0
VERTEX
8
0
62
2
6
CONTINUOUS
10
13.7044879984
20
16.4068776668
0
VERTEX
8
0
62
2
6
CONTINUOUS
10
13.6998241830
20
16.4075723339
0
VERTEX
8
0
62
2
6
CONTINUOUS
10
13.6950683845
20
16.4081258676
0
VERTEX
8
0
62
2
6
CONTINUOUS
10
13.6901992201
20
16.4085385932
0
VERTEX
8
0
62
2
6
CONTINUOUS
10
13.6851906091
20
16.4088098497
0
VERTEX
8
0
62
2
6
CONTINUOUS
10
13.6800098305
20
16.4089377689
0
VERTEX
8
0
62
2
6
CONTINUOUS
10
13.6746144084
20
16.4089189127
0
VERTEX
8
0
62
2
6
CONTINUOUS
10
13.6689468270
20
16.4087476419
0
VERTEX
8
0
62
2
6
CONTINUOUS
10
13.6629248667
20
16.4084149458
0
VERTEX
8
0
62
2
6
CONTINUOUS
10
13.6564220851
20
16.4079060563
0
VERTEX
8
0
62
2
6
CONTINUOUS
10
13.6492223903
20
16.4071948682
0
VERTEX
8
0
62
2
6
CONTINUOUS
10
13.6408882751
20
16.4062277672
0
VERTEX
8
0
62
2
6
CONTINUOUS
10
13.6301872252
20
16.4048538684
0
VERTEX
8
0
62
2
6
CONTINUOUS
10
13.6269211486
20
16.4044227049
0
SEQEND
0
LINE
8
0
62
2
6
CONTINUOUS
10
13.0776864263
20
16.4408477049
11
13.1110114263
21
16.4444893716
0
LINE
8
0
62
2
6
CONTINUOUS
10
13.3537475375
20
16.3029754827
11
13.3856350375
21
16.3060879827
0
LINE
8
0
62
2
6
CONTINUOUS
10
13.3928850375
20
16.4408477049
11
13.4269364263
21
16.4434379827
0
LINE
8
0
62
2
6
CONTINUOUS
10
13.3414322597
20
16.4033852049
11
13.2675253152
21
16.3997504827
0
POLYLINE
8
0
62
2
6
CONTINUOUS
66
1
70
0
0
VERTEX
8
0
62
2
6
CONTINUOUS
10
15.4187085856
20
15.8660949454
0
VERTEX
8
0
62
2
6
CONTINUOUS
10
15.4212316236
20
15.8661613792
0
VERTEX
8
0
62
2
6
CONTINUOUS
10
15.4233566080
20
15.8663235688
0
VERTEX
8
0
62
2
6
CONTINUOUS
10
15.4252189338
20
15.8665788582
0
VERTEX
8
0
62
2
6
CONTINUOUS
10
15.4268938913
20
15.8669269259
0
VERTEX
8
0
62
2
6
CONTINUOUS
10
15.4284295262
20
15.8673695964
0
VERTEX
8
0
62
2
6
CONTINUOUS
10
15.4298593879
20
15.8679109371
0
VERTEX
8
0
62
2
6
CONTINUOUS
10
15.4312083942
20
15.8685574463
0
VERTEX
8
0
62
2
6
CONTINUOUS
10
15.4324958509
20
15.8693182638
0
VERTEX
8
0
62
2
6
CONTINUOUS
10
15.4337371431
20
15.8702053759
0
VERTEX
8
0
62
2
6
CONTINUOUS
10
15.4343448177
20
15.8707011588
0
VERTEX
8
0
62
2
6
CONTINUOUS
10
15.4349447597
20
15.8712338160
0
VERTEX
8
0
62
2
6
CONTINUOUS
10
15.4360394168
20
15.8723241465
0
VERTEX
8
0
62
2
6
CONTINUOUS
10
15.4370799712
20
15.8735371125
0
VERTEX
8
0
62
2
6
CONTINUOUS
10
15.4379953482
20
15.8748034667
0
VERTEX
8
0
62
2
6
CONTINUOUS
10
15.4387888625
20
15.8761242581
0
VERTEX
8
0
62
2
6
CONTINUOUS
10
15.4394626759
20
15.8775013282
0
VERTEX
8
0
62
2
6
CONTINUOUS
10
15.4400172931
20
15.8789360265
0
VERTEX
8
0
62
2
6
CONTINUOUS
10
15.4404518748
20
15.8804284238
0
VERTEX
8
0
62
2
6
CONTINUOUS
10
15.4407656610
20
15.8819816949
0
VERTEX
8
0
62
2
6
CONTINUOUS
10
15.4409565531
20
15.8835993735
0
VERTEX
8
0
62
2
6
CONTINUOUS
10
15.4410211486
20
15.8852852049
0
VERTEX
8
0
62
2
6
CONTINUOUS
10
15.4409558603
20
15.8869537993
0
VERTEX
8
0
62
2
6
CONTINUOUS
10
15.4407611454
20
15.8885959408
0
VERTEX
8
0
62
2
6
CONTINUOUS
10
15.4404392010
20
15.8902026776
0
VERTEX
8
0
62
2
6
CONTINUOUS
10
15.4399930209
20
15.8917642990
0
VERTEX
8
0
62
2
6
CONTINUOUS
10
15.4394265780
20
15.8932705117
0
VERTEX
8
0
62
2
6
CONTINUOUS
10
15.4387449527
20
15.8947106985
0
VERTEX
8
0
62
2
6
CONTINUOUS
10
15.4379716933
20
15.8960470378
0
VERTEX
8
0
62
2
6
CONTINUOUS
10
15.4370842272
20
15.8973220323
0
VERTEX
8
0
62
2
6
CONTINUOUS
10
15.4361060239
20
15.8984989090
0
VERTEX
8
0
62
2
6
CONTINUOUS
10
15.4350462684
20
15.8995701643
0
VERTEX
8
0
62
2
6
CONTINUOUS
10
15.4339142041
20
15.9005296494
0
VERTEX
8
0
62
2
6
CONTINUOUS
10
15.4328120838
20
15.9013015619
0
VERTEX
8
0
62
2
6
CONTINUOUS
10
15.4316152848
20
15.9019827186
0
VERTEX
8
0
62
2
6
CONTINUOUS
10
15.4303137507
20
15.9025756824
0
VERTEX
8
0
62
2
6
CONTINUOUS
10
15.4288945995
20
15.9030814924
0
VERTEX
8
0
62
2
6
CONTINUOUS
10
15.4273410807
20
15.9034999149
0
VERTEX
8
0
62
2
6
CONTINUOUS
10
15.4256302524
20
15.9038298330
0
VERTEX
8
0
62
2
6
CONTINUOUS
10
15.4237274373
20
15.9040698680
0
VERTEX
8
0
62
2
6
CONTINUOUS
10
15.4215708329
20
15.9042195638
0
VERTEX
8
0
62
2
6
CONTINUOUS
10
15.4190143740
20
15.9042827488
0
VERTEX
8
0
62
2
6
CONTINUOUS
10
15.4172169819
20
15.9042879827
0
VERTEX
8
0
62
2
6
CONTINUOUS
10
15.4077905930
20
15.9042879827
0
SEQEND
0
POLYLINE
8
0
62
2
6
CONTINUOUS
66
1
70
0
0
VERTEX
8
0
62
2
6
CONTINUOUS
10
15.3333419819
20
16.4116990938
0
VERTEX
8
0
62
2
6
CONTINUOUS
10
15.3234767894
20
16.4115629919
0
VERTEX
8
0
62
2
6
CONTINUOUS
10
15.3127569603
20
16.4110993551
0
VERTEX
8
0
62
2
6
CONTINUOUS
10
15.3022573210
20
16.4103138734
0
VERTEX
8
0
62
2
6
CONTINUOUS
10
15.2919964428
20
16.4092147391
0
VERTEX
8
0
62
2
6
CONTINUOUS
10
15.2819919296
20
16.4078110530
0
VERTEX
8
0
62
2
6
CONTINUOUS
10
15.2722602391
20
16.4061127489
0
VERTEX
8
0
62
2
6
CONTINUOUS
10
15.2628165209
20
16.4041305002
0
VERTEX
8
0
62
2
6
CONTINUOUS
10
15.2536744791
20
16.4018756089
0
VERTEX
8
0
62
2
6
CONTINUOUS
10
15.2448462623
20
16.3993598793
0
VERTEX
8
0
62
2
6
CONTINUOUS
10
15.2363423849
20
16.3965954808
0
VERTEX
8
0
62
2
6
CONTINUOUS
10
15.2281716822
20
16.3935948024
0
VERTEX
8
0
62
2
6
CONTINUOUS
10
15.2203412992
20
16.3903703026
0
VERTEX
8
0
62
2
6
CONTINUOUS
10
15.2128567144
20
16.3869343584
0
VERTEX
8
0
62
2
6
CONTINUOUS
10
15.2057217966
20
16.3832991182
0
VERTEX
8
0
62
2
6
CONTINUOUS
10
15.1989388924
20
16.3794763596
0
VERTEX
8
0
62
2
6
CONTINUOUS
10
15.1925089410
20
16.3754773571
0
VERTEX
8
0
62
2
6
CONTINUOUS
10
15.1864316140
20
16.3713127614
0
VERTEX
8
0
62
2
6
CONTINUOUS
10
15.1807054743
20
16.3669924928
0
VERTEX
8
0
62
2
6
CONTINUOUS
10
15.1753281518
20
16.3625256492
0
VERTEX
8
0
62
2
6
CONTINUOUS
10
15.1702965304
20
16.3579204314
0
VERTEX
8
0
62
2
6
CONTINUOUS
10
15.1656069419
20
16.3531840860
0
VERTEX
8
0
62
2
6
CONTINUOUS
10
15.1612553644
20
16.3483228655
0
VERTEX
8
0
62
2
6
CONTINUOUS
10
15.1572376193
20
16.3433420074
0
VERTEX
8
0
62
2
6
CONTINUOUS
10
15.1535495646
20
16.3382457302
0
VERTEX
8
0
62
2
6
CONTINUOUS
10
15.1501872810
20
16.3330372481
0
VERTEX
8
0
62
2
6
CONTINUOUS
10
15.1471472468
20
16.3277188007
0
VERTEX
8
0
62
2
6
CONTINUOUS
10
15.1444265003
20
16.3222917000
0
VERTEX
8
0
62
2
6
CONTINUOUS
10
15.1420227853
20
16.3167563900
0
VERTEX
8
0
62
2
6
CONTINUOUS
10
15.1399346797
20
16.3111125195
0
VERTEX
8
0
62
2
6
CONTINUOUS
10
15.1381617038
20
16.3053590249
0
VERTEX
8
0
62
2
6
CONTINUOUS
10
15.1367044084
20
16.2994942207
0
VERTEX
8
0
62
2
6
CONTINUOUS
10
15.1355644414
20
16.2935158959
0
VERTEX
8
0
62
2
6
CONTINUOUS
10
15.1347445933
20
16.2874214127
0
VERTEX
8
0
62
2
6
CONTINUOUS
10
15.1342488224
20
16.2812078064
0
VERTEX
8
0
62
2
6
CONTINUOUS
10
15.1341240228
20
16.2780553042
0
VERTEX
8
0
62
2
6
CONTINUOUS
10
15.1340822597
20
16.2748727049
0
VERTEX
8
0
62
2
6
CONTINUOUS
10
15.1342487952
20
16.2687425156
0
VERTEX
8
0
62
2
6
CONTINUOUS
10
15.1347467566
20
16.2626661948
0
VERTEX
8
0
62
2
6
CONTINUOUS
10
15.1355744348
20
16.2566433527
0
VERTEX
8
0
62
2
6
CONTINUOUS
10
15.1367310908
20
16.2506740278
0
VERTEX
8
0
62
2
6
CONTINUOUS
10
15.1382168850
20
16.2447587923
0
VERTEX
8
0
62
2
6
CONTINUOUS
10
15.1400327855
20
16.2388988534
0
VERTEX
8
0
62
2
6
CONTINUOUS
10
15.1421804544
20
16.2330961495
0
VERTEX
8
0
62
2
6
CONTINUOUS
10
15.1446621139
20
16.2273534382
0
VERTEX
8
0
62
2
6
CONTINUOUS
10
15.1474803935
20
16.2216743734
0
VERTEX
8
0
62
2
6
CONTINUOUS
10
15.1506381602
20
16.2160635688
0
VERTEX
8
0
62
2
6
CONTINUOUS
10
15.1541383342
20
16.2105266460
0
VERTEX
8
0
62
2
6
CONTINUOUS
10
15.1579836948
20
16.2050702652
0
VERTEX
8
0
62
2
6
CONTINUOUS
10
15.1621766777
20
16.1997021360
0
VERTEX
8
0
62
2
6
CONTINUOUS
10
15.1667191707
20
16.1944310078
0
VERTEX
8
0
62
2
6
CONTINUOUS
10
15.1716123109
20
16.1892666380
0
VERTEX
8
0
62
2
6
CONTINUOUS
10
15.1768562889
20
16.1842197377
0
VERTEX
8
0
62
2
6
CONTINUOUS
10
15.1824501664
20
16.1793018951
0
VERTEX
8
0
62
2
6
CONTINUOUS
10
15.1883917111
20
16.1745254769
0
VERTEX
8
0
62
2
6
CONTINUOUS
10
15.1946772560
20
16.1699035086
0
VERTEX
8
0
62
2
6
CONTINUOUS
10
15.2013015876
20
16.1654495367
0
VERTEX
8
0
62
2
6
CONTINUOUS
10
15.2082578671
20
16.1611774759
0
VERTEX
8
0
62
2
6
CONTINUOUS
10
15.2155375893
20
16.1571014435
0
VERTEX
8
0
62
2
6
CONTINUOUS
10
15.2231305800
20
16.1532355869
0
VERTEX
8
0
62
2
6
CONTINUOUS
10
15.2310250351
20
16.1495939092
0
VERTEX
8
0
62
2
6
CONTINUOUS
10
15.2392075974
20
16.1461900969
0
VERTEX
8
0
62
2
6
CONTINUOUS
10
15.2476634717
20
16.1430373564
0
VERTEX
8
0
62
2
6
CONTINUOUS
10
15.2563765732
20
16.1401482632
0
VERTEX
8
0
62
2
6
CONTINUOUS
10
15.2653297019
20
16.1375346288
0
VERTEX
8
0
62
2
6
CONTINUOUS
10
15.2745047404
20
16.1352073897
0
VERTEX
8
0
62
2
6
CONTINUOUS
10
15.2821712037
20
16.1335217297
0
VERTEX
8
0
62
2
6
CONTINUOUS
10
15.2916929010
20
16.1317417128
0
VERTEX
8
0
62
2
6
CONTINUOUS
10
15.3013746158
20
16.1302739985
0
VERTEX
8
0
62
2
6
CONTINUOUS
10
15.3111968798
20
16.1291247959
0
VERTEX
8
0
62
2
6
CONTINUOUS
10
15.3211404752
20
16.1282992849
0
VERTEX
8
0
62
2
6
CONTINUOUS
10
15.3311865953
20
16.1278016628
0
VERTEX
8
0
62
2
6
CONTINUOUS
10
15.3413169819
20
16.1276352049
0
VERTEX
8
0
62
2
6
CONTINUOUS
10
15.3535717085
20
16.1277753170
0
VERTEX
8
0
62
2
6
CONTINUOUS
10
15.3669031053
20
16.1282456323
0
VERTEX
8
0
62
2
6
CONTINUOUS
10
15.3801196474
20
16.1290417448
0
VERTEX
8
0
62
2
6
CONTINUOUS
10
15.3931417180
20
16.1301546294
0
VERTEX
8
0
62
2
6
CONTINUOUS
10
15.4058994551
20
16.1315724527
0
VERTEX
8
0
62
2
6
CONTINUOUS
10
15.4183331362
20
16.1332812418
0
VERTEX
8
0
62
2
6
CONTINUOUS
10
15.4303930823
20
16.1352655096
0
VERTEX
8
0
62
2
6
CONTINUOUS
10
15.4420392041
20
16.1375088160
0
SEQEND
0
LINE
8
0
62
2
6
CONTINUOUS
10
14.8764183708
20
15.9118824271
11
14.9448461486
21
15.9118824271
0
POLYLINE
8
0
62
2
6
CONTINUOUS
66
1
70
0
0
VERTEX
8
0
62
2
6
CONTINUOUS
10
14.9540155930
20
15.9118824271
0
VERTEX
8
0
62
2
6
CONTINUOUS
10
14.9962919819
20
15.9118824271
0
VERTEX
8
0
62
2
6
CONTINUOUS
10
14.9982694491
20
15.9118381156
0
VERTEX
8
0
62
2
6
CONTINUOUS
10
15.0002315035
20
15.9117055928
0
VERTEX
8
0
62
2
6
CONTINUOUS
10
15.0021762626
20
15.9114854731
0
VERTEX
8
0
62
2
6
CONTINUOUS
10
15.0041016541
20
15.9111783867
0
VERTEX
8
0
62
2
6
CONTINUOUS
10
15.0060054050
20
15.9107850080
0
VERTEX
8
0
62
2
6
CONTINUOUS
10
15.0078850336
20
15.9103060853
0
VERTEX
8
0
62
2
6
CONTINUOUS
10
15.0097378452
20
15.9097424739
0
VERTEX
8
0
62
2
6
CONTINUOUS
10
15.0115609326
20
15.9090951686
0
VERTEX
8
0
62
2
6
CONTINUOUS
10
15.0133511817
20
15.9083653377
0
VERTEX
8
0
62
2
6
CONTINUOUS
10
15.0151052830
20
15.9075543558
0
VERTEX
8
0
62
2
6
CONTINUOUS
10
15.0168197496
20
15.9066638344
0
VERTEX
8
0
62
2
6
CONTINUOUS
10
15.0184909420
20
15.9056956490
0
VERTEX
8
0
62
2
6
CONTINUOUS
10
15.0201150991
20
15.9046519623
0
VERTEX
8
0
62
2
6
CONTINUOUS
10
15.0216883759
20
15.9035352400
0
VERTEX
8
0
62
2
6
CONTINUOUS
10
15.0232068866
20
15.9023482599
0
VERTEX
8
0
62
2
6
CONTINUOUS
10
15.0246667520
20
15.9010941118
0
VERTEX
8
0
62
2
6
CONTINUOUS
10
15.0260641503
20
15.8997761888
0
VERTEX
8
0
62
2
6
CONTINUOUS
10
15.0273953689
20
15.8983981683
0
VERTEX
8
0
62
2
6
CONTINUOUS
10
15.0285591649
20
15.8970799997
0
VERTEX
8
0
62
2
6
CONTINUOUS
10
15.0297520800
20
15.8955996349
0
VERTEX
8
0
62
2
6
CONTINUOUS
10
15.0308683466
20
15.8940726453
0
VERTEX
8
0
62
2
6
CONTINUOUS
10
15.0319053703
20
15.8925035152
0
VERTEX
8
0
62
2
6
CONTINUOUS
10
15.0328608816
20
15.8908967524
0
VERTEX
8
0
62
2
6
CONTINUOUS
10
15.0337329441
20
15.8892568326
0
VERTEX
8
0
62
2
6
CONTINUOUS
10
15.0345199526
20
15.8875881469
0
VERTEX
8
0
62
2
6
CONTINUOUS
10
15.0352206206
20
15.8858949537
0
VERTEX
8
0
62
2
6
CONTINUOUS
10
15.0358339604
20
15.8841813371
0
VERTEX
8
0
62
2
6
CONTINUOUS
10
15.0363592545
20
15.8824511724
0
VERTEX
8
0
62
2
6
CONTINUOUS
10
15.0367960218
20
15.8807080995
0
VERTEX
8
0
62
2
6
CONTINUOUS
10
15.0371439796
20
15.8789555050
0
VERTEX
8
0
62
2
6
CONTINUOUS
10
15.0374030029
20
15.8771965115
0
VERTEX
8
0
62
2
6
CONTINUOUS
10
15.0375730821
20
15.8754339752
0
VERTEX
8
0
62
2
6
CONTINUOUS
10
15.0376542825
20
15.8736704903
0
VERTEX
8
0
62
2
6
CONTINUOUS
10
15.0376467035
20
15.8719083992
0
VERTEX
8
0
62
2
6
CONTINUOUS
10
15.0375504424
20
15.8701498075
0
VERTEX
8
0
62
2
6
CONTINUOUS
10
15.0373655597
20
15.8683966037
0
VERTEX
8
0
62
2
6
CONTINUOUS
10
15.0370920499
20
15.8666504814
0
VERTEX
8
0
62
2
6
CONTINUOUS
10
15.0367298151
20
15.8649129635
0
VERTEX
8
0
62
2
6
CONTINUOUS
10
15.0362786438
20
15.8631854277
0
VERTEX
8
0
62
2
6
CONTINUOUS
10
15.0357381941
20
15.8614691329
0
VERTEX
8
0
62
2
6
CONTINUOUS
10
15.0351079805
20
15.8597652441
0
VERTEX
8
0
62
2
6
CONTINUOUS
10
15.0343873652
20
15.8580748578
0
VERTEX
8
0
62
2
6
CONTINUOUS
10
15.0335755529
20
15.8563990249
0
VERTEX
8
0
62
2
6
CONTINUOUS
10
15.0326715887
20
15.8547387729
0
VERTEX
8
0
62
2
6
CONTINUOUS
10
15.0316743590
20
15.8530951254
0
VERTEX
8
0
62
2
6
CONTINUOUS
10
15.0305825951
20
15.8514691197
0
VERTEX
8
0
62
2
6
CONTINUOUS
10
15.0293948781
20
15.8498618228
0
VERTEX
8
0
62
2
6
CONTINUOUS
10
15.0281096465
20
15.8482743438
0
VERTEX
8
0
62
2
6
CONTINUOUS
10
15.0267252037
20
15.8467078459
0
VERTEX
8
0
62
2
6
CONTINUOUS
10
15.0252397273
20
15.8451635549
0
VERTEX
8
0
62
2
6
CONTINUOUS
10
15.0236512788
20
15.8436427663
0
VERTEX
8
0
62
2
6
CONTINUOUS
10
15.0219581504
20
15.8421471370
0
VERTEX
8
0
62
2
6
CONTINUOUS
10
15.0201585044
20
15.8406782903
0
VERTEX
8
0
62
2
6
CONTINUOUS
10
15.0182501649
20
15.8392376871
0
VERTEX
8
0
62
2
6
CONTINUOUS
10
15.0162308708
20
15.8378268716
0
SEQEND
0
LINE
8
0
62
2
6
CONTINUOUS
10
15.6940183708
20
15.9120185383
11
15.6855017041
21
15.9120185383
0
LINE
8
0
62
2
6
CONTINUOUS
10
15.6281822597
20
15.9120185383
11
15.6189044819
21
15.9120185383
0
LINE
8
0
62
2
6
CONTINUOUS
10
15.6139003152
20
15.9120185383
11
15.6058030930
21
15.9120185383
0
LINE
8
0
62
2
6
CONTINUOUS
10
15.3996669819
20
15.9120185383
11
15.4179767041
21
15.9120185383
0
LINE
8
0
62
2
6
CONTINUOUS
10
15.6975044819
20
15.9399727049
11
12.2163030930
21
15.9399727049
0
POLYLINE
8
0
62
2
6
CONTINUOUS
66
1
70
0
0
VERTEX
8
0
62
2
6
CONTINUOUS
10
12.2184267041
20
15.9625282605
0
VERTEX
8
0
62
2
6
CONTINUOUS
10
15.6928933708
20
15.9625282605
0
VERTEX
8
0
62
2
6
CONTINUOUS
10
15.6928933708
20
16.5767393716
0
SEQEND
0
POLYLINE
8
0
62
2
6
CONTINUOUS
66
1
70
0
0
VERTEX
8
0
62
2
6
CONTINUOUS
10
12.2325725375
20
15.9817754827
0
VERTEX
8
0
62
2
6
CONTINUOUS
10
15.6772683708
20
15.9817754827
0
VERTEX
8
0
62
2
6
CONTINUOUS
10
15.6772683708
20
16.5597171494
0
SEQEND
0
POLYLINE
8
0
62
2
6
CONTINUOUS
66
1
70
0
0
VERTEX
8
0
62
2
6
CONTINUOUS
10
15.6405933708
20
16.0148282605
0
VERTEX
8
0
62
2
6
CONTINUOUS
10
12.2707530930
20
16.0148282605
0
VERTEX
8
0
62
2
6
CONTINUOUS
10
12.2707530930
20
16.5244310383
0
SEQEND
0
POLYLINE
8
0
62
2
6
CONTINUOUS
66
1
70
0
0
VERTEX
8
0
62
2
6
CONTINUOUS
10
15.6338655930
20
16.0215421494
0
VERTEX
8
0
62
2
6
CONTINUOUS
10
12.2774669819
20
16.0215421494
0
VERTEX
8
0
62
2
6
CONTINUOUS
10
12.2774669819
20
16.5177171494
0
SEQEND
0
LINE
8
0
62
2
6
CONTINUOUS
10
14.6739517041
20
16.0984879827
11
14.5457030930
21
16.0984879827
0
LINE
8
0
62
2
6
CONTINUOUS
10
14.4689072597
20
16.0984879827
11
14.3312197597
21
16.0984879827
0
LINE
8
0
62
2
6
CONTINUOUS
10
14.2638572597
20
16.0984879827
11
13.9660322597
21
16.0984879827
0
LINE
8
0
62
2
6
CONTINUOUS
10
13.9501017041
20
16.0984879827
11
13.8834308708
21
16.0984879827
0
LINE
8
0
62
2
6
CONTINUOUS
10
13.6595267041
20
16.0984879827
11
13.5211267041
21
16.0984879827
0
LINE
8
0
62
2
6
CONTINUOUS
10
13.4631642041
20
16.0984879827
11
13.1610058708
21
16.0984879827
0
LINE
8
0
62
2
6
CONTINUOUS
10
12.9979739263
20
16.0984879827
11
12.8545072597
21
16.0984879827
0
LINE
8
0
62
2
6
CONTINUOUS
10
15.5506808708
20
16.1037768716
11
15.5462058708
21
16.1037768716
0
LINE
8
0
62
2
6
CONTINUOUS
10
15.5664558708
20
16.1037768716
11
15.5617628152
21
16.1037768716
0
POLYLINE
8
0
62
2
6
CONTINUOUS
66
1
70
0
0
VERTEX
8
0
62
2
6
CONTINUOUS
10
15.5506808708
20
16.1193407605
0
VERTEX
8
0
62
2
6
CONTINUOUS
10
15.5539225375
20
16.1193407605
0
VERTEX
8
0
62
2
6
CONTINUOUS
10
15.5542219161
20
16.1193437280
0
VERTEX
8
0
62
2
6
CONTINUOUS
10
15.5546179518
20
16.1193570907
0
VERTEX
8
0
62
2
6
CONTINUOUS
10
15.5550012232
20
16.1193808677
0
VERTEX
8
0
62
2
6
CONTINUOUS
10
15.5553712601
20
16.1194146685
0
VERTEX
8
0
62
2
6
CONTINUOUS
10
15.5557277216
20
16.1194580858
0
VERTEX
8
0
62
2
6
CONTINUOUS
10
15.5560703841
20
16.1195107038
0
VERTEX
8
0
62
2
6
CONTINUOUS
10
15.5563991286
20
16.1195721056
0
VERTEX
8
0
62
2
6
CONTINUOUS
10
15.5567139289
20
16.1196418791
0
VERTEX
8
0
62
2
6
CONTINUOUS
10
15.5570148397
20
16.1197196232
0
VERTEX
8
0
62
2
6
CONTINUOUS
10
15.5573019844
20
16.1198049525
0
VERTEX
8
0
62
2
6
CONTINUOUS
10
15.5575755445
20
16.1198975017
0
VERTEX
8
0
62
2
6
CONTINUOUS
10
15.5578357496
20
16.1199969294
0
VERTEX
8
0
62
2
6
CONTINUOUS
10
15.5580828669
20
16.1201029216
0
VERTEX
8
0
62
2
6
CONTINUOUS
10
15.5583171928
20
16.1202151944
0
VERTEX
8
0
62
2
6
CONTINUOUS
10
15.5585390440
20
16.1203334964
0
VERTEX
8
0
62
2
6
CONTINUOUS
10
15.5587487500
20
16.1204576107
0
VERTEX
8
0
62
2
6
CONTINUOUS
10
15.5589466453
20
16.1205873568
0
VERTEX
8
0
62
2
6
CONTINUOUS
10
15.5591330627
20
16.1207225914
0
VERTEX
8
0
62
2
6
CONTINUOUS
10
15.5593083269
20
16.1208632100
0
VERTEX
8
0
62
2
6
CONTINUOUS
10
15.5594727485
20
16.1210091467
0
VERTEX
8
0
62
2
6
CONTINUOUS
10
15.5596266181
20
16.1211603749
0
VERTEX
8
0
62
2
6
CONTINUOUS
10
15.5597702015
20
16.1213169069
0
VERTEX
8
0
62
2
6
CONTINUOUS
10
15.5599037349
20
16.1214787930
0
VERTEX
8
0
62
2
6
CONTINUOUS
10
15.5600274203
20
16.1216461208
0
VERTEX
8
0
62
2
6
CONTINUOUS
10
15.5601414223
20
16.1218190136
0
VERTEX
8
0
62
2
6
CONTINUOUS
10
15.5602458643
20
16.1219976287
0
VERTEX
8
0
62
2
6
CONTINUOUS
10
15.5603408260
20
16.1221821553
0
VERTEX
8
0
62
2
6
CONTINUOUS
10
15.5604263414
20
16.1223728120
0
VERTEX
8
0
62
2
6
CONTINUOUS
10
15.5605023972
20
16.1225698446
0
VERTEX
8
0
62
2
6
CONTINUOUS
10
15.5605689317
20
16.1227735230
0
VERTEX
8
0
62
2
6
CONTINUOUS
10
15.5606258344
20
16.1229841391
0
VERTEX
8
0
62
2
6
CONTINUOUS
10
15.5606729102
20
16.1232018136
0
VERTEX
8
0
62
2
6
CONTINUOUS
10
15.5607099715
20
16.1234268068
0
VERTEX
8
0
62
2
6
CONTINUOUS
10
15.5607367997
20
16.1236594521
0
VERTEX
8
0
62
2
6
CONTINUOUS
10
15.5607531290
20
16.1239000956
0
VERTEX
8
0
62
2
6
CONTINUOUS
10
15.5607586486
20
16.1241490938
0
VERTEX
8
0
62
2
6
CONTINUOUS
10
15.5607542720
20
16.1243596970
0
VERTEX
8
0
62
2
6
CONTINUOUS
10
15.5607390397
20
16.1245925687
0
VERTEX
8
0
62
2
6
CONTINUOUS
10
15.5607130638
20
16.1248213929
0
VERTEX
8
0
62
2
6
CONTINUOUS
10
15.5606765287
20
16.1250458180
0
VERTEX
8
0
62
2
6
CONTINUOUS
10
15.5606296173
20
16.1252655577
0
VERTEX
8
0
62
2
6
CONTINUOUS
10
15.5605725034
20
16.1254803825
0
VERTEX
8
0
62
2
6
CONTINUOUS
10
15.5605053454
20
16.1256901119
0
VERTEX
8
0
62
2
6
CONTINUOUS
10
15.5604282809
20
16.1258946066
0
VERTEX
8
0
62
2
6
CONTINUOUS
10
15.5603414223
20
16.1260937605
0
VERTEX
8
0
62
2
6
CONTINUOUS
10
15.5602448540
20
16.1262874929
0
VERTEX
8
0
62
2
6
CONTINUOUS
10
15.5601386292
20
16.1264757417
0
VERTEX
8
0
62
2
6
CONTINUOUS
10
15.5600227692
20
16.1266584568
0
VERTEX
8
0
62
2
6
CONTINUOUS
10
15.5598972620
20
16.1268355941
0
VERTEX
8
0
62
2
6
CONTINUOUS
10
15.5597620621
20
16.1270071100
0
VERTEX
8
0
62
2
6
CONTINUOUS
10
15.5596170912
20
16.1271729567
0
VERTEX
8
0
62
2
6
CONTINUOUS
10
15.5594622388
20
16.1273330779
0
VERTEX
8
0
62
2
6
CONTINUOUS
10
15.5592973635
20
16.1274874053
0
VERTEX
8
0
62
2
6
CONTINUOUS
10
15.5591222948
20
16.1276358559
0
VERTEX
8
0
62
2
6
CONTINUOUS
10
15.5589368343
20
16.1277783290
0
VERTEX
8
0
62
2
6
CONTINUOUS
10
15.5587407583
20
16.1279147048
0
VERTEX
8
0
62
2
6
CONTINUOUS
10
15.5585338193
20
16.1280448427
0
VERTEX
8
0
62
2
6
CONTINUOUS
10
15.5583157485
20
16.1281685807
0
VERTEX
8
0
62
2
6
CONTINUOUS
10
15.5580862578
20
16.1282857344
0
VERTEX
8
0
62
2
6
CONTINUOUS
10
15.5578451103
20
16.1283960672
0
VERTEX
8
0
62
2
6
CONTINUOUS
10
15.5575920685
20
16.1284993278
0
VERTEX
8
0
62
2
6
CONTINUOUS
10
15.5573268048
20
16.1285952825
0
VERTEX
8
0
62
2
6
CONTINUOUS
10
15.5570489787
20
16.1286836752
0
VERTEX
8
0
62
2
6
CONTINUOUS
10
15.5567582384
20
16.1287642282
0
VERTEX
8
0
62
2
6
CONTINUOUS
10
15.5564542221
20
16.1288366428
0
VERTEX
8
0
62
2
6
CONTINUOUS
10
15.5561365598
20
16.1289006001
0
VERTEX
8
0
62
2
6
CONTINUOUS
10
15.5558048744
20
16.1289557622
0
VERTEX
8
0
62
2
6
CONTINUOUS
10
15.5554587826
20
16.1290017728
0
VERTEX
8
0
62
2
6
CONTINUOUS
10
15.5550978966
20
16.1290382586
0
VERTEX
8
0
62
2
6
CONTINUOUS
10
15.5547218243
20
16.1290648297
0
VERTEX
8
0
62
2
6
CONTINUOUS
10
15.5543301705
20
16.1290810812
0
VERTEX
8
0
62
2
6
CONTINUOUS
10
15.5539225375
20
16.1290865938
0
VERTEX
8
0
62
2
6
CONTINUOUS
10
15.5534042065
20
16.1290812304
0
VERTEX
8
0
62
2
6
CONTINUOUS
10
15.5529102395
20
16.1290655145
0
VERTEX
8
0
62
2
6
CONTINUOUS
10
15.5524369201
20
16.1290399154
0
VERTEX
8
0
62
2
6
CONTINUOUS
10
15.5519793640
20
16.1290047169
0
VERTEX
8
0
62
2
6
CONTINUOUS
10
15.5515303297
20
16.1289598597
0
VERTEX
8
0
62
2
6
CONTINUOUS
10
15.5510769518
20
16.1289045098
0
VERTEX
8
0
62
2
6
CONTINUOUS
10
15.5506808708
20
16.1288490938
0
SEQEND
0
LINE
8
0
62
2
6
CONTINUOUS
10
13.4936003152
20
16.1666574271
11
13.4957697597
21
16.1666574271
0
LINE
8
0
62
2
6
CONTINUOUS
10
14.2993517041
20
16.1676740938
11
14.3015225375
21
16.1676740938
0
LINE
8
0
62
2
6
CONTINUOUS
10
13.3878128152
20
16.2509463160
11
13.3856350375
21
16.2509463160
0
LINE
8
0
62
2
6
CONTINUOUS
10
15.4087128152
20
16.2727768716
11
15.5195669819
21
16.2727768716
0
LINE
8
0
62
2
6
CONTINUOUS
10
13.2675253152
20
16.3029754827
11
13.3537475375
21
16.3029754827
0
LINE
8
0
62
2
6
CONTINUOUS
10
13.3856350375
20
16.3060879827
11
13.3878128152
21
16.3060879827
0
LINE
8
0
62
2
6
CONTINUOUS
10
15.4644989263
20
16.3804838160
11
15.4623294819
21
16.3804838160
0
LINE
8
0
62
2
6
CONTINUOUS
10
13.4291128152
20
16.3825588160
11
13.4269364263
21
16.3825588160
0
LINE
8
0
62
2
6
CONTINUOUS
10
13.0900017041
20
16.3825588160
11
13.0878239263
21
16.3825588160
0
LINE
8
0
62
2
6
CONTINUOUS
10
12.7363905930
20
16.3825588160
11
12.7342142041
21
16.3825588160
0
LINE
8
0
62
2
6
CONTINUOUS
10
12.8863739263
20
16.4033852049
11
12.8226128152
21
16.4033852049
0
LINE
8
0
62
2
6
CONTINUOUS
10
12.7892947597
20
16.4408477049
11
13.0776864263
21
16.4408477049
0
LINE
8
0
62
2
6
CONTINUOUS
10
13.1610058708
20
16.4408477049
11
13.3928850375
21
16.4408477049
0
POLYLINE
8
0
62
2
6
CONTINUOUS
66
1
70
0
0
VERTEX
8
0
62
2
6
CONTINUOUS
10
13.5211267041
20
16.4408477049
0
VERTEX
8
0
62
2
6
CONTINUOUS
10
13.6935780930
20
16.4408477049
0
VERTEX
8
0
62
2
6
CONTINUOUS
10
13.6988481334
20
16.4408114969
0
VERTEX
8
0
62
2
6
CONTINUOUS
10
13.7091053534
20
16.4405253299
0
VERTEX
8
0
62
2
6
CONTINUOUS
10
13.7189594998
20
16.4399637405
0
VERTEX
8
0
62
2
6
CONTINUOUS
10
13.7284085099
20
16.4391385101
0
VERTEX
8
0
62
2
6
CONTINUOUS
10
13.7374510997
20
16.4380617099
0
VERTEX
8
0
62
2
6
CONTINUOUS
10
13.7460868208
20
16.4367456497
0
VERTEX
8
0
62
2
6
CONTINUOUS
10
13.7543161066
20
16.4352028159
0
VERTEX
8
0
62
2
6
CONTINUOUS
10
13.7621403101
20
16.4334458010
0
VERTEX
8
0
62
2
6
CONTINUOUS
10
13.7695617269
20
16.4314872224
0
VERTEX
8
0
62
2
6
CONTINUOUS
10
13.7765836037
20
16.4293396328
0
VERTEX
8
0
62
2
6
CONTINUOUS
10
13.7832101288
20
16.4270154232
0
VERTEX
8
0
62
2
6
CONTINUOUS
10
13.7894464043
20
16.4245267189
0
VERTEX
8
0
62
2
6
CONTINUOUS
10
13.7952983957
20
16.4218852717
0
VERTEX
8
0
62
2
6
CONTINUOUS
10
13.8007728614
20
16.4191023494
0
VERTEX
8
0
62
2
6
CONTINUOUS
10
13.8058772587
20
16.4161886260
0
VERTEX
8
0
62
2
6
CONTINUOUS
10
13.8106196275
20
16.4131540747
0
VERTEX
8
0
62
2
6
CONTINUOUS
10
13.8150084527
20
16.4100078680
0
VERTEX
8
0
62
2
6
CONTINUOUS
10
13.8190525059
20
16.4067582866
0
VERTEX
8
0
62
2
6
CONTINUOUS
10
13.8227606692
20
16.4034126426
0
VERTEX
8
0
62
2
6
CONTINUOUS
10
13.8261417439
20
16.3999772187
0
VERTEX
8
0
62
2
6
CONTINUOUS
10
13.8292042479
20
16.3964572289
0
VERTEX
8
0
62
2
6
CONTINUOUS
10
13.8319562071
20
16.3928568023
0
VERTEX
8
0
62
2
6
CONTINUOUS
10
13.8344049454
20
16.3891789933
0
VERTEX
8
0
62
2
6
CONTINUOUS
10
13.8365568818
20
16.3854258204
0
VERTEX
8
0
62
2
6
CONTINUOUS
10
13.8384173386
20
16.3815983347
0
VERTEX
8
0
62
2
6
CONTINUOUS
10
13.8399903713
20
16.3776967159
0
VERTEX
8
0
62
2
6
CONTINUOUS
10
13.8412786244
20
16.3737203961
0
VERTEX
8
0
62
2
6
CONTINUOUS
10
13.8418164377
20
16.3717036089
0
VERTEX
8
0
62
2
6
CONTINUOUS
10
13.8422832209
20
16.3696682059
0
VERTEX
8
0
62
2
6
CONTINUOUS
10
13.8430029801
20
16.3655436581
0
VERTEX
8
0
62
2
6
CONTINUOUS
10
13.8434368241
20
16.3613457875
0
VERTEX
8
0
62
2
6
CONTINUOUS
10
13.8435822597
20
16.3570727049
0
VERTEX
8
0
62
2
6
CONTINUOUS
10
13.8434367957
20
16.3530318353
0
VERTEX
8
0
62
2
6
CONTINUOUS
10
13.8430009390
20
16.3490116578
0
VERTEX
8
0
62
2
6
CONTINUOUS
10
13.8422738584
20
16.3450074767
0
VERTEX
8
0
62
2
6
CONTINUOUS
10
13.8412526485
20
16.3410152886
0
VERTEX
8
0
62
2
6
CONTINUOUS
10
13.8399325103
20
16.3370319986
0
VERTEX
8
0
62
2
6
CONTINUOUS
10
13.8383069901
20
16.3330556301
0
VERTEX
8
0
62
2
6
CONTINUOUS
10
13.8363682768
20
16.3290855234
0
VERTEX
8
0
62
2
6
CONTINUOUS
10
13.8341075555
20
16.3251225186
0
VERTEX
8
0
62
2
6
CONTINUOUS
10
13.8315154151
20
16.3211691209
0
VERTEX
8
0
62
2
6
CONTINUOUS
10
13.8285823083
20
16.3172296452
0
VERTEX
8
0
62
2
6
CONTINUOUS
10
13.8252990618
20
16.3133103372
0
VERTEX
8
0
62
2
6
CONTINUOUS
10
13.8216574339
20
16.3094194672
0
VERTEX
8
0
62
2
6
CONTINUOUS
10
13.8176507140
20
16.3055673907
0
VERTEX
8
0
62
2
6
CONTINUOUS
10
13.8132743547
20
16.3017665690
0
VERTEX
8
0
62
2
6
CONTINUOUS
10
13.8085266252
20
16.2980315393
0
VERTEX
8
0
62
2
6
CONTINUOUS
10
13.8034092616
20
16.2943788239
0
VERTEX
8
0
62
2
6
CONTINUOUS
10
13.7979280901
20
16.2908267664
0
VERTEX
8
0
62
2
6
CONTINUOUS
10
13.7920935835
20
16.2873952849
0
VERTEX
8
0
62
2
6
CONTINUOUS
10
13.7859213080
20
16.2841055330
0
VERTEX
8
0
62
2
6
CONTINUOUS
10
13.7794322138
20
16.2809794679
0
VERTEX
8
0
62
2
6
CONTINUOUS
10
13.7726527192
20
16.2780393317
0
VERTEX
8
0
62
2
6
CONTINUOUS
10
13.7656145514
20
16.2753070605
0
VERTEX
8
0
62
2
6
CONTINUOUS
10
13.7583543165
20
16.2728036511
0
VERTEX
8
0
62
2
6
CONTINUOUS
10
13.7509127982
20
16.2705485206
0
VERTEX
8
0
62
2
6
CONTINUOUS
10
13.7436876645
20
16.2686450346
0
VERTEX
8
0
62
2
6
CONTINUOUS
10
13.7360410219
20
16.2669263335
0
VERTEX
8
0
62
2
6
CONTINUOUS
10
13.7283683708
20
16.2655004827
0
SEQEND
0
LINE
8
0
62
2
6
CONTINUOUS
10
13.9660322597
20
16.4408477049
11
14.1044322597
21
16.4408477049
0
LINE
8
0
62
2
6
CONTINUOUS
10
14.3312197597
20
16.4408477049
11
14.4689072597
21
16.4408477049
0
LINE
8
0
62
2
6
CONTINUOUS
10
14.5464294819
20
16.4408477049
11
14.6522169819
21
16.4408477049
0
LINE
8
0
62
2
6
CONTINUOUS
10
14.9007655930
20
16.4408477049
11
15.0283017041
21
16.4408477049
0
LINE
8
0
62
2
6
CONTINUOUS
10
13.4269364263
20
16.4434379827
11
13.4291128152
21
16.4434379827
0
LINE
8
0
62
2
6
CONTINUOUS
10
12.7595836486
20
16.4444893716
11
12.7617475375
21
16.4444893716
0
LINE
8
0
62
2
6
CONTINUOUS
10
13.1110114263
20
16.4444893716
11
13.1131808708
21
16.4444893716
0
LINE
8
0
62
2
6
CONTINUOUS
10
12.2774669819
20
16.5177171494
11
15.6338655930
21
16.5177171494
0
LINE
8
0
62
2
6
CONTINUOUS
10
12.2707530930
20
16.5244310383
11
15.6405933708
21
16.5244310383
0
POLYLINE
8
0
62
2
6
CONTINUOUS
66
1
70
0
0
VERTEX
8
0
62
2
6
CONTINUOUS
10
15.6772683708
20
16.5597171494
0
VERTEX
8
0
62
2
6
CONTINUOUS
10
12.2325725375
20
16.5597171494
0
VERTEX
8
0
62
2
6
CONTINUOUS
10
12.2325725375
20
15.9817754827
0
SEQEND
0
POLYLINE
8
0
62
2
6
CONTINUOUS
66
1
70
0
0
VERTEX
8
0
62
2
6
CONTINUOUS
10
12.2163030930
20
16.5723102049
0
VERTEX
8
0
62
2
6
CONTINUOUS
10
15.6975044819
20
16.5723102049
0
VERTEX
8
0
62
2
6
CONTINUOUS
10
15.6975044819
20
15.9399727049
0
SEQEND
0
LINE
8
0
62
2
6
CONTINUOUS
10
15.6928933708
20
16.5767393716
11
12.2184267041
21
16.5767393716
0
POLYLINE
8
0
62
2
6
CONTINUOUS
66
1
70
0
0
VERTEX
8
0
62
2
6
CONTINUOUS
10
14.0725517041
20
16.1406421494
0
VERTEX
8
0
62
2
6
CONTINUOUS
10
14.0846109231
20
16.1399877465
0
VERTEX
8
0
62
2
6
CONTINUOUS
10
14.0991221866
20
16.1390391077
0
VERTEX
8
0
62
2
6
CONTINUOUS
10
14.1140818714
20
16.1379804020
0
VERTEX
8
0
62
2
6
CONTINUOUS
10
14.1298623105
20
16.1369048400
0
VERTEX
8
0
62
2
6
CONTINUOUS
10
14.1421960002
20
16.1361856112
0
VERTEX
8
0
62
2
6
CONTINUOUS
10
14.1528422184
20
16.1357104234
0
VERTEX
8
0
62
2
6
CONTINUOUS
10
14.1624338599
20
16.1354385497
0
VERTEX
8
0
62
2
6
CONTINUOUS
10
14.1712849527
20
16.1353499005
0
VERTEX
8
0
62
2
6
CONTINUOUS
10
14.1795793952
20
16.1354329564
0
VERTEX
8
0
62
2
6
CONTINUOUS
10
14.1874365642
20
16.1356805649
0
VERTEX
8
0
62
2
6
CONTINUOUS
10
14.1949396477
20
16.1360881332
0
VERTEX
8
0
62
2
6
CONTINUOUS
10
14.2021497205
20
16.1366527389
0
VERTEX
8
0
62
2
6
CONTINUOUS
10
14.2091134641
20
16.1373726507
0
VERTEX
8
0
62
2
6
CONTINUOUS
10
14.2158677240
20
16.1382470527
0
VERTEX
8
0
62
2
6
CONTINUOUS
10
14.2224423591
20
16.1392758771
0
VERTEX
8
0
62
2
6
CONTINUOUS
10
14.2288621063
20
16.1404597010
0
VERTEX
8
0
62
2
6
CONTINUOUS
10
14.2351478469
20
16.1417996788
0
VERTEX
8
0
62
2
6
CONTINUOUS
10
14.2413174934
20
16.1432974999
0
VERTEX
8
0
62
2
6
CONTINUOUS
10
14.2473866278
20
16.1449553593
0
VERTEX
8
0
62
2
6
CONTINUOUS
10
14.2533689702
20
16.1467759390
0
VERTEX
8
0
62
2
6
CONTINUOUS
10
14.2592767307
20
16.1487623959
0
VERTEX
8
0
62
2
6
CONTINUOUS
10
14.2651208774
20
16.1509183525
0
VERTEX
8
0
62
2
6
CONTINUOUS
10
14.2709113436
20
16.1532478923
0
VERTEX
8
0
62
2
6
CONTINUOUS
10
14.2766571910
20
16.1557555552
0
VERTEX
8
0
62
2
6
CONTINUOUS
10
14.2823667392
20
16.1584463354
0
VERTEX
8
0
62
2
6
CONTINUOUS
10
14.2880476694
20
16.1613256790
0
VERTEX
8
0
62
2
6
CONTINUOUS
10
14.2937071096
20
16.1643994829
0
VERTEX
8
0
62
2
6
CONTINUOUS
10
14.2993517041
20
16.1676740938
0
SEQEND
0
LINE
8
DEFAULT_1
62
7
6
CENTER
10
11.7692307692
20
11.1024038462
11
11.7692307692
21
1.7177884615
0
LINE
8
DEFAULT_1
62
7
6
CENTER
10
11.7692307692
20
11.1024038462
11
11.7692307692
21
20.4870192308
0
LINE
8
DEFAULT_1
62
7
6
CENTER
10
11.7692307692
20
11.1024038462
11
2.3846153846
21
11.1024038462
0
LINE
8
DEFAULT_1
62
7
6
CENTER
10
11.7692307692
20
11.1024038462
11
21.1538461538
21
11.1024038462
0
ARC
8
0
62
2
6
CONTINUOUS
10
15.4224753276
20
15.8851970105
40
0.0271961756
50
260.4787245939
51
99.5212754061
0
CIRCLE
8
0
62
2
6
CONTINUOUS
10
15.2228544137
20
15.8617796494
40
0.0437959350
0
CIRCLE
8
0
62
2
6
CONTINUOUS
10
15.2232858518
20
15.8617803438
40
0.0514756023
0
ARC
8
0
62
2
6
CONTINUOUS
10
15.1303321446
20
15.8617055316
40
0.0513304411
50
47.5048873671
51
180.0087362707
0
ARC
8
0
62
2
6
CONTINUOUS
10
15.1309071350
20
15.8622118365
40
0.0519079771
50
180.5675053294
51
310.5520051654
0
CIRCLE
8
0
62
2
6
CONTINUOUS
10
14.6174542208
20
15.8512206216
40
0.0317997452
0
CIRCLE
8
0
62
2
6
CONTINUOUS
10
15.5554419819
20
16.1194794351
40
0.0202280646
0
ARC
8
0
62
2
6
CONTINUOUS
10
15.3473759531
20
16.1875819949
40
0.2245560651
50
59.2085551990
51
93.5831215674
0
ARC
8
0
62
2
6
CONTINUOUS
10
15.0329256967
20
16.2813459768
40
0.2039397004
50
223.4269507726
51
258.0242403069
0
ARC
8
0
62
2
6
CONTINUOUS
10
13.8725755038
20
16.2122264115
40
0.1142552807
50
230.1562195028
51
275.4518816802
0
ARC
8
0
62
2
6
CONTINUOUS
10
13.3557833220
20
16.2763696725
40
0.1278237007
50
56.1755396367
51
96.4463209909
0
ARC
8
0
62
2
6
CONTINUOUS
10
12.8155426386
20
16.2437608594
40
0.1597808471
50
87.4638787987
51
119.6947324667
0
CIRCLE
8
_CURVE
62
7
6
CONTINUOUS
10
11.7692307692
20
11.1024038462
40
9.1250000000
0
CIRCLE
8
_CURVE
62
8
6
HIDDEN
10
11.7692307692
20
11.1024038462
40
9.5000000000
0
ENDSEC
0
EOF
