999
DXF file: 1033456-7.dxf
999
Pro/ENGINEER 2004030 by Parametric Technology Corporation
0
SECTION
2
HEADER
9
$EXTMAX
10
34.0000000000
20
22.0000000000
30
0.0000000000
9
$EXTMIN
10
0.0000000000
20
0.0000000000
30
0.0000000000
9
$LIMMIN
10
0.0000000000
20
0.0000000000
9
$LIMMAX
10
34.0000000000
20
22.0000000000
9
$VIEWCTR
10
17.0000000000
20
11.0000000000
9
$VIEWSIZE
40
22.0000000000
9
$CLAYER
8
0
9
$LTSCALE
40
1.8700000000
9
$CELTYPE
6
BYLAYER
9
$DIMSCALE
40
1
9
$DIMASZ
40
0.1875000000
9
$DIMEXO
40
0.2125000000
9
$DIMDLI
40
1.2920000000
9
$DIMEXE
40
0.6120000000
9
$DIMCEN
40
0.3060000000
9
$DIMLFAC
40
1.0000000000
9
$DIMBLK
1
_FILLED
9
$DIMTXT
40
0.1562500000
9
$PDMODE
70
3
9
$PDSIZE
40
0.3125000000
0
ENDSEC
0
SECTION
2
TABLES
0
TABLE
2
LTYPE
70
6
0
LTYPE
2
BYBLOCK
70
0
3

72
65
73
0
40
0.0
0
LTYPE
2
BYLAYER
70
0
3

72
65
73
0
40
0.0
0
LTYPE
2
CONTINUOUS
70
64
3
Solid line
72
65
73
0
40
0
0
LTYPE
2
CENTER
70
64
3
____ _ ____ _ ____ _ ____ _ ____ _ ____ _ ____
72
65
73
4
40
0.6
49
0.375
49
-0.075
49
0.075
49
-0.075
0
LTYPE
2
HIDDEN
70
64
3
- - - - - - - - - - - - - - - - - - - -
72
65
73
2
40
0.2
49
0.1
49
-0.1
0
LTYPE
2
PHANTOM
70
64
3
_____ _ _ _____ _ _ _____ _ _ _____
72
65
73
6
40
0.8
49
0.45
49
-0.05
49
0.1
49
-0.05
49
0.1
49
-0.05
0
LTYPE
2
DOT
70
64
3
. . . . . . . . . . . . . . . . . . . .
72
65
73
2
40
0.2
49
0.1
49
-0.1
0
LTYPE
2
DASHED
70
64
3
- - - - - - - - - - - - - - - - - - - -
72
65
73
2
40
0.2
49
0.1
49
-0.1
0
ENDTAB
0
TABLE
2
LAYER
70
36
0
LAYER
2
0
70
0
62
7
6
CONTINUOUS
0
LAYER
2
DEFAULT_1
70
0
62
7
6
CENTER
0
LAYER
2
DEFAULT_2
70
0
62
8
6
HIDDEN
0
LAYER
2
DEFAULT_3
70
0
62
7
6
PHANTOM
0
LAYER
2
DATUMS
70
0
62
7
6
CONTINUOUS
0
LAYER
2
DATUM_AXIS
70
0
62
7
6
CONTINUOUS
0
LAYER
2
DATUM_CSYS
70
0
62
7
6
CONTINUOUS
0
LAYER
2
DATUM_PLANE
70
0
62
7
6
CONTINUOUS
0
LAYER
2
DATUM_POINT
70
0
62
7
6
CONTINUOUS
0
LAYER
2
_CURVE
70
0
62
7
6
CONTINUOUS
0
LAYER
2
_SURFACE
70
0
62
7
6
CONTINUOUS
0
LAYER
2
__REF_CURVE
70
0
62
7
6
CONTINUOUS
0
LAYER
2
__REF_SURFACE
70
0
62
7
6
CONTINUOUS
0
LAYER
2
___NOTE
70
0
62
7
6
CONTINUOUS
0
ENDTAB
0
ENDSEC
0
SECTION
2
BLOCKS
0
BLOCK
8
0
62
2
6
CONTINUOUS
2
KOHLER_BL0
70
64
10
30.2123715000
20
2.2616460000
0
ARC
8
0
62
2
6
CONTINUOUS
10
30.7781840000
20
2.3171147500
40
0.0306562500
50
270.0000000000
51
90.0000000000
0
LINE
8
0
62
2
6
CONTINUOUS
10
29.5281840000
20
2.1210210000
11
29.5281840000
21
2.4022710000
0
LINE
8
0
62
2
6
CONTINUOUS
10
29.5281840000
20
2.4022710000
11
29.5951840000
21
2.4022710000
0
LINE
8
0
62
2
6
CONTINUOUS
10
29.5281840000
20
2.1210210000
11
29.5951840000
21
2.1210210000
0
LINE
8
0
62
2
6
CONTINUOUS
10
29.7781840000
20
2.4022710000
11
29.6531840000
21
2.2772710000
0
LINE
8
0
62
2
6
CONTINUOUS
10
29.6531840000
20
2.2772710000
11
29.7781840000
21
2.1210210000
0
CIRCLE
8
0
62
2
6
CONTINUOUS
10
29.8875590000
20
2.2616460000
40
0.0736250000
0
LINE
8
0
62
2
6
CONTINUOUS
10
29.6923821352
20
2.1210210000
11
29.7781840000
21
2.1210210000
0
CIRCLE
8
0
62
2
6
CONTINUOUS
10
29.8875590000
20
2.2616460000
40
0.1406250000
0
LINE
8
0
62
2
6
CONTINUOUS
10
29.5951840000
20
2.1210210000
11
29.5951840000
21
2.2425186690
0
LINE
8
0
62
2
6
CONTINUOUS
10
29.6834316913
20
2.4022710000
11
29.5951840000
21
2.3140233087
0
LINE
8
0
62
2
6
CONTINUOUS
10
29.5951840000
20
2.2425186690
11
29.6923821352
21
2.1210210000
0
LINE
8
0
62
2
6
CONTINUOUS
10
29.6834316913
20
2.4022710000
11
29.7781840000
21
2.4022710000
0
LINE
8
0
62
2
6
CONTINUOUS
10
29.5951840000
20
2.4022710000
11
29.5951840000
21
2.3140233087
0
LINE
8
0
62
2
6
CONTINUOUS
10
30.0594340000
20
2.4022710000
11
30.0594340000
21
2.1210210000
0
LINE
8
0
62
2
6
CONTINUOUS
10
30.1264340000
20
2.1210210000
11
30.1264340000
21
2.2437710000
0
LINE
8
0
62
2
6
CONTINUOUS
10
30.1264340000
20
2.3107710000
11
30.1264340000
21
2.4022710000
0
LINE
8
0
62
2
6
CONTINUOUS
10
30.2045590000
20
2.1210210000
11
30.2045590000
21
2.2437710000
0
LINE
8
0
62
2
6
CONTINUOUS
10
30.2045590000
20
2.3107710000
11
30.2045590000
21
2.4022710000
0
LINE
8
0
62
2
6
CONTINUOUS
10
30.2715590000
20
2.4022710000
11
30.2715590000
21
2.1210210000
0
LINE
8
0
62
2
6
CONTINUOUS
10
30.1264340000
20
2.3107710000
11
30.2045590000
21
2.3107710000
0
LINE
8
0
62
2
6
CONTINUOUS
10
30.1264340000
20
2.2437710000
11
30.2045590000
21
2.2437710000
0
LINE
8
0
62
2
6
CONTINUOUS
10
30.2045590000
20
2.1210210000
11
30.2715590000
21
2.1210210000
0
LINE
8
0
62
2
6
CONTINUOUS
10
30.0594340000
20
2.1210210000
11
30.1264340000
21
2.1210210000
0
LINE
8
0
62
2
6
CONTINUOUS
10
30.2045590000
20
2.4022710000
11
30.2715590000
21
2.4022710000
0
LINE
8
0
62
2
6
CONTINUOUS
10
30.0594340000
20
2.4022710000
11
30.1264340000
21
2.4022710000
0
LINE
8
0
62
2
6
CONTINUOUS
10
30.3028090000
20
2.4022710000
11
30.3028090000
21
2.1210210000
0
LINE
8
0
62
2
6
CONTINUOUS
10
30.4590590000
20
2.1880210000
11
30.4590590000
21
2.1210210000
0
LINE
8
0
62
2
6
CONTINUOUS
10
30.3028090000
20
2.1210210000
11
30.4590590000
21
2.1210210000
0
LINE
8
0
62
2
6
CONTINUOUS
10
30.3698090000
20
2.1880210000
11
30.3698090000
21
2.4022710000
0
LINE
8
0
62
2
6
CONTINUOUS
10
30.3698090000
20
2.1880210000
11
30.4590590000
21
2.1880210000
0
LINE
8
0
62
2
6
CONTINUOUS
10
30.3028090000
20
2.4022710000
11
30.3698090000
21
2.4022710000
0
LINE
8
0
62
2
6
CONTINUOUS
10
30.4903090000
20
2.1210210000
11
30.6465590000
21
2.1210210000
0
LINE
8
0
62
2
6
CONTINUOUS
10
30.6465590000
20
2.1880210000
11
30.6465590000
21
2.1210210000
0
LINE
8
0
62
2
6
CONTINUOUS
10
30.5573090000
20
2.1880210000
11
30.6465590000
21
2.1880210000
0
LINE
8
0
62
2
6
CONTINUOUS
10
30.5573090000
20
2.2359585000
11
30.5573090000
21
2.1880210000
0
LINE
8
0
62
2
6
CONTINUOUS
10
30.5573090000
20
2.3352710000
11
30.6465590000
21
2.3352710000
0
LINE
8
0
62
2
6
CONTINUOUS
10
30.4903090000
20
2.4022710000
11
30.4903090000
21
2.1210210000
0
LINE
8
0
62
2
6
CONTINUOUS
10
30.6465590000
20
2.3352710000
11
30.6465590000
21
2.4022710000
0
LINE
8
0
62
2
6
CONTINUOUS
10
30.4903090000
20
2.4022710000
11
30.6465590000
21
2.4022710000
0
LINE
8
0
62
2
6
CONTINUOUS
10
30.5573090000
20
2.2873335000
11
30.6465590000
21
2.2873335000
0
LINE
8
0
62
2
6
CONTINUOUS
10
30.6465590000
20
2.2873335000
11
30.6465590000
21
2.2359585000
0
LINE
8
0
62
2
6
CONTINUOUS
10
30.5573090000
20
2.2359585000
11
30.6465590000
21
2.2359585000
0
LINE
8
0
62
2
6
CONTINUOUS
10
30.5573090000
20
2.2873335000
11
30.5573090000
21
2.3352710000
0
LINE
8
0
62
2
6
CONTINUOUS
10
30.6778090000
20
2.1210210000
11
30.6778090000
21
2.4022710000
0
LINE
8
0
62
2
6
CONTINUOUS
10
30.7448090000
20
2.2303960000
11
30.7448090000
21
2.1210210000
0
ARC
8
0
62
2
6
CONTINUOUS
10
30.7793715000
20
2.3163335000
40
0.0859375000
50
304.1679402531
51
90.0000000000
0
LINE
8
0
62
2
6
CONTINUOUS
10
30.7793715000
20
2.4022710000
11
30.6778090000
21
2.4022710000
0
LINE
8
0
62
2
6
CONTINUOUS
10
30.7781840000
20
2.3477710000
11
30.7448090000
21
2.3477710000
0
LINE
8
0
62
2
6
CONTINUOUS
10
30.8276357616
20
2.2452292458
11
30.8965590000
21
2.1210210000
0
LINE
8
0
62
2
6
CONTINUOUS
10
30.8199350526
20
2.1210210000
11
30.7592427922
21
2.2303960000
0
LINE
8
0
62
2
6
CONTINUOUS
10
30.6778090000
20
2.1210210000
11
30.7448090000
21
2.1210210000
0
LINE
8
0
62
2
6
CONTINUOUS
10
30.8199350526
20
2.1210210000
11
30.8965590000
21
2.1210210000
0
LINE
8
0
62
2
6
CONTINUOUS
10
30.7781840000
20
2.2864585000
11
30.7448090000
21
2.2864585000
0
LINE
8
0
62
2
6
CONTINUOUS
10
30.7448090000
20
2.3477710000
11
30.7448090000
21
2.2864585000
0
LINE
8
0
62
2
6
CONTINUOUS
10
30.7448090000
20
2.2303960000
11
30.7592427922
21
2.2303960000
0
POLYLINE
8
0
62
2
6
CONTINUOUS
66
1
70
1
0
VERTEX
8
0
62
2
6
CONTINUOUS
10
30.8965590000
20
2.1210210000
0
VERTEX
8
0
62
2
6
CONTINUOUS
10
30.8199350526
20
2.1210210000
0
VERTEX
8
0
62
2
6
CONTINUOUS
10
30.7592427922
20
2.2303960000
0
VERTEX
8
0
62
2
6
CONTINUOUS
10
30.7448090000
20
2.2303960000
0
VERTEX
8
0
62
2
6
CONTINUOUS
10
30.7448090000
20
2.1210210000
0
VERTEX
8
0
62
2
6
CONTINUOUS
10
30.6778090000
20
2.1210210000
0
VERTEX
8
0
62
2
6
CONTINUOUS
10
30.6778090000
20
2.3477710000
0
VERTEX
8
0
62
2
6
CONTINUOUS
10
30.7448090000
20
2.3477710000
0
VERTEX
8
0
62
2
6
CONTINUOUS
10
30.7448090000
20
2.2864585000
0
VERTEX
8
0
62
2
6
CONTINUOUS
10
30.7781840000
20
2.2864585000
0
VERTEX
8
0
62
2
6
CONTINUOUS
10
30.8586501340
20
2.2864585000
0
VERTEX
8
0
62
2
6
CONTINUOUS
10
30.8497683179
20
2.2670431162
0
VERTEX
8
0
62
2
6
CONTINUOUS
10
30.8276357616
20
2.2452292458
0
VERTEX
8
0
62
2
6
CONTINUOUS
10
30.8965590000
20
2.1210210000
0
SEQEND
0
POLYLINE
8
0
62
2
6
CONTINUOUS
66
1
70
1
0
VERTEX
8
0
62
2
6
CONTINUOUS
10
30.6778090000
20
2.3477710000
0
VERTEX
8
0
62
2
6
CONTINUOUS
10
30.6778090000
20
2.4022710000
0
VERTEX
8
0
62
2
6
CONTINUOUS
10
30.7793715000
20
2.4022710000
0
VERTEX
8
0
62
2
6
CONTINUOUS
10
30.8099349823
20
2.3966524110
0
VERTEX
8
0
62
2
6
CONTINUOUS
10
30.8365019870
20
2.3805313299
0
VERTEX
8
0
62
2
6
CONTINUOUS
10
30.8555986155
20
2.3560157476
0
VERTEX
8
0
62
2
6
CONTINUOUS
10
30.8647277946
20
2.3263113190
0
VERTEX
8
0
62
2
6
CONTINUOUS
10
30.8626957941
20
2.2953021918
0
VERTEX
8
0
62
2
6
CONTINUOUS
10
30.8586501340
20
2.2864585000
0
VERTEX
8
0
62
2
6
CONTINUOUS
10
30.7781840000
20
2.2864585000
0
VERTEX
8
0
62
2
6
CONTINUOUS
10
30.7935121250
20
2.2905656587
0
VERTEX
8
0
62
2
6
CONTINUOUS
10
30.8047330913
20
2.3017866250
0
VERTEX
8
0
62
2
6
CONTINUOUS
10
30.8088402500
20
2.3171147500
0
VERTEX
8
0
62
2
6
CONTINUOUS
10
30.8047330913
20
2.3324428750
0
VERTEX
8
0
62
2
6
CONTINUOUS
10
30.7935121250
20
2.3436638413
0
VERTEX
8
0
62
2
6
CONTINUOUS
10
30.7781840000
20
2.3477710000
0
VERTEX
8
0
62
2
6
CONTINUOUS
10
30.7448090000
20
2.3477710000
0
VERTEX
8
0
62
2
6
CONTINUOUS
10
30.6778090000
20
2.3477710000
0
SEQEND
0
POLYLINE
8
0
62
2
6
CONTINUOUS
66
1
70
1
0
VERTEX
8
0
62
2
6
CONTINUOUS
10
29.5951840000
20
2.1210210000
0
VERTEX
8
0
62
2
6
CONTINUOUS
10
29.5281840000
20
2.1210210000
0
VERTEX
8
0
62
2
6
CONTINUOUS
10
29.5281840000
20
2.4022710000
0
VERTEX
8
0
62
2
6
CONTINUOUS
10
29.5951840000
20
2.4022710000
0
VERTEX
8
0
62
2
6
CONTINUOUS
10
29.5951840000
20
2.3140233087
0
VERTEX
8
0
62
2
6
CONTINUOUS
10
29.6834316913
20
2.4022710000
0
VERTEX
8
0
62
2
6
CONTINUOUS
10
29.7781840000
20
2.4022710000
0
VERTEX
8
0
62
2
6
CONTINUOUS
10
29.6531840000
20
2.2772710000
0
VERTEX
8
0
62
2
6
CONTINUOUS
10
29.7781840000
20
2.1210210000
0
VERTEX
8
0
62
2
6
CONTINUOUS
10
29.6923821352
20
2.1210210000
0
VERTEX
8
0
62
2
6
CONTINUOUS
10
29.5951840000
20
2.2425186690
0
VERTEX
8
0
62
2
6
CONTINUOUS
10
29.5951840000
20
2.1210210000
0
SEQEND
0
POLYLINE
8
0
62
2
6
CONTINUOUS
66
1
70
1
0
VERTEX
8
0
62
2
6
CONTINUOUS
10
29.8875590000
20
2.1210210000
0
VERTEX
8
0
62
2
6
CONTINUOUS
10
29.8441034852
20
2.1279036774
0
VERTEX
8
0
62
2
6
CONTINUOUS
10
29.8049016989
20
2.1478779852
0
VERTEX
8
0
62
2
6
CONTINUOUS
10
29.7737909852
20
2.1789886989
0
VERTEX
8
0
62
2
6
CONTINUOUS
10
29.7538166774
20
2.2181904852
0
VERTEX
8
0
62
2
6
CONTINUOUS
10
29.7469340000
20
2.2616460000
0
VERTEX
8
0
62
2
6
CONTINUOUS
10
29.7538166774
20
2.3051015148
0
VERTEX
8
0
62
2
6
CONTINUOUS
10
29.7690287706
20
2.3349569287
0
VERTEX
8
0
62
2
6
CONTINUOUS
10
29.8943522580
20
2.3349569287
0
VERTEX
8
0
62
2
6
CONTINUOUS
10
29.8674105624
20
2.3324604130
0
VERTEX
8
0
62
2
6
CONTINUOUS
10
29.8431900249
20
2.3204000184
0
VERTEX
8
0
62
2
6
CONTINUOUS
10
29.8249617634
20
2.3004045680
0
VERTEX
8
0
62
2
6
CONTINUOUS
10
29.8151876055
20
2.2751745582
0
VERTEX
8
0
62
2
6
CONTINUOUS
10
29.8151876055
20
2.2481174418
0
VERTEX
8
0
62
2
6
CONTINUOUS
10
29.8249617634
20
2.2228874320
0
VERTEX
8
0
62
2
6
CONTINUOUS
10
29.8431900249
20
2.2028919816
0
VERTEX
8
0
62
2
6
CONTINUOUS
10
29.8674105624
20
2.1908315870
0
VERTEX
8
0
62
2
6
CONTINUOUS
10
29.8943522580
20
2.1883350713
0
VERTEX
8
0
62
2
6
CONTINUOUS
10
30.0060892294
20
2.1883350713
0
VERTEX
8
0
62
2
6
CONTINUOUS
10
30.0013270148
20
2.1789886989
0
VERTEX
8
0
62
2
6
CONTINUOUS
10
29.9702163011
20
2.1478779852
0
VERTEX
8
0
62
2
6
CONTINUOUS
10
29.9310145148
20
2.1279036774
0
VERTEX
8
0
62
2
6
CONTINUOUS
10
29.8875590000
20
2.1210210000
0
SEQEND
0
POLYLINE
8
0
62
2
6
CONTINUOUS
66
1
70
1
0
VERTEX
8
0
62
2
6
CONTINUOUS
10
29.7690287706
20
2.3349569287
0
VERTEX
8
0
62
2
6
CONTINUOUS
10
29.7737909852
20
2.3443033011
0
VERTEX
8
0
62
2
6
CONTINUOUS
10
29.8049016989
20
2.3754140148
0
VERTEX
8
0
62
2
6
CONTINUOUS
10
29.8441034852
20
2.3953883226
0
VERTEX
8
0
62
2
6
CONTINUOUS
10
29.8875590000
20
2.4022710000
0
VERTEX
8
0
62
2
6
CONTINUOUS
10
29.9310145148
20
2.3953883226
0
VERTEX
8
0
62
2
6
CONTINUOUS
10
29.9702163011
20
2.3754140148
0
VERTEX
8
0
62
2
6
CONTINUOUS
10
30.0013270148
20
2.3443033011
0
VERTEX
8
0
62
2
6
CONTINUOUS
10
30.0213013226
20
2.3051015148
0
VERTEX
8
0
62
2
6
CONTINUOUS
10
30.0281840000
20
2.2616460000
0
VERTEX
8
0
62
2
6
CONTINUOUS
10
30.0213013226
20
2.2181904852
0
VERTEX
8
0
62
2
6
CONTINUOUS
10
30.0060892294
20
2.1883350713
0
VERTEX
8
0
62
2
6
CONTINUOUS
10
29.8943522580
20
2.1883350713
0
VERTEX
8
0
62
2
6
CONTINUOUS
10
29.9203764864
20
2.1957396027
0
VERTEX
8
0
62
2
6
CONTINUOUS
10
29.9419685315
20
2.2120451582
0
VERTEX
8
0
62
2
6
CONTINUOUS
10
29.9562122679
20
2.2350495823
0
VERTEX
8
0
62
2
6
CONTINUOUS
10
29.9611840000
20
2.2616460000
0
VERTEX
8
0
62
2
6
CONTINUOUS
10
29.9562122679
20
2.2882424177
0
VERTEX
8
0
62
2
6
CONTINUOUS
10
29.9419685315
20
2.3112468418
0
VERTEX
8
0
62
2
6
CONTINUOUS
10
29.9203764864
20
2.3275523973
0
VERTEX
8
0
62
2
6
CONTINUOUS
10
29.8943522580
20
2.3349569287
0
VERTEX
8
0
62
2
6
CONTINUOUS
10
29.7690287706
20
2.3349569287
0
SEQEND
0
POLYLINE
8
0
62
2
6
CONTINUOUS
66
1
70
1
0
VERTEX
8
0
62
2
6
CONTINUOUS
10
30.1264340000
20
2.1210210000
0
VERTEX
8
0
62
2
6
CONTINUOUS
10
30.0594340000
20
2.1210210000
0
VERTEX
8
0
62
2
6
CONTINUOUS
10
30.0594340000
20
2.4022710000
0
VERTEX
8
0
62
2
6
CONTINUOUS
10
30.1264340000
20
2.4022710000
0
VERTEX
8
0
62
2
6
CONTINUOUS
10
30.1264340000
20
2.3107710000
0
VERTEX
8
0
62
2
6
CONTINUOUS
10
30.2045590000
20
2.3107710000
0
VERTEX
8
0
62
2
6
CONTINUOUS
10
30.2045590000
20
2.4022710000
0
VERTEX
8
0
62
2
6
CONTINUOUS
10
30.2715590000
20
2.4022710000
0
VERTEX
8
0
62
2
6
CONTINUOUS
10
30.2715590000
20
2.1210210000
0
VERTEX
8
0
62
2
6
CONTINUOUS
10
30.2045590000
20
2.1210210000
0
VERTEX
8
0
62
2
6
CONTINUOUS
10
30.2045590000
20
2.2437710000
0
VERTEX
8
0
62
2
6
CONTINUOUS
10
30.1264340000
20
2.2437710000
0
VERTEX
8
0
62
2
6
CONTINUOUS
10
30.1264340000
20
2.1210210000
0
SEQEND
0
POLYLINE
8
0
62
2
6
CONTINUOUS
66
1
70
1
0
VERTEX
8
0
62
2
6
CONTINUOUS
10
30.4590590000
20
2.1210210000
0
VERTEX
8
0
62
2
6
CONTINUOUS
10
30.3028090000
20
2.1210210000
0
VERTEX
8
0
62
2
6
CONTINUOUS
10
30.3028090000
20
2.4022710000
0
VERTEX
8
0
62
2
6
CONTINUOUS
10
30.3698090000
20
2.4022710000
0
VERTEX
8
0
62
2
6
CONTINUOUS
10
30.3698090000
20
2.1880210000
0
VERTEX
8
0
62
2
6
CONTINUOUS
10
30.4590590000
20
2.1880210000
0
VERTEX
8
0
62
2
6
CONTINUOUS
10
30.4590590000
20
2.1210210000
0
SEQEND
0
POLYLINE
8
0
62
2
6
CONTINUOUS
66
1
70
1
0
VERTEX
8
0
62
2
6
CONTINUOUS
10
30.6465590000
20
2.1210210000
0
VERTEX
8
0
62
2
6
CONTINUOUS
10
30.4903090000
20
2.1210210000
0
VERTEX
8
0
62
2
6
CONTINUOUS
10
30.4903090000
20
2.4022710000
0
VERTEX
8
0
62
2
6
CONTINUOUS
10
30.6465590000
20
2.4022710000
0
VERTEX
8
0
62
2
6
CONTINUOUS
10
30.6465590000
20
2.3352710000
0
VERTEX
8
0
62
2
6
CONTINUOUS
10
30.5573090000
20
2.3352710000
0
VERTEX
8
0
62
2
6
CONTINUOUS
10
30.5573090000
20
2.2873335000
0
VERTEX
8
0
62
2
6
CONTINUOUS
10
30.6465590000
20
2.2873335000
0
VERTEX
8
0
62
2
6
CONTINUOUS
10
30.6465590000
20
2.2359585000
0
VERTEX
8
0
62
2
6
CONTINUOUS
10
30.5573090000
20
2.2359585000
0
VERTEX
8
0
62
2
6
CONTINUOUS
10
30.5573090000
20
2.1880210000
0
VERTEX
8
0
62
2
6
CONTINUOUS
10
30.6465590000
20
2.1880210000
0
VERTEX
8
0
62
2
6
CONTINUOUS
10
30.6465590000
20
2.1210210000
0
SEQEND
0
ENDBLK
8
0
6
BYBLOCK
62
0
0
BLOCK
8
DEFAULT_2
62
8
6
HIDDEN
2
C_ARROW_BL1
70
64
10
17.0000000000
20
21.7750000000
0
LINE
8
DEFAULT_2
62
8
6
HIDDEN
10
17.0000000000
20
21.5875000000
11
17.0937500000
21
21.7750000000
0
LINE
8
DEFAULT_2
62
8
6
HIDDEN
10
17.0000000000
20
21.5875000000
11
16.9062500000
21
21.7750000000
0
LINE
8
DEFAULT_2
62
8
6
HIDDEN
10
16.9765625000
20
21.7750000000
11
16.9062500000
21
21.7750000000
0
LINE
8
DEFAULT_2
62
8
6
HIDDEN
10
16.9765625000
20
21.9625000000
11
16.9765625000
21
21.7750000000
0
LINE
8
DEFAULT_2
62
8
6
HIDDEN
10
16.9765625000
20
21.9625000000
11
17.0234375000
21
21.9625000000
0
LINE
8
DEFAULT_2
62
8
6
HIDDEN
10
17.0234375000
20
21.7750000000
11
17.0234375000
21
21.9625000000
0
LINE
8
DEFAULT_2
62
8
6
HIDDEN
10
17.0937500000
20
21.7750000000
11
17.0234375000
21
21.7750000000
0
POLYLINE
8
DEFAULT_2
62
8
6
HIDDEN
66
1
70
1
0
VERTEX
8
DEFAULT_2
62
8
6
HIDDEN
10
17.0000000000
20
21.5875000000
0
VERTEX
8
DEFAULT_2
62
8
6
HIDDEN
10
16.9062500000
20
21.7750000000
0
VERTEX
8
DEFAULT_2
62
8
6
HIDDEN
10
16.9765625000
20
21.7750000000
0
VERTEX
8
DEFAULT_2
62
8
6
HIDDEN
10
16.9765625000
20
21.9625000000
0
VERTEX
8
DEFAULT_2
62
8
6
HIDDEN
10
17.0234375000
20
21.9625000000
0
VERTEX
8
DEFAULT_2
62
8
6
HIDDEN
10
17.0234375000
20
21.7750000000
0
VERTEX
8
DEFAULT_2
62
8
6
HIDDEN
10
17.0937500000
20
21.7750000000
0
VERTEX
8
DEFAULT_2
62
8
6
HIDDEN
10
17.0000000000
20
21.5875000000
0
SEQEND
0
ENDBLK
8
0
6
BYBLOCK
62
0
0
BLOCK
8
DEFAULT_2
62
8
6
HIDDEN
2
C_ARROW_BL2
70
64
10
0.3375000000
20
11.0000000000
0
LINE
8
DEFAULT_2
62
8
6
HIDDEN
10
0.5250000000
20
11.0000000000
11
0.3375000000
21
11.0937500000
0
LINE
8
DEFAULT_2
62
8
6
HIDDEN
10
0.5250000000
20
11.0000000000
11
0.3375000000
21
10.9062500000
0
LINE
8
DEFAULT_2
62
8
6
HIDDEN
10
0.3375000000
20
10.9765625000
11
0.3375000000
21
10.9062500000
0
LINE
8
DEFAULT_2
62
8
6
HIDDEN
10
0.1500000000
20
10.9765625000
11
0.3375000000
21
10.9765625000
0
LINE
8
DEFAULT_2
62
8
6
HIDDEN
10
0.1500000000
20
10.9765625000
11
0.1500000000
21
11.0234375000
0
LINE
8
DEFAULT_2
62
8
6
HIDDEN
10
0.3375000000
20
11.0234375000
11
0.1500000000
21
11.0234375000
0
LINE
8
DEFAULT_2
62
8
6
HIDDEN
10
0.3375000000
20
11.0937500000
11
0.3375000000
21
11.0234375000
0
POLYLINE
8
DEFAULT_2
62
8
6
HIDDEN
66
1
70
1
0
VERTEX
8
DEFAULT_2
62
8
6
HIDDEN
10
0.5250000000
20
11.0000000000
0
VERTEX
8
DEFAULT_2
62
8
6
HIDDEN
10
0.3375000000
20
10.9062500000
0
VERTEX
8
DEFAULT_2
62
8
6
HIDDEN
10
0.3375000000
20
10.9765625000
0
VERTEX
8
DEFAULT_2
62
8
6
HIDDEN
10
0.1500000000
20
10.9765625000
0
VERTEX
8
DEFAULT_2
62
8
6
HIDDEN
10
0.1500000000
20
11.0234375000
0
VERTEX
8
DEFAULT_2
62
8
6
HIDDEN
10
0.3375000000
20
11.0234375000
0
VERTEX
8
DEFAULT_2
62
8
6
HIDDEN
10
0.3375000000
20
11.0937500000
0
VERTEX
8
DEFAULT_2
62
8
6
HIDDEN
10
0.5250000000
20
11.0000000000
0
SEQEND
0
ENDBLK
8
0
6
BYBLOCK
62
0
0
BLOCK
8
DEFAULT_2
62
8
6
HIDDEN
2
C_ARROW_BL3
70
64
10
17.0000000000
20
0.4000000000
0
LINE
8
DEFAULT_2
62
8
6
HIDDEN
10
17.0000000000
20
0.5875000000
11
16.9062500000
21
0.4000000000
0
LINE
8
DEFAULT_2
62
8
6
HIDDEN
10
17.0000000000
20
0.5875000000
11
17.0937500000
21
0.4000000000
0
LINE
8
DEFAULT_2
62
8
6
HIDDEN
10
17.0234375000
20
0.4000000000
11
17.0937500000
21
0.4000000000
0
LINE
8
DEFAULT_2
62
8
6
HIDDEN
10
17.0234375000
20
0.2125000000
11
17.0234375000
21
0.4000000000
0
LINE
8
DEFAULT_2
62
8
6
HIDDEN
10
17.0234375000
20
0.2125000000
11
16.9765625000
21
0.2125000000
0
LINE
8
DEFAULT_2
62
8
6
HIDDEN
10
16.9765625000
20
0.4000000000
11
16.9765625000
21
0.2125000000
0
LINE
8
DEFAULT_2
62
8
6
HIDDEN
10
16.9062500000
20
0.4000000000
11
16.9765625000
21
0.4000000000
0
POLYLINE
8
DEFAULT_2
62
8
6
HIDDEN
66
1
70
1
0
VERTEX
8
DEFAULT_2
62
8
6
HIDDEN
10
17.0000000000
20
0.5875000000
0
VERTEX
8
DEFAULT_2
62
8
6
HIDDEN
10
17.0937500000
20
0.4000000000
0
VERTEX
8
DEFAULT_2
62
8
6
HIDDEN
10
17.0234375000
20
0.4000000000
0
VERTEX
8
DEFAULT_2
62
8
6
HIDDEN
10
17.0234375000
20
0.2125000000
0
VERTEX
8
DEFAULT_2
62
8
6
HIDDEN
10
16.9765625000
20
0.2125000000
0
VERTEX
8
DEFAULT_2
62
8
6
HIDDEN
10
16.9765625000
20
0.4000000000
0
VERTEX
8
DEFAULT_2
62
8
6
HIDDEN
10
16.9062500000
20
0.4000000000
0
VERTEX
8
DEFAULT_2
62
8
6
HIDDEN
10
17.0000000000
20
0.5875000000
0
SEQEND
0
ENDBLK
8
0
6
BYBLOCK
62
0
0
BLOCK
8
DEFAULT_2
62
8
6
HIDDEN
2
C_ARROW_BL4
70
64
10
33.7125000000
20
11.0000000000
0
LINE
8
DEFAULT_2
62
8
6
HIDDEN
10
33.5250000000
20
11.0000000000
11
33.7125000000
21
10.9062500000
0
LINE
8
DEFAULT_2
62
8
6
HIDDEN
10
33.5250000000
20
11.0000000000
11
33.7125000000
21
11.0937500000
0
LINE
8
DEFAULT_2
62
8
6
HIDDEN
10
33.7125000000
20
11.0234375000
11
33.7125000000
21
11.0937500000
0
LINE
8
DEFAULT_2
62
8
6
HIDDEN
10
33.9000000000
20
11.0234375000
11
33.7125000000
21
11.0234375000
0
LINE
8
DEFAULT_2
62
8
6
HIDDEN
10
33.9000000000
20
11.0234375000
11
33.9000000000
21
10.9765625000
0
LINE
8
DEFAULT_2
62
8
6
HIDDEN
10
33.7125000000
20
10.9765625000
11
33.9000000000
21
10.9765625000
0
LINE
8
DEFAULT_2
62
8
6
HIDDEN
10
33.7125000000
20
10.9062500000
11
33.7125000000
21
10.9765625000
0
POLYLINE
8
DEFAULT_2
62
8
6
HIDDEN
66
1
70
1
0
VERTEX
8
DEFAULT_2
62
8
6
HIDDEN
10
33.5250000000
20
11.0000000000
0
VERTEX
8
DEFAULT_2
62
8
6
HIDDEN
10
33.7125000000
20
11.0937500000
0
VERTEX
8
DEFAULT_2
62
8
6
HIDDEN
10
33.7125000000
20
11.0234375000
0
VERTEX
8
DEFAULT_2
62
8
6
HIDDEN
10
33.9000000000
20
11.0234375000
0
VERTEX
8
DEFAULT_2
62
8
6
HIDDEN
10
33.9000000000
20
10.9765625000
0
VERTEX
8
DEFAULT_2
62
8
6
HIDDEN
10
33.7125000000
20
10.9765625000
0
VERTEX
8
DEFAULT_2
62
8
6
HIDDEN
10
33.7125000000
20
10.9062500000
0
VERTEX
8
DEFAULT_2
62
8
6
HIDDEN
10
33.5250000000
20
11.0000000000
0
SEQEND
0
ENDBLK
8
0
6
BYBLOCK
62
0
0
BLOCK
8
0
62
2
6
CONTINUOUS
2
*D0
70
65
10
0.0000000000
20
0.0000000000
0
TEXT
8
0
62
2
6
CONTINUOUS
10
8.4443414230
20
10.8433138164
40
0.1562500000
1
"
72
5
11
8.5693414230
21
10.8433138164
0
TEXT
8
0
62
2
6
CONTINUOUS
10
7.5693414230
20
10.6089388164
40
0.1562500000
1
(49,5 cm)
72
5
11
8.6943414230
21
10.6089388164
0
TEXT
8
0
62
2
6
CONTINUOUS
10
7.6943414230
20
10.8433138164
40
0.1562500000
1
19-1/2
72
5
11
8.4443414230
21
10.8433138164
0
LINE
8
0
62
2
6
CONTINUOUS
10
23.2851461039
20
10.8620899150
11
23.2851461039
21
10.7964388164
0
LINE
8
0
62
2
6
CONTINUOUS
10
3.7851461039
20
10.8620899150
11
3.7851461039
21
10.7964388164
0
LINE
8
0
62
2
6
CONTINUOUS
10
23.2851461039
20
10.9214388164
11
8.7724664230
21
10.9214388164
0
LINE
8
0
62
2
6
CONTINUOUS
10
3.7851461039
20
10.9214388164
11
7.4912164230
21
10.9214388164
0
INSERT
8
0
62
2
6
CONTINUOUS
2
_FILLED
10
23.2851461039
20
10.9214388164
41
  0.187500
42
  0.187500
43
  0.187500
0
INSERT
8
0
62
2
6
CONTINUOUS
2
_FILLED
10
3.7851461039
20
10.9214388164
41
  0.187500
42
  0.187500
43
  0.187500
50
180.000000
0
ENDBLK
8
0
6
BYBLOCK
62
0
0
BLOCK
8
0
62
2
6
CONTINUOUS
2
*D1
70
65
10
0.0000000000
20
0.0000000000
0
TEXT
8
0
62
2
6
CONTINUOUS
10
13.8542875573
20
13.5145447288
40
0.1562500000
1
"
72
5
11
13.9792875573
21
13.5145447288
0
TEXT
8
0
62
2
6
CONTINUOUS
10
12.9792875573
20
13.2801697288
40
0.1562500000
1
(41,9 cm)
72
5
11
14.1042875573
21
13.2801697288
0
TEXT
8
0
62
2
6
CONTINUOUS
10
13.1042875573
20
13.5145447288
40
0.1562500000
1
16-1/2
72
5
11
13.8542875573
21
13.5145447288
0
LINE
8
0
62
2
6
CONTINUOUS
10
13.5976461039
20
19.1745899150
11
13.6667875573
21
19.1745899150
0
LINE
8
0
62
2
6
CONTINUOUS
10
13.5976461039
20
2.6745899150
11
13.6667875573
21
2.6745899150
0
LINE
8
0
62
2
6
CONTINUOUS
10
13.5417875573
20
19.1745899150
11
13.5417875573
21
13.7489197288
0
LINE
8
0
62
2
6
CONTINUOUS
10
13.5417875573
20
2.6745899150
11
13.5417875573
21
13.2020447288
0
INSERT
8
0
62
2
6
CONTINUOUS
2
_FILLED
10
13.5417875573
20
19.1745899150
41
  0.187500
42
  0.187500
43
  0.187500
50
 90.000000
0
INSERT
8
0
62
2
6
CONTINUOUS
2
_FILLED
10
13.5417875573
20
2.6745899150
41
  0.187500
42
  0.187500
43
  0.187500
50
270.000000
0
ENDBLK
8
0
6
BYBLOCK
62
0
0
BLOCK
8
0
2
_FILLED
70
64
10
0.0000000000
20
0.0000000000
0
SOLID
8
0
6
BYBLOCK
62
0
10
0.0000000000
20
0.0000000000
11
-1.0000000000
21
0.1666666667
12
-1.0000000000
22
-0.1666666667
13
-1.0000000000
23
-0.1666666667
0
ENDBLK
8
0
6
BYBLOCK
62
0
0
ENDSEC
0
SECTION
2
ENTITIES
0
POLYLINE
8
0
62
2
6
CONTINUOUS
66
1
70
1
0
VERTEX
8
0
62
2
6
CONTINUOUS
10
33.1015559674
20
2.7522448979
0
VERTEX
8
0
62
2
6
CONTINUOUS
10
32.9861199674
20
2.7522448979
0
VERTEX
8
0
62
2
6
CONTINUOUS
10
32.9861199674
20
2.9466198979
0
VERTEX
8
0
62
2
6
CONTINUOUS
10
33.0261199674
20
2.9466198979
0
VERTEX
8
0
62
2
6
CONTINUOUS
10
33.0261199674
20
2.7922448979
0
VERTEX
8
0
62
2
6
CONTINUOUS
10
33.1016409674
20
2.7922448979
0
VERTEX
8
0
62
2
6
CONTINUOUS
10
33.1811849565
20
2.7922448979
0
VERTEX
8
0
62
2
6
CONTINUOUS
10
33.1712259891
20
2.7805086583
0
VERTEX
8
0
62
2
6
CONTINUOUS
10
33.1561985351
20
2.7684941380
0
VERTEX
8
0
62
2
6
CONTINUOUS
10
33.1391483605
20
2.7595798453
0
VERTEX
8
0
62
2
6
CONTINUOUS
10
33.1207066167
20
2.7540957633
0
VERTEX
8
0
62
2
6
CONTINUOUS
10
33.1015559674
20
2.7522448979
0
SEQEND
0
POLYLINE
8
0
62
2
6
CONTINUOUS
66
1
70
1
0
VERTEX
8
0
62
2
6
CONTINUOUS
10
32.9861199674
20
2.9466198979
0
VERTEX
8
0
62
2
6
CONTINUOUS
10
32.9861199674
20
2.9866198979
0
VERTEX
8
0
62
2
6
CONTINUOUS
10
33.0945189674
20
2.9866198979
0
VERTEX
8
0
62
2
6
CONTINUOUS
10
33.1133221436
20
2.9848366933
0
VERTEX
8
0
62
2
6
CONTINUOUS
10
33.1314545400
20
2.9795492357
0
VERTEX
8
0
62
2
6
CONTINUOUS
10
33.1482693060
20
2.9709466401
0
VERTEX
8
0
62
2
6
CONTINUOUS
10
33.1631665958
20
2.9593357933
0
VERTEX
8
0
62
2
6
CONTINUOUS
10
33.1756149674
20
2.9451308979
0
VERTEX
8
0
62
2
6
CONTINUOUS
10
33.1880334779
20
2.9244288232
0
VERTEX
8
0
62
2
6
CONTINUOUS
10
33.1967857491
20
2.9019301352
0
VERTEX
8
0
62
2
6
CONTINUOUS
10
33.2016209721
20
2.8782782043
0
VERTEX
8
0
62
2
6
CONTINUOUS
10
33.2024008151
20
2.8541496929
0
VERTEX
8
0
62
2
6
CONTINUOUS
10
33.1991029674
20
2.8302348979
0
VERTEX
8
0
62
2
6
CONTINUOUS
10
33.1930830989
20
2.8119611021
0
VERTEX
8
0
62
2
6
CONTINUOUS
10
33.1836744465
20
2.7951786610
0
VERTEX
8
0
62
2
6
CONTINUOUS
10
33.1811849565
20
2.7922448979
0
VERTEX
8
0
62
2
6
CONTINUOUS
10
33.1016409674
20
2.7922448979
0
VERTEX
8
0
62
2
6
CONTINUOUS
10
33.1150275925
20
2.7937573072
0
VERTEX
8
0
62
2
6
CONTINUOUS
10
33.1277393491
20
2.7982182890
0
VERTEX
8
0
62
2
6
CONTINUOUS
10
33.1391353912
20
2.8054029490
0
VERTEX
8
0
62
2
6
CONTINUOUS
10
33.1486412029
20
2.8149490823
0
VERTEX
8
0
62
2
6
CONTINUOUS
10
33.1557775614
20
2.8263754335
0
VERTEX
8
0
62
2
6
CONTINUOUS
10
33.1601849674
20
2.8391058979
0
VERTEX
8
0
62
2
6
CONTINUOUS
10
33.1626755570
20
2.8606248271
0
VERTEX
8
0
62
2
6
CONTINUOUS
10
33.1606019649
20
2.8821879337
0
VERTEX
8
0
62
2
6
CONTINUOUS
10
33.1540562508
20
2.9028378968
0
VERTEX
8
0
62
2
6
CONTINUOUS
10
33.1433289674
20
2.9216578979
0
VERTEX
8
0
62
2
6
CONTINUOUS
10
33.1337501369
20
2.9321063755
0
VERTEX
8
0
62
2
6
CONTINUOUS
10
33.1219874892
20
2.9400161666
0
VERTEX
8
0
62
2
6
CONTINUOUS
10
33.1086975199
20
2.9449458108
0
VERTEX
8
0
62
2
6
CONTINUOUS
10
33.0946219674
20
2.9466198979
0
VERTEX
8
0
62
2
6
CONTINUOUS
10
33.0261199674
20
2.9466198979
0
VERTEX
8
0
62
2
6
CONTINUOUS
10
32.9861199674
20
2.9466198979
0
SEQEND
0
TEXT
8
0
62
2
6
CONTINUOUS
10
28.9222000000
20
3.0867005000
40
0.0750000000
1
DRAWN
51
0.0000187240
72
5
11
29.3122000000
21
3.0867005000
0
TEXT
8
0
62
2
6
CONTINUOUS
10
33.1193750000
20
0.8796870000
40
0.0750000000
1
SHT
51
0.0000187240
72
5
11
33.3308750000
21
0.8796870000
0
TEXT
8
0
62
2
6
CONTINUOUS
10
27.7596214221
20
3.6314747277
40
0.0900000000
1
GEOMETRIC DIMENSIONING AND TOLERANCING PER ANSI Y14.5M-1982
51
0.0000187240
72
5
11
33.2289213069
21
3.6314747277
0
TEXT
8
0
62
2
6
CONTINUOUS
10
31.9329880000
20
2.5945550000
40
0.0900000000
1
PRO/E
51
0.0000187240
72
5
11
32.2929880000
21
2.5945550000
0
TEXT
8
0
62
2
6
CONTINUOUS
10
32.9660617674
20
3.0568889018
40
0.0750000000
1
DWG
51
0.0000187240
72
5
11
33.1910617674
21
3.0568889018
0
TEXT
8
0
62
2
6
CONTINUOUS
10
29.1260150000
20
2.5897100000
40
0.0900000000
1
DO NOT SCALE DRAWING
51
0.0000187240
72
5
11
31.2860150000
21
2.5897100000
0
TEXT
8
0
62
2
6
CONTINUOUS
10
28.9334570000
20
1.9312025000
40
0.0750000000
1
KOHLER CO. KOHLER, WISCONSIN 53044
51
0.0000187240
72
5
11
31.5344570000
21
1.9312025000
0
TEXT
8
0
62
2
6
CONTINUOUS
10
31.7163760000
20
2.3739645000
40
0.0750000000
1
THIRD ANGLE PROJECTION
51
0.0000187240
72
5
11
33.3663760000
21
2.3739645000
0
TEXT
8
0
62
2
6
CONTINUOUS
10
27.5796880000
20
1.5875000000
40
0.0625000000
1
THIS DRAWING IN DESIGN
51
0.0000187240
72
5
11
28.8515630000
21
1.5875000000
0
TEXT
8
0
62
2
6
CONTINUOUS
10
27.5796880000
20
1.4718750000
40
0.0625000000
1
AND DETAILS IS THE PROP-
51
0.0000187240
72
5
11
28.8546880000
21
1.4718750000
0
TEXT
8
0
62
2
6
CONTINUOUS
10
32.9241803700
20
2.5989856239
40
0.0750000000
1
SIZE
51
0.0000187240
72
5
11
33.2241803700
21
2.5989856239
0
TEXT
8
0
62
2
6
CONTINUOUS
10
27.5796880000
20
1.3568750000
40
0.0625000000
1
ERTY OF KOHLER CO. 
51
0.0000187240
72
5
11
28.7671880000
21
1.3568750000
0
TEXT
8
0
62
2
6
CONTINUOUS
10
27.5796880000
20
0.8968750000
40
0.0625000000
1
ALL RIGHTS OF DESIGN
51
0.0000187240
72
5
11
28.8296880000
21
0.8968750000
0
TEXT
8
0
62
2
6
CONTINUOUS
10
27.5796880000
20
0.7818750000
40
0.0625000000
1
OR INVENTION ARE
51
0.0000187240
72
5
11
28.5796880000
21
0.7818750000
0
TEXT
8
0
62
2
6
CONTINUOUS
10
27.5796880000
20
0.6668750000
40
0.0625000000
1
RESERVED.
51
0.0000187240
72
5
11
28.1421880000
21
0.6668750000
0
TEXT
8
0
62
2
6
CONTINUOUS
10
27.5796880000
20
1.2450000000
40
0.0625000000
1
AND MAY NOT BE USED
51
0.0000187240
72
5
11
28.7671880000
21
1.2450000000
0
TEXT
8
0
62
2
6
CONTINUOUS
10
27.5796880000
20
1.1300000000
40
0.0625000000
1
EXCEPT IN CONNECTION
51
0.0000187240
72
5
11
28.8296880000
21
1.1300000000
0
TEXT
8
0
62
2
6
CONTINUOUS
10
27.5796880000
20
1.0118750000
40
0.0625000000
1
WITH KOHLER CO. WORK.
51
0.0000187240
72
5
11
28.8921880000
21
1.0118750000
0
TEXT
8
0
62
2
6
CONTINUOUS
10
28.9326500000
20
0.8819240000
40
0.0750000000
1
DWG. NO.
51
0.0000187240
72
5
11
29.4126500000
21
0.8819240000
0
TEXT
8
0
62
2
6
CONTINUOUS
10
28.9415910000
20
1.7356175000
40
0.0750000000
1
DESCRIPTION
51
0.0000187240
72
5
11
29.8078412400
21
1.7356175000
0
TEXT
8
0
62
2
6
CONTINUOUS
10
29.9623360000
20
3.0887475000
40
0.0750000000
1
DATE
51
0.0000187240
72
5
11
30.2893360000
21
3.0887475000
0
TEXT
8
0
62
2
6
CONTINUOUS
10
31.0110240000
20
3.0874145000
40
0.0750000000
1
CHECKED
51
0.0000187240
72
5
11
31.5307737600
21
3.0874145000
0
TEXT
8
0
62
2
6
CONTINUOUS
10
32.0085190000
20
3.0890595000
40
0.0750000000
1
DATE
51
0.0000187240
72
5
11
32.3355190000
21
3.0890595000
0
TEXT
8
0
62
2
6
CONTINUOUS
10
28.9178380000
20
3.4333065000
40
0.0750000000
1
APPROVED
51
0.0000187240
72
5
11
29.5598380000
21
3.4333065000
0
TEXT
8
0
62
2
6
CONTINUOUS
10
31.0153153210
20
3.4296382561
40
0.0750000000
1
DATE
51
0.0000187240
72
5
11
31.3423153210
21
3.4296382561
0
TEXT
8
0
62
2
6
CONTINUOUS
10
27.7205000000
20
3.3859380000
40
0.0750000000
1
TOLERANCES
51
0.0000187240
72
5
11
28.6430000000
21
3.3859380000
0
TEXT
8
0
62
2
6
CONTINUOUS
10
32.7184270000
20
3.4332915000
40
0.0750000000
1
SCALE
51
0.0000187240
72
5
11
33.1196745579
21
3.4332915000
0
TEXT
8
0
62
2
6
CONTINUOUS
10
27.9701000000
20
3.2453130000
40
0.0750000000
1
UNLESS
51
0.0000187240
72
5
11
28.4246000000
21
3.2453130000
0
TEXT
8
0
62
2
6
CONTINUOUS
10
27.8381000000
20
3.1046880000
40
0.0750000000
1
OTHERWISE
51
0.0000187240
72
5
11
28.5401000000
21
3.1046880000
0
TEXT
8
0
62
2
6
CONTINUOUS
10
27.8417000000
20
2.9640630000
40
0.0750000000
1
SPECIFIED
51
0.0000187240
72
5
11
28.5369500000
21
2.9640630000
0
TEXT
8
0
62
2
6
CONTINUOUS
10
23.2195310000
20
0.9331255000
40
0.0900000000
1
SHT
51
0.0000187240
72
5
11
23.4733315760
21
0.9331255000
0
TEXT
8
0
62
2
6
CONTINUOUS
10
23.8375000000
20
0.9331255000
40
0.0900000000
1
SYM
51
0.0000187240
72
5
11
24.1075000000
21
0.9331255000
0
TEXT
8
0
62
2
6
CONTINUOUS
10
24.4570310000
20
0.9331255000
40
0.0900000000
1
BY
51
0.0000187240
72
5
11
24.6316315760
21
0.9331255000
0
TEXT
8
0
62
2
6
CONTINUOUS
10
25.3628910000
20
0.9331255000
40
0.0900000000
1
DESCRIPTION
51
0.0000187240
72
5
11
26.4023912880
21
0.9331255000
0
TEXT
8
0
62
2
6
CONTINUOUS
10
27.0578130000
20
0.9331255000
40
0.0900000000
1
DATE
51
0.0000187240
72
5
11
27.4502130000
21
0.9331255000
0
TEXT
8
0
62
2
6
CONTINUOUS
10
24.0343130000
20
0.6753130000
40
0.0900000000
1
DWG REVISION RECORD
51
0.0000187240
72
5
11
26.3941130000
21
0.6753130000
0
TEXT
8
0
62
2
6
CONTINUOUS
10
23.6661250000
20
3.6130000000
40
0.0900000000
1
ALL DIMENSIONS IN:
51
0.0000187240
72
5
11
25.5777250000
21
3.6130000000
0
TEXT
8
0
62
2
6
CONTINUOUS
10
26.0488130000
20
3.6136250000
40
0.0900000000
1
Inches
51
0.0000187240
72
5
11
26.4700130000
21
3.6136250000
0
TEXT
8
0
62
2
6
CONTINUOUS
10
32.0007510000
20
3.4287370000
40
0.0750000000
1
PLOT DATE
51
0.0000187240
72
5
11
32.6251257600
21
3.4287370000
0
TEXT
8
0
62
2
6
CONTINUOUS
10
31.7146686430
20
1.7472696872
40
0.0750000000
1
PART
51
0.0000187240
72
5
11
31.9546686430
21
1.7472696872
0
TEXT
8
0
62
2
6
CONTINUOUS
10
31.9546686430
20
1.7472696872
40
0.0750000000
1
 NAME:
51
0.0000187240
72
5
11
32.3146686430
21
1.7472696872
0
TEXT
8
0
6
CONTINUOUS
10
33.6625000000
20
2.6250000000
40
0.2500000000
1
A
72
5
11
33.8625000000
21
2.6250000000
0
TEXT
8
0
6
CONTINUOUS
10
33.6625000000
20
8.1250000000
40
0.2500000000
1
B
72
5
11
33.8625000000
21
8.1250000000
0
TEXT
8
0
6
CONTINUOUS
10
33.6625000000
20
13.6250000000
40
0.2500000000
1
C
72
5
11
33.8625000000
21
13.6250000000
0
TEXT
8
0
6
CONTINUOUS
10
33.6625000000
20
19.1250000000
40
0.2500000000
1
D
72
5
11
33.8625000000
21
19.1250000000
0
TEXT
8
0
6
CONTINUOUS
10
2.0250000000
20
0.1687500000
40
0.2500000000
1
8
72
5
11
2.2250000000
21
0.1687500000
0
TEXT
8
0
6
CONTINUOUS
10
6.2750000000
20
0.1687500000
40
0.2500000000
1
7
72
5
11
6.4750000000
21
0.1687500000
0
TEXT
8
0
6
CONTINUOUS
10
10.5250000000
20
0.1687500000
40
0.2500000000
1
6
72
5
11
10.7250000000
21
0.1687500000
0
TEXT
8
0
6
CONTINUOUS
10
14.7750000000
20
0.1687500000
40
0.2500000000
1
5
72
5
11
14.9750000000
21
0.1687500000
0
TEXT
8
0
6
CONTINUOUS
10
19.0250000000
20
0.1687500000
40
0.2500000000
1
4
72
5
11
19.2250000000
21
0.1687500000
0
TEXT
8
0
6
CONTINUOUS
10
23.2750000000
20
0.1687500000
40
0.2500000000
1
3
72
5
11
23.4750000000
21
0.1687500000
0
TEXT
8
0
6
CONTINUOUS
10
27.5250000000
20
0.1687500000
40
0.2500000000
1
2
72
5
11
27.7250000000
21
0.1687500000
0
TEXT
8
0
6
CONTINUOUS
10
31.7750000000
20
0.1687500000
40
0.2500000000
1
1
72
5
11
31.9750000000
21
0.1687500000
0
INSERT
8
0
62
2
6
CONTINUOUS
2
KOHLER_BL0
10
30.2123715000
20
2.2616460000
0
INSERT
8
DEFAULT_2
62
8
6
HIDDEN
2
C_ARROW_BL1
10
17.0000000000
20
21.7750000000
0
INSERT
8
DEFAULT_2
62
8
6
HIDDEN
2
C_ARROW_BL2
10
0.3375000000
20
11.0000000000
0
INSERT
8
DEFAULT_2
62
8
6
HIDDEN
2
C_ARROW_BL3
10
17.0000000000
20
0.4000000000
0
INSERT
8
DEFAULT_2
62
8
6
HIDDEN
2
C_ARROW_BL4
10
33.7125000000
20
11.0000000000
0
DIMENSION
8
0
62
2
6
CONTINUOUS
2
*D0
10
3.7851461039
20
10.9214388164
11
8.1318414230
21
10.8042513164
70
128
13
23.2851461039
23
10.7964388164
14
3.7851461039
24
10.7964388164
50
180.000000
0
DIMENSION
8
0
62
2
6
CONTINUOUS
2
*D1
10
13.5417875573
20
2.6745899150
11
13.5417875573
21
13.4754822288
70
128
13
13.6667875573
23
19.1745899150
14
13.6667875573
24
2.6745899150
50
270.000000
0
LINE
8
0
62
2
6
CONTINUOUS
10
33.5250002292
20
0.5875000314
11
27.5250002292
21
0.5875000314
0
LINE
8
0
62
2
6
CONTINUOUS
10
33.5250002292
20
0.5875000314
11
33.5250002292
21
3.7875000314
0
LINE
8
0
62
2
6
CONTINUOUS
10
33.5250002292
20
1.0175000314
11
28.8950002292
21
1.0175000314
0
LINE
8
0
62
2
6
CONTINUOUS
10
33.5250002292
20
1.7175000314
11
31.6750002292
21
1.7175000314
0
LINE
8
0
62
2
6
CONTINUOUS
10
28.8950002292
20
1.7175000314
11
27.5250002292
21
1.7175000314
0
LINE
8
0
62
2
6
CONTINUOUS
10
33.5250002292
20
1.8575000314
11
28.8950002292
21
1.8575000314
0
LINE
8
0
62
2
6
CONTINUOUS
10
33.5250002292
20
2.5175000314
11
28.8950002292
21
2.5175000314
0
LINE
8
0
62
2
6
CONTINUOUS
10
32.6850002292
20
2.7375000314
11
28.8950002292
21
2.7375000314
0
LINE
8
0
62
2
6
CONTINUOUS
10
33.5250002292
20
3.2075000314
11
28.8950002292
21
3.2075000314
0
LINE
8
0
62
2
6
CONTINUOUS
10
33.5250002292
20
3.5375000314
11
27.5250002292
21
3.5375000314
0
LINE
8
0
62
2
6
CONTINUOUS
10
33.5250002292
20
3.7875000314
11
27.5250002292
21
3.7875000314
0
LINE
8
0
62
2
6
CONTINUOUS
10
33.0150002292
20
0.5875000314
11
33.0150002292
21
1.0175000314
0
LINE
8
0
62
2
6
CONTINUOUS
10
32.6850002292
20
2.5175000314
11
32.6850002292
21
3.5375000314
0
LINE
8
0
62
2
6
CONTINUOUS
10
31.9650002292
20
2.7375000314
11
31.9650002292
21
3.5375000314
0
LINE
8
0
62
2
6
CONTINUOUS
10
31.6750002292
20
1.7175000314
11
31.6750002292
21
2.7375000314
0
LINE
8
0
62
2
6
CONTINUOUS
10
30.9950002292
20
2.7375000314
11
30.9950002292
21
3.5375000314
0
LINE
8
0
62
2
6
CONTINUOUS
10
29.9150002292
20
2.7375000314
11
29.9150002292
21
3.2075000314
0
LINE
8
0
62
2
6
CONTINUOUS
10
28.8950002292
20
0.5875000314
11
28.8950002292
21
3.5375000314
0
LINE
8
0
62
2
6
CONTINUOUS
10
27.5250002292
20
0.5875000314
11
27.5250002292
21
3.7875000314
0
TEXT
8
0
62
2
6
CONTINUOUS
10
33.0300002292
20
0.6375000314
40
0.1000000000
1
1
72
5
11
33.1100002292
21
0.6375000314
0
TEXT
8
0
62
2
6
CONTINUOUS
10
33.1100002292
20
0.6375000314
40
0.1000000000
1
 of 
72
5
11
33.4300002292
21
0.6375000314
0
TEXT
8
0
62
2
6
CONTINUOUS
10
33.4300002292
20
0.6375000314
40
0.1000000000
1
1
72
5
11
33.5100002292
21
0.6375000314
0
TEXT
8
0
62
2
6
CONTINUOUS
10
30.0910002292
20
0.6825000314
40
0.2400000000
1
1033456-7
72
5
11
31.8190002292
21
0.6825000314
0
TEXT
8
0
62
2
6
CONTINUOUS
10
29.9620002292
20
1.2475000314
40
0.2400000000
1
TEMPLATE, LAV
72
5
11
32.4580002292
21
1.2475000314
0
TEXT
8
0
62
2
6
CONTINUOUS
10
32.7650002292
20
1.7375000314
40
0.1000000000
1
1033456-7
72
5
11
33.4850002292
21
1.7375000314
0
TEXT
8
0
62
2
6
CONTINUOUS
10
27.5650002292
20
1.9175000314
40
0.1000000000
1
    ANG %%p 
72
5
11
28.4016668959
21
1.9175000314
0
TEXT
8
0
62
2
6
CONTINUOUS
10
28.4016668959
20
1.9175000314
40
0.1000000000
1
3.0
72
5
11
28.6416668959
21
1.9175000314
0
TEXT
8
0
62
2
6
CONTINUOUS
10
27.5650002292
20
2.1375000314
40
0.1000000000
1
     .X %%p
72
5
11
28.3216668959
21
2.1375000314
0
TEXT
8
0
62
2
6
CONTINUOUS
10
28.3216668959
20
2.1375000314
40
0.1000000000
1
 
72
5
11
28.4016668959
21
2.1375000314
0
TEXT
8
0
62
2
6
CONTINUOUS
10
28.4016668959
20
2.1375000314
40
0.1000000000
1
0.1
72
5
11
28.6416668959
21
2.1375000314
0
TEXT
8
0
62
2
6
CONTINUOUS
10
27.5650002292
20
2.3575000314
40
0.1000000000
1
    .XX %%p 
72
5
11
28.4016668959
21
2.3575000314
0
TEXT
8
0
62
2
6
CONTINUOUS
10
28.4016668959
20
2.3575000314
40
0.1000000000
1
0.02
72
5
11
28.7216668959
21
2.3575000314
0
TEXT
8
0
62
2
6
CONTINUOUS
10
27.5650002292
20
2.5775000314
40
0.1000000000
1
   .XXX %%p 
72
5
11
28.4016668959
21
2.5775000314
0
TEXT
8
0
62
2
6
CONTINUOUS
10
28.4016668959
20
2.5775000314
40
0.1000000000
1
0.010
72
5
11
28.8016668959
21
2.5775000314
0
TEXT
8
0
62
2
6
CONTINUOUS
10
30.1350002292
20
2.7875000314
40
0.1000000000
1
09.23.03
72
5
11
30.7750002292
21
2.7875000314
0
TEXT
8
0
62
2
6
CONTINUOUS
10
29.2850002292
20
2.7875000314
40
0.1000000000
1
DEL
72
5
11
29.5250002292
21
2.7875000314
0
TEXT
8
0
62
2
6
CONTINUOUS
10
32.9050002292
20
3.2575000314
40
0.1000000000
1
1.000
72
5
11
33.3050002292
21
3.2575000314
0
TEXT
8
0
62
2
6
CONTINUOUS
10
32.0050002292
20
3.2575000314
40
0.1000000000
1
09.24.03
72
5
11
32.6450002292
21
3.2575000314
0
TEXT
8
0
62
2
6
CONTINUOUS
10
31.1600002292
20
3.2575000314
40
0.1000000000
1
09.24.03
72
5
11
31.8000002292
21
3.2575000314
0
TEXT
8
0
62
2
6
CONTINUOUS
10
29.4650002292
20
3.2575000314
40
0.1000000000
1
PAUL LEFEBER
72
5
11
30.4250002292
21
3.2575000314
0
LINE
8
0
62
2
6
CONTINUOUS
10
27.5250004903
20
0.5875000178
11
23.0250004903
21
0.5875000178
0
LINE
8
0
62
2
6
CONTINUOUS
10
27.5250004903
20
0.5875000178
11
27.5250004903
21
3.7875000178
0
LINE
8
0
62
2
6
CONTINUOUS
10
27.5250004903
20
0.8475000178
11
23.0250004903
21
0.8475000178
0
LINE
8
0
62
2
6
CONTINUOUS
10
27.5250004903
20
1.1075000178
11
23.0250004903
21
1.1075000178
0
LINE
8
0
62
2
6
CONTINUOUS
10
27.5250004903
20
1.3505000178
11
23.0250004903
21
1.3505000178
0
LINE
8
0
62
2
6
CONTINUOUS
10
27.5250004903
20
1.5935000178
11
23.0250004903
21
1.5935000178
0
LINE
8
0
62
2
6
CONTINUOUS
10
27.5250004903
20
1.8365000178
11
23.0250004903
21
1.8365000178
0
LINE
8
0
62
2
6
CONTINUOUS
10
27.5250004903
20
2.0795000178
11
23.0250004903
21
2.0795000178
0
LINE
8
0
62
2
6
CONTINUOUS
10
27.5250004903
20
2.3225000178
11
23.0250004903
21
2.3225000178
0
LINE
8
0
62
2
6
CONTINUOUS
10
27.5250004903
20
2.5655000178
11
23.0250004903
21
2.5655000178
0
LINE
8
0
62
2
6
CONTINUOUS
10
27.5250004903
20
2.8085000178
11
23.0250004903
21
2.8085000178
0
LINE
8
0
62
2
6
CONTINUOUS
10
27.5250004903
20
3.0515000178
11
23.0250004903
21
3.0515000178
0
LINE
8
0
62
2
6
CONTINUOUS
10
27.5250004903
20
3.2945000178
11
23.0250004903
21
3.2945000178
0
LINE
8
0
62
2
6
CONTINUOUS
10
27.5250004903
20
3.5375000178
11
23.0250004903
21
3.5375000178
0
LINE
8
0
62
2
6
CONTINUOUS
10
27.5250004903
20
3.7875000178
11
23.0250004903
21
3.7875000178
0
LINE
8
0
62
2
6
CONTINUOUS
10
26.8750004903
20
0.8475000178
11
26.8750004903
21
3.5375000178
0
LINE
8
0
62
2
6
CONTINUOUS
10
24.8050004903
20
0.8475000178
11
24.8050004903
21
3.5375000178
0
LINE
8
0
62
2
6
CONTINUOUS
10
24.2450004903
20
0.8475000178
11
24.2450004903
21
3.5375000178
0
LINE
8
0
62
2
6
CONTINUOUS
10
23.6150004903
20
0.8475000178
11
23.6150004903
21
3.5375000178
0
LINE
8
0
62
2
6
CONTINUOUS
10
23.0250004903
20
0.5875000178
11
23.0250004903
21
3.7875000178
0
TEXT
8
0
62
2
6
CONTINUOUS
10
26.8800004903
20
1.1790000178
40
0.1000000000
1
09.24.03
72
5
11
27.5200004903
21
1.1790000178
0
TEXT
8
0
62
2
6
CONTINUOUS
10
25.4800004903
20
1.1790000178
40
0.1000000000
1
SEE PCI #
72
5
11
26.2000004903
21
1.1790000178
0
TEXT
8
0
62
2
6
CONTINUOUS
10
24.4050004903
20
1.1790000178
40
0.1000000000
1
DEL
72
5
11
24.6450004903
21
1.1790000178
0
TEXT
8
0
62
2
6
CONTINUOUS
10
23.8900004903
20
1.1790000178
40
0.1000000000
1
A
72
5
11
23.9700004903
21
1.1790000178
0
TEXT
8
0
62
2
6
CONTINUOUS
10
23.2800004903
20
1.1790000178
40
0.1000000000
1
1
72
5
11
23.3600004903
21
1.1790000178
0
TEXT
8
___NOTE
62
2
6
CONTINUOUS
10
22.5133984392
20
1.5337479138
40
0.1200000000
1
A
72
5
11
22.6093984392
21
1.5337479138
0
TEXT
8
0
62
2
6
CONTINUOUS
10
6.2042862838
20
15.3265091492
40
0.1562500000
1
WHEN PLOTTING TEMPLATE FULL SIZE: 
72
5
11
10.4542862838
21
15.3265091492
0
TEXT
8
0
62
2
6
CONTINUOUS
10
6.2042862838
20
15.0921341492
40
0.1562500000
1
Make sure horizontal and vertical dimensions 
72
5
11
11.8292862838
21
15.0921341492
0
TEXT
8
0
62
2
6
CONTINUOUS
10
6.2042862838
20
14.8577591492
40
0.1562500000
1
match the dimensions labeled on the template.
72
5
11
11.8292862838
21
14.8577591492
0
TEXT
8
0
62
2
6
CONTINUOUS
10
6.2042862838
20
14.6233841492
40
0.1562500000
1
 
72
5
11
6.3292862838
21
14.6233841492
0
TEXT
8
0
62
2
6
CONTINUOUS
10
6.2042862838
20
14.3890091492
40
0.1562500000
1
AL TRAZAR LA PLANTILLA A ESCALA,  
72
5
11
10.4542862838
21
14.3890091492
0
TEXT
8
0
62
2
6
CONTINUOUS
10
6.2042862838
20
14.1546341492
40
0.1562500000
1
asegúrese de que las dimensiones horizontales 
72
5
11
11.9542862838
21
14.1546341492
0
TEXT
8
0
62
2
6
CONTINUOUS
10
6.2042862838
20
13.9202591492
40
0.1562500000
1
y verticales concuerden con las dimensiones 
72
5
11
11.7042862838
21
13.9202591492
0
TEXT
8
0
62
2
6
CONTINUOUS
10
6.2042862838
20
13.6858841492
40
0.1562500000
1
marcadas en la plantilla.
72
5
11
9.3292862838
21
13.6858841492
0
TEXT
8
0
62
2
6
CONTINUOUS
10
6.2042862838
20
13.4515091492
40
0.1562500000
1
 
72
5
11
6.3292862838
21
13.4515091492
0
TEXT
8
0
62
2
6
CONTINUOUS
10
6.2042862838
20
13.2171341492
40
0.1562500000
1
AU MOMENT DE TRACER LA DÉCOUPE À L'ÉCHELLE,  
72
5
11
11.8292862838
21
13.2171341492
0
TEXT
8
0
62
2
6
CONTINUOUS
10
6.2042862838
20
12.9827591492
40
0.1562500000
1
Assurez vos que les dimensions horizotales et 
72
5
11
11.9542862838
21
12.9827591492
0
TEXT
8
0
62
2
6
CONTINUOUS
10
6.2042862838
20
12.7483841492
40
0.1562500000
1
verticales correspondent avec les dimensions 
72
5
11
11.8292862838
21
12.7483841492
0
TEXT
8
0
62
2
6
CONTINUOUS
10
6.2042862838
20
12.5140091492
40
0.1562500000
1
du plan.
72
5
11
7.2042862838
21
12.5140091492
0
TEXT
8
0
62
2
6
CONTINUOUS
10
11.9008512895
20
3.0242626216
40
0.0705000000
1
1033456-7-A
72
5
11
12.5212512895
21
3.0242626216
0
TEXT
8
0
62
2
6
CONTINUOUS
10
11.9748850033
20
1.9666381388
40
0.0705000000
1
1033456-7-A
72
5
11
12.5952850033
21
1.9666381388
0
TEXT
8
0
62
2
6
CONTINUOUS
10
14.4399564827
20
3.0354464663
40
0.0355957500
1
C
72
5
11
14.4755522327
21
3.0354464663
0
TEXT
8
0
62
2
6
CONTINUOUS
10
14.5128868953
20
3.0238695649
40
0.0594840000
1
2003 KOHLER CO.
72
5
11
15.4051468953
21
3.0238695649
0
TEXT
8
0
62
2
6
CONTINUOUS
10
16.1281166339
20
14.4702001891
40
0.1875000000
1
CUT-OUT TEMPLATE
72
5
11
18.5281166339
21
14.4702001891
0
TEXT
8
0
62
2
6
CONTINUOUS
10
16.1281166339
20
14.1889501891
40
0.1875000000
1
20" X 17" 
72
5
11
17.6281166339
21
14.1889501891
0
TEXT
8
0
62
2
6
CONTINUOUS
10
16.1281166339
20
13.9077001891
40
0.1875000000
1
PLANTILLA DE RECORTE
72
5
11
19.1281166339
21
13.9077001891
0
TEXT
8
0
62
2
6
CONTINUOUS
10
16.1281166339
20
13.6264501891
40
0.1875000000
1
20" X 17" (51 CM X 43 CM) 
72
5
11
20.0281166339
21
13.6264501891
0
TEXT
8
0
62
2
6
CONTINUOUS
10
16.1281166339
20
13.3452001891
40
0.1875000000
1
PLAN DE DÉCOUPE
72
5
11
18.3781166339
21
13.3452001891
0
TEXT
8
0
62
2
6
CONTINUOUS
10
16.1281166339
20
13.0639501891
40
0.1875000000
1
20" X 17" (51 CM X 43 CM) 
72
5
11
20.0281166339
21
13.0639501891
0
SOLID
8
0
62
2
6
CONTINUOUS
10
5.3606515095
20
6.4280056010
11
5.3867220754
21
6.6162956381
12
5.4463798947
22
6.5976624796
13
5.4463798947
23
6.5976624796
0
TEXT
8
0
62
2
6
CONTINUOUS
10
6.4265251267
20
8.9620647252
40
0.1562500000
1
CUT ALONG THIS LINE
72
5
11
8.8015251267
21
8.9620647252
0
TEXT
8
0
62
2
6
CONTINUOUS
10
6.4265251267
20
8.7276897252
40
0.1562500000
1
CORTE A LO LARGO DE ESTA LÍNEA
72
5
11
10.1765251267
21
8.7276897252
0
TEXT
8
0
62
2
6
CONTINUOUS
10
6.4265251267
20
8.4933147252
40
0.1562500000
1
DÉCOUPEZ LE LONG DE CETTE LIGNE
72
5
11
10.3015251267
21
8.4933147252
0
SOLID
8
0
62
2
6
CONTINUOUS
10
5.9276114381
20
5.4077417856
11
5.9517472662
21
5.5962895894
12
6.0115932659
22
5.5782699800
13
6.0115932659
23
5.5782699800
0
TEXT
8
0
62
2
6
CONTINUOUS
10
6.8097657559
20
7.4291022083
40
0.1562500000
1
RIM OF LAVATORY
72
5
11
8.6847657559
21
7.4291022083
0
TEXT
8
0
62
2
6
CONTINUOUS
10
6.8097657559
20
7.1947272083
40
0.1562500000
1
REBORDE DEL LAVABO
72
5
11
9.0597657559
21
7.1947272083
0
TEXT
8
0
62
2
6
CONTINUOUS
10
6.8097657559
20
6.9603522083
40
0.1562500000
1
REBORD DU LAVABO
72
5
11
8.8097657559
21
6.9603522083
0
LINE
8
0
62
7
6
CONTINUOUS
10
0.0000000000
20
0.0000000000
11
0.0000000000
21
22.0000000000
0
LINE
8
DEFAULT_2
62
8
6
HIDDEN
10
0.1500000000
20
11.0234375000
11
0.1500000000
21
10.9765625000
0
LINE
8
DEFAULT_2
62
8
6
HIDDEN
10
0.3375000000
20
11.0937500000
11
0.3375000000
21
11.0234375000
0
LINE
8
DEFAULT_2
62
8
6
HIDDEN
10
0.3375000000
20
10.9765625000
11
0.3375000000
21
10.9062500000
0
LINE
8
0
6
CONTINUOUS
10
0.5250000000
20
0.5875000000
11
0.5250000000
21
21.5875000000
0
LINE
8
0
6
CONTINUOUS
10
4.2500000000
20
0.5875000000
11
4.2500000000
21
0.0000000000
0
LINE
8
0
62
2
6
CONTINUOUS
10
33.0171880000
20
2.2750000000
11
32.6734380000
21
2.2125000000
0
LINE
8
0
62
7
6
CONTINUOUS
10
0.0000000000
20
0.0000000000
11
34.0000000000
21
0.0000000000
0
LINE
8
DEFAULT_2
62
8
6
HIDDEN
10
16.9765625000
20
0.2125000000
11
17.0234375000
21
0.2125000000
0
LINE
8
DEFAULT_2
62
8
6
HIDDEN
10
16.9062500000
20
0.4000000000
11
16.9765625000
21
0.4000000000
0
LINE
8
DEFAULT_2
62
8
6
HIDDEN
10
17.0234375000
20
0.4000000000
11
17.0937500000
21
0.4000000000
0
LINE
8
0
6
CONTINUOUS
10
33.5250000000
20
0.5875000000
11
0.5250000000
21
0.5875000000
0
LINE
8
0
6
CONTINUOUS
10
8.5000000000
20
0.5875000000
11
8.5000000000
21
0.0000000000
0
LINE
8
0
62
2
6
CONTINUOUS
10
29.5281840000
20
2.1210210000
11
29.5951840000
21
2.1210210000
0
LINE
8
0
62
2
6
CONTINUOUS
10
29.6923820000
20
2.1210210000
11
29.7781840000
21
2.1210210000
0
LINE
8
0
62
2
6
CONTINUOUS
10
30.0594340000
20
2.1210210000
11
30.1264340000
21
2.1210210000
0
LINE
8
0
62
2
6
CONTINUOUS
10
30.2045590000
20
2.1210210000
11
30.2715590000
21
2.1210210000
0
LINE
8
0
62
2
6
CONTINUOUS
10
30.3028090000
20
2.1210210000
11
30.4590590000
21
2.1210210000
0
LINE
8
0
62
2
6
CONTINUOUS
10
30.4903090000
20
2.1210210000
11
30.6465590000
21
2.1210210000
0
LINE
8
0
62
2
6
CONTINUOUS
10
30.6778090000
20
2.1210210000
11
30.7448090000
21
2.1210210000
0
LINE
8
0
62
2
6
CONTINUOUS
10
30.8199350000
20
2.1210210000
11
30.8965590000
21
2.1210210000
0
LINE
8
0
62
2
6
CONTINUOUS
10
32.0117180000
20
2.1343750000
11
32.3394140000
21
2.1343750000
0
LINE
8
0
62
2
6
CONTINUOUS
10
32.3898290000
20
2.1343750000
11
32.4425360000
21
2.1343750000
0
LINE
8
0
62
2
6
CONTINUOUS
10
32.4952420000
20
2.1343750000
11
33.0681380000
21
2.1343750000
0
LINE
8
0
62
2
6
CONTINUOUS
10
30.3698090000
20
2.1880210000
11
30.4590590000
21
2.1880210000
0
LINE
8
0
62
2
6
CONTINUOUS
10
30.5573090000
20
2.1880210000
11
30.6465590000
21
2.1880210000
0
LINE
8
0
62
2
6
CONTINUOUS
10
30.7448090000
20
2.2303960000
11
30.7592420000
21
2.2303960000
0
LINE
8
0
62
2
6
CONTINUOUS
10
30.5573090000
20
2.2359590000
11
30.6465590000
21
2.2359590000
0
LINE
8
0
62
2
6
CONTINUOUS
10
30.1264340000
20
2.2437710000
11
30.2045590000
21
2.2437710000
0
LINE
8
0
62
2
6
CONTINUOUS
10
30.7781840000
20
2.2864590000
11
30.7448090000
21
2.2864590000
0
LINE
8
0
62
2
6
CONTINUOUS
10
30.5573090000
20
2.2873340000
11
30.6465590000
21
2.2873340000
0
LINE
8
0
62
2
6
CONTINUOUS
10
30.1264340000
20
2.3107710000
11
30.2045590000
21
2.3107710000
0
LINE
8
0
62
2
6
CONTINUOUS
10
30.5573090000
20
2.3352710000
11
30.6465590000
21
2.3352710000
0
LINE
8
0
62
2
6
CONTINUOUS
10
30.7781840000
20
2.3477710000
11
30.7448090000
21
2.3477710000
0
LINE
8
0
62
2
6
CONTINUOUS
10
30.7793710000
20
2.4022710000
11
30.6778090000
21
2.4022710000
0
LINE
8
0
62
2
6
CONTINUOUS
10
29.5281840000
20
2.4022710000
11
29.5951840000
21
2.4022710000
0
LINE
8
0
62
2
6
CONTINUOUS
10
29.6834310000
20
2.4022710000
11
29.7781840000
21
2.4022710000
0
LINE
8
0
62
2
6
CONTINUOUS
10
30.0594340000
20
2.4022710000
11
30.1264340000
21
2.4022710000
0
LINE
8
0
62
2
6
CONTINUOUS
10
30.2045590000
20
2.4022710000
11
30.2715590000
21
2.4022710000
0
LINE
8
0
62
2
6
CONTINUOUS
10
30.3028090000
20
2.4022710000
11
30.3698090000
21
2.4022710000
0
LINE
8
0
62
2
6
CONTINUOUS
10
30.4903090000
20
2.4022710000
11
30.6465590000
21
2.4022710000
0
LINE
8
0
62
2
6
CONTINUOUS
10
32.9861199674
20
2.7522448979
11
33.1015559674
21
2.7522448979
0
LINE
8
0
62
2
6
CONTINUOUS
10
33.0261199674
20
2.7922448979
11
33.1016409674
21
2.7922448979
0
LINE
8
DEFAULT_2
62
8
6
HIDDEN
10
0.3375000000
20
10.9062500000
11
0.5250000000
21
11.0000000000
0
LINE
8
0
62
2
6
CONTINUOUS
10
33.0261199674
20
2.9466198979
11
33.0946219674
21
2.9466198979
0
LINE
8
0
62
2
6
CONTINUOUS
10
32.9861199674
20
2.9866198979
11
33.0945189674
21
2.9866198979
0
LINE
8
DEFAULT_2
62
8
6
HIDDEN
10
0.5250000000
20
11.0000000000
11
0.3375000000
21
11.0937500000
0
LINE
8
0
62
2
6
CONTINUOUS
10
32.6734380000
20
2.0562500000
11
33.0171880000
21
1.9937500000
0
LINE
8
DEFAULT_2
62
8
6
HIDDEN
10
17.0000000000
20
21.5875000000
11
17.0937500000
21
21.7750000000
0
LINE
8
0
6
CONTINUOUS
10
34.0000000000
20
5.5000000000
11
33.5250000000
21
5.5000000000
0
LINE
8
DEFAULT_2
62
8
6
HIDDEN
10
17.0937500000
20
0.4000000000
11
17.0000000000
21
0.5875000000
0
LINE
8
0
6
CONTINUOUS
10
12.7500000000
20
0.5875000000
11
12.7500000000
21
0.0000000000
0
POLYLINE
8
0
62
7
6
CONTINUOUS
66
1
70
0
0
VERTEX
8
0
62
7
6
CONTINUOUS
10
17.8235706640
20
15.2558610272
0
VERTEX
8
0
62
7
6
CONTINUOUS
10
17.8205439826
20
15.2549028592
0
VERTEX
8
0
62
7
6
CONTINUOUS
10
17.8191299396
20
15.2543546748
0
VERTEX
8
0
62
7
6
CONTINUOUS
10
17.8177801358
20
15.2537623395
0
VERTEX
8
0
62
7
6
CONTINUOUS
10
17.8152661395
20
15.2524502529
0
VERTEX
8
0
62
7
6
CONTINUOUS
10
17.8129802533
20
15.2509704606
0
VERTEX
8
0
62
7
6
CONTINUOUS
10
17.8109034868
20
15.2493228218
0
VERTEX
8
0
62
7
6
CONTINUOUS
10
17.8090198622
20
15.2475031169
0
VERTEX
8
0
62
7
6
CONTINUOUS
10
17.8073166284
20
15.2455030304
0
VERTEX
8
0
62
7
6
CONTINUOUS
10
17.8057843912
20
15.2433101559
0
VERTEX
8
0
62
7
6
CONTINUOUS
10
17.8044171259
20
15.2409079512
0
VERTEX
8
0
62
7
6
CONTINUOUS
10
17.8032120547
20
15.2382755167
0
VERTEX
8
0
62
7
6
CONTINUOUS
10
17.8021693816
20
15.2353869790
0
VERTEX
8
0
62
7
6
CONTINUOUS
10
17.8012918797
20
15.2322100822
0
VERTEX
8
0
62
7
6
CONTINUOUS
10
17.8005843198
20
15.2287031378
0
VERTEX
8
0
62
7
6
CONTINUOUS
10
17.8000526882
20
15.2248082565
0
VERTEX
8
0
62
7
6
CONTINUOUS
10
17.7997030237
20
15.2204348112
0
VERTEX
8
0
62
7
6
CONTINUOUS
10
17.7995392622
20
15.2154107519
0
VERTEX
8
0
62
7
6
CONTINUOUS
10
17.7995564138
20
15.2092772143
0
SEQEND
0
POLYLINE
8
0
62
7
6
CONTINUOUS
66
1
70
0
0
VERTEX
8
0
62
7
6
CONTINUOUS
10
16.6127706640
20
15.0014464438
0
VERTEX
8
0
62
7
6
CONTINUOUS
10
16.6156938904
20
15.0023656490
0
VERTEX
8
0
62
7
6
CONTINUOUS
10
16.6170627310
20
15.0028883892
0
VERTEX
8
0
62
7
6
CONTINUOUS
10
16.6183716602
20
15.0034515927
0
VERTEX
8
0
62
7
6
CONTINUOUS
10
16.6208150763
20
15.0046943626
0
VERTEX
8
0
62
7
6
CONTINUOUS
10
16.6230434207
20
15.0060899195
0
VERTEX
8
0
62
7
6
CONTINUOUS
10
16.6250741603
20
15.0076377754
0
VERTEX
8
0
62
7
6
CONTINUOUS
10
16.6269222313
20
15.0093408949
0
VERTEX
8
0
62
7
6
CONTINUOUS
10
16.6285998522
20
15.0112057296
0
VERTEX
8
0
62
7
6
CONTINUOUS
10
16.6301163975
20
15.0132422296
0
VERTEX
8
0
62
7
6
CONTINUOUS
10
16.6314783549
20
15.0154638791
0
VERTEX
8
0
62
7
6
CONTINUOUS
10
16.6326893855
20
15.0178878437
0
VERTEX
8
0
62
7
6
CONTINUOUS
10
16.6337504955
20
15.0205353697
0
VERTEX
8
0
62
7
6
CONTINUOUS
10
16.6346603210
20
15.0234326873
0
VERTEX
8
0
62
7
6
CONTINUOUS
10
16.6354155318
20
15.0266129088
0
VERTEX
8
0
62
7
6
CONTINUOUS
10
16.6360113731
20
15.0301200221
0
VERTEX
8
0
62
7
6
CONTINUOUS
10
16.6364424129
20
15.0340178251
0
VERTEX
8
0
62
7
6
CONTINUOUS
10
16.6367037097
20
15.0384126600
0
VERTEX
8
0
62
7
6
CONTINUOUS
10
16.6367932704
20
15.0435263271
0
VERTEX
8
0
62
7
6
CONTINUOUS
10
16.6366706640
20
15.0549026938
0
SEQEND
0
POLYLINE
8
0
62
7
6
CONTINUOUS
66
1
70
0
0
VERTEX
8
0
62
7
6
CONTINUOUS
10
17.5502144140
20
15.2558610272
0
VERTEX
8
0
62
7
6
CONTINUOUS
10
17.5472801694
20
15.2549564943
0
VERTEX
8
0
62
7
6
CONTINUOUS
10
17.5445939739
20
15.2538883535
0
VERTEX
8
0
62
7
6
CONTINUOUS
10
17.5421424728
20
15.2526656341
0
VERTEX
8
0
62
7
6
CONTINUOUS
10
17.5399082776
20
15.2512934746
0
VERTEX
8
0
62
7
6
CONTINUOUS
10
17.5378736412
20
15.2497728048
0
VERTEX
8
0
62
7
6
CONTINUOUS
10
17.5360232976
20
15.2481011800
0
VERTEX
8
0
62
7
6
CONTINUOUS
10
17.5343446503
20
15.2462727363
0
VERTEX
8
0
62
7
6
CONTINUOUS
10
17.5328279076
20
15.2442781718
0
VERTEX
8
0
62
7
6
CONTINUOUS
10
17.5314661392
20
15.2421047113
0
VERTEX
8
0
62
7
6
CONTINUOUS
10
17.5302552360
20
15.2397359744
0
VERTEX
8
0
62
7
6
CONTINUOUS
10
17.5291937614
20
15.2371516197
0
VERTEX
8
0
62
7
6
CONTINUOUS
10
17.5282826946
20
15.2343265355
0
VERTEX
8
0
62
7
6
CONTINUOUS
10
17.5275250632
20
15.2312291446
0
VERTEX
8
0
62
7
6
CONTINUOUS
10
17.5269254541
20
15.2278178695
0
VERTEX
8
0
62
7
6
CONTINUOUS
10
17.5264893611
20
15.2240333645
0
VERTEX
8
0
62
7
6
CONTINUOUS
10
17.5262222330
20
15.2197793275
0
VERTEX
8
0
62
7
6
CONTINUOUS
10
17.5261277041
20
15.2148640629
0
VERTEX
8
0
62
7
6
CONTINUOUS
10
17.5262013037
20
15.2087326913
0
VERTEX
8
0
62
7
6
CONTINUOUS
10
17.5262229035
20
15.2076928370
0
VERTEX
8
0
62
7
6
CONTINUOUS
10
17.5263039973
20
15.2020079022
0
SEQEND
0
POLYLINE
8
0
62
7
6
CONTINUOUS
66
1
70
0
0
VERTEX
8
0
62
7
6
CONTINUOUS
10
17.7203050390
20
15.0014464438
0
VERTEX
8
0
62
7
6
CONTINUOUS
10
17.7233291116
20
15.0023589801
0
VERTEX
8
0
62
7
6
CONTINUOUS
10
17.7247419667
20
15.0028854948
0
VERTEX
8
0
62
7
6
CONTINUOUS
10
17.7260906816
20
15.0034569142
0
VERTEX
8
0
62
7
6
CONTINUOUS
10
17.7286015729
20
15.0047286714
0
VERTEX
8
0
62
7
6
CONTINUOUS
10
17.7308838661
20
15.0061698954
0
VERTEX
8
0
62
7
6
CONTINUOUS
10
17.7329569430
20
15.0077803657
0
VERTEX
8
0
62
7
6
CONTINUOUS
10
17.7348371310
20
15.0095640517
0
VERTEX
8
0
62
7
6
CONTINUOUS
10
17.7365374761
20
15.0115291297
0
VERTEX
8
0
62
7
6
CONTINUOUS
10
17.7380676023
20
15.0136879697
0
VERTEX
8
0
62
7
6
CONTINUOUS
10
17.7394336910
20
15.0160571659
0
VERTEX
8
0
62
7
6
CONTINUOUS
10
17.7406385998
20
15.0186577368
0
VERTEX
8
0
62
7
6
CONTINUOUS
10
17.7416821307
20
15.0215157125
0
VERTEX
8
0
62
7
6
CONTINUOUS
10
17.7425614463
20
15.0246635019
0
VERTEX
8
0
62
7
6
CONTINUOUS
10
17.7432716484
20
15.0281428736
0
VERTEX
8
0
62
7
6
CONTINUOUS
10
17.7438065654
20
15.0320115794
0
VERTEX
8
0
62
7
6
CONTINUOUS
10
17.7441599136
20
15.0363595062
0
VERTEX
8
0
62
7
6
CONTINUOUS
10
17.7443274210
20
15.0413559759
0
VERTEX
8
0
62
7
6
CONTINUOUS
10
17.7443133896
20
15.0474469288
0
SEQEND
0
POLYLINE
8
0
62
7
6
CONTINUOUS
66
1
70
0
0
VERTEX
8
0
62
7
6
CONTINUOUS
10
16.8426446223
20
15.0014464438
0
VERTEX
8
0
62
7
6
CONTINUOUS
10
16.8457271205
20
15.0023583313
0
VERTEX
8
0
62
7
6
CONTINUOUS
10
16.8471668216
20
15.0028841505
0
VERTEX
8
0
62
7
6
CONTINUOUS
10
16.8485413835
20
15.0034547737
0
VERTEX
8
0
62
7
6
CONTINUOUS
10
16.8511010431
20
15.0047246559
0
VERTEX
8
0
62
7
6
CONTINUOUS
10
16.8534270336
20
15.0061626196
0
VERTEX
8
0
62
7
6
CONTINUOUS
10
16.8555391801
20
15.0077678782
0
VERTEX
8
0
62
7
6
CONTINUOUS
10
16.8574543116
20
15.0095437605
0
VERTEX
8
0
62
7
6
CONTINUOUS
10
16.8591860283
20
15.0114977409
0
VERTEX
8
0
62
7
6
CONTINUOUS
10
16.8607445491
20
15.0136414368
0
VERTEX
8
0
62
7
6
CONTINUOUS
10
16.8621366714
20
15.0159906377
0
VERTEX
8
0
62
7
6
CONTINUOUS
10
16.8633658676
20
15.0185654849
0
VERTEX
8
0
62
7
6
CONTINUOUS
10
16.8644325270
20
15.0213910023
0
VERTEX
8
0
62
7
6
CONTINUOUS
10
16.8653343477
20
15.0244983408
0
VERTEX
8
0
62
7
6
CONTINUOUS
10
16.8660668882
20
15.0279274921
0
VERTEX
8
0
62
7
6
CONTINUOUS
10
16.8666243223
20
15.0317332789
0
VERTEX
8
0
62
7
6
CONTINUOUS
10
16.8670005405
20
15.0359997486
0
VERTEX
8
0
62
7
6
CONTINUOUS
10
16.8671911065
20
15.0408811937
0
VERTEX
8
0
62
7
6
CONTINUOUS
10
16.8671988141
20
15.0467639532
0
SEQEND
0
POLYLINE
8
0
62
7
6
CONTINUOUS
66
1
70
0
0
VERTEX
8
0
62
7
6
CONTINUOUS
10
17.1127352473
20
15.0014464438
0
VERTEX
8
0
62
7
6
CONTINUOUS
10
17.1158066099
20
15.0023553312
0
VERTEX
8
0
62
7
6
CONTINUOUS
10
17.1186052150
20
15.0034469828
0
VERTEX
8
0
62
7
6
CONTINUOUS
10
17.1211469006
20
15.0047109049
0
VERTEX
8
0
62
7
6
CONTINUOUS
10
17.1234515132
20
15.0061409739
0
VERTEX
8
0
62
7
6
CONTINUOUS
10
17.1255395112
20
15.0077363416
0
VERTEX
8
0
62
7
6
CONTINUOUS
10
17.1274282567
20
15.0095003699
0
VERTEX
8
0
62
7
6
CONTINUOUS
10
17.1291317758
20
15.0114406737
0
VERTEX
8
0
62
7
6
CONTINUOUS
10
17.1306606019
20
15.0135691309
0
VERTEX
8
0
62
7
6
CONTINUOUS
10
17.1320217347
20
15.0159019315
0
VERTEX
8
0
62
7
6
CONTINUOUS
10
17.1332187410
20
15.0184597929
0
VERTEX
8
0
62
7
6
CONTINUOUS
10
17.1342520054
20
15.0212685594
0
VERTEX
8
0
62
7
6
CONTINUOUS
10
17.1351191330
20
15.0243605844
0
VERTEX
8
0
62
7
6
CONTINUOUS
10
17.1358155091
20
15.0277777321
0
VERTEX
8
0
62
7
6
CONTINUOUS
10
17.1363350518
20
15.0315780253
0
VERTEX
8
0
62
7
6
CONTINUOUS
10
17.1366712860
20
15.0358517865
0
VERTEX
8
0
62
7
6
CONTINUOUS
10
17.1368192054
20
15.0407686378
0
VERTEX
8
0
62
7
6
CONTINUOUS
10
17.1367807139
20
15.0467716888
0
VERTEX
8
0
62
7
6
CONTINUOUS
10
17.1367382175
20
15.0489137785
0
VERTEX
8
0
62
7
6
CONTINUOUS
10
17.1366508723
20
15.0549026938
0
VERTEX
8
0
62
7
6
CONTINUOUS
10
17.1366508723
20
15.2020079022
0
VERTEX
8
0
62
7
6
CONTINUOUS
10
17.1367382175
20
15.2081000365
0
VERTEX
8
0
62
7
6
CONTINUOUS
10
17.1367735228
20
15.2098742716
0
VERTEX
8
0
62
7
6
CONTINUOUS
10
17.1368218846
20
15.2160125943
0
VERTEX
8
0
62
7
6
CONTINUOUS
10
17.1366847776
20
15.2209886394
0
VERTEX
8
0
62
7
6
CONTINUOUS
10
17.1363595465
20
15.2252969787
0
VERTEX
8
0
62
7
6
CONTINUOUS
10
17.1358508052
20
15.2291217782
0
VERTEX
8
0
62
7
6
CONTINUOUS
10
17.1351646505
20
15.2325594489
0
VERTEX
8
0
62
7
6
CONTINUOUS
10
17.1343067877
20
15.2356710518
0
VERTEX
8
0
62
7
6
CONTINUOUS
10
17.1332814638
20
15.2385001061
0
VERTEX
8
0
62
7
6
CONTINUOUS
10
17.1320907204
20
15.2410799063
0
VERTEX
8
0
62
7
6
CONTINUOUS
10
17.1307338366
20
15.2434368453
0
VERTEX
8
0
62
7
6
CONTINUOUS
10
17.1292069291
20
15.2455919719
0
VERTEX
8
0
62
7
6
CONTINUOUS
10
17.1275026996
20
15.2475616957
0
VERTEX
8
0
62
7
6
CONTINUOUS
10
17.1256103309
20
15.2493580719
0
VERTEX
8
0
62
7
6
CONTINUOUS
10
17.1235155208
20
15.2509888965
0
VERTEX
8
0
62
7
6
CONTINUOUS
10
17.1212006295
20
15.2524577486
0
VERTEX
8
0
62
7
6
CONTINUOUS
10
17.1186449068
20
15.2537640526
0
VERTEX
8
0
62
7
6
CONTINUOUS
10
17.1158286500
20
15.2549018113
0
VERTEX
8
0
62
7
6
CONTINUOUS
10
17.1127352473
20
15.2558610272
0
SEQEND
0
POLYLINE
8
0
62
7
6
CONTINUOUS
66
1
70
0
0
VERTEX
8
0
62
7
6
CONTINUOUS
10
17.4464144140
20
15.0014464438
0
VERTEX
8
0
62
7
6
CONTINUOUS
10
17.4494969338
20
15.0023583372
0
VERTEX
8
0
62
7
6
CONTINUOUS
10
17.4509366495
20
15.0028841607
0
VERTEX
8
0
62
7
6
CONTINUOUS
10
17.4523112273
20
15.0034547888
0
VERTEX
8
0
62
7
6
CONTINUOUS
10
17.4548709218
20
15.0047246826
0
VERTEX
8
0
62
7
6
CONTINUOUS
10
17.4571969538
20
15.0061626616
0
VERTEX
8
0
62
7
6
CONTINUOUS
10
17.4593091474
20
15.0077679395
0
VERTEX
8
0
62
7
6
CONTINUOUS
10
17.4612243302
20
15.0095438448
0
VERTEX
8
0
62
7
6
CONTINUOUS
10
17.4629561018
20
15.0114978518
0
VERTEX
8
0
62
7
6
CONTINUOUS
10
17.4645146804
20
15.0136415774
0
VERTEX
8
0
62
7
6
CONTINUOUS
10
17.4659068630
20
15.0159908100
0
VERTEX
8
0
62
7
6
CONTINUOUS
10
17.4671361219
20
15.0185656902
0
VERTEX
8
0
62
7
6
CONTINUOUS
10
17.4682028461
20
15.0213912401
0
VERTEX
8
0
62
7
6
CONTINUOUS
10
17.4691047342
20
15.0244986082
0
VERTEX
8
0
62
7
6
CONTINUOUS
10
17.4698373447
20
15.0279277825
0
VERTEX
8
0
62
7
6
CONTINUOUS
10
17.4703948520
20
15.0317335797
0
VERTEX
8
0
62
7
6
CONTINUOUS
10
17.4707711472
20
15.0360000347
0
VERTEX
8
0
62
7
6
CONTINUOUS
10
17.4709617948
20
15.0408814110
0
VERTEX
8
0
62
7
6
CONTINUOUS
10
17.4709695897
20
15.0467639429
0
SEQEND
0
LINE
8
0
62
7
6
CONTINUOUS
10
18.3443842056
20
14.8008849855
11
18.3201831640
21
14.7898881105
0
POLYLINE
8
0
62
7
6
CONTINUOUS
66
1
70
0
0
VERTEX
8
0
62
7
6
CONTINUOUS
10
17.8811675390
20
15.0014464438
0
VERTEX
8
0
62
7
6
CONTINUOUS
10
17.8855617189
20
15.0034235398
0
VERTEX
8
0
62
7
6
CONTINUOUS
10
17.8894003721
20
15.0054170911
0
VERTEX
8
0
62
7
6
CONTINUOUS
10
17.8927523736
20
15.0074337520
0
VERTEX
8
0
62
7
6
CONTINUOUS
10
17.8956779552
20
15.0094822578
0
VERTEX
8
0
62
7
6
CONTINUOUS
10
17.8982294930
20
15.0115740212
0
VERTEX
8
0
62
7
6
CONTINUOUS
10
17.9004521000
20
15.0137238748
0
VERTEX
8
0
62
7
6
CONTINUOUS
10
17.9023748928
20
15.0159394471
0
VERTEX
8
0
62
7
6
CONTINUOUS
10
17.9040273893
20
15.0182347148
0
VERTEX
8
0
62
7
6
CONTINUOUS
10
17.9054392564
20
15.0206350634
0
VERTEX
8
0
62
7
6
CONTINUOUS
10
17.9066340601
20
15.0231730322
0
VERTEX
8
0
62
7
6
CONTINUOUS
10
17.9076297543
20
15.0258910750
0
VERTEX
8
0
62
7
6
CONTINUOUS
10
17.9084392858
20
15.0288465038
0
VERTEX
8
0
62
7
6
CONTINUOUS
10
17.9090713737
20
15.0321211638
0
VERTEX
8
0
62
7
6
CONTINUOUS
10
17.9095315793
20
15.0358425932
0
VERTEX
8
0
62
7
6
CONTINUOUS
10
17.9098240930
20
15.0402386957
0
VERTEX
8
0
62
7
6
CONTINUOUS
10
17.9099565529
20
15.0458261890
0
VERTEX
8
0
62
7
6
CONTINUOUS
10
17.9099717056
20
15.0509964438
0
VERTEX
8
0
62
7
6
CONTINUOUS
10
17.9099717056
20
15.2067016522
0
VERTEX
8
0
62
7
6
CONTINUOUS
10
17.9099599842
20
15.2114862499
0
VERTEX
8
0
62
7
6
CONTINUOUS
10
17.9098370229
20
15.2172123622
0
VERTEX
8
0
62
7
6
CONTINUOUS
10
17.9095551923
20
15.2216806439
0
VERTEX
8
0
62
7
6
CONTINUOUS
10
17.9091064962
20
15.2254456589
0
VERTEX
8
0
62
7
6
CONTINUOUS
10
17.9084870449
20
15.2287469161
0
VERTEX
8
0
62
7
6
CONTINUOUS
10
17.9076917928
20
15.2317169556
0
VERTEX
8
0
62
7
6
CONTINUOUS
10
17.9067126662
20
15.2344402171
0
VERTEX
8
0
62
7
6
CONTINUOUS
10
17.9055374605
20
15.2369755176
0
VERTEX
8
0
62
7
6
CONTINUOUS
10
17.9041490405
20
15.2393662382
0
VERTEX
8
0
62
7
6
CONTINUOUS
10
17.9025247200
20
15.2416454908
0
VERTEX
8
0
62
7
6
CONTINUOUS
10
17.9006357659
20
15.2438389793
0
VERTEX
8
0
62
7
6
CONTINUOUS
10
17.8984516809
20
15.2459625237
0
VERTEX
8
0
62
7
6
CONTINUOUS
10
17.8959458430
20
15.2480218192
0
VERTEX
8
0
62
7
6
CONTINUOUS
10
17.8930741866
20
15.2500315830
0
VERTEX
8
0
62
7
6
CONTINUOUS
10
17.8897854644
20
15.2520029203
0
VERTEX
8
0
62
7
6
CONTINUOUS
10
17.8860206804
20
15.2539440747
0
VERTEX
8
0
62
7
6
CONTINUOUS
10
17.8817123306
20
15.2558610272
0
SEQEND
0
POLYLINE
8
0
62
7
6
CONTINUOUS
66
1
70
0
0
VERTEX
8
0
62
7
6
CONTINUOUS
10
18.2431164973
20
15.2558610272
0
VERTEX
8
0
62
7
6
CONTINUOUS
10
18.2387234934
20
15.2539042307
0
VERTEX
8
0
62
7
6
CONTINUOUS
10
18.2348953245
20
15.2519220415
0
VERTEX
8
0
62
7
6
CONTINUOUS
10
18.2315605037
20
15.2499080144
0
VERTEX
8
0
62
7
6
CONTINUOUS
10
18.2286567398
20
15.2478532181
0
VERTEX
8
0
62
7
6
CONTINUOUS
10
18.2261301098
20
15.2457455625
0
VERTEX
8
0
62
7
6
CONTINUOUS
10
18.2249927156
20
15.2446662859
0
VERTEX
8
0
62
7
6
CONTINUOUS
10
18.2239344455
20
15.2435689488
0
VERTEX
8
0
62
7
6
CONTINUOUS
10
18.2220438733
20
15.2413191664
0
VERTEX
8
0
62
7
6
CONTINUOUS
10
18.2204245989
20
15.2389767549
0
VERTEX
8
0
62
7
6
CONTINUOUS
10
18.2190470149
20
15.2365133483
0
VERTEX
8
0
62
7
6
CONTINUOUS
10
18.2178880042
20
15.2338921556
0
VERTEX
8
0
62
7
6
CONTINUOUS
10
18.2169303661
20
15.2310644800
0
VERTEX
8
0
62
7
6
CONTINUOUS
10
18.2161620916
20
15.2279632581
0
VERTEX
8
0
62
7
6
CONTINUOUS
10
18.2155754136
20
15.2244898744
0
VERTEX
8
0
62
7
6
CONTINUOUS
10
18.2151654427
20
15.2204836126
0
VERTEX
8
0
62
7
6
CONTINUOUS
10
18.2149275761
20
15.2156350494
0
VERTEX
8
0
62
7
6
CONTINUOUS
10
18.2148481878
20
15.2091284787
0
VERTEX
8
0
62
7
6
CONTINUOUS
10
18.2148467056
20
14.9877839438
0
SEQEND
0
LINE
8
0
62
7
6
CONTINUOUS
10
16.8067758723
20
15.2597672772
11
16.7893914973
21
15.2133193605
0
LINE
8
0
62
7
6
CONTINUOUS
10
16.5225508723
20
15.2133193605
11
16.5415779556
21
15.2597672772
0
LINE
8
0
62
7
6
CONTINUOUS
10
17.0937175390
20
15.0513933188
11
17.0692633723
21
15.0002662355
0
LINE
8
0
62
7
6
CONTINUOUS
10
17.6980321223
20
15.0521558188
11
17.6697831640
21
15.0002662355
0
LINE
8
0
62
7
6
CONTINUOUS
10
17.8970571223
20
14.8602714438
11
17.8605477473
21
14.8162349855
0
LINE
8
0
62
7
6
CONTINUOUS
10
18.3456456640
20
14.8024006105
11
18.3443842056
21
14.8008849855
0
POLYLINE
8
0
62
7
6
CONTINUOUS
66
1
70
0
0
VERTEX
8
0
62
7
6
CONTINUOUS
10
16.8671988141
20
15.0467639532
0
VERTEX
8
0
62
7
6
CONTINUOUS
10
16.8670987890
20
15.0549026938
0
VERTEX
8
0
62
7
6
CONTINUOUS
10
16.8670987890
20
15.2020079022
0
SEQEND
0
LINE
8
0
62
7
6
CONTINUOUS
10
16.1341175390
20
14.8813797772
11
16.1341175390
21
15.3556329022
0
LINE
8
0
62
7
6
CONTINUOUS
10
16.1357102473
20
15.3589547772
11
16.1357102473
21
14.8982964438
0
LINE
8
0
62
7
6
CONTINUOUS
10
16.4817998306
20
15.2546860272
11
16.4817998306
21
15.2106037355
0
LINE
8
0
62
7
6
CONTINUOUS
10
16.6127706640
20
15.0002662355
11
16.6127706640
21
15.0014464438
0
LINE
8
0
62
7
6
CONTINUOUS
10
16.6366706640
20
15.0549026938
11
16.6366706640
21
15.2289391522
0
POLYLINE
8
0
62
7
6
CONTINUOUS
66
1
70
0
0
VERTEX
8
0
62
7
6
CONTINUOUS
10
16.6921060806
20
15.2289391522
0
VERTEX
8
0
62
7
6
CONTINUOUS
10
16.6921060806
20
15.0509964438
0
VERTEX
8
0
62
7
6
CONTINUOUS
10
16.6921119952
20
15.0456082243
0
VERTEX
8
0
62
7
6
CONTINUOUS
10
16.6921955413
20
15.0405668469
0
VERTEX
8
0
62
7
6
CONTINUOUS
10
16.6923907970
20
15.0366209845
0
VERTEX
8
0
62
7
6
CONTINUOUS
10
16.6927030799
20
15.0332871342
0
VERTEX
8
0
62
7
6
CONTINUOUS
10
16.6931344601
20
15.0303579229
0
VERTEX
8
0
62
7
6
CONTINUOUS
10
16.6936871543
20
15.0277196403
0
VERTEX
8
0
62
7
6
CONTINUOUS
10
16.6943646141
20
15.0253005657
0
VERTEX
8
0
62
7
6
CONTINUOUS
10
16.6951721155
20
15.0230511455
0
VERTEX
8
0
62
7
6
CONTINUOUS
10
16.6961171775
20
15.0209349205
0
VERTEX
8
0
62
7
6
CONTINUOUS
10
16.6972098956
20
15.0189238662
0
VERTEX
8
0
62
7
6
CONTINUOUS
10
16.6984632176
20
15.0169957934
0
VERTEX
8
0
62
7
6
CONTINUOUS
10
16.6998931769
20
15.0151327970
0
VERTEX
8
0
62
7
6
CONTINUOUS
10
16.7015191015
20
15.0133202694
0
VERTEX
8
0
62
7
6
CONTINUOUS
10
16.7033567408
20
15.0115525669
0
VERTEX
8
0
62
7
6
CONTINUOUS
10
16.7054267989
20
15.0098219435
0
VERTEX
8
0
62
7
6
CONTINUOUS
10
16.7077568402
20
15.0081189292
0
VERTEX
8
0
62
7
6
CONTINUOUS
10
16.7103783064
20
15.0064357642
0
VERTEX
8
0
62
7
6
CONTINUOUS
10
16.7133268140
20
15.0047660479
0
VERTEX
8
0
62
7
6
CONTINUOUS
10
16.7166425333
20
15.0031044469
0
VERTEX
8
0
62
7
6
CONTINUOUS
10
16.7203706640
20
15.0014464438
0
SEQEND
0
LINE
8
0
62
7
6
CONTINUOUS
10
16.7203706640
20
15.0014464438
11
16.7203706640
21
15.0002662355
0
LINE
8
0
62
7
6
CONTINUOUS
10
16.8426446223
20
15.0002662355
11
16.8426446223
21
15.0014464438
0
LINE
8
0
62
7
6
CONTINUOUS
10
16.8426446223
20
15.2558610272
11
16.8426446223
21
15.2570360272
0
LINE
8
0
62
7
6
CONTINUOUS
10
16.9225342056
20
15.2262131105
11
16.9225342056
21
15.1536318605
0
LINE
8
0
62
7
6
CONTINUOUS
10
16.9225342056
20
15.1255256105
11
16.9225342056
21
15.0330422772
0
LINE
8
DEFAULT_2
62
8
6
HIDDEN
10
16.9765625000
20
21.9625000000
11
16.9765625000
21
21.7750000000
0
LINE
8
DEFAULT_2
62
8
6
HIDDEN
10
16.9765625000
20
0.4000000000
11
16.9765625000
21
0.2125000000
0
LINE
8
0
62
7
6
CONTINUOUS
10
17.0127498306
20
15.1559662355
11
17.0127498306
21
15.1146099855
0
LINE
8
DEFAULT_2
62
8
6
HIDDEN
10
17.0234375000
20
0.2125000000
11
17.0234375000
21
0.4000000000
0
LINE
8
DEFAULT_2
62
8
6
HIDDEN
10
17.0234375000
20
21.7750000000
11
17.0234375000
21
21.9625000000
0
LINE
8
0
62
7
6
CONTINUOUS
10
17.0437248306
20
15.2589787355
11
17.0437248306
21
15.2133193605
0
LINE
8
0
62
7
6
CONTINUOUS
10
17.1127352473
20
15.0002662355
11
17.1127352473
21
15.0014464438
0
LINE
8
0
62
7
6
CONTINUOUS
10
17.1127352473
20
15.2558610272
11
17.1127352473
21
15.2570360272
0
POLYLINE
8
0
62
7
6
CONTINUOUS
66
1
70
0
0
VERTEX
8
0
62
7
6
CONTINUOUS
10
16.8670987890
20
15.2020079022
0
VERTEX
8
0
62
7
6
CONTINUOUS
10
16.8671942831
20
15.2098939414
0
VERTEX
8
0
62
7
6
CONTINUOUS
10
16.8671963100
20
15.2159001733
0
VERTEX
8
0
62
7
6
CONTINUOUS
10
16.8670165692
20
15.2208381233
0
VERTEX
8
0
62
7
6
CONTINUOUS
10
16.8666514360
20
15.2251382832
0
VERTEX
8
0
62
7
6
CONTINUOUS
10
16.8661049014
20
15.2289682828
0
VERTEX
8
0
62
7
6
CONTINUOUS
10
16.8653826684
20
15.2324179227
0
VERTEX
8
0
62
7
6
CONTINUOUS
10
16.8644901701
20
15.2355449443
0
VERTEX
8
0
62
7
6
CONTINUOUS
10
16.8634314693
20
15.2383909430
0
VERTEX
8
0
62
7
6
CONTINUOUS
10
16.8622085071
20
15.2409879860
0
VERTEX
8
0
62
7
6
CONTINUOUS
10
16.8608205528
20
15.2433616310
0
VERTEX
8
0
62
7
6
CONTINUOUS
10
16.8592638133
20
15.2455323402
0
VERTEX
8
0
62
7
6
CONTINUOUS
10
16.8575311895
20
15.2475161129
0
VERTEX
8
0
62
7
6
CONTINUOUS
10
16.8556121765
20
15.2493247330
0
VERTEX
8
0
62
7
6
CONTINUOUS
10
16.8534928966
20
15.2509658447
0
VERTEX
8
0
62
7
6
CONTINUOUS
10
16.8511562433
20
15.2524429803
0
VERTEX
8
0
62
7
6
CONTINUOUS
10
16.8485821014
20
15.2537556112
0
VERTEX
8
0
62
7
6
CONTINUOUS
10
16.8471989450
20
15.2543489792
0
VERTEX
8
0
62
7
6
CONTINUOUS
10
16.8457497022
20
15.2548985080
0
VERTEX
8
0
62
7
6
CONTINUOUS
10
16.8426446223
20
15.2558610272
0
SEQEND
0
LINE
8
0
62
7
6
CONTINUOUS
10
18.4985383723
20
14.8645235272
11
18.4710727473
21
14.7967547772
0
LINE
8
0
62
7
6
CONTINUOUS
10
18.4710727473
20
14.7814954022
11
18.4967685806
21
14.8448912355
0
POLYLINE
8
0
62
7
6
CONTINUOUS
66
1
70
0
0
VERTEX
8
0
62
7
6
CONTINUOUS
10
18.5462071223
20
14.7851172772
0
VERTEX
8
0
62
7
6
CONTINUOUS
10
18.5776196223
20
14.8623776938
0
VERTEX
8
0
62
7
6
CONTINUOUS
10
18.5782602473
20
14.8639943605
0
SEQEND
0
POLYLINE
8
0
62
7
6
CONTINUOUS
66
1
70
0
0
VERTEX
8
0
62
7
6
CONTINUOUS
10
17.7156706640
20
14.7851172772
0
VERTEX
8
0
62
7
6
CONTINUOUS
10
17.7471039973
20
14.8623776938
0
VERTEX
8
0
62
7
6
CONTINUOUS
10
17.7477196223
20
14.8639943605
0
SEQEND
0
LINE
8
0
62
7
6
CONTINUOUS
10
18.5782602473
20
14.8483693605
11
18.5647414973
21
14.8151870688
0
LINE
8
0
62
7
6
CONTINUOUS
10
17.7477196223
20
14.8483287355
11
17.7342102473
21
14.8151870688
0
LINE
8
0
62
7
6
CONTINUOUS
10
18.7172779556
20
14.8173745688
11
18.7424039973
21
14.8604141522
0
LINE
8
0
62
7
6
CONTINUOUS
10
18.7360164973
20
14.8604141522
11
18.7142769140
21
14.8236506105
0
LINE
8
DEFAULT_2
62
8
6
HIDDEN
10
0.1500000000
20
10.9765625000
11
0.3375000000
21
10.9765625000
0
LINE
8
DEFAULT_2
62
8
6
HIDDEN
10
33.7125000000
20
10.9765625000
11
33.9000000000
21
10.9765625000
0
LINE
8
DEFAULT_2
62
8
6
HIDDEN
10
33.9000000000
20
11.0234375000
11
33.7125000000
21
11.0234375000
0
LINE
8
DEFAULT_2
62
8
6
HIDDEN
10
0.3375000000
20
11.0234375000
11
0.1500000000
21
11.0234375000
0
POLYLINE
8
0
62
7
6
CONTINUOUS
66
1
70
0
0
VERTEX
8
0
62
7
6
CONTINUOUS
10
17.7443133896
20
15.0474469288
0
VERTEX
8
0
62
7
6
CONTINUOUS
10
17.7442206640
20
15.0549026938
0
VERTEX
8
0
62
7
6
CONTINUOUS
10
17.7442206640
20
15.2020079022
0
VERTEX
8
0
62
7
6
CONTINUOUS
10
17.7443081487
20
15.2080913131
0
VERTEX
8
0
62
7
6
CONTINUOUS
10
17.7443440676
20
15.2098875368
0
VERTEX
8
0
62
7
6
CONTINUOUS
10
17.7443929101
20
15.2160239839
0
VERTEX
8
0
62
7
6
CONTINUOUS
10
17.7442561793
20
15.2209984386
0
VERTEX
8
0
62
7
6
CONTINUOUS
10
17.7439312729
20
15.2253053322
0
VERTEX
8
0
62
7
6
CONTINUOUS
10
17.7434228207
20
15.2291288133
0
VERTEX
8
0
62
7
6
CONTINUOUS
10
17.7427369245
20
15.2325652914
0
VERTEX
8
0
62
7
6
CONTINUOUS
10
17.7418792888
20
15.2356758283
0
VERTEX
8
0
62
7
6
CONTINUOUS
10
17.7408541556
20
15.2385039423
0
VERTEX
8
0
62
7
6
CONTINUOUS
10
17.7396635582
20
15.2410829256
0
VERTEX
8
0
62
7
6
CONTINUOUS
10
17.7383067650
20
15.2434391668
0
VERTEX
8
0
62
7
6
CONTINUOUS
10
17.7367798788
20
15.2455937090
0
VERTEX
8
0
62
7
6
CONTINUOUS
10
17.7350755859
20
15.2475629542
0
VERTEX
8
0
62
7
6
CONTINUOUS
10
17.7331830514
20
15.2493589484
0
VERTEX
8
0
62
7
6
CONTINUOUS
10
17.7310879540
20
15.2509894772
0
VERTEX
8
0
62
7
6
CONTINUOUS
10
17.7287726338
20
15.2524581086
0
VERTEX
8
0
62
7
6
CONTINUOUS
10
17.7262163194
20
15.2537642558
0
VERTEX
8
0
62
7
6
CONTINUOUS
10
17.7233993509
20
15.2549018873
0
VERTEX
8
0
62
7
6
CONTINUOUS
10
17.7203050390
20
15.2558610272
0
SEQEND
0
POLYLINE
8
0
62
7
6
CONTINUOUS
66
1
70
0
0
VERTEX
8
0
62
7
6
CONTINUOUS
10
17.7995564138
20
15.2092772143
0
VERTEX
8
0
62
7
6
CONTINUOUS
10
17.7996456640
20
15.2020079022
0
VERTEX
8
0
62
7
6
CONTINUOUS
10
17.7996456640
20
15.0549026938
0
SEQEND
0
POLYLINE
8
0
62
7
6
CONTINUOUS
66
1
70
0
0
VERTEX
8
0
62
7
6
CONTINUOUS
10
17.4709695897
20
15.0467639429
0
VERTEX
8
0
62
7
6
CONTINUOUS
10
17.4708696223
20
15.0549026938
0
VERTEX
8
0
62
7
6
CONTINUOUS
10
17.4708696223
20
15.2020079022
0
SEQEND
0
POLYLINE
8
0
62
7
6
CONTINUOUS
66
1
70
0
0
VERTEX
8
0
62
7
6
CONTINUOUS
10
17.1920810806
20
15.2297172772
0
VERTEX
8
0
62
7
6
CONTINUOUS
10
17.1920810806
20
15.0549026938
0
VERTEX
8
0
62
7
6
CONTINUOUS
10
17.1920203908
20
15.0494173637
0
VERTEX
8
0
62
7
6
CONTINUOUS
10
17.1919721511
20
15.0457566845
0
VERTEX
8
0
62
7
6
CONTINUOUS
10
17.1919878267
20
15.0407684926
0
VERTEX
8
0
62
7
6
CONTINUOUS
10
17.1921361033
20
15.0365624831
0
VERTEX
8
0
62
7
6
CONTINUOUS
10
17.1924171080
20
15.0328483368
0
VERTEX
8
0
62
7
6
CONTINUOUS
10
17.1928278891
20
15.0295022940
0
VERTEX
8
0
62
7
6
CONTINUOUS
10
17.1933646185
20
15.0264559644
0
VERTEX
8
0
62
7
6
CONTINUOUS
10
17.1940234541
20
15.0236651459
0
VERTEX
8
0
62
7
6
CONTINUOUS
10
17.1948010506
20
15.0210981342
0
VERTEX
8
0
62
7
6
CONTINUOUS
10
17.1956949235
20
15.0187305445
0
VERTEX
8
0
62
7
6
CONTINUOUS
10
17.1967037288
20
15.0165427712
0
VERTEX
8
0
62
7
6
CONTINUOUS
10
17.1978274839
20
15.0145186687
0
VERTEX
8
0
62
7
6
CONTINUOUS
10
17.1990677346
20
15.0126448523
0
VERTEX
8
0
62
7
6
CONTINUOUS
10
17.2004276725
20
15.0109103363
0
VERTEX
8
0
62
7
6
CONTINUOUS
10
17.2019122000
20
15.0093063583
0
VERTEX
8
0
62
7
6
CONTINUOUS
10
17.2035279466
20
15.0078263037
0
VERTEX
8
0
62
7
6
CONTINUOUS
10
17.2052832385
20
15.0064656776
0
VERTEX
8
0
62
7
6
CONTINUOUS
10
17.2071880309
20
15.0052220888
0
VERTEX
8
0
62
7
6
CONTINUOUS
10
17.2092538124
20
15.0040952259
0
VERTEX
8
0
62
7
6
CONTINUOUS
10
17.2114934942
20
15.0030868156
0
VERTEX
8
0
62
7
6
CONTINUOUS
10
17.2139165943
20
15.0022020904
0
VERTEX
8
0
62
7
6
CONTINUOUS
10
17.2165352473
20
15.0014464438
0
SEQEND
0
LINE
8
0
62
7
6
CONTINUOUS
10
17.2165352473
20
15.0014464438
11
17.2165352473
21
15.0002662355
0
LINE
8
0
62
7
6
CONTINUOUS
10
17.4464144140
20
15.0002662355
11
17.4464144140
21
15.0014464438
0
LINE
8
0
62
7
6
CONTINUOUS
10
17.4464144140
20
15.2558610272
11
17.4464144140
21
15.2570360272
0
LINE
8
0
62
7
6
CONTINUOUS
10
17.5263039973
20
15.2020079022
11
17.5263039973
21
15.0318818605
0
LINE
8
0
62
7
6
CONTINUOUS
10
17.5502144140
20
15.2570360272
11
17.5502144140
21
15.2558610272
0
LINE
8
0
62
7
6
CONTINUOUS
10
17.7203050390
20
15.0002662355
11
17.7203050390
21
15.0014464438
0
LINE
8
0
62
7
6
CONTINUOUS
10
17.7203050390
20
15.2558610272
11
17.7203050390
21
15.2570360272
0
POLYLINE
8
0
62
7
6
CONTINUOUS
66
1
70
0
0
VERTEX
8
0
62
7
6
CONTINUOUS
10
17.8151279556
20
14.7677829022
0
VERTEX
8
0
62
7
6
CONTINUOUS
10
17.8151279556
20
14.8603120688
0
VERTEX
8
0
62
7
6
CONTINUOUS
10
17.8404164973
20
14.8603120688
0
VERTEX
8
0
62
7
6
CONTINUOUS
10
17.8404164973
20
14.8325922772
0
VERTEX
8
0
62
7
6
CONTINUOUS
10
17.8402185806
20
14.8325922772
0
VERTEX
8
0
62
7
6
CONTINUOUS
10
17.8642967056
20
14.8602714438
0
VERTEX
8
0
62
7
6
CONTINUOUS
10
17.8970571223
20
14.8602714438
0
SEQEND
0
LINE
8
0
62
7
6
CONTINUOUS
10
17.8235706640
20
15.2570360272
11
17.8235706640
21
15.2558610272
0
LINE
8
0
62
7
6
CONTINUOUS
10
17.8235706640
20
15.0014464438
11
17.8235706640
21
15.0002662355
0
LINE
8
0
62
7
6
CONTINUOUS
10
17.8811675390
20
15.0002662355
11
17.8811675390
21
15.0014464438
0
LINE
8
0
62
7
6
CONTINUOUS
10
17.8817123306
20
15.2558610272
11
17.8817123306
21
15.2570360272
0
POLYLINE
8
0
62
7
6
CONTINUOUS
66
1
70
0
0
VERTEX
8
0
62
7
6
CONTINUOUS
10
17.9491050390
20
15.2020079022
0
VERTEX
8
0
62
7
6
CONTINUOUS
10
17.9491050390
20
15.0509964438
0
VERTEX
8
0
62
7
6
CONTINUOUS
10
17.9491191414
20
15.0445694491
0
VERTEX
8
0
62
7
6
CONTINUOUS
10
17.9492155994
20
15.0400746844
0
VERTEX
8
0
62
7
6
CONTINUOUS
10
17.9494133150
20
15.0364488191
0
VERTEX
8
0
62
7
6
CONTINUOUS
10
17.9497157977
20
15.0333363376
0
VERTEX
8
0
62
7
6
CONTINUOUS
10
17.9501246109
20
15.0305735084
0
VERTEX
8
0
62
7
6
CONTINUOUS
10
17.9506414845
20
15.0280672382
0
VERTEX
8
0
62
7
6
CONTINUOUS
10
17.9512690695
20
15.0257575420
0
VERTEX
8
0
62
7
6
CONTINUOUS
10
17.9520113613
20
15.0236024117
0
VERTEX
8
0
62
7
6
CONTINUOUS
10
17.9528739999
20
15.0215706601
0
VERTEX
8
0
62
7
6
CONTINUOUS
10
17.9538645084
20
15.0196381578
0
VERTEX
8
0
62
7
6
CONTINUOUS
10
17.9549924873
20
15.0177856966
0
VERTEX
8
0
62
7
6
CONTINUOUS
10
17.9562697748
20
15.0159977006
0
VERTEX
8
0
62
7
6
CONTINUOUS
10
17.9577105839
20
15.0142614046
0
VERTEX
8
0
62
7
6
CONTINUOUS
10
17.9584978213
20
15.0134088744
0
VERTEX
8
0
62
7
6
CONTINUOUS
10
17.9593316255
20
15.0125662989
0
VERTEX
8
0
62
7
6
CONTINUOUS
10
17.9611442674
20
15.0109105428
0
VERTEX
8
0
62
7
6
CONTINUOUS
10
17.9631678818
20
15.0092866280
0
VERTEX
8
0
62
7
6
CONTINUOUS
10
17.9654253188
20
15.0076877344
0
VERTEX
8
0
62
7
6
CONTINUOUS
10
17.9679422729
20
15.0061083266
0
VERTEX
8
0
62
7
6
CONTINUOUS
10
17.9707474649
20
15.0045439283
0
VERTEX
8
0
62
7
6
CONTINUOUS
10
17.9738728696
20
15.0029909332
0
VERTEX
8
0
62
7
6
CONTINUOUS
10
17.9773539973
20
15.0014464438
0
SEQEND
0
LINE
8
0
62
7
6
CONTINUOUS
10
17.9610529556
20
15.2570360272
11
17.9610529556
21
15.2566391522
0
LINE
8
0
62
7
6
CONTINUOUS
10
17.9773539973
20
15.0014464438
11
17.9773539973
21
15.0002662355
0
POLYLINE
8
0
62
7
6
CONTINUOUS
66
1
70
0
0
VERTEX
8
0
62
7
6
CONTINUOUS
10
17.9854821223
20
14.7677829022
0
VERTEX
8
0
62
7
6
CONTINUOUS
10
17.9854821223
20
14.8603120688
0
VERTEX
8
0
62
7
6
CONTINUOUS
10
18.0107300390
20
14.8603120688
0
VERTEX
8
0
62
7
6
CONTINUOUS
10
18.0107300390
20
14.8278620688
0
VERTEX
8
0
62
7
6
CONTINUOUS
10
18.0362633723
20
14.8278620688
0
VERTEX
8
0
62
7
6
CONTINUOUS
10
18.0362633723
20
14.8603120688
0
VERTEX
8
0
62
7
6
CONTINUOUS
10
18.0615060806
20
14.8603120688
0
SEQEND
0
POLYLINE
8
0
62
7
6
CONTINUOUS
66
1
70
0
0
VERTEX
8
0
62
7
6
CONTINUOUS
10
18.0615060806
20
14.8603120688
0
VERTEX
8
0
62
7
6
CONTINUOUS
10
18.0615060806
20
14.7677829022
0
VERTEX
8
0
62
7
6
CONTINUOUS
10
18.0362633723
20
14.7677829022
0
VERTEX
8
0
62
7
6
CONTINUOUS
10
18.0362633723
20
14.8022068605
0
VERTEX
8
0
62
7
6
CONTINUOUS
10
18.0107300390
20
14.8022068605
0
VERTEX
8
0
62
7
6
CONTINUOUS
10
18.0107300390
20
14.7677829022
0
VERTEX
8
0
62
7
6
CONTINUOUS
10
17.9854821223
20
14.7677829022
0
SEQEND
0
POLYLINE
8
0
62
7
6
CONTINUOUS
66
1
70
0
0
VERTEX
8
0
62
7
6
CONTINUOUS
10
18.0688300390
20
14.7677829022
0
VERTEX
8
0
62
7
6
CONTINUOUS
10
18.0688300390
20
14.8603120688
0
VERTEX
8
0
62
7
6
CONTINUOUS
10
18.0941196223
20
14.8603120688
0
SEQEND
0
POLYLINE
8
0
62
7
6
CONTINUOUS
66
1
70
0
0
VERTEX
8
0
62
7
6
CONTINUOUS
10
18.0941196223
20
14.8603120688
0
VERTEX
8
0
62
7
6
CONTINUOUS
10
18.0941196223
20
14.7914037355
0
VERTEX
8
0
62
7
6
CONTINUOUS
10
18.1225112890
20
14.7914037355
0
VERTEX
8
0
62
7
6
CONTINUOUS
10
18.1225112890
20
14.7677829022
0
SEQEND
0
LINE
8
0
62
7
6
CONTINUOUS
10
18.1292039973
20
14.7677829022
11
18.1292039973
21
14.8603120688
0
LINE
8
0
62
7
6
CONTINUOUS
10
18.1474644140
20
15.2558610272
11
18.1474644140
21
15.2570360272
0
POLYLINE
8
0
62
7
6
CONTINUOUS
66
1
70
0
0
VERTEX
8
0
62
7
6
CONTINUOUS
10
18.1805248306
20
14.8603120688
0
VERTEX
8
0
62
7
6
CONTINUOUS
10
18.1805248306
20
14.8389808188
0
VERTEX
8
0
62
7
6
CONTINUOUS
10
18.1551237890
20
14.8389401938
0
VERTEX
8
0
62
7
6
CONTINUOUS
10
18.1550123306
20
14.8243422772
0
VERTEX
8
0
62
7
6
CONTINUOUS
10
18.1784904556
20
14.8243422772
0
VERTEX
8
0
62
7
6
CONTINUOUS
10
18.1784904556
20
14.8036110272
0
VERTEX
8
0
62
7
6
CONTINUOUS
10
18.1550831640
20
14.8036110272
0
VERTEX
8
0
62
7
6
CONTINUOUS
10
18.1550831640
20
14.7894912355
0
VERTEX
8
0
62
7
6
CONTINUOUS
10
18.1807185806
20
14.7894912355
0
VERTEX
8
0
62
7
6
CONTINUOUS
10
18.1807185806
20
14.7677829022
0
SEQEND
0
LINE
8
0
62
7
6
CONTINUOUS
10
18.1874019140
20
14.7678443605
11
18.1874019140
21
14.8603120688
0
LINE
8
0
62
7
6
CONTINUOUS
10
18.2121008723
20
14.8388787355
11
18.2121008723
21
14.8210568605
0
LINE
8
0
62
7
6
CONTINUOUS
10
18.2121414973
20
14.7961745688
11
18.2121414973
21
14.7678443605
0
LINE
8
0
62
7
6
CONTINUOUS
10
18.2431164973
20
15.2570360272
11
18.2431164973
21
15.2558610272
0
POLYLINE
8
0
62
7
6
CONTINUOUS
66
1
70
0
0
VERTEX
8
0
62
7
6
CONTINUOUS
10
18.1757237890
20
15.0587985272
0
VERTEX
8
0
62
7
6
CONTINUOUS
10
18.1757243441
20
15.2083605341
0
VERTEX
8
0
62
7
6
CONTINUOUS
10
18.1756969225
20
15.2141980823
0
VERTEX
8
0
62
7
6
CONTINUOUS
10
18.1755804411
20
15.2184217095
0
VERTEX
8
0
62
7
6
CONTINUOUS
10
18.1753633494
20
15.2218899572
0
VERTEX
8
0
62
7
6
CONTINUOUS
10
18.1750430992
20
15.2248921663
0
VERTEX
8
0
62
7
6
CONTINUOUS
10
18.1746183604
20
15.2275696856
0
VERTEX
8
0
62
7
6
CONTINUOUS
10
18.1740874577
20
15.2300055659
0
VERTEX
8
0
62
7
6
CONTINUOUS
10
18.1734477403
20
15.2322544556
0
VERTEX
8
0
62
7
6
CONTINUOUS
10
18.1726952047
20
15.2343551740
0
VERTEX
8
0
62
7
6
CONTINUOUS
10
18.1718242166
20
15.2363368222
0
VERTEX
8
0
62
7
6
CONTINUOUS
10
18.1708272891
20
15.2382220583
0
VERTEX
8
0
62
7
6
CONTINUOUS
10
18.1696949000
20
15.2400289834
0
VERTEX
8
0
62
7
6
CONTINUOUS
10
18.1684153412
20
15.2417722906
0
VERTEX
8
0
62
7
6
CONTINUOUS
10
18.1669745908
20
15.2434640060
0
VERTEX
8
0
62
7
6
CONTINUOUS
10
18.1661882548
20
15.2442941527
0
VERTEX
8
0
62
7
6
CONTINUOUS
10
18.1653561971
20
15.2451139922
0
VERTEX
8
0
62
7
6
CONTINUOUS
10
18.1635497716
20
15.2467231336
0
VERTEX
8
0
62
7
6
CONTINUOUS
10
18.1615356211
20
15.2482991190
0
VERTEX
8
0
62
7
6
CONTINUOUS
10
18.1592913428
20
15.2498482159
0
VERTEX
8
0
62
7
6
CONTINUOUS
10
18.1567917770
20
15.2513754281
0
VERTEX
8
0
62
7
6
CONTINUOUS
10
18.1540088324
20
15.2528847059
0
VERTEX
8
0
62
7
6
CONTINUOUS
10
18.1509112662
20
15.2543791230
0
VERTEX
8
0
62
7
6
CONTINUOUS
10
18.1474644140
20
15.2558610272
0
SEQEND
0
POLYLINE
8
0
62
7
6
CONTINUOUS
66
1
70
0
0
VERTEX
8
0
62
7
6
CONTINUOUS
10
17.4708696223
20
15.2020079022
0
VERTEX
8
0
62
7
6
CONTINUOUS
10
17.4709650636
20
15.2098939737
0
VERTEX
8
0
62
7
6
CONTINUOUS
10
17.4709670031
20
15.2158999563
0
VERTEX
8
0
62
7
6
CONTINUOUS
10
17.4707871808
20
15.2208378323
0
VERTEX
8
0
62
7
6
CONTINUOUS
10
17.4704219709
20
15.2251379758
0
VERTEX
8
0
62
7
6
CONTINUOUS
10
17.4698753633
20
15.2289679851
0
VERTEX
8
0
62
7
6
CONTINUOUS
10
17.4691530604
20
15.2324176480
0
VERTEX
8
0
62
7
6
CONTINUOUS
10
17.4682604949
20
15.2355446993
0
VERTEX
8
0
62
7
6
CONTINUOUS
10
17.4672017293
20
15.2383907309
0
VERTEX
8
0
62
7
6
CONTINUOUS
10
17.4659787043
20
15.2409878074
0
VERTEX
8
0
62
7
6
CONTINUOUS
10
17.4645906896
20
15.2433614849
0
VERTEX
8
0
62
7
6
CONTINUOUS
10
17.4630338920
20
15.2455322243
0
VERTEX
8
0
62
7
6
CONTINUOUS
10
17.4613012129
20
15.2475160243
0
VERTEX
8
0
62
7
6
CONTINUOUS
10
17.4593821480
20
15.2493246682
0
VERTEX
8
0
62
7
6
CONTINUOUS
10
17.4572628205
20
15.2509657999
0
VERTEX
8
0
62
7
6
CONTINUOUS
10
17.4549261249
20
15.2524429516
0
VERTEX
8
0
62
7
6
CONTINUOUS
10
17.4523519471
20
15.2537555948
0
VERTEX
8
0
62
7
6
CONTINUOUS
10
17.4509687744
20
15.2543489681
0
VERTEX
8
0
62
7
6
CONTINUOUS
10
17.4495195166
20
15.2548985016
0
VERTEX
8
0
62
7
6
CONTINUOUS
10
17.4464144140
20
15.2558610272
0
SEQEND
0
POLYLINE
8
0
62
7
6
CONTINUOUS
66
1
70
0
0
VERTEX
8
0
62
7
6
CONTINUOUS
10
17.7996456640
20
15.0549026938
0
VERTEX
8
0
62
7
6
CONTINUOUS
10
17.7995604260
20
15.0479360369
0
VERTEX
8
0
62
7
6
CONTINUOUS
10
17.7995365763
20
15.0417733433
0
VERTEX
8
0
62
7
6
CONTINUOUS
10
17.7996927941
20
15.0367563912
0
VERTEX
8
0
62
7
6
CONTINUOUS
10
17.8000347883
20
15.0323991780
0
VERTEX
8
0
62
7
6
CONTINUOUS
10
17.8005588672
20
15.0285229255
0
VERTEX
8
0
62
7
6
CONTINUOUS
10
17.8012591818
20
15.0250344346
0
VERTEX
8
0
62
7
6
CONTINUOUS
10
17.8021299383
20
15.0218746228
0
VERTEX
8
0
62
7
6
CONTINUOUS
10
17.8031665769
20
15.0190012019
0
VERTEX
8
0
62
7
6
CONTINUOUS
10
17.8043665632
20
15.0163816189
0
VERTEX
8
0
62
7
6
CONTINUOUS
10
17.8057299647
20
15.0139898773
0
VERTEX
8
0
62
7
6
CONTINUOUS
10
17.8072598639
20
15.0118050646
0
VERTEX
8
0
62
7
6
CONTINUOUS
10
17.8089626229
20
15.0098107010
0
VERTEX
8
0
62
7
6
CONTINUOUS
10
17.8108480031
20
15.0079944943
0
VERTEX
8
0
62
7
6
CONTINUOUS
10
17.8129291476
20
15.0063482788
0
VERTEX
8
0
62
7
6
CONTINUOUS
10
17.8152224478
20
15.0048680053
0
VERTEX
8
0
62
7
6
CONTINUOUS
10
17.8177473268
20
15.0035537113
0
VERTEX
8
0
62
7
6
CONTINUOUS
10
17.8191041447
20
15.0029596263
0
VERTEX
8
0
62
7
6
CONTINUOUS
10
17.8205259765
20
15.0024094332
0
VERTEX
8
0
62
7
6
CONTINUOUS
10
17.8235706640
20
15.0014464438
0
SEQEND
0
POLYLINE
8
0
62
7
6
CONTINUOUS
66
1
70
0
0
VERTEX
8
0
62
7
6
CONTINUOUS
10
17.8849008723
20
14.8148308188
0
VERTEX
8
0
62
7
6
CONTINUOUS
10
17.8849434927
20
14.8171435854
0
VERTEX
8
0
62
7
6
CONTINUOUS
10
17.8850935321
20
14.8194424001
0
VERTEX
8
0
62
7
6
CONTINUOUS
10
17.8853503966
20
14.8217242556
0
VERTEX
8
0
62
7
6
CONTINUOUS
10
17.8857134176
20
14.8239859182
0
VERTEX
8
0
62
7
6
CONTINUOUS
10
17.8861818184
20
14.8262239260
0
VERTEX
8
0
62
7
6
CONTINUOUS
10
17.8867546793
20
14.8284345924
0
VERTEX
8
0
62
7
6
CONTINUOUS
10
17.8874309042
20
14.8306140157
0
VERTEX
8
0
62
7
6
CONTINUOUS
10
17.8882091877
20
14.8327580949
0
VERTEX
8
0
62
7
6
CONTINUOUS
10
17.8890879858
20
14.8348625530
0
VERTEX
8
0
62
7
6
CONTINUOUS
10
17.8900654904
20
14.8369229663
0
VERTEX
8
0
62
7
6
CONTINUOUS
10
17.8911396101
20
14.8389348004
0
VERTEX
8
0
62
7
6
CONTINUOUS
10
17.8923079563
20
14.8408934518
0
VERTEX
8
0
62
7
6
CONTINUOUS
10
17.8935678386
20
14.8427942933
0
VERTEX
8
0
62
7
6
CONTINUOUS
10
17.8949162679
20
14.8446327236
0
VERTEX
8
0
62
7
6
CONTINUOUS
10
17.8963499682
20
14.8464042168
0
VERTEX
8
0
62
7
6
CONTINUOUS
10
17.8966317367
20
14.8467328834
0
VERTEX
8
0
62
7
6
CONTINUOUS
10
17.8981615274
20
14.8484182157
0
VERTEX
8
0
62
7
6
CONTINUOUS
10
17.8997673512
20
14.8500262236
0
VERTEX
8
0
62
7
6
CONTINUOUS
10
17.9014450876
20
14.8515531366
0
VERTEX
8
0
62
7
6
CONTINUOUS
10
17.9031905065
20
14.8529954641
0
VERTEX
8
0
62
7
6
CONTINUOUS
10
17.9049993171
20
14.8543500147
0
VERTEX
8
0
62
7
6
CONTINUOUS
10
17.9068672159
20
14.8556139063
0
VERTEX
8
0
62
7
6
CONTINUOUS
10
17.9087899336
20
14.8567845668
0
VERTEX
8
0
62
7
6
CONTINUOUS
10
17.9107632793
20
14.8578597266
0
VERTEX
8
0
62
7
6
CONTINUOUS
10
17.9127831788
20
14.8588374033
0
VERTEX
8
0
62
7
6
CONTINUOUS
10
17.9148457089
20
14.8597158789
0
VERTEX
8
0
62
7
6
CONTINUOUS
10
17.9169471237
20
14.8604936732
0
VERTEX
8
0
62
7
6
CONTINUOUS
10
17.9190838763
20
14.8611695113
0
VERTEX
8
0
62
7
6
CONTINUOUS
10
17.9212526323
20
14.8617422901
0
VERTEX
8
0
62
7
6
CONTINUOUS
10
17.9234502783
20
14.8622110422
0
VERTEX
8
0
62
7
6
CONTINUOUS
10
17.9256739235
20
14.8625749001
0
VERTEX
8
0
62
7
6
CONTINUOUS
10
17.9279208971
20
14.8628330618
0
VERTEX
8
0
62
7
6
CONTINUOUS
10
17.9301887401
20
14.8629847571
0
VERTEX
8
0
62
7
6
CONTINUOUS
10
17.9324751942
20
14.8630292171
0
VERTEX
8
0
62
7
6
CONTINUOUS
10
17.9347549324
20
14.8629660167
0
VERTEX
8
0
62
7
6
CONTINUOUS
10
17.9370190684
20
14.8627955998
0
VERTEX
8
0
62
7
6
CONTINUOUS
10
17.9392652021
20
14.8625185810
0
VERTEX
8
0
62
7
6
CONTINUOUS
10
17.9414907083
20
14.8621355919
0
VERTEX
8
0
62
7
6
CONTINUOUS
10
17.9436927257
20
14.8616473158
0
VERTEX
8
0
62
7
6
CONTINUOUS
10
17.9458681500
20
14.8610545248
0
VERTEX
8
0
62
7
6
CONTINUOUS
10
17.9480136323
20
14.8603581180
0
VERTEX
8
0
62
7
6
CONTINUOUS
10
17.9501255831
20
14.8595591606
0
VERTEX
8
0
62
7
6
CONTINUOUS
10
17.9522001839
20
14.8586589222
0
VERTEX
8
0
62
7
6
CONTINUOUS
10
17.9542334047
20
14.8576589132
0
VERTEX
8
0
62
7
6
CONTINUOUS
10
17.9562210297
20
14.8565609169
0
VERTEX
8
0
62
7
6
CONTINUOUS
10
17.9581586899
20
14.8553670176
0
VERTEX
8
0
62
7
6
CONTINUOUS
10
17.9600419018
20
14.8540796215
0
VERTEX
8
0
62
7
6
CONTINUOUS
10
17.9618661133
20
14.8527014697
0
VERTEX
8
0
62
7
6
CONTINUOUS
10
17.9636267527
20
14.8512356422
0
VERTEX
8
0
62
7
6
CONTINUOUS
10
17.9653192820
20
14.8496855525
0
VERTEX
8
0
62
7
6
CONTINUOUS
10
17.9669392509
20
14.8480549318
0
VERTEX
8
0
62
7
6
CONTINUOUS
10
17.9684823494
20
14.8463478033
0
VERTEX
8
0
62
7
6
CONTINUOUS
10
17.9685199764
20
14.8463040993
0
VERTEX
8
0
62
7
6
CONTINUOUS
10
17.9699790343
20
14.8445242353
0
VERTEX
8
0
62
7
6
CONTINUOUS
10
17.9713522847
20
14.8426781993
0
VERTEX
8
0
62
7
6
CONTINUOUS
10
17.9726363583
20
14.8407707286
0
VERTEX
8
0
62
7
6
CONTINUOUS
10
17.9738282058
20
14.8388066231
0
VERTEX
8
0
62
7
6
CONTINUOUS
10
17.9749251086
20
14.8367906907
0
VERTEX
8
0
62
7
6
CONTINUOUS
10
17.9759246801
20
14.8347276944
0
VERTEX
8
0
62
7
6
CONTINUOUS
10
17.9768248571
20
14.8326223029
0
VERTEX
8
0
62
7
6
CONTINUOUS
10
17.9776238837
20
14.8304790480
0
VERTEX
8
0
62
7
6
CONTINUOUS
10
17.9783202869
20
14.8283022870
0
VERTEX
8
0
62
7
6
CONTINUOUS
10
17.9789128479
20
14.8260961735
0
VERTEX
8
0
62
7
6
CONTINUOUS
10
17.9794005676
20
14.8238646346
0
VERTEX
8
0
62
7
6
CONTINUOUS
10
17.9797826308
20
14.8216113565
0
VERTEX
8
0
62
7
6
CONTINUOUS
10
17.9800583677
20
14.8193397767
0
VERTEX
8
0
62
7
6
CONTINUOUS
10
17.9802272163
20
14.8170530826
0
VERTEX
8
0
62
7
6
CONTINUOUS
10
17.9802886856
20
14.8147542159
0
VERTEX
8
0
62
7
6
CONTINUOUS
10
17.9802424736
20
14.8124421546
0
VERTEX
8
0
62
7
6
CONTINUOUS
10
17.9800888666
20
14.8101442428
0
VERTEX
8
0
62
7
6
CONTINUOUS
10
17.9798284633
20
14.8078634624
0
VERTEX
8
0
62
7
6
CONTINUOUS
10
17.9794619348
20
14.8056030214
0
VERTEX
8
0
62
7
6
CONTINUOUS
10
17.9789900584
20
14.8033663559
0
VERTEX
8
0
62
7
6
CONTINUOUS
10
17.9784137525
20
14.8011571270
0
VERTEX
8
0
62
7
6
CONTINUOUS
10
17.9777341100
20
14.7989792121
0
VERTEX
8
0
62
7
6
CONTINUOUS
10
17.9769524317
20
14.7968366888
0
VERTEX
8
0
62
7
6
CONTINUOUS
10
17.9760702553
20
14.7947338128
0
VERTEX
8
0
62
7
6
CONTINUOUS
10
17.9750893820
20
14.7926749884
0
VERTEX
8
0
62
7
6
CONTINUOUS
10
17.9740118958
20
14.7906647335
0
VERTEX
8
0
62
7
6
CONTINUOUS
10
17.9728401777
20
14.7887076381
0
VERTEX
8
0
62
7
6
CONTINUOUS
10
17.9715769111
20
14.7868083190
0
VERTEX
8
0
62
7
6
CONTINUOUS
10
17.9702250795
20
14.7849713706
0
VERTEX
8
0
62
7
6
CONTINUOUS
10
17.9687879547
20
14.7832013155
0
VERTEX
8
0
62
7
6
CONTINUOUS
10
17.9685199534
20
14.7828895406
0
VERTEX
8
0
62
7
6
CONTINUOUS
10
17.9669873516
20
14.7812047481
0
VERTEX
8
0
62
7
6
CONTINUOUS
10
17.9653786492
20
14.7795972158
0
VERTEX
8
0
62
7
6
CONTINUOUS
10
17.9636979728
20
14.7780707256
0
VERTEX
8
0
62
7
6
CONTINUOUS
10
17.9619495625
20
14.7766287808
0
VERTEX
8
0
62
7
6
CONTINUOUS
10
17.9601377231
20
14.7752745872
0
VERTEX
8
0
62
7
6
CONTINUOUS
10
17.9582667756
20
14.7740110415
0
VERTEX
8
0
62
7
6
CONTINUOUS
10
17.9563410104
20
14.7728407301
0
VERTEX
8
0
62
7
6
CONTINUOUS
10
17.9543646423
20
14.7717659360
0
VERTEX
8
0
62
7
6
CONTINUOUS
10
17.9523417721
20
14.7707886536
0
VERTEX
8
0
62
7
6
CONTINUOUS
10
17.9502763517
20
14.7699106106
0
VERTEX
8
0
62
7
6
CONTINUOUS
10
17.9481721568
20
14.7691332946
0
VERTEX
8
0
62
7
6
CONTINUOUS
10
17.9460327653
20
14.7684579849
0
VERTEX
8
0
62
7
6
CONTINUOUS
10
17.9438615429
20
14.7678857865
0
VERTEX
8
0
62
7
6
CONTINUOUS
10
17.9416616342
20
14.7674176653
0
VERTEX
8
0
62
7
6
CONTINUOUS
10
17.9394359605
20
14.7670544841
0
VERTEX
8
0
62
7
6
CONTINUOUS
10
17.9371872225
20
14.7667970379
0
VERTEX
8
0
62
7
6
CONTINUOUS
10
17.9349179075
20
14.7666460865
0
VERTEX
8
0
62
7
6
CONTINUOUS
10
17.9326303009
20
14.7666023860
0
VERTEX
8
0
62
7
6
CONTINUOUS
10
17.9303378902
20
14.7666664042
0
VERTEX
8
0
62
7
6
CONTINUOUS
10
17.9280609204
20
14.7668376599
0
VERTEX
8
0
62
7
6
CONTINUOUS
10
17.9258020318
20
14.7671155312
0
VERTEX
8
0
62
7
6
CONTINUOUS
10
17.9235640899
20
14.7674993553
0
VERTEX
8
0
62
7
6
CONTINUOUS
10
17.9213501933
20
14.7679883937
0
VERTEX
8
0
62
7
6
CONTINUOUS
10
17.9191636757
20
14.7685817967
0
VERTEX
8
0
62
7
6
CONTINUOUS
10
17.9170081041
20
14.7692785662
0
VERTEX
8
0
62
7
6
CONTINUOUS
10
17.9148872688
20
14.7700775195
0
VERTEX
8
0
62
7
6
CONTINUOUS
10
17.9128051679
20
14.7709772546
0
VERTEX
8
0
62
7
6
CONTINUOUS
10
17.9107659843
20
14.7719761183
0
VERTEX
8
0
62
7
6
CONTINUOUS
10
17.9087740561
20
14.7730721790
0
VERTEX
8
0
62
7
6
CONTINUOUS
10
17.9068338401
20
14.7742632050
0
VERTEX
8
0
62
7
6
CONTINUOUS
10
17.9049498695
20
14.7755466502
0
VERTEX
8
0
62
7
6
CONTINUOUS
10
17.9031267071
20
14.7769196480
0
VERTEX
8
0
62
7
6
CONTINUOUS
10
17.9013688950
20
14.7783790140
0
VERTEX
8
0
62
7
6
CONTINUOUS
10
17.8996809026
20
14.7799212586
0
VERTEX
8
0
62
7
6
CONTINUOUS
10
17.8980670752
20
14.7815426085
0
VERTEX
8
0
62
7
6
CONTINUOUS
10
17.8978767609
20
14.7817442573
0
VERTEX
8
0
62
7
6
CONTINUOUS
10
17.8963521440
20
14.7834482009
0
VERTEX
8
0
62
7
6
CONTINUOUS
10
17.8949111233
20
14.7852211035
0
VERTEX
8
0
62
7
6
CONTINUOUS
10
17.8935571422
20
14.7870584596
0
VERTEX
8
0
62
7
6
CONTINUOUS
10
17.8922933382
20
14.7889556942
0
VERTEX
8
0
62
7
6
CONTINUOUS
10
17.8911225307
20
14.7909082145
0
VERTEX
8
0
62
7
6
CONTINUOUS
10
17.8900472192
20
14.7929114607
0
VERTEX
8
0
62
7
6
CONTINUOUS
10
17.8890695893
20
14.7949609523
0
VERTEX
8
0
62
7
6
CONTINUOUS
10
17.8881915278
20
14.7970523309
0
VERTEX
8
0
62
7
6
CONTINUOUS
10
17.8874146448
20
14.7991813958
0
VERTEX
8
0
62
7
6
CONTINUOUS
10
17.8867403010
20
14.8013441338
0
VERTEX
8
0
62
7
6
CONTINUOUS
10
17.8861696399
20
14.8035367416
0
VERTEX
8
0
62
7
6
CONTINUOUS
10
17.8857036224
20
14.8057556414
0
VERTEX
8
0
62
7
6
CONTINUOUS
10
17.8853430640
20
14.8079974898
0
VERTEX
8
0
62
7
6
CONTINUOUS
10
17.8850886707
20
14.8102591799
0
VERTEX
8
0
62
7
6
CONTINUOUS
10
17.8849410754
20
14.8125378387
0
VERTEX
8
0
62
7
6
CONTINUOUS
10
17.8849008723
20
14.8148308188
0
SEQEND
0
LINE
8
0
62
7
6
CONTINUOUS
10
18.3453810806
20
14.7934787355
11
18.3456456640
21
14.8004881105
0
LINE
8
0
62
7
6
CONTINUOUS
10
18.6115654556
20
15.1298183188
11
18.6088487890
21
15.1130381105
0
LINE
8
0
62
7
6
CONTINUOUS
10
18.4331592056
20
14.7851172772
11
18.4454685806
21
14.8448912355
0
LINE
8
0
62
7
6
CONTINUOUS
10
18.4437185806
20
14.8645235272
11
18.4271883723
21
14.7851172772
0
LINE
8
0
62
7
6
CONTINUOUS
10
16.2703935806
20
15.0057287355
11
16.2546373306
21
15.0545058188
0
POLYLINE
8
0
62
7
6
CONTINUOUS
66
1
70
0
0
VERTEX
8
0
62
7
6
CONTINUOUS
10
18.5534195657
20
15.0860293779
0
VERTEX
8
0
62
7
6
CONTINUOUS
10
18.5533964987
20
15.0900961774
0
VERTEX
8
0
62
7
6
CONTINUOUS
10
18.5533220461
20
15.0933328049
0
VERTEX
8
0
62
7
6
CONTINUOUS
10
18.5531918719
20
15.0961299756
0
VERTEX
8
0
62
7
6
CONTINUOUS
10
18.5530051276
20
15.0986338442
0
VERTEX
8
0
62
7
6
CONTINUOUS
10
18.5527619198
20
15.1009184829
0
VERTEX
8
0
62
7
6
CONTINUOUS
10
18.5524626979
20
15.1030280715
0
VERTEX
8
0
62
7
6
CONTINUOUS
10
18.5521080074
20
15.1049918521
0
VERTEX
8
0
62
7
6
CONTINUOUS
10
18.5516983572
20
15.1068306455
0
VERTEX
8
0
62
7
6
CONTINUOUS
10
18.5512341324
20
15.1085600979
0
VERTEX
8
0
62
7
6
CONTINUOUS
10
18.5507155301
20
15.1101924565
0
VERTEX
8
0
62
7
6
CONTINUOUS
10
18.5501425078
20
15.1117376100
0
VERTEX
8
0
62
7
6
CONTINUOUS
10
18.5495147423
20
15.1132037288
0
VERTEX
8
0
62
7
6
CONTINUOUS
10
18.5488315944
20
15.1145976750
0
VERTEX
8
0
62
7
6
CONTINUOUS
10
18.5480920802
20
15.1159252718
0
VERTEX
8
0
62
7
6
CONTINUOUS
10
18.5472948489
20
15.1171914841
0
VERTEX
8
0
62
7
6
CONTINUOUS
10
18.5464381654
20
15.1184005415
0
VERTEX
8
0
62
7
6
CONTINUOUS
10
18.5455198988
20
15.1195560228
0
VERTEX
8
0
62
7
6
CONTINUOUS
10
18.5445375163
20
15.1206609155
0
VERTEX
8
0
62
7
6
CONTINUOUS
10
18.5434880810
20
15.1217176583
0
VERTEX
8
0
62
7
6
CONTINUOUS
10
18.5423682548
20
15.1227281718
0
VERTEX
8
0
62
7
6
CONTINUOUS
10
18.5411743041
20
15.1236938840
0
VERTEX
8
0
62
7
6
CONTINUOUS
10
18.5399021081
20
15.1246157501
0
VERTEX
8
0
62
7
6
CONTINUOUS
10
18.5385471691
20
15.1254942711
0
VERTEX
8
0
62
7
6
CONTINUOUS
10
18.5378370287
20
15.1259173928
0
VERTEX
8
0
62
7
6
CONTINUOUS
10
18.5371046509
20
15.1263294959
0
VERTEX
8
0
62
7
6
CONTINUOUS
10
18.5355717859
20
15.1271198818
0
VERTEX
8
0
62
7
6
CONTINUOUS
10
18.5339432215
20
15.1278649929
0
VERTEX
8
0
62
7
6
CONTINUOUS
10
18.5322132696
20
15.1285639854
0
VERTEX
8
0
62
7
6
CONTINUOUS
10
18.5303759163
20
15.1292156277
0
VERTEX
8
0
62
7
6
CONTINUOUS
10
18.5284248306
20
15.1298183188
0
SEQEND
0
POLYLINE
8
0
62
7
6
CONTINUOUS
66
1
70
0
0
VERTEX
8
0
62
7
6
CONTINUOUS
10
18.6570675390
20
15.0152349855
0
VERTEX
8
0
62
7
6
CONTINUOUS
10
18.6570728019
20
15.0138770205
0
VERTEX
8
0
62
7
6
CONTINUOUS
10
18.6570378095
20
15.0126066778
0
VERTEX
8
0
62
7
6
CONTINUOUS
10
18.6569650304
20
15.0114173171
0
VERTEX
8
0
62
7
6
CONTINUOUS
10
18.6568566676
20
15.0103028875
0
VERTEX
8
0
62
7
6
CONTINUOUS
10
18.6567146705
20
15.0092578550
0
VERTEX
8
0
62
7
6
CONTINUOUS
10
18.6565407430
20
15.0082771437
0
VERTEX
8
0
62
7
6
CONTINUOUS
10
18.6563363475
20
15.0073560879
0
VERTEX
8
0
62
7
6
CONTINUOUS
10
18.6561027052
20
15.0064903930
0
VERTEX
8
0
62
7
6
CONTINUOUS
10
18.6558407942
20
15.0056761057
0
VERTEX
8
0
62
7
6
CONTINUOUS
10
18.6555513461
20
15.0049095896
0
VERTEX
8
0
62
7
6
CONTINUOUS
10
18.6552348398
20
15.0041875074
0
VERTEX
8
0
62
7
6
CONTINUOUS
10
18.6548914964
20
15.0035068087
0
VERTEX
8
0
62
7
6
CONTINUOUS
10
18.6545212720
20
15.0028647211
0
VERTEX
8
0
62
7
6
CONTINUOUS
10
18.6541238524
20
15.0022587457
0
VERTEX
8
0
62
7
6
CONTINUOUS
10
18.6536986473
20
15.0016866553
0
VERTEX
8
0
62
7
6
CONTINUOUS
10
18.6532447866
20
15.0011464938
0
VERTEX
8
0
62
7
6
CONTINUOUS
10
18.6527611166
20
15.0006365780
0
VERTEX
8
0
62
7
6
CONTINUOUS
10
18.6522471054
20
15.0001562965
0
VERTEX
8
0
62
7
6
CONTINUOUS
10
18.6517015349
20
14.9997046364
0
VERTEX
8
0
62
7
6
CONTINUOUS
10
18.6511226109
20
14.9992805337
0
VERTEX
8
0
62
7
6
CONTINUOUS
10
18.6505082608
20
14.9988832029
0
VERTEX
8
0
62
7
6
CONTINUOUS
10
18.6498561339
20
14.9985121322
0
VERTEX
8
0
62
7
6
CONTINUOUS
10
18.6491636014
20
14.9981670796
0
VERTEX
8
0
62
7
6
CONTINUOUS
10
18.6484277529
20
14.9978480664
0
VERTEX
8
0
62
7
6
CONTINUOUS
10
18.6476453902
20
14.9975553714
0
VERTEX
8
0
62
7
6
CONTINUOUS
10
18.6468130172
20
14.9972895237
0
VERTEX
8
0
62
7
6
CONTINUOUS
10
18.6459268250
20
14.9970512970
0
VERTEX
8
0
62
7
6
CONTINUOUS
10
18.6449826707
20
14.9968417041
0
VERTEX
8
0
62
7
6
CONTINUOUS
10
18.6439760506
20
14.9966619935
0
VERTEX
8
0
62
7
6
CONTINUOUS
10
18.6429020652
20
14.9965136478
0
VERTEX
8
0
62
7
6
CONTINUOUS
10
18.6417553759
20
14.9963983848
0
VERTEX
8
0
62
7
6
CONTINUOUS
10
18.6405301508
20
14.9963181628
0
VERTEX
8
0
62
7
6
CONTINUOUS
10
18.6392199985
20
14.9962751887
0
VERTEX
8
0
62
7
6
CONTINUOUS
10
18.6384691570
20
14.9962683222
0
VERTEX
8
0
62
7
6
CONTINUOUS
10
18.6371266114
20
14.9962870110
0
VERTEX
8
0
62
7
6
CONTINUOUS
10
18.6358708118
20
14.9963444715
0
VERTEX
8
0
62
7
6
CONTINUOUS
10
18.6346951783
20
14.9964383686
0
VERTEX
8
0
62
7
6
CONTINUOUS
10
18.6335937035
20
14.9965666265
0
VERTEX
8
0
62
7
6
CONTINUOUS
10
18.6325608855
20
14.9967274188
0
VERTEX
8
0
62
7
6
CONTINUOUS
10
18.6315916731
20
14.9969191621
0
VERTEX
8
0
62
7
6
CONTINUOUS
10
18.6306814209
20
14.9971405138
0
VERTEX
8
0
62
7
6
CONTINUOUS
10
18.6298258525
20
14.9973903722
0
VERTEX
8
0
62
7
6
CONTINUOUS
10
18.6290210324
20
14.9976678796
0
VERTEX
8
0
62
7
6
CONTINUOUS
10
18.6282633427
20
14.9979724266
0
VERTEX
8
0
62
7
6
CONTINUOUS
10
18.6275494667
20
14.9983036584
0
VERTEX
8
0
62
7
6
CONTINUOUS
10
18.6268763767
20
14.9986614806
0
VERTEX
8
0
62
7
6
CONTINUOUS
10
18.6262413260
20
14.9990460667
0
VERTEX
8
0
62
7
6
CONTINUOUS
10
18.6256418440
20
14.9994578640
0
VERTEX
8
0
62
7
6
CONTINUOUS
10
18.6250757340
20
14.9998975997
0
VERTEX
8
0
62
7
6
CONTINUOUS
10
18.6245410730
20
15.0003662858
0
VERTEX
8
0
62
7
6
CONTINUOUS
10
18.6240366741
20
15.0008647382
0
VERTEX
8
0
62
7
6
CONTINUOUS
10
18.6235617361
20
15.0013936876
0
VERTEX
8
0
62
7
6
CONTINUOUS
10
18.6231149546
20
15.0019547981
0
VERTEX
8
0
62
7
6
CONTINUOUS
10
18.6226953032
20
15.0025500221
0
VERTEX
8
0
62
7
6
CONTINUOUS
10
18.6223020299
20
15.0031816009
0
VERTEX
8
0
62
7
6
CONTINUOUS
10
18.6219346525
20
15.0038520682
0
VERTEX
8
0
62
7
6
CONTINUOUS
10
18.6215929533
20
15.0045642546
0
VERTEX
8
0
62
7
6
CONTINUOUS
10
18.6212769727
20
15.0053212974
0
VERTEX
8
0
62
7
6
CONTINUOUS
10
18.6209870026
20
15.0061266529
0
VERTEX
8
0
62
7
6
CONTINUOUS
10
18.6207235805
20
15.0069841164
0
VERTEX
8
0
62
7
6
CONTINUOUS
10
18.6204874837
20
15.0078978474
0
VERTEX
8
0
62
7
6
CONTINUOUS
10
18.6202797254
20
15.0088724037
0
VERTEX
8
0
62
7
6
CONTINUOUS
10
18.6201015535
20
15.0099127849
0
VERTEX
8
0
62
7
6
CONTINUOUS
10
18.6199544513
20
15.0110244880
0
VERTEX
8
0
62
7
6
CONTINUOUS
10
18.6198401429
20
15.0122135766
0
VERTEX
8
0
62
7
6
CONTINUOUS
10
18.6197606031
20
15.0134867683
0
VERTEX
8
0
62
7
6
CONTINUOUS
10
18.6197180735
20
15.0148515445
0
VERTEX
8
0
62
7
6
CONTINUOUS
10
18.6197140308
20
15.0151548920
0
VERTEX
8
0
62
7
6
CONTINUOUS
10
18.6197247182
20
15.0161605556
0
VERTEX
8
0
62
7
6
CONTINUOUS
10
18.6197769465
20
15.0171386583
0
VERTEX
8
0
62
7
6
CONTINUOUS
10
18.6198696314
20
15.0180896795
0
VERTEX
8
0
62
7
6
CONTINUOUS
10
18.6200017753
20
15.0190140752
0
VERTEX
8
0
62
7
6
CONTINUOUS
10
18.6201724687
20
15.0199122718
0
VERTEX
8
0
62
7
6
CONTINUOUS
10
18.6203808898
20
15.0207846574
0
VERTEX
8
0
62
7
6
CONTINUOUS
10
18.6206263038
20
15.0216315750
0
VERTEX
8
0
62
7
6
CONTINUOUS
10
18.6209080598
20
15.0224533128
0
VERTEX
8
0
62
7
6
CONTINUOUS
10
18.6212255863
20
15.0232500966
0
VERTEX
8
0
62
7
6
CONTINUOUS
10
18.6215783849
20
15.0240220799
0
VERTEX
8
0
62
7
6
CONTINUOUS
10
18.6219660221
20
15.0247693363
0
VERTEX
8
0
62
7
6
CONTINUOUS
10
18.6223881186
20
15.0254918500
0
VERTEX
8
0
62
7
6
CONTINUOUS
10
18.6228443361
20
15.0261895090
0
VERTEX
8
0
62
7
6
CONTINUOUS
10
18.6233343627
20
15.0268620978
0
VERTEX
8
0
62
7
6
CONTINUOUS
10
18.6238578951
20
15.0275092915
0
VERTEX
8
0
62
7
6
CONTINUOUS
10
18.6244146187
20
15.0281306522
0
VERTEX
8
0
62
7
6
CONTINUOUS
10
18.6250041858
20
15.0287256261
0
VERTEX
8
0
62
7
6
CONTINUOUS
10
18.6256261918
20
15.0292935435
0
VERTEX
8
0
62
7
6
CONTINUOUS
10
18.6262801498
20
15.0298336213
0
VERTEX
8
0
62
7
6
CONTINUOUS
10
18.6269654640
20
15.0303449678
0
VERTEX
8
0
62
7
6
CONTINUOUS
10
18.6276814032
20
15.0308265914
0
VERTEX
8
0
62
7
6
CONTINUOUS
10
18.6284270735
20
15.0312774119
0
VERTEX
8
0
62
7
6
CONTINUOUS
10
18.6292013932
20
15.0316962757
0
VERTEX
8
0
62
7
6
CONTINUOUS
10
18.6300030694
20
15.0320819746
0
VERTEX
8
0
62
7
6
CONTINUOUS
10
18.6308305777
20
15.0324332682
0
VERTEX
8
0
62
7
6
CONTINUOUS
10
18.6316821474
20
15.0327489091
0
VERTEX
8
0
62
7
6
CONTINUOUS
10
18.6325557518
20
15.0330276714
0
VERTEX
8
0
62
7
6
CONTINUOUS
10
18.6334491060
20
15.0332683809
0
VERTEX
8
0
62
7
6
CONTINUOUS
10
18.6343596729
20
15.0334699463
0
VERTEX
8
0
62
7
6
CONTINUOUS
10
18.6352846784
20
15.0336313909
0
VERTEX
8
0
62
7
6
CONTINUOUS
10
18.6362211347
20
15.0337518817
0
VERTEX
8
0
62
7
6
CONTINUOUS
10
18.6371658743
20
15.0338307566
0
VERTEX
8
0
62
7
6
CONTINUOUS
10
18.6381155903
20
15.0338675464
0
VERTEX
8
0
62
7
6
CONTINUOUS
10
18.6387635250
20
15.0338683691
0
VERTEX
8
0
62
7
6
CONTINUOUS
10
18.6397127828
20
15.0338340053
0
VERTEX
8
0
62
7
6
CONTINUOUS
10
18.6406566488
20
15.0337575834
0
VERTEX
8
0
62
7
6
CONTINUOUS
10
18.6415918319
20
15.0336395860
0
VERTEX
8
0
62
7
6
CONTINUOUS
10
18.6425151860
20
15.0334806866
0
VERTEX
8
0
62
7
6
CONTINUOUS
10
18.6434237504
20
15.0332817276
0
VERTEX
8
0
62
7
6
CONTINUOUS
10
18.6443147814
20
15.0330436931
0
VERTEX
8
0
62
7
6
CONTINUOUS
10
18.6451857761
20
15.0327676784
0
VERTEX
8
0
62
7
6
CONTINUOUS
10
18.6460344856
20
15.0324548595
0
VERTEX
8
0
62
7
6
CONTINUOUS
10
18.6468589198
20
15.0321064608
0
VERTEX
8
0
62
7
6
CONTINUOUS
10
18.6476573449
20
15.0317237259
0
VERTEX
8
0
62
7
6
CONTINUOUS
10
18.6484282727
20
15.0313078884
0
VERTEX
8
0
62
7
6
CONTINUOUS
10
18.6491704442
20
15.0308601474
0
VERTEX
8
0
62
7
6
CONTINUOUS
10
18.6498828100
20
15.0303816451
0
VERTEX
8
0
62
7
6
CONTINUOUS
10
18.6505645055
20
15.0298734483
0
VERTEX
8
0
62
7
6
CONTINUOUS
10
18.6512148255
20
15.0293365335
0
VERTEX
8
0
62
7
6
CONTINUOUS
10
18.6518331972
20
15.0287717756
0
VERTEX
8
0
62
7
6
CONTINUOUS
10
18.6524191529
20
15.0281799395
0
VERTEX
8
0
62
7
6
CONTINUOUS
10
18.6529723034
20
15.0275616759
0
VERTEX
8
0
62
7
6
CONTINUOUS
10
18.6534923130
20
15.0269175185
0
VERTEX
8
0
62
7
6
CONTINUOUS
10
18.6539788754
20
15.0262478847
0
VERTEX
8
0
62
7
6
CONTINUOUS
10
18.6544316917
20
15.0255530782
0
VERTEX
8
0
62
7
6
CONTINUOUS
10
18.6548504512
20
15.0248332936
0
VERTEX
8
0
62
7
6
CONTINUOUS
10
18.6552348138
20
15.0240886216
0
VERTEX
8
0
62
7
6
CONTINUOUS
10
18.6555843951
20
15.0233190570
0
VERTEX
8
0
62
7
6
CONTINUOUS
10
18.6558987534
20
15.0225245058
0
VERTEX
8
0
62
7
6
CONTINUOUS
10
18.6561773799
20
15.0217047942
0
VERTEX
8
0
62
7
6
CONTINUOUS
10
18.6564196906
20
15.0208596771
0
VERTEX
8
0
62
7
6
CONTINUOUS
10
18.6566250195
20
15.0199888475
0
VERTEX
8
0
62
7
6
CONTINUOUS
10
18.6567926153
20
15.0190919446
0
VERTEX
8
0
62
7
6
CONTINUOUS
10
18.6569216383
20
15.0181685631
0
VERTEX
8
0
62
7
6
CONTINUOUS
10
18.6570111597
20
15.0172182607
0
VERTEX
8
0
62
7
6
CONTINUOUS
10
18.6570601617
20
15.0162405660
0
VERTEX
8
0
62
7
6
CONTINUOUS
10
18.6570691261
20
15.0157412654
0
VERTEX
8
0
62
7
6
CONTINUOUS
10
18.6570675390
20
15.0152349855
0
SEQEND
0
LINE
8
0
62
7
6
CONTINUOUS
10
18.3456456640
20
14.8004881105
11
18.3456456640
21
14.8024006105
0
LINE
8
0
62
7
6
CONTINUOUS
10
18.3456456640
20
14.8426631105
11
18.3456456640
21
14.8510651938
0
LINE
8
0
62
7
6
CONTINUOUS
10
18.5216404556
20
14.7851172772
11
18.5216404556
21
14.8604141522
0
LINE
8
0
62
7
6
CONTINUOUS
10
18.5277331640
20
14.8546162355
11
18.5277331640
21
14.8259704022
0
LINE
8
0
62
7
6
CONTINUOUS
10
18.5277331640
20
14.8201818605
11
18.5277331640
21
14.7851172772
0
LINE
8
0
62
7
6
CONTINUOUS
10
18.5284248306
20
15.1298183188
11
18.5284248306
21
15.1309829022
0
LINE
8
0
62
7
6
CONTINUOUS
10
18.5534196223
20
15.0295318605
11
18.5534195657
21
15.0860293779
0
LINE
8
0
62
7
6
CONTINUOUS
10
18.5702644140
20
15.2566391522
11
18.5702644140
21
15.2117631105
0
LINE
8
0
62
7
6
CONTINUOUS
10
18.6088487890
20
15.1130381105
11
18.6088487890
21
15.0232912355
0
LINE
8
0
62
7
6
CONTINUOUS
10
18.6115654556
20
15.1309829022
11
18.6115654556
21
15.1298183188
0
LINE
8
0
62
7
6
CONTINUOUS
10
18.6141800390
20
14.8623776938
11
18.6141800390
21
14.7851172772
0
LINE
8
0
62
7
6
CONTINUOUS
10
18.6202529556
20
14.7851172772
11
18.6202529556
21
14.8475360272
0
LINE
8
0
62
7
6
CONTINUOUS
10
18.6315446223
20
15.0042329022
11
18.6315446223
21
15.0253058188
0
LINE
8
0
62
7
6
CONTINUOUS
10
18.6349008723
20
15.0230370688
11
18.6349008723
21
15.0159058188
0
LINE
8
0
62
7
6
CONTINUOUS
10
18.6349008723
20
15.0133068605
11
18.6349008723
21
15.0042329022
0
LINE
8
0
62
7
6
CONTINUOUS
10
18.6418696223
20
15.0147308188
11
18.6418696223
21
15.0145631105
0
LINE
8
0
62
7
6
CONTINUOUS
10
18.6762425390
20
14.8604141522
11
18.6762425390
21
14.7968964438
0
LINE
8
0
62
7
6
CONTINUOUS
10
18.6823154556
20
14.7816079022
11
18.6823154556
21
14.8604141522
0
LINE
8
0
62
7
6
CONTINUOUS
10
18.6972894140
20
15.3146881105
11
18.6972894140
21
14.9425568605
0
LINE
8
0
62
7
6
CONTINUOUS
10
18.7023352473
20
15.3197235272
11
18.7023352473
21
14.9375214438
0
LINE
8
0
62
7
6
CONTINUOUS
10
18.7172779556
20
14.7851172772
11
18.7172779556
21
14.8173745688
0
LINE
8
0
62
7
6
CONTINUOUS
10
18.7112967056
20
14.8170079022
11
18.7111852473
21
14.7851172772
0
POLYLINE
8
0
62
7
6
CONTINUOUS
66
1
70
0
0
VERTEX
8
0
62
7
6
CONTINUOUS
10
16.7877581640
20
15.2133193605
0
VERTEX
8
0
62
7
6
CONTINUOUS
10
16.7869556852
20
15.2147235641
0
VERTEX
8
0
62
7
6
CONTINUOUS
10
16.7860349424
20
15.2160602808
0
VERTEX
8
0
62
7
6
CONTINUOUS
10
16.7849921198
20
15.2173339147
0
VERTEX
8
0
62
7
6
CONTINUOUS
10
16.7838218284
20
15.2185478391
0
VERTEX
8
0
62
7
6
CONTINUOUS
10
16.7825172037
20
15.2197043592
0
VERTEX
8
0
62
7
6
CONTINUOUS
10
16.7810700098
20
15.2208047033
0
VERTEX
8
0
62
7
6
CONTINUOUS
10
16.7794707439
20
15.2218490401
0
VERTEX
8
0
62
7
6
CONTINUOUS
10
16.7777087270
20
15.2228365204
0
VERTEX
8
0
62
7
6
CONTINUOUS
10
16.7757721728
20
15.2237653377
0
VERTEX
8
0
62
7
6
CONTINUOUS
10
16.7736482215
20
15.2246328045
0
VERTEX
8
0
62
7
6
CONTINUOUS
10
16.7713229243
20
15.2254354394
0
VERTEX
8
0
62
7
6
CONTINUOUS
10
16.7687811535
20
15.2261690640
0
VERTEX
8
0
62
7
6
CONTINUOUS
10
16.7660063974
20
15.2268289082
0
VERTEX
8
0
62
7
6
CONTINUOUS
10
16.7629803614
20
15.2274097248
0
VERTEX
8
0
62
7
6
CONTINUOUS
10
16.7596822212
20
15.2279059186
0
VERTEX
8
0
62
7
6
CONTINUOUS
10
16.7560872064
20
15.2283116953
0
VERTEX
8
0
62
7
6
CONTINUOUS
10
16.7521637727
20
15.2286212417
0
VERTEX
8
0
62
7
6
CONTINUOUS
10
16.7478674765
20
15.2288289546
0
VERTEX
8
0
62
7
6
CONTINUOUS
10
16.7431258930
20
15.2289297441
0
VERTEX
8
0
62
7
6
CONTINUOUS
10
16.7410258723
20
15.2289391522
0
VERTEX
8
0
62
7
6
CONTINUOUS
10
16.6921060806
20
15.2289391522
0
SEQEND
0
POLYLINE
8
0
62
7
6
CONTINUOUS
66
1
70
0
0
VERTEX
8
0
62
7
6
CONTINUOUS
10
17.7477196223
20
14.8639943605
0
VERTEX
8
0
62
7
6
CONTINUOUS
10
17.7795852473
20
14.7851172772
0
VERTEX
8
0
62
7
6
CONTINUOUS
10
17.7733998306
20
14.7851172772
0
VERTEX
8
0
62
7
6
CONTINUOUS
10
17.7638685806
20
14.8093787355
0
SEQEND
0
LINE
8
0
62
7
6
CONTINUOUS
10
17.7610508723
20
14.8151870688
11
17.7477196223
21
14.8483287355
0
LINE
8
0
62
7
6
CONTINUOUS
10
18.5150487890
20
14.7851172772
11
18.4985383723
21
14.8645235272
0
LINE
8
0
62
7
6
CONTINUOUS
10
18.4967685806
20
14.8448912355
11
18.5091279556
21
14.7851172772
0
LINE
8
0
62
7
6
CONTINUOUS
10
18.6088487890
20
15.0232912355
11
18.6115654556
21
15.0057287355
0
POLYLINE
8
0
62
7
6
CONTINUOUS
66
1
70
0
0
VERTEX
8
0
62
7
6
CONTINUOUS
10
16.2546373306
20
15.0545058188
0
VERTEX
8
0
62
7
6
CONTINUOUS
10
16.2609414253
20
15.0509562855
0
VERTEX
8
0
62
7
6
CONTINUOUS
10
16.2676682781
20
15.0474762305
0
VERTEX
8
0
62
7
6
CONTINUOUS
10
16.2747644450
20
15.0441068814
0
VERTEX
8
0
62
7
6
CONTINUOUS
10
16.2772112226
20
15.0430110162
0
VERTEX
8
0
62
7
6
CONTINUOUS
10
16.2846775145
20
15.0398614695
0
VERTEX
8
0
62
7
6
CONTINUOUS
10
16.2923338187
20
15.0369189457
0
VERTEX
8
0
62
7
6
CONTINUOUS
10
16.3001173172
20
15.0342089759
0
VERTEX
8
0
62
7
6
CONTINUOUS
10
16.3079690001
20
15.0317516817
0
VERTEX
8
0
62
7
6
CONTINUOUS
10
16.3158349992
20
15.0295619399
0
VERTEX
8
0
62
7
6
CONTINUOUS
10
16.3236673743
20
15.0276497858
0
VERTEX
8
0
62
7
6
CONTINUOUS
10
16.3314244382
20
15.0260209648
0
VERTEX
8
0
62
7
6
CONTINUOUS
10
16.3390707262
20
15.0246775551
0
VERTEX
8
0
62
7
6
CONTINUOUS
10
16.3465767160
20
15.0236186034
0
VERTEX
8
0
62
7
6
CONTINUOUS
10
16.3539183876
20
15.0228407326
0
VERTEX
8
0
62
7
6
CONTINUOUS
10
16.3610766965
20
15.0223387016
0
VERTEX
8
0
62
7
6
CONTINUOUS
10
16.3680370123
20
15.0221059019
0
VERTEX
8
0
62
7
6
CONTINUOUS
10
16.3747885592
20
15.0221347925
0
VERTEX
8
0
62
7
6
CONTINUOUS
10
16.3813238814
20
15.0224172717
0
VERTEX
8
0
62
7
6
CONTINUOUS
10
16.3876383454
20
15.0229449944
0
VERTEX
8
0
62
7
6
CONTINUOUS
10
16.3937296858
20
15.0237096381
0
VERTEX
8
0
62
7
6
CONTINUOUS
10
16.3995975957
20
15.0247031277
0
VERTEX
8
0
62
7
6
CONTINUOUS
10
16.4052433595
20
15.0259178226
0
VERTEX
8
0
62
7
6
CONTINUOUS
10
16.4106695251
20
15.0273466722
0
VERTEX
8
0
62
7
6
CONTINUOUS
10
16.4158796109
20
15.0289833453
0
VERTEX
8
0
62
7
6
CONTINUOUS
10
16.4208778451
20
15.0308223360
0
VERTEX
8
0
62
7
6
CONTINUOUS
10
16.4256689305
20
15.0328590490
0
VERTEX
8
0
62
7
6
CONTINUOUS
10
16.4296067010
20
15.0347917212
0
VERTEX
8
0
62
7
6
CONTINUOUS
10
16.4331480562
20
15.0368109162
0
VERTEX
8
0
62
7
6
CONTINUOUS
10
16.4363103361
20
15.0389045597
0
VERTEX
8
0
62
7
6
CONTINUOUS
10
16.4391109993
20
15.0410618862
0
VERTEX
8
0
62
7
6
CONTINUOUS
10
16.4415673037
20
15.0432736145
0
VERTEX
8
0
62
7
6
CONTINUOUS
10
16.4436959241
20
15.0455320898
0
VERTEX
8
0
62
7
6
CONTINUOUS
10
16.4455125161
20
15.0478313724
0
VERTEX
8
0
62
7
6
CONTINUOUS
10
16.4470312416
20
15.0501672514
0
VERTEX
8
0
62
7
6
CONTINUOUS
10
16.4482642817
20
15.0525371622
0
VERTEX
8
0
62
7
6
CONTINUOUS
10
16.4492213717
20
15.0549399907
0
VERTEX
8
0
62
7
6
CONTINUOUS
10
16.4499087748
20
15.0573729746
0
VERTEX
8
0
62
7
6
CONTINUOUS
10
16.4503305915
20
15.0598318857
0
VERTEX
8
0
62
7
6
CONTINUOUS
10
16.4504897927
20
15.0623174432
0
VERTEX
8
0
62
7
6
CONTINUOUS
10
16.4503861587
20
15.0648303776
0
VERTEX
8
0
62
7
6
CONTINUOUS
10
16.4500164293
20
15.0673708480
0
VERTEX
8
0
62
7
6
CONTINUOUS
10
16.4493746533
20
15.0699378746
0
VERTEX
8
0
62
7
6
CONTINUOUS
10
16.4484527174
20
15.0725288305
0
VERTEX
8
0
62
7
6
CONTINUOUS
10
16.4472410182
20
15.0751390341
0
VERTEX
8
0
62
7
6
CONTINUOUS
10
16.4457292284
20
15.0777614692
0
VERTEX
8
0
62
7
6
CONTINUOUS
10
16.4439071019
20
15.0803866493
0
VERTEX
8
0
62
7
6
CONTINUOUS
10
16.4417652641
20
15.0830026319
0
VERTEX
8
0
62
7
6
CONTINUOUS
10
16.4392959303
20
15.0855951774
0
VERTEX
8
0
62
7
6
CONTINUOUS
10
16.4364935079
20
15.0881480374
0
VERTEX
8
0
62
7
6
CONTINUOUS
10
16.4333550421
20
15.0906433489
0
VERTEX
8
0
62
7
6
CONTINUOUS
10
16.4298804824
20
15.0930621009
0
VERTEX
8
0
62
7
6
CONTINUOUS
10
16.4260727632
20
15.0953846378
0
VERTEX
8
0
62
7
6
CONTINUOUS
10
16.4224564213
20
15.0973303738
0
VERTEX
8
0
62
7
6
CONTINUOUS
10
16.4161771008
20
15.1003708354
0
VERTEX
8
0
62
7
6
CONTINUOUS
10
16.4094476692
20
15.1033446473
0
VERTEX
8
0
62
7
6
CONTINUOUS
10
16.4021418119
20
15.1062952042
0
VERTEX
8
0
62
7
6
CONTINUOUS
10
16.3940505245
20
15.1092920823
0
VERTEX
8
0
62
7
6
CONTINUOUS
10
16.3847731026
20
15.1124666343
0
VERTEX
8
0
62
7
6
CONTINUOUS
10
16.3733043372
20
15.1161470455
0
VERTEX
8
0
62
7
6
CONTINUOUS
10
16.3592192131
20
15.1205445890
0
VERTEX
8
0
62
7
6
CONTINUOUS
10
16.3478897631
20
15.1241887490
0
VERTEX
8
0
62
7
6
CONTINUOUS
10
16.3386774937
20
15.1273512880
0
VERTEX
8
0
62
7
6
CONTINUOUS
10
16.3320001946
20
15.1297706799
0
VERTEX
8
0
62
7
6
CONTINUOUS
10
16.3241671800
20
15.1327698084
0
VERTEX
8
0
62
7
6
CONTINUOUS
10
16.3172285445
20
15.1356493944
0
VERTEX
8
0
62
7
6
CONTINUOUS
10
16.3109612992
20
15.1384919551
0
VERTEX
8
0
62
7
6
CONTINUOUS
10
16.3052622730
20
15.1413300732
0
VERTEX
8
0
62
7
6
CONTINUOUS
10
16.3000699728
20
15.1441785769
0
VERTEX
8
0
62
7
6
CONTINUOUS
10
16.2953409855
20
15.1470446841
0
VERTEX
8
0
62
7
6
CONTINUOUS
10
16.2910410443
20
15.1499321115
0
VERTEX
8
0
62
7
6
CONTINUOUS
10
16.2871411736
20
15.1528430298
0
VERTEX
8
0
62
7
6
CONTINUOUS
10
16.2836158995
20
15.1557791120
0
VERTEX
8
0
62
7
6
CONTINUOUS
10
16.2804424013
20
15.1587421457
0
VERTEX
8
0
62
7
6
CONTINUOUS
10
16.2776001301
20
15.1617344168
0
VERTEX
8
0
62
7
6
CONTINUOUS
10
16.2750706735
20
15.1647589572
0
VERTEX
8
0
62
7
6
CONTINUOUS
10
16.2728377591
20
15.1678197045
0
VERTEX
8
0
62
7
6
CONTINUOUS
10
16.2708873332
20
15.1709215966
0
VERTEX
8
0
62
7
6
CONTINUOUS
10
16.2692076802
20
15.1740706123
0
VERTEX
8
0
62
7
6
CONTINUOUS
10
16.2677895570
20
15.1772737666
0
VERTEX
8
0
62
7
6
CONTINUOUS
10
16.2664111538
20
15.1810784736
0
VERTEX
8
0
62
7
6
CONTINUOUS
10
16.2653430208
20
15.1847835547
0
VERTEX
8
0
62
7
6
CONTINUOUS
10
16.2645708981
20
15.1883969672
0
VERTEX
8
0
62
7
6
CONTINUOUS
10
16.2640834350
20
15.1919221345
0
VERTEX
8
0
62
7
6
CONTINUOUS
10
16.2638703895
20
15.1953633661
0
VERTEX
8
0
62
7
6
CONTINUOUS
10
16.2639231661
20
15.1987286434
0
VERTEX
8
0
62
7
6
CONTINUOUS
10
16.2642358230
20
15.2020257479
0
VERTEX
8
0
62
7
6
CONTINUOUS
10
16.2648050997
20
15.2052620484
0
VERTEX
8
0
62
7
6
CONTINUOUS
10
16.2656303787
20
15.2084442680
0
VERTEX
8
0
62
7
6
CONTINUOUS
10
16.2667135721
20
15.2115782425
0
VERTEX
8
0
62
7
6
CONTINUOUS
10
16.2680589275
20
15.2146686777
0
VERTEX
8
0
62
7
6
CONTINUOUS
10
16.2696727505
20
15.2177189133
0
VERTEX
8
0
62
7
6
CONTINUOUS
10
16.2715630404
20
15.2207306999
0
VERTEX
8
0
62
7
6
CONTINUOUS
10
16.2737390353
20
15.2237039900
0
VERTEX
8
0
62
7
6
CONTINUOUS
10
16.2762106614
20
15.2266367442
0
VERTEX
8
0
62
7
6
CONTINUOUS
10
16.2789878727
20
15.2295247495
0
VERTEX
8
0
62
7
6
CONTINUOUS
10
16.2820798664
20
15.2323614489
0
VERTEX
8
0
62
7
6
CONTINUOUS
10
16.2854941501
20
15.2351377820
0
VERTEX
8
0
62
7
6
CONTINUOUS
10
16.2892354353
20
15.2378420430
0
VERTEX
8
0
62
7
6
CONTINUOUS
10
16.2933043320
20
15.2404597682
0
VERTEX
8
0
62
7
6
CONTINUOUS
10
16.2976958314
20
15.2429736791
0
VERTEX
8
0
62
7
6
CONTINUOUS
10
16.3023975826
20
15.2453637217
0
VERTEX
8
0
62
7
6
CONTINUOUS
10
16.3060689644
20
15.2470414000
0
VERTEX
8
0
62
7
6
CONTINUOUS
10
16.3116337686
20
15.2493258470
0
VERTEX
8
0
62
7
6
CONTINUOUS
10
16.3175688246
20
15.2514773863
0
VERTEX
8
0
62
7
6
CONTINUOUS
10
16.3238839431
20
15.2534864974
0
VERTEX
8
0
62
7
6
CONTINUOUS
10
16.3305871045
20
15.2553427795
0
VERTEX
8
0
62
7
6
CONTINUOUS
10
16.3376838730
20
15.2570350529
0
VERTEX
8
0
62
7
6
CONTINUOUS
10
16.3451767107
20
15.2585514865
0
VERTEX
8
0
62
7
6
CONTINUOUS
10
16.3530641735
20
15.2598797575
0
VERTEX
8
0
62
7
6
CONTINUOUS
10
16.3613399759
20
15.2610072549
0
VERTEX
8
0
62
7
6
CONTINUOUS
10
16.3699919124
20
15.2619213401
0
VERTEX
8
0
62
7
6
CONTINUOUS
10
16.3790006351
20
15.2626096793
0
VERTEX
8
0
62
7
6
CONTINUOUS
10
16.3883383023
20
15.2630606652
0
VERTEX
8
0
62
7
6
CONTINUOUS
10
16.3979671419
20
15.2632639450
0
VERTEX
8
0
62
7
6
CONTINUOUS
10
16.4078380140
20
15.2632110689
0
VERTEX
8
0
62
7
6
CONTINUOUS
10
16.4178891191
20
15.2628962625
0
VERTEX
8
0
62
7
6
CONTINUOUS
10
16.4280450721
20
15.2623173121
0
VERTEX
8
0
62
7
6
CONTINUOUS
10
16.4382166489
20
15.2614765195
0
VERTEX
8
0
62
7
6
CONTINUOUS
10
16.4483015794
20
15.2603816442
0
VERTEX
8
0
62
7
6
CONTINUOUS
10
16.4581867793
20
15.2590467012
0
VERTEX
8
0
62
7
6
CONTINUOUS
10
16.4638307009
20
15.2581622260
0
VERTEX
8
0
62
7
6
CONTINUOUS
10
16.4730968673
20
15.2565028013
0
VERTEX
8
0
62
7
6
CONTINUOUS
10
16.4817998306
20
15.2546860272
0
SEQEND
0
POLYLINE
8
0
62
7
6
CONTINUOUS
66
1
70
0
0
VERTEX
8
0
62
7
6
CONTINUOUS
10
16.4817998306
20
15.2106037355
0
VERTEX
8
0
62
7
6
CONTINUOUS
10
16.4757665584
20
15.2142559710
0
VERTEX
8
0
62
7
6
CONTINUOUS
10
16.4698178642
20
15.2175487929
0
VERTEX
8
0
62
7
6
CONTINUOUS
10
16.4639205316
20
15.2205098177
0
VERTEX
8
0
62
7
6
CONTINUOUS
10
16.4580427663
20
15.2231620455
0
VERTEX
8
0
62
7
6
CONTINUOUS
10
16.4521534937
20
15.2255243767
0
VERTEX
8
0
62
7
6
CONTINUOUS
10
16.4462217204
20
15.2276119966
0
VERTEX
8
0
62
7
6
CONTINUOUS
10
16.4432304473
20
15.2285564796
0
VERTEX
8
0
62
7
6
CONTINUOUS
10
16.4402200723
20
15.2294354939
0
VERTEX
8
0
62
7
6
CONTINUOUS
10
16.4341312612
20
15.2310003555
0
VERTEX
8
0
62
7
6
CONTINUOUS
10
16.4279222770
20
15.2323143027
0
VERTEX
8
0
62
7
6
CONTINUOUS
10
16.4215583245
20
15.2333819505
0
VERTEX
8
0
62
7
6
CONTINUOUS
10
16.4150021059
20
15.2342048871
0
VERTEX
8
0
62
7
6
CONTINUOUS
10
16.4082129874
20
15.2347816800
0
VERTEX
8
0
62
7
6
CONTINUOUS
10
16.4011459931
20
15.2351078033
0
VERTEX
8
0
62
7
6
CONTINUOUS
10
16.3997541312
20
15.2351411223
0
VERTEX
8
0
62
7
6
CONTINUOUS
10
16.3941223846
20
15.2351467172
0
VERTEX
8
0
62
7
6
CONTINUOUS
10
16.3876172352
20
15.2349125913
0
VERTEX
8
0
62
7
6
CONTINUOUS
10
16.3811201315
20
15.2344343896
0
VERTEX
8
0
62
7
6
CONTINUOUS
10
16.3748616502
20
15.2337306307
0
VERTEX
8
0
62
7
6
CONTINUOUS
10
16.3689627726
20
15.2328235293
0
VERTEX
8
0
62
7
6
CONTINUOUS
10
16.3634833792
20
15.2317354930
0
VERTEX
8
0
62
7
6
CONTINUOUS
10
16.3584478990
20
15.2304877042
0
VERTEX
8
0
62
7
6
CONTINUOUS
10
16.3538595531
20
15.2290994992
0
VERTEX
8
0
62
7
6
CONTINUOUS
10
16.3497086929
20
15.2275880630
0
VERTEX
8
0
62
7
6
CONTINUOUS
10
16.3459779328
20
15.2259682456
0
VERTEX
8
0
62
7
6
CONTINUOUS
10
16.3426454709
20
15.2242524221
0
VERTEX
8
0
62
7
6
CONTINUOUS
10
16.3396873496
20
15.2224503601
0
VERTEX
8
0
62
7
6
CONTINUOUS
10
16.3370790859
20
15.2205690902
0
VERTEX
8
0
62
7
6
CONTINUOUS
10
16.3347969224
20
15.2186127826
0
VERTEX
8
0
62
7
6
CONTINUOUS
10
16.3328188503
20
15.2165826486
0
VERTEX
8
0
62
7
6
CONTINUOUS
10
16.3311254891
20
15.2144768903
0
VERTEX
8
0
62
7
6
CONTINUOUS
10
16.3297008624
20
15.2122907260
0
VERTEX
8
0
62
7
6
CONTINUOUS
10
16.3285330730
20
15.2100165136
0
VERTEX
8
0
62
7
6
CONTINUOUS
10
16.3276148592
20
15.2076439835
0
VERTEX
8
0
62
7
6
CONTINUOUS
10
16.3269439984
20
15.2051605714
0
VERTEX
8
0
62
7
6
CONTINUOUS
10
16.3265235360
20
15.2025518227
0
VERTEX
8
0
62
7
6
CONTINUOUS
10
16.3263849806
20
15.2000526453
0
VERTEX
8
0
62
7
6
CONTINUOUS
10
16.3265172447
20
15.1976100561
0
VERTEX
8
0
62
7
6
CONTINUOUS
10
16.3269155256
20
15.1952093695
0
VERTEX
8
0
62
7
6
CONTINUOUS
10
16.3275813086
20
15.1928365896
0
VERTEX
8
0
62
7
6
CONTINUOUS
10
16.3285221859
20
15.1904788616
0
VERTEX
8
0
62
7
6
CONTINUOUS
10
16.3297514855
20
15.1881248563
0
VERTEX
8
0
62
7
6
CONTINUOUS
10
16.3312877553
20
15.1857650473
0
VERTEX
8
0
62
7
6
CONTINUOUS
10
16.3331541573
20
15.1833918666
0
VERTEX
8
0
62
7
6
CONTINUOUS
10
16.3353778259
20
15.1809997466
0
VERTEX
8
0
62
7
6
CONTINUOUS
10
16.3379892243
20
15.1785850673
0
VERTEX
8
0
62
7
6
CONTINUOUS
10
16.3410215203
20
15.1761460317
0
VERTEX
8
0
62
7
6
CONTINUOUS
10
16.3445099941
20
15.1736824766
0
VERTEX
8
0
62
7
6
CONTINUOUS
10
16.3484915062
20
15.1711956076
0
VERTEX
8
0
62
7
6
CONTINUOUS
10
16.3530041138
20
15.1686875919
0
VERTEX
8
0
62
7
6
CONTINUOUS
10
16.3580871303
20
15.1661608322
0
VERTEX
8
0
62
7
6
CONTINUOUS
10
16.3637825696
20
15.1636164227
0
VERTEX
8
0
62
7
6
CONTINUOUS
10
16.3701412919
20
15.1610502187
0
VERTEX
8
0
62
7
6
CONTINUOUS
10
16.3772480459
20
15.1584402618
0
VERTEX
8
0
62
7
6
CONTINUOUS
10
16.3853541979
20
15.1556873765
0
VERTEX
8
0
62
7
6
CONTINUOUS
10
16.4040957196
20
15.1494663918
0
SEQEND
0
LINE
8
0
62
7
6
CONTINUOUS
10
17.3214196223
20
15.0197766522
11
17.2551248306
21
15.0787016522
0
POLYLINE
8
0
62
7
6
CONTINUOUS
66
1
70
0
0
VERTEX
8
0
62
7
6
CONTINUOUS
10
17.2681664973
20
15.1255256105
0
VERTEX
8
0
62
7
6
CONTINUOUS
10
17.3464237890
20
15.0549026938
0
VERTEX
8
0
62
7
6
CONTINUOUS
10
17.3506856182
20
15.0512219504
0
VERTEX
8
0
62
7
6
CONTINUOUS
10
17.3553473009
20
15.0474152573
0
VERTEX
8
0
62
7
6
CONTINUOUS
10
17.3604134801
20
15.0434924204
0
VERTEX
8
0
62
7
6
CONTINUOUS
10
17.3658833111
20
15.0394666386
0
VERTEX
8
0
62
7
6
CONTINUOUS
10
17.3717492352
20
15.0353549363
0
VERTEX
8
0
62
7
6
CONTINUOUS
10
17.3779956831
20
15.0311785553
0
VERTEX
8
0
62
7
6
CONTINUOUS
10
17.3845977902
20
15.0269632523
0
VERTEX
8
0
62
7
6
CONTINUOUS
10
17.3915202488
20
15.0227394260
0
VERTEX
8
0
62
7
6
CONTINUOUS
10
17.3987164729
20
15.0185419832
0
VERTEX
8
0
62
7
6
CONTINUOUS
10
17.4061282987
20
15.0144098466
0
VERTEX
8
0
62
7
6
CONTINUOUS
10
17.4136864581
20
15.0103850206
0
VERTEX
8
0
62
7
6
CONTINUOUS
10
17.4213120385
20
15.0065111720
0
VERTEX
8
0
62
7
6
CONTINUOUS
10
17.4269797211
20
15.0037521793
0
VERTEX
8
0
62
7
6
CONTINUOUS
10
17.4344664973
20
15.0002662355
0
SEQEND
0
LINE
8
0
62
7
6
CONTINUOUS
10
17.9692164973
20
15.2468839438
11
17.9768154556
21
15.2390808188
0
LINE
8
0
62
7
6
CONTINUOUS
10
17.2551248306
20
15.0787016522
11
17.2051217056
21
15.1337245688
0
POLYLINE
8
0
62
7
6
CONTINUOUS
66
1
70
0
0
VERTEX
8
0
62
7
6
CONTINUOUS
10
17.8605477473
20
14.8162349855
0
VERTEX
8
0
62
7
6
CONTINUOUS
10
17.9023217056
20
14.7677318605
0
VERTEX
8
0
62
7
6
CONTINUOUS
10
17.8688289973
20
14.7677829022
0
VERTEX
8
0
62
7
6
CONTINUOUS
10
17.8404623306
20
14.8007526938
0
VERTEX
8
0
62
7
6
CONTINUOUS
10
17.8404164973
20
14.8007526938
0
VERTEX
8
0
62
7
6
CONTINUOUS
10
17.8404164973
20
14.7677829022
0
VERTEX
8
0
62
7
6
CONTINUOUS
10
17.8151279556
20
14.7677829022
0
SEQEND
0
POLYLINE
8
0
62
7
6
CONTINUOUS
66
1
70
0
0
VERTEX
8
0
62
7
6
CONTINUOUS
10
17.0111164973
20
15.1146099855
0
VERTEX
8
0
62
7
6
CONTINUOUS
10
17.0101674429
20
15.1157387658
0
VERTEX
8
0
62
7
6
CONTINUOUS
10
17.0090978427
20
15.1168098577
0
VERTEX
8
0
62
7
6
CONTINUOUS
10
17.0079002538
20
15.1178258448
0
VERTEX
8
0
62
7
6
CONTINUOUS
10
17.0065656300
20
15.1187881735
0
VERTEX
8
0
62
7
6
CONTINUOUS
10
17.0050833821
20
15.1196971906
0
VERTEX
8
0
62
7
6
CONTINUOUS
10
17.0034413983
20
15.1205522081
0
VERTEX
8
0
62
7
6
CONTINUOUS
10
17.0016260014
20
15.1213515919
0
VERTEX
8
0
62
7
6
CONTINUOUS
10
16.9996218089
20
15.1220928686
0
VERTEX
8
0
62
7
6
CONTINUOUS
10
16.9974114462
20
15.1227728469
0
VERTEX
8
0
62
7
6
CONTINUOUS
10
16.9949750233
20
15.1233877519
0
VERTEX
8
0
62
7
6
CONTINUOUS
10
16.9922892101
20
15.1239333758
0
VERTEX
8
0
62
7
6
CONTINUOUS
10
16.9893255805
20
15.1244052530
0
VERTEX
8
0
62
7
6
CONTINUOUS
10
16.9860475006
20
15.1247988765
0
VERTEX
8
0
62
7
6
CONTINUOUS
10
16.9824038157
20
15.1251099989
0
VERTEX
8
0
62
7
6
CONTINUOUS
10
16.9783144481
20
15.1253351177
0
VERTEX
8
0
62
7
6
CONTINUOUS
10
16.9736309766
20
15.1254724858
0
VERTEX
8
0
62
7
6
CONTINUOUS
10
16.9679885386
20
15.1255253540
0
VERTEX
8
0
62
7
6
CONTINUOUS
10
16.9225342056
20
15.1255256105
0
SEQEND
0
LINE
8
0
62
7
6
CONTINUOUS
10
17.9610529556
20
15.2566391522
11
17.9692164973
21
15.2468839438
0
LINE
8
0
62
7
6
CONTINUOUS
10
18.2327810806
20
14.7677829022
11
18.2121414973
21
14.7961745688
0
LINE
8
0
62
7
6
CONTINUOUS
10
18.2340633723
20
14.8047704022
11
18.2603998306
21
14.7677318605
0
LINE
8
0
62
7
6
CONTINUOUS
10
18.6860685806
20
14.8604141522
11
18.7112967056
21
14.8170079022
0
LINE
8
0
62
7
6
CONTINUOUS
10
18.7142769140
20
14.8236506105
11
18.6930269140
21
14.8604141522
0
LINE
8
0
62
7
6
CONTINUOUS
10
18.6418696223
20
15.0145631105
11
18.6467321223
21
15.0042329022
0
POLYLINE
8
0
62
7
6
CONTINUOUS
66
1
70
0
0
VERTEX
8
0
62
7
6
CONTINUOUS
10
18.5782602473
20
14.8639943605
0
VERTEX
8
0
62
7
6
CONTINUOUS
10
18.6101310806
20
14.7851172772
0
VERTEX
8
0
62
7
6
CONTINUOUS
10
18.6041696223
20
14.7851172772
0
VERTEX
8
0
62
7
6
CONTINUOUS
10
18.5943946223
20
14.8093787355
0
SEQEND
0
LINE
8
0
62
7
6
CONTINUOUS
10
18.4454685806
20
14.8448912355
11
18.4710727473
21
14.7814954022
0
LINE
8
0
62
7
6
CONTINUOUS
10
18.4710727473
20
14.7967547772
11
18.4437185806
21
14.8645235272
0
LINE
8
0
62
7
6
CONTINUOUS
10
18.5915862890
20
14.8151870688
11
18.5782602473
21
14.8483693605
0
LINE
8
0
62
7
6
CONTINUOUS
10
18.6432123306
20
15.0042329022
11
18.6417883723
21
15.0096047772
0
LINE
8
0
6
CONTINUOUS
10
21.2500000000
20
0.5875000000
11
21.2500000000
21
0.0000000000
0
LINE
8
DEFAULT_2
62
8
6
HIDDEN
10
17.0000000000
20
0.5875000000
11
16.9062500000
21
0.4000000000
0
POLYLINE
8
0
62
7
6
CONTINUOUS
66
1
70
0
0
VERTEX
8
0
62
7
6
CONTINUOUS
10
18.6315446223
20
15.0253058188
0
VERTEX
8
0
62
7
6
CONTINUOUS
10
18.6326458054
20
15.0254643509
0
VERTEX
8
0
62
7
6
CONTINUOUS
10
18.6333968323
20
15.0255620347
0
VERTEX
8
0
62
7
6
CONTINUOUS
10
18.6340823056
20
15.0256390045
0
VERTEX
8
0
62
7
6
CONTINUOUS
10
18.6347438762
20
15.0257000954
0
VERTEX
8
0
62
7
6
CONTINUOUS
10
18.6354038196
20
15.0257472556
0
VERTEX
8
0
62
7
6
CONTINUOUS
10
18.6360768277
20
15.0257811826
0
VERTEX
8
0
62
7
6
CONTINUOUS
10
18.6367740860
20
15.0258018890
0
VERTEX
8
0
62
7
6
CONTINUOUS
10
18.6375050390
20
15.0258089438
0
VERTEX
8
0
62
7
6
CONTINUOUS
10
18.6380062134
20
15.0258033388
0
VERTEX
8
0
62
7
6
CONTINUOUS
10
18.6385497141
20
15.0257838613
0
VERTEX
8
0
62
7
6
CONTINUOUS
10
18.6390688656
20
15.0257510404
0
VERTEX
8
0
62
7
6
CONTINUOUS
10
18.6395641604
20
15.0257054951
0
VERTEX
8
0
62
7
6
CONTINUOUS
10
18.6400360923
20
15.0256478361
0
VERTEX
8
0
62
7
6
CONTINUOUS
10
18.6404851566
20
15.0255786648
0
VERTEX
8
0
62
7
6
CONTINUOUS
10
18.6409118494
20
15.0254985722
0
VERTEX
8
0
62
7
6
CONTINUOUS
10
18.6413166668
20
15.0254081378
0
VERTEX
8
0
62
7
6
CONTINUOUS
10
18.6417001041
20
15.0253079284
0
VERTEX
8
0
62
7
6
CONTINUOUS
10
18.6420626550
20
15.0251984971
0
VERTEX
8
0
62
7
6
CONTINUOUS
10
18.6424048100
20
15.0250803819
0
VERTEX
8
0
62
7
6
CONTINUOUS
10
18.6427270551
20
15.0249541044
0
VERTEX
8
0
62
7
6
CONTINUOUS
10
18.6430298701
20
15.0248201692
0
VERTEX
8
0
62
7
6
CONTINUOUS
10
18.6433137264
20
15.0246790621
0
VERTEX
8
0
62
7
6
CONTINUOUS
10
18.6435790847
20
15.0245312498
0
VERTEX
8
0
62
7
6
CONTINUOUS
10
18.6438263924
20
15.0243771793
0
VERTEX
8
0
62
7
6
CONTINUOUS
10
18.6439434182
20
15.0242979275
0
VERTEX
8
0
62
7
6
CONTINUOUS
10
18.6440560806
20
15.0242172772
0
VERTEX
8
0
62
7
6
CONTINUOUS
10
18.6442620588
20
15.0240567669
0
VERTEX
8
0
62
7
6
CONTINUOUS
10
18.6444556140
20
15.0238877758
0
VERTEX
8
0
62
7
6
CONTINUOUS
10
18.6446371609
20
15.0237101794
0
VERTEX
8
0
62
7
6
CONTINUOUS
10
18.6448070509
20
15.0235237901
0
VERTEX
8
0
62
7
6
CONTINUOUS
10
18.6449655694
20
15.0233283598
0
VERTEX
8
0
62
7
6
CONTINUOUS
10
18.6451129317
20
15.0231235811
0
VERTEX
8
0
62
7
6
CONTINUOUS
10
18.6451824879
20
15.0230175576
0
VERTEX
8
0
62
7
6
CONTINUOUS
10
18.6452492751
20
15.0229091011
0
VERTEX
8
0
62
7
6
CONTINUOUS
10
18.6453744913
20
15.0226848480
0
VERTEX
8
0
62
7
6
CONTINUOUS
10
18.6454886323
20
15.0224503906
0
VERTEX
8
0
62
7
6
CONTINUOUS
10
18.6455916737
20
15.0222052505
0
VERTEX
8
0
62
7
6
CONTINUOUS
10
18.6456835155
20
15.0219489067
0
VERTEX
8
0
62
7
6
CONTINUOUS
10
18.6457639828
20
15.0216807989
0
VERTEX
8
0
62
7
6
CONTINUOUS
10
18.6458328272
20
15.0214003323
0
VERTEX
8
0
62
7
6
CONTINUOUS
10
18.6458897297
20
15.0211068807
0
VERTEX
8
0
62
7
6
CONTINUOUS
10
18.6459343023
20
15.0207997905
0
VERTEX
8
0
62
7
6
CONTINUOUS
10
18.6459660912
20
15.0204783836
0
VERTEX
8
0
62
7
6
CONTINUOUS
10
18.6459845800
20
15.0201419601
0
VERTEX
8
0
62
7
6
CONTINUOUS
10
18.6459894140
20
15.0198526938
0
VERTEX
8
0
62
7
6
CONTINUOUS
10
18.6459822006
20
15.0195559367
0
VERTEX
8
0
62
7
6
CONTINUOUS
10
18.6459608261
20
15.0192676479
0
VERTEX
8
0
62
7
6
CONTINUOUS
10
18.6459256516
20
15.0189875657
0
VERTEX
8
0
62
7
6
CONTINUOUS
10
18.6458769879
20
15.0187154410
0
VERTEX
8
0
62
7
6
CONTINUOUS
10
18.6458150949
20
15.0184510414
0
VERTEX
8
0
62
7
6
CONTINUOUS
10
18.6457401817
20
15.0181941548
0
VERTEX
8
0
62
7
6
CONTINUOUS
10
18.6456524080
20
15.0179445939
0
VERTEX
8
0
62
7
6
CONTINUOUS
10
18.6455518855
20
15.0177022008
0
VERTEX
8
0
62
7
6
CONTINUOUS
10
18.6454386814
20
15.0174668512
0
VERTEX
8
0
62
7
6
CONTINUOUS
10
18.6453128228
20
15.0172384587
0
VERTEX
8
0
62
7
6
CONTINUOUS
10
18.6451743012
20
15.0170169795
0
VERTEX
8
0
62
7
6
CONTINUOUS
10
18.6450230801
20
15.0168024155
0
VERTEX
8
0
62
7
6
CONTINUOUS
10
18.6448591025
20
15.0165948184
0
VERTEX
8
0
62
7
6
CONTINUOUS
10
18.6446822999
20
15.0163942923
0
VERTEX
8
0
62
7
6
CONTINUOUS
10
18.6444926036
20
15.0162009961
0
VERTEX
8
0
62
7
6
CONTINUOUS
10
18.6442899556
20
15.0160151445
0
VERTEX
8
0
62
7
6
CONTINUOUS
10
18.6440743227
20
15.0158370089
0
VERTEX
8
0
62
7
6
CONTINUOUS
10
18.6438457097
20
15.0156669166
0
VERTEX
8
0
62
7
6
CONTINUOUS
10
18.6436041754
20
15.0155052489
0
VERTEX
8
0
62
7
6
CONTINUOUS
10
18.6433498483
20
15.0153524379
0
VERTEX
8
0
62
7
6
CONTINUOUS
10
18.6430829430
20
15.0152089615
0
VERTEX
8
0
62
7
6
CONTINUOUS
10
18.6428037769
20
15.0150753370
0
VERTEX
8
0
62
7
6
CONTINUOUS
10
18.6425127859
20
15.0149521126
0
VERTEX
8
0
62
7
6
CONTINUOUS
10
18.6422105392
20
15.0148398571
0
VERTEX
8
0
62
7
6
CONTINUOUS
10
18.6418977521
20
15.0147391470
0
VERTEX
8
0
62
7
6
CONTINUOUS
10
18.6418696223
20
15.0147308188
0
SEQEND
0
POLYLINE
8
0
62
7
6
CONTINUOUS
66
1
70
0
0
VERTEX
8
0
62
7
6
CONTINUOUS
10
18.6115654556
20
15.0057287355
0
VERTEX
8
0
62
7
6
CONTINUOUS
10
18.6014296858
20
15.0043668542
0
VERTEX
8
0
62
7
6
CONTINUOUS
10
18.5760160096
20
15.0010425551
0
VERTEX
8
0
62
7
6
CONTINUOUS
10
18.5561326544
20
14.9986769766
0
VERTEX
8
0
62
7
6
CONTINUOUS
10
18.5388829852
20
14.9969082452
0
VERTEX
8
0
62
7
6
CONTINUOUS
10
18.5232318787
20
14.9956078434
0
VERTEX
8
0
62
7
6
CONTINUOUS
10
18.5086662949
20
14.9947137429
0
VERTEX
8
0
62
7
6
CONTINUOUS
10
18.4948852505
20
14.9941914309
0
VERTEX
8
0
62
7
6
CONTINUOUS
10
18.4816925390
20
14.9940204022
0
VERTEX
8
0
62
7
6
CONTINUOUS
10
18.4751302159
20
14.9940613334
0
VERTEX
8
0
62
7
6
CONTINUOUS
10
18.4618701076
20
14.9944018748
0
VERTEX
8
0
62
7
6
CONTINUOUS
10
18.4490476411
20
14.9950777149
0
VERTEX
8
0
62
7
6
CONTINUOUS
10
18.4366678448
20
14.9960768236
0
VERTEX
8
0
62
7
6
CONTINUOUS
10
18.4247348166
20
14.9973868226
0
VERTEX
8
0
62
7
6
CONTINUOUS
10
18.4132516729
20
14.9989950430
0
VERTEX
8
0
62
7
6
CONTINUOUS
10
18.4022205065
20
15.0008885913
0
VERTEX
8
0
62
7
6
CONTINUOUS
10
18.3916423563
20
15.0030544228
0
VERTEX
8
0
62
7
6
CONTINUOUS
10
18.3815171914
20
15.0054794225
0
VERTEX
8
0
62
7
6
CONTINUOUS
10
18.3718439080
20
15.0081504925
0
VERTEX
8
0
62
7
6
CONTINUOUS
10
18.3626203433
20
15.0110546441
0
VERTEX
8
0
62
7
6
CONTINUOUS
10
18.3538433055
20
15.0141790943
0
VERTEX
8
0
62
7
6
CONTINUOUS
10
18.3455086208
20
15.0175113645
0
VERTEX
8
0
62
7
6
CONTINUOUS
10
18.3376111977
20
15.0210393803
0
VERTEX
8
0
62
7
6
CONTINUOUS
10
18.3301451081
20
15.0247515701
0
VERTEX
8
0
62
7
6
CONTINUOUS
10
18.3231036857
20
15.0286369615
0
VERTEX
8
0
62
7
6
CONTINUOUS
10
18.3164796390
20
15.0326852722
0
VERTEX
8
0
62
7
6
CONTINUOUS
10
18.3102651802
20
15.0368869957
0
VERTEX
8
0
62
7
6
CONTINUOUS
10
18.3044521663
20
15.0412334767
0
VERTEX
8
0
62
7
6
CONTINUOUS
10
18.2990322513
20
15.0457169779
0
VERTEX
8
0
62
7
6
CONTINUOUS
10
18.2939970481
20
15.0503307326
0
VERTEX
8
0
62
7
6
CONTINUOUS
10
18.2893382962
20
15.0550689842
0
VERTEX
8
0
62
7
6
CONTINUOUS
10
18.2850480335
20
15.0599270094
0
VERTEX
8
0
62
7
6
CONTINUOUS
10
18.2811187682
20
15.0649011241
0
VERTEX
8
0
62
7
6
CONTINUOUS
10
18.2775436476
20
15.0699886706
0
VERTEX
8
0
62
7
6
CONTINUOUS
10
18.2743166207
20
15.0751879866
0
VERTEX
8
0
62
7
6
CONTINUOUS
10
18.2714325891
20
15.0804983545
0
VERTEX
8
0
62
7
6
CONTINUOUS
10
18.2688875449
20
15.0859199328
0
VERTEX
8
0
62
7
6
CONTINUOUS
10
18.2666786899
20
15.0914536702
0
VERTEX
8
0
62
7
6
CONTINUOUS
10
18.2648045336
20
15.0971012048
0
VERTEX
8
0
62
7
6
CONTINUOUS
10
18.2632649683
20
15.1028647509
0
VERTEX
8
0
62
7
6
CONTINUOUS
10
18.2620620041
20
15.1087430394
0
VERTEX
8
0
62
7
6
CONTINUOUS
10
18.2611979997
20
15.1147365860
0
VERTEX
8
0
62
7
6
CONTINUOUS
10
18.2606760949
20
15.1208484524
0
VERTEX
8
0
62
7
6
CONTINUOUS
10
18.2605008723
20
15.1270818605
0
VERTEX
8
0
62
7
6
CONTINUOUS
10
18.2606764163
20
15.1333529911
0
VERTEX
8
0
62
7
6
CONTINUOUS
10
18.2611992493
20
15.1394991908
0
VERTEX
8
0
62
7
6
CONTINUOUS
10
18.2620641898
20
15.1455215775
0
VERTEX
8
0
62
7
6
CONTINUOUS
10
18.2632669718
20
15.1514220788
0
VERTEX
8
0
62
7
6
CONTINUOUS
10
18.2648051109
20
15.1572053003
0
VERTEX
8
0
62
7
6
CONTINUOUS
10
18.2666777130
20
15.1628753523
0
VERTEX
8
0
62
7
6
CONTINUOUS
10
18.2688854286
20
15.1684357259
0
VERTEX
8
0
62
7
6
CONTINUOUS
10
18.2714303780
20
15.1738891732
0
VERTEX
8
0
62
7
6
CONTINUOUS
10
18.2743160502
20
15.1792375960
0
VERTEX
8
0
62
7
6
CONTINUOUS
10
18.2775471761
20
15.1844819464
0
VERTEX
8
0
62
7
6
CONTINUOUS
10
18.2811295771
20
15.1896221413
0
VERTEX
8
0
62
7
6
CONTINUOUS
10
18.2850699936
20
15.1946569929
0
VERTEX
8
0
62
7
6
CONTINUOUS
10
18.2893758949
20
15.1995841579
0
VERTEX
8
0
62
7
6
CONTINUOUS
10
18.2940552736
20
15.2044001047
0
VERTEX
8
0
62
7
6
CONTINUOUS
10
18.2991164298
20
15.2091000995
0
VERTEX
8
0
62
7
6
CONTINUOUS
10
18.3045677460
20
15.2136782129
0
VERTEX
8
0
62
7
6
CONTINUOUS
10
18.3104174579
20
15.2181273438
0
VERTEX
8
0
62
7
6
CONTINUOUS
10
18.3166734244
20
15.2224392626
0
VERTEX
8
0
62
7
6
CONTINUOUS
10
18.3233428986
20
15.2266046718
0
VERTEX
8
0
62
7
6
CONTINUOUS
10
18.3304323061
20
15.2306132831
0
VERTEX
8
0
62
7
6
CONTINUOUS
10
18.3379470322
20
15.2344539104
0
VERTEX
8
0
62
7
6
CONTINUOUS
10
18.3458912215
20
15.2381145765
0
VERTEX
8
0
62
7
6
CONTINUOUS
10
18.3542675963
20
15.2415826334
0
VERTEX
8
0
62
7
6
CONTINUOUS
10
18.3630772945
20
15.2448448936
0
VERTEX
8
0
62
7
6
CONTINUOUS
10
18.3723197323
20
15.2478877699
0
VERTEX
8
0
62
7
6
CONTINUOUS
10
18.3819924952
20
15.2506974227
0
VERTEX
8
0
62
7
6
CONTINUOUS
10
18.3920912593
20
15.2532599110
0
VERTEX
8
0
62
7
6
CONTINUOUS
10
18.4026097457
20
15.2555613448
0
VERTEX
8
0
62
7
6
CONTINUOUS
10
18.4135397097
20
15.2575880360
0
VERTEX
8
0
62
7
6
CONTINUOUS
10
18.4248709643
20
15.2593266437
0
VERTEX
8
0
62
7
6
CONTINUOUS
10
18.4365914387
20
15.2607643119
0
VERTEX
8
0
62
7
6
CONTINUOUS
10
18.4486872690
20
15.2618887967
0
VERTEX
8
0
62
7
6
CONTINUOUS
10
18.4611429191
20
15.2626885787
0
VERTEX
8
0
62
7
6
CONTINUOUS
10
18.4739413282
20
15.2631529611
0
VERTEX
8
0
62
7
6
CONTINUOUS
10
18.4849477473
20
15.2632766522
0
VERTEX
8
0
62
7
6
CONTINUOUS
10
18.4986128793
20
15.2631012634
0
VERTEX
8
0
62
7
6
CONTINUOUS
10
18.5123626295
20
15.2625736326
0
VERTEX
8
0
62
7
6
CONTINUOUS
10
18.5262339413
20
15.2616899936
0
VERTEX
8
0
62
7
6
CONTINUOUS
10
18.5402671470
20
15.2604443080
0
VERTEX
8
0
62
7
6
CONTINUOUS
10
18.5545068403
20
15.2588279804
0
VERTEX
8
0
62
7
6
CONTINUOUS
10
18.5690030039
20
15.2568294768
0
VERTEX
8
0
62
7
6
CONTINUOUS
10
18.5702644140
20
15.2566391522
0
SEQEND
0
POLYLINE
8
0
62
7
6
CONTINUOUS
66
1
70
0
0
VERTEX
8
0
62
7
6
CONTINUOUS
10
17.2051217056
20
15.1337245688
0
VERTEX
8
0
62
7
6
CONTINUOUS
10
17.2112839761
20
15.1344320126
0
VERTEX
8
0
62
7
6
CONTINUOUS
10
17.2171835583
20
15.1352075390
0
VERTEX
8
0
62
7
6
CONTINUOUS
10
17.2226159928
20
15.1360264397
0
VERTEX
8
0
62
7
6
CONTINUOUS
10
17.2276936132
20
15.1368993632
0
VERTEX
8
0
62
7
6
CONTINUOUS
10
17.2324905791
20
15.1378336778
0
VERTEX
8
0
62
7
6
CONTINUOUS
10
17.2370592112
20
15.1388349682
0
VERTEX
8
0
62
7
6
CONTINUOUS
10
17.2414382851
20
15.1399077997
0
VERTEX
8
0
62
7
6
CONTINUOUS
10
17.2456576550
20
15.1410561494
0
VERTEX
8
0
62
7
6
CONTINUOUS
10
17.2497410181
20
15.1422836680
0
VERTEX
8
0
62
7
6
CONTINUOUS
10
17.2537076611
20
15.1435938491
0
VERTEX
8
0
62
7
6
CONTINUOUS
10
17.2575736118
20
15.1449901442
0
VERTEX
8
0
62
7
6
CONTINUOUS
10
17.2613524283
20
15.1464760441
0
VERTEX
8
0
62
7
6
CONTINUOUS
10
17.2650557544
20
15.1480551384
0
VERTEX
8
0
62
7
6
CONTINUOUS
10
17.2653695632
20
15.1481948914
0
VERTEX
8
0
62
7
6
CONTINUOUS
10
17.2684302686
20
15.1496241337
0
VERTEX
8
0
62
7
6
CONTINUOUS
10
17.2713351287
20
15.1511013355
0
VERTEX
8
0
62
7
6
CONTINUOUS
10
17.2740796840
20
15.1526198945
0
VERTEX
8
0
62
7
6
CONTINUOUS
10
17.2766624357
20
15.1541742876
0
VERTEX
8
0
62
7
6
CONTINUOUS
10
17.2790840039
20
15.1557599114
0
VERTEX
8
0
62
7
6
CONTINUOUS
10
17.2813465147
20
15.1573729619
0
VERTEX
8
0
62
7
6
CONTINUOUS
10
17.2834531458
20
15.1590103445
0
VERTEX
8
0
62
7
6
CONTINUOUS
10
17.2854077821
20
15.1606696049
0
VERTEX
8
0
62
7
6
CONTINUOUS
10
17.2872147488
20
15.1623488762
0
VERTEX
8
0
62
7
6
CONTINUOUS
10
17.2888786010
20
15.1640468364
0
VERTEX
8
0
62
7
6
CONTINUOUS
10
17.2904039531
20
15.1657626751
0
VERTEX
8
0
62
7
6
CONTINUOUS
10
17.2917953390
20
15.1674960645
0
VERTEX
8
0
62
7
6
CONTINUOUS
10
17.2930570940
20
15.1692471337
0
VERTEX
8
0
62
7
6
CONTINUOUS
10
17.2941932545
20
15.1710164447
0
VERTEX
8
0
62
7
6
CONTINUOUS
10
17.2952074717
20
15.1728049680
0
VERTEX
8
0
62
7
6
CONTINUOUS
10
17.2961029373
20
15.1746140566
0
VERTEX
8
0
62
7
6
CONTINUOUS
10
17.2968823190
20
15.1764454186
0
VERTEX
8
0
62
7
6
CONTINUOUS
10
17.2975477062
20
15.1783010876
0
VERTEX
8
0
62
7
6
CONTINUOUS
10
17.2981005658
20
15.1801833898
0
VERTEX
8
0
62
7
6
CONTINUOUS
10
17.2985417067
20
15.1820949097
0
VERTEX
8
0
62
7
6
CONTINUOUS
10
17.2988712541
20
15.1840384539
0
VERTEX
8
0
62
7
6
CONTINUOUS
10
17.2990886334
20
15.1860170145
0
VERTEX
8
0
62
7
6
CONTINUOUS
10
17.2991925627
20
15.1880337321
0
VERTEX
8
0
62
7
6
CONTINUOUS
10
17.2991810538
20
15.1900918602
0
VERTEX
8
0
62
7
6
CONTINUOUS
10
17.2990514216
20
15.1921947321
0
VERTEX
8
0
62
7
6
CONTINUOUS
10
17.2988002988
20
15.1943457300
0
VERTEX
8
0
62
7
6
CONTINUOUS
10
17.2984600753
20
15.1963045261
0
VERTEX
8
0
62
7
6
CONTINUOUS
10
17.2980109631
20
15.1982166633
0
VERTEX
8
0
62
7
6
CONTINUOUS
10
17.2974536890
20
15.2000849450
0
VERTEX
8
0
62
7
6
CONTINUOUS
10
17.2967883331
20
15.2019119263
0
VERTEX
8
0
62
7
6
CONTINUOUS
10
17.2960143504
20
15.2036998727
0
VERTEX
8
0
62
7
6
CONTINUOUS
10
17.2951306048
20
15.2054507194
0
VERTEX
8
0
62
7
6
CONTINUOUS
10
17.2941354140
20
15.2071660314
0
VERTEX
8
0
62
7
6
CONTINUOUS
10
17.2930266075
20
15.2088469664
0
VERTEX
8
0
62
7
6
CONTINUOUS
10
17.2918015970
20
15.2104942388
0
VERTEX
8
0
62
7
6
CONTINUOUS
10
17.2904574618
20
15.2121080869
0
VERTEX
8
0
62
7
6
CONTINUOUS
10
17.2889910500
20
15.2136882414
0
VERTEX
8
0
62
7
6
CONTINUOUS
10
17.2873990977
20
15.2152338960
0
VERTEX
8
0
62
7
6
CONTINUOUS
10
17.2856783709
20
15.2167436783
0
VERTEX
8
0
62
7
6
CONTINUOUS
10
17.2838258345
20
15.2182156204
0
VERTEX
8
0
62
7
6
CONTINUOUS
10
17.2818388555
20
15.2196471294
0
VERTEX
8
0
62
7
6
CONTINUOUS
10
17.2797154501
20
15.2210349551
0
VERTEX
8
0
62
7
6
CONTINUOUS
10
17.2774545867
20
15.2223751565
0
VERTEX
8
0
62
7
6
CONTINUOUS
10
17.2750565610
20
15.2236630667
0
VERTEX
8
0
62
7
6
CONTINUOUS
10
17.2725234622
20
15.2248932575
0
VERTEX
8
0
62
7
6
CONTINUOUS
10
17.2698597546
20
15.2260595088
0
VERTEX
8
0
62
7
6
CONTINUOUS
10
17.2670730002
20
15.2271547886
0
VERTEX
8
0
62
7
6
CONTINUOUS
10
17.2641747482
20
15.2281712583
0
VERTEX
8
0
62
7
6
CONTINUOUS
10
17.2611816080
20
15.2291003233
0
VERTEX
8
0
62
7
6
CONTINUOUS
10
17.2581164940
20
15.2299327661
0
VERTEX
8
0
62
7
6
CONTINUOUS
10
17.2550099726
20
15.2306590122
0
VERTEX
8
0
62
7
6
CONTINUOUS
10
17.2536985576
20
15.2309307684
0
VERTEX
8
0
62
7
6
CONTINUOUS
10
17.2502562180
20
15.2315584985
0
VERTEX
8
0
62
7
6
CONTINUOUS
10
17.2467583565
20
15.2320794989
0
VERTEX
8
0
62
7
6
CONTINUOUS
10
17.2431915076
20
15.2324946492
0
VERTEX
8
0
62
7
6
CONTINUOUS
10
17.2395396343
20
15.2328041934
0
VERTEX
8
0
62
7
6
CONTINUOUS
10
17.2357831761
20
15.2330076357
0
VERTEX
8
0
62
7
6
CONTINUOUS
10
17.2318975921
20
15.2331035752
0
VERTEX
8
0
62
7
6
CONTINUOUS
10
17.2278510255
20
15.2330894330
0
VERTEX
8
0
62
7
6
CONTINUOUS
10
17.2236003395
20
15.2329609799
0
VERTEX
8
0
62
7
6
CONTINUOUS
10
17.2190838692
20
15.2327114578
0
VERTEX
8
0
62
7
6
CONTINUOUS
10
17.2142067830
20
15.2323297907
0
VERTEX
8
0
62
7
6
CONTINUOUS
10
17.2088070119
20
15.2317963996
0
VERTEX
8
0
62
7
6
CONTINUOUS
10
17.2025564255
20
15.2310710738
0
VERTEX
8
0
62
7
6
CONTINUOUS
10
17.1945306381
20
15.2300406498
0
VERTEX
8
0
62
7
6
CONTINUOUS
10
17.1920810806
20
15.2297172772
0
SEQEND
0
LINE
8
0
62
7
6
CONTINUOUS
10
16.7801550390
20
15.2570360272
11
16.8051487890
21
15.2597672772
0
LINE
8
0
62
7
6
CONTINUOUS
10
16.9872008723
20
15.1536318605
11
17.0111164973
21
15.1559662355
0
LINE
8
0
62
7
6
CONTINUOUS
10
17.0165539973
20
15.2570360272
11
17.0420925390
21
15.2589787355
0
LINE
8
0
62
7
6
CONTINUOUS
10
16.9779644140
20
15.2289391522
11
16.9225342056
21
15.2262131105
0
POLYLINE
8
0
62
7
6
CONTINUOUS
66
1
70
0
0
VERTEX
8
0
62
7
6
CONTINUOUS
10
18.5359216584
20
14.8259714575
0
VERTEX
8
0
62
7
6
CONTINUOUS
10
18.5378139369
20
14.8260212829
0
VERTEX
8
0
62
7
6
CONTINUOUS
10
18.5394076752
20
14.8261429251
0
VERTEX
8
0
62
7
6
CONTINUOUS
10
18.5408044196
20
14.8263343921
0
VERTEX
8
0
62
7
6
CONTINUOUS
10
18.5420606377
20
14.8265954429
0
VERTEX
8
0
62
7
6
CONTINUOUS
10
18.5432123639
20
14.8269274458
0
VERTEX
8
0
62
7
6
CONTINUOUS
10
18.5442847601
20
14.8273334513
0
VERTEX
8
0
62
7
6
CONTINUOUS
10
18.5452965149
20
14.8278183332
0
VERTEX
8
0
62
7
6
CONTINUOUS
10
18.5462621074
20
14.8283889463
0
VERTEX
8
0
62
7
6
CONTINUOUS
10
18.5471930766
20
14.8290542804
0
VERTEX
8
0
62
7
6
CONTINUOUS
10
18.5476488325
20
14.8294261176
0
VERTEX
8
0
62
7
6
CONTINUOUS
10
18.5480987890
20
14.8298256105
0
VERTEX
8
0
62
7
6
CONTINUOUS
10
18.5489197818
20
14.8306433583
0
VERTEX
8
0
62
7
6
CONTINUOUS
10
18.5497001976
20
14.8315530828
0
VERTEX
8
0
62
7
6
CONTINUOUS
10
18.5503867303
20
14.8325028485
0
VERTEX
8
0
62
7
6
CONTINUOUS
10
18.5509818661
20
14.8334934420
0
VERTEX
8
0
62
7
6
CONTINUOUS
10
18.5514872262
20
14.8345262446
0
VERTEX
8
0
62
7
6
CONTINUOUS
10
18.5519031891
20
14.8356022684
0
VERTEX
8
0
62
7
6
CONTINUOUS
10
18.5522291253
20
14.8367215663
0
VERTEX
8
0
62
7
6
CONTINUOUS
10
18.5524644650
20
14.8378865196
0
VERTEX
8
0
62
7
6
CONTINUOUS
10
18.5526076340
20
14.8390997786
0
VERTEX
8
0
62
7
6
CONTINUOUS
10
18.5526560806
20
14.8403641522
0
VERTEX
8
0
62
7
6
CONTINUOUS
10
18.5526071144
20
14.8416155979
0
VERTEX
8
0
62
7
6
CONTINUOUS
10
18.5524610782
20
14.8428472041
0
VERTEX
8
0
62
7
6
CONTINUOUS
10
18.5522196200
20
14.8440522566
0
VERTEX
8
0
62
7
6
CONTINUOUS
10
18.5518849849
20
14.8452234727
0
VERTEX
8
0
62
7
6
CONTINUOUS
10
18.5514601527
20
14.8463531323
0
VERTEX
8
0
62
7
6
CONTINUOUS
10
18.5509489337
20
14.8474332723
0
VERTEX
8
0
62
7
6
CONTINUOUS
10
18.5503689892
20
14.8484355268
0
VERTEX
8
0
62
7
6
CONTINUOUS
10
18.5497033896
20
14.8493917727
0
VERTEX
8
0
62
7
6
CONTINUOUS
10
18.5489697372
20
14.8502744302
0
VERTEX
8
0
62
7
6
CONTINUOUS
10
18.5481749205
20
14.8510778717
0
VERTEX
8
0
62
7
6
CONTINUOUS
10
18.5473258723
20
14.8517974855
0
VERTEX
8
0
62
7
6
CONTINUOUS
10
18.5464992821
20
14.8523764199
0
VERTEX
8
0
62
7
6
CONTINUOUS
10
18.5456016828
20
14.8528872874
0
VERTEX
8
0
62
7
6
CONTINUOUS
10
18.5446255322
20
14.8533320102
0
VERTEX
8
0
62
7
6
CONTINUOUS
10
18.5435611688
20
14.8537113677
0
VERTEX
8
0
62
7
6
CONTINUOUS
10
18.5423960298
20
14.8540251847
0
VERTEX
8
0
62
7
6
CONTINUOUS
10
18.5411129085
20
14.8542726232
0
VERTEX
8
0
62
7
6
CONTINUOUS
10
18.5396857972
20
14.8544526494
0
VERTEX
8
0
62
7
6
CONTINUOUS
10
18.5380683439
20
14.8545649213
0
VERTEX
8
0
62
7
6
CONTINUOUS
10
18.5361509997
20
14.8546123101
0
VERTEX
8
0
62
7
6
CONTINUOUS
10
18.5348029556
20
14.8546162355
0
VERTEX
8
0
62
7
6
CONTINUOUS
10
18.5277331640
20
14.8546162355
0
SEQEND
0
POLYLINE
8
0
62
7
6
CONTINUOUS
66
1
70
0
0
VERTEX
8
0
62
7
6
CONTINUOUS
10
18.4718967056
20
15.2351745688
0
VERTEX
8
0
62
7
6
CONTINUOUS
10
18.4644978113
20
15.2350724924
0
VERTEX
8
0
62
7
6
CONTINUOUS
10
18.4564579395
20
15.2347247648
0
VERTEX
8
0
62
7
6
CONTINUOUS
10
18.4485832100
20
15.2341356535
0
VERTEX
8
0
62
7
6
CONTINUOUS
10
18.4408875513
20
15.2333113028
0
VERTEX
8
0
62
7
6
CONTINUOUS
10
18.4333841664
20
15.2322585382
0
VERTEX
8
0
62
7
6
CONTINUOUS
10
18.4260853986
20
15.2309848101
0
VERTEX
8
0
62
7
6
CONTINUOUS
10
18.4190026099
20
15.2294981236
0
VERTEX
8
0
62
7
6
CONTINUOUS
10
18.4121460785
20
15.2278069552
0
VERTEX
8
0
62
7
6
CONTINUOUS
10
18.4055249159
20
15.2259201579
0
VERTEX
8
0
62
7
6
CONTINUOUS
10
18.3991470079
20
15.2238468591
0
VERTEX
8
0
62
7
6
CONTINUOUS
10
18.3930189809
20
15.2215963503
0
VERTEX
8
0
62
7
6
CONTINUOUS
10
18.3871461936
20
15.2191779754
0
VERTEX
8
0
62
7
6
CONTINUOUS
10
18.3815327550
20
15.2166010173
0
VERTEX
8
0
62
7
6
CONTINUOUS
10
18.3761815667
20
15.2138745871
0
VERTEX
8
0
62
7
6
CONTINUOUS
10
18.3710943885
20
15.2110075182
0
VERTEX
8
0
62
7
6
CONTINUOUS
10
18.3662719250
20
15.2080082663
0
VERTEX
8
0
62
7
6
CONTINUOUS
10
18.3617139297
20
15.2048848195
0
VERTEX
8
0
62
7
6
CONTINUOUS
10
18.3574193249
20
15.2016446181
0
VERTEX
8
0
62
7
6
CONTINUOUS
10
18.3533863331
20
15.1982944854
0
VERTEX
8
0
62
7
6
CONTINUOUS
10
18.3496126170
20
15.1948405720
0
VERTEX
8
0
62
7
6
CONTINUOUS
10
18.3460954256
20
15.1912883130
0
VERTEX
8
0
62
7
6
CONTINUOUS
10
18.3428317425
20
15.1876423976
0
VERTEX
8
0
62
7
6
CONTINUOUS
10
18.3398184337
20
15.1839067540
0
VERTEX
8
0
62
7
6
CONTINUOUS
10
18.3370523927
20
15.1800845461
0
VERTEX
8
0
62
7
6
CONTINUOUS
10
18.3345306799
20
15.1761781845
0
VERTEX
8
0
62
7
6
CONTINUOUS
10
18.3322506543
20
15.1721893490
0
VERTEX
8
0
62
7
6
CONTINUOUS
10
18.3302100944
20
15.1681190235
0
VERTEX
8
0
62
7
6
CONTINUOUS
10
18.3284073082
20
15.1639675410
0
VERTEX
8
0
62
7
6
CONTINUOUS
10
18.3268412290
20
15.1597346381
0
VERTEX
8
0
62
7
6
CONTINUOUS
10
18.3255114970
20
15.1554195171
0
VERTEX
8
0
62
7
6
CONTINUOUS
10
18.3244185255
20
15.1510209140
0
VERTEX
8
0
62
7
6
CONTINUOUS
10
18.3235635502
20
15.1465371704
0
VERTEX
8
0
62
7
6
CONTINUOUS
10
18.3229486642
20
15.1419663080
0
VERTEX
8
0
62
7
6
CONTINUOUS
10
18.3225768360
20
15.1373061032
0
VERTEX
8
0
62
7
6
CONTINUOUS
10
18.3224832363
20
15.1349417266
0
VERTEX
8
0
62
7
6
CONTINUOUS
10
18.3224519140
20
15.1325547772
0
VERTEX
8
0
62
7
6
CONTINUOUS
10
18.3225768156
20
15.1279571352
0
VERTEX
8
0
62
7
6
CONTINUOUS
10
18.3229502867
20
15.1233998946
0
VERTEX
8
0
62
7
6
CONTINUOUS
10
18.3235710453
20
15.1188827630
0
VERTEX
8
0
62
7
6
CONTINUOUS
10
18.3244385373
20
15.1144057693
0
VERTEX
8
0
62
7
6
CONTINUOUS
10
18.3255528830
20
15.1099693427
0
VERTEX
8
0
62
7
6
CONTINUOUS
10
18.3269148084
20
15.1055743885
0
VERTEX
8
0
62
7
6
CONTINUOUS
10
18.3285255600
20
15.1012223606
0
VERTEX
8
0
62
7
6
CONTINUOUS
10
18.3303868046
20
15.0969153271
0
VERTEX
8
0
62
7
6
CONTINUOUS
10
18.3325005144
20
15.0926560285
0
VERTEX
8
0
62
7
6
CONTINUOUS
10
18.3348688393
20
15.0884479250
0
VERTEX
8
0
62
7
6
CONTINUOUS
10
18.3374939699
20
15.0842952330
0
VERTEX
8
0
62
7
6
CONTINUOUS
10
18.3403779903
20
15.0802029474
0
VERTEX
8
0
62
7
6
CONTINUOUS
10
18.3435227275
20
15.0761768505
0
VERTEX
8
0
62
7
6
CONTINUOUS
10
18.3469295972
20
15.0722235043
0
VERTEX
8
0
62
7
6
CONTINUOUS
10
18.3505994523
20
15.0683502269
0
VERTEX
8
0
62
7
6
CONTINUOUS
10
18.3545324359
20
15.0645650517
0
VERTEX
8
0
62
7
6
CONTINUOUS
10
18.3587278440
20
15.0608766698
0
VERTEX
8
0
62
7
6
CONTINUOUS
10
18.3631840025
20
15.0572943561
0
VERTEX
8
0
62
7
6
CONTINUOUS
10
18.3678981612
20
15.0538278799
0
VERTEX
8
0
62
7
6
CONTINUOUS
10
18.3728664099
20
15.0504874010
0
VERTEX
8
0
62
7
6
CONTINUOUS
10
18.3780836195
20
15.0472833554
0
VERTEX
8
0
62
7
6
CONTINUOUS
10
18.3835434111
20
15.0442263311
0
VERTEX
8
0
62
7
6
CONTINUOUS
10
18.3892381542
20
15.0413269386
0
VERTEX
8
0
62
7
6
CONTINUOUS
10
18.3951589955
20
15.0385956803
0
VERTEX
8
0
62
7
6
CONTINUOUS
10
18.4012959172
20
15.0360428211
0
VERTEX
8
0
62
7
6
CONTINUOUS
10
18.4076378230
20
15.0336782658
0
VERTEX
8
0
62
7
6
CONTINUOUS
10
18.4141726491
20
15.0315114458
0
VERTEX
8
0
62
7
6
CONTINUOUS
10
18.4208874957
20
15.0295512201
0
VERTEX
8
0
62
7
6
CONTINUOUS
10
18.4277687745
20
15.0278057907
0
VERTEX
8
0
62
7
6
CONTINUOUS
10
18.4335186220
20
15.0265415458
0
VERTEX
8
0
62
7
6
CONTINUOUS
10
18.4406598950
20
15.0252065331
0
VERTEX
8
0
62
7
6
CONTINUOUS
10
18.4479211811
20
15.0241057473
0
VERTEX
8
0
62
7
6
CONTINUOUS
10
18.4552878791
20
15.0232438454
0
VERTEX
8
0
62
7
6
CONTINUOUS
10
18.4627455756
20
15.0226247122
0
VERTEX
8
0
62
7
6
CONTINUOUS
10
18.4702801657
20
15.0222514956
0
VERTEX
8
0
62
7
6
CONTINUOUS
10
18.4778779556
20
15.0221266522
0
VERTEX
8
0
62
7
6
CONTINUOUS
10
18.4870690006
20
15.0222317362
0
VERTEX
8
0
62
7
6
CONTINUOUS
10
18.4970675481
20
15.0225844727
0
VERTEX
8
0
62
7
6
CONTINUOUS
10
18.5069799547
20
15.0231815570
0
VERTEX
8
0
62
7
6
CONTINUOUS
10
18.5167465077
20
15.0240162205
0
VERTEX
8
0
62
7
6
CONTINUOUS
10
18.5263148105
20
15.0250795880
0
VERTEX
8
0
62
7
6
CONTINUOUS
10
18.5356400714
20
15.0263611798
0
VERTEX
8
0
62
7
6
CONTINUOUS
10
18.5446850309
20
15.0278493807
0
VERTEX
8
0
62
7
6
CONTINUOUS
10
18.5534196223
20
15.0295318605
0
SEQEND
0
LINE
8
0
62
7
6
CONTINUOUS
10
18.1807185806
20
14.7677829022
11
18.1292039973
21
14.7677829022
0
LINE
8
0
62
7
6
CONTINUOUS
10
18.1225112890
20
14.7677829022
11
18.0688300390
21
14.7677829022
0
LINE
8
0
62
7
6
CONTINUOUS
10
18.2121414973
20
14.7678443605
11
18.1874019140
21
14.7678443605
0
LINE
8
0
62
7
6
CONTINUOUS
10
18.5277331640
20
14.7851172772
11
18.5216404556
21
14.7851172772
0
LINE
8
0
62
7
6
CONTINUOUS
10
18.4271883723
20
14.7851172772
11
18.4331592056
21
14.7851172772
0
LINE
8
0
62
7
6
CONTINUOUS
10
18.5091279556
20
14.7851172772
11
18.5150487890
21
14.7851172772
0
LINE
8
0
62
7
6
CONTINUOUS
10
18.6141800390
20
14.7851172772
11
18.6202529556
21
14.7851172772
0
LINE
8
0
62
7
6
CONTINUOUS
10
18.7111852473
20
14.7851172772
11
18.7172779556
21
14.7851172772
0
LINE
8
0
62
7
6
CONTINUOUS
10
17.7342102473
20
14.8151870688
11
17.7610508723
21
14.8151870688
0
LINE
8
0
62
7
6
CONTINUOUS
10
18.5647414973
20
14.8151870688
11
18.5915862890
21
14.8151870688
0
LINE
8
0
62
7
6
CONTINUOUS
10
18.5353727473
20
14.8201818605
11
18.5277331640
21
14.8201818605
0
POLYLINE
8
0
62
7
6
CONTINUOUS
66
1
70
0
0
VERTEX
8
0
62
7
6
CONTINUOUS
10
18.2121008723
20
14.8210568605
0
VERTEX
8
0
62
7
6
CONTINUOUS
10
18.2192623306
20
14.8210568605
0
VERTEX
8
0
62
7
6
CONTINUOUS
10
18.2201888629
20
14.8211048454
0
VERTEX
8
0
62
7
6
CONTINUOUS
10
18.2211006285
20
14.8212480814
0
VERTEX
8
0
62
7
6
CONTINUOUS
10
18.2219914271
20
14.8214852854
0
VERTEX
8
0
62
7
6
CONTINUOUS
10
18.2228540209
20
14.8218146258
0
VERTEX
8
0
62
7
6
CONTINUOUS
10
18.2236802208
20
14.8222333779
0
VERTEX
8
0
62
7
6
CONTINUOUS
10
18.2244611160
20
14.8227376298
0
VERTEX
8
0
62
7
6
CONTINUOUS
10
18.2251874443
20
14.8233221010
0
VERTEX
8
0
62
7
6
CONTINUOUS
10
18.2252224274
20
14.8233535558
0
VERTEX
8
0
62
7
6
CONTINUOUS
10
18.2258809057
20
14.8240143126
0
VERTEX
8
0
62
7
6
CONTINUOUS
10
18.2264650649
20
14.8247376454
0
VERTEX
8
0
62
7
6
CONTINUOUS
10
18.2269685347
20
14.8255146137
0
VERTEX
8
0
62
7
6
CONTINUOUS
10
18.2273863548
20
14.8263363592
0
VERTEX
8
0
62
7
6
CONTINUOUS
10
18.2277148838
20
14.8271945340
0
VERTEX
8
0
62
7
6
CONTINUOUS
10
18.2279515602
20
14.8280816075
0
VERTEX
8
0
62
7
6
CONTINUOUS
10
18.2280945785
20
14.8289910328
0
VERTEX
8
0
62
7
6
CONTINUOUS
10
18.2281425390
20
14.8299172772
0
VERTEX
8
0
62
7
6
CONTINUOUS
10
18.2280945785
20
14.8308497586
0
VERTEX
8
0
62
7
6
CONTINUOUS
10
18.2279514631
20
14.8317667952
0
VERTEX
8
0
62
7
6
CONTINUOUS
10
18.2277145033
20
14.8326625035
0
VERTEX
8
0
62
7
6
CONTINUOUS
10
18.2273855020
20
14.8335299432
0
VERTEX
8
0
62
7
6
CONTINUOUS
10
18.2269671107
20
14.8343611720
0
VERTEX
8
0
62
7
6
CONTINUOUS
10
18.2264631502
20
14.8351474426
0
VERTEX
8
0
62
7
6
CONTINUOUS
10
18.2258788305
20
14.8358795477
0
VERTEX
8
0
62
7
6
CONTINUOUS
10
18.2258210195
20
14.8359441201
0
VERTEX
8
0
62
7
6
CONTINUOUS
10
18.2251567240
20
14.8366064169
0
VERTEX
8
0
62
7
6
CONTINUOUS
10
18.2244302127
20
14.8371939734
0
VERTEX
8
0
62
7
6
CONTINUOUS
10
18.2236507873
20
14.8377002524
0
VERTEX
8
0
62
7
6
CONTINUOUS
10
18.2228277431
20
14.8381201804
0
VERTEX
8
0
62
7
6
CONTINUOUS
10
18.2219699002
20
14.8384500897
0
VERTEX
8
0
62
7
6
CONTINUOUS
10
18.2210852525
20
14.8386874937
0
VERTEX
8
0
62
7
6
CONTINUOUS
10
18.2201807673
20
14.8388307585
0
VERTEX
8
0
62
7
6
CONTINUOUS
10
18.2192623306
20
14.8388787355
0
VERTEX
8
0
62
7
6
CONTINUOUS
10
18.2121008723
20
14.8388787355
0
SEQEND
0
LINE
8
0
62
7
6
CONTINUOUS
10
18.5277331640
20
14.8259704022
11
18.5359216584
21
14.8259714575
0
LINE
8
0
62
7
6
CONTINUOUS
10
18.1292039973
20
14.8603120688
11
18.1805248306
21
14.8603120688
0
POLYLINE
8
0
62
7
6
CONTINUOUS
66
1
70
0
0
VERTEX
8
0
62
7
6
CONTINUOUS
10
18.1874019140
20
14.8603120688
0
VERTEX
8
0
62
7
6
CONTINUOUS
10
18.2191092056
20
14.8603120688
0
VERTEX
8
0
62
7
6
CONTINUOUS
10
18.2205923060
20
14.8602788352
0
VERTEX
8
0
62
7
6
CONTINUOUS
10
18.2220638469
20
14.8601794431
0
VERTEX
8
0
62
7
6
CONTINUOUS
10
18.2235224162
20
14.8600143533
0
VERTEX
8
0
62
7
6
CONTINUOUS
10
18.2249664598
20
14.8597840385
0
VERTEX
8
0
62
7
6
CONTINUOUS
10
18.2263942729
20
14.8594890044
0
VERTEX
8
0
62
7
6
CONTINUOUS
10
18.2278039944
20
14.8591298125
0
VERTEX
8
0
62
7
6
CONTINUOUS
10
18.2291936031
20
14.8587071039
0
VERTEX
8
0
62
7
6
CONTINUOUS
10
18.2305609187
20
14.8582216249
0
VERTEX
8
0
62
7
6
CONTINUOUS
10
18.2319036055
20
14.8576742518
0
VERTEX
8
0
62
7
6
CONTINUOUS
10
18.2332191814
20
14.8570660153
0
VERTEX
8
0
62
7
6
CONTINUOUS
10
18.2345050314
20
14.8563981242
0
VERTEX
8
0
62
7
6
CONTINUOUS
10
18.2357584257
20
14.8556719852
0
VERTEX
8
0
62
7
6
CONTINUOUS
10
18.2369765435
20
14.8548892202
0
VERTEX
8
0
62
7
6
CONTINUOUS
10
18.2381565012
20
14.8540516785
0
VERTEX
8
0
62
7
6
CONTINUOUS
10
18.2392953842
20
14.8531614434
0
VERTEX
8
0
62
7
6
CONTINUOUS
10
18.2403902832
20
14.8522208323
0
VERTEX
8
0
62
7
6
CONTINUOUS
10
18.2414383319
20
14.8512323901
0
VERTEX
8
0
62
7
6
CONTINUOUS
10
18.2424367459
20
14.8501988747
0
VERTEX
8
0
62
7
6
CONTINUOUS
10
18.2433095929
20
14.8492102482
0
VERTEX
8
0
62
7
6
CONTINUOUS
10
18.2442042792
20
14.8480999746
0
VERTEX
8
0
62
7
6
CONTINUOUS
10
18.2450414792
20
14.8469547324
0
VERTEX
8
0
62
7
6
CONTINUOUS
10
18.2458192469
20
14.8457778849
0
VERTEX
8
0
62
7
6
CONTINUOUS
10
18.2465358804
20
14.8445728128
0
VERTEX
8
0
62
7
6
CONTINUOUS
10
18.2471899273
20
14.8433428729
0
VERTEX
8
0
62
7
6
CONTINUOUS
10
18.2477801836
20
14.8420913586
0
VERTEX
8
0
62
7
6
CONTINUOUS
10
18.2483056847
20
14.8408214637
0
VERTEX
8
0
62
7
6
CONTINUOUS
10
18.2487656895
20
14.8395362513
0
VERTEX
8
0
62
7
6
CONTINUOUS
10
18.2491596600
20
14.8382386277
0
VERTEX
8
0
62
7
6
CONTINUOUS
10
18.2494872355
20
14.8369313231
0
VERTEX
8
0
62
7
6
CONTINUOUS
10
18.2497482039
20
14.8356168772
0
VERTEX
8
0
62
7
6
CONTINUOUS
10
18.2499424714
20
14.8342976321
0
VERTEX
8
0
62
7
6
CONTINUOUS
10
18.2500700308
20
14.8329757299
0
VERTEX
8
0
62
7
6
CONTINUOUS
10
18.2501309311
20
14.8316531162
0
VERTEX
8
0
62
7
6
CONTINUOUS
10
18.2501252468
20
14.8303315478
0
VERTEX
8
0
62
7
6
CONTINUOUS
10
18.2500530510
20
14.8290126041
0
VERTEX
8
0
62
7
6
CONTINUOUS
10
18.2499143890
20
14.8276977012
0
VERTEX
8
0
62
7
6
CONTINUOUS
10
18.2497092566
20
14.8263881095
0
VERTEX
8
0
62
7
6
CONTINUOUS
10
18.2494375805
20
14.8250849711
0
VERTEX
8
0
62
7
6
CONTINUOUS
10
18.2490992020
20
14.8237893193
0
VERTEX
8
0
62
7
6
CONTINUOUS
10
18.2486938648
20
14.8225020981
0
VERTEX
8
0
62
7
6
CONTINUOUS
10
18.2482212046
20
14.8212241815
0
VERTEX
8
0
62
7
6
CONTINUOUS
10
18.2476807431
20
14.8199563918
0
VERTEX
8
0
62
7
6
CONTINUOUS
10
18.2470718839
20
14.8186995171
0
VERTEX
8
0
62
7
6
CONTINUOUS
10
18.2463939107
20
14.8174543281
0
VERTEX
8
0
62
7
6
CONTINUOUS
10
18.2456459885
20
14.8162215925
0
VERTEX
8
0
62
7
6
CONTINUOUS
10
18.2448271655
20
14.8150020883
0
VERTEX
8
0
62
7
6
CONTINUOUS
10
18.2439363778
20
14.8137966155
0
VERTEX
8
0
62
7
6
CONTINUOUS
10
18.2429724541
20
14.8126060063
0
VERTEX
8
0
62
7
6
CONTINUOUS
10
18.2419341220
20
14.8114311329
0
VERTEX
8
0
62
7
6
CONTINUOUS
10
18.2408200147
20
14.8102729146
0
VERTEX
8
0
62
7
6
CONTINUOUS
10
18.2396286783
20
14.8091323232
0
VERTEX
8
0
62
7
6
CONTINUOUS
10
18.2383588320
20
14.8080106012
0
VERTEX
8
0
62
7
6
CONTINUOUS
10
18.2370090975
20
14.8069089662
0
VERTEX
8
0
62
7
6
CONTINUOUS
10
18.2355778429
20
14.8058285138
0
VERTEX
8
0
62
7
6
CONTINUOUS
10
18.2340633723
20
14.8047704022
0
SEQEND
0
LINE
8
0
62
7
6
CONTINUOUS
10
18.7424039973
20
14.8604141522
11
18.7360164973
21
14.8604141522
0
LINE
8
0
62
7
6
CONTINUOUS
10
18.6930269140
20
14.8604141522
11
18.6860685806
21
14.8604141522
0
LINE
8
0
62
7
6
CONTINUOUS
10
18.6823154556
20
14.8604141522
11
18.6762425390
21
14.8604141522
0
LINE
8
0
62
7
6
CONTINUOUS
10
18.5216404556
20
14.8604141522
11
18.5353727473
21
14.8604141522
0
LINE
8
0
62
7
6
CONTINUOUS
10
18.7450185806
20
14.8813797772
11
16.1341175390
21
14.8813797772
0
POLYLINE
8
0
62
7
6
CONTINUOUS
66
1
70
0
0
VERTEX
8
0
62
7
6
CONTINUOUS
10
16.1357102473
20
14.8982964438
0
VERTEX
8
0
62
7
6
CONTINUOUS
10
18.7415602473
20
14.8982964438
0
VERTEX
8
0
62
7
6
CONTINUOUS
10
18.7415602473
20
15.3589547772
0
SEQEND
0
POLYLINE
8
0
62
7
6
CONTINUOUS
66
1
70
0
0
VERTEX
8
0
62
7
6
CONTINUOUS
10
16.1463196223
20
14.9127318605
0
VERTEX
8
0
62
7
6
CONTINUOUS
10
18.7298414973
20
14.9127318605
0
VERTEX
8
0
62
7
6
CONTINUOUS
10
18.7298414973
20
15.3461881105
0
SEQEND
0
POLYLINE
8
0
62
7
6
CONTINUOUS
66
1
70
0
0
VERTEX
8
0
62
7
6
CONTINUOUS
10
18.7023352473
20
14.9375214438
0
VERTEX
8
0
62
7
6
CONTINUOUS
10
16.1749550390
20
14.9375214438
0
VERTEX
8
0
62
7
6
CONTINUOUS
10
16.1749550390
20
15.3197235272
0
SEQEND
0
POLYLINE
8
0
62
7
6
CONTINUOUS
66
1
70
0
0
VERTEX
8
0
62
7
6
CONTINUOUS
10
18.6972894140
20
14.9425568605
0
VERTEX
8
0
62
7
6
CONTINUOUS
10
16.1799904556
20
14.9425568605
0
VERTEX
8
0
62
7
6
CONTINUOUS
10
16.1799904556
20
15.3146881105
0
SEQEND
0
LINE
8
0
62
7
6
CONTINUOUS
10
17.9773539973
20
15.0002662355
11
17.8811675390
21
15.0002662355
0
LINE
8
0
62
7
6
CONTINUOUS
10
17.8235706640
20
15.0002662355
11
17.7203050390
21
15.0002662355
0
LINE
8
0
62
7
6
CONTINUOUS
10
17.6697831640
20
15.0002662355
11
17.4464144140
21
15.0002662355
0
LINE
8
0
62
7
6
CONTINUOUS
10
17.4344664973
20
15.0002662355
11
17.3844633723
21
15.0002662355
0
LINE
8
0
62
7
6
CONTINUOUS
10
17.2165352473
20
15.0002662355
11
17.1127352473
21
15.0002662355
0
LINE
8
0
62
7
6
CONTINUOUS
10
17.0692633723
20
15.0002662355
11
16.8426446223
21
15.0002662355
0
LINE
8
0
62
7
6
CONTINUOUS
10
16.7203706640
20
15.0002662355
11
16.6127706640
21
15.0002662355
0
LINE
8
0
62
7
6
CONTINUOUS
10
18.6467321223
20
15.0042329022
11
18.6432123306
21
15.0042329022
0
LINE
8
0
62
7
6
CONTINUOUS
10
18.6349008723
20
15.0042329022
11
18.6315446223
21
15.0042329022
0
POLYLINE
8
0
62
7
6
CONTINUOUS
66
1
70
0
0
VERTEX
8
0
62
7
6
CONTINUOUS
10
18.6349008723
20
15.0159058188
0
VERTEX
8
0
62
7
6
CONTINUOUS
10
18.6373321223
20
15.0159058188
0
VERTEX
8
0
62
7
6
CONTINUOUS
10
18.6375566563
20
15.0159080445
0
VERTEX
8
0
62
7
6
CONTINUOUS
10
18.6378536830
20
15.0159180665
0
VERTEX
8
0
62
7
6
CONTINUOUS
10
18.6381411366
20
15.0159358993
0
VERTEX
8
0
62
7
6
CONTINUOUS
10
18.6384186643
20
15.0159612498
0
VERTEX
8
0
62
7
6
CONTINUOUS
10
18.6386860104
20
15.0159938128
0
VERTEX
8
0
62
7
6
CONTINUOUS
10
18.6389430073
20
15.0160332763
0
VERTEX
8
0
62
7
6
CONTINUOUS
10
18.6391895656
20
15.0160793277
0
VERTEX
8
0
62
7
6
CONTINUOUS
10
18.6394256659
20
15.0161316578
0
VERTEX
8
0
62
7
6
CONTINUOUS
10
18.6396513490
20
15.0161899659
0
VERTEX
8
0
62
7
6
CONTINUOUS
10
18.6398667075
20
15.0162539628
0
VERTEX
8
0
62
7
6
CONTINUOUS
10
18.6400718776
20
15.0163233747
0
VERTEX
8
0
62
7
6
CONTINUOUS
10
18.6402670314
20
15.0163979455
0
VERTEX
8
0
62
7
6
CONTINUOUS
10
18.6404523694
20
15.0164774397
0
VERTEX
8
0
62
7
6
CONTINUOUS
10
18.6406281138
20
15.0165616443
0
VERTEX
8
0
62
7
6
CONTINUOUS
10
18.6407945022
20
15.0166503708
0
VERTEX
8
0
62
7
6
CONTINUOUS
10
18.6409517817
20
15.0167434565
0
VERTEX
8
0
62
7
6
CONTINUOUS
10
18.6411002031
20
15.0168407660
0
VERTEX
8
0
62
7
6
CONTINUOUS
10
18.6412400162
20
15.0169421920
0
VERTEX
8
0
62
7
6
CONTINUOUS
10
18.6413714644
20
15.0170476559
0
VERTEX
8
0
62
7
6
CONTINUOUS
10
18.6414947805
20
15.0171571085
0
VERTEX
8
0
62
7
6
CONTINUOUS
10
18.6416101827
20
15.0172705296
0
VERTEX
8
0
62
7
6
CONTINUOUS
10
18.6417178703
20
15.0173879286
0
VERTEX
8
0
62
7
6
CONTINUOUS
10
18.6418180203
20
15.0175093432
0
VERTEX
8
0
62
7
6
CONTINUOUS
10
18.6419107844
20
15.0176348390
0
VERTEX
8
0
62
7
6
CONTINUOUS
10
18.6419962859
20
15.0177645087
0
VERTEX
8
0
62
7
6
CONTINUOUS
10
18.6420746174
20
15.0178984700
0
VERTEX
8
0
62
7
6
CONTINUOUS
10
18.6421458387
20
15.0180368649
0
VERTEX
8
0
62
7
6
CONTINUOUS
10
18.6422099753
20
15.0181798575
0
VERTEX
8
0
62
7
6
CONTINUOUS
10
18.6422670171
20
15.0183276319
0
VERTEX
8
0
62
7
6
CONTINUOUS
10
18.6423169180
20
15.0184803907
0
VERTEX
8
0
62
7
6
CONTINUOUS
10
18.6423595950
20
15.0186383528
0
VERTEX
8
0
62
7
6
CONTINUOUS
10
18.6423949019
20
15.0188016086
0
VERTEX
8
0
62
7
6
CONTINUOUS
10
18.6424226979
20
15.0189703536
0
VERTEX
8
0
62
7
6
CONTINUOUS
10
18.6424428190
20
15.0191448376
0
VERTEX
8
0
62
7
6
CONTINUOUS
10
18.6424550660
20
15.0193253201
0
VERTEX
8
0
62
7
6
CONTINUOUS
10
18.6424592056
20
15.0195120688
0
VERTEX
8
0
62
7
6
CONTINUOUS
10
18.6424559232
20
15.0196700212
0
VERTEX
8
0
62
7
6
CONTINUOUS
10
18.6424444990
20
15.0198446750
0
VERTEX
8
0
62
7
6
CONTINUOUS
10
18.6424250171
20
15.0200162931
0
VERTEX
8
0
62
7
6
CONTINUOUS
10
18.6423976157
20
15.0201846120
0
VERTEX
8
0
62
7
6
CONTINUOUS
10
18.6423624322
20
15.0203494168
0
VERTEX
8
0
62
7
6
CONTINUOUS
10
18.6423195967
20
15.0205105353
0
VERTEX
8
0
62
7
6
CONTINUOUS
10
18.6422692283
20
15.0206678324
0
VERTEX
8
0
62
7
6
CONTINUOUS
10
18.6422114299
20
15.0208212034
0
VERTEX
8
0
62
7
6
CONTINUOUS
10
18.6421462860
20
15.0209705688
0
VERTEX
8
0
62
7
6
CONTINUOUS
10
18.6420738597
20
15.0211158681
0
VERTEX
8
0
62
7
6
CONTINUOUS
10
18.6419941911
20
15.0212570547
0
VERTEX
8
0
62
7
6
CONTINUOUS
10
18.6419072961
20
15.0213940911
0
VERTEX
8
0
62
7
6
CONTINUOUS
10
18.6418131657
20
15.0215269440
0
VERTEX
8
0
62
7
6
CONTINUOUS
10
18.6417117658
20
15.0216555810
0
VERTEX
8
0
62
7
6
CONTINUOUS
10
18.6416030376
20
15.0217799660
0
VERTEX
8
0
62
7
6
CONTINUOUS
10
18.6414868983
20
15.0219000569
0
VERTEX
8
0
62
7
6
CONTINUOUS
10
18.6413632419
20
15.0220158025
0
VERTEX
8
0
62
7
6
CONTINUOUS
10
18.6412319403
20
15.0221271404
0
VERTEX
8
0
62
7
6
CONTINUOUS
10
18.6410928449
20
15.0222339952
0
VERTEX
8
0
62
7
6
CONTINUOUS
10
18.6409457879
20
15.0223362770
0
VERTEX
8
0
62
7
6
CONTINUOUS
10
18.6407905837
20
15.0224338805
0
VERTEX
8
0
62
7
6
CONTINUOUS
10
18.6406270306
20
15.0225266840
0
VERTEX
8
0
62
7
6
CONTINUOUS
10
18.6404549126
20
15.0226145493
0
VERTEX
8
0
62
7
6
CONTINUOUS
10
18.6402740520
20
15.0226972989
0
VERTEX
8
0
62
7
6
CONTINUOUS
10
18.6400842706
20
15.0227747443
0
VERTEX
8
0
62
7
6
CONTINUOUS
10
18.6398853228
20
15.0228467104
0
VERTEX
8
0
62
7
6
CONTINUOUS
10
18.6396769533
20
15.0229130049
0
VERTEX
8
0
62
7
6
CONTINUOUS
10
18.6394588980
20
15.0229734196
0
VERTEX
8
0
62
7
6
CONTINUOUS
10
18.6392308858
20
15.0230277305
0
VERTEX
8
0
62
7
6
CONTINUOUS
10
18.6389926391
20
15.0230756985
0
VERTEX
8
0
62
7
6
CONTINUOUS
10
18.6387438750
20
15.0231170701
0
VERTEX
8
0
62
7
6
CONTINUOUS
10
18.6384843062
20
15.0231515781
0
VERTEX
8
0
62
7
6
CONTINUOUS
10
18.6382136417
20
15.0231789424
0
VERTEX
8
0
62
7
6
CONTINUOUS
10
18.6379315875
20
15.0231988707
0
VERTEX
8
0
62
7
6
CONTINUOUS
10
18.6376378471
20
15.0232110594
0
VERTEX
8
0
62
7
6
CONTINUOUS
10
18.6373321223
20
15.0232151938
0
VERTEX
8
0
62
7
6
CONTINUOUS
10
18.6369433741
20
15.0232111712
0
VERTEX
8
0
62
7
6
CONTINUOUS
10
18.6365728988
20
15.0231993843
0
VERTEX
8
0
62
7
6
CONTINUOUS
10
18.6362179093
20
15.0231801850
0
VERTEX
8
0
62
7
6
CONTINUOUS
10
18.6358747422
20
15.0231537861
0
VERTEX
8
0
62
7
6
CONTINUOUS
10
18.6355379665
20
15.0231201432
0
VERTEX
8
0
62
7
6
CONTINUOUS
10
18.6351979331
20
15.0230786308
0
VERTEX
8
0
62
7
6
CONTINUOUS
10
18.6349008723
20
15.0230370688
0
SEQEND
0
LINE
8
0
62
7
6
CONTINUOUS
10
17.0920904556
20
15.0513933188
11
17.0937175390
21
15.0513933188
0
LINE
8
0
62
7
6
CONTINUOUS
10
17.6964039973
20
15.0521558188
11
17.6980321223
21
15.0521558188
0
LINE
8
0
62
7
6
CONTINUOUS
10
17.0127498306
20
15.1146099855
11
17.0111164973
21
15.1146099855
0
LINE
8
0
62
7
6
CONTINUOUS
10
18.5284248306
20
15.1309829022
11
18.6115654556
21
15.1309829022
0
LINE
8
0
62
7
6
CONTINUOUS
10
16.9225342056
20
15.1536318605
11
16.9872008723
21
15.1536318605
0
LINE
8
0
62
7
6
CONTINUOUS
10
17.0111164973
20
15.1559662355
11
17.0127498306
21
15.1559662355
0
LINE
8
0
62
7
6
CONTINUOUS
10
18.5702644140
20
15.2117631105
11
18.5686373306
21
15.2117631105
0
LINE
8
0
62
7
6
CONTINUOUS
10
17.0437248306
20
15.2133193605
11
17.0420925390
21
15.2133193605
0
LINE
8
0
62
7
6
CONTINUOUS
10
16.7893914973
20
15.2133193605
11
16.7877581640
21
15.2133193605
0
LINE
8
0
62
7
6
CONTINUOUS
10
16.5241831640
20
15.2133193605
11
16.5225508723
21
15.2133193605
0
LINE
8
0
62
7
6
CONTINUOUS
10
16.6366706640
20
15.2289391522
11
16.5888498306
21
15.2289391522
0
LINE
8
0
62
7
6
CONTINUOUS
10
16.5638612890
20
15.2570360272
11
16.7801550390
21
15.2570360272
0
LINE
8
0
62
7
6
CONTINUOUS
10
16.8426446223
20
15.2570360272
11
17.0165539973
21
15.2570360272
0
POLYLINE
8
0
62
7
6
CONTINUOUS
66
1
70
0
0
VERTEX
8
0
62
7
6
CONTINUOUS
10
17.1127352473
20
15.2570360272
0
VERTEX
8
0
62
7
6
CONTINUOUS
10
17.2420737890
20
15.2570360272
0
VERTEX
8
0
62
7
6
CONTINUOUS
10
17.2460263193
20
15.2570088711
0
VERTEX
8
0
62
7
6
CONTINUOUS
10
17.2537192342
20
15.2567942459
0
VERTEX
8
0
62
7
6
CONTINUOUS
10
17.2611098441
20
15.2563730538
0
VERTEX
8
0
62
7
6
CONTINUOUS
10
17.2681966016
20
15.2557541310
0
VERTEX
8
0
62
7
6
CONTINUOUS
10
17.2749785440
20
15.2549465309
0
VERTEX
8
0
62
7
6
CONTINUOUS
10
17.2814553348
20
15.2539594857
0
VERTEX
8
0
62
7
6
CONTINUOUS
10
17.2876272992
20
15.2528023604
0
VERTEX
8
0
62
7
6
CONTINUOUS
10
17.2934954518
20
15.2514845992
0
VERTEX
8
0
62
7
6
CONTINUOUS
10
17.2990615144
20
15.2500156652
0
VERTEX
8
0
62
7
6
CONTINUOUS
10
17.3043279219
20
15.2484049731
0
VERTEX
8
0
62
7
6
CONTINUOUS
10
17.3092978158
20
15.2466618159
0
VERTEX
8
0
62
7
6
CONTINUOUS
10
17.3139750224
20
15.2447952877
0
VERTEX
8
0
62
7
6
CONTINUOUS
10
17.3183640160
20
15.2428142022
0
VERTEX
8
0
62
7
6
CONTINUOUS
10
17.3224698653
20
15.2407270105
0
VERTEX
8
0
62
7
6
CONTINUOUS
10
17.3262981632
20
15.2385417179
0
VERTEX
8
0
62
7
6
CONTINUOUS
10
17.3298549398
20
15.2362658045
0
VERTEX
8
0
62
7
6
CONTINUOUS
10
17.3331465587
20
15.2339061495
0
VERTEX
8
0
62
7
6
CONTINUOUS
10
17.3361795986
20
15.2314689634
0
VERTEX
8
0
62
7
6
CONTINUOUS
10
17.3389607211
20
15.2289597304
0
VERTEX
8
0
62
7
6
CONTINUOUS
10
17.3414965271
20
15.2263831625
0
VERTEX
8
0
62
7
6
CONTINUOUS
10
17.3437934051
20
15.2237431702
0
VERTEX
8
0
62
7
6
CONTINUOUS
10
17.3458573745
20
15.2210428502
0
VERTEX
8
0
62
7
6
CONTINUOUS
10
17.3476939283
20
15.2182844934
0
VERTEX
8
0
62
7
6
CONTINUOUS
10
17.3493078805
20
15.2154696138
0
VERTEX
8
0
62
7
6
CONTINUOUS
10
17.3507032232
20
15.2125989995
0
VERTEX
8
0
62
7
6
CONTINUOUS
10
17.3518829977
20
15.2096727854
0
VERTEX
8
0
62
7
6
CONTINUOUS
10
17.3528491875
20
15.2066905455
0
VERTEX
8
0
62
7
6
CONTINUOUS
10
17.3532525475
20
15.2051779552
0
VERTEX
8
0
62
7
6
CONTINUOUS
10
17.3536026349
20
15.2036514029
0
VERTEX
8
0
62
7
6
CONTINUOUS
10
17.3541424543
20
15.2005579921
0
VERTEX
8
0
62
7
6
CONTINUOUS
10
17.3544678373
20
15.1974095891
0
VERTEX
8
0
62
7
6
CONTINUOUS
10
17.3545769140
20
15.1942047772
0
VERTEX
8
0
62
7
6
CONTINUOUS
10
17.3544678160
20
15.1911741249
0
VERTEX
8
0
62
7
6
CONTINUOUS
10
17.3541409234
20
15.1881589918
0
VERTEX
8
0
62
7
6
CONTINUOUS
10
17.3535956130
20
15.1851558560
0
VERTEX
8
0
62
7
6
CONTINUOUS
10
17.3528297056
20
15.1821617149
0
VERTEX
8
0
62
7
6
CONTINUOUS
10
17.3518396020
20
15.1791742474
0
VERTEX
8
0
62
7
6
CONTINUOUS
10
17.3506204618
20
15.1761919710
0
VERTEX
8
0
62
7
6
CONTINUOUS
10
17.3491664268
20
15.1732143910
0
VERTEX
8
0
62
7
6
CONTINUOUS
10
17.3474708858
20
15.1702421374
0
VERTEX
8
0
62
7
6
CONTINUOUS
10
17.3455267805
20
15.1672770892
0
VERTEX
8
0
62
7
6
CONTINUOUS
10
17.3433269504
20
15.1643224824
0
VERTEX
8
0
62
7
6
CONTINUOUS
10
17.3408645155
20
15.1613830014
0
VERTEX
8
0
62
7
6
CONTINUOUS
10
17.3381332947
20
15.1584648488
0
VERTEX
8
0
62
7
6
CONTINUOUS
10
17.3351282547
20
15.1555757915
0
VERTEX
8
0
62
7
6
CONTINUOUS
10
17.3318459853
20
15.1527251752
0
VERTEX
8
0
62
7
6
CONTINUOUS
10
17.3282851881
20
15.1499239030
0
VERTEX
8
0
62
7
6
CONTINUOUS
10
17.3244471654
20
15.1471843664
0
VERTEX
8
0
62
7
6
CONTINUOUS
10
17.3203362868
20
15.1445203233
0
VERTEX
8
0
62
7
6
CONTINUOUS
10
17.3159604068
20
15.1419467121
0
VERTEX
8
0
62
7
6
CONTINUOUS
10
17.3113312002
20
15.1394793982
0
VERTEX
8
0
62
7
6
CONTINUOUS
10
17.3064643795
20
15.1371348494
0
VERTEX
8
0
62
7
6
CONTINUOUS
10
17.3013797586
20
15.1349297472
0
VERTEX
8
0
62
7
6
CONTINUOUS
10
17.2961011328
20
15.1328805438
0
VERTEX
8
0
62
7
6
CONTINUOUS
10
17.2906559566
20
15.1310029868
0
VERTEX
8
0
62
7
6
CONTINUOUS
10
17.2850748179
20
15.1293116389
0
VERTEX
8
0
62
7
6
CONTINUOUS
10
17.2796559676
20
15.1278840244
0
VERTEX
8
0
62
7
6
CONTINUOUS
10
17.2739209856
20
15.1265949986
0
VERTEX
8
0
62
7
6
CONTINUOUS
10
17.2681664973
20
15.1255256105
0
SEQEND
0
LINE
8
0
62
7
6
CONTINUOUS
10
17.4464144140
20
15.2570360272
11
17.5502144140
21
15.2570360272
0
LINE
8
0
62
7
6
CONTINUOUS
10
17.7203050390
20
15.2570360272
11
17.8235706640
21
15.2570360272
0
LINE
8
0
62
7
6
CONTINUOUS
10
17.8817123306
20
15.2570360272
11
17.9610529556
21
15.2570360272
0
LINE
8
0
62
7
6
CONTINUOUS
10
18.1474644140
20
15.2570360272
11
18.2431164973
21
15.2570360272
0
LINE
8
0
62
7
6
CONTINUOUS
10
17.0420925390
20
15.2589787355
11
17.0437248306
21
15.2589787355
0
LINE
8
0
62
7
6
CONTINUOUS
10
16.5415779556
20
15.2597672772
11
16.5432008723
21
15.2597672772
0
LINE
8
0
62
7
6
CONTINUOUS
10
16.8051487890
20
15.2597672772
11
16.8067758723
21
15.2597672772
0
LINE
8
0
62
7
6
CONTINUOUS
10
16.1799904556
20
15.3146881105
11
18.6972894140
21
15.3146881105
0
LINE
8
0
62
7
6
CONTINUOUS
10
16.1749550390
20
15.3197235272
11
18.7023352473
21
15.3197235272
0
POLYLINE
8
0
62
7
6
CONTINUOUS
66
1
70
0
0
VERTEX
8
0
62
7
6
CONTINUOUS
10
18.7298414973
20
15.3461881105
0
VERTEX
8
0
62
7
6
CONTINUOUS
10
16.1463196223
20
15.3461881105
0
VERTEX
8
0
62
7
6
CONTINUOUS
10
16.1463196223
20
14.9127318605
0
SEQEND
0
POLYLINE
8
0
62
7
6
CONTINUOUS
66
1
70
0
0
VERTEX
8
0
62
7
6
CONTINUOUS
10
16.1341175390
20
15.3556329022
0
VERTEX
8
0
62
7
6
CONTINUOUS
10
18.7450185806
20
15.3556329022
0
VERTEX
8
0
62
7
6
CONTINUOUS
10
18.7450185806
20
14.8813797772
0
SEQEND
0
LINE
8
0
62
7
6
CONTINUOUS
10
18.7415602473
20
15.3589547772
11
16.1357102473
21
15.3589547772
0
POLYLINE
8
0
62
7
6
CONTINUOUS
66
1
70
0
0
VERTEX
8
0
62
7
6
CONTINUOUS
10
17.7638685806
20
14.8093787355
0
VERTEX
8
0
62
7
6
CONTINUOUS
10
17.7318602473
20
14.8094193605
0
VERTEX
8
0
62
7
6
CONTINUOUS
10
17.7215404556
20
14.7851172772
0
VERTEX
8
0
62
7
6
CONTINUOUS
10
17.7156706640
20
14.7851172772
0
SEQEND
0
POLYLINE
8
0
62
7
6
CONTINUOUS
66
1
70
0
0
VERTEX
8
0
62
7
6
CONTINUOUS
10
18.5943946223
20
14.8093787355
0
VERTEX
8
0
62
7
6
CONTINUOUS
10
18.5624112890
20
14.8094193605
0
VERTEX
8
0
62
7
6
CONTINUOUS
10
18.5520664973
20
14.7851172772
0
VERTEX
8
0
62
7
6
CONTINUOUS
10
18.5462071223
20
14.7851172772
0
SEQEND
0
LINE
8
0
62
7
6
CONTINUOUS
10
18.2603998306
20
14.7677318605
11
18.2327810806
21
14.7677829022
0
POLYLINE
8
0
62
7
6
CONTINUOUS
66
1
70
0
0
VERTEX
8
0
62
7
6
CONTINUOUS
10
17.5263039973
20
15.0318818605
0
VERTEX
8
0
62
7
6
CONTINUOUS
10
17.5353484116
20
15.0313910583
0
VERTEX
8
0
62
7
6
CONTINUOUS
10
17.5462318591
20
15.0306795792
0
VERTEX
8
0
62
7
6
CONTINUOUS
10
17.5574516227
20
15.0298855500
0
VERTEX
8
0
62
7
6
CONTINUOUS
10
17.5692869521
20
15.0290788785
0
VERTEX
8
0
62
7
6
CONTINUOUS
10
17.5785372194
20
15.0285394569
0
VERTEX
8
0
62
7
6
CONTINUOUS
10
17.5865218830
20
15.0281830660
0
VERTEX
8
0
62
7
6
CONTINUOUS
10
17.5937156141
20
15.0279791608
0
VERTEX
8
0
62
7
6
CONTINUOUS
10
17.6003539337
20
15.0279126739
0
VERTEX
8
0
62
7
6
CONTINUOUS
10
17.6065747656
20
15.0279749658
0
VERTEX
8
0
62
7
6
CONTINUOUS
10
17.6124676423
20
15.0281606721
0
VERTEX
8
0
62
7
6
CONTINUOUS
10
17.6180949550
20
15.0284663484
0
VERTEX
8
0
62
7
6
CONTINUOUS
10
17.6235025096
20
15.0288898026
0
VERTEX
8
0
62
7
6
CONTINUOUS
10
17.6287253173
20
15.0294297365
0
VERTEX
8
0
62
7
6
CONTINUOUS
10
17.6337910122
20
15.0300855380
0
VERTEX
8
0
62
7
6
CONTINUOUS
10
17.6387219885
20
15.0308571563
0
VERTEX
8
0
62
7
6
CONTINUOUS
10
17.6435367989
20
15.0317450242
0
VERTEX
8
0
62
7
6
CONTINUOUS
10
17.6482511044
20
15.0327500076
0
VERTEX
8
0
62
7
6
CONTINUOUS
10
17.6528783392
20
15.0338733734
0
VERTEX
8
0
62
7
6
CONTINUOUS
10
17.6574301900
20
15.0351167679
0
VERTEX
8
0
62
7
6
CONTINUOUS
10
17.6619169468
20
15.0364822027
0
VERTEX
8
0
62
7
6
CONTINUOUS
10
17.6663477672
20
15.0379720454
0
VERTEX
8
0
62
7
6
CONTINUOUS
10
17.6707308772
20
15.0395890128
0
VERTEX
8
0
62
7
6
CONTINUOUS
10
17.6750737269
20
15.0413361677
0
VERTEX
8
0
62
7
6
CONTINUOUS
10
17.6793831125
20
15.0432169149
0
VERTEX
8
0
62
7
6
CONTINUOUS
10
17.6836652736
20
15.0452350000
0
VERTEX
8
0
62
7
6
CONTINUOUS
10
17.6879259712
20
15.0473945077
0
VERTEX
8
0
62
7
6
CONTINUOUS
10
17.6921705514
20
15.0496998606
0
VERTEX
8
0
62
7
6
CONTINUOUS
10
17.6964039973
20
15.0521558188
0
SEQEND
0
POLYLINE
8
0
62
7
6
CONTINUOUS
66
1
70
0
0
VERTEX
8
0
62
7
6
CONTINUOUS
10
18.3201831640
20
14.7898881105
0
VERTEX
8
0
62
7
6
CONTINUOUS
10
18.3185649904
20
14.7899966362
0
VERTEX
8
0
62
7
6
CONTINUOUS
10
18.3169864903
20
14.7901606830
0
VERTEX
8
0
62
7
6
CONTINUOUS
10
18.3154472112
20
14.7903790289
0
VERTEX
8
0
62
7
6
CONTINUOUS
10
18.3139467299
20
14.7906505271
0
VERTEX
8
0
62
7
6
CONTINUOUS
10
18.3124846586
20
14.7909741056
0
VERTEX
8
0
62
7
6
CONTINUOUS
10
18.3110606507
20
14.7913487662
0
VERTEX
8
0
62
7
6
CONTINUOUS
10
18.3096744080
20
14.7917735828
0
VERTEX
8
0
62
7
6
CONTINUOUS
10
18.3083256871
20
14.7922476981
0
VERTEX
8
0
62
7
6
CONTINUOUS
10
18.3070143065
20
14.7927703195
0
VERTEX
8
0
62
7
6
CONTINUOUS
10
18.3057401536
20
14.7933407133
0
VERTEX
8
0
62
7
6
CONTINUOUS
10
18.3045031913
20
14.7939581981
0
VERTEX
8
0
62
7
6
CONTINUOUS
10
18.3033034652
20
14.7946221358
0
VERTEX
8
0
62
7
6
CONTINUOUS
10
18.3021411093
20
14.7953319223
0
VERTEX
8
0
62
7
6
CONTINUOUS
10
18.3010163515
20
14.7960869753
0
VERTEX
8
0
62
7
6
CONTINUOUS
10
18.2999295193
20
14.7968867212
0
VERTEX
8
0
62
7
6
CONTINUOUS
10
18.2988810425
20
14.7977305808
0
VERTEX
8
0
62
7
6
CONTINUOUS
10
18.2978714567
20
14.7986179523
0
VERTEX
8
0
62
7
6
CONTINUOUS
10
18.2969014043
20
14.7995481943
0
VERTEX
8
0
62
7
6
CONTINUOUS
10
18.2959716338
20
14.8005206065
0
VERTEX
8
0
62
7
6
CONTINUOUS
10
18.2950829979
20
14.8015344103
0
VERTEX
8
0
62
7
6
CONTINUOUS
10
18.2942364488
20
14.8025887278
0
VERTEX
8
0
62
7
6
CONTINUOUS
10
18.2934330317
20
14.8036825617
0
VERTEX
8
0
62
7
6
CONTINUOUS
10
18.2926738758
20
14.8048147742
0
VERTEX
8
0
62
7
6
CONTINUOUS
10
18.2919601825
20
14.8059840674
0
VERTEX
8
0
62
7
6
CONTINUOUS
10
18.2912932114
20
14.8071889648
0
VERTEX
8
0
62
7
6
CONTINUOUS
10
18.2906742634
20
14.8084277949
0
VERTEX
8
0
62
7
6
CONTINUOUS
10
18.2901046617
20
14.8096986773
0
VERTEX
8
0
62
7
6
CONTINUOUS
10
18.2895857302
20
14.8109995124
0
VERTEX
8
0
62
7
6
CONTINUOUS
10
18.2891187705
20
14.8123279758
0
VERTEX
8
0
62
7
6
CONTINUOUS
10
18.2887050370
20
14.8136815166
0
VERTEX
8
0
62
7
6
CONTINUOUS
10
18.2883457120
20
14.8150573621
0
VERTEX
8
0
62
7
6
CONTINUOUS
10
18.2880418797
20
14.8164525280
0
VERTEX
8
0
62
7
6
CONTINUOUS
10
18.2877945021
20
14.8178638348
0
VERTEX
8
0
62
7
6
CONTINUOUS
10
18.2876043961
20
14.8192879296
0
VERTEX
8
0
62
7
6
CONTINUOUS
10
18.2874722128
20
14.8207213150
0
VERTEX
8
0
62
7
6
CONTINUOUS
10
18.2873984211
20
14.8221603812
0
VERTEX
8
0
62
7
6
CONTINUOUS
10
18.2873817484
20
14.8231388897
0
VERTEX
8
0
62
7
6
CONTINUOUS
10
18.2874064696
20
14.8245781313
0
VERTEX
8
0
62
7
6
CONTINUOUS
10
18.2874896744
20
14.8260118936
0
VERTEX
8
0
62
7
6
CONTINUOUS
10
18.2876309432
20
14.8274365552
0
VERTEX
8
0
62
7
6
CONTINUOUS
10
18.2878296698
20
14.8288486028
0
VERTEX
8
0
62
7
6
CONTINUOUS
10
18.2880850765
20
14.8302446652
0
VERTEX
8
0
62
7
6
CONTINUOUS
10
18.2883962339
20
14.8316215428
0
VERTEX
8
0
62
7
6
CONTINUOUS
10
18.2887620834
20
14.8329762310
0
VERTEX
8
0
62
7
6
CONTINUOUS
10
18.2891814611
20
14.8343059382
0
VERTEX
8
0
62
7
6
CONTINUOUS
10
18.2896531239
20
14.8356080972
0
VERTEX
8
0
62
7
6
CONTINUOUS
10
18.2901757751
20
14.8368803705
0
VERTEX
8
0
62
7
6
CONTINUOUS
10
18.2907480897
20
14.8381206502
0
VERTEX
8
0
62
7
6
CONTINUOUS
10
18.2913687387
20
14.8393270526
0
VERTEX
8
0
62
7
6
CONTINUOUS
10
18.2920364115
20
14.8404979082
0
VERTEX
8
0
62
7
6
CONTINUOUS
10
18.2927498360
20
14.8416317478
0
VERTEX
8
0
62
7
6
CONTINUOUS
10
18.2935077970
20
14.8427272865
0
VERTEX
8
0
62
7
6
CONTINUOUS
10
18.2943091510
20
14.8437834042
0
VERTEX
8
0
62
7
6
CONTINUOUS
10
18.2951528392
20
14.8447991252
0
VERTEX
8
0
62
7
6
CONTINUOUS
10
18.2960378973
20
14.8457735972
0
VERTEX
8
0
62
7
6
CONTINUOUS
10
18.2969634632
20
14.8467060697
0
VERTEX
8
0
62
7
6
CONTINUOUS
10
18.2979287819
20
14.8475958722
0
VERTEX
8
0
62
7
6
CONTINUOUS
10
18.2989332084
20
14.8484423936
0
VERTEX
8
0
62
7
6
CONTINUOUS
10
18.2999762085
20
14.8492450626
0
VERTEX
8
0
62
7
6
CONTINUOUS
10
18.3010573580
20
14.8500033289
0
VERTEX
8
0
62
7
6
CONTINUOUS
10
18.3021763397
20
14.8507166459
0
VERTEX
8
0
62
7
6
CONTINUOUS
10
18.3033329400
20
14.8513844555
0
VERTEX
8
0
62
7
6
CONTINUOUS
10
18.3045270437
20
14.8520061738
0
VERTEX
8
0
62
7
6
CONTINUOUS
10
18.3057586280
20
14.8525811792
0
VERTEX
8
0
62
7
6
CONTINUOUS
10
18.3070277565
20
14.8531088015
0
VERTEX
8
0
62
7
6
CONTINUOUS
10
18.3083345713
20
14.8535883136
0
VERTEX
8
0
62
7
6
CONTINUOUS
10
18.3096792867
20
14.8540189236
0
VERTEX
8
0
62
7
6
CONTINUOUS
10
18.3110621809
20
14.8543997697
0
VERTEX
8
0
62
7
6
CONTINUOUS
10
18.3124835893
20
14.8547299154
0
VERTEX
8
0
62
7
6
CONTINUOUS
10
18.3139438966
20
14.8550083467
0
VERTEX
8
0
62
7
6
CONTINUOUS
10
18.3154435304
20
14.8552339704
0
VERTEX
8
0
62
7
6
CONTINUOUS
10
18.3169829538
20
14.8554056128
0
VERTEX
8
0
62
7
6
CONTINUOUS
10
18.3185626596
20
14.8555220204
0
VERTEX
8
0
62
7
6
CONTINUOUS
10
18.3201831640
20
14.8555818605
0
SEQEND
0
POLYLINE
8
0
62
7
6
CONTINUOUS
66
1
70
0
0
VERTEX
8
0
62
7
6
CONTINUOUS
10
16.9225342056
20
15.0330422772
0
VERTEX
8
0
62
7
6
CONTINUOUS
10
16.9322072520
20
15.0323280273
0
VERTEX
8
0
62
7
6
CONTINUOUS
10
16.9444025038
20
15.0313124527
0
VERTEX
8
0
62
7
6
CONTINUOUS
10
16.9546441050
20
15.0304332899
0
VERTEX
8
0
62
7
6
CONTINUOUS
10
16.9655833320
20
15.0295479404
0
VERTEX
8
0
62
7
6
CONTINUOUS
10
16.9744695778
20
15.0289266246
0
VERTEX
8
0
62
7
6
CONTINUOUS
10
16.9822538584
20
15.0284940197
0
VERTEX
8
0
62
7
6
CONTINUOUS
10
16.9893214566
20
15.0282195135
0
VERTEX
8
0
62
7
6
CONTINUOUS
10
16.9958746462
20
15.0280871497
0
VERTEX
8
0
62
7
6
CONTINUOUS
10
17.0020359376
20
15.0280874605
0
VERTEX
8
0
62
7
6
CONTINUOUS
10
17.0078866751
20
15.0282144128
0
VERTEX
8
0
62
7
6
CONTINUOUS
10
17.0134844766
20
15.0284640341
0
VERTEX
8
0
62
7
6
CONTINUOUS
10
17.0188721732
20
15.0288337153
0
VERTEX
8
0
62
7
6
CONTINUOUS
10
17.0240828258
20
15.0293218241
0
VERTEX
8
0
62
7
6
CONTINUOUS
10
17.0291427404
20
15.0299274785
0
VERTEX
8
0
62
7
6
CONTINUOUS
10
17.0340733793
20
15.0306504071
0
VERTEX
8
0
62
7
6
CONTINUOUS
10
17.0388926266
20
15.0314908599
0
VERTEX
8
0
62
7
6
CONTINUOUS
10
17.0436156556
20
15.0324495502
0
VERTEX
8
0
62
7
6
CONTINUOUS
10
17.0482555415
20
15.0335276161
0
VERTEX
8
0
62
7
6
CONTINUOUS
10
17.0528237052
20
15.0347265941
0
VERTEX
8
0
62
7
6
CONTINUOUS
10
17.0573302414
20
15.0360484013
0
VERTEX
8
0
62
7
6
CONTINUOUS
10
17.0617841658
20
15.0374953234
0
VERTEX
8
0
62
7
6
CONTINUOUS
10
17.0661936048
20
15.0390700057
0
VERTEX
8
0
62
7
6
CONTINUOUS
10
17.0705659426
20
15.0407754471
0
VERTEX
8
0
62
7
6
CONTINUOUS
10
17.0749079373
20
15.0426149965
0
VERTEX
8
0
62
7
6
CONTINUOUS
10
17.0792258136
20
15.0445923485
0
VERTEX
8
0
62
7
6
CONTINUOUS
10
17.0835253376
20
15.0467115420
0
VERTEX
8
0
62
7
6
CONTINUOUS
10
17.0878118778
20
15.0489769582
0
VERTEX
8
0
62
7
6
CONTINUOUS
10
17.0920904556
20
15.0513933188
0
SEQEND
0
LINE
8
0
62
7
6
CONTINUOUS
10
16.5432008723
20
15.2597672772
11
16.5638612890
21
15.2570360272
0
POLYLINE
8
0
62
7
6
CONTINUOUS
66
1
70
0
0
VERTEX
8
0
62
7
6
CONTINUOUS
10
16.4040957196
20
15.1494663918
0
VERTEX
8
0
62
7
6
CONTINUOUS
10
16.4174286660
20
15.1451425621
0
VERTEX
8
0
62
7
6
CONTINUOUS
10
16.4303441436
20
15.1408567109
0
VERTEX
8
0
62
7
6
CONTINUOUS
10
16.4407229859
20
15.1372114619
0
VERTEX
8
0
62
7
6
CONTINUOUS
10
16.4497524628
20
15.1338057616
0
VERTEX
8
0
62
7
6
CONTINUOUS
10
16.4578960016
20
15.1304826263
0
VERTEX
8
0
62
7
6
CONTINUOUS
10
16.4653927184
20
15.1271600658
0
VERTEX
8
0
62
7
6
CONTINUOUS
10
16.4723860990
20
15.1237876326
0
VERTEX
8
0
62
7
6
CONTINUOUS
10
16.4775624546
20
15.1210349209
0
VERTEX
8
0
62
7
6
CONTINUOUS
10
16.4822930936
20
15.1182231207
0
VERTEX
8
0
62
7
6
CONTINUOUS
10
16.4865984363
20
15.1153597653
0
VERTEX
8
0
62
7
6
CONTINUOUS
10
16.4904984369
20
15.1124514617
0
VERTEX
8
0
62
7
6
CONTINUOUS
10
16.4940124245
20
15.1095038170
0
VERTEX
8
0
62
7
6
CONTINUOUS
10
16.4971589225
20
15.1065213752
0
VERTEX
8
0
62
7
6
CONTINUOUS
10
16.4999554494
20
15.1035075686
0
VERTEX
8
0
62
7
6
CONTINUOUS
10
16.5024183010
20
15.1004646913
0
VERTEX
8
0
62
7
6
CONTINUOUS
10
16.5045623208
20
15.0973939017
0
VERTEX
8
0
62
7
6
CONTINUOUS
10
16.5064006642
20
15.0942952608
0
VERTEX
8
0
62
7
6
CONTINUOUS
10
16.5079445684
20
15.0911678151
0
VERTEX
8
0
62
7
6
CONTINUOUS
10
16.5092016499
20
15.0880139544
0
VERTEX
8
0
62
7
6
CONTINUOUS
10
16.5101789907
20
15.0848343800
0
VERTEX
8
0
62
7
6
CONTINUOUS
10
16.5108827734
20
15.0816265642
0
VERTEX
8
0
62
7
6
CONTINUOUS
10
16.5113167692
20
15.0783876149
0
VERTEX
8
0
62
7
6
CONTINUOUS
10
16.5114823156
20
15.0751145667
0
VERTEX
8
0
62
7
6
CONTINUOUS
10
16.5113783782
20
15.0718047006
0
VERTEX
8
0
62
7
6
CONTINUOUS
10
16.5110017015
20
15.0684558803
0
VERTEX
8
0
62
7
6
CONTINUOUS
10
16.5103470505
20
15.0650668908
0
VERTEX
8
0
62
7
6
CONTINUOUS
10
16.5094075408
20
15.0616377654
0
VERTEX
8
0
62
7
6
CONTINUOUS
10
16.5081750504
20
15.0581700900
0
VERTEX
8
0
62
7
6
CONTINUOUS
10
16.5066407026
20
15.0546672724
0
VERTEX
8
0
62
7
6
CONTINUOUS
10
16.5047954103
20
15.0511347668
0
VERTEX
8
0
62
7
6
CONTINUOUS
10
16.5026304635
20
15.0475802430
0
VERTEX
8
0
62
7
6
CONTINUOUS
10
16.5001381447
20
15.0440136906
0
VERTEX
8
0
62
7
6
CONTINUOUS
10
16.4973123481
20
15.0404474460
0
VERTEX
8
0
62
7
6
CONTINUOUS
10
16.4941491761
20
15.0368961349
0
VERTEX
8
0
62
7
6
CONTINUOUS
10
16.4906474838
20
15.0333765197
0
VERTEX
8
0
62
7
6
CONTINUOUS
10
16.4868093355
20
15.0299072504
0
VERTEX
8
0
62
7
6
CONTINUOUS
10
16.4826403433
20
15.0265085191
0
VERTEX
8
0
62
7
6
CONTINUOUS
10
16.4781498550
20
15.0232016301
0
VERTEX
8
0
62
7
6
CONTINUOUS
10
16.4733509730
20
15.0200085028
0
VERTEX
8
0
62
7
6
CONTINUOUS
10
16.4682603938
20
15.0169511348
0
VERTEX
8
0
62
7
6
CONTINUOUS
10
16.4628980763
20
15.0140510570
0
VERTEX
8
0
62
7
6
CONTINUOUS
10
16.4572867588
20
15.0113288162
0
VERTEX
8
0
62
7
6
CONTINUOUS
10
16.4537906260
20
15.0097802496
0
VERTEX
8
0
62
7
6
CONTINUOUS
10
16.4478453644
20
15.0073870610
0
VERTEX
8
0
62
7
6
CONTINUOUS
10
16.4417311604
20
15.0052204216
0
VERTEX
8
0
62
7
6
CONTINUOUS
10
16.4352326558
20
15.0032108704
0
VERTEX
8
0
62
7
6
CONTINUOUS
10
16.4283593479
20
15.0013693049
0
VERTEX
8
0
62
7
6
CONTINUOUS
10
16.4211080526
20
14.9997071194
0
VERTEX
8
0
62
7
6
CONTINUOUS
10
16.4134787288
20
14.9982362631
0
VERTEX
8
0
62
7
6
CONTINUOUS
10
16.4054751782
20
14.9969690537
0
VERTEX
8
0
62
7
6
CONTINUOUS
10
16.3971058249
20
14.9959179483
0
VERTEX
8
0
62
7
6
CONTINUOUS
10
16.3883845692
20
14.9950952600
0
VERTEX
8
0
62
7
6
CONTINUOUS
10
16.3793316978
20
14.9945128125
0
VERTEX
8
0
62
7
6
CONTINUOUS
10
16.3699748180
20
14.9941815231
0
VERTEX
8
0
62
7
6
CONTINUOUS
10
16.3603497614
20
14.9941109081
0
VERTEX
8
0
62
7
6
CONTINUOUS
10
16.3505013749
20
14.9943085139
0
VERTEX
8
0
62
7
6
CONTINUOUS
10
16.3404840870
20
14.9947792806
0
VERTEX
8
0
62
7
6
CONTINUOUS
10
16.3303621076
20
14.9955248668
0
VERTEX
8
0
62
7
6
CONTINUOUS
10
16.3202090939
20
14.9965429779
0
VERTEX
8
0
62
7
6
CONTINUOUS
10
16.3101071226
20
14.9978267619
0
VERTEX
8
0
62
7
6
CONTINUOUS
10
16.3001448344
20
14.9993643585
0
VERTEX
8
0
62
7
6
CONTINUOUS
10
16.2980761874
20
14.9997185102
0
VERTEX
8
0
62
7
6
CONTINUOUS
10
16.2884343387
20
15.0015343743
0
VERTEX
8
0
62
7
6
CONTINUOUS
10
16.2791798454
20
15.0035478093
0
VERTEX
8
0
62
7
6
CONTINUOUS
10
16.2703935806
20
15.0057287355
0
SEQEND
0
LINE
8
0
62
7
6
CONTINUOUS
10
18.3201831640
20
14.8555818605
11
18.3456456640
21
14.8426631105
0
LINE
8
0
62
7
6
CONTINUOUS
10
18.6417883723
20
15.0096047772
11
18.6349008723
21
15.0133068605
0
LINE
8
0
62
7
6
CONTINUOUS
10
17.9768154556
20
15.2390808188
11
18.1757237890
21
15.0587985272
0
LINE
8
0
62
7
6
CONTINUOUS
10
18.1355008723
20
15.0322641522
11
17.9491050390
21
15.2020079022
0
LINE
8
0
62
7
6
CONTINUOUS
10
18.6762425390
20
14.7968964438
11
18.6141800390
21
14.8623776938
0
LINE
8
0
62
7
6
CONTINUOUS
10
18.6202529556
20
14.8475360272
11
18.6823154556
21
14.7816079022
0
LINE
8
0
62
2
6
CONTINUOUS
10
29.5951840000
20
2.2425190000
11
29.6923820000
21
2.1210210000
0
LINE
8
0
62
2
6
CONTINUOUS
10
29.6531840000
20
2.2772710000
11
29.7781840000
21
2.1210210000
0
LINE
8
0
62
7
6
CONTINUOUS
10
27.5378521961
20
3.5455905550
11
28.9086119136
21
1.7278439732
0
LINE
8
DEFAULT_2
62
8
6
HIDDEN
10
16.9062500000
20
21.7750000000
11
17.0000000000
21
21.5875000000
0
LINE
8
0
6
CONTINUOUS
10
34.0000000000
20
16.5000000000
11
33.5250000000
21
16.5000000000
0
LINE
8
DEFAULT_2
62
8
6
HIDDEN
10
33.7125000000
20
11.0937500000
11
33.5250000000
21
11.0000000000
0
LINE
8
DEFAULT_2
62
8
6
HIDDEN
10
33.5250000000
20
11.0000000000
11
33.7125000000
21
10.9062500000
0
LINE
8
0
62
2
6
CONTINUOUS
10
30.8199350000
20
2.1210210000
11
30.7592420000
21
2.2303960000
0
LINE
8
0
62
2
6
CONTINUOUS
10
30.8276350000
20
2.2452290000
11
30.8965590000
21
2.1210210000
0
LINE
8
0
6
CONTINUOUS
10
25.5000000000
20
0.5875000000
11
25.5000000000
21
0.0000000000
0
LINE
8
0
6
CONTINUOUS
10
33.5250000000
20
21.5875000000
11
0.5250000000
21
21.5875000000
0
LINE
8
DEFAULT_2
62
8
6
HIDDEN
10
17.0937500000
20
21.7750000000
11
17.0234375000
21
21.7750000000
0
LINE
8
DEFAULT_2
62
8
6
HIDDEN
10
16.9765625000
20
21.7750000000
11
16.9062500000
21
21.7750000000
0
LINE
8
DEFAULT_2
62
8
6
HIDDEN
10
17.0234375000
20
21.9625000000
11
16.9765625000
21
21.9625000000
0
LINE
8
0
62
7
6
CONTINUOUS
10
0.0000000000
20
22.0000000000
11
34.0000000000
21
22.0000000000
0
LINE
8
0
62
2
6
CONTINUOUS
10
29.5281840000
20
2.1210210000
11
29.5281840000
21
2.4022710000
0
LINE
8
0
62
2
6
CONTINUOUS
10
29.5951840000
20
2.4022710000
11
29.5951840000
21
2.3140230000
0
LINE
8
0
62
2
6
CONTINUOUS
10
29.5951840000
20
2.1210210000
11
29.5951840000
21
2.2425190000
0
LINE
8
0
6
CONTINUOUS
10
29.7500000000
20
0.5875000000
11
29.7500000000
21
0.0000000000
0
LINE
8
0
62
2
6
CONTINUOUS
10
30.0594340000
20
2.4022710000
11
30.0594340000
21
2.1210210000
0
LINE
8
0
62
2
6
CONTINUOUS
10
30.1264340000
20
2.1210210000
11
30.1264340000
21
2.2437710000
0
LINE
8
0
62
2
6
CONTINUOUS
10
30.1264340000
20
2.3107710000
11
30.1264340000
21
2.4022710000
0
LINE
8
0
62
2
6
CONTINUOUS
10
30.2045590000
20
2.1210210000
11
30.2045590000
21
2.2437710000
0
LINE
8
0
62
2
6
CONTINUOUS
10
30.2045590000
20
2.3107710000
11
30.2045590000
21
2.4022710000
0
LINE
8
0
62
2
6
CONTINUOUS
10
30.2715590000
20
2.4022710000
11
30.2715590000
21
2.1210210000
0
LINE
8
0
62
2
6
CONTINUOUS
10
30.3028090000
20
2.4022710000
11
30.3028090000
21
2.1210210000
0
LINE
8
0
62
2
6
CONTINUOUS
10
30.3698090000
20
2.1880210000
11
30.3698090000
21
2.4022710000
0
LINE
8
0
62
2
6
CONTINUOUS
10
30.4590590000
20
2.1880210000
11
30.4590590000
21
2.1210210000
0
LINE
8
0
62
2
6
CONTINUOUS
10
30.4903090000
20
2.4022710000
11
30.4903090000
21
2.1210210000
0
LINE
8
0
62
2
6
CONTINUOUS
10
30.5573090000
20
2.2359590000
11
30.5573090000
21
2.1880210000
0
LINE
8
0
62
2
6
CONTINUOUS
10
30.5573090000
20
2.2873340000
11
30.5573090000
21
2.3352710000
0
LINE
8
0
62
2
6
CONTINUOUS
10
30.6465590000
20
2.2873340000
11
30.6465590000
21
2.2359590000
0
LINE
8
0
62
2
6
CONTINUOUS
10
30.6465590000
20
2.1880210000
11
30.6465590000
21
2.1210210000
0
LINE
8
0
62
2
6
CONTINUOUS
10
30.6465590000
20
2.3352710000
11
30.6465590000
21
2.4022710000
0
LINE
8
0
62
2
6
CONTINUOUS
10
30.6778090000
20
2.1210210000
11
30.6778090000
21
2.4022710000
0
LINE
8
0
62
2
6
CONTINUOUS
10
30.7448090000
20
2.3477710000
11
30.7448090000
21
2.2864590000
0
LINE
8
0
62
2
6
CONTINUOUS
10
30.7448090000
20
2.2303960000
11
30.7448090000
21
2.1210210000
0
LINE
8
0
62
7
6
CONTINUOUS
10
28.9086119136
20
3.5455905550
11
27.5378521961
21
1.7278439732
0
LINE
8
0
62
2
6
CONTINUOUS
10
32.1734380000
20
2.2935650000
11
32.1734380000
21
1.9727440000
0
LINE
8
0
62
2
6
CONTINUOUS
10
29.6834310000
20
2.4022710000
11
29.5951840000
21
2.3140230000
0
LINE
8
0
62
2
6
CONTINUOUS
10
29.7781840000
20
2.4022710000
11
29.6531840000
21
2.2772710000
0
LINE
8
0
62
2
6
CONTINUOUS
10
32.6734380000
20
2.2125000000
11
32.6734380000
21
2.0562500000
0
LINE
8
0
62
2
6
CONTINUOUS
10
32.9861199674
20
2.7522448979
11
32.9861199674
21
2.9866198979
0
LINE
8
0
62
2
6
CONTINUOUS
10
33.0171880000
20
1.9937500000
11
33.0171880000
21
2.2750000000
0
LINE
8
0
62
2
6
CONTINUOUS
10
33.0261199674
20
2.9466198979
11
33.0261199674
21
2.7922448979
0
LINE
8
0
6
CONTINUOUS
10
33.5250000000
20
0.5875000000
11
33.5250000000
21
21.5875000000
0
LINE
8
DEFAULT_2
62
8
6
HIDDEN
10
33.7125000000
20
10.9062500000
11
33.7125000000
21
10.9765625000
0
LINE
8
DEFAULT_2
62
8
6
HIDDEN
10
33.7125000000
20
11.0234375000
11
33.7125000000
21
11.0937500000
0
LINE
8
DEFAULT_2
62
8
6
HIDDEN
10
33.9000000000
20
10.9765625000
11
33.9000000000
21
11.0234375000
0
LINE
8
0
62
7
6
CONTINUOUS
10
34.0000000000
20
0.0000000000
11
34.0000000000
21
22.0000000000
0
POLYLINE
8
_CURVE
62
8
6
HIDDEN
66
1
70
0
0
VERTEX
8
_CURVE
62
8
6
HIDDEN
10
3.5351461039
20
10.9245899150
0
VERTEX
8
_CURVE
62
8
6
HIDDEN
10
3.5659727666
20
10.2576876013
0
VERTEX
8
_CURVE
62
8
6
HIDDEN
10
3.6582626979
20
9.5948969622
0
VERTEX
8
_CURVE
62
8
6
HIDDEN
10
3.8114468999
20
8.9403043222
0
VERTEX
8
_CURVE
62
8
6
HIDDEN
10
4.0245809409
20
8.2979454628
0
VERTEX
8
_CURVE
62
8
6
HIDDEN
10
4.2963507788
20
7.6717807399
0
VERTEX
8
_CURVE
62
8
6
HIDDEN
10
4.6250808620
20
7.0656706672
0
VERTEX
8
_CURVE
62
8
6
HIDDEN
10
5.0087444604
20
6.4833521149
0
VERTEX
8
_CURVE
62
8
6
HIDDEN
10
5.4449761601
20
5.9284152705
0
VERTEX
8
_CURVE
62
8
6
HIDDEN
10
5.9310864479
20
5.4042815042
0
VERTEX
8
_CURVE
62
8
6
HIDDEN
10
6.4640782920
20
4.9141822749
0
VERTEX
8
_CURVE
62
8
6
HIDDEN
10
7.0406656206
20
4.4611392074
0
VERTEX
8
_CURVE
62
8
6
HIDDEN
10
7.6572935810
20
4.0479454628
0
VERTEX
8
_CURVE
62
8
6
HIDDEN
10
8.3101604567
20
3.6771485180
0
VERTEX
8
_CURVE
62
8
6
HIDDEN
10
8.9952411065
20
3.3510344594
0
VERTEX
8
_CURVE
62
8
6
HIDDEN
10
9.7083117802
20
3.0716138886
0
VERTEX
8
_CURVE
62
8
6
HIDDEN
10
10.4449761601
20
2.8406095265
0
VERTEX
8
_CURVE
62
8
6
HIDDEN
10
11.2006924653
20
2.6594455916
0
VERTEX
8
_CURVE
62
8
6
HIDDEN
10
11.9708014535
20
2.5292390199
0
VERTEX
8
_CURVE
62
8
6
HIDDEN
10
12.7505551466
20
2.4507925783
0
VERTEX
8
_CURVE
62
8
6
HIDDEN
10
13.5351461039
20
2.4245899150
0
VERTEX
8
_CURVE
62
8
6
HIDDEN
10
14.3197370612
20
2.4507925783
0
VERTEX
8
_CURVE
62
8
6
HIDDEN
10
15.0994907543
20
2.5292390199
0
VERTEX
8
_CURVE
62
8
6
HIDDEN
10
15.8695997425
20
2.6594455916
0
VERTEX
8
_CURVE
62
8
6
HIDDEN
10
16.6253160476
20
2.8406095265
0
VERTEX
8
_CURVE
62
8
6
HIDDEN
10
17.3619804275
20
3.0716138886
0
VERTEX
8
_CURVE
62
8
6
HIDDEN
10
18.0750511013
20
3.3510344594
0
VERTEX
8
_CURVE
62
8
6
HIDDEN
10
18.7601317511
20
3.6771485180
0
VERTEX
8
_CURVE
62
8
6
HIDDEN
10
19.4129986268
20
4.0479454628
0
VERTEX
8
_CURVE
62
8
6
HIDDEN
10
20.0296265872
20
4.4611392074
0
VERTEX
8
_CURVE
62
8
6
HIDDEN
10
20.6062139158
20
4.9141822749
0
VERTEX
8
_CURVE
62
8
6
HIDDEN
10
21.1392057599
20
5.4042815042
0
VERTEX
8
_CURVE
62
8
6
HIDDEN
10
21.6253160476
20
5.9284152705
0
VERTEX
8
_CURVE
62
8
6
HIDDEN
10
22.0615477474
20
6.4833521149
0
VERTEX
8
_CURVE
62
8
6
HIDDEN
10
22.4452113458
20
7.0656706672
0
VERTEX
8
_CURVE
62
8
6
HIDDEN
10
22.7739414290
20
7.6717807399
0
VERTEX
8
_CURVE
62
8
6
HIDDEN
10
23.0457112668
20
8.2979454628
0
VERTEX
8
_CURVE
62
8
6
HIDDEN
10
23.2588453079
20
8.9403043222
0
VERTEX
8
_CURVE
62
8
6
HIDDEN
10
23.4120295098
20
9.5948969622
0
VERTEX
8
_CURVE
62
8
6
HIDDEN
10
23.5043194412
20
10.2576876013
0
VERTEX
8
_CURVE
62
8
6
HIDDEN
10
23.5351461039
20
10.9245899150
0
SEQEND
0
POLYLINE
8
_CURVE
62
7
6
CONTINUOUS
66
1
70
0
0
VERTEX
8
_CURVE
62
7
6
CONTINUOUS
10
3.7851461039
20
10.9245899150
0
VERTEX
8
_CURVE
62
7
6
CONTINUOUS
10
3.8152021000
20
11.5718774547
0
VERTEX
8
_CURVE
62
7
6
CONTINUOUS
10
3.9051847831
20
12.2151742516
0
VERTEX
8
_CURVE
62
7
6
CONTINUOUS
10
4.0545393800
20
12.8505141668
0
VERTEX
8
_CURVE
62
7
6
CONTINUOUS
10
4.2623450700
20
13.4739801186
0
VERTEX
8
_CURVE
62
7
6
CONTINUOUS
10
4.5273206619
20
14.0817282320
0
VERTEX
8
_CURVE
62
7
6
CONTINUOUS
10
4.8478324931
20
14.6700115378
0
VERTEX
8
_CURVE
62
7
6
CONTINUOUS
10
5.2219045014
20
15.2352030739
0
VERTEX
8
_CURVE
62
7
6
CONTINUOUS
10
5.6472304087
20
15.7738182464
0
VERTEX
8
_CURVE
62
7
6
CONTINUOUS
10
6.1211879393
20
16.2825363137
0
VERTEX
8
_CURVE
62
7
6
CONTINUOUS
10
6.6408549873
20
16.7582208598
0
VERTEX
8
_CURVE
62
7
6
CONTINUOUS
10
7.2030276327
20
17.1979391312
0
VERTEX
8
_CURVE
62
7
6
CONTINUOUS
10
7.8042398940
20
17.5989801186
0
VERTEX
8
_CURVE
62
7
6
CONTINUOUS
10
8.4407850979
20
17.9588712709
0
VERTEX
8
_CURVE
62
7
6
CONTINUOUS
10
9.1087387314
20
18.2753937395
0
VERTEX
8
_CURVE
62
7
6
CONTINUOUS
10
9.8039826383
20
18.5465960582
0
VERTEX
8
_CURVE
62
7
6
CONTINUOUS
10
10.5222304087
20
18.7708061744
0
VERTEX
8
_CURVE
62
7
6
CONTINUOUS
10
11.2590538063
20
18.9466417583
0
VERTEX
8
_CURVE
62
7
6
CONTINUOUS
10
12.0099100698
20
19.0730187249
0
VERTEX
8
_CURVE
62
7
6
CONTINUOUS
10
12.7701699205
20
19.1491579183
0
VERTEX
8
_CURVE
62
7
6
CONTINUOUS
10
13.5351461039
20
19.1745899150
0
VERTEX
8
_CURVE
62
7
6
CONTINUOUS
10
14.3001222872
20
19.1491579183
0
VERTEX
8
_CURVE
62
7
6
CONTINUOUS
10
15.0603821380
20
19.0730187249
0
VERTEX
8
_CURVE
62
7
6
CONTINUOUS
10
15.8112384015
20
18.9466417583
0
VERTEX
8
_CURVE
62
7
6
CONTINUOUS
10
16.5480617991
20
18.7708061744
0
VERTEX
8
_CURVE
62
7
6
CONTINUOUS
10
17.2663095695
20
18.5465960582
0
VERTEX
8
_CURVE
62
7
6
CONTINUOUS
10
17.9615534764
20
18.2753937395
0
VERTEX
8
_CURVE
62
7
6
CONTINUOUS
10
18.6295071099
20
17.9588712709
0
VERTEX
8
_CURVE
62
7
6
CONTINUOUS
10
19.2660523137
20
17.5989801186
0
VERTEX
8
_CURVE
62
7
6
CONTINUOUS
10
19.8672645751
20
17.1979391312
0
VERTEX
8
_CURVE
62
7
6
CONTINUOUS
10
20.4294372205
20
16.7582208598
0
VERTEX
8
_CURVE
62
7
6
CONTINUOUS
10
20.9491042685
20
16.2825363137
0
VERTEX
8
_CURVE
62
7
6
CONTINUOUS
10
21.4230617991
20
15.7738182464
0
VERTEX
8
_CURVE
62
7
6
CONTINUOUS
10
21.8483877063
20
15.2352030739
0
VERTEX
8
_CURVE
62
7
6
CONTINUOUS
10
22.2224597147
20
14.6700115378
0
VERTEX
8
_CURVE
62
7
6
CONTINUOUS
10
22.5429715459
20
14.0817282320
0
VERTEX
8
_CURVE
62
7
6
CONTINUOUS
10
22.8079471378
20
13.4739801186
0
VERTEX
8
_CURVE
62
7
6
CONTINUOUS
10
23.0157528278
20
12.8505141668
0
VERTEX
8
_CURVE
62
7
6
CONTINUOUS
10
23.1651074247
20
12.2151742516
0
VERTEX
8
_CURVE
62
7
6
CONTINUOUS
10
23.2550901078
20
11.5718774547
0
VERTEX
8
_CURVE
62
7
6
CONTINUOUS
10
23.2851461039
20
10.9245899150
0
SEQEND
0
LINE
8
0
62
2
6
CONTINUOUS
10
5.9276114381
20
5.4077417856
11
6.5597657559
21
7.5072272083
0
LINE
8
0
62
2
6
CONTINUOUS
10
5.3606515095
20
6.4280056010
11
6.1765251267
21
9.0401897252
0
LINE
8
0
62
2
6
CONTINUOUS
10
6.5597657559
20
7.5072272083
11
6.8097657559
21
7.5072272083
0
LINE
8
0
62
2
6
CONTINUOUS
10
6.1765251267
20
9.0401897252
11
6.4265251267
21
9.0401897252
0
LINE
8
_CURVE
62
2
6
CENTER
10
13.5351461039
20
2.6745899150
11
13.5351461039
21
1.6745899150
0
LINE
8
_CURVE
62
2
6
CENTER
10
13.5351461039
20
19.1745899150
11
13.5351461039
21
20.1745899150
0
LINE
8
_CURVE
62
2
6
CENTER
10
3.7851461039
20
10.9245899150
11
2.7851461039
21
10.9245899150
0
LINE
8
_CURVE
62
2
6
CENTER
10
23.2851461039
20
10.9245899150
11
24.2851461039
21
10.9245899150
0
POLYLINE
8
_CURVE
62
8
6
HIDDEN
66
1
70
0
0
VERTEX
8
_CURVE
62
8
6
HIDDEN
10
23.5351461039
20
10.9245899150
0
VERTEX
8
_CURVE
62
8
6
HIDDEN
10
23.5043194412
20
11.5914922287
0
VERTEX
8
_CURVE
62
8
6
HIDDEN
10
23.4120295098
20
12.2542828678
0
VERTEX
8
_CURVE
62
8
6
HIDDEN
10
23.2588453079
20
12.9088755078
0
VERTEX
8
_CURVE
62
8
6
HIDDEN
10
23.0457112668
20
13.5512343672
0
VERTEX
8
_CURVE
62
8
6
HIDDEN
10
22.7739414290
20
14.1773990901
0
VERTEX
8
_CURVE
62
8
6
HIDDEN
10
22.4452113458
20
14.7835091628
0
VERTEX
8
_CURVE
62
8
6
HIDDEN
10
22.0615477474
20
15.3658277151
0
VERTEX
8
_CURVE
62
8
6
HIDDEN
10
21.6253160476
20
15.9207645595
0
VERTEX
8
_CURVE
62
8
6
HIDDEN
10
21.1392057599
20
16.4448983258
0
VERTEX
8
_CURVE
62
8
6
HIDDEN
10
20.6062139158
20
16.9349975551
0
VERTEX
8
_CURVE
62
8
6
HIDDEN
10
20.0296265872
20
17.3880406226
0
VERTEX
8
_CURVE
62
8
6
HIDDEN
10
19.4129986268
20
17.8012343672
0
VERTEX
8
_CURVE
62
8
6
HIDDEN
10
18.7601317511
20
18.1720313120
0
VERTEX
8
_CURVE
62
8
6
HIDDEN
10
18.0750511013
20
18.4981453706
0
VERTEX
8
_CURVE
62
8
6
HIDDEN
10
17.3619804275
20
18.7775659413
0
VERTEX
8
_CURVE
62
8
6
HIDDEN
10
16.6253160476
20
19.0085703035
0
VERTEX
8
_CURVE
62
8
6
HIDDEN
10
15.8695997425
20
19.1897342384
0
VERTEX
8
_CURVE
62
8
6
HIDDEN
10
15.0994907543
20
19.3199408101
0
VERTEX
8
_CURVE
62
8
6
HIDDEN
10
14.3197370612
20
19.3983872517
0
VERTEX
8
_CURVE
62
8
6
HIDDEN
10
13.5351461039
20
19.4245899150
0
VERTEX
8
_CURVE
62
8
6
HIDDEN
10
12.7505551466
20
19.3983872517
0
VERTEX
8
_CURVE
62
8
6
HIDDEN
10
11.9708014535
20
19.3199408101
0
VERTEX
8
_CURVE
62
8
6
HIDDEN
10
11.2006924653
20
19.1897342384
0
VERTEX
8
_CURVE
62
8
6
HIDDEN
10
10.4449761601
20
19.0085703035
0
VERTEX
8
_CURVE
62
8
6
HIDDEN
10
9.7083117802
20
18.7775659413
0
VERTEX
8
_CURVE
62
8
6
HIDDEN
10
8.9952411065
20
18.4981453706
0
VERTEX
8
_CURVE
62
8
6
HIDDEN
10
8.3101604567
20
18.1720313120
0
VERTEX
8
_CURVE
62
8
6
HIDDEN
10
7.6572935810
20
17.8012343672
0
VERTEX
8
_CURVE
62
8
6
HIDDEN
10
7.0406656206
20
17.3880406226
0
VERTEX
8
_CURVE
62
8
6
HIDDEN
10
6.4640782920
20
16.9349975551
0
VERTEX
8
_CURVE
62
8
6
HIDDEN
10
5.9310864479
20
16.4448983258
0
VERTEX
8
_CURVE
62
8
6
HIDDEN
10
5.4449761601
20
15.9207645595
0
VERTEX
8
_CURVE
62
8
6
HIDDEN
10
5.0087444604
20
15.3658277151
0
VERTEX
8
_CURVE
62
8
6
HIDDEN
10
4.6250808620
20
14.7835091628
0
VERTEX
8
_CURVE
62
8
6
HIDDEN
10
4.2963507788
20
14.1773990901
0
VERTEX
8
_CURVE
62
8
6
HIDDEN
10
4.0245809409
20
13.5512343672
0
VERTEX
8
_CURVE
62
8
6
HIDDEN
10
3.8114468999
20
12.9088755078
0
VERTEX
8
_CURVE
62
8
6
HIDDEN
10
3.6582626979
20
12.2542828678
0
VERTEX
8
_CURVE
62
8
6
HIDDEN
10
3.5659727666
20
11.5914922287
0
VERTEX
8
_CURVE
62
8
6
HIDDEN
10
3.5351461039
20
10.9245899150
0
SEQEND
0
POLYLINE
8
_CURVE
62
7
6
CONTINUOUS
66
1
70
0
0
VERTEX
8
_CURVE
62
7
6
CONTINUOUS
10
23.2851461039
20
10.9245899150
0
VERTEX
8
_CURVE
62
7
6
CONTINUOUS
10
23.2550901078
20
10.2773023752
0
VERTEX
8
_CURVE
62
7
6
CONTINUOUS
10
23.1651074247
20
9.6340055784
0
VERTEX
8
_CURVE
62
7
6
CONTINUOUS
10
23.0157528278
20
8.9986656632
0
VERTEX
8
_CURVE
62
7
6
CONTINUOUS
10
22.8079471378
20
8.3751997114
0
VERTEX
8
_CURVE
62
7
6
CONTINUOUS
10
22.5429715459
20
7.7674515980
0
VERTEX
8
_CURVE
62
7
6
CONTINUOUS
10
22.2224597147
20
7.1791682921
0
VERTEX
8
_CURVE
62
7
6
CONTINUOUS
10
21.8483877063
20
6.6139767561
0
VERTEX
8
_CURVE
62
7
6
CONTINUOUS
10
21.4230617991
20
6.0753615836
0
VERTEX
8
_CURVE
62
7
6
CONTINUOUS
10
20.9491042685
20
5.5666435163
0
VERTEX
8
_CURVE
62
7
6
CONTINUOUS
10
20.4294372205
20
5.0909589702
0
VERTEX
8
_CURVE
62
7
6
CONTINUOUS
10
19.8672645751
20
4.6512406988
0
VERTEX
8
_CURVE
62
7
6
CONTINUOUS
10
19.2660523137
20
4.2501997114
0
VERTEX
8
_CURVE
62
7
6
CONTINUOUS
10
18.6295071099
20
3.8903085591
0
VERTEX
8
_CURVE
62
7
6
CONTINUOUS
10
17.9615534764
20
3.5737860904
0
VERTEX
8
_CURVE
62
7
6
CONTINUOUS
10
17.2663095695
20
3.3025837718
0
VERTEX
8
_CURVE
62
7
6
CONTINUOUS
10
16.5480617991
20
3.0783736556
0
VERTEX
8
_CURVE
62
7
6
CONTINUOUS
10
15.8112384015
20
2.9025380717
0
VERTEX
8
_CURVE
62
7
6
CONTINUOUS
10
15.0603821380
20
2.7761611051
0
VERTEX
8
_CURVE
62
7
6
CONTINUOUS
10
14.3001222872
20
2.7000219117
0
VERTEX
8
_CURVE
62
7
6
CONTINUOUS
10
13.5351461039
20
2.6745899150
0
VERTEX
8
_CURVE
62
7
6
CONTINUOUS
10
12.7701699205
20
2.7000219117
0
VERTEX
8
_CURVE
62
7
6
CONTINUOUS
10
12.0099100698
20
2.7761611051
0
VERTEX
8
_CURVE
62
7
6
CONTINUOUS
10
11.2590538063
20
2.9025380717
0
VERTEX
8
_CURVE
62
7
6
CONTINUOUS
10
10.5222304087
20
3.0783736556
0
VERTEX
8
_CURVE
62
7
6
CONTINUOUS
10
9.8039826383
20
3.3025837718
0
VERTEX
8
_CURVE
62
7
6
CONTINUOUS
10
9.1087387314
20
3.5737860904
0
VERTEX
8
_CURVE
62
7
6
CONTINUOUS
10
8.4407850979
20
3.8903085591
0
VERTEX
8
_CURVE
62
7
6
CONTINUOUS
10
7.8042398940
20
4.2501997114
0
VERTEX
8
_CURVE
62
7
6
CONTINUOUS
10
7.2030276327
20
4.6512406988
0
VERTEX
8
_CURVE
62
7
6
CONTINUOUS
10
6.6408549873
20
5.0909589702
0
VERTEX
8
_CURVE
62
7
6
CONTINUOUS
10
6.1211879393
20
5.5666435163
0
VERTEX
8
_CURVE
62
7
6
CONTINUOUS
10
5.6472304087
20
6.0753615836
0
VERTEX
8
_CURVE
62
7
6
CONTINUOUS
10
5.2219045014
20
6.6139767561
0
VERTEX
8
_CURVE
62
7
6
CONTINUOUS
10
4.8478324931
20
7.1791682921
0
VERTEX
8
_CURVE
62
7
6
CONTINUOUS
10
4.5273206619
20
7.7674515980
0
VERTEX
8
_CURVE
62
7
6
CONTINUOUS
10
4.2623450700
20
8.3751997114
0
VERTEX
8
_CURVE
62
7
6
CONTINUOUS
10
4.0545393800
20
8.9986656632
0
VERTEX
8
_CURVE
62
7
6
CONTINUOUS
10
3.9051847831
20
9.6340055784
0
VERTEX
8
_CURVE
62
7
6
CONTINUOUS
10
3.8152021000
20
10.2773023752
0
VERTEX
8
_CURVE
62
7
6
CONTINUOUS
10
3.7851461039
20
10.9245899150
0
SEQEND
0
ARC
8
0
62
2
6
CONTINUOUS
10
30.7781840000
20
2.3171150000
40
0.0306560000
50
270.0000000000
51
90.0000000000
0
CIRCLE
8
0
62
2
6
CONTINUOUS
10
32.1734380000
20
2.1343750000
40
0.0781250000
0
CIRCLE
8
0
62
2
6
CONTINUOUS
10
32.1734380000
20
2.1343750000
40
0.1406250000
0
CIRCLE
8
0
62
2
6
CONTINUOUS
10
29.8875590000
20
2.2616460000
40
0.0736250000
0
CIRCLE
8
0
62
2
6
CONTINUOUS
10
29.8875590000
20
2.2616460000
40
0.1406250000
0
ARC
8
0
62
2
6
CONTINUOUS
10
30.7793710000
20
2.3163340000
40
0.0859379702
50
304.1675166806
51
90.0000000000
0
ARC
8
0
62
2
6
CONTINUOUS
10
33.0598699674
20
2.8616198979
40
0.1427264745
50
347.2970674615
51
35.8107683241
0
ARC
8
0
62
2
6
CONTINUOUS
10
33.0598699674
20
2.8616198979
40
0.1028104052
50
347.3505396154
51
35.7301523998
0
ARC
8
0
62
2
6
CONTINUOUS
10
33.0945189674
20
2.8866198979
40
0.1000004917
50
35.8105581291
51
90.0000000000
0
ARC
8
0
62
2
6
CONTINUOUS
10
33.0946219674
20
2.8866198979
40
0.0600002774
50
35.7298326621
51
90.0000000000
0
ARC
8
0
62
2
6
CONTINUOUS
10
33.1016409674
20
2.8522448979
40
0.0600000000
50
270.0000000000
51
347.3507330983
0
ARC
8
0
62
2
6
CONTINUOUS
10
33.1015559674
20
2.8522448979
40
0.1000000000
50
270.0000000000
51
347.2850012235
0
CIRCLE
8
0
62
2
6
CONTINUOUS
10
14.4564718931
20
3.0533645757
40
0.0276969375
0
ARC
8
0
62
7
6
CONTINUOUS
10
18.5387467149
20
14.8402980063
40
0.0203971317
50
260.4787245939
51
99.5212754061
0
CIRCLE
8
0
62
7
6
CONTINUOUS
10
18.3890310295
20
14.8227349855
40
0.0328469513
0
CIRCLE
8
0
62
7
6
CONTINUOUS
10
18.3893546081
20
14.8227355063
40
0.0386067017
0
ARC
8
0
62
7
6
CONTINUOUS
10
18.3196393277
20
14.8226793972
40
0.0384978308
50
47.5048873671
51
180.0087362707
0
ARC
8
0
62
7
6
CONTINUOUS
10
18.3200705704
20
14.8230591259
40
0.0389309828
50
180.5675053294
51
310.5520051654
0
CIRCLE
8
0
62
7
6
CONTINUOUS
10
17.9349808848
20
14.8148157147
40
0.0238498089
0
CIRCLE
8
0
62
7
6
CONTINUOUS
10
18.6384717056
20
15.0160098248
40
0.0151710485
0
ARC
8
0
62
7
6
CONTINUOUS
10
18.4824221841
20
15.0670867447
40
0.1684170488
50
59.2085551990
51
93.5831215674
0
ARC
8
0
62
7
6
CONTINUOUS
10
18.2465844918
20
15.1374097311
40
0.1529547753
50
223.4269507726
51
258.0242403069
0
ARC
8
0
62
7
6
CONTINUOUS
10
17.3763218470
20
15.0855700571
40
0.0856914605
50
230.1562195028
51
275.4518816802
0
ARC
8
0
62
7
6
CONTINUOUS
10
16.9887277107
20
15.1336775028
40
0.0958677755
50
56.1755396367
51
96.4463209909
0
ARC
8
0
62
7
6
CONTINUOUS
10
16.5835471981
20
15.1092208930
40
0.1198356353
50
87.4638787987
51
119.6947324667
0
CIRCLE
8
___NOTE
62
2
6
CONTINUOUS
10
22.5613984392
20
1.5937479138
40
0.1368374908
0
ENDSEC
0
EOF
