999
DXF file: 1033117_7_b.dxf
999
Pro/ENGINEER 2005030 by Parametric Technology Corporation
0
SECTION
2
HEADER
9
$EXTMAX
10
34.0000000000
20
22.0000000000
30
0.0000000000
9
$EXTMIN
10
0.0000000000
20
0.0000000000
30
0.0000000000
9
$LIMMIN
10
0.0000000000
20
0.0000000000
9
$LIMMAX
10
34.0000000000
20
22.0000000000
9
$VIEWCTR
10
17.0000000000
20
11.0000000000
9
$VIEWSIZE
40
22.0000000000
9
$CLAYER
8
0
9
$LTSCALE
40
1.8700000000
9
$CELTYPE
6
BYLAYER
9
$DIMSCALE
40
1
9
$DIMASZ
40
0.1875000000
9
$DIMEXO
40
0.2125000000
9
$DIMDLI
40
1.2920000000
9
$DIMEXE
40
0.6120000000
9
$DIMCEN
40
0.3060000000
9
$DIMLFAC
40
1.0000000000
9
$DIMBLK
1
_FILLED
9
$DIMTXT
40
0.1562500000
9
$PDMODE
70
3
9
$PDSIZE
40
0.3125000000
0
ENDSEC
0
SECTION
2
TABLES
0
TABLE
2
LTYPE
70
6
0
LTYPE
2
BYBLOCK
70
0
3

72
65
73
0
40
0.0
0
LTYPE
2
BYLAYER
70
0
3

72
65
73
0
40
0.0
0
LTYPE
2
CONTINUOUS
70
64
3
Solid line
72
65
73
0
40
0
0
LTYPE
2
CENTER
70
64
3
____ _ ____ _ ____ _ ____ _ ____ _ ____ _ ____
72
65
73
4
40
0.6
49
0.375
49
-0.075
49
0.075
49
-0.075
0
LTYPE
2
HIDDEN
70
64
3
- - - - - - - - - - - - - - - - - - - -
72
65
73
2
40
0.2
49
0.1
49
-0.1
0
LTYPE
2
PHANTOM
70
64
3
_____ _ _ _____ _ _ _____ _ _ _____
72
65
73
6
40
0.8
49
0.45
49
-0.05
49
0.1
49
-0.05
49
0.1
49
-0.05
0
LTYPE
2
DOT
70
64
3
. . . . . . . . . . . . . . . . . . . .
72
65
73
2
40
0.2
49
0.1
49
-0.1
0
LTYPE
2
DASHED
70
64
3
- - - - - - - - - - - - - - - - - - - -
72
65
73
2
40
0.2
49
0.1
49
-0.1
0
ENDTAB
0
TABLE
2
LAYER
70
36
0
LAYER
2
0
70
0
62
7
6
CONTINUOUS
0
LAYER
2
DEFAULT_1
70
0
62
7
6
CENTER
0
LAYER
2
DEFAULT_2
70
0
62
8
6
HIDDEN
0
LAYER
2
DEFAULT_3
70
0
62
7
6
PHANTOM
0
LAYER
2
_2D_DELETED_OBJS
70
0
62
7
6
CONTINUOUS
0
LAYER
2
DATUMS
70
0
62
7
6
CONTINUOUS
0
LAYER
2
DATUM_AXIS
70
0
62
7
6
CONTINUOUS
0
LAYER
2
DATUM_CSYS
70
0
62
7
6
CONTINUOUS
0
LAYER
2
DATUM_PLANE
70
0
62
7
6
CONTINUOUS
0
LAYER
2
DATUM_POINT
70
0
62
7
6
CONTINUOUS
0
LAYER
2
_CURVE
70
0
62
7
6
CONTINUOUS
0
LAYER
2
_SURFACE
70
0
62
7
6
CONTINUOUS
0
LAYER
2
__REF_CURVE
70
0
62
7
6
CONTINUOUS
0
LAYER
2
__REF_SURFACE
70
0
62
7
6
CONTINUOUS
0
LAYER
2
___NOTE
70
0
62
7
6
CONTINUOUS
0
LAYER
2
___SYMBOL
70
0
62
7
6
CONTINUOUS
0
ENDTAB
0
TABLE
2
STYLE
70
1
0
STYLE
2
STANDARD
70
0
40
0.0
41
0.8000000000
50
0.0
71
0
42
0.2
3
txt
4

0
ENDTAB
0
ENDSEC
0
SECTION
2
BLOCKS
0
BLOCK
8
0
62
2
6
CONTINUOUS
2
*D0
70
65
10
0.0000000000
20
0.0000000000
0
TEXT
8
0
62
2
6
CONTINUOUS
10
17.4861815457
20
9.7664740221
7
STANDARD
40
0.1562500000
1
"
41
0.8000000000
72
0
0
TEXT
8
0
62
2
6
CONTINUOUS
10
16.6111815457
20
9.5320990221
7
STANDARD
40
0.1562500000
1
(32,4 cm)
41
0.8000000000
72
0
0
TEXT
8
0
62
2
6
CONTINUOUS
10
16.7361815457
20
9.7664740221
7
STANDARD
40
0.1562500000
1
12-3/4
41
0.8000000000
72
0
0
LINE
8
0
62
2
6
CONTINUOUS
10
11.5928026035
20
9.8909119075
11
11.5928026035
21
9.9695990221
0
LINE
8
0
62
2
6
CONTINUOUS
10
24.3428026035
20
9.8909119075
11
24.3428026035
21
9.9695990221
0
LINE
8
0
62
2
6
CONTINUOUS
10
11.5928026035
20
9.8445990221
11
16.5330565457
21
9.8445990221
0
LINE
8
0
62
2
6
CONTINUOUS
10
24.3428026035
20
9.8445990221
11
17.8143065457
21
9.8445990221
0
INSERT
8
0
62
2
6
CONTINUOUS
2
_FILLED
10
11.5928026035
20
9.8445990221
41
  0.187500
42
  0.187500
43
  0.187500
50
180.000000
0
INSERT
8
0
62
2
6
CONTINUOUS
2
_FILLED
10
24.3428026035
20
9.8445990221
41
  0.187500
42
  0.187500
43
  0.187500
0
ENDBLK
8
0
6
BYBLOCK
62
0
0
BLOCK
8
0
62
2
6
CONTINUOUS
2
*D1
70
65
10
0.0000000000
20
0.0000000000
0
TEXT
8
0
62
2
6
CONTINUOUS
10
18.0084212934
20
12.0935798896
7
STANDARD
40
0.1562500000
1
"
41
0.8000000000
72
0
0
TEXT
8
0
62
2
6
CONTINUOUS
10
17.3834212934
20
11.8592048896
7
STANDARD
40
0.1562500000
1
(25,4 cm)
41
0.8000000000
72
0
0
TEXT
8
0
62
2
6
CONTINUOUS
10
17.7584212934
20
12.0935798896
7
STANDARD
40
0.1562500000
1
10
41
0.8000000000
72
0
0
LINE
8
0
62
2
6
CONTINUOUS
10
17.9053026035
20
4.8284119075
11
17.8209212934
21
4.8284119075
0
LINE
8
0
62
2
6
CONTINUOUS
10
17.9053026035
20
14.8284119075
11
17.8209212934
21
14.8284119075
0
LINE
8
0
62
2
6
CONTINUOUS
10
17.9459212934
20
4.8284119075
11
17.9459212934
21
11.7810798896
0
LINE
8
0
62
2
6
CONTINUOUS
10
17.9459212934
20
14.8284119075
11
17.9459212934
21
12.3279548896
0
INSERT
8
0
62
2
6
CONTINUOUS
2
_FILLED
10
17.9459212934
20
4.8284119075
41
  0.187500
42
  0.187500
43
  0.187500
50
270.000000
0
INSERT
8
0
62
2
6
CONTINUOUS
2
_FILLED
10
17.9459212934
20
14.8284119075
41
  0.187500
42
  0.187500
43
  0.187500
50
 90.000000
0
ENDBLK
8
0
6
BYBLOCK
62
0
0
BLOCK
8
0
62
2
6
CONTINUOUS
2
*D2
70
65
10
0.0000000000
20
0.0000000000
0
TEXT
8
0
62
2
6
CONTINUOUS
10
19.8035185804
20
10.7064828549
7
STANDARD
40
0.1562500000
1
"
41
0.8000000000
72
0
0
TEXT
8
0
62
2
6
CONTINUOUS
10
19.0535185804
20
10.4721078549
7
STANDARD
40
0.1562500000
1
[28 cm]
41
0.8000000000
72
0
0
TEXT
8
0
62
2
6
CONTINUOUS
10
19.0535185804
20
10.7064828549
7
STANDARD
40
0.1562500000
1
11-1/8
41
0.8000000000
72
0
0
LINE
8
0
62
2
6
CONTINUOUS
10
23.5303026035
20
9.8909119075
11
23.5303026035
21
10.9096078549
0
LINE
8
0
62
2
6
CONTINUOUS
10
12.4053026035
20
9.8909119075
11
12.4053026035
21
10.9096078549
0
LINE
8
0
62
2
6
CONTINUOUS
10
23.5303026035
20
10.7846078549
11
20.0066435804
21
10.7846078549
0
LINE
8
0
62
2
6
CONTINUOUS
10
12.4053026035
20
10.7846078549
11
18.9753935804
21
10.7846078549
0
INSERT
8
0
62
2
6
CONTINUOUS
2
_FILLED
10
23.5303026035
20
10.7846078549
41
  0.187500
42
  0.187500
43
  0.187500
0
INSERT
8
0
62
2
6
CONTINUOUS
2
_FILLED
10
12.4053026035
20
10.7846078549
41
  0.187500
42
  0.187500
43
  0.187500
50
180.000000
0
ENDBLK
8
0
6
BYBLOCK
62
0
0
BLOCK
8
0
62
2
6
CONTINUOUS
2
*D3
70
65
10
0.0000000000
20
0.0000000000
0
TEXT
8
0
62
2
6
CONTINUOUS
10
18.9125597792
20
8.6702410883
7
STANDARD
40
0.1562500000
1
"
41
0.8000000000
72
0
0
TEXT
8
0
62
2
6
CONTINUOUS
10
18.2250597792
20
8.4358660883
7
STANDARD
40
0.1562500000
1
[21 cm]
41
0.8000000000
72
0
0
TEXT
8
0
62
2
6
CONTINUOUS
10
18.2875597792
20
8.6702410883
7
STANDARD
40
0.1562500000
1
8-3/8
41
0.8000000000
72
0
0
LINE
8
0
62
2
6
CONTINUOUS
10
18.0303026035
20
14.0159119075
11
18.7875597792
21
14.0159119075
0
LINE
8
0
62
2
6
CONTINUOUS
10
18.0303026035
20
5.6409119075
11
18.7875597792
21
5.6409119075
0
LINE
8
0
62
2
6
CONTINUOUS
10
18.6625597792
20
14.0159119075
11
18.6625597792
21
8.9046160883
0
LINE
8
0
62
2
6
CONTINUOUS
10
18.6625597792
20
5.6409119075
11
18.6625597792
21
8.3577410883
0
INSERT
8
0
62
2
6
CONTINUOUS
2
_FILLED
10
18.6625597792
20
14.0159119075
41
  0.187500
42
  0.187500
43
  0.187500
50
 90.000000
0
INSERT
8
0
62
2
6
CONTINUOUS
2
_FILLED
10
18.6625597792
20
5.6409119075
41
  0.187500
42
  0.187500
43
  0.187500
50
270.000000
0
ENDBLK
8
0
6
BYBLOCK
62
0
0
BLOCK
8
___SYMBOL
62
2
6
CONTINUOUS
2
PACKAGING_UPC_NOTE_BL0
70
64
10
10.2626874887
20
4.8507945488
0
TEXT
8
___SYMBOL
62
7
6
CONTINUOUS
10
8.6661866932
20
5.3777978409
7
STANDARD
40
0.0593587493
1
XXXXX-XX-X-XX
41
0.8258950223
72
0
0
TEXT
8
___SYMBOL
62
7
6
CONTINUOUS
10
10.3001666742
20
5.2486328424
7
STANDARD
40
0.0445192495
1
xxxxxx-xx
41
0.6740211631
72
0
0
TEXT
8
___SYMBOL
62
2
6
CONTINUOUS
10
7.5358423979
20
6.9214265027
7
STANDARD
40
0.1562500052
1
PACKAGING/UPC LABEL ON BOX
41
0.8000000000
72
0
0
TEXT
8
___SYMBOL
62
2
6
CONTINUOUS
10
7.5358423979
20
6.6870514948
7
STANDARD
40
0.1562500052
1
ETIQUETA DE EMBALAJE/UPC EN LA CAJA
41
0.8000000000
72
0
0
TEXT
8
___SYMBOL
62
2
6
CONTINUOUS
10
7.5358423979
20
6.4526764935
7
STANDARD
40
0.1562500000
1
ETIQUETTE D'EMBALLAGE/UPC SUR LA BOÎTE
41
0.8000000000
72
0
0
TEXT
8
___SYMBOL
62
2
6
CONTINUOUS
10
7.5126874887
20
4.7332875898
7
STANDARD
40
0.1562500000
1
The template and the label suffixes circled
41
0.8000000000
72
0
0
TEXT
8
___SYMBOL
62
2
6
CONTINUOUS
10
7.5126874887
20
4.4989125898
7
STANDARD
40
0.1562500000
1
must match for proper cut-out.
41
0.8000000000
72
0
0
TEXT
8
___SYMBOL
62
2
6
CONTINUOUS
10
7.5126874887
20
4.2645375898
7
STANDARD
40
0.1562500000
1
 
41
0.8000000000
72
0
0
TEXT
8
___SYMBOL
62
2
6
CONTINUOUS
10
7.5126874887
20
4.0301625898
7
STANDARD
40
0.1562500000
1
Los sufijos de la plantilla y de la etiqueta
41
0.8000000000
72
0
0
TEXT
8
___SYMBOL
62
2
6
CONTINUOUS
10
7.5126874887
20
3.7957875898
7
STANDARD
40
0.1562500000
1
encerrados en un círculo deben ser
41
0.8000000000
72
0
0
TEXT
8
___SYMBOL
62
2
6
CONTINUOUS
10
7.5126874887
20
3.5614125898
7
STANDARD
40
0.1562500000
1
iguales para la abertura correcta.
41
0.8000000000
72
0
0
TEXT
8
___SYMBOL
62
2
6
CONTINUOUS
10
7.5126874887
20
3.3270375898
7
STANDARD
40
0.1562500000
1
 
41
0.8000000000
72
0
0
TEXT
8
___SYMBOL
62
2
6
CONTINUOUS
10
7.5126874887
20
3.0926625898
7
STANDARD
40
0.1562500000
1
Le gabarit et les suffixes de l'étiquette
41
0.8000000000
72
0
0
TEXT
8
___SYMBOL
62
2
6
CONTINUOUS
10
7.5126874887
20
2.8582875898
7
STANDARD
40
0.1562500000
1
entourés doivent correspondre pour
41
0.8000000000
72
0
0
TEXT
8
___SYMBOL
62
2
6
CONTINUOUS
10
7.5126874887
20
2.6239125898
7
STANDARD
40
0.1562500000
1
une découpe correcte.
41
0.8000000000
72
0
0
LINE
8
___SYMBOL
62
7
6
CONTINUOUS
10
10.6549916700
20
5.2219028427
11
8.4699491955
21
5.2219028427
0
LINE
8
___SYMBOL
62
7
6
CONTINUOUS
10
8.4699491955
20
5.2219028427
11
8.4699491955
21
6.2149328311
0
LINE
8
___SYMBOL
62
7
6
CONTINUOUS
10
8.4699491955
20
6.2149328311
11
10.6549916700
21
6.2149328311
0
LINE
8
___SYMBOL
62
7
6
CONTINUOUS
10
10.6549916700
20
6.2149328311
11
10.6549916700
21
5.2219028427
0
LINE
8
___SYMBOL
62
7
6
CONTINUOUS
10
8.4365816959
20
6.2473928307
11
10.6891466696
21
6.2473928307
0
LINE
8
___SYMBOL
62
7
6
CONTINUOUS
10
10.6891466696
20
6.2473928307
11
10.6891466696
21
5.1544853435
0
LINE
8
___SYMBOL
62
7
6
CONTINUOUS
10
10.6891466696
20
5.1544853435
11
8.4365816959
21
5.1544853435
0
LINE
8
___SYMBOL
62
7
6
CONTINUOUS
10
8.4365816959
20
5.1544853435
11
8.4365816959
21
6.2473928307
0
LINE
8
___SYMBOL
62
7
6
CONTINUOUS
10
10.4498066724
20
5.6535728376
11
10.4498066724
21
5.5319378391
0
LINE
8
___SYMBOL
62
7
6
CONTINUOUS
10
10.4498066724
20
5.5319378391
11
10.1068541764
21
5.5319378391
0
LINE
8
___SYMBOL
62
7
6
CONTINUOUS
10
10.1068541764
20
5.5319378391
11
10.1068541764
21
5.6535728376
0
LINE
8
___SYMBOL
62
7
6
CONTINUOUS
10
10.1068541764
20
5.6535728376
11
10.4498066724
21
5.6535728376
0
SOLID
8
___SYMBOL
62
7
6
CONTINUOUS
10
10.1068541764
20
5.5319378300
11
10.1068541764
21
5.6535728300
12
10.4498066724
22
5.6535728300
13
10.4498066724
23
5.6535728300
0
SOLID
8
___SYMBOL
62
7
6
CONTINUOUS
10
10.4498066724
20
5.6535728300
11
10.4498066724
21
5.5319378300
12
10.1068541764
22
5.5319378300
13
10.1068541764
23
5.5319378300
0
LINE
8
___SYMBOL
62
7
6
CONTINUOUS
10
9.3743516850
20
5.6535728376
11
9.3743516850
21
5.5319378391
0
LINE
8
___SYMBOL
62
7
6
CONTINUOUS
10
9.3743516850
20
5.5319378391
11
8.5186466950
21
5.5319378391
0
LINE
8
___SYMBOL
62
7
6
CONTINUOUS
10
8.5186466950
20
5.5319378391
11
8.5186466950
21
5.6535728376
0
LINE
8
___SYMBOL
62
7
6
CONTINUOUS
10
8.5186466950
20
5.6535728376
11
9.3743516850
21
5.6535728376
0
SOLID
8
___SYMBOL
62
7
6
CONTINUOUS
10
8.5186466950
20
5.5319378300
11
8.5186466950
21
5.6535728300
12
9.3743516850
22
5.6535728300
13
9.3743516850
23
5.6535728300
0
SOLID
8
___SYMBOL
62
7
6
CONTINUOUS
10
9.3743516850
20
5.6535728300
11
9.3743516850
21
5.5319378300
12
8.5186466950
22
5.5319378300
13
8.5186466950
23
5.5319378300
0
LINE
8
___SYMBOL
62
7
6
CONTINUOUS
10
9.3743516850
20
5.2803053420
11
9.3743516850
21
5.2453253424
0
LINE
8
___SYMBOL
62
7
6
CONTINUOUS
10
9.3743516850
20
5.2453253424
11
8.5186466950
21
5.2453253424
0
LINE
8
___SYMBOL
62
7
6
CONTINUOUS
10
8.5186466950
20
5.2453253424
11
8.5186466950
21
5.2803053420
0
LINE
8
___SYMBOL
62
7
6
CONTINUOUS
10
8.5186466950
20
5.2803053420
11
9.3743516850
21
5.2803053420
0
SOLID
8
___SYMBOL
62
7
6
CONTINUOUS
10
8.5186466950
20
5.2453253440
11
8.5186466950
21
5.2803053260
12
9.3743516850
22
5.2803053260
13
9.3743516850
23
5.2803053260
0
SOLID
8
___SYMBOL
62
7
6
CONTINUOUS
10
9.3743516850
20
5.2803053260
11
9.3743516850
21
5.2453253440
12
8.5186466950
22
5.2453253440
13
8.5186466950
23
5.2453253440
0
POLYLINE
8
___SYMBOL
62
7
6
CONTINUOUS
66
1
70
0
0
VERTEX
8
___SYMBOL
62
7
6
CONTINUOUS
10
9.2403566386
20
5.4920829598
0
VERTEX
8
___SYMBOL
62
7
6
CONTINUOUS
10
9.2176284739
20
5.4829963629
0
VERTEX
8
___SYMBOL
62
7
6
CONTINUOUS
10
9.1985782149
20
5.4676267430
0
VERTEX
8
___SYMBOL
62
7
6
CONTINUOUS
10
9.1848912538
20
5.4473338631
0
VERTEX
8
___SYMBOL
62
7
6
CONTINUOUS
10
9.1777784874
20
5.4239130510
0
VERTEX
8
___SYMBOL
62
7
6
CONTINUOUS
10
9.1778691878
20
5.3994363652
0
VERTEX
8
___SYMBOL
62
7
6
CONTINUOUS
10
9.1851553308
20
5.3760692783
0
VERTEX
8
___SYMBOL
62
7
6
CONTINUOUS
10
9.1989923053
20
5.3558790957
0
VERTEX
8
___SYMBOL
62
7
6
CONTINUOUS
10
9.2181559427
20
5.3406520595
0
VERTEX
8
___SYMBOL
62
7
6
CONTINUOUS
10
9.2409508203
20
5.3317353182
0
VERTEX
8
___SYMBOL
62
7
6
CONTINUOUS
10
9.2653602565
20
5.3299177431
0
VERTEX
8
___SYMBOL
62
7
6
CONTINUOUS
10
9.2892247283
20
5.3353601368
0
VERTEX
8
___SYMBOL
62
7
6
CONTINUOUS
10
9.3104329262
20
5.3475810060
0
VERTEX
8
___SYMBOL
62
7
6
CONTINUOUS
10
9.3271085436
20
5.3654991604
0
VERTEX
8
___SYMBOL
62
7
6
CONTINUOUS
10
9.3377762748
20
5.3875293662
0
VERTEX
8
___SYMBOL
62
7
6
CONTINUOUS
10
9.3414923368
20
5.4117225929
0
VERTEX
8
___SYMBOL
62
7
6
CONTINUOUS
10
9.3379279666
20
5.4359384458
0
VERTEX
8
___SYMBOL
62
7
6
CONTINUOUS
10
9.3273985069
20
5.4580345284
0
VERTEX
8
___SYMBOL
62
7
6
CONTINUOUS
10
9.3108355077
20
5.4760559822
0
VERTEX
8
___SYMBOL
62
7
6
CONTINUOUS
10
9.2897043112
20
5.4884084342
0
VERTEX
8
___SYMBOL
62
7
6
CONTINUOUS
10
9.2658744118
20
5.4939990528
0
VERTEX
8
___SYMBOL
62
7
6
CONTINUOUS
10
9.2414540602
20
5.4923332314
0
SEQEND
0
LINE
8
___SYMBOL
62
7
6
CONTINUOUS
10
9.4210016844
20
6.1868078314
11
9.4210016844
21
6.1251578321
0
LINE
8
___SYMBOL
62
7
6
CONTINUOUS
10
9.4210016844
20
6.1251578321
11
8.5652966944
21
6.1251578321
0
LINE
8
___SYMBOL
62
7
6
CONTINUOUS
10
8.5652966944
20
6.1251578321
11
8.5652966944
21
6.1868078314
0
LINE
8
___SYMBOL
62
7
6
CONTINUOUS
10
8.5652966944
20
6.1868078314
11
9.4210016844
21
6.1868078314
0
SOLID
8
___SYMBOL
62
7
6
CONTINUOUS
10
8.5652966944
20
6.1251578280
11
8.5652966944
21
6.1868078180
12
9.4210016844
22
6.1868078180
13
9.4210016844
23
6.1868078180
0
SOLID
8
___SYMBOL
62
7
6
CONTINUOUS
10
9.4210016844
20
6.1868078180
11
9.4210016844
21
6.1251578280
12
8.5652966944
22
6.1251578280
13
8.5652966944
23
6.1251578280
0
LINE
8
___SYMBOL
62
7
6
CONTINUOUS
10
9.4210016844
20
6.0868253326
11
9.4210016844
21
6.0251753333
0
LINE
8
___SYMBOL
62
7
6
CONTINUOUS
10
9.4210016844
20
6.0251753333
11
8.5652966944
21
6.0251753333
0
LINE
8
___SYMBOL
62
7
6
CONTINUOUS
10
8.5652966944
20
6.0251753333
11
8.5652966944
21
6.0868253326
0
LINE
8
___SYMBOL
62
7
6
CONTINUOUS
10
8.5652966944
20
6.0868253326
11
9.4210016844
21
6.0868253326
0
SOLID
8
___SYMBOL
62
7
6
CONTINUOUS
10
8.5652966944
20
6.0251753200
11
8.5652966944
21
6.0868253440
12
9.4210016844
22
6.0868253440
13
9.4210016844
23
6.0868253440
0
SOLID
8
___SYMBOL
62
7
6
CONTINUOUS
10
9.4210016844
20
6.0868253440
11
9.4210016844
21
6.0251753200
12
8.5652966944
22
6.0251753200
13
8.5652966944
23
6.0251753200
0
LINE
8
___SYMBOL
62
7
6
CONTINUOUS
10
9.4210016844
20
5.9868428338
11
9.4210016844
21
5.9252003345
0
LINE
8
___SYMBOL
62
7
6
CONTINUOUS
10
9.4210016844
20
5.9252003345
11
8.5652966944
21
5.9252003345
0
LINE
8
___SYMBOL
62
7
6
CONTINUOUS
10
8.5652966944
20
5.9252003345
11
8.5652966944
21
5.9868428338
0
LINE
8
___SYMBOL
62
7
6
CONTINUOUS
10
8.5652966944
20
5.9868428338
11
9.4210016844
21
5.9868428338
0
SOLID
8
___SYMBOL
62
7
6
CONTINUOUS
10
8.5652966944
20
5.9252003260
11
8.5652966944
21
5.9868428360
12
9.4210016844
22
5.9868428360
13
9.4210016844
23
5.9868428360
0
SOLID
8
___SYMBOL
62
7
6
CONTINUOUS
10
9.4210016844
20
5.9868428360
11
9.4210016844
21
5.9252003260
12
8.5652966944
22
5.9252003260
13
8.5652966944
23
5.9252003260
0
LINE
8
___SYMBOL
62
7
6
CONTINUOUS
10
9.4210016844
20
5.8868603349
11
9.4210016844
21
5.8252178356
0
LINE
8
___SYMBOL
62
7
6
CONTINUOUS
10
9.4210016844
20
5.8252178356
11
8.5652966944
21
5.8252178356
0
LINE
8
___SYMBOL
62
7
6
CONTINUOUS
10
8.5652966944
20
5.8252178356
11
8.5652966944
21
5.8868603349
0
LINE
8
___SYMBOL
62
7
6
CONTINUOUS
10
8.5652966944
20
5.8868603349
11
9.4210016844
21
5.8868603349
0
SOLID
8
___SYMBOL
62
7
6
CONTINUOUS
10
8.5652966944
20
5.8252178520
11
8.5652966944
21
5.8868603280
12
9.4210016844
22
5.8868603280
13
9.4210016844
23
5.8868603280
0
SOLID
8
___SYMBOL
62
7
6
CONTINUOUS
10
9.4210016844
20
5.8868603280
11
9.4210016844
21
5.8252178520
12
8.5652966944
22
5.8252178520
13
8.5652966944
23
5.8252178520
0
LINE
8
___SYMBOL
62
7
6
CONTINUOUS
10
9.4210016844
20
5.7602228364
11
9.4210016844
21
5.6985728371
0
LINE
8
___SYMBOL
62
7
6
CONTINUOUS
10
9.4210016844
20
5.6985728371
11
8.5652966944
21
5.6985728371
0
LINE
8
___SYMBOL
62
7
6
CONTINUOUS
10
8.5652966944
20
5.6985728371
11
8.5652966944
21
5.7602228364
0
LINE
8
___SYMBOL
62
7
6
CONTINUOUS
10
8.5652966944
20
5.7602228364
11
9.4210016844
21
5.7602228364
0
SOLID
8
___SYMBOL
62
7
6
CONTINUOUS
10
8.5652966944
20
5.6985728500
11
8.5652966944
21
5.7602228400
12
9.4210016844
22
5.7602228400
13
9.4210016844
23
5.7602228400
0
SOLID
8
___SYMBOL
62
7
6
CONTINUOUS
10
9.4210016844
20
5.7602228400
11
9.4210016844
21
5.6985728500
12
8.5652966944
22
5.6985728500
13
8.5652966944
23
5.6985728500
0
ENDBLK
8
0
6
BYBLOCK
62
0
0
BLOCK
8
___SYMBOL
62
2
6
CONTINUOUS
2
SKU_SINK_STERLING_BL1
70
64
10
9.7329785316
20
17.3953702308
0
TEXT
8
___SYMBOL
62
2
6
CONTINUOUS
10
5.1294648776
20
18.9964635170
7
STANDARD
40
0.2500000000
1
CUT-OUT TEMPLATE
41
0.8000000000
72
0
0
TEXT
8
___SYMBOL
62
2
6
CONTINUOUS
10
5.1294648776
20
18.6214635170
7
STANDARD
40
0.2500000000
1
SELF-RIMMING/UNDERCOUNTER SINK
41
0.8000000000
72
0
0
TEXT
8
___SYMBOL
62
2
6
CONTINUOUS
10
5.1294648776
20
18.2464635170
7
STANDARD
40
0.2500000000
1
PLANTILLA DE RECORTE
41
0.8000000000
72
0
0
TEXT
8
___SYMBOL
62
2
6
CONTINUOUS
10
5.1294648776
20
17.8714635170
7
STANDARD
40
0.2500000000
1
FREGADERO CON BORDE TERMINADO/MONTADO
41
0.8000000000
72
0
0
TEXT
8
___SYMBOL
62
2
6
CONTINUOUS
10
5.1294648776
20
17.4964635170
7
STANDARD
40
0.2500000000
1
  DEBAJO DEL MONTRADOR
41
0.8000000000
72
0
0
TEXT
8
___SYMBOL
62
2
6
CONTINUOUS
10
5.1294648776
20
17.1214635170
7
STANDARD
40
0.2500000000
1
PLAN DE DÉCOUPE
41
0.8000000000
72
0
0
TEXT
8
___SYMBOL
62
2
6
CONTINUOUS
10
5.1294648776
20
16.7464635170
7
STANDARD
40
0.2500000000
1
ÉVIER À REBORD INTÉGRÉ /SOUS-COMPTOIR
41
0.8000000000
72
0
0
TEXT
8
___SYMBOL
62
2
6
CONTINUOUS
10
5.1294648776
20
16.3714635170
7
STANDARD
40
0.2500000000
1
13.25" X 10.50" SINGLE BOWL SINK
41
0.8000000000
72
0
0
TEXT
8
___SYMBOL
62
2
6
CONTINUOUS
10
11.5294648776
20
16.3714635170
7
STANDARD
40
0.2500000000
1
   
41
0.8000000000
72
0
0
TEXT
8
___SYMBOL
62
2
6
CONTINUOUS
10
12.1294648776
20
16.3714635170
7
STANDARD
40
0.2500000000
1
1181
41
0.8000000000
72
0
0
TEXT
8
___SYMBOL
62
2
6
CONTINUOUS
10
12.9294648776
20
16.3714635170
7
STANDARD
40
0.2500000000
1
-**-
41
0.8000000000
72
0
0
TEXT
8
___SYMBOL
62
2
6
CONTINUOUS
10
13.7294648776
20
16.3714635170
7
STANDARD
40
0.2500000000
1
AB
41
0.8000000000
72
0
0
TEXT
8
___SYMBOL
62
2
6
CONTINUOUS
10
5.1333558819
20
15.5550904433
7
STANDARD
40
0.2500000000
1
13.25" X 10.50" SINGLE BOWL SINK
41
0.8000000000
72
0
0
TEXT
8
___SYMBOL
62
2
6
CONTINUOUS
10
11.5333558819
20
15.5550904433
7
STANDARD
40
0.2500000000
1
   
41
0.8000000000
72
0
0
TEXT
8
___SYMBOL
62
2
6
CONTINUOUS
10
12.1333558819
20
15.5550904433
7
STANDARD
40
0.2500000000
1
1186
41
0.8000000000
72
0
0
TEXT
8
___SYMBOL
62
2
6
CONTINUOUS
10
12.9333558819
20
15.5550904433
7
STANDARD
40
0.2500000000
1
-**-
41
0.8000000000
72
0
0
TEXT
8
___SYMBOL
62
2
6
CONTINUOUS
10
13.7333558819
20
15.5550904433
7
STANDARD
40
0.2500000000
1
AB
41
0.8000000000
72
0
0
TEXT
8
___SYMBOL
62
2
6
CONTINUOUS
10
5.1364921856
20
14.6625656186
7
STANDARD
40
0.2500000000
1
13.25" X 10.50" SINGLE BOWL SINK
41
0.8000000000
72
0
0
TEXT
8
___SYMBOL
62
2
6
CONTINUOUS
10
11.5364921856
20
14.6625656186
7
STANDARD
40
0.2500000000
1
   
41
0.8000000000
72
0
0
TEXT
8
___SYMBOL
62
2
6
CONTINUOUS
10
12.1364921856
20
14.6625656186
7
STANDARD
40
0.2500000000
1
11811
41
0.8000000000
72
0
0
TEXT
8
___SYMBOL
62
2
6
CONTINUOUS
10
13.1364921856
20
14.6625656186
7
STANDARD
40
0.2500000000
1
-**-
41
0.8000000000
72
0
0
TEXT
8
___SYMBOL
62
2
6
CONTINUOUS
10
13.9364921856
20
14.6625656186
7
STANDARD
40
0.2500000000
1
AB
41
0.8000000000
72
0
0
POLYLINE
8
___SYMBOL
62
2
6
CONTINUOUS
66
1
70
0
0
VERTEX
8
___SYMBOL
62
2
6
CONTINUOUS
10
5.1491934311
20
19.4914081765
0
VERTEX
8
___SYMBOL
62
2
6
CONTINUOUS
10
5.1491934311
20
20.1237456765
0
VERTEX
8
___SYMBOL
62
2
6
CONTINUOUS
10
5.3395637088
20
20.1237456765
0
VERTEX
8
___SYMBOL
62
2
6
CONTINUOUS
10
6.1622714866
20
20.1237456765
0
VERTEX
8
___SYMBOL
62
2
6
CONTINUOUS
10
6.9849792644
20
20.1237456765
0
VERTEX
8
___SYMBOL
62
2
6
CONTINUOUS
10
7.8076870422
20
20.1237456765
0
VERTEX
8
___SYMBOL
62
2
6
CONTINUOUS
10
8.6303948200
20
20.1237456765
0
VERTEX
8
___SYMBOL
62
2
6
CONTINUOUS
10
8.6303948200
20
19.4914081765
0
VERTEX
8
___SYMBOL
62
2
6
CONTINUOUS
10
8.4400245422
20
19.4914081765
0
VERTEX
8
___SYMBOL
62
2
6
CONTINUOUS
10
7.6173167644
20
19.4914081765
0
VERTEX
8
___SYMBOL
62
2
6
CONTINUOUS
10
6.7946089866
20
19.4914081765
0
VERTEX
8
___SYMBOL
62
2
6
CONTINUOUS
10
5.9719012088
20
19.4914081765
0
VERTEX
8
___SYMBOL
62
2
6
CONTINUOUS
10
5.1491934311
20
19.4914081765
0
SEQEND
0
LINE
8
___SYMBOL
62
2
6
CONTINUOUS
10
7.2826503755
20
19.4031512320
11
7.3184378755
21
19.4031512320
0
LINE
8
___SYMBOL
62
2
6
CONTINUOUS
10
7.3184378755
20
19.4031512320
11
7.3006628755
21
19.4473401209
0
LINE
8
___SYMBOL
62
2
6
CONTINUOUS
10
7.3006628755
20
19.4473401209
11
7.2826503755
21
19.4031512320
0
POLYLINE
8
___SYMBOL
62
2
6
CONTINUOUS
66
1
70
0
0
VERTEX
8
___SYMBOL
62
2
6
CONTINUOUS
10
7.3006628755
20
19.4682276209
0
VERTEX
8
___SYMBOL
62
2
6
CONTINUOUS
10
7.3031838941
20
19.4619873355
0
VERTEX
8
___SYMBOL
62
2
6
CONTINUOUS
10
7.3165060546
20
19.4290109491
0
VERTEX
8
___SYMBOL
62
2
6
CONTINUOUS
10
7.3298282151
20
19.3960345628
0
VERTEX
8
___SYMBOL
62
2
6
CONTINUOUS
10
7.3431503755
20
19.3630581765
0
VERTEX
8
___SYMBOL
62
2
6
CONTINUOUS
10
7.3349031533
20
19.3630581765
0
VERTEX
8
___SYMBOL
62
2
6
CONTINUOUS
10
7.3221948200
20
19.3954067876
0
VERTEX
8
___SYMBOL
62
2
6
CONTINUOUS
10
7.3150827557
20
19.3954158142
0
VERTEX
8
___SYMBOL
62
2
6
CONTINUOUS
10
7.2795170422
20
19.3954609542
0
VERTEX
8
___SYMBOL
62
2
6
CONTINUOUS
10
7.2657573200
20
19.3630581765
0
VERTEX
8
___SYMBOL
62
2
6
CONTINUOUS
10
7.2579309311
20
19.3630581765
0
VERTEX
8
___SYMBOL
62
2
6
CONTINUOUS
10
7.2596328360
20
19.3672413117
0
VERTEX
8
___SYMBOL
62
2
6
CONTINUOUS
10
7.2730359047
20
19.4001848962
0
VERTEX
8
___SYMBOL
62
2
6
CONTINUOUS
10
7.2864389734
20
19.4331284808
0
VERTEX
8
___SYMBOL
62
2
6
CONTINUOUS
10
7.2998420422
20
19.4660720654
0
VERTEX
8
___SYMBOL
62
2
6
CONTINUOUS
10
7.3006628755
20
19.4682276209
0
SEQEND
0
LINE
8
___SYMBOL
62
2
6
CONTINUOUS
10
8.3900253755
20
19.4031512320
11
8.4258184311
21
19.4031512320
0
LINE
8
___SYMBOL
62
2
6
CONTINUOUS
10
8.4258184311
20
19.4031512320
11
8.4080503755
21
19.4473942876
0
LINE
8
___SYMBOL
62
2
6
CONTINUOUS
10
8.4080503755
20
19.4473942876
11
8.3900253755
21
19.4031512320
0
POLYLINE
8
___SYMBOL
62
2
6
CONTINUOUS
66
1
70
0
0
VERTEX
8
___SYMBOL
62
2
6
CONTINUOUS
10
8.4080503755
20
19.4682276209
0
VERTEX
8
___SYMBOL
62
2
6
CONTINUOUS
10
8.4105961488
20
19.4619270900
0
VERTEX
8
___SYMBOL
62
2
6
CONTINUOUS
10
8.4239123725
20
19.4289707855
0
VERTEX
8
___SYMBOL
62
2
6
CONTINUOUS
10
8.4372285962
20
19.3960144810
0
VERTEX
8
___SYMBOL
62
2
6
CONTINUOUS
10
8.4505448200
20
19.3630581765
0
VERTEX
8
___SYMBOL
62
2
6
CONTINUOUS
10
8.4425962088
20
19.3630581765
0
VERTEX
8
___SYMBOL
62
2
6
CONTINUOUS
10
8.4295628755
20
19.3954067876
0
VERTEX
8
___SYMBOL
62
2
6
CONTINUOUS
10
8.4224633011
20
19.3954158054
0
VERTEX
8
___SYMBOL
62
2
6
CONTINUOUS
10
8.3869184311
20
19.3954609542
0
VERTEX
8
___SYMBOL
62
2
6
CONTINUOUS
10
8.3731253755
20
19.3630581765
0
VERTEX
8
___SYMBOL
62
2
6
CONTINUOUS
10
8.3653128755
20
19.3630581765
0
VERTEX
8
___SYMBOL
62
2
6
CONTINUOUS
10
8.3670334223
20
19.3672899365
0
VERTEX
8
___SYMBOL
62
2
6
CONTINUOUS
10
8.3804210178
20
19.4002173128
0
VERTEX
8
___SYMBOL
62
2
6
CONTINUOUS
10
8.3938086133
20
19.4331446891
0
VERTEX
8
___SYMBOL
62
2
6
CONTINUOUS
10
8.4071962088
20
19.4660720654
0
VERTEX
8
___SYMBOL
62
2
6
CONTINUOUS
10
8.4080503755
20
19.4682276209
0
SEQEND
0
LINE
8
___SYMBOL
62
2
6
CONTINUOUS
10
8.3406809311
20
19.4557234542
11
8.3406809311
21
19.4175290098
0
POLYLINE
8
___SYMBOL
62
2
6
CONTINUOUS
66
1
70
0
0
VERTEX
8
___SYMBOL
62
2
6
CONTINUOUS
10
8.3406809311
20
19.4175290098
0
VERTEX
8
___SYMBOL
62
2
6
CONTINUOUS
10
8.3511253755
20
19.4175290098
0
VERTEX
8
___SYMBOL
62
2
6
CONTINUOUS
10
8.3515989237
20
19.4175304169
0
VERTEX
8
___SYMBOL
62
2
6
CONTINUOUS
10
8.3541219616
20
19.4175968508
0
VERTEX
8
___SYMBOL
62
2
6
CONTINUOUS
10
8.3562469461
20
19.4177590404
0
VERTEX
8
___SYMBOL
62
2
6
CONTINUOUS
10
8.3581092719
20
19.4180143297
0
VERTEX
8
___SYMBOL
62
2
6
CONTINUOUS
10
8.3597842294
20
19.4183623974
0
VERTEX
8
___SYMBOL
62
2
6
CONTINUOUS
10
8.3613198643
20
19.4188050680
0
VERTEX
8
___SYMBOL
62
2
6
CONTINUOUS
10
8.3627497260
20
19.4193464086
0
VERTEX
8
___SYMBOL
62
2
6
CONTINUOUS
10
8.3640987323
20
19.4199929179
0
VERTEX
8
___SYMBOL
62
2
6
CONTINUOUS
10
8.3653861890
20
19.4207537353
0
VERTEX
8
___SYMBOL
62
2
6
CONTINUOUS
10
8.3666274812
20
19.4216408474
0
VERTEX
8
___SYMBOL
62
2
6
CONTINUOUS
10
8.3672351558
20
19.4221366304
0
VERTEX
8
___SYMBOL
62
2
6
CONTINUOUS
10
8.3678350977
20
19.4226692876
0
VERTEX
8
___SYMBOL
62
2
6
CONTINUOUS
10
8.3689297549
20
19.4237596180
0
VERTEX
8
___SYMBOL
62
2
6
CONTINUOUS
10
8.3699703092
20
19.4249725840
0
VERTEX
8
___SYMBOL
62
2
6
CONTINUOUS
10
8.3708856862
20
19.4262389382
0
VERTEX
8
___SYMBOL
62
2
6
CONTINUOUS
10
8.3716792006
20
19.4275597296
0
VERTEX
8
___SYMBOL
62
2
6
CONTINUOUS
10
8.3723530140
20
19.4289367998
0
VERTEX
8
___SYMBOL
62
2
6
CONTINUOUS
10
8.3729076312
20
19.4303714981
0
VERTEX
8
___SYMBOL
62
2
6
CONTINUOUS
10
8.3733422129
20
19.4318638953
0
VERTEX
8
___SYMBOL
62
2
6
CONTINUOUS
10
8.3736559991
20
19.4334171664
0
VERTEX
8
___SYMBOL
62
2
6
CONTINUOUS
10
8.3738468912
20
19.4350348451
0
VERTEX
8
___SYMBOL
62
2
6
CONTINUOUS
10
8.3739114866
20
19.4367206765
0
VERTEX
8
___SYMBOL
62
2
6
CONTINUOUS
10
8.3738461983
20
19.4383892708
0
VERTEX
8
___SYMBOL
62
2
6
CONTINUOUS
10
8.3736514834
20
19.4400314123
0
VERTEX
8
___SYMBOL
62
2
6
CONTINUOUS
10
8.3733295391
20
19.4416381491
0
VERTEX
8
___SYMBOL
62
2
6
CONTINUOUS
10
8.3728833590
20
19.4431997705
0
VERTEX
8
___SYMBOL
62
2
6
CONTINUOUS
10
8.3723169160
20
19.4447059833
0
VERTEX
8
___SYMBOL
62
2
6
CONTINUOUS
10
8.3716352908
20
19.4461461700
0
VERTEX
8
___SYMBOL
62
2
6
CONTINUOUS
10
8.3708620313
20
19.4474825094
0
VERTEX
8
___SYMBOL
62
2
6
CONTINUOUS
10
8.3699745653
20
19.4487575038
0
VERTEX
8
___SYMBOL
62
2
6
CONTINUOUS
10
8.3689963620
20
19.4499343805
0
VERTEX
8
___SYMBOL
62
2
6
CONTINUOUS
10
8.3679366065
20
19.4510056359
0
VERTEX
8
___SYMBOL
62
2
6
CONTINUOUS
10
8.3668045422
20
19.4519651209
0
VERTEX
8
___SYMBOL
62
2
6
CONTINUOUS
10
8.3657024219
20
19.4527370335
0
VERTEX
8
___SYMBOL
62
2
6
CONTINUOUS
10
8.3645056229
20
19.4534181901
0
VERTEX
8
___SYMBOL
62
2
6
CONTINUOUS
10
8.3632040887
20
19.4540111539
0
VERTEX
8
___SYMBOL
62
2
6
CONTINUOUS
10
8.3617849376
20
19.4545169639
0
VERTEX
8
___SYMBOL
62
2
6
CONTINUOUS
10
8.3602314188
20
19.4549353865
0
VERTEX
8
___SYMBOL
62
2
6
CONTINUOUS
10
8.3585205904
20
19.4552653045
0
VERTEX
8
___SYMBOL
62
2
6
CONTINUOUS
10
8.3566177753
20
19.4555053395
0
VERTEX
8
___SYMBOL
62
2
6
CONTINUOUS
10
8.3544611710
20
19.4556550354
0
VERTEX
8
___SYMBOL
62
2
6
CONTINUOUS
10
8.3519047120
20
19.4557182204
0
VERTEX
8
___SYMBOL
62
2
6
CONTINUOUS
10
8.3501073200
20
19.4557234542
0
VERTEX
8
___SYMBOL
62
2
6
CONTINUOUS
10
8.3406809311
20
19.4557234542
0
SEQEND
0
LINE
8
___SYMBOL
62
2
6
CONTINUOUS
10
8.3406809311
20
19.4098109542
11
8.3406809311
21
19.3630581765
0
LINE
8
___SYMBOL
62
2
6
CONTINUOUS
10
8.3406809311
20
19.3630581765
11
8.3325573200
21
19.3630581765
0
LINE
8
___SYMBOL
62
2
6
CONTINUOUS
10
8.3325573200
20
19.3630581765
11
8.3325573200
21
19.4634540098
0
LINE
8
___SYMBOL
62
2
6
CONTINUOUS
10
8.3325573200
20
19.4634540098
11
8.3508670422
21
19.4634540098
0
ARC
8
___SYMBOL
62
2
6
CONTINUOUS
10
8.3553656657
20
19.4366324820
40
0.0271961756
50
260.4787245939
51
99.5212754061
0
LINE
8
___SYMBOL
62
2
6
CONTINUOUS
10
8.3508670422
20
19.4098109542
11
8.3406809311
21
19.4098109542
0
LINE
8
___SYMBOL
62
2
6
CONTINUOUS
10
8.2066212088
20
19.3630581765
11
8.2145823200
21
19.3630581765
0
LINE
8
___SYMBOL
62
2
6
CONTINUOUS
10
8.2145823200
20
19.3630581765
11
8.2309948200
21
19.4427567876
0
LINE
8
___SYMBOL
62
2
6
CONTINUOUS
10
8.2309948200
20
19.4427567876
11
8.2651337088
21
19.3582290098
0
LINE
8
___SYMBOL
62
2
6
CONTINUOUS
10
8.2651337088
20
19.3582290098
11
8.2993948200
21
19.4427567876
0
LINE
8
___SYMBOL
62
2
6
CONTINUOUS
10
8.2993948200
20
19.4427567876
11
8.3158739866
21
19.3630581765
0
LINE
8
___SYMBOL
62
2
6
CONTINUOUS
10
8.3158739866
20
19.3630581765
11
8.3237684311
21
19.3630581765
0
LINE
8
___SYMBOL
62
2
6
CONTINUOUS
10
8.3237684311
20
19.3630581765
11
8.3017545422
21
19.4689331765
0
LINE
8
___SYMBOL
62
2
6
CONTINUOUS
10
8.3017545422
20
19.4689331765
11
8.2651337088
21
19.3785748431
0
LINE
8
___SYMBOL
62
2
6
CONTINUOUS
10
8.2651337088
20
19.3785748431
11
8.2286614866
21
19.4689331765
0
LINE
8
___SYMBOL
62
2
6
CONTINUOUS
10
8.2286614866
20
19.4689331765
11
8.2066212088
21
19.3630581765
0
CIRCLE
8
___SYMBOL
62
2
6
CONTINUOUS
10
8.1557447518
20
19.4132151209
40
0.0437959350
0
CIRCLE
8
___SYMBOL
62
2
6
CONTINUOUS
10
8.1561761899
20
19.4132158154
40
0.0514756023
0
LINE
8
___SYMBOL
62
2
6
CONTINUOUS
10
7.9198378755
20
19.4347401209
11
7.9198378755
21
19.4109776209
0
POLYLINE
8
___SYMBOL
62
2
6
CONTINUOUS
66
1
70
0
0
VERTEX
8
___SYMBOL
62
2
6
CONTINUOUS
10
7.9198378755
20
19.4109776209
0
VERTEX
8
___SYMBOL
62
2
6
CONTINUOUS
10
7.9293864866
20
19.4109776209
0
VERTEX
8
___SYMBOL
62
2
6
CONTINUOUS
10
7.9306218630
20
19.4110416008
0
VERTEX
8
___SYMBOL
62
2
6
CONTINUOUS
10
7.9318375505
20
19.4112325821
0
VERTEX
8
___SYMBOL
62
2
6
CONTINUOUS
10
7.9330252819
20
19.4115488542
0
VERTEX
8
___SYMBOL
62
2
6
CONTINUOUS
10
7.9341754070
20
19.4119879747
0
VERTEX
8
___SYMBOL
62
2
6
CONTINUOUS
10
7.9352770068
20
19.4125463108
0
VERTEX
8
___SYMBOL
62
2
6
CONTINUOUS
10
7.9363182004
20
19.4132186467
0
VERTEX
8
___SYMBOL
62
2
6
CONTINUOUS
10
7.9372866382
20
19.4139979416
0
VERTEX
8
___SYMBOL
62
2
6
CONTINUOUS
10
7.9373332823
20
19.4140398814
0
VERTEX
8
___SYMBOL
62
2
6
CONTINUOUS
10
7.9382112534
20
19.4149208904
0
VERTEX
8
___SYMBOL
62
2
6
CONTINUOUS
10
7.9389901323
20
19.4158853341
0
VERTEX
8
___SYMBOL
62
2
6
CONTINUOUS
10
7.9396614254
20
19.4169212918
0
VERTEX
8
___SYMBOL
62
2
6
CONTINUOUS
10
7.9402185189
20
19.4180169526
0
VERTEX
8
___SYMBOL
62
2
6
CONTINUOUS
10
7.9406565574
20
19.4191611855
0
VERTEX
8
___SYMBOL
62
2
6
CONTINUOUS
10
7.9409721261
20
19.4203439503
0
VERTEX
8
___SYMBOL
62
2
6
CONTINUOUS
10
7.9411628171
20
19.4215565173
0
VERTEX
8
___SYMBOL
62
2
6
CONTINUOUS
10
7.9412267644
20
19.4227915098
0
VERTEX
8
___SYMBOL
62
2
6
CONTINUOUS
10
7.9411628171
20
19.4240348184
0
VERTEX
8
___SYMBOL
62
2
6
CONTINUOUS
10
7.9409719966
20
19.4252575339
0
VERTEX
8
___SYMBOL
62
2
6
CONTINUOUS
10
7.9406560502
20
19.4264518116
0
VERTEX
8
___SYMBOL
62
2
6
CONTINUOUS
10
7.9402173817
20
19.4276083979
0
VERTEX
8
___SYMBOL
62
2
6
CONTINUOUS
10
7.9396595267
20
19.4287167029
0
VERTEX
8
___SYMBOL
62
2
6
CONTINUOUS
10
7.9389875794
20
19.4297650637
0
VERTEX
8
___SYMBOL
62
2
6
CONTINUOUS
10
7.9382084864
20
19.4307412039
0
VERTEX
8
___SYMBOL
62
2
6
CONTINUOUS
10
7.9381314051
20
19.4308273003
0
VERTEX
8
___SYMBOL
62
2
6
CONTINUOUS
10
7.9372456777
20
19.4317103628
0
VERTEX
8
___SYMBOL
62
2
6
CONTINUOUS
10
7.9362769961
20
19.4324937714
0
VERTEX
8
___SYMBOL
62
2
6
CONTINUOUS
10
7.9352377622
20
19.4331688101
0
VERTEX
8
___SYMBOL
62
2
6
CONTINUOUS
10
7.9341403699
20
19.4337287141
0
VERTEX
8
___SYMBOL
62
2
6
CONTINUOUS
10
7.9329965794
20
19.4341685931
0
VERTEX
8
___SYMBOL
62
2
6
CONTINUOUS
10
7.9318170491
20
19.4344851318
0
VERTEX
8
___SYMBOL
62
2
6
CONTINUOUS
10
7.9306110688
20
19.4346761516
0
VERTEX
8
___SYMBOL
62
2
6
CONTINUOUS
10
7.9293864866
20
19.4347401209
0
VERTEX
8
___SYMBOL
62
2
6
CONTINUOUS
10
7.9198378755
20
19.4347401209
0
SEQEND
0
LINE
8
___SYMBOL
62
2
6
CONTINUOUS
10
7.9491212088
20
19.3892623431
11
7.9842364866
21
19.3398776209
0
LINE
8
___SYMBOL
62
2
6
CONTINUOUS
10
7.9842364866
20
19.3398776209
11
7.9474114866
21
19.3399456765
0
LINE
8
___SYMBOL
62
2
6
CONTINUOUS
10
7.9474114866
20
19.3399456765
11
7.9198920422
21
19.3778012320
0
LINE
8
___SYMBOL
62
2
6
CONTINUOUS
10
7.9198920422
20
19.3778012320
11
7.9198920422
21
19.3400276209
0
LINE
8
___SYMBOL
62
2
6
CONTINUOUS
10
7.9198920422
20
19.3400276209
11
7.8869059311
21
19.3400276209
0
LINE
8
___SYMBOL
62
2
6
CONTINUOUS
10
7.8869059311
20
19.3400276209
11
7.8869059311
21
19.4633178987
0
POLYLINE
8
___SYMBOL
62
2
6
CONTINUOUS
66
1
70
0
0
VERTEX
8
___SYMBOL
62
2
6
CONTINUOUS
10
7.8869059311
20
19.4633178987
0
VERTEX
8
___SYMBOL
62
2
6
CONTINUOUS
10
7.9291823200
20
19.4633178987
0
VERTEX
8
___SYMBOL
62
2
6
CONTINUOUS
10
7.9311597871
20
19.4632735871
0
VERTEX
8
___SYMBOL
62
2
6
CONTINUOUS
10
7.9331218416
20
19.4631410643
0
VERTEX
8
___SYMBOL
62
2
6
CONTINUOUS
10
7.9350666007
20
19.4629209446
0
VERTEX
8
___SYMBOL
62
2
6
CONTINUOUS
10
7.9369919922
20
19.4626138583
0
VERTEX
8
___SYMBOL
62
2
6
CONTINUOUS
10
7.9388957430
20
19.4622204795
0
VERTEX
8
___SYMBOL
62
2
6
CONTINUOUS
10
7.9407753716
20
19.4617415569
0
VERTEX
8
___SYMBOL
62
2
6
CONTINUOUS
10
7.9426281832
20
19.4611779454
0
VERTEX
8
___SYMBOL
62
2
6
CONTINUOUS
10
7.9444512707
20
19.4605306401
0
VERTEX
8
___SYMBOL
62
2
6
CONTINUOUS
10
7.9462415198
20
19.4598008093
0
VERTEX
8
___SYMBOL
62
2
6
CONTINUOUS
10
7.9479956210
20
19.4589898274
0
VERTEX
8
___SYMBOL
62
2
6
CONTINUOUS
10
7.9497100876
20
19.4580993059
0
VERTEX
8
___SYMBOL
62
2
6
CONTINUOUS
10
7.9513812800
20
19.4571311205
0
VERTEX
8
___SYMBOL
62
2
6
CONTINUOUS
10
7.9530054372
20
19.4560874339
0
VERTEX
8
___SYMBOL
62
2
6
CONTINUOUS
10
7.9545787140
20
19.4549707116
0
VERTEX
8
___SYMBOL
62
2
6
CONTINUOUS
10
7.9560972247
20
19.4537837314
0
VERTEX
8
___SYMBOL
62
2
6
CONTINUOUS
10
7.9575570900
20
19.4525295833
0
VERTEX
8
___SYMBOL
62
2
6
CONTINUOUS
10
7.9589544883
20
19.4512116604
0
VERTEX
8
___SYMBOL
62
2
6
CONTINUOUS
10
7.9602857070
20
19.4498336398
0
VERTEX
8
___SYMBOL
62
2
6
CONTINUOUS
10
7.9614495030
20
19.4485154712
0
VERTEX
8
___SYMBOL
62
2
6
CONTINUOUS
10
7.9626424181
20
19.4470351064
0
VERTEX
8
___SYMBOL
62
2
6
CONTINUOUS
10
7.9637586847
20
19.4455081168
0
VERTEX
8
___SYMBOL
62
2
6
CONTINUOUS
10
7.9647957083
20
19.4439389867
0
VERTEX
8
___SYMBOL
62
2
6
CONTINUOUS
10
7.9657512196
20
19.4423322239
0
VERTEX
8
___SYMBOL
62
2
6
CONTINUOUS
10
7.9666232822
20
19.4406923041
0
VERTEX
8
___SYMBOL
62
2
6
CONTINUOUS
10
7.9674102906
20
19.4390236184
0
VERTEX
8
___SYMBOL
62
2
6
CONTINUOUS
10
7.9681109587
20
19.4373304252
0
VERTEX
8
___SYMBOL
62
2
6
CONTINUOUS
10
7.9687242985
20
19.4356168086
0
VERTEX
8
___SYMBOL
62
2
6
CONTINUOUS
10
7.9692495925
20
19.4338866439
0
VERTEX
8
___SYMBOL
62
2
6
CONTINUOUS
10
7.9696863598
20
19.4321435711
0
VERTEX
8
___SYMBOL
62
2
6
CONTINUOUS
10
7.9700343177
20
19.4303909766
0
VERTEX
8
___SYMBOL
62
2
6
CONTINUOUS
10
7.9702933409
20
19.4286319830
0
VERTEX
8
___SYMBOL
62
2
6
CONTINUOUS
10
7.9704634202
20
19.4268694467
0
VERTEX
8
___SYMBOL
62
2
6
CONTINUOUS
10
7.9705446205
20
19.4251059619
0
VERTEX
8
___SYMBOL
62
2
6
CONTINUOUS
10
7.9705370416
20
19.4233438707
0
VERTEX
8
___SYMBOL
62
2
6
CONTINUOUS
10
7.9704407804
20
19.4215852790
0
VERTEX
8
___SYMBOL
62
2
6
CONTINUOUS
10
7.9702558978
20
19.4198320752
0
VERTEX
8
___SYMBOL
62
2
6
CONTINUOUS
10
7.9699823880
20
19.4180859529
0
VERTEX
8
___SYMBOL
62
2
6
CONTINUOUS
10
7.9696201531
20
19.4163484350
0
VERTEX
8
___SYMBOL
62
2
6
CONTINUOUS
10
7.9691689818
20
19.4146208993
0
VERTEX
8
___SYMBOL
62
2
6
CONTINUOUS
10
7.9686285321
20
19.4129046044
0
VERTEX
8
___SYMBOL
62
2
6
CONTINUOUS
10
7.9679983185
20
19.4112007156
0
VERTEX
8
___SYMBOL
62
2
6
CONTINUOUS
10
7.9672777033
20
19.4095103293
0
VERTEX
8
___SYMBOL
62
2
6
CONTINUOUS
10
7.9664658910
20
19.4078344964
0
VERTEX
8
___SYMBOL
62
2
6
CONTINUOUS
10
7.9655619267
20
19.4061742444
0
VERTEX
8
___SYMBOL
62
2
6
CONTINUOUS
10
7.9645646970
20
19.4045305969
0
VERTEX
8
___SYMBOL
62
2
6
CONTINUOUS
10
7.9634729331
20
19.4029045913
0
VERTEX
8
___SYMBOL
62
2
6
CONTINUOUS
10
7.9622852162
20
19.4012972943
0
VERTEX
8
___SYMBOL
62
2
6
CONTINUOUS
10
7.9609999846
20
19.3997098154
0
VERTEX
8
___SYMBOL
62
2
6
CONTINUOUS
10
7.9596155417
20
19.3981433175
0
VERTEX
8
___SYMBOL
62
2
6
CONTINUOUS
10
7.9581300653
20
19.3965990264
0
VERTEX
8
___SYMBOL
62
2
6
CONTINUOUS
10
7.9565416169
20
19.3950782379
0
VERTEX
8
___SYMBOL
62
2
6
CONTINUOUS
10
7.9548484884
20
19.3935826086
0
VERTEX
8
___SYMBOL
62
2
6
CONTINUOUS
10
7.9530488425
20
19.3921137618
0
VERTEX
8
___SYMBOL
62
2
6
CONTINUOUS
10
7.9511405030
20
19.3906731587
0
VERTEX
8
___SYMBOL
62
2
6
CONTINUOUS
10
7.9491212088
20
19.3892623431
0
SEQEND
0
POLYLINE
8
___SYMBOL
62
2
6
CONTINUOUS
66
1
70
0
0
VERTEX
8
___SYMBOL
62
2
6
CONTINUOUS
10
7.8777364866
20
19.4633178987
0
VERTEX
8
___SYMBOL
62
2
6
CONTINUOUS
10
7.8777364866
20
19.4348762320
0
VERTEX
8
___SYMBOL
62
2
6
CONTINUOUS
10
7.8438684311
20
19.4348220654
0
VERTEX
8
___SYMBOL
62
2
6
CONTINUOUS
10
7.8437198200
20
19.4153581765
0
VERTEX
8
___SYMBOL
62
2
6
CONTINUOUS
10
7.8750239866
20
19.4153581765
0
VERTEX
8
___SYMBOL
62
2
6
CONTINUOUS
10
7.8750239866
20
19.3877165098
0
VERTEX
8
___SYMBOL
62
2
6
CONTINUOUS
10
7.8438142644
20
19.3877165098
0
VERTEX
8
___SYMBOL
62
2
6
CONTINUOUS
10
7.8438142644
20
19.3688901209
0
VERTEX
8
___SYMBOL
62
2
6
CONTINUOUS
10
7.8779948200
20
19.3688901209
0
VERTEX
8
___SYMBOL
62
2
6
CONTINUOUS
10
7.8779948200
20
19.3399456765
0
VERTEX
8
___SYMBOL
62
2
6
CONTINUOUS
10
7.8607454366
20
19.3399456765
0
VERTEX
8
___SYMBOL
62
2
6
CONTINUOUS
10
7.8093087088
20
19.3399456765
0
VERTEX
8
___SYMBOL
62
2
6
CONTINUOUS
10
7.8093087088
20
19.3604444432
0
VERTEX
8
___SYMBOL
62
2
6
CONTINUOUS
10
7.8093087088
20
19.4118811710
0
VERTEX
8
___SYMBOL
62
2
6
CONTINUOUS
10
7.8093087088
20
19.4633178987
0
VERTEX
8
___SYMBOL
62
2
6
CONTINUOUS
10
7.8262997589
20
19.4633178987
0
VERTEX
8
___SYMBOL
62
2
6
CONTINUOUS
10
7.8777364866
20
19.4633178987
0
SEQEND
0
POLYLINE
8
___SYMBOL
62
2
6
CONTINUOUS
66
1
70
0
0
VERTEX
8
___SYMBOL
62
2
6
CONTINUOUS
10
7.4997795422
20
19.4632637320
0
VERTEX
8
___SYMBOL
62
2
6
CONTINUOUS
10
7.4912407661
20
19.4529645293
0
VERTEX
8
___SYMBOL
62
2
6
CONTINUOUS
10
7.4511003755
20
19.4045484542
0
VERTEX
8
___SYMBOL
62
2
6
CONTINUOUS
10
7.4657565279
20
19.3875314126
0
VERTEX
8
___SYMBOL
62
2
6
CONTINUOUS
10
7.5067989866
20
19.3398776209
0
VERTEX
8
___SYMBOL
62
2
6
CONTINUOUS
10
7.4621420422
20
19.3399456765
0
VERTEX
8
___SYMBOL
62
2
6
CONTINUOUS
10
7.4243198200
20
19.3839053987
0
VERTEX
8
___SYMBOL
62
2
6
CONTINUOUS
10
7.4242587088
20
19.3839053987
0
VERTEX
8
___SYMBOL
62
2
6
CONTINUOUS
10
7.4242587088
20
19.3399456765
0
VERTEX
8
___SYMBOL
62
2
6
CONTINUOUS
10
7.3905406533
20
19.3399456765
0
VERTEX
8
___SYMBOL
62
2
6
CONTINUOUS
10
7.3905406533
20
19.4004261880
0
VERTEX
8
___SYMBOL
62
2
6
CONTINUOUS
10
7.3905406533
20
19.4633178987
0
VERTEX
8
___SYMBOL
62
2
6
CONTINUOUS
10
7.4242587088
20
19.4633178987
0
VERTEX
8
___SYMBOL
62
2
6
CONTINUOUS
10
7.4242587088
20
19.4263581765
0
VERTEX
8
___SYMBOL
62
2
6
CONTINUOUS
10
7.4239948200
20
19.4263581765
0
VERTEX
8
___SYMBOL
62
2
6
CONTINUOUS
10
7.4560989866
20
19.4632637320
0
VERTEX
8
___SYMBOL
62
2
6
CONTINUOUS
10
7.4997795422
20
19.4632637320
0
SEQEND
0
POLYLINE
8
___SYMBOL
62
2
6
CONTINUOUS
66
1
70
0
0
VERTEX
8
___SYMBOL
62
2
6
CONTINUOUS
10
7.6176795422
20
19.3399456765
0
VERTEX
8
___SYMBOL
62
2
6
CONTINUOUS
10
7.6176795422
20
19.4005373431
0
VERTEX
8
___SYMBOL
62
2
6
CONTINUOUS
10
7.6176795422
20
19.4633178987
0
VERTEX
8
___SYMBOL
62
2
6
CONTINUOUS
10
7.6513434311
20
19.4633178987
0
VERTEX
8
___SYMBOL
62
2
6
CONTINUOUS
10
7.6513434311
20
19.4200512320
0
VERTEX
8
___SYMBOL
62
2
6
CONTINUOUS
10
7.6853878755
20
19.4200512320
0
VERTEX
8
___SYMBOL
62
2
6
CONTINUOUS
10
7.6853878755
20
19.4633178987
0
VERTEX
8
___SYMBOL
62
2
6
CONTINUOUS
10
7.7190448200
20
19.4633178987
0
VERTEX
8
___SYMBOL
62
2
6
CONTINUOUS
10
7.7190448200
20
19.4027262320
0
VERTEX
8
___SYMBOL
62
2
6
CONTINUOUS
10
7.7190448200
20
19.3399456765
0
VERTEX
8
___SYMBOL
62
2
6
CONTINUOUS
10
7.6853878755
20
19.3399456765
0
VERTEX
8
___SYMBOL
62
2
6
CONTINUOUS
10
7.6853878755
20
19.3858442876
0
VERTEX
8
___SYMBOL
62
2
6
CONTINUOUS
10
7.6513434311
20
19.3858442876
0
VERTEX
8
___SYMBOL
62
2
6
CONTINUOUS
10
7.6513434311
20
19.3399456765
0
VERTEX
8
___SYMBOL
62
2
6
CONTINUOUS
10
7.6176795422
20
19.3399456765
0
SEQEND
0
POLYLINE
8
___SYMBOL
62
2
6
CONTINUOUS
66
1
70
0
0
VERTEX
8
___SYMBOL
62
2
6
CONTINUOUS
10
7.7288100977
20
19.3399456765
0
VERTEX
8
___SYMBOL
62
2
6
CONTINUOUS
10
7.7288100977
20
19.3463495654
0
VERTEX
8
___SYMBOL
62
2
6
CONTINUOUS
10
7.7288100977
20
19.3853390098
0
VERTEX
8
___SYMBOL
62
2
6
CONTINUOUS
10
7.7288100977
20
19.4243284542
0
VERTEX
8
___SYMBOL
62
2
6
CONTINUOUS
10
7.7288100977
20
19.4633178987
0
VERTEX
8
___SYMBOL
62
2
6
CONTINUOUS
10
7.7625295422
20
19.4633178987
0
VERTEX
8
___SYMBOL
62
2
6
CONTINUOUS
10
7.7625295422
20
19.4494190098
0
VERTEX
8
___SYMBOL
62
2
6
CONTINUOUS
10
7.7625295422
20
19.4104295654
0
VERTEX
8
___SYMBOL
62
2
6
CONTINUOUS
10
7.7625295422
20
19.3714401209
0
VERTEX
8
___SYMBOL
62
2
6
CONTINUOUS
10
7.8003850977
20
19.3714401209
0
VERTEX
8
___SYMBOL
62
2
6
CONTINUOUS
10
7.8003850977
20
19.3399456765
0
VERTEX
8
___SYMBOL
62
2
6
CONTINUOUS
10
7.7677995422
20
19.3399456765
0
VERTEX
8
___SYMBOL
62
2
6
CONTINUOUS
10
7.7288100977
20
19.3399456765
0
SEQEND
0
LINE
8
___SYMBOL
62
2
6
CONTINUOUS
10
8.6183920422
20
19.4634540098
11
8.5894059311
21
19.4144359542
0
LINE
8
___SYMBOL
62
2
6
CONTINUOUS
10
8.5894059311
20
19.4144359542
11
8.5610725977
21
19.4634540098
0
LINE
8
___SYMBOL
62
2
6
CONTINUOUS
10
8.5610725977
20
19.4634540098
11
8.5517948200
21
19.4634540098
0
LINE
8
___SYMBOL
62
2
6
CONTINUOUS
10
8.5517948200
20
19.4634540098
11
8.5854323200
21
19.4055790098
0
LINE
8
___SYMBOL
62
2
6
CONTINUOUS
10
8.5854323200
20
19.4055790098
11
8.5852837088
21
19.3630581765
0
LINE
8
___SYMBOL
62
2
6
CONTINUOUS
10
8.5852837088
20
19.3630581765
11
8.5934073200
21
19.3630581765
0
LINE
8
___SYMBOL
62
2
6
CONTINUOUS
10
8.5934073200
20
19.3630581765
11
8.5934073200
21
19.4060678987
0
LINE
8
___SYMBOL
62
2
6
CONTINUOUS
10
8.5934073200
20
19.4060678987
11
8.6269087088
21
19.4634540098
0
LINE
8
___SYMBOL
62
2
6
CONTINUOUS
10
8.6269087088
20
19.4634540098
11
8.6183920422
21
19.4634540098
0
LINE
8
___SYMBOL
62
2
6
CONTINUOUS
10
8.4559434311
20
19.3630581765
11
8.4640406533
21
19.3630581765
0
LINE
8
___SYMBOL
62
2
6
CONTINUOUS
10
8.4640406533
20
19.3630581765
11
8.4640406533
21
19.4462831765
0
LINE
8
___SYMBOL
62
2
6
CONTINUOUS
10
8.4640406533
20
19.4462831765
11
8.5467906533
21
19.3583790098
0
LINE
8
___SYMBOL
62
2
6
CONTINUOUS
10
8.5467906533
20
19.3583790098
11
8.5467906533
21
19.4634540098
0
LINE
8
___SYMBOL
62
2
6
CONTINUOUS
10
8.5467906533
20
19.4634540098
11
8.5386934311
21
19.4634540098
0
LINE
8
___SYMBOL
62
2
6
CONTINUOUS
10
8.5386934311
20
19.4634540098
11
8.5386934311
21
19.3787637320
0
LINE
8
___SYMBOL
62
2
6
CONTINUOUS
10
8.5386934311
20
19.3787637320
11
8.4559434311
21
19.4660720654
0
LINE
8
___SYMBOL
62
2
6
CONTINUOUS
10
8.4559434311
20
19.4660720654
11
8.4559434311
21
19.3630581765
0
LINE
8
___SYMBOL
62
2
6
CONTINUOUS
10
8.0975448200
20
19.3742067876
11
8.0978975977
21
19.3835526209
0
LINE
8
___SYMBOL
62
2
6
CONTINUOUS
10
8.0978975977
20
19.3835526209
11
8.0978975977
21
19.3861026209
0
LINE
8
___SYMBOL
62
2
6
CONTINUOUS
10
8.0978975977
20
19.3861026209
11
8.0962156533
21
19.3840817876
0
LINE
8
___SYMBOL
62
2
6
CONTINUOUS
10
8.0962156533
20
19.3840817876
11
8.0639475977
21
19.3694192876
0
POLYLINE
8
___SYMBOL
62
2
6
CONTINUOUS
66
1
70
0
0
VERTEX
8
___SYMBOL
62
2
6
CONTINUOUS
10
8.0639475977
20
19.3694192876
0
VERTEX
8
___SYMBOL
62
2
6
CONTINUOUS
10
8.0617900330
20
19.3695639885
0
VERTEX
8
___SYMBOL
62
2
6
CONTINUOUS
10
8.0596853662
20
19.3697827176
0
VERTEX
8
___SYMBOL
62
2
6
CONTINUOUS
10
8.0576329941
20
19.3700738455
0
VERTEX
8
___SYMBOL
62
2
6
CONTINUOUS
10
8.0556323524
20
19.3704358431
0
VERTEX
8
___SYMBOL
62
2
6
CONTINUOUS
10
8.0536829239
20
19.3708672810
0
VERTEX
8
___SYMBOL
62
2
6
CONTINUOUS
10
8.0517842467
20
19.3713668285
0
VERTEX
8
___SYMBOL
62
2
6
CONTINUOUS
10
8.0499359231
20
19.3719332507
0
VERTEX
8
___SYMBOL
62
2
6
CONTINUOUS
10
8.0481376286
20
19.3725654044
0
VERTEX
8
___SYMBOL
62
2
6
CONTINUOUS
10
8.0463891211
20
19.3732622329
0
VERTEX
8
___SYMBOL
62
2
6
CONTINUOUS
10
8.0446902505
20
19.3740227580
0
VERTEX
8
___SYMBOL
62
2
6
CONTINUOUS
10
8.0430409676
20
19.3748460710
0
VERTEX
8
___SYMBOL
62
2
6
CONTINUOUS
10
8.0414413328
20
19.3757313213
0
VERTEX
8
___SYMBOL
62
2
6
CONTINUOUS
10
8.0398915248
20
19.3766777033
0
VERTEX
8
___SYMBOL
62
2
6
CONTINUOUS
10
8.0383918478
20
19.3776844406
0
VERTEX
8
___SYMBOL
62
2
6
CONTINUOUS
10
8.0369427381
20
19.3787507686
0
VERTEX
8
___SYMBOL
62
2
6
CONTINUOUS
10
8.0355447691
20
19.3798759146
0
VERTEX
8
___SYMBOL
62
2
6
CONTINUOUS
10
8.0341986547
20
19.3810590766
0
VERTEX
8
___SYMBOL
62
2
6
CONTINUOUS
10
8.0329052515
20
19.3822993993
0
VERTEX
8
___SYMBOL
62
2
6
CONTINUOUS
10
8.0316655575
20
19.3835959489
0
VERTEX
8
___SYMBOL
62
2
6
CONTINUOUS
10
8.0304807096
20
19.3849476873
0
VERTEX
8
___SYMBOL
62
2
6
CONTINUOUS
10
8.0293519775
20
19.3863534440
0
VERTEX
8
___SYMBOL
62
2
6
CONTINUOUS
10
8.0282807547
20
19.3878118892
0
VERTEX
8
___SYMBOL
62
2
6
CONTINUOUS
10
8.0272685468
20
19.3893215058
0
VERTEX
8
___SYMBOL
62
2
6
CONTINUOUS
10
8.0263169558
20
19.3908805634
0
VERTEX
8
___SYMBOL
62
2
6
CONTINUOUS
10
8.0254276610
20
19.3924870933
0
VERTEX
8
___SYMBOL
62
2
6
CONTINUOUS
10
8.0246023970
20
19.3941388668
0
VERTEX
8
___SYMBOL
62
2
6
CONTINUOUS
10
8.0238429281
20
19.3958333766
0
VERTEX
8
___SYMBOL
62
2
6
CONTINUOUS
10
8.0231510194
20
19.3975678235
0
VERTEX
8
___SYMBOL
62
2
6
CONTINUOUS
10
8.0225284064
20
19.3993391080
0
VERTEX
8
___SYMBOL
62
2
6
CONTINUOUS
10
8.0219767618
20
19.4011438290
0
VERTEX
8
___SYMBOL
62
2
6
CONTINUOUS
10
8.0214976617
20
19.4029782897
0
VERTEX
8
___SYMBOL
62
2
6
CONTINUOUS
10
8.0210925520
20
19.4048385110
0
VERTEX
8
___SYMBOL
62
2
6
CONTINUOUS
10
8.0207627153
20
19.4067202533
0
VERTEX
8
___SYMBOL
62
2
6
CONTINUOUS
10
8.0205092406
20
19.4086190464
0
VERTEX
8
___SYMBOL
62
2
6
CONTINUOUS
10
8.0203329962
20
19.4105302269
0
VERTEX
8
___SYMBOL
62
2
6
CONTINUOUS
10
8.0202346072
20
19.4124489819
0
VERTEX
8
___SYMBOL
62
2
6
CONTINUOUS
10
8.0202123769
20
19.4137536599
0
VERTEX
8
___SYMBOL
62
2
6
CONTINUOUS
10
8.0202453386
20
19.4156726486
0
VERTEX
8
___SYMBOL
62
2
6
CONTINUOUS
10
8.0203562783
20
19.4175843317
0
VERTEX
8
___SYMBOL
62
2
6
CONTINUOUS
10
8.0205446367
20
19.4194838805
0
VERTEX
8
___SYMBOL
62
2
6
CONTINUOUS
10
8.0208096055
20
19.4213666106
0
VERTEX
8
___SYMBOL
62
2
6
CONTINUOUS
10
8.0211501477
20
19.4232280272
0
VERTEX
8
___SYMBOL
62
2
6
CONTINUOUS
10
8.0215650243
20
19.4250638640
0
VERTEX
8
___SYMBOL
62
2
6
CONTINUOUS
10
8.0220528236
20
19.4268701149
0
VERTEX
8
___SYMBOL
62
2
6
CONTINUOUS
10
8.0226119939
20
19.4286430578
0
VERTEX
8
___SYMBOL
62
2
6
CONTINUOUS
10
8.0232408776
20
19.4303792698
0
VERTEX
8
___SYMBOL
62
2
6
CONTINUOUS
10
8.0239377459
20
19.4320756342
0
VERTEX
8
___SYMBOL
62
2
6
CONTINUOUS
10
8.0247008321
20
19.4337293406
0
VERTEX
8
___SYMBOL
62
2
6
CONTINUOUS
10
8.0255283641
20
19.4353378771
0
VERTEX
8
___SYMBOL
62
2
6
CONTINUOUS
10
8.0264185944
20
19.4368990178
0
VERTEX
8
___SYMBOL
62
2
6
CONTINUOUS
10
8.0273698272
20
19.4384108040
0
VERTEX
8
___SYMBOL
62
2
6
CONTINUOUS
10
8.0283804418
20
19.4398715223
0
VERTEX
8
___SYMBOL
62
2
6
CONTINUOUS
10
8.0294489138
20
19.4412796791
0
VERTEX
8
___SYMBOL
62
2
6
CONTINUOUS
10
8.0305738314
20
19.4426339738
0
VERTEX
8
___SYMBOL
62
2
6
CONTINUOUS
10
8.0317539089
20
19.4439332699
0
VERTEX
8
___SYMBOL
62
2
6
CONTINUOUS
10
8.0329879967
20
19.4451765665
0
VERTEX
8
___SYMBOL
62
2
6
CONTINUOUS
10
8.0342750883
20
19.4463629698
0
VERTEX
8
___SYMBOL
62
2
6
CONTINUOUS
10
8.0356143237
20
19.4474916651
0
VERTEX
8
___SYMBOL
62
2
6
CONTINUOUS
10
8.0370049905
20
19.4485618904
0
VERTEX
8
___SYMBOL
62
2
6
CONTINUOUS
10
8.0384465231
20
19.4495729121
0
VERTEX
8
___SYMBOL
62
2
6
CONTINUOUS
10
8.0399384987
20
19.4505240015
0
VERTEX
8
___SYMBOL
62
2
6
CONTINUOUS
10
8.0414806324
20
19.4514144142
0
VERTEX
8
___SYMBOL
62
2
6
CONTINUOUS
10
8.0430727707
20
19.4522433720
0
VERTEX
8
___SYMBOL
62
2
6
CONTINUOUS
10
8.0447148832
20
19.4530100458
0
VERTEX
8
___SYMBOL
62
2
6
CONTINUOUS
10
8.0464070544
20
19.4537135423
0
VERTEX
8
___SYMBOL
62
2
6
CONTINUOUS
10
8.0481494742
20
19.4543528917
0
VERTEX
8
___SYMBOL
62
2
6
CONTINUOUS
10
8.0499424280
20
19.4549270384
0
VERTEX
8
___SYMBOL
62
2
6
CONTINUOUS
10
8.0517862870
20
19.4554348332
0
VERTEX
8
___SYMBOL
62
2
6
CONTINUOUS
10
8.0536814981
20
19.4558750274
0
VERTEX
8
___SYMBOL
62
2
6
CONTINUOUS
10
8.0556285746
20
19.4562462692
0
VERTEX
8
___SYMBOL
62
2
6
CONTINUOUS
10
8.0576280863
20
19.4565471008
0
VERTEX
8
___SYMBOL
62
2
6
CONTINUOUS
10
8.0596806508
20
19.4567759573
0
VERTEX
8
___SYMBOL
62
2
6
CONTINUOUS
10
8.0617869252
20
19.4569311675
0
VERTEX
8
___SYMBOL
62
2
6
CONTINUOUS
10
8.0639475977
20
19.4570109542
0
SEQEND
0
LINE
8
___SYMBOL
62
2
6
CONTINUOUS
10
8.0639475977
20
19.4570109542
11
8.0978975977
21
19.4397859542
0
LINE
8
___SYMBOL
62
2
6
CONTINUOUS
10
8.0978975977
20
19.4397859542
11
8.0978975977
21
19.4509887320
0
ARC
8
___SYMBOL
62
2
6
CONTINUOUS
10
8.0632224827
20
19.4131410032
40
0.0513304411
50
47.5048873671
51
180.0087362707
0
ARC
8
___SYMBOL
62
2
6
CONTINUOUS
10
8.0637974730
20
19.4136473081
40
0.0519079771
50
180.5675053294
51
310.5520051654
0
CIRCLE
8
___SYMBOL
62
2
6
CONTINUOUS
10
7.5503445588
20
19.4026560931
40
0.0317997452
0
POLYLINE
8
___SYMBOL
62
2
6
CONTINUOUS
66
1
70
0
0
VERTEX
8
___SYMBOL
62
2
6
CONTINUOUS
10
7.4835712088
20
19.4026762320
0
VERTEX
8
___SYMBOL
62
2
6
CONTINUOUS
10
7.4836280360
20
19.4057599207
0
VERTEX
8
___SYMBOL
62
2
6
CONTINUOUS
10
7.4838280886
20
19.4088250070
0
VERTEX
8
___SYMBOL
62
2
6
CONTINUOUS
10
7.4841705746
20
19.4118674810
0
VERTEX
8
___SYMBOL
62
2
6
CONTINUOUS
10
7.4846546026
20
19.4148830311
0
VERTEX
8
___SYMBOL
62
2
6
CONTINUOUS
10
7.4852791370
20
19.4178670416
0
VERTEX
8
___SYMBOL
62
2
6
CONTINUOUS
10
7.4860429515
20
19.4208145968
0
VERTEX
8
___SYMBOL
62
2
6
CONTINUOUS
10
7.4869445847
20
19.4237204945
0
VERTEX
8
___SYMBOL
62
2
6
CONTINUOUS
10
7.4879822960
20
19.4265792668
0
VERTEX
8
___SYMBOL
62
2
6
CONTINUOUS
10
7.4891540268
20
19.4293852109
0
VERTEX
8
___SYMBOL
62
2
6
CONTINUOUS
10
7.4904573664
20
19.4321324286
0
VERTEX
8
___SYMBOL
62
2
6
CONTINUOUS
10
7.4918895259
20
19.4348148742
0
VERTEX
8
___SYMBOL
62
2
6
CONTINUOUS
10
7.4934473208
20
19.4374264093
0
VERTEX
8
___SYMBOL
62
2
6
CONTINUOUS
10
7.4951271639
20
19.4399608647
0
VERTEX
8
___SYMBOL
62
2
6
CONTINUOUS
10
7.4969250696
20
19.4424121050
0
VERTEX
8
___SYMBOL
62
2
6
CONTINUOUS
10
7.4988366700
20
19.4447740960
0
VERTEX
8
___SYMBOL
62
2
6
CONTINUOUS
10
7.4992123614
20
19.4452123181
0
VERTEX
8
___SYMBOL
62
2
6
CONTINUOUS
10
7.5012520824
20
19.4474594278
0
VERTEX
8
___SYMBOL
62
2
6
CONTINUOUS
10
7.5033931807
20
19.4496034384
0
VERTEX
8
___SYMBOL
62
2
6
CONTINUOUS
10
7.5056301625
20
19.4516393224
0
VERTEX
8
___SYMBOL
62
2
6
CONTINUOUS
10
7.5079573878
20
19.4535624257
0
VERTEX
8
___SYMBOL
62
2
6
CONTINUOUS
10
7.5103691353
20
19.4553684932
0
VERTEX
8
___SYMBOL
62
2
6
CONTINUOUS
10
7.5128596669
20
19.4570536819
0
VERTEX
8
___SYMBOL
62
2
6
CONTINUOUS
10
7.5154232906
20
19.4586145626
0
VERTEX
8
___SYMBOL
62
2
6
CONTINUOUS
10
7.5180544181
20
19.4600481091
0
VERTEX
8
___SYMBOL
62
2
6
CONTINUOUS
10
7.5207476176
20
19.4613516779
0
VERTEX
8
___SYMBOL
62
2
6
CONTINUOUS
10
7.5234976576
20
19.4625229788
0
VERTEX
8
___SYMBOL
62
2
6
CONTINUOUS
10
7.5262995440
20
19.4635600378
0
VERTEX
8
___SYMBOL
62
2
6
CONTINUOUS
10
7.5291485475
20
19.4644611554
0
VERTEX
8
___SYMBOL
62
2
6
CONTINUOUS
10
7.5320402222
20
19.4652248604
0
VERTEX
8
___SYMBOL
62
2
6
CONTINUOUS
10
7.5349704168
20
19.4658498632
0
VERTEX
8
___SYMBOL
62
2
6
CONTINUOUS
10
7.5379352772
20
19.4663350071
0
VERTEX
8
___SYMBOL
62
2
6
CONTINUOUS
10
7.5409312419
20
19.4666792226
0
VERTEX
8
___SYMBOL
62
2
6
CONTINUOUS
10
7.5439550325
20
19.4668814830
0
VERTEX
8
___SYMBOL
62
2
6
CONTINUOUS
10
7.5470036381
20
19.4669407631
0
VERTEX
8
___SYMBOL
62
2
6
CONTINUOUS
10
7.5500432890
20
19.4668564958
0
VERTEX
8
___SYMBOL
62
2
6
CONTINUOUS
10
7.5530621370
20
19.4666292733
0
VERTEX
8
___SYMBOL
62
2
6
CONTINUOUS
10
7.5560569819
20
19.4662599149
0
VERTEX
8
___SYMBOL
62
2
6
CONTINUOUS
10
7.5590243235
20
19.4657492628
0
VERTEX
8
___SYMBOL
62
2
6
CONTINUOUS
10
7.5619603467
20
19.4650982280
0
VERTEX
8
___SYMBOL
62
2
6
CONTINUOUS
10
7.5648609125
20
19.4643078400
0
VERTEX
8
___SYMBOL
62
2
6
CONTINUOUS
10
7.5677215555
20
19.4633792976
0
VERTEX
8
___SYMBOL
62
2
6
CONTINUOUS
10
7.5705374899
20
19.4623140210
0
VERTEX
8
___SYMBOL
62
2
6
CONTINUOUS
10
7.5733036243
20
19.4611137032
0
VERTEX
8
___SYMBOL
62
2
6
CONTINUOUS
10
7.5760145854
20
19.4597803578
0
VERTEX
8
___SYMBOL
62
2
6
CONTINUOUS
10
7.5786647521
20
19.4583163627
0
VERTEX
8
___SYMBOL
62
2
6
CONTINUOUS
10
7.5812482989
20
19.4567244970
0
VERTEX
8
___SYMBOL
62
2
6
CONTINUOUS
10
7.5837592482
20
19.4550079689
0
VERTEX
8
___SYMBOL
62
2
6
CONTINUOUS
10
7.5861915301
20
19.4531704331
0
VERTEX
8
___SYMBOL
62
2
6
CONTINUOUS
10
7.5885390494
20
19.4512159965
0
VERTEX
8
___SYMBOL
62
2
6
CONTINUOUS
10
7.5907957552
20
19.4491492102
0
VERTEX
8
___SYMBOL
62
2
6
CONTINUOUS
10
7.5929557136
20
19.4469750493
0
VERTEX
8
___SYMBOL
62
2
6
CONTINUOUS
10
7.5950131783
20
19.4446988779
0
VERTEX
8
___SYMBOL
62
2
6
CONTINUOUS
10
7.5950633476
20
19.4446406060
0
VERTEX
8
___SYMBOL
62
2
6
CONTINUOUS
10
7.5970087582
20
19.4422674540
0
VERTEX
8
___SYMBOL
62
2
6
CONTINUOUS
10
7.5988397587
20
19.4398060727
0
VERTEX
8
___SYMBOL
62
2
6
CONTINUOUS
10
7.6005518569
20
19.4372627783
0
VERTEX
8
___SYMBOL
62
2
6
CONTINUOUS
10
7.6021409869
20
19.4346439710
0
VERTEX
8
___SYMBOL
62
2
6
CONTINUOUS
10
7.6036035240
20
19.4319560612
0
VERTEX
8
___SYMBOL
62
2
6
CONTINUOUS
10
7.6049362859
20
19.4292053994
0
VERTEX
8
___SYMBOL
62
2
6
CONTINUOUS
10
7.6061365219
20
19.4263982108
0
VERTEX
8
___SYMBOL
62
2
6
CONTINUOUS
10
7.6072018907
20
19.4235405376
0
VERTEX
8
___SYMBOL
62
2
6
CONTINUOUS
10
7.6081304283
20
19.4206381896
0
VERTEX
8
___SYMBOL
62
2
6
CONTINUOUS
10
7.6089205096
20
19.4176967049
0
VERTEX
8
___SYMBOL
62
2
6
CONTINUOUS
10
7.6095708026
20
19.4147213197
0
VERTEX
8
___SYMBOL
62
2
6
CONTINUOUS
10
7.6100802202
20
19.4117169489
0
VERTEX
8
___SYMBOL
62
2
6
CONTINUOUS
10
7.6104478693
20
19.4086881759
0
VERTEX
8
___SYMBOL
62
2
6
CONTINUOUS
10
7.6106730009
20
19.4056392504
0
VERTEX
8
___SYMBOL
62
2
6
CONTINUOUS
10
7.6107549599
20
19.4025740948
0
VERTEX
8
___SYMBOL
62
2
6
CONTINUOUS
10
7.6106933439
20
19.3994913463
0
VERTEX
8
___SYMBOL
62
2
6
CONTINUOUS
10
7.6104885346
20
19.3964274639
0
VERTEX
8
___SYMBOL
62
2
6
CONTINUOUS
10
7.6101413302
20
19.3933864235
0
VERTEX
8
___SYMBOL
62
2
6
CONTINUOUS
10
7.6096526255
20
19.3903725022
0
VERTEX
8
___SYMBOL
62
2
6
CONTINUOUS
10
7.6090234570
20
19.3873902814
0
VERTEX
8
___SYMBOL
62
2
6
CONTINUOUS
10
7.6082550491
20
19.3844446429
0
VERTEX
8
___SYMBOL
62
2
6
CONTINUOUS
10
7.6073488592
20
19.3815407564
0
VERTEX
8
___SYMBOL
62
2
6
CONTINUOUS
10
7.6063066213
20
19.3786840587
0
VERTEX
8
___SYMBOL
62
2
6
CONTINUOUS
10
7.6051303862
20
19.3758802240
0
VERTEX
8
___SYMBOL
62
2
6
CONTINUOUS
10
7.6038225551
20
19.3731351248
0
VERTEX
8
___SYMBOL
62
2
6
CONTINUOUS
10
7.6023859068
20
19.3704547850
0
VERTEX
8
___SYMBOL
62
2
6
CONTINUOUS
10
7.6008236160
20
19.3678453244
0
VERTEX
8
___SYMBOL
62
2
6
CONTINUOUS
10
7.5991392606
20
19.3653128989
0
VERTEX
8
___SYMBOL
62
2
6
CONTINUOUS
10
7.5973368185
20
19.3628636344
0
VERTEX
8
___SYMBOL
62
2
6
CONTINUOUS
10
7.5954206520
20
19.3605035609
0
VERTEX
8
___SYMBOL
62
2
6
CONTINUOUS
10
7.5950633170
20
19.3600878610
0
VERTEX
8
___SYMBOL
62
2
6
CONTINUOUS
10
7.5930198479
20
19.3578414710
0
VERTEX
8
___SYMBOL
62
2
6
CONTINUOUS
10
7.5908749114
20
19.3556980947
0
VERTEX
8
___SYMBOL
62
2
6
CONTINUOUS
10
7.5886340096
20
19.3536627743
0
VERTEX
8
___SYMBOL
62
2
6
CONTINUOUS
10
7.5863027958
20
19.3517401814
0
VERTEX
8
___SYMBOL
62
2
6
CONTINUOUS
10
7.5838870099
20
19.3499345899
0
VERTEX
8
___SYMBOL
62
2
6
CONTINUOUS
10
7.5813924133
20
19.3482498623
0
VERTEX
8
___SYMBOL
62
2
6
CONTINUOUS
10
7.5788247263
20
19.3466894470
0
VERTEX
8
___SYMBOL
62
2
6
CONTINUOUS
10
7.5761895689
20
19.3452563882
0
VERTEX
8
___SYMBOL
62
2
6
CONTINUOUS
10
7.5734924085
20
19.3439533451
0
VERTEX
8
___SYMBOL
62
2
6
CONTINUOUS
10
7.5707385147
20
19.3427826210
0
VERTEX
8
___SYMBOL
62
2
6
CONTINUOUS
10
7.5679329215
20
19.3417461997
0
VERTEX
8
___SYMBOL
62
2
6
CONTINUOUS
10
7.5650803995
20
19.3408457868
0
VERTEX
8
___SYMBOL
62
2
6
CONTINUOUS
10
7.5621854363
20
19.3400828556
0
VERTEX
8
___SYMBOL
62
2
6
CONTINUOUS
10
7.5592522247
20
19.3394586939
0
VERTEX
8
___SYMBOL
62
2
6
CONTINUOUS
10
7.5562846598
20
19.3389744524
0
VERTEX
8
___SYMBOL
62
2
6
CONTINUOUS
10
7.5532863424
20
19.3386311908
0
VERTEX
8
___SYMBOL
62
2
6
CONTINUOUS
10
7.5502605891
20
19.3384299222
0
VERTEX
8
___SYMBOL
62
2
6
CONTINUOUS
10
7.5472104470
20
19.3383716549
0
VERTEX
8
___SYMBOL
62
2
6
CONTINUOUS
10
7.5441538993
20
19.3384570126
0
VERTEX
8
___SYMBOL
62
2
6
CONTINUOUS
10
7.5411179396
20
19.3386853534
0
VERTEX
8
___SYMBOL
62
2
6
CONTINUOUS
10
7.5381060882
20
19.3390558485
0
VERTEX
8
___SYMBOL
62
2
6
CONTINUOUS
10
7.5351221657
20
19.3395676139
0
VERTEX
8
___SYMBOL
62
2
6
CONTINUOUS
10
7.5321703035
20
19.3402196652
0
VERTEX
8
___SYMBOL
62
2
6
CONTINUOUS
10
7.5292549468
20
19.3410108692
0
VERTEX
8
___SYMBOL
62
2
6
CONTINUOUS
10
7.5263808513
20
19.3419398952
0
VERTEX
8
___SYMBOL
62
2
6
CONTINUOUS
10
7.5235530709
20
19.3430051663
0
VERTEX
8
___SYMBOL
62
2
6
CONTINUOUS
10
7.5207769363
20
19.3442048130
0
VERTEX
8
___SYMBOL
62
2
6
CONTINUOUS
10
7.5180580249
20
19.3455366313
0
VERTEX
8
___SYMBOL
62
2
6
CONTINUOUS
10
7.5154021206
20
19.3469980455
0
VERTEX
8
___SYMBOL
62
2
6
CONTINUOUS
10
7.5128151659
20
19.3485860802
0
VERTEX
8
___SYMBOL
62
2
6
CONTINUOUS
10
7.5103032051
20
19.3502973405
0
VERTEX
8
___SYMBOL
62
2
6
CONTINUOUS
10
7.5078723220
20
19.3521280042
0
VERTEX
8
___SYMBOL
62
2
6
CONTINUOUS
10
7.5055285725
20
19.3540738256
0
VERTEX
8
___SYMBOL
62
2
6
CONTINUOUS
10
7.5032779159
20
19.3561301518
0
VERTEX
8
___SYMBOL
62
2
6
CONTINUOUS
10
7.5011261460
20
19.3582919515
0
VERTEX
8
___SYMBOL
62
2
6
CONTINUOUS
10
7.5008723936
20
19.3585608167
0
VERTEX
8
___SYMBOL
62
2
6
CONTINUOUS
10
7.4988395711
20
19.3608327414
0
VERTEX
8
___SYMBOL
62
2
6
CONTINUOUS
10
7.4969182102
20
19.3631966116
0
VERTEX
8
___SYMBOL
62
2
6
CONTINUOUS
10
7.4951129021
20
19.3656464198
0
VERTEX
8
___SYMBOL
62
2
6
CONTINUOUS
10
7.4934278300
20
19.3681760659
0
VERTEX
8
___SYMBOL
62
2
6
CONTINUOUS
10
7.4918667534
20
19.3707794263
0
VERTEX
8
___SYMBOL
62
2
6
CONTINUOUS
10
7.4904330047
20
19.3734504211
0
VERTEX
8
___SYMBOL
62
2
6
CONTINUOUS
10
7.4891294981
20
19.3761830767
0
VERTEX
8
___SYMBOL
62
2
6
CONTINUOUS
10
7.4879587495
20
19.3789715814
0
VERTEX
8
___SYMBOL
62
2
6
CONTINUOUS
10
7.4869229055
20
19.3818103346
0
VERTEX
8
___SYMBOL
62
2
6
CONTINUOUS
10
7.4860237805
20
19.3846939853
0
VERTEX
8
___SYMBOL
62
2
6
CONTINUOUS
10
7.4852628989
20
19.3876174624
0
VERTEX
8
___SYMBOL
62
2
6
CONTINUOUS
10
7.4846415424
20
19.3905759955
0
VERTEX
8
___SYMBOL
62
2
6
CONTINUOUS
10
7.4841607978
20
19.3935651267
0
VERTEX
8
___SYMBOL
62
2
6
CONTINUOUS
10
7.4838216067
20
19.3965807135
0
VERTEX
8
___SYMBOL
62
2
6
CONTINUOUS
10
7.4836248130
20
19.3996189252
0
VERTEX
8
___SYMBOL
62
2
6
CONTINUOUS
10
7.4835712088
20
19.4026762320
0
SEQEND
0
POLYLINE
8
___SYMBOL
62
2
6
CONTINUOUS
66
1
70
0
0
VERTEX
8
___SYMBOL
62
2
6
CONTINUOUS
10
8.4835712088
20
19.6707762320
0
VERTEX
8
___SYMBOL
62
2
6
CONTINUOUS
10
8.4868128755
20
19.6707762320
0
VERTEX
8
___SYMBOL
62
2
6
CONTINUOUS
10
8.4871122542
20
19.6707791996
0
VERTEX
8
___SYMBOL
62
2
6
CONTINUOUS
10
8.4875082898
20
19.6707925622
0
VERTEX
8
___SYMBOL
62
2
6
CONTINUOUS
10
8.4878915612
20
19.6708163393
0
VERTEX
8
___SYMBOL
62
2
6
CONTINUOUS
10
8.4882615982
20
19.6708501400
0
VERTEX
8
___SYMBOL
62
2
6
CONTINUOUS
10
8.4886180597
20
19.6708935573
0
VERTEX
8
___SYMBOL
62
2
6
CONTINUOUS
10
8.4889607221
20
19.6709461754
0
VERTEX
8
___SYMBOL
62
2
6
CONTINUOUS
10
8.4892894666
20
19.6710075771
0
VERTEX
8
___SYMBOL
62
2
6
CONTINUOUS
10
8.4896042670
20
19.6710773507
0
VERTEX
8
___SYMBOL
62
2
6
CONTINUOUS
10
8.4899051778
20
19.6711550948
0
VERTEX
8
___SYMBOL
62
2
6
CONTINUOUS
10
8.4901923224
20
19.6712404240
0
VERTEX
8
___SYMBOL
62
2
6
CONTINUOUS
10
8.4904658826
20
19.6713329732
0
VERTEX
8
___SYMBOL
62
2
6
CONTINUOUS
10
8.4907260877
20
19.6714324009
0
VERTEX
8
___SYMBOL
62
2
6
CONTINUOUS
10
8.4909732049
20
19.6715383931
0
VERTEX
8
___SYMBOL
62
2
6
CONTINUOUS
10
8.4912075308
20
19.6716506660
0
VERTEX
8
___SYMBOL
62
2
6
CONTINUOUS
10
8.4914293821
20
19.6717689679
0
VERTEX
8
___SYMBOL
62
2
6
CONTINUOUS
10
8.4916390880
20
19.6718930823
0
VERTEX
8
___SYMBOL
62
2
6
CONTINUOUS
10
8.4918369833
20
19.6720228283
0
VERTEX
8
___SYMBOL
62
2
6
CONTINUOUS
10
8.4920234007
20
19.6721580630
0
VERTEX
8
___SYMBOL
62
2
6
CONTINUOUS
10
8.4921986650
20
19.6722986815
0
VERTEX
8
___SYMBOL
62
2
6
CONTINUOUS
10
8.4923630865
20
19.6724446182
0
VERTEX
8
___SYMBOL
62
2
6
CONTINUOUS
10
8.4925169561
20
19.6725958464
0
VERTEX
8
___SYMBOL
62
2
6
CONTINUOUS
10
8.4926605395
20
19.6727523784
0
VERTEX
8
___SYMBOL
62
2
6
CONTINUOUS
10
8.4927940729
20
19.6729142645
0
VERTEX
8
___SYMBOL
62
2
6
CONTINUOUS
10
8.4929177584
20
19.6730815923
0
VERTEX
8
___SYMBOL
62
2
6
CONTINUOUS
10
8.4930317604
20
19.6732544851
0
VERTEX
8
___SYMBOL
62
2
6
CONTINUOUS
10
8.4931362023
20
19.6734331003
0
VERTEX
8
___SYMBOL
62
2
6
CONTINUOUS
10
8.4932311640
20
19.6736176268
0
VERTEX
8
___SYMBOL
62
2
6
CONTINUOUS
10
8.4933166795
20
19.6738082836
0
VERTEX
8
___SYMBOL
62
2
6
CONTINUOUS
10
8.4933927353
20
19.6740053161
0
VERTEX
8
___SYMBOL
62
2
6
CONTINUOUS
10
8.4934592697
20
19.6742089946
0
VERTEX
8
___SYMBOL
62
2
6
CONTINUOUS
10
8.4935161724
20
19.6744196106
0
VERTEX
8
___SYMBOL
62
2
6
CONTINUOUS
10
8.4935632483
20
19.6746372851
0
VERTEX
8
___SYMBOL
62
2
6
CONTINUOUS
10
8.4936003096
20
19.6748622784
0
VERTEX
8
___SYMBOL
62
2
6
CONTINUOUS
10
8.4936271377
20
19.6750949237
0
VERTEX
8
___SYMBOL
62
2
6
CONTINUOUS
10
8.4936434671
20
19.6753355671
0
VERTEX
8
___SYMBOL
62
2
6
CONTINUOUS
10
8.4936489866
20
19.6755845654
0
VERTEX
8
___SYMBOL
62
2
6
CONTINUOUS
10
8.4936446100
20
19.6757951685
0
VERTEX
8
___SYMBOL
62
2
6
CONTINUOUS
10
8.4936293778
20
19.6760280402
0
VERTEX
8
___SYMBOL
62
2
6
CONTINUOUS
10
8.4936034019
20
19.6762568644
0
VERTEX
8
___SYMBOL
62
2
6
CONTINUOUS
10
8.4935668667
20
19.6764812896
0
VERTEX
8
___SYMBOL
62
2
6
CONTINUOUS
10
8.4935199553
20
19.6767010293
0
VERTEX
8
___SYMBOL
62
2
6
CONTINUOUS
10
8.4934628414
20
19.6769158540
0
VERTEX
8
___SYMBOL
62
2
6
CONTINUOUS
10
8.4933956835
20
19.6771255834
0
VERTEX
8
___SYMBOL
62
2
6
CONTINUOUS
10
8.4933186189
20
19.6773300782
0
VERTEX
8
___SYMBOL
62
2
6
CONTINUOUS
10
8.4932317604
20
19.6775292320
0
VERTEX
8
___SYMBOL
62
2
6
CONTINUOUS
10
8.4931351920
20
19.6777229644
0
VERTEX
8
___SYMBOL
62
2
6
CONTINUOUS
10
8.4930289673
20
19.6779112132
0
VERTEX
8
___SYMBOL
62
2
6
CONTINUOUS
10
8.4929131073
20
19.6780939283
0
VERTEX
8
___SYMBOL
62
2
6
CONTINUOUS
10
8.4927876000
20
19.6782710656
0
VERTEX
8
___SYMBOL
62
2
6
CONTINUOUS
10
8.4926524001
20
19.6784425815
0
VERTEX
8
___SYMBOL
62
2
6
CONTINUOUS
10
8.4925074292
20
19.6786084282
0
VERTEX
8
___SYMBOL
62
2
6
CONTINUOUS
10
8.4923525768
20
19.6787685494
0
VERTEX
8
___SYMBOL
62
2
6
CONTINUOUS
10
8.4921877016
20
19.6789228769
0
VERTEX
8
___SYMBOL
62
2
6
CONTINUOUS
10
8.4920126329
20
19.6790713274
0
VERTEX
8
___SYMBOL
62
2
6
CONTINUOUS
10
8.4918271724
20
19.6792138005
0
VERTEX
8
___SYMBOL
62
2
6
CONTINUOUS
10
8.4916310963
20
19.6793501763
0
VERTEX
8
___SYMBOL
62
2
6
CONTINUOUS
10
8.4914241573
20
19.6794803143
0
VERTEX
8
___SYMBOL
62
2
6
CONTINUOUS
10
8.4912060866
20
19.6796040522
0
VERTEX
8
___SYMBOL
62
2
6
CONTINUOUS
10
8.4909765959
20
19.6797212059
0
VERTEX
8
___SYMBOL
62
2
6
CONTINUOUS
10
8.4907354484
20
19.6798315387
0
VERTEX
8
___SYMBOL
62
2
6
CONTINUOUS
10
8.4904824065
20
19.6799347994
0
VERTEX
8
___SYMBOL
62
2
6
CONTINUOUS
10
8.4902171428
20
19.6800307541
0
VERTEX
8
___SYMBOL
62
2
6
CONTINUOUS
10
8.4899393168
20
19.6801191468
0
VERTEX
8
___SYMBOL
62
2
6
CONTINUOUS
10
8.4896485765
20
19.6801996997
0
VERTEX
8
___SYMBOL
62
2
6
CONTINUOUS
10
8.4893445602
20
19.6802721143
0
VERTEX
8
___SYMBOL
62
2
6
CONTINUOUS
10
8.4890268979
20
19.6803360716
0
VERTEX
8
___SYMBOL
62
2
6
CONTINUOUS
10
8.4886952124
20
19.6803912337
0
VERTEX
8
___SYMBOL
62
2
6
CONTINUOUS
10
8.4883491207
20
19.6804372444
0
VERTEX
8
___SYMBOL
62
2
6
CONTINUOUS
10
8.4879882347
20
19.6804737301
0
VERTEX
8
___SYMBOL
62
2
6
CONTINUOUS
10
8.4876121624
20
19.6805003012
0
VERTEX
8
___SYMBOL
62
2
6
CONTINUOUS
10
8.4872205086
20
19.6805165527
0
VERTEX
8
___SYMBOL
62
2
6
CONTINUOUS
10
8.4868128755
20
19.6805220654
0
VERTEX
8
___SYMBOL
62
2
6
CONTINUOUS
10
8.4862945445
20
19.6805167019
0
VERTEX
8
___SYMBOL
62
2
6
CONTINUOUS
10
8.4858005776
20
19.6805009860
0
VERTEX
8
___SYMBOL
62
2
6
CONTINUOUS
10
8.4853272581
20
19.6804753869
0
VERTEX
8
___SYMBOL
62
2
6
CONTINUOUS
10
8.4848697021
20
19.6804401884
0
VERTEX
8
___SYMBOL
62
2
6
CONTINUOUS
10
8.4844206678
20
19.6803953313
0
VERTEX
8
___SYMBOL
62
2
6
CONTINUOUS
10
8.4839672899
20
19.6803399813
0
VERTEX
8
___SYMBOL
62
2
6
CONTINUOUS
10
8.4835712088
20
19.6802845654
0
SEQEND
0
LINE
8
___SYMBOL
62
2
6
CONTINUOUS
10
8.4835712088
20
19.6802845654
11
8.4835712088
21
19.6707762320
0
LINE
8
___SYMBOL
62
2
6
CONTINUOUS
10
8.4835712088
20
19.6552123431
11
8.4790962088
21
19.6552123431
0
LINE
8
___SYMBOL
62
2
6
CONTINUOUS
10
8.4790962088
20
19.6552123431
11
8.4790962088
21
19.6833095654
0
POLYLINE
8
___SYMBOL
62
2
6
CONTINUOUS
66
1
70
0
0
VERTEX
8
___SYMBOL
62
2
6
CONTINUOUS
10
8.4790962088
20
19.6833095654
0
VERTEX
8
___SYMBOL
62
2
6
CONTINUOUS
10
8.4793258810
20
19.6833433921
0
VERTEX
8
___SYMBOL
62
2
6
CONTINUOUS
10
8.4805644530
20
19.6835209414
0
VERTEX
8
___SYMBOL
62
2
6
CONTINUOUS
10
8.4815658221
20
19.6836511866
0
VERTEX
8
___SYMBOL
62
2
6
CONTINUOUS
10
8.4824797866
20
19.6837538130
0
VERTEX
8
___SYMBOL
62
2
6
CONTINUOUS
10
8.4833618807
20
19.6838352675
0
VERTEX
8
___SYMBOL
62
2
6
CONTINUOUS
10
8.4842418053
20
19.6838981477
0
VERTEX
8
___SYMBOL
62
2
6
CONTINUOUS
10
8.4851391494
20
19.6839433837
0
VERTEX
8
___SYMBOL
62
2
6
CONTINUOUS
10
8.4860688270
20
19.6839709922
0
VERTEX
8
___SYMBOL
62
2
6
CONTINUOUS
10
8.4870434311
20
19.6839803987
0
VERTEX
8
___SYMBOL
62
2
6
CONTINUOUS
10
8.4877116636
20
19.6839729253
0
VERTEX
8
___SYMBOL
62
2
6
CONTINUOUS
10
8.4884363312
20
19.6839469554
0
VERTEX
8
___SYMBOL
62
2
6
CONTINUOUS
10
8.4891285333
20
19.6839031941
0
VERTEX
8
___SYMBOL
62
2
6
CONTINUOUS
10
8.4897889263
20
19.6838424670
0
VERTEX
8
___SYMBOL
62
2
6
CONTINUOUS
10
8.4904181688
20
19.6837655884
0
VERTEX
8
___SYMBOL
62
2
6
CONTINUOUS
10
8.4910169212
20
19.6836733600
0
VERTEX
8
___SYMBOL
62
2
6
CONTINUOUS
10
8.4915858449
20
19.6835665698
0
VERTEX
8
___SYMBOL
62
2
6
CONTINUOUS
10
8.4921256015
20
19.6834459906
0
VERTEX
8
___SYMBOL
62
2
6
CONTINUOUS
10
8.4926368513
20
19.6833123781
0
VERTEX
8
___SYMBOL
62
2
6
CONTINUOUS
10
8.4931202525
20
19.6831664697
0
VERTEX
8
___SYMBOL
62
2
6
CONTINUOUS
10
8.4935764591
20
19.6830089828
0
VERTEX
8
___SYMBOL
62
2
6
CONTINUOUS
10
8.4940061193
20
19.6828406128
0
VERTEX
8
___SYMBOL
62
2
6
CONTINUOUS
10
8.4944098726
20
19.6826620325
0
VERTEX
8
___SYMBOL
62
2
6
CONTINUOUS
10
8.4947883477
20
19.6824738897
0
VERTEX
8
___SYMBOL
62
2
6
CONTINUOUS
10
8.4951421588
20
19.6822768067
0
VERTEX
8
___SYMBOL
62
2
6
CONTINUOUS
10
8.4954719024
20
19.6820713793
0
VERTEX
8
___SYMBOL
62
2
6
CONTINUOUS
10
8.4956279367
20
19.6819657102
0
VERTEX
8
___SYMBOL
62
2
6
CONTINUOUS
10
8.4957781533
20
19.6818581765
0
VERTEX
8
___SYMBOL
62
2
6
CONTINUOUS
10
8.4960527908
20
19.6816441628
0
VERTEX
8
___SYMBOL
62
2
6
CONTINUOUS
10
8.4963108645
20
19.6814188414
0
VERTEX
8
___SYMBOL
62
2
6
CONTINUOUS
10
8.4965529269
20
19.6811820461
0
VERTEX
8
___SYMBOL
62
2
6
CONTINUOUS
10
8.4967794470
20
19.6809335271
0
VERTEX
8
___SYMBOL
62
2
6
CONTINUOUS
10
8.4969908050
20
19.6806729533
0
VERTEX
8
___SYMBOL
62
2
6
CONTINUOUS
10
8.4971872881
20
19.6803999151
0
VERTEX
8
___SYMBOL
62
2
6
CONTINUOUS
10
8.4972800296
20
19.6802585504
0
VERTEX
8
___SYMBOL
62
2
6
CONTINUOUS
10
8.4973690792
20
19.6801139418
0
VERTEX
8
___SYMBOL
62
2
6
CONTINUOUS
10
8.4975360342
20
19.6798149376
0
VERTEX
8
___SYMBOL
62
2
6
CONTINUOUS
10
8.4976882222
20
19.6795023277
0
VERTEX
8
___SYMBOL
62
2
6
CONTINUOUS
10
8.4978256108
20
19.6791754743
0
VERTEX
8
___SYMBOL
62
2
6
CONTINUOUS
10
8.4979480665
20
19.6788336825
0
VERTEX
8
___SYMBOL
62
2
6
CONTINUOUS
10
8.4980553561
20
19.6784762054
0
VERTEX
8
___SYMBOL
62
2
6
CONTINUOUS
10
8.4981471488
20
19.6781022499
0
VERTEX
8
___SYMBOL
62
2
6
CONTINUOUS
10
8.4982230187
20
19.6777109812
0
VERTEX
8
___SYMBOL
62
2
6
CONTINUOUS
10
8.4982824488
20
19.6773015276
0
VERTEX
8
___SYMBOL
62
2
6
CONTINUOUS
10
8.4983248340
20
19.6768729850
0
VERTEX
8
___SYMBOL
62
2
6
CONTINUOUS
10
8.4983494857
20
19.6764244203
0
VERTEX
8
___SYMBOL
62
2
6
CONTINUOUS
10
8.4983559311
20
19.6760387320
0
VERTEX
8
___SYMBOL
62
2
6
CONTINUOUS
10
8.4983463133
20
19.6756430559
0
VERTEX
8
___SYMBOL
62
2
6
CONTINUOUS
10
8.4983178139
20
19.6752586708
0
VERTEX
8
___SYMBOL
62
2
6
CONTINUOUS
10
8.4982709146
20
19.6748852278
0
VERTEX
8
___SYMBOL
62
2
6
CONTINUOUS
10
8.4982060297
20
19.6745223949
0
VERTEX
8
___SYMBOL
62
2
6
CONTINUOUS
10
8.4981235057
20
19.6741698621
0
VERTEX
8
___SYMBOL
62
2
6
CONTINUOUS
10
8.4980236214
20
19.6738273466
0
VERTEX
8
___SYMBOL
62
2
6
CONTINUOUS
10
8.4979065897
20
19.6734945988
0
VERTEX
8
___SYMBOL
62
2
6
CONTINUOUS
10
8.4977725597
20
19.6731714080
0
VERTEX
8
___SYMBOL
62
2
6
CONTINUOUS
10
8.4976216210
20
19.6728576085
0
VERTEX
8
___SYMBOL
62
2
6
CONTINUOUS
10
8.4974538095
20
19.6725530852
0
VERTEX
8
___SYMBOL
62
2
6
CONTINUOUS
10
8.4972691140
20
19.6722577795
0
VERTEX
8
___SYMBOL
62
2
6
CONTINUOUS
10
8.4970674860
20
19.6719716942
0
VERTEX
8
___SYMBOL
62
2
6
CONTINUOUS
10
8.4968488491
20
19.6716948981
0
VERTEX
8
___SYMBOL
62
2
6
CONTINUOUS
10
8.4966131124
20
19.6714275300
0
VERTEX
8
___SYMBOL
62
2
6
CONTINUOUS
10
8.4963601839
20
19.6711698017
0
VERTEX
8
___SYMBOL
62
2
6
CONTINUOUS
10
8.4960899866
20
19.6709219995
0
VERTEX
8
___SYMBOL
62
2
6
CONTINUOUS
10
8.4958024760
20
19.6706844854
0
VERTEX
8
___SYMBOL
62
2
6
CONTINUOUS
10
8.4954976587
20
19.6704576957
0
VERTEX
8
___SYMBOL
62
2
6
CONTINUOUS
10
8.4951756130
20
19.6702421388
0
VERTEX
8
___SYMBOL
62
2
6
CONTINUOUS
10
8.4948365102
20
19.6700383908
0
VERTEX
8
___SYMBOL
62
2
6
CONTINUOUS
10
8.4944806365
20
19.6698470889
0
VERTEX
8
___SYMBOL
62
2
6
CONTINUOUS
10
8.4941084150
20
19.6696689229
0
VERTEX
8
___SYMBOL
62
2
6
CONTINUOUS
10
8.4937204269
20
19.6695046238
0
VERTEX
8
___SYMBOL
62
2
6
CONTINUOUS
10
8.4933174314
20
19.6693549497
0
VERTEX
8
___SYMBOL
62
2
6
CONTINUOUS
10
8.4929003820
20
19.6692206696
0
VERTEX
8
___SYMBOL
62
2
6
CONTINUOUS
10
8.4928628755
20
19.6692095654
0
SEQEND
0
LINE
8
___SYMBOL
62
2
6
CONTINUOUS
10
8.4928628755
20
19.6692095654
11
8.4928628755
21
19.6689859542
0
LINE
8
___SYMBOL
62
2
6
CONTINUOUS
10
8.4928628755
20
19.6689859542
11
8.4993462088
21
19.6552123431
0
LINE
8
___SYMBOL
62
2
6
CONTINUOUS
10
8.4993462088
20
19.6552123431
11
8.4946531533
21
19.6552123431
0
LINE
8
___SYMBOL
62
2
6
CONTINUOUS
10
8.4946531533
20
19.6552123431
11
8.4927545422
21
19.6623748431
0
LINE
8
___SYMBOL
62
2
6
CONTINUOUS
10
8.4927545422
20
19.6623748431
11
8.4835712088
21
19.6673109542
0
LINE
8
___SYMBOL
62
2
6
CONTINUOUS
10
8.4835712088
20
19.6673109542
11
8.4835712088
21
19.6552123431
0
CIRCLE
8
___SYMBOL
62
2
6
CONTINUOUS
10
8.4883323200
20
19.6709149066
40
0.0202280646
0
POLYLINE
8
___SYMBOL
62
2
6
CONTINUOUS
66
1
70
0
0
VERTEX
8
___SYMBOL
62
2
6
CONTINUOUS
10
8.5131267644
20
19.6698817876
0
VERTEX
8
___SYMBOL
62
2
6
CONTINUOUS
10
8.5131337817
20
19.6680711676
0
VERTEX
8
___SYMBOL
62
2
6
CONTINUOUS
10
8.5130871251
20
19.6663773773
0
VERTEX
8
___SYMBOL
62
2
6
CONTINUOUS
10
8.5129900863
20
19.6647915631
0
VERTEX
8
___SYMBOL
62
2
6
CONTINUOUS
10
8.5128456026
20
19.6633056569
0
VERTEX
8
___SYMBOL
62
2
6
CONTINUOUS
10
8.5126562731
20
19.6619122803
0
VERTEX
8
___SYMBOL
62
2
6
CONTINUOUS
10
8.5124243698
20
19.6606046652
0
VERTEX
8
___SYMBOL
62
2
6
CONTINUOUS
10
8.5121518425
20
19.6593765907
0
VERTEX
8
___SYMBOL
62
2
6
CONTINUOUS
10
8.5118403193
20
19.6582223309
0
VERTEX
8
___SYMBOL
62
2
6
CONTINUOUS
10
8.5114911048
20
19.6571366146
0
VERTEX
8
___SYMBOL
62
2
6
CONTINUOUS
10
8.5111051739
20
19.6561145930
0
VERTEX
8
___SYMBOL
62
2
6
CONTINUOUS
10
8.5106831656
20
19.6551518168
0
VERTEX
8
___SYMBOL
62
2
6
CONTINUOUS
10
8.5102253743
20
19.6542442185
0
VERTEX
8
___SYMBOL
62
2
6
CONTINUOUS
10
8.5097317417
20
19.6533881017
0
VERTEX
8
___SYMBOL
62
2
6
CONTINUOUS
10
8.5092018489
20
19.6525801346
0
VERTEX
8
___SYMBOL
62
2
6
CONTINUOUS
10
8.5086349089
20
19.6518173473
0
VERTEX
8
___SYMBOL
62
2
6
CONTINUOUS
10
8.5080297613
20
19.6510971320
0
VERTEX
8
___SYMBOL
62
2
6
CONTINUOUS
10
8.5073848679
20
19.6504172443
0
VERTEX
8
___SYMBOL
62
2
6
CONTINUOUS
10
8.5066995196
20
19.6497768690
0
VERTEX
8
___SYMBOL
62
2
6
CONTINUOUS
10
8.5059720923
20
19.6491746554
0
VERTEX
8
___SYMBOL
62
2
6
CONTINUOUS
10
8.5052001937
20
19.6486091852
0
VERTEX
8
___SYMBOL
62
2
6
CONTINUOUS
10
8.5043810601
20
19.6480794107
0
VERTEX
8
___SYMBOL
62
2
6
CONTINUOUS
10
8.5035115577
20
19.6475846498
0
VERTEX
8
___SYMBOL
62
2
6
CONTINUOUS
10
8.5025881810
20
19.6471245797
0
VERTEX
8
___SYMBOL
62
2
6
CONTINUOUS
10
8.5016070496
20
19.6466992288
0
VERTEX
8
___SYMBOL
62
2
6
CONTINUOUS
10
8.5005638993
20
19.6463089688
0
VERTEX
8
___SYMBOL
62
2
6
CONTINUOUS
10
8.4994540687
20
19.6459545052
0
VERTEX
8
___SYMBOL
62
2
6
CONTINUOUS
10
8.4982724791
20
19.6456368695
0
VERTEX
8
___SYMBOL
62
2
6
CONTINUOUS
10
8.4970136067
20
19.6453574124
0
VERTEX
8
___SYMBOL
62
2
6
CONTINUOUS
10
8.4956714465
20
19.6451177983
0
VERTEX
8
___SYMBOL
62
2
6
CONTINUOUS
10
8.4942394660
20
19.6449200040
0
VERTEX
8
___SYMBOL
62
2
6
CONTINUOUS
10
8.4927105470
20
19.6447663200
0
VERTEX
8
___SYMBOL
62
2
6
CONTINUOUS
10
8.4910769135
20
19.6446593573
0
VERTEX
8
___SYMBOL
62
2
6
CONTINUOUS
10
8.4893300438
20
19.6446020585
0
VERTEX
8
___SYMBOL
62
2
6
CONTINUOUS
10
8.4883289217
20
19.6445929032
0
VERTEX
8
___SYMBOL
62
2
6
CONTINUOUS
10
8.4865388609
20
19.6446178216
0
VERTEX
8
___SYMBOL
62
2
6
CONTINUOUS
10
8.4848644615
20
19.6446944356
0
VERTEX
8
___SYMBOL
62
2
6
CONTINUOUS
10
8.4832969502
20
19.6448196317
0
VERTEX
8
___SYMBOL
62
2
6
CONTINUOUS
10
8.4818283171
20
19.6449906422
0
VERTEX
8
___SYMBOL
62
2
6
CONTINUOUS
10
8.4804512264
20
19.6452050319
0
VERTEX
8
___SYMBOL
62
2
6
CONTINUOUS
10
8.4791589433
20
19.6454606897
0
VERTEX
8
___SYMBOL
62
2
6
CONTINUOUS
10
8.4779452736
20
19.6457558253
0
VERTEX
8
___SYMBOL
62
2
6
CONTINUOUS
10
8.4768045158
20
19.6460889699
0
VERTEX
8
___SYMBOL
62
2
6
CONTINUOUS
10
8.4757314223
20
19.6464589797
0
VERTEX
8
___SYMBOL
62
2
6
CONTINUOUS
10
8.4747211694
20
19.6468650424
0
VERTEX
8
___SYMBOL
62
2
6
CONTINUOUS
10
8.4737693347
20
19.6473066847
0
VERTEX
8
___SYMBOL
62
2
6
CONTINUOUS
10
8.4728718814
20
19.6477837811
0
VERTEX
8
___SYMBOL
62
2
6
CONTINUOUS
10
8.4720251471
20
19.6482965625
0
VERTEX
8
___SYMBOL
62
2
6
CONTINUOUS
10
8.4712258378
20
19.6488456256
0
VERTEX
8
___SYMBOL
62
2
6
CONTINUOUS
10
8.4704710245
20
19.6494319398
0
VERTEX
8
___SYMBOL
62
2
6
CONTINUOUS
10
8.4697581431
20
19.6500568546
0
VERTEX
8
___SYMBOL
62
2
6
CONTINUOUS
10
8.4690856113
20
19.6507214579
0
VERTEX
8
___SYMBOL
62
2
6
CONTINUOUS
10
8.4684523606
20
19.6514267237
0
VERTEX
8
___SYMBOL
62
2
6
CONTINUOUS
10
8.4678566519
20
19.6521748710
0
VERTEX
8
___SYMBOL
62
2
6
CONTINUOUS
10
8.4672971167
20
19.6529685030
0
VERTEX
8
___SYMBOL
62
2
6
CONTINUOUS
10
8.4667727522
20
19.6538106081
0
VERTEX
8
___SYMBOL
62
2
6
CONTINUOUS
10
8.4662829157
20
19.6547045645
0
VERTEX
8
___SYMBOL
62
2
6
CONTINUOUS
10
8.4658273168
20
19.6556541464
0
VERTEX
8
___SYMBOL
62
2
6
CONTINUOUS
10
8.4654060093
20
19.6566635367
0
VERTEX
8
___SYMBOL
62
2
6
CONTINUOUS
10
8.4650193826
20
19.6577373441
0
VERTEX
8
___SYMBOL
62
2
6
CONTINUOUS
10
8.4646681532
20
19.6588806288
0
VERTEX
8
___SYMBOL
62
2
6
CONTINUOUS
10
8.4643533574
20
19.6600989368
0
VERTEX
8
___SYMBOL
62
2
6
CONTINUOUS
10
8.4640763464
20
19.6613983451
0
VERTEX
8
___SYMBOL
62
2
6
CONTINUOUS
10
8.4638387838
20
19.6627855201
0
VERTEX
8
___SYMBOL
62
2
6
CONTINUOUS
10
8.4636426474
20
19.6642677909
0
VERTEX
8
___SYMBOL
62
2
6
CONTINUOUS
10
8.4634902363
20
19.6658532423
0
VERTEX
8
___SYMBOL
62
2
6
CONTINUOUS
10
8.4633841833
20
19.6675508313
0
VERTEX
8
___SYMBOL
62
2
6
CONTINUOUS
10
8.4633274771
20
19.6693705329
0
VERTEX
8
___SYMBOL
62
2
6
CONTINUOUS
10
8.4633220869
20
19.6697749963
0
VERTEX
8
___SYMBOL
62
2
6
CONTINUOUS
10
8.4633363367
20
19.6711158810
0
VERTEX
8
___SYMBOL
62
2
6
CONTINUOUS
10
8.4634059745
20
19.6724200180
0
VERTEX
8
___SYMBOL
62
2
6
CONTINUOUS
10
8.4635295543
20
19.6736880462
0
VERTEX
8
___SYMBOL
62
2
6
CONTINUOUS
10
8.4637057462
20
19.6749205739
0
VERTEX
8
___SYMBOL
62
2
6
CONTINUOUS
10
8.4639333373
20
19.6761181693
0
VERTEX
8
___SYMBOL
62
2
6
CONTINUOUS
10
8.4642112322
20
19.6772813502
0
VERTEX
8
___SYMBOL
62
2
6
CONTINUOUS
10
8.4645384509
20
19.6784105735
0
VERTEX
8
___SYMBOL
62
2
6
CONTINUOUS
10
8.4649141255
20
19.6795062240
0
VERTEX
8
___SYMBOL
62
2
6
CONTINUOUS
10
8.4653374941
20
19.6805686023
0
VERTEX
8
___SYMBOL
62
2
6
CONTINUOUS
10
8.4658078923
20
19.6815979135
0
VERTEX
8
___SYMBOL
62
2
6
CONTINUOUS
10
8.4663247420
20
19.6825942553
0
VERTEX
8
___SYMBOL
62
2
6
CONTINUOUS
10
8.4668875372
20
19.6835576069
0
VERTEX
8
___SYMBOL
62
2
6
CONTINUOUS
10
8.4674958272
20
19.6844878190
0
VERTEX
8
___SYMBOL
62
2
6
CONTINUOUS
10
8.4681491961
20
19.6853846040
0
VERTEX
8
___SYMBOL
62
2
6
CONTINUOUS
10
8.4688472393
20
19.6862475290
0
VERTEX
8
___SYMBOL
62
2
6
CONTINUOUS
10
8.4695895374
20
19.6870760099
0
VERTEX
8
___SYMBOL
62
2
6
CONTINUOUS
10
8.4703756268
20
19.6878693083
0
VERTEX
8
___SYMBOL
62
2
6
CONTINUOUS
10
8.4712049682
20
19.6886265316
0
VERTEX
8
___SYMBOL
62
2
6
CONTINUOUS
10
8.4720769121
20
19.6893466353
0
VERTEX
8
___SYMBOL
62
2
6
CONTINUOUS
10
8.4729906645
20
19.6900284307
0
VERTEX
8
___SYMBOL
62
2
6
CONTINUOUS
10
8.4739452500
20
19.6906705955
0
VERTEX
8
___SYMBOL
62
2
6
CONTINUOUS
10
8.4749394771
20
19.6912716895
0
VERTEX
8
___SYMBOL
62
2
6
CONTINUOUS
10
8.4759719034
20
19.6918301745
0
VERTEX
8
___SYMBOL
62
2
6
CONTINUOUS
10
8.4770408050
20
19.6923444397
0
VERTEX
8
___SYMBOL
62
2
6
CONTINUOUS
10
8.4781441494
20
19.6928128312
0
VERTEX
8
___SYMBOL
62
2
6
CONTINUOUS
10
8.4792795756
20
19.6932336857
0
VERTEX
8
___SYMBOL
62
2
6
CONTINUOUS
10
8.4804443815
20
19.6936053688
0
VERTEX
8
___SYMBOL
62
2
6
CONTINUOUS
10
8.4816355204
20
19.6939263148
0
VERTEX
8
___SYMBOL
62
2
6
CONTINUOUS
10
8.4828496097
20
19.6941950687
0
VERTEX
8
___SYMBOL
62
2
6
CONTINUOUS
10
8.4840829503
20
19.6944103281
0
VERTEX
8
___SYMBOL
62
2
6
CONTINUOUS
10
8.4853315587
20
19.6945709825
0
VERTEX
8
___SYMBOL
62
2
6
CONTINUOUS
10
8.4865912115
20
19.6946761490
0
VERTEX
8
___SYMBOL
62
2
6
CONTINUOUS
10
8.4878574995
20
19.6947252021
0
VERTEX
8
___SYMBOL
62
2
6
CONTINUOUS
10
8.4887214125
20
19.6947262990
0
VERTEX
8
___SYMBOL
62
2
6
CONTINUOUS
10
8.4899870895
20
19.6946804806
0
VERTEX
8
___SYMBOL
62
2
6
CONTINUOUS
10
8.4912455775
20
19.6945785848
0
VERTEX
8
___SYMBOL
62
2
6
CONTINUOUS
10
8.4924924884
20
19.6944212549
0
VERTEX
8
___SYMBOL
62
2
6
CONTINUOUS
10
8.4937236272
20
19.6942093890
0
VERTEX
8
___SYMBOL
62
2
6
CONTINUOUS
10
8.4949350463
20
19.6939441104
0
VERTEX
8
___SYMBOL
62
2
6
CONTINUOUS
10
8.4961230877
20
19.6936267310
0
VERTEX
8
___SYMBOL
62
2
6
CONTINUOUS
10
8.4972844140
20
19.6932587115
0
VERTEX
8
___SYMBOL
62
2
6
CONTINUOUS
10
8.4984160265
20
19.6928416195
0
VERTEX
8
___SYMBOL
62
2
6
CONTINUOUS
10
8.4995152722
20
19.6923770880
0
VERTEX
8
___SYMBOL
62
2
6
CONTINUOUS
10
8.5005798390
20
19.6918667748
0
VERTEX
8
___SYMBOL
62
2
6
CONTINUOUS
10
8.5016077427
20
19.6913123248
0
VERTEX
8
___SYMBOL
62
2
6
CONTINUOUS
10
8.5025973048
20
19.6907153368
0
VERTEX
8
___SYMBOL
62
2
6
CONTINUOUS
10
8.5035471258
20
19.6900773338
0
VERTEX
8
___SYMBOL
62
2
6
CONTINUOUS
10
8.5044560531
20
19.6893997380
0
VERTEX
8
___SYMBOL
62
2
6
CONTINUOUS
10
8.5053231465
20
19.6886838517
0
VERTEX
8
___SYMBOL
62
2
6
CONTINUOUS
10
8.5061476421
20
19.6879308410
0
VERTEX
8
___SYMBOL
62
2
6
CONTINUOUS
10
8.5069289163
20
19.6871417263
0
VERTEX
8
___SYMBOL
62
2
6
CONTINUOUS
10
8.5076664504
20
19.6863173748
0
VERTEX
8
___SYMBOL
62
2
6
CONTINUOUS
10
8.5083597965
20
19.6854584982
0
VERTEX
8
___SYMBOL
62
2
6
CONTINUOUS
10
8.5090085463
20
19.6845656531
0
VERTEX
8
___SYMBOL
62
2
6
CONTINUOUS
10
8.5096123014
20
19.6836392446
0
VERTEX
8
___SYMBOL
62
2
6
CONTINUOUS
10
8.5101706474
20
19.6826795317
0
VERTEX
8
___SYMBOL
62
2
6
CONTINUOUS
10
8.5106831309
20
19.6816866358
0
VERTEX
8
___SYMBOL
62
2
6
CONTINUOUS
10
8.5111492392
20
19.6806605496
0
VERTEX
8
___SYMBOL
62
2
6
CONTINUOUS
10
8.5115683836
20
19.6796011480
0
VERTEX
8
___SYMBOL
62
2
6
CONTINUOUS
10
8.5119398857
20
19.6785081992
0
VERTEX
8
___SYMBOL
62
2
6
CONTINUOUS
10
8.5122629666
20
19.6773813764
0
VERTEX
8
___SYMBOL
62
2
6
CONTINUOUS
10
8.5125367385
20
19.6762202702
0
VERTEX
8
___SYMBOL
62
2
6
CONTINUOUS
10
8.5127601996
20
19.6750243998
0
VERTEX
8
___SYMBOL
62
2
6
CONTINUOUS
10
8.5129322302
20
19.6737932244
0
VERTEX
8
___SYMBOL
62
2
6
CONTINUOUS
10
8.5130515921
20
19.6725261546
0
VERTEX
8
___SYMBOL
62
2
6
CONTINUOUS
10
8.5131169280
20
19.6712225616
0
VERTEX
8
___SYMBOL
62
2
6
CONTINUOUS
10
8.5131288805
20
19.6705568275
0
VERTEX
8
___SYMBOL
62
2
6
CONTINUOUS
10
8.5131267644
20
19.6698817876
0
SEQEND
0
POLYLINE
8
___SYMBOL
62
2
6
CONTINUOUS
66
1
70
0
0
VERTEX
8
___SYMBOL
62
2
6
CONTINUOUS
10
8.5734837088
20
20.0758665098
0
VERTEX
8
___SYMBOL
62
2
6
CONTINUOUS
10
8.5734837088
20
19.5662637320
0
VERTEX
8
___SYMBOL
62
2
6
CONTINUOUS
10
8.3071978755
20
19.5662637320
0
VERTEX
8
___SYMBOL
62
2
6
CONTINUOUS
10
7.5313092644
20
19.5662637320
0
VERTEX
8
___SYMBOL
62
2
6
CONTINUOUS
10
6.7554206533
20
19.5662637320
0
VERTEX
8
___SYMBOL
62
2
6
CONTINUOUS
10
5.9795320422
20
19.5662637320
0
VERTEX
8
___SYMBOL
62
2
6
CONTINUOUS
10
5.2036434311
20
19.5662637320
0
VERTEX
8
___SYMBOL
62
2
6
CONTINUOUS
10
5.2036434311
20
20.0758665098
0
VERTEX
8
___SYMBOL
62
2
6
CONTINUOUS
10
5.4699292644
20
20.0758665098
0
VERTEX
8
___SYMBOL
62
2
6
CONTINUOUS
10
6.2458178755
20
20.0758665098
0
VERTEX
8
___SYMBOL
62
2
6
CONTINUOUS
10
7.0217064866
20
20.0758665098
0
VERTEX
8
___SYMBOL
62
2
6
CONTINUOUS
10
7.7975950977
20
20.0758665098
0
VERTEX
8
___SYMBOL
62
2
6
CONTINUOUS
10
8.5734837088
20
20.0758665098
0
SEQEND
0
POLYLINE
8
___SYMBOL
62
2
6
CONTINUOUS
66
1
70
0
0
VERTEX
8
___SYMBOL
62
2
6
CONTINUOUS
10
8.5667559311
20
20.0691526209
0
VERTEX
8
___SYMBOL
62
2
6
CONTINUOUS
10
8.5667559311
20
19.5729776209
0
VERTEX
8
___SYMBOL
62
2
6
CONTINUOUS
10
8.2924162088
20
19.5729776209
0
VERTEX
8
___SYMBOL
62
2
6
CONTINUOUS
10
7.5219014866
20
19.5729776209
0
VERTEX
8
___SYMBOL
62
2
6
CONTINUOUS
10
6.7513867644
20
19.5729776209
0
VERTEX
8
___SYMBOL
62
2
6
CONTINUOUS
10
5.9808720422
20
19.5729776209
0
VERTEX
8
___SYMBOL
62
2
6
CONTINUOUS
10
5.2103573200
20
19.5729776209
0
VERTEX
8
___SYMBOL
62
2
6
CONTINUOUS
10
5.2103573200
20
20.0691526209
0
VERTEX
8
___SYMBOL
62
2
6
CONTINUOUS
10
5.4846970422
20
20.0691526209
0
VERTEX
8
___SYMBOL
62
2
6
CONTINUOUS
10
6.2552117644
20
20.0691526209
0
VERTEX
8
___SYMBOL
62
2
6
CONTINUOUS
10
7.0257264866
20
20.0691526209
0
VERTEX
8
___SYMBOL
62
2
6
CONTINUOUS
10
7.7962412088
20
20.0691526209
0
VERTEX
8
___SYMBOL
62
2
6
CONTINUOUS
10
8.5667559311
20
20.0691526209
0
SEQEND
0
POLYLINE
8
___SYMBOL
62
2
6
CONTINUOUS
66
1
70
0
0
VERTEX
8
___SYMBOL
62
2
6
CONTINUOUS
10
5.1513170422
20
20.1281748431
0
VERTEX
8
___SYMBOL
62
2
6
CONTINUOUS
10
5.1513170422
20
19.5139637320
0
VERTEX
8
___SYMBOL
62
2
6
CONTINUOUS
10
5.3548414866
20
19.5139637320
0
VERTEX
8
___SYMBOL
62
2
6
CONTINUOUS
10
6.1725770422
20
19.5139637320
0
VERTEX
8
___SYMBOL
62
2
6
CONTINUOUS
10
6.9903125977
20
19.5139637320
0
VERTEX
8
___SYMBOL
62
2
6
CONTINUOUS
10
7.8080481533
20
19.5139637320
0
VERTEX
8
___SYMBOL
62
2
6
CONTINUOUS
10
8.6257837088
20
19.5139637320
0
VERTEX
8
___SYMBOL
62
2
6
CONTINUOUS
10
8.6257837088
20
20.1281748431
0
VERTEX
8
___SYMBOL
62
2
6
CONTINUOUS
10
8.4222592644
20
20.1281748431
0
VERTEX
8
___SYMBOL
62
2
6
CONTINUOUS
10
7.6045237088
20
20.1281748431
0
VERTEX
8
___SYMBOL
62
2
6
CONTINUOUS
10
6.7867881533
20
20.1281748431
0
VERTEX
8
___SYMBOL
62
2
6
CONTINUOUS
10
5.9690525977
20
20.1281748431
0
VERTEX
8
___SYMBOL
62
2
6
CONTINUOUS
10
5.1513170422
20
20.1281748431
0
SEQEND
0
LINE
8
___SYMBOL
62
2
6
CONTINUOUS
10
8.3973892644
20
19.9319192876
11
8.3952198200
21
19.9319192876
0
ARC
8
___SYMBOL
62
2
6
CONTINUOUS
10
8.2802662912
20
19.7390174665
40
0.2245560651
50
59.2085551990
51
93.5831215674
0
POLYLINE
8
___SYMBOL
62
2
6
CONTINUOUS
66
1
70
0
0
VERTEX
8
___SYMBOL
62
2
6
CONTINUOUS
10
8.2662323200
20
19.9631345654
0
VERTEX
8
___SYMBOL
62
2
6
CONTINUOUS
10
8.2563671275
20
19.9629984634
0
VERTEX
8
___SYMBOL
62
2
6
CONTINUOUS
10
8.2456472984
20
19.9625348267
0
VERTEX
8
___SYMBOL
62
2
6
CONTINUOUS
10
8.2351476591
20
19.9617493449
0
VERTEX
8
___SYMBOL
62
2
6
CONTINUOUS
10
8.2248867808
20
19.9606502107
0
VERTEX
8
___SYMBOL
62
2
6
CONTINUOUS
10
8.2148822677
20
19.9592465245
0
VERTEX
8
___SYMBOL
62
2
6
CONTINUOUS
10
8.2051505772
20
19.9575482204
0
VERTEX
8
___SYMBOL
62
2
6
CONTINUOUS
10
8.1957068590
20
19.9555659718
0
VERTEX
8
___SYMBOL
62
2
6
CONTINUOUS
10
8.1865648171
20
19.9533110805
0
VERTEX
8
___SYMBOL
62
2
6
CONTINUOUS
10
8.1777366003
20
19.9507953508
0
VERTEX
8
___SYMBOL
62
2
6
CONTINUOUS
10
8.1692327230
20
19.9480309524
0
VERTEX
8
___SYMBOL
62
2
6
CONTINUOUS
10
8.1610620203
20
19.9450302740
0
VERTEX
8
___SYMBOL
62
2
6
CONTINUOUS
10
8.1532316372
20
19.9418057741
0
VERTEX
8
___SYMBOL
62
2
6
CONTINUOUS
10
8.1457470524
20
19.9383698300
0
VERTEX
8
___SYMBOL
62
2
6
CONTINUOUS
10
8.1386121347
20
19.9347345898
0
VERTEX
8
___SYMBOL
62
2
6
CONTINUOUS
10
8.1318292304
20
19.9309118311
0
VERTEX
8
___SYMBOL
62
2
6
CONTINUOUS
10
8.1253992791
20
19.9269128286
0
VERTEX
8
___SYMBOL
62
2
6
CONTINUOUS
10
8.1193219520
20
19.9227482330
0
VERTEX
8
___SYMBOL
62
2
6
CONTINUOUS
10
8.1135958123
20
19.9184279644
0
VERTEX
8
___SYMBOL
62
2
6
CONTINUOUS
10
8.1082184899
20
19.9139611207
0
VERTEX
8
___SYMBOL
62
2
6
CONTINUOUS
10
8.1031868684
20
19.9093559030
0
VERTEX
8
___SYMBOL
62
2
6
CONTINUOUS
10
8.0984972800
20
19.9046195575
0
VERTEX
8
___SYMBOL
62
2
6
CONTINUOUS
10
8.0941457025
20
19.8997583370
0
VERTEX
8
___SYMBOL
62
2
6
CONTINUOUS
10
8.0901279573
20
19.8947774789
0
VERTEX
8
___SYMBOL
62
2
6
CONTINUOUS
10
8.0864399027
20
19.8896812018
0
VERTEX
8
___SYMBOL
62
2
6
CONTINUOUS
10
8.0830776190
20
19.8844727196
0
VERTEX
8
___SYMBOL
62
2
6
CONTINUOUS
10
8.0800375849
20
19.8791542723
0
VERTEX
8
___SYMBOL
62
2
6
CONTINUOUS
10
8.0773168384
20
19.8737271715
0
VERTEX
8
___SYMBOL
62
2
6
CONTINUOUS
10
8.0749131234
20
19.8681918615
0
VERTEX
8
___SYMBOL
62
2
6
CONTINUOUS
10
8.0728250177
20
19.8625479910
0
VERTEX
8
___SYMBOL
62
2
6
CONTINUOUS
10
8.0710520418
20
19.8567944964
0
VERTEX
8
___SYMBOL
62
2
6
CONTINUOUS
10
8.0695947464
20
19.8509296922
0
VERTEX
8
___SYMBOL
62
2
6
CONTINUOUS
10
8.0684547794
20
19.8449513674
0
VERTEX
8
___SYMBOL
62
2
6
CONTINUOUS
10
8.0676349314
20
19.8388568842
0
VERTEX
8
___SYMBOL
62
2
6
CONTINUOUS
10
8.0671391604
20
19.8326432779
0
VERTEX
8
___SYMBOL
62
2
6
CONTINUOUS
10
8.0670143608
20
19.8294907757
0
VERTEX
8
___SYMBOL
62
2
6
CONTINUOUS
10
8.0669725977
20
19.8263081765
0
VERTEX
8
___SYMBOL
62
2
6
CONTINUOUS
10
8.0671391333
20
19.8201779872
0
VERTEX
8
___SYMBOL
62
2
6
CONTINUOUS
10
8.0676370947
20
19.8141016664
0
VERTEX
8
___SYMBOL
62
2
6
CONTINUOUS
10
8.0684647729
20
19.8080788242
0
VERTEX
8
___SYMBOL
62
2
6
CONTINUOUS
10
8.0696214289
20
19.8021094993
0
VERTEX
8
___SYMBOL
62
2
6
CONTINUOUS
10
8.0711072231
20
19.7961942639
0
VERTEX
8
___SYMBOL
62
2
6
CONTINUOUS
10
8.0729231236
20
19.7903343249
0
VERTEX
8
___SYMBOL
62
2
6
CONTINUOUS
10
8.0750707925
20
19.7845316210
0
VERTEX
8
___SYMBOL
62
2
6
CONTINUOUS
10
8.0775524520
20
19.7787889097
0
VERTEX
8
___SYMBOL
62
2
6
CONTINUOUS
10
8.0803707316
20
19.7731098449
0
VERTEX
8
___SYMBOL
62
2
6
CONTINUOUS
10
8.0835284982
20
19.7674990403
0
VERTEX
8
___SYMBOL
62
2
6
CONTINUOUS
10
8.0870286723
20
19.7619621175
0
VERTEX
8
___SYMBOL
62
2
6
CONTINUOUS
10
8.0908740329
20
19.7565057367
0
VERTEX
8
___SYMBOL
62
2
6
CONTINUOUS
10
8.0950670158
20
19.7511376076
0
VERTEX
8
___SYMBOL
62
2
6
CONTINUOUS
10
8.0996095088
20
19.7458664794
0
VERTEX
8
___SYMBOL
62
2
6
CONTINUOUS
10
8.1045026489
20
19.7407021095
0
VERTEX
8
___SYMBOL
62
2
6
CONTINUOUS
10
8.1097466269
20
19.7356552092
0
VERTEX
8
___SYMBOL
62
2
6
CONTINUOUS
10
8.1153405044
20
19.7307373667
0
VERTEX
8
___SYMBOL
62
2
6
CONTINUOUS
10
8.1212820491
20
19.7259609485
0
VERTEX
8
___SYMBOL
62
2
6
CONTINUOUS
10
8.1275675941
20
19.7213389801
0
VERTEX
8
___SYMBOL
62
2
6
CONTINUOUS
10
8.1341919257
20
19.7168850083
0
VERTEX
8
___SYMBOL
62
2
6
CONTINUOUS
10
8.1411482052
20
19.7126129475
0
VERTEX
8
___SYMBOL
62
2
6
CONTINUOUS
10
8.1484279273
20
19.7085369150
0
VERTEX
8
___SYMBOL
62
2
6
CONTINUOUS
10
8.1560209181
20
19.7046710584
0
VERTEX
8
___SYMBOL
62
2
6
CONTINUOUS
10
8.1639153732
20
19.7010293807
0
VERTEX
8
___SYMBOL
62
2
6
CONTINUOUS
10
8.1720979354
20
19.6976255684
0
VERTEX
8
___SYMBOL
62
2
6
CONTINUOUS
10
8.1805538098
20
19.6944728279
0
VERTEX
8
___SYMBOL
62
2
6
CONTINUOUS
10
8.1892669112
20
19.6915837347
0
VERTEX
8
___SYMBOL
62
2
6
CONTINUOUS
10
8.1982200400
20
19.6889701004
0
VERTEX
8
___SYMBOL
62
2
6
CONTINUOUS
10
8.2073950784
20
19.6866428612
0
VERTEX
8
___SYMBOL
62
2
6
CONTINUOUS
10
8.2150615418
20
19.6849572013
0
VERTEX
8
___SYMBOL
62
2
6
CONTINUOUS
10
8.2245832391
20
19.6831771844
0
VERTEX
8
___SYMBOL
62
2
6
CONTINUOUS
10
8.2342649539
20
19.6817094700
0
VERTEX
8
___SYMBOL
62
2
6
CONTINUOUS
10
8.2440872178
20
19.6805602674
0
VERTEX
8
___SYMBOL
62
2
6
CONTINUOUS
10
8.2540308133
20
19.6797347565
0
VERTEX
8
___SYMBOL
62
2
6
CONTINUOUS
10
8.2640769333
20
19.6792371343
0
VERTEX
8
___SYMBOL
62
2
6
CONTINUOUS
10
8.2742073200
20
19.6790706765
0
VERTEX
8
___SYMBOL
62
2
6
CONTINUOUS
10
8.2864620466
20
19.6792107886
0
VERTEX
8
___SYMBOL
62
2
6
CONTINUOUS
10
8.2997934433
20
19.6796811038
0
VERTEX
8
___SYMBOL
62
2
6
CONTINUOUS
10
8.3130099854
20
19.6804772163
0
VERTEX
8
___SYMBOL
62
2
6
CONTINUOUS
10
8.3260320560
20
19.6815901009
0
VERTEX
8
___SYMBOL
62
2
6
CONTINUOUS
10
8.3387897931
20
19.6830079243
0
VERTEX
8
___SYMBOL
62
2
6
CONTINUOUS
10
8.3512234742
20
19.6847167133
0
VERTEX
8
___SYMBOL
62
2
6
CONTINUOUS
10
8.3632834203
20
19.6867009812
0
VERTEX
8
___SYMBOL
62
2
6
CONTINUOUS
10
8.3749295422
20
19.6889442876
0
SEQEND
0
POLYLINE
8
___SYMBOL
62
2
6
CONTINUOUS
66
1
70
0
0
VERTEX
8
___SYMBOL
62
2
6
CONTINUOUS
10
8.3749295422
20
19.6889442876
0
VERTEX
8
___SYMBOL
62
2
6
CONTINUOUS
10
8.3749295422
20
19.7638692876
0
VERTEX
8
___SYMBOL
62
2
6
CONTINUOUS
10
8.3749294667
20
19.7642743108
0
VERTEX
8
___SYMBOL
62
2
6
CONTINUOUS
10
8.3748987107
20
19.7696967101
0
VERTEX
8
___SYMBOL
62
2
6
CONTINUOUS
10
8.3747994406
20
19.7740122134
0
VERTEX
8
___SYMBOL
62
2
6
CONTINUOUS
10
8.3746258750
20
19.7777417744
0
VERTEX
8
___SYMBOL
62
2
6
CONTINUOUS
10
8.3743768826
20
19.7810802658
0
VERTEX
8
___SYMBOL
62
2
6
CONTINUOUS
10
8.3740526056
20
19.7841264507
0
VERTEX
8
___SYMBOL
62
2
6
CONTINUOUS
10
8.3736536429
20
19.7869392356
0
VERTEX
8
___SYMBOL
62
2
6
CONTINUOUS
10
8.3731807222
20
19.7895576097
0
VERTEX
8
___SYMBOL
62
2
6
CONTINUOUS
10
8.3726345220
20
19.7920093342
0
VERTEX
8
___SYMBOL
62
2
6
CONTINUOUS
10
8.3720155557
20
19.7943152707
0
VERTEX
8
___SYMBOL
62
2
6
CONTINUOUS
10
8.3713240859
20
19.7964917490
0
VERTEX
8
___SYMBOL
62
2
6
CONTINUOUS
10
8.3705600562
20
19.7985519536
0
VERTEX
8
___SYMBOL
62
2
6
CONTINUOUS
10
8.3697230356
20
19.8005067787
0
VERTEX
8
___SYMBOL
62
2
6
CONTINUOUS
10
8.3688121716
20
19.8023653736
0
VERTEX
8
___SYMBOL
62
2
6
CONTINUOUS
10
8.3678261527
20
19.8041355027
0
VERTEX
8
___SYMBOL
62
2
6
CONTINUOUS
10
8.3667631777
20
19.8058237857
0
VERTEX
8
___SYMBOL
62
2
6
CONTINUOUS
10
8.3656209330
20
19.8074358622
0
VERTEX
8
___SYMBOL
62
2
6
CONTINUOUS
10
8.3643965776
20
19.8089765040
0
VERTEX
8
___SYMBOL
62
2
6
CONTINUOUS
10
8.3630867342
20
19.8104496943
0
VERTEX
8
___SYMBOL
62
2
6
CONTINUOUS
10
8.3616874871
20
19.8118586846
0
VERTEX
8
___SYMBOL
62
2
6
CONTINUOUS
10
8.3601943856
20
19.8132060360
0
VERTEX
8
___SYMBOL
62
2
6
CONTINUOUS
10
8.3586024512
20
19.8144936522
0
VERTEX
8
___SYMBOL
62
2
6
CONTINUOUS
10
8.3569061899
20
19.8157228071
0
VERTEX
8
___SYMBOL
62
2
6
CONTINUOUS
10
8.3550996046
20
19.8168941684
0
VERTEX
8
___SYMBOL
62
2
6
CONTINUOUS
10
8.3541527507
20
19.8174583306
0
VERTEX
8
___SYMBOL
62
2
6
CONTINUOUS
10
8.3531762469
20
19.8180078014
0
VERTEX
8
___SYMBOL
62
2
6
CONTINUOUS
10
8.3511324269
20
19.8190616493
0
VERTEX
8
___SYMBOL
62
2
6
CONTINUOUS
10
8.3489610078
20
19.8200551307
0
VERTEX
8
___SYMBOL
62
2
6
CONTINUOUS
10
8.3466544052
20
19.8209871208
0
VERTEX
8
___SYMBOL
62
2
6
CONTINUOUS
10
8.3442046008
20
19.8218559772
0
VERTEX
8
___SYMBOL
62
2
6
CONTINUOUS
10
8.3416031533
20
19.8226595654
0
SEQEND
0
LINE
8
___SYMBOL
62
2
6
CONTINUOUS
10
8.3416031533
20
19.8226595654
11
8.3416031533
21
19.8242123431
0
LINE
8
___SYMBOL
62
2
6
CONTINUOUS
10
8.3416031533
20
19.8242123431
11
8.4524573200
21
19.8242123431
0
LINE
8
___SYMBOL
62
2
6
CONTINUOUS
10
8.4524573200
20
19.8242123431
11
8.4524573200
21
19.8226595654
0
LINE
8
___SYMBOL
62
2
6
CONTINUOUS
10
8.4524573200
20
19.8226595654
11
8.4488350977
21
19.8002859542
0
LINE
8
___SYMBOL
62
2
6
CONTINUOUS
10
8.4488350977
20
19.8002859542
11
8.4488350977
21
19.6806234542
0
LINE
8
___SYMBOL
62
2
6
CONTINUOUS
10
8.4488350977
20
19.6806234542
11
8.4524573200
21
19.6572067876
0
POLYLINE
8
___SYMBOL
62
2
6
CONTINUOUS
66
1
70
0
0
VERTEX
8
___SYMBOL
62
2
6
CONTINUOUS
10
8.4524573200
20
19.6572067876
0
VERTEX
8
___SYMBOL
62
2
6
CONTINUOUS
10
8.4389429602
20
19.6553909458
0
VERTEX
8
___SYMBOL
62
2
6
CONTINUOUS
10
8.4050580585
20
19.6509585471
0
VERTEX
8
___SYMBOL
62
2
6
CONTINUOUS
10
8.3785469183
20
19.6478044424
0
VERTEX
8
___SYMBOL
62
2
6
CONTINUOUS
10
8.3555473594
20
19.6454461338
0
VERTEX
8
___SYMBOL
62
2
6
CONTINUOUS
10
8.3346792174
20
19.6437122648
0
VERTEX
8
___SYMBOL
62
2
6
CONTINUOUS
10
8.3152584390
20
19.6425201307
0
VERTEX
8
___SYMBOL
62
2
6
CONTINUOUS
10
8.2968837131
20
19.6418237148
0
VERTEX
8
___SYMBOL
62
2
6
CONTINUOUS
10
8.2792934311
20
19.6415956765
0
VERTEX
8
___SYMBOL
62
2
6
CONTINUOUS
10
8.2705436670
20
19.6416502515
0
VERTEX
8
___SYMBOL
62
2
6
CONTINUOUS
10
8.2528635225
20
19.6421043066
0
VERTEX
8
___SYMBOL
62
2
6
CONTINUOUS
10
8.2357669006
20
19.6430054268
0
VERTEX
8
___SYMBOL
62
2
6
CONTINUOUS
10
8.2192605055
20
19.6443375718
0
VERTEX
8
___SYMBOL
62
2
6
CONTINUOUS
10
8.2033498013
20
19.6460842371
0
VERTEX
8
___SYMBOL
62
2
6
CONTINUOUS
10
8.1880389430
20
19.6482285309
0
VERTEX
8
___SYMBOL
62
2
6
CONTINUOUS
10
8.1733307210
20
19.6507532620
0
VERTEX
8
___SYMBOL
62
2
6
CONTINUOUS
10
8.1592265209
20
19.6536410373
0
VERTEX
8
___SYMBOL
62
2
6
CONTINUOUS
10
8.1457263010
20
19.6568743703
0
VERTEX
8
___SYMBOL
62
2
6
CONTINUOUS
10
8.1328285897
20
19.6604357969
0
VERTEX
8
___SYMBOL
62
2
6
CONTINUOUS
10
8.1205305035
20
19.6643079990
0
VERTEX
8
___SYMBOL
62
2
6
CONTINUOUS
10
8.1088277864
20
19.6684739326
0
VERTEX
8
___SYMBOL
62
2
6
CONTINUOUS
10
8.0977148735
20
19.6729169595
0
VERTEX
8
___SYMBOL
62
2
6
CONTINUOUS
10
8.0871849761
20
19.6776209806
0
VERTEX
8
___SYMBOL
62
2
6
CONTINUOUS
10
8.0772301900
20
19.6825705670
0
VERTEX
8
___SYMBOL
62
2
6
CONTINUOUS
10
8.0678416267
20
19.6877510889
0
VERTEX
8
___SYMBOL
62
2
6
CONTINUOUS
10
8.0590095644
20
19.6931488366
0
VERTEX
8
___SYMBOL
62
2
6
CONTINUOUS
10
8.0507236194
20
19.6987511345
0
VERTEX
8
___SYMBOL
62
2
6
CONTINUOUS
10
8.0429729342
20
19.7045464426
0
VERTEX
8
___SYMBOL
62
2
6
CONTINUOUS
10
8.0357463809
20
19.7105244442
0
VERTEX
8
___SYMBOL
62
2
6
CONTINUOUS
10
8.0290327766
20
19.7166761171
0
VERTEX
8
___SYMBOL
62
2
6
CONTINUOUS
10
8.0228211074
20
19.7229937859
0
VERTEX
8
___SYMBOL
62
2
6
CONTINUOUS
10
8.0171007571
20
19.7294711528
0
VERTEX
8
___SYMBOL
62
2
6
CONTINUOUS
10
8.0118617367
20
19.7361033057
0
VERTEX
8
___SYMBOL
62
2
6
CONTINUOUS
10
8.0070949093
20
19.7428867010
0
VERTEX
8
___SYMBOL
62
2
6
CONTINUOUS
10
8.0027922067
20
19.7498191223
0
VERTEX
8
___SYMBOL
62
2
6
CONTINUOUS
10
7.9989468312
20
19.7568996129
0
VERTEX
8
___SYMBOL
62
2
6
CONTINUOUS
10
7.9955534390
20
19.7641283840
0
VERTEX
8
___SYMBOL
62
2
6
CONTINUOUS
10
7.9926082990
20
19.7715067006
0
VERTEX
8
___SYMBOL
62
2
6
CONTINUOUS
10
7.9901094239
20
19.7790367467
0
VERTEX
8
___SYMBOL
62
2
6
CONTINUOUS
10
7.9880566702
20
19.7867214748
0
VERTEX
8
___SYMBOL
62
2
6
CONTINUOUS
10
7.9864527179
20
19.7945591927
0
VERTEX
8
___SYMBOL
62
2
6
CONTINUOUS
10
7.9853007120
20
19.8025505882
0
VERTEX
8
___SYMBOL
62
2
6
CONTINUOUS
10
7.9846048390
20
19.8106997435
0
VERTEX
8
___SYMBOL
62
2
6
CONTINUOUS
10
7.9843712088
20
19.8190109542
0
VERTEX
8
___SYMBOL
62
2
6
CONTINUOUS
10
7.9846052675
20
19.8273724617
0
VERTEX
8
___SYMBOL
62
2
6
CONTINUOUS
10
7.9853023782
20
19.8355673946
0
VERTEX
8
___SYMBOL
62
2
6
CONTINUOUS
10
7.9864556322
20
19.8435972435
0
VERTEX
8
___SYMBOL
62
2
6
CONTINUOUS
10
7.9880593416
20
19.8514645787
0
VERTEX
8
___SYMBOL
62
2
6
CONTINUOUS
10
7.9901101936
20
19.8591755406
0
VERTEX
8
___SYMBOL
62
2
6
CONTINUOUS
10
7.9926069965
20
19.8667356099
0
VERTEX
8
___SYMBOL
62
2
6
CONTINUOUS
10
7.9955506173
20
19.8741494414
0
VERTEX
8
___SYMBOL
62
2
6
CONTINUOUS
10
7.9989438831
20
19.8814207045
0
VERTEX
8
___SYMBOL
62
2
6
CONTINUOUS
10
8.0027914461
20
19.8885519349
0
VERTEX
8
___SYMBOL
62
2
6
CONTINUOUS
10
8.0070996139
20
19.8955444022
0
VERTEX
8
___SYMBOL
62
2
6
CONTINUOUS
10
8.0118761485
20
19.9023979953
0
VERTEX
8
___SYMBOL
62
2
6
CONTINUOUS
10
8.0171300373
20
19.9091111308
0
VERTEX
8
___SYMBOL
62
2
6
CONTINUOUS
10
8.0228712390
20
19.9156806842
0
VERTEX
8
___SYMBOL
62
2
6
CONTINUOUS
10
8.0291104106
20
19.9221019465
0
VERTEX
8
___SYMBOL
62
2
6
CONTINUOUS
10
8.0358586189
20
19.9283686063
0
VERTEX
8
___SYMBOL
62
2
6
CONTINUOUS
10
8.0431270404
20
19.9344727575
0
VERTEX
8
___SYMBOL
62
2
6
CONTINUOUS
10
8.0509266564
20
19.9404049319
0
VERTEX
8
___SYMBOL
62
2
6
CONTINUOUS
10
8.0592679449
20
19.9461541570
0
VERTEX
8
___SYMBOL
62
2
6
CONTINUOUS
10
8.0681605772
20
19.9517080359
0
VERTEX
8
___SYMBOL
62
2
6
CONTINUOUS
10
8.0776131206
20
19.9570528511
0
VERTEX
8
___SYMBOL
62
2
6
CONTINUOUS
10
8.0876327553
20
19.9621736875
0
VERTEX
8
___SYMBOL
62
2
6
CONTINUOUS
10
8.0982250077
20
19.9670545756
0
VERTEX
8
___SYMBOL
62
2
6
CONTINUOUS
10
8.1093935075
20
19.9716786515
0
VERTEX
8
___SYMBOL
62
2
6
CONTINUOUS
10
8.1211397717
20
19.9760283318
0
VERTEX
8
___SYMBOL
62
2
6
CONTINUOUS
10
8.1334630221
20
19.9800855002
0
VERTEX
8
___SYMBOL
62
2
6
CONTINUOUS
10
8.1463600394
20
19.9838317038
0
VERTEX
8
___SYMBOL
62
2
6
CONTINUOUS
10
8.1598250582
20
19.9872483549
0
VERTEX
8
___SYMBOL
62
2
6
CONTINUOUS
10
8.1738497067
20
19.9903169333
0
VERTEX
8
___SYMBOL
62
2
6
CONTINUOUS
10
8.1884229921
20
19.9930191883
0
VERTEX
8
___SYMBOL
62
2
6
CONTINUOUS
10
8.2035313316
20
19.9953373318
0
VERTEX
8
___SYMBOL
62
2
6
CONTINUOUS
10
8.2191586307
20
19.9972542228
0
VERTEX
8
___SYMBOL
62
2
6
CONTINUOUS
10
8.2352864044
20
19.9987535358
0
VERTEX
8
___SYMBOL
62
2
6
CONTINUOUS
10
8.2518939379
20
19.9998199118
0
VERTEX
8
___SYMBOL
62
2
6
CONTINUOUS
10
8.2689584833
20
20.0004390884
0
VERTEX
8
___SYMBOL
62
2
6
CONTINUOUS
10
8.2836337088
20
20.0006040098
0
VERTEX
8
___SYMBOL
62
2
6
CONTINUOUS
10
8.3018538848
20
20.0003701582
0
VERTEX
8
___SYMBOL
62
2
6
CONTINUOUS
10
8.3201868851
20
19.9996666504
0
VERTEX
8
___SYMBOL
62
2
6
CONTINUOUS
10
8.3386819676
20
19.9984884650
0
VERTEX
8
___SYMBOL
62
2
6
CONTINUOUS
10
8.3573929085
20
19.9968275509
0
VERTEX
8
___SYMBOL
62
2
6
CONTINUOUS
10
8.3763791661
20
19.9946724475
0
VERTEX
8
___SYMBOL
62
2
6
CONTINUOUS
10
8.3957073843
20
19.9920077760
0
VERTEX
8
___SYMBOL
62
2
6
CONTINUOUS
10
8.3973892644
20
19.9917540098
0
SEQEND
0
LINE
8
___SYMBOL
62
2
6
CONTINUOUS
10
8.3973892644
20
19.9917540098
11
8.3973892644
21
19.9319192876
0
LINE
8
___SYMBOL
62
2
6
CONTINUOUS
10
7.6068420422
20
19.6514970654
11
7.6068420422
21
19.6499234542
0
LINE
8
___SYMBOL
62
2
6
CONTINUOUS
10
7.6068420422
20
19.6499234542
11
7.4785934311
21
19.6499234542
0
LINE
8
___SYMBOL
62
2
6
CONTINUOUS
10
7.4785934311
20
19.6499234542
11
7.4785934311
21
19.6514970654
0
POLYLINE
8
___SYMBOL
62
2
6
CONTINUOUS
66
1
70
0
0
VERTEX
8
___SYMBOL
62
2
6
CONTINUOUS
10
7.4785934311
20
19.6514970654
0
VERTEX
8
___SYMBOL
62
2
6
CONTINUOUS
10
7.4844523376
20
19.6541331933
0
VERTEX
8
___SYMBOL
62
2
6
CONTINUOUS
10
7.4895705419
20
19.6567912618
0
VERTEX
8
___SYMBOL
62
2
6
CONTINUOUS
10
7.4940398773
20
19.6594801429
0
VERTEX
8
___SYMBOL
62
2
6
CONTINUOUS
10
7.4979406527
20
19.6622114840
0
VERTEX
8
___SYMBOL
62
2
6
CONTINUOUS
10
7.5013427031
20
19.6650005019
0
VERTEX
8
___SYMBOL
62
2
6
CONTINUOUS
10
7.5043061791
20
19.6678669733
0
VERTEX
8
___SYMBOL
62
2
6
CONTINUOUS
10
7.5068699028
20
19.6708210697
0
VERTEX
8
___SYMBOL
62
2
6
CONTINUOUS
10
7.5090732315
20
19.6738814267
0
VERTEX
8
___SYMBOL
62
2
6
CONTINUOUS
10
7.5109557209
20
19.6770818915
0
VERTEX
8
___SYMBOL
62
2
6
CONTINUOUS
10
7.5125487926
20
19.6804658498
0
VERTEX
8
___SYMBOL
62
2
6
CONTINUOUS
10
7.5138763849
20
19.6840899069
0
VERTEX
8
___SYMBOL
62
2
6
CONTINUOUS
10
7.5149557602
20
19.6880304786
0
VERTEX
8
___SYMBOL
62
2
6
CONTINUOUS
10
7.5157985441
20
19.6923966920
0
VERTEX
8
___SYMBOL
62
2
6
CONTINUOUS
10
7.5164121515
20
19.6973585979
0
VERTEX
8
___SYMBOL
62
2
6
CONTINUOUS
10
7.5168021698
20
19.7032200679
0
VERTEX
8
___SYMBOL
62
2
6
CONTINUOUS
10
7.5169787830
20
19.7106700589
0
VERTEX
8
___SYMBOL
62
2
6
CONTINUOUS
10
7.5169989866
20
19.7175637320
0
VERTEX
8
___SYMBOL
62
2
6
CONTINUOUS
10
7.5169989866
20
19.9251706765
0
VERTEX
8
___SYMBOL
62
2
6
CONTINUOUS
10
7.5169833580
20
19.9315501401
0
VERTEX
8
___SYMBOL
62
2
6
CONTINUOUS
10
7.5168194097
20
19.9391849565
0
VERTEX
8
___SYMBOL
62
2
6
CONTINUOUS
10
7.5164436355
20
19.9451426655
0
VERTEX
8
___SYMBOL
62
2
6
CONTINUOUS
10
7.5158453741
20
19.9501626854
0
VERTEX
8
___SYMBOL
62
2
6
CONTINUOUS
10
7.5150194390
20
19.9545643618
0
VERTEX
8
___SYMBOL
62
2
6
CONTINUOUS
10
7.5139591029
20
19.9585244144
0
VERTEX
8
___SYMBOL
62
2
6
CONTINUOUS
10
7.5126536007
20
19.9621554298
0
VERTEX
8
___SYMBOL
62
2
6
CONTINUOUS
10
7.5110866598
20
19.9655358304
0
VERTEX
8
___SYMBOL
62
2
6
CONTINUOUS
10
7.5092354331
20
19.9687234579
0
VERTEX
8
___SYMBOL
62
2
6
CONTINUOUS
10
7.5070696724
20
19.9717624613
0
VERTEX
8
___SYMBOL
62
2
6
CONTINUOUS
10
7.5045510670
20
19.9746871126
0
VERTEX
8
___SYMBOL
62
2
6
CONTINUOUS
10
7.5016389537
20
19.9775185052
0
VERTEX
8
___SYMBOL
62
2
6
CONTINUOUS
10
7.4982978365
20
19.9802642326
0
VERTEX
8
___SYMBOL
62
2
6
CONTINUOUS
10
7.4944689613
20
19.9829439176
0
VERTEX
8
___SYMBOL
62
2
6
CONTINUOUS
10
7.4900839983
20
19.9855723673
0
VERTEX
8
___SYMBOL
62
2
6
CONTINUOUS
10
7.4850642863
20
19.9881605732
0
VERTEX
8
___SYMBOL
62
2
6
CONTINUOUS
10
7.4793198200
20
19.9907165098
0
SEQEND
0
LINE
8
___SYMBOL
62
2
6
CONTINUOUS
10
7.4793198200
20
19.9907165098
11
7.4793198200
21
19.9922831765
0
LINE
8
___SYMBOL
62
2
6
CONTINUOUS
10
7.4793198200
20
19.9922831765
11
7.5851073200
21
19.9922831765
0
LINE
8
___SYMBOL
62
2
6
CONTINUOUS
10
7.5851073200
20
19.9922831765
11
7.5851073200
21
19.9917540098
0
LINE
8
___SYMBOL
62
2
6
CONTINUOUS
10
7.5851073200
20
19.9917540098
11
7.5959920422
21
19.9787470654
0
LINE
8
___SYMBOL
62
2
6
CONTINUOUS
10
7.5959920422
20
19.9787470654
11
7.6061239866
21
19.9683428987
0
LINE
8
___SYMBOL
62
2
6
CONTINUOUS
10
7.6061239866
20
19.9683428987
11
7.8713350977
21
19.7279665098
0
POLYLINE
8
___SYMBOL
62
2
6
CONTINUOUS
66
1
70
0
0
VERTEX
8
___SYMBOL
62
2
6
CONTINUOUS
10
7.8713350977
20
19.7279665098
0
VERTEX
8
___SYMBOL
62
2
6
CONTINUOUS
10
7.8713350977
20
19.8054502598
0
VERTEX
8
___SYMBOL
62
2
6
CONTINUOUS
10
7.8713350977
20
19.9251706765
0
VERTEX
8
___SYMBOL
62
2
6
CONTINUOUS
10
7.8713358379
20
19.9273825190
0
VERTEX
8
___SYMBOL
62
2
6
CONTINUOUS
10
7.8712992758
20
19.9351659167
0
VERTEX
8
___SYMBOL
62
2
6
CONTINUOUS
10
7.8711439673
20
19.9407974196
0
VERTEX
8
___SYMBOL
62
2
6
CONTINUOUS
10
7.8708545117
20
19.9454217499
0
VERTEX
8
___SYMBOL
62
2
6
CONTINUOUS
10
7.8704275113
20
19.9494246953
0
VERTEX
8
___SYMBOL
62
2
6
CONTINUOUS
10
7.8698611930
20
19.9529947210
0
VERTEX
8
___SYMBOL
62
2
6
CONTINUOUS
10
7.8691533227
20
19.9562425614
0
VERTEX
8
___SYMBOL
62
2
6
CONTINUOUS
10
7.8683003662
20
19.9592410810
0
VERTEX
8
___SYMBOL
62
2
6
CONTINUOUS
10
7.8672969854
20
19.9620420389
0
VERTEX
8
___SYMBOL
62
2
6
CONTINUOUS
10
7.8661356680
20
19.9646842365
0
VERTEX
8
___SYMBOL
62
2
6
CONTINUOUS
10
7.8648064313
20
19.9671978847
0
VERTEX
8
___SYMBOL
62
2
6
CONTINUOUS
10
7.8632965791
20
19.9696071181
0
VERTEX
8
___SYMBOL
62
2
6
CONTINUOUS
10
7.8615905007
20
19.9719315278
0
VERTEX
8
___SYMBOL
62
2
6
CONTINUOUS
10
7.8596695001
20
19.9741871482
0
VERTEX
8
___SYMBOL
62
2
6
CONTINUOUS
10
7.8586210521
20
19.9752940105
0
VERTEX
8
___SYMBOL
62
2
6
CONTINUOUS
10
7.8575116419
20
19.9763871299
0
VERTEX
8
___SYMBOL
62
2
6
CONTINUOUS
10
7.8551030746
20
19.9785326517
0
VERTEX
8
___SYMBOL
62
2
6
CONTINUOUS
10
7.8524175406
20
19.9806339656
0
VERTEX
8
___SYMBOL
62
2
6
CONTINUOUS
10
7.8494251696
20
19.9826994281
0
VERTEX
8
___SYMBOL
62
2
6
CONTINUOUS
10
7.8460924151
20
19.9847357110
0
VERTEX
8
___SYMBOL
62
2
6
CONTINUOUS
10
7.8423818223
20
19.9867480814
0
VERTEX
8
___SYMBOL
62
2
6
CONTINUOUS
10
7.8382517340
20
19.9887406376
0
VERTEX
8
___SYMBOL
62
2
6
CONTINUOUS
10
7.8336559311
20
19.9907165098
0
SEQEND
0
LINE
8
___SYMBOL
62
2
6
CONTINUOUS
10
7.8336559311
20
19.9907165098
11
7.8336559311
21
19.9922831765
0
LINE
8
___SYMBOL
62
2
6
CONTINUOUS
10
7.8336559311
20
19.9922831765
11
7.9611920422
21
19.9922831765
0
LINE
8
___SYMBOL
62
2
6
CONTINUOUS
10
7.9611920422
20
19.9922831765
11
7.9611920422
21
19.9907165098
0
POLYLINE
8
___SYMBOL
62
2
6
CONTINUOUS
66
1
70
0
0
VERTEX
8
___SYMBOL
62
2
6
CONTINUOUS
10
7.9611920422
20
19.9907165098
0
VERTEX
8
___SYMBOL
62
2
6
CONTINUOUS
10
7.9553347037
20
19.9881074479
0
VERTEX
8
___SYMBOL
62
2
6
CONTINUOUS
10
7.9502304785
20
19.9854645290
0
VERTEX
8
___SYMBOL
62
2
6
CONTINUOUS
10
7.9457840507
20
19.9827791595
0
VERTEX
8
___SYMBOL
62
2
6
CONTINUOUS
10
7.9419123656
20
19.9800394311
0
VERTEX
8
___SYMBOL
62
2
6
CONTINUOUS
10
7.9385435256
20
19.9772292236
0
VERTEX
8
___SYMBOL
62
2
6
CONTINUOUS
10
7.9370269999
20
19.9757901881
0
VERTEX
8
___SYMBOL
62
2
6
CONTINUOUS
10
7.9356159731
20
19.9743270720
0
VERTEX
8
___SYMBOL
62
2
6
CONTINUOUS
10
7.9330952102
20
19.9713273622
0
VERTEX
8
___SYMBOL
62
2
6
CONTINUOUS
10
7.9309361777
20
19.9682041467
0
VERTEX
8
___SYMBOL
62
2
6
CONTINUOUS
10
7.9290993990
20
19.9649196047
0
VERTEX
8
___SYMBOL
62
2
6
CONTINUOUS
10
7.9275540514
20
19.9614246811
0
VERTEX
8
___SYMBOL
62
2
6
CONTINUOUS
10
7.9262772005
20
19.9576544469
0
VERTEX
8
___SYMBOL
62
2
6
CONTINUOUS
10
7.9252528346
20
19.9535194844
0
VERTEX
8
___SYMBOL
62
2
6
CONTINUOUS
10
7.9244705973
20
19.9488883061
0
VERTEX
8
___SYMBOL
62
2
6
CONTINUOUS
10
7.9239239694
20
19.9435466238
0
VERTEX
8
___SYMBOL
62
2
6
CONTINUOUS
10
7.9236068139
20
19.9370818728
0
VERTEX
8
___SYMBOL
62
2
6
CONTINUOUS
10
7.9235009628
20
19.9284064451
0
VERTEX
8
___SYMBOL
62
2
6
CONTINUOUS
10
7.9234989866
20
19.9251706765
0
VERTEX
8
___SYMBOL
62
2
6
CONTINUOUS
10
7.9234989866
20
19.8916584542
0
VERTEX
8
___SYMBOL
62
2
6
CONTINUOUS
10
7.9234989866
20
19.7624694265
0
VERTEX
8
___SYMBOL
62
2
6
CONTINUOUS
10
7.9234989866
20
19.6332803987
0
SEQEND
0
ARC
8
___SYMBOL
62
2
6
CONTINUOUS
10
7.9658160348
20
19.8327814484
40
0.2039397004
50
223.4269507726
51
258.0242403069
0
LINE
8
___SYMBOL
62
2
6
CONTINUOUS
10
7.8177045422
20
19.6925873431
11
7.5691767644
21
19.9189123431
0
POLYLINE
8
___SYMBOL
62
2
6
CONTINUOUS
66
1
70
0
0
VERTEX
8
___SYMBOL
62
2
6
CONTINUOUS
10
7.5691767644
20
19.9189123431
0
VERTEX
8
___SYMBOL
62
2
6
CONTINUOUS
10
7.5691767644
20
19.8376985931
0
VERTEX
8
___SYMBOL
62
2
6
CONTINUOUS
10
7.5691767644
20
19.7175637320
0
VERTEX
8
___SYMBOL
62
2
6
CONTINUOUS
10
7.5691955676
20
19.7089944057
0
VERTEX
8
___SYMBOL
62
2
6
CONTINUOUS
10
7.5693241783
20
19.7030013861
0
VERTEX
8
___SYMBOL
62
2
6
CONTINUOUS
10
7.5695877991
20
19.6981668991
0
VERTEX
8
___SYMBOL
62
2
6
CONTINUOUS
10
7.5699911093
20
19.6940169237
0
VERTEX
8
___SYMBOL
62
2
6
CONTINUOUS
10
7.5705361937
20
19.6903331515
0
VERTEX
8
___SYMBOL
62
2
6
CONTINUOUS
10
7.5712253584
20
19.6869914578
0
VERTEX
8
___SYMBOL
62
2
6
CONTINUOUS
10
7.5720621385
20
19.6839118629
0
VERTEX
8
___SYMBOL
62
2
6
CONTINUOUS
10
7.5730518608
20
19.6810383558
0
VERTEX
8
___SYMBOL
62
2
6
CONTINUOUS
10
7.5742020456
20
19.6783293537
0
VERTEX
8
___SYMBOL
62
2
6
CONTINUOUS
10
7.5755227237
20
19.6757526840
0
VERTEX
8
___SYMBOL
62
2
6
CONTINUOUS
10
7.5770266955
20
19.6732827357
0
VERTEX
8
___SYMBOL
62
2
6
CONTINUOUS
10
7.5787297455
20
19.6708987410
0
VERTEX
8
___SYMBOL
62
2
6
CONTINUOUS
10
7.5806508244
20
19.6685836797
0
VERTEX
8
___SYMBOL
62
2
6
CONTINUOUS
10
7.5817004742
20
19.6674469728
0
VERTEX
8
___SYMBOL
62
2
6
CONTINUOUS
10
7.5828122131
20
19.6663235387
0
VERTEX
8
___SYMBOL
62
2
6
CONTINUOUS
10
7.5852290690
20
19.6641158640
0
VERTEX
8
___SYMBOL
62
2
6
CONTINUOUS
10
7.5879272216
20
19.6619506442
0
VERTEX
8
___SYMBOL
62
2
6
CONTINUOUS
10
7.5909371375
20
19.6598187861
0
VERTEX
8
___SYMBOL
62
2
6
CONTINUOUS
10
7.5942930763
20
19.6577129090
0
VERTEX
8
___SYMBOL
62
2
6
CONTINUOUS
10
7.5980333323
20
19.6556270446
0
VERTEX
8
___SYMBOL
62
2
6
CONTINUOUS
10
7.6022005386
20
19.6535563846
0
VERTEX
8
___SYMBOL
62
2
6
CONTINUOUS
10
7.6068420422
20
19.6514970654
0
SEQEND
0
LINE
8
___SYMBOL
62
2
6
CONTINUOUS
10
7.2641100977
20
19.9907165098
11
7.2641100977
21
19.9922831765
0
LINE
8
___SYMBOL
62
2
6
CONTINUOUS
10
7.2641100977
20
19.9922831765
11
7.4017975977
21
19.9922831765
0
LINE
8
___SYMBOL
62
2
6
CONTINUOUS
10
7.4017975977
20
19.9922831765
11
7.4017975977
21
19.9907165098
0
POLYLINE
8
___SYMBOL
62
2
6
CONTINUOUS
66
1
70
0
0
VERTEX
8
___SYMBOL
62
2
6
CONTINUOUS
10
7.4017975977
20
19.9907165098
0
VERTEX
8
___SYMBOL
62
2
6
CONTINUOUS
10
7.3977620225
20
19.9894389525
0
VERTEX
8
___SYMBOL
62
2
6
CONTINUOUS
10
7.3958766319
20
19.9887080400
0
VERTEX
8
___SYMBOL
62
2
6
CONTINUOUS
10
7.3940768935
20
19.9879182595
0
VERTEX
8
___SYMBOL
62
2
6
CONTINUOUS
10
7.3907248985
20
19.9861688108
0
VERTEX
8
___SYMBOL
62
2
6
CONTINUOUS
10
7.3876770502
20
19.9841957544
0
VERTEX
8
___SYMBOL
62
2
6
CONTINUOUS
10
7.3849080282
20
19.9819989026
0
VERTEX
8
___SYMBOL
62
2
6
CONTINUOUS
10
7.3823965287
20
19.9795726295
0
VERTEX
8
___SYMBOL
62
2
6
CONTINUOUS
10
7.3801255503
20
19.9769058475
0
VERTEX
8
___SYMBOL
62
2
6
CONTINUOUS
10
7.3780825674
20
19.9739820147
0
VERTEX
8
___SYMBOL
62
2
6
CONTINUOUS
10
7.3762595469
20
19.9707790753
0
VERTEX
8
___SYMBOL
62
2
6
CONTINUOUS
10
7.3746527854
20
19.9672691625
0
VERTEX
8
___SYMBOL
62
2
6
CONTINUOUS
10
7.3732625546
20
19.9634177789
0
VERTEX
8
___SYMBOL
62
2
6
CONTINUOUS
10
7.3720925520
20
19.9591819165
0
VERTEX
8
___SYMBOL
62
2
6
CONTINUOUS
10
7.3711491389
20
19.9545059907
0
VERTEX
8
___SYMBOL
62
2
6
CONTINUOUS
10
7.3704402967
20
19.9493128156
0
VERTEX
8
___SYMBOL
62
2
6
CONTINUOUS
10
7.3699740774
20
19.9434815552
0
VERTEX
8
___SYMBOL
62
2
6
CONTINUOUS
10
7.3697557287
20
19.9367828094
0
VERTEX
8
___SYMBOL
62
2
6
CONTINUOUS
10
7.3697785975
20
19.9286047593
0
VERTEX
8
___SYMBOL
62
2
6
CONTINUOUS
10
7.3697933292
20
19.9275934973
0
VERTEX
8
___SYMBOL
62
2
6
CONTINUOUS
10
7.3698975977
20
19.9189123431
0
VERTEX
8
___SYMBOL
62
2
6
CONTINUOUS
10
7.3698975977
20
19.7227720654
0
VERTEX
8
___SYMBOL
62
2
6
CONTINUOUS
10
7.3697933292
20
19.7141139825
0
VERTEX
8
___SYMBOL
62
2
6
CONTINUOUS
10
7.3697839471
20
19.7134831895
0
VERTEX
8
___SYMBOL
62
2
6
CONTINUOUS
10
7.3697521475
20
19.7052662646
0
VERTEX
8
___SYMBOL
62
2
6
CONTINUOUS
10
7.3699604379
20
19.6985769951
0
VERTEX
8
___SYMBOL
62
2
6
CONTINUOUS
10
7.3704164302
20
19.6927673775
0
VERTEX
8
___SYMBOL
62
2
6
CONTINUOUS
10
7.3711152020
20
19.6875990409
0
VERTEX
8
___SYMBOL
62
2
6
CONTINUOUS
10
7.3720489549
20
19.6829477197
0
VERTEX
8
___SYMBOL
62
2
6
CONTINUOUS
10
7.3732099635
20
19.6787346373
0
VERTEX
8
___SYMBOL
62
2
6
CONTINUOUS
10
7.3745921483
20
19.6749034094
0
VERTEX
8
___SYMBOL
62
2
6
CONTINUOUS
10
7.3761921301
20
19.6714106321
0
VERTEX
8
___SYMBOL
62
2
6
CONTINUOUS
10
7.3780099988
20
19.6682216434
0
VERTEX
8
___SYMBOL
62
2
6
CONTINUOUS
10
7.3800498643
20
19.6653085598
0
VERTEX
8
___SYMBOL
62
2
6
CONTINUOUS
10
7.3823202096
20
19.6626494082
0
VERTEX
8
___SYMBOL
62
2
6
CONTINUOUS
10
7.3848340499
20
19.6602277994
0
VERTEX
8
___SYMBOL
62
2
6
CONTINUOUS
10
7.3876089092
20
19.6580328453
0
VERTEX
8
___SYMBOL
62
2
6
CONTINUOUS
10
7.3906666429
20
19.6560591473
0
VERTEX
8
___SYMBOL
62
2
6
CONTINUOUS
10
7.3940331482
20
19.6543067554
0
VERTEX
8
___SYMBOL
62
2
6
CONTINUOUS
10
7.3958422387
20
19.6535146419
0
VERTEX
8
___SYMBOL
62
2
6
CONTINUOUS
10
7.3977380145
20
19.6527810512
0
VERTEX
8
___SYMBOL
62
2
6
CONTINUOUS
10
7.4017975977
20
19.6514970654
0
SEQEND
0
LINE
8
___SYMBOL
62
2
6
CONTINUOUS
10
7.4017975977
20
19.6514970654
11
7.4017975977
21
19.6499234542
0
LINE
8
___SYMBOL
62
2
6
CONTINUOUS
10
7.4017975977
20
19.6499234542
11
7.2641100977
21
19.6499234542
0
LINE
8
___SYMBOL
62
2
6
CONTINUOUS
10
7.2641100977
20
19.6499234542
11
7.2641100977
21
19.6514970654
0
POLYLINE
8
___SYMBOL
62
2
6
CONTINUOUS
66
1
70
0
0
VERTEX
8
___SYMBOL
62
2
6
CONTINUOUS
10
7.2641100977
20
19.6514970654
0
VERTEX
8
___SYMBOL
62
2
6
CONTINUOUS
10
7.2681421946
20
19.6527137803
0
VERTEX
8
___SYMBOL
62
2
6
CONTINUOUS
10
7.2700260013
20
19.6534158000
0
VERTEX
8
___SYMBOL
62
2
6
CONTINUOUS
10
7.2718242879
20
19.6541776925
0
VERTEX
8
___SYMBOL
62
2
6
CONTINUOUS
10
7.2751721429
20
19.6558733688
0
VERTEX
8
___SYMBOL
62
2
6
CONTINUOUS
10
7.2782152006
20
19.6577950008
0
VERTEX
8
___SYMBOL
62
2
6
CONTINUOUS
10
7.2809793031
20
19.6599422945
0
VERTEX
8
___SYMBOL
62
2
6
CONTINUOUS
10
7.2834862204
20
19.6623205425
0
VERTEX
8
___SYMBOL
62
2
6
CONTINUOUS
10
7.2857533472
20
19.6649406465
0
VERTEX
8
___SYMBOL
62
2
6
CONTINUOUS
10
7.2877935156
20
19.6678190999
0
VERTEX
8
___SYMBOL
62
2
6
CONTINUOUS
10
7.2896149671
20
19.6709780281
0
VERTEX
8
___SYMBOL
62
2
6
CONTINUOUS
10
7.2912215122
20
19.6744454560
0
VERTEX
8
___SYMBOL
62
2
6
CONTINUOUS
10
7.2926128867
20
19.6782560903
0
VERTEX
8
___SYMBOL
62
2
6
CONTINUOUS
10
7.2937853076
20
19.6824531428
0
VERTEX
8
___SYMBOL
62
2
6
CONTINUOUS
10
7.2947322436
20
19.6870923051
0
VERTEX
8
___SYMBOL
62
2
6
CONTINUOUS
10
7.2954454663
20
19.6922505795
0
VERTEX
8
___SYMBOL
62
2
6
CONTINUOUS
10
7.2959165972
20
19.6980478152
0
VERTEX
8
___SYMBOL
62
2
6
CONTINUOUS
10
7.2961399404
20
19.7047097747
0
VERTEX
8
___SYMBOL
62
2
6
CONTINUOUS
10
7.2961212319
20
19.7128310454
0
VERTEX
8
___SYMBOL
62
2
6
CONTINUOUS
10
7.2961024525
20
19.7141162137
0
VERTEX
8
___SYMBOL
62
2
6
CONTINUOUS
10
7.2959975977
20
19.7227720654
0
VERTEX
8
___SYMBOL
62
2
6
CONTINUOUS
10
7.2959975977
20
19.9189123431
0
VERTEX
8
___SYMBOL
62
2
6
CONTINUOUS
10
7.2961142441
20
19.9270235578
0
VERTEX
8
___SYMBOL
62
2
6
CONTINUOUS
10
7.2961621360
20
19.9294185226
0
VERTEX
8
___SYMBOL
62
2
6
CONTINUOUS
10
7.2962272592
20
19.9376004521
0
VERTEX
8
___SYMBOL
62
2
6
CONTINUOUS
10
7.2960449515
20
19.9442330584
0
VERTEX
8
___SYMBOL
62
2
6
CONTINUOUS
10
7.2956117429
20
19.9499755832
0
VERTEX
8
___SYMBOL
62
2
6
CONTINUOUS
10
7.2949338067
20
19.9550735580
0
VERTEX
8
___SYMBOL
62
2
6
CONTINUOUS
10
7.2940192785
20
19.9596555288
0
VERTEX
8
___SYMBOL
62
2
6
CONTINUOUS
10
7.2928757642
20
19.9638029113
0
VERTEX
8
___SYMBOL
62
2
6
CONTINUOUS
10
7.2915089199
20
19.9675737299
0
VERTEX
8
___SYMBOL
62
2
6
CONTINUOUS
10
7.2899214567
20
19.9710123743
0
VERTEX
8
___SYMBOL
62
2
6
CONTINUOUS
10
7.2881123990
20
19.9741540294
0
VERTEX
8
___SYMBOL
62
2
6
CONTINUOUS
10
7.2860765509
20
19.9770267523
0
VERTEX
8
___SYMBOL
62
2
6
CONTINUOUS
10
7.2838041603
20
19.9796524126
0
VERTEX
8
___SYMBOL
62
2
6
CONTINUOUS
10
7.2812807809
20
19.9820470714
0
VERTEX
8
___SYMBOL
62
2
6
CONTINUOUS
10
7.2784873177
20
19.9842211099
0
VERTEX
8
___SYMBOL
62
2
6
CONTINUOUS
10
7.2754002241
20
19.9861792851
0
VERTEX
8
___SYMBOL
62
2
6
CONTINUOUS
10
7.2719918049
20
19.9879208147
0
VERTEX
8
___SYMBOL
62
2
6
CONTINUOUS
10
7.2682358469
20
19.9894376567
0
VERTEX
8
___SYMBOL
62
2
6
CONTINUOUS
10
7.2641100977
20
19.9907165098
0
SEQEND
0
LINE
8
___SYMBOL
62
2
6
CONTINUOUS
10
7.2322420422
20
19.7191095654
11
7.2344128755
21
19.7191095654
0
LINE
8
___SYMBOL
62
2
6
CONTINUOUS
10
7.2344128755
20
19.7191095654
11
7.1967475977
21
19.6499234542
0
LINE
8
___SYMBOL
62
2
6
CONTINUOUS
10
7.1967475977
20
19.6499234542
11
6.8989225977
21
19.6499234542
0
LINE
8
___SYMBOL
62
2
6
CONTINUOUS
10
6.8989225977
20
19.6499234542
11
6.8989225977
21
19.6514970654
0
POLYLINE
8
___SYMBOL
62
2
6
CONTINUOUS
66
1
70
0
0
VERTEX
8
___SYMBOL
62
2
6
CONTINUOUS
10
6.8989225977
20
19.6514970654
0
VERTEX
8
___SYMBOL
62
2
6
CONTINUOUS
10
6.9030326242
20
19.6527129232
0
VERTEX
8
___SYMBOL
62
2
6
CONTINUOUS
10
6.9049522452
20
19.6534140211
0
VERTEX
8
___SYMBOL
62
2
6
CONTINUOUS
10
6.9067850155
20
19.6541748586
0
VERTEX
8
___SYMBOL
62
2
6
CONTINUOUS
10
6.9101979415
20
19.6558680504
0
VERTEX
8
___SYMBOL
62
2
6
CONTINUOUS
10
6.9132993175
20
19.6577853558
0
VERTEX
8
___SYMBOL
62
2
6
CONTINUOUS
10
6.9161155756
20
19.6599257263
0
VERTEX
8
___SYMBOL
62
2
6
CONTINUOUS
10
6.9186691527
20
19.6622936000
0
VERTEX
8
___SYMBOL
62
2
6
CONTINUOUS
10
6.9209781815
20
19.6648989427
0
VERTEX
8
___SYMBOL
62
2
6
CONTINUOUS
10
6.9230562863
20
19.6677572434
0
VERTEX
8
___SYMBOL
62
2
6
CONTINUOUS
10
6.9249125298
20
19.6708895536
0
VERTEX
8
___SYMBOL
62
2
6
CONTINUOUS
10
6.9265515416
20
19.6743227272
0
VERTEX
8
___SYMBOL
62
2
6
CONTINUOUS
10
6.9279738406
20
19.6780901270
0
VERTEX
8
___SYMBOL
62
2
6
CONTINUOUS
10
6.9291763580
20
19.6822332845
0
VERTEX
8
___SYMBOL
62
2
6
CONTINUOUS
10
6.9301531721
20
19.6868055169
0
VERTEX
8
___SYMBOL
62
2
6
CONTINUOUS
10
6.9308965152
20
19.6918799131
0
VERTEX
8
___SYMBOL
62
2
6
CONTINUOUS
10
6.9313982421
20
19.6975685198
0
VERTEX
8
___SYMBOL
62
2
6
CONTINUOUS
10
6.9316524388
20
19.7040770216
0
VERTEX
8
___SYMBOL
62
2
6
CONTINUOUS
10
6.9316628320
20
19.7119203975
0
VERTEX
8
___SYMBOL
62
2
6
CONTINUOUS
10
6.9316332923
20
19.7141157140
0
VERTEX
8
___SYMBOL
62
2
6
CONTINUOUS
10
6.9315295422
20
19.7227720654
0
VERTEX
8
___SYMBOL
62
2
6
CONTINUOUS
10
6.9315295422
20
19.9189123431
0
VERTEX
8
___SYMBOL
62
2
6
CONTINUOUS
10
6.9316332923
20
19.9277145873
0
VERTEX
8
___SYMBOL
62
2
6
CONTINUOUS
10
6.9316567973
20
19.9294271052
0
VERTEX
8
___SYMBOL
62
2
6
CONTINUOUS
10
6.9316593833
20
19.9374350820
0
VERTEX
8
___SYMBOL
62
2
6
CONTINUOUS
10
6.9314196202
20
19.9440189167
0
VERTEX
8
___SYMBOL
62
2
6
CONTINUOUS
10
6.9309326737
20
19.9497524414
0
VERTEX
8
___SYMBOL
62
2
6
CONTINUOUS
10
6.9302038636
20
19.9548591204
0
VERTEX
8
___SYMBOL
62
2
6
CONTINUOUS
10
6.9292407930
20
19.9594586709
0
VERTEX
8
___SYMBOL
62
2
6
CONTINUOUS
10
6.9280507056
20
19.9636280727
0
VERTEX
8
___SYMBOL
62
2
6
CONTINUOUS
10
6.9266390181
20
19.9674227815
0
VERTEX
8
___SYMBOL
62
2
6
CONTINUOUS
10
6.9250083182
20
19.9708855501
0
VERTEX
8
___SYMBOL
62
2
6
CONTINUOUS
10
6.9231576319
20
19.9740504534
0
VERTEX
8
___SYMBOL
62
2
6
CONTINUOUS
10
6.9210819017
20
19.9769447726
0
VERTEX
8
___SYMBOL
62
2
6
CONTINUOUS
10
6.9187716630
20
19.9795898393
0
VERTEX
8
___SYMBOL
62
2
6
CONTINUOUS
10
6.9162129097
20
19.9820013645
0
VERTEX
8
___SYMBOL
62
2
6
CONTINUOUS
10
6.9133871398
20
19.9841895401
0
VERTEX
8
___SYMBOL
62
2
6
CONTINUOUS
10
6.9102715456
20
19.9861590757
0
VERTEX
8
___SYMBOL
62
2
6
CONTINUOUS
10
6.9068393086
20
19.9879092667
0
VERTEX
8
___SYMBOL
62
2
6
CONTINUOUS
10
6.9049950783
20
19.9887004311
0
VERTEX
8
___SYMBOL
62
2
6
CONTINUOUS
10
6.9030627345
20
19.9894331424
0
VERTEX
8
___SYMBOL
62
2
6
CONTINUOUS
10
6.8989225977
20
19.9907165098
0
SEQEND
0
LINE
8
___SYMBOL
62
2
6
CONTINUOUS
10
6.8989225977
20
19.9907165098
11
6.8989225977
21
19.9922831765
0
LINE
8
___SYMBOL
62
2
6
CONTINUOUS
10
6.8989225977
20
19.9922831765
11
7.0373225977
21
19.9922831765
0
LINE
8
___SYMBOL
62
2
6
CONTINUOUS
10
7.0373225977
20
19.9922831765
11
7.0373225977
21
19.9907165098
0
POLYLINE
8
___SYMBOL
62
2
6
CONTINUOUS
66
1
70
0
0
VERTEX
8
___SYMBOL
62
2
6
CONTINUOUS
10
7.0373225977
20
19.9907165098
0
VERTEX
8
___SYMBOL
62
2
6
CONTINUOUS
10
7.0334102716
20
19.9895104660
0
VERTEX
8
___SYMBOL
62
2
6
CONTINUOUS
10
7.0298286776
20
19.9880862783
0
VERTEX
8
___SYMBOL
62
2
6
CONTINUOUS
10
7.0265600095
20
19.9864559857
0
VERTEX
8
___SYMBOL
62
2
6
CONTINUOUS
10
7.0235810825
20
19.9846264397
0
VERTEX
8
___SYMBOL
62
2
6
CONTINUOUS
10
7.0208682340
20
19.9825988799
0
VERTEX
8
___SYMBOL
62
2
6
CONTINUOUS
10
7.0184011093
20
19.9803700469
0
VERTEX
8
___SYMBOL
62
2
6
CONTINUOUS
10
7.0161629129
20
19.9779321220
0
VERTEX
8
___SYMBOL
62
2
6
CONTINUOUS
10
7.0141405892
20
19.9752727027
0
VERTEX
8
___SYMBOL
62
2
6
CONTINUOUS
10
7.0123248981
20
19.9723747553
0
VERTEX
8
___SYMBOL
62
2
6
CONTINUOUS
10
7.0107103604
20
19.9692164394
0
VERTEX
8
___SYMBOL
62
2
6
CONTINUOUS
10
7.0092950609
20
19.9657706331
0
VERTEX
8
___SYMBOL
62
2
6
CONTINUOUS
10
7.0080803053
20
19.9620038542
0
VERTEX
8
___SYMBOL
62
2
6
CONTINUOUS
10
7.0070701301
20
19.9578739997
0
VERTEX
8
___SYMBOL
62
2
6
CONTINUOUS
10
7.0062706513
20
19.9533256330
0
VERTEX
8
___SYMBOL
62
2
6
CONTINUOUS
10
7.0056891940
20
19.9482796263
0
VERTEX
8
___SYMBOL
62
2
6
CONTINUOUS
10
7.0053330232
20
19.9426075769
0
VERTEX
8
___SYMBOL
62
2
6
CONTINUOUS
10
7.0052069846
20
19.9360538908
0
VERTEX
8
___SYMBOL
62
2
6
CONTINUOUS
10
7.0053051174
20
19.9278787286
0
VERTEX
8
___SYMBOL
62
2
6
CONTINUOUS
10
7.0053339171
20
19.9264922562
0
VERTEX
8
___SYMBOL
62
2
6
CONTINUOUS
10
7.0054420422
20
19.9189123431
0
VERTEX
8
___SYMBOL
62
2
6
CONTINUOUS
10
7.0054420422
20
19.8147610931
0
VERTEX
8
___SYMBOL
62
2
6
CONTINUOUS
10
7.0054420422
20
19.6920776209
0
SEQEND
0
POLYLINE
8
___SYMBOL
62
2
6
CONTINUOUS
66
1
70
0
0
VERTEX
8
___SYMBOL
62
2
6
CONTINUOUS
10
7.0054420422
20
19.6920776209
0
VERTEX
8
___SYMBOL
62
2
6
CONTINUOUS
10
7.0175012612
20
19.6914232180
0
VERTEX
8
___SYMBOL
62
2
6
CONTINUOUS
10
7.0320125246
20
19.6904745792
0
VERTEX
8
___SYMBOL
62
2
6
CONTINUOUS
10
7.0469722094
20
19.6894158736
0
VERTEX
8
___SYMBOL
62
2
6
CONTINUOUS
10
7.0627526486
20
19.6883403116
0
VERTEX
8
___SYMBOL
62
2
6
CONTINUOUS
10
7.0750863383
20
19.6876210828
0
VERTEX
8
___SYMBOL
62
2
6
CONTINUOUS
10
7.0857325564
20
19.6871458950
0
VERTEX
8
___SYMBOL
62
2
6
CONTINUOUS
10
7.0953241979
20
19.6868740213
0
VERTEX
8
___SYMBOL
62
2
6
CONTINUOUS
10
7.1041752908
20
19.6867853721
0
VERTEX
8
___SYMBOL
62
2
6
CONTINUOUS
10
7.1124697332
20
19.6868684279
0
VERTEX
8
___SYMBOL
62
2
6
CONTINUOUS
10
7.1203269022
20
19.6871160365
0
VERTEX
8
___SYMBOL
62
2
6
CONTINUOUS
10
7.1278299857
20
19.6875236047
0
VERTEX
8
___SYMBOL
62
2
6
CONTINUOUS
10
7.1350400586
20
19.6880882104
0
VERTEX
8
___SYMBOL
62
2
6
CONTINUOUS
10
7.1420038022
20
19.6888081223
0
VERTEX
8
___SYMBOL
62
2
6
CONTINUOUS
10
7.1487580620
20
19.6896825242
0
VERTEX
8
___SYMBOL
62
2
6
CONTINUOUS
10
7.1553326971
20
19.6907113487
0
VERTEX
8
___SYMBOL
62
2
6
CONTINUOUS
10
7.1617524443
20
19.6918951725
0
VERTEX
8
___SYMBOL
62
2
6
CONTINUOUS
10
7.1680381849
20
19.6932351504
0
VERTEX
8
___SYMBOL
62
2
6
CONTINUOUS
10
7.1742078314
20
19.6947329715
0
VERTEX
8
___SYMBOL
62
2
6
CONTINUOUS
10
7.1802769658
20
19.6963908308
0
VERTEX
8
___SYMBOL
62
2
6
CONTINUOUS
10
7.1862593082
20
19.6982114106
0
VERTEX
8
___SYMBOL
62
2
6
CONTINUOUS
10
7.1921670688
20
19.7001978674
0
VERTEX
8
___SYMBOL
62
2
6
CONTINUOUS
10
7.1980112154
20
19.7023538240
0
VERTEX
8
___SYMBOL
62
2
6
CONTINUOUS
10
7.2038016816
20
19.7046833638
0
VERTEX
8
___SYMBOL
62
2
6
CONTINUOUS
10
7.2095475291
20
19.7071910268
0
VERTEX
8
___SYMBOL
62
2
6
CONTINUOUS
10
7.2152570772
20
19.7098818069
0
VERTEX
8
___SYMBOL
62
2
6
CONTINUOUS
10
7.2209380074
20
19.7127611505
0
VERTEX
8
___SYMBOL
62
2
6
CONTINUOUS
10
7.2265974476
20
19.7158349544
0
VERTEX
8
___SYMBOL
62
2
6
CONTINUOUS
10
7.2322420422
20
19.7191095654
0
SEQEND
0
POLYLINE
8
___SYMBOL
62
2
6
CONTINUOUS
66
1
70
0
0
VERTEX
8
___SYMBOL
62
2
6
CONTINUOUS
10
6.6612587088
20
19.8169359542
0
VERTEX
8
___SYMBOL
62
2
6
CONTINUOUS
10
6.6809283749
20
19.7991851587
0
VERTEX
8
___SYMBOL
62
2
6
CONTINUOUS
10
6.7656017644
20
19.7227720654
0
VERTEX
8
___SYMBOL
62
2
6
CONTINUOUS
10
6.7712842033
20
19.7178644075
0
VERTEX
8
___SYMBOL
62
2
6
CONTINUOUS
10
6.7774997804
20
19.7127888167
0
VERTEX
8
___SYMBOL
62
2
6
CONTINUOUS
10
6.7842546859
20
19.7075583674
0
VERTEX
8
___SYMBOL
62
2
6
CONTINUOUS
10
6.7915477939
20
19.7021906584
0
VERTEX
8
___SYMBOL
62
2
6
CONTINUOUS
10
6.7993690260
20
19.6967083887
0
VERTEX
8
___SYMBOL
62
2
6
CONTINUOUS
10
6.8076976232
20
19.6911398807
0
VERTEX
8
___SYMBOL
62
2
6
CONTINUOUS
10
6.8165004327
20
19.6855194767
0
VERTEX
8
___SYMBOL
62
2
6
CONTINUOUS
10
6.8257303775
20
19.6798877083
0
VERTEX
8
___SYMBOL
62
2
6
CONTINUOUS
10
6.8353253430
20
19.6742911179
0
VERTEX
8
___SYMBOL
62
2
6
CONTINUOUS
10
6.8452077773
20
19.6687816024
0
VERTEX
8
___SYMBOL
62
2
6
CONTINUOUS
10
6.8552853233
20
19.6634151678
0
VERTEX
8
___SYMBOL
62
2
6
CONTINUOUS
10
6.8654527638
20
19.6582500362
0
VERTEX
8
___SYMBOL
62
2
6
CONTINUOUS
10
6.8730096740
20
19.6545713793
0
VERTEX
8
___SYMBOL
62
2
6
CONTINUOUS
10
6.8829920422
20
19.6499234542
0
SEQEND
0
LINE
8
___SYMBOL
62
2
6
CONTINUOUS
10
6.8829920422
20
19.6499234542
11
6.8163212088
21
19.6499234542
0
ARC
8
___SYMBOL
62
2
6
CONTINUOUS
10
6.8054658418
20
19.7636618830
40
0.1142552807
50
230.1562195028
51
275.4518816802
0
LINE
8
___SYMBOL
62
2
6
CONTINUOUS
10
6.7322628755
20
19.6759373431
11
6.6438698200
21
19.7545040098
0
LINE
8
___SYMBOL
62
2
6
CONTINUOUS
10
6.6438698200
20
19.7545040098
11
6.5771989866
21
19.8278678987
0
POLYLINE
8
___SYMBOL
62
2
6
CONTINUOUS
66
1
70
0
0
VERTEX
8
___SYMBOL
62
2
6
CONTINUOUS
10
6.5771989866
20
19.8278678987
0
VERTEX
8
___SYMBOL
62
2
6
CONTINUOUS
10
6.5854153472
20
19.8288111571
0
VERTEX
8
___SYMBOL
62
2
6
CONTINUOUS
10
6.5932814568
20
19.8298451922
0
VERTEX
8
___SYMBOL
62
2
6
CONTINUOUS
10
6.6005247029
20
19.8309370599
0
VERTEX
8
___SYMBOL
62
2
6
CONTINUOUS
10
6.6072948634
20
19.8321009578
0
VERTEX
8
___SYMBOL
62
2
6
CONTINUOUS
10
6.6136908180
20
19.8333467106
0
VERTEX
8
___SYMBOL
62
2
6
CONTINUOUS
10
6.6197823274
20
19.8346817645
0
VERTEX
8
___SYMBOL
62
2
6
CONTINUOUS
10
6.6256210925
20
19.8361122065
0
VERTEX
8
___SYMBOL
62
2
6
CONTINUOUS
10
6.6312469190
20
19.8376433394
0
VERTEX
8
___SYMBOL
62
2
6
CONTINUOUS
10
6.6366914033
20
19.8392800309
0
VERTEX
8
___SYMBOL
62
2
6
CONTINUOUS
10
6.6419802606
20
19.8410269390
0
VERTEX
8
___SYMBOL
62
2
6
CONTINUOUS
10
6.6471348616
20
19.8428886658
0
VERTEX
8
___SYMBOL
62
2
6
CONTINUOUS
10
6.6521732836
20
19.8448698657
0
VERTEX
8
___SYMBOL
62
2
6
CONTINUOUS
10
6.6571110517
20
19.8469753248
0
VERTEX
8
___SYMBOL
62
2
6
CONTINUOUS
10
6.6575294634
20
19.8471616622
0
VERTEX
8
___SYMBOL
62
2
6
CONTINUOUS
10
6.6616104039
20
19.8490673186
0
VERTEX
8
___SYMBOL
62
2
6
CONTINUOUS
10
6.6654835507
20
19.8510369209
0
VERTEX
8
___SYMBOL
62
2
6
CONTINUOUS
10
6.6691429577
20
19.8530616662
0
VERTEX
8
___SYMBOL
62
2
6
CONTINUOUS
10
6.6725866267
20
19.8551341904
0
VERTEX
8
___SYMBOL
62
2
6
CONTINUOUS
10
6.6758153843
20
19.8572483554
0
VERTEX
8
___SYMBOL
62
2
6
CONTINUOUS
10
6.6788320653
20
19.8593990894
0
VERTEX
8
___SYMBOL
62
2
6
CONTINUOUS
10
6.6816409068
20
19.8615822662
0
VERTEX
8
___SYMBOL
62
2
6
CONTINUOUS
10
6.6842470885
20
19.8637946135
0
VERTEX
8
___SYMBOL
62
2
6
CONTINUOUS
10
6.6866563775
20
19.8660336419
0
VERTEX
8
___SYMBOL
62
2
6
CONTINUOUS
10
6.6888748471
20
19.8682975888
0
VERTEX
8
___SYMBOL
62
2
6
CONTINUOUS
10
6.6909086499
20
19.8705853738
0
VERTEX
8
___SYMBOL
62
2
6
CONTINUOUS
10
6.6927638311
20
19.8728965596
0
VERTEX
8
___SYMBOL
62
2
6
CONTINUOUS
10
6.6944461711
20
19.8752313185
0
VERTEX
8
___SYMBOL
62
2
6
CONTINUOUS
10
6.6959610517
20
19.8775903999
0
VERTEX
8
___SYMBOL
62
2
6
CONTINUOUS
10
6.6973133414
20
19.8799750976
0
VERTEX
8
___SYMBOL
62
2
6
CONTINUOUS
10
6.6985072956
20
19.8823872157
0
VERTEX
8
___SYMBOL
62
2
6
CONTINUOUS
10
6.6995464711
20
19.8848290317
0
VERTEX
8
___SYMBOL
62
2
6
CONTINUOUS
10
6.7004336540
20
19.8873032571
0
VERTEX
8
___SYMBOL
62
2
6
CONTINUOUS
10
6.7011708002
20
19.8898129933
0
VERTEX
8
___SYMBOL
62
2
6
CONTINUOUS
10
6.7017589880
20
19.8923616865
0
VERTEX
8
___SYMBOL
62
2
6
CONTINUOUS
10
6.7021983846
20
19.8949530788
0
VERTEX
8
___SYMBOL
62
2
6
CONTINUOUS
10
6.7024882237
20
19.8975911596
0
VERTEX
8
___SYMBOL
62
2
6
CONTINUOUS
10
6.7026267960
20
19.9002801164
0
VERTEX
8
___SYMBOL
62
2
6
CONTINUOUS
10
6.7026114509
20
19.9030242872
0
VERTEX
8
___SYMBOL
62
2
6
CONTINUOUS
10
6.7024386079
20
19.9058281164
0
VERTEX
8
___SYMBOL
62
2
6
CONTINUOUS
10
6.7021037776
20
19.9086961135
0
VERTEX
8
___SYMBOL
62
2
6
CONTINUOUS
10
6.7016501462
20
19.9113078417
0
VERTEX
8
___SYMBOL
62
2
6
CONTINUOUS
10
6.7010513299
20
19.9138573580
0
VERTEX
8
___SYMBOL
62
2
6
CONTINUOUS
10
6.7003082978
20
19.9163484003
0
VERTEX
8
___SYMBOL
62
2
6
CONTINUOUS
10
6.6994211565
20
19.9187843753
0
VERTEX
8
___SYMBOL
62
2
6
CONTINUOUS
10
6.6983891796
20
19.9211683039
0
VERTEX
8
___SYMBOL
62
2
6
CONTINUOUS
10
6.6972108521
20
19.9235027661
0
VERTEX
8
___SYMBOL
62
2
6
CONTINUOUS
10
6.6958839312
20
19.9257898488
0
VERTEX
8
___SYMBOL
62
2
6
CONTINUOUS
10
6.6944055225
20
19.9280310955
0
VERTEX
8
___SYMBOL
62
2
6
CONTINUOUS
10
6.6927721751
20
19.9302274587
0
VERTEX
8
___SYMBOL
62
2
6
CONTINUOUS
10
6.6909799949
20
19.9323792561
0
VERTEX
8
___SYMBOL
62
2
6
CONTINUOUS
10
6.6890247791
20
19.9344861287
0
VERTEX
8
___SYMBOL
62
2
6
CONTINUOUS
10
6.6869021760
20
19.9365470016
0
VERTEX
8
___SYMBOL
62
2
6
CONTINUOUS
10
6.6846078736
20
19.9385600446
0
VERTEX
8
___SYMBOL
62
2
6
CONTINUOUS
10
6.6821378251
20
19.9405226342
0
VERTEX
8
___SYMBOL
62
2
6
CONTINUOUS
10
6.6794885198
20
19.9424313128
0
VERTEX
8
___SYMBOL
62
2
6
CONTINUOUS
10
6.6766573125
20
19.9442817471
0
VERTEX
8
___SYMBOL
62
2
6
CONTINUOUS
10
6.6736428280
20
19.9460686823
0
VERTEX
8
___SYMBOL
62
2
6
CONTINUOUS
10
6.6704454604
20
19.9477858958
0
VERTEX
8
___SYMBOL
62
2
6
CONTINUOUS
10
6.6670679954
20
19.9494261502
0
VERTEX
8
___SYMBOL
62
2
6
CONTINUOUS
10
6.6635163853
20
19.9509811520
0
VERTEX
8
___SYMBOL
62
2
6
CONTINUOUS
10
6.6598007127
20
19.9524415251
0
VERTEX
8
___SYMBOL
62
2
6
CONTINUOUS
10
6.6559363767
20
19.9537968180
0
VERTEX
8
___SYMBOL
62
2
6
CONTINUOUS
10
6.6519455231
20
19.9550355714
0
VERTEX
8
___SYMBOL
62
2
6
CONTINUOUS
10
6.6478587044
20
19.9561454951
0
VERTEX
8
___SYMBOL
62
2
6
CONTINUOUS
10
6.6437166759
20
19.9571138232
0
VERTEX
8
___SYMBOL
62
2
6
CONTINUOUS
10
6.6419681226
20
19.9574761648
0
VERTEX
8
___SYMBOL
62
2
6
CONTINUOUS
10
6.6373783365
20
19.9583131383
0
VERTEX
8
___SYMBOL
62
2
6
CONTINUOUS
10
6.6327145211
20
19.9590078055
0
VERTEX
8
___SYMBOL
62
2
6
CONTINUOUS
10
6.6279587225
20
19.9595613392
0
VERTEX
8
___SYMBOL
62
2
6
CONTINUOUS
10
6.6230895581
20
19.9599740648
0
VERTEX
8
___SYMBOL
62
2
6
CONTINUOUS
10
6.6180809472
20
19.9602453212
0
VERTEX
8
___SYMBOL
62
2
6
CONTINUOUS
10
6.6129001686
20
19.9603732405
0
VERTEX
8
___SYMBOL
62
2
6
CONTINUOUS
10
6.6075047465
20
19.9603543843
0
VERTEX
8
___SYMBOL
62
2
6
CONTINUOUS
10
6.6018371651
20
19.9601831134
0
VERTEX
8
___SYMBOL
62
2
6
CONTINUOUS
10
6.5958152047
20
19.9598504174
0
VERTEX
8
___SYMBOL
62
2
6
CONTINUOUS
10
6.5893124231
20
19.9593415279
0
VERTEX
8
___SYMBOL
62
2
6
CONTINUOUS
10
6.5821127283
20
19.9586303398
0
VERTEX
8
___SYMBOL
62
2
6
CONTINUOUS
10
6.5737786131
20
19.9576632387
0
VERTEX
8
___SYMBOL
62
2
6
CONTINUOUS
10
6.5630775633
20
19.9562893400
0
VERTEX
8
___SYMBOL
62
2
6
CONTINUOUS
10
6.5598114866
20
19.9558581765
0
SEQEND
0
POLYLINE
8
___SYMBOL
62
2
6
CONTINUOUS
66
1
70
0
0
VERTEX
8
___SYMBOL
62
2
6
CONTINUOUS
10
6.5598114866
20
19.9558581765
0
VERTEX
8
___SYMBOL
62
2
6
CONTINUOUS
10
6.5598114866
20
19.8460806765
0
VERTEX
8
___SYMBOL
62
2
6
CONTINUOUS
10
6.5598114866
20
19.7227720654
0
VERTEX
8
___SYMBOL
62
2
6
CONTINUOUS
10
6.5597305668
20
19.7154582918
0
VERTEX
8
___SYMBOL
62
2
6
CONTINUOUS
10
6.5596662472
20
19.7105773862
0
VERTEX
8
___SYMBOL
62
2
6
CONTINUOUS
10
6.5596871481
20
19.7039264638
0
VERTEX
8
___SYMBOL
62
2
6
CONTINUOUS
10
6.5598848502
20
19.6983184511
0
VERTEX
8
___SYMBOL
62
2
6
CONTINUOUS
10
6.5602595232
20
19.6933662560
0
VERTEX
8
___SYMBOL
62
2
6
CONTINUOUS
10
6.5608072313
20
19.6889048656
0
VERTEX
8
___SYMBOL
62
2
6
CONTINUOUS
10
6.5615228705
20
19.6848430928
0
VERTEX
8
___SYMBOL
62
2
6
CONTINUOUS
10
6.5624013179
20
19.6811220015
0
VERTEX
8
___SYMBOL
62
2
6
CONTINUOUS
10
6.5634381133
20
19.6776993192
0
VERTEX
8
___SYMBOL
62
2
6
CONTINUOUS
10
6.5646299437
20
19.6745425329
0
VERTEX
8
___SYMBOL
62
2
6
CONTINUOUS
10
6.5659750175
20
19.6716255019
0
VERTEX
8
___SYMBOL
62
2
6
CONTINUOUS
10
6.5674733576
20
19.6689266985
0
VERTEX
8
___SYMBOL
62
2
6
CONTINUOUS
10
6.5691270253
20
19.6664282766
0
VERTEX
8
___SYMBOL
62
2
6
CONTINUOUS
10
6.5709402757
20
19.6641155887
0
VERTEX
8
___SYMBOL
62
2
6
CONTINUOUS
10
6.5729196458
20
19.6619769513
0
VERTEX
8
___SYMBOL
62
2
6
CONTINUOUS
10
6.5750739746
20
19.6600035452
0
VERTEX
8
___SYMBOL
62
2
6
CONTINUOUS
10
6.5774143638
20
19.6581893771
0
VERTEX
8
___SYMBOL
62
2
6
CONTINUOUS
10
6.5799540870
20
19.6565312586
0
VERTEX
8
___SYMBOL
62
2
6
CONTINUOUS
10
6.5827084623
20
19.6550287748
0
VERTEX
8
___SYMBOL
62
2
6
CONTINUOUS
10
6.5856947047
20
19.6536842277
0
VERTEX
8
___SYMBOL
62
2
6
CONTINUOUS
10
6.5889255048
20
19.6525045941
0
VERTEX
8
___SYMBOL
62
2
6
CONTINUOUS
10
6.5924170422
20
19.6514970654
0
SEQEND
0
LINE
8
___SYMBOL
62
2
6
CONTINUOUS
10
6.5924170422
20
19.6514970654
11
6.5924170422
21
19.6499234542
0
LINE
8
___SYMBOL
62
2
6
CONTINUOUS
10
6.5924170422
20
19.6499234542
11
6.4540170422
21
19.6499234542
0
LINE
8
___SYMBOL
62
2
6
CONTINUOUS
10
6.4540170422
20
19.6499234542
11
6.4540170422
21
19.6514970654
0
POLYLINE
8
___SYMBOL
62
2
6
CONTINUOUS
66
1
70
0
0
VERTEX
8
___SYMBOL
62
2
6
CONTINUOUS
10
6.4540170422
20
19.6514970654
0
VERTEX
8
___SYMBOL
62
2
6
CONTINUOUS
10
6.4581121923
20
19.6527089152
0
VERTEX
8
___SYMBOL
62
2
6
CONTINUOUS
10
6.4618436658
20
19.6541644506
0
VERTEX
8
___SYMBOL
62
2
6
CONTINUOUS
10
6.4652325799
20
19.6558496801
0
VERTEX
8
___SYMBOL
62
2
6
CONTINUOUS
10
6.4683053966
20
19.6577564388
0
VERTEX
8
___SYMBOL
62
2
6
CONTINUOUS
10
6.4710893941
20
19.6598835957
0
VERTEX
8
___SYMBOL
62
2
6
CONTINUOUS
10
6.4736077213
20
19.6622356334
0
VERTEX
8
___SYMBOL
62
2
6
CONTINUOUS
10
6.4758790802
20
19.6648227051
0
VERTEX
8
___SYMBOL
62
2
6
CONTINUOUS
10
6.4779175150
20
19.6676606481
0
VERTEX
8
___SYMBOL
62
2
6
CONTINUOUS
10
6.4797323587
20
19.6707710489
0
VERTEX
8
___SYMBOL
62
2
6
CONTINUOUS
10
6.4813283670
20
19.6741815308
0
VERTEX
8
___SYMBOL
62
2
6
CONTINUOUS
10
6.4827060530
20
19.6779265528
0
VERTEX
8
___SYMBOL
62
2
6
CONTINUOUS
10
6.4838622232
20
19.6820492527
0
VERTEX
8
___SYMBOL
62
2
6
CONTINUOUS
10
6.4847907245
20
19.6866054497
0
VERTEX
8
___SYMBOL
62
2
6
CONTINUOUS
10
6.4854834482
20
19.6916725073
0
VERTEX
8
___SYMBOL
62
2
6
CONTINUOUS
10
6.4859317605
20
19.6973708556
0
VERTEX
8
___SYMBOL
62
2
6
CONTINUOUS
10
6.4861289863
20
19.7039266573
0
VERTEX
8
___SYMBOL
62
2
6
CONTINUOUS
10
6.4860776644
20
19.7119307254
0
VERTEX
8
___SYMBOL
62
2
6
CONTINUOUS
10
6.4860210024
20
19.7147868450
0
VERTEX
8
___SYMBOL
62
2
6
CONTINUOUS
10
6.4859045422
20
19.7227720654
0
VERTEX
8
___SYMBOL
62
2
6
CONTINUOUS
10
6.4859045422
20
19.9189123431
0
VERTEX
8
___SYMBOL
62
2
6
CONTINUOUS
10
6.4860210024
20
19.9270351889
0
VERTEX
8
___SYMBOL
62
2
6
CONTINUOUS
10
6.4860680762
20
19.9294008357
0
VERTEX
8
___SYMBOL
62
2
6
CONTINUOUS
10
6.4861325586
20
19.9375852660
0
VERTEX
8
___SYMBOL
62
2
6
CONTINUOUS
10
6.4859497492
20
19.9442199928
0
VERTEX
8
___SYMBOL
62
2
6
CONTINUOUS
10
6.4855161078
20
19.9499644452
0
VERTEX
8
___SYMBOL
62
2
6
CONTINUOUS
10
6.4848377860
20
19.9550641779
0
VERTEX
8
___SYMBOL
62
2
6
CONTINUOUS
10
6.4839229131
20
19.9596477388
0
VERTEX
8
___SYMBOL
62
2
6
CONTINUOUS
10
6.4827790960
20
19.9637965427
0
VERTEX
8
___SYMBOL
62
2
6
CONTINUOUS
10
6.4814119976
20
19.9675686151
0
VERTEX
8
___SYMBOL
62
2
6
CONTINUOUS
10
6.4798243396
20
19.9710083487
0
VERTEX
8
___SYMBOL
62
2
6
CONTINUOUS
10
6.4780151613
20
19.9741509340
0
VERTEX
8
___SYMBOL
62
2
6
CONTINUOUS
10
6.4759792846
20
19.9770244361
0
VERTEX
8
___SYMBOL
62
2
6
CONTINUOUS
10
6.4737069786
20
19.9796507346
0
VERTEX
8
___SYMBOL
62
2
6
CONTINUOUS
10
6.4711838203
20
19.9820459028
0
VERTEX
8
___SYMBOL
62
2
6
CONTINUOUS
10
6.4683907402
20
19.9842203356
0
VERTEX
8
___SYMBOL
62
2
6
CONTINUOUS
10
6.4653042185
20
19.9861788050
0
VERTEX
8
___SYMBOL
62
2
6
CONTINUOUS
10
6.4618965882
20
19.9879205437
0
VERTEX
8
___SYMBOL
62
2
6
CONTINUOUS
10
6.4581415791
20
19.9894375553
0
VERTEX
8
___SYMBOL
62
2
6
CONTINUOUS
10
6.4540170422
20
19.9907165098
0
SEQEND
0
LINE
8
___SYMBOL
62
2
6
CONTINUOUS
10
6.4540170422
20
19.9907165098
11
6.4540170422
21
19.9922831765
0
POLYLINE
8
___SYMBOL
62
2
6
CONTINUOUS
66
1
70
0
0
VERTEX
8
___SYMBOL
62
2
6
CONTINUOUS
10
6.4540170422
20
19.9922831765
0
VERTEX
8
___SYMBOL
62
2
6
CONTINUOUS
10
6.6264684311
20
19.9922831765
0
VERTEX
8
___SYMBOL
62
2
6
CONTINUOUS
10
6.6317384715
20
19.9922469684
0
VERTEX
8
___SYMBOL
62
2
6
CONTINUOUS
10
6.6419956914
20
19.9919608014
0
VERTEX
8
___SYMBOL
62
2
6
CONTINUOUS
10
6.6518498379
20
19.9913992120
0
VERTEX
8
___SYMBOL
62
2
6
CONTINUOUS
10
6.6612988479
20
19.9905739816
0
VERTEX
8
___SYMBOL
62
2
6
CONTINUOUS
10
6.6703414378
20
19.9894971815
0
VERTEX
8
___SYMBOL
62
2
6
CONTINUOUS
10
6.6789771588
20
19.9881811212
0
VERTEX
8
___SYMBOL
62
2
6
CONTINUOUS
10
6.6872064447
20
19.9866382875
0
VERTEX
8
___SYMBOL
62
2
6
CONTINUOUS
10
6.6950306482
20
19.9848812725
0
VERTEX
8
___SYMBOL
62
2
6
CONTINUOUS
10
6.7024520650
20
19.9829226939
0
VERTEX
8
___SYMBOL
62
2
6
CONTINUOUS
10
6.7094739417
20
19.9807751043
0
VERTEX
8
___SYMBOL
62
2
6
CONTINUOUS
10
6.7161004669
20
19.9784508947
0
VERTEX
8
___SYMBOL
62
2
6
CONTINUOUS
10
6.7223367423
20
19.9759621905
0
VERTEX
8
___SYMBOL
62
2
6
CONTINUOUS
10
6.7281887337
20
19.9733207432
0
VERTEX
8
___SYMBOL
62
2
6
CONTINUOUS
10
6.7336631994
20
19.9705378209
0
VERTEX
8
___SYMBOL
62
2
6
CONTINUOUS
10
6.7387675967
20
19.9676240975
0
VERTEX
8
___SYMBOL
62
2
6
CONTINUOUS
10
6.7435099655
20
19.9645895462
0
VERTEX
8
___SYMBOL
62
2
6
CONTINUOUS
10
6.7478987907
20
19.9614433395
0
VERTEX
8
___SYMBOL
62
2
6
CONTINUOUS
10
6.7519428439
20
19.9581937582
0
VERTEX
8
___SYMBOL
62
2
6
CONTINUOUS
10
6.7556510073
20
19.9548481141
0
VERTEX
8
___SYMBOL
62
2
6
CONTINUOUS
10
6.7590320819
20
19.9514126902
0
VERTEX
8
___SYMBOL
62
2
6
CONTINUOUS
10
6.7620945860
20
19.9478927005
0
VERTEX
8
___SYMBOL
62
2
6
CONTINUOUS
10
6.7648465451
20
19.9442922738
0
VERTEX
8
___SYMBOL
62
2
6
CONTINUOUS
10
6.7672952835
20
19.9406144648
0
VERTEX
8
___SYMBOL
62
2
6
CONTINUOUS
10
6.7694472198
20
19.9368612920
0
VERTEX
8
___SYMBOL
62
2
6
CONTINUOUS
10
6.7713076767
20
19.9330338062
0
VERTEX
8
___SYMBOL
62
2
6
CONTINUOUS
10
6.7728807094
20
19.9291321874
0
VERTEX
8
___SYMBOL
62
2
6
CONTINUOUS
10
6.7741689625
20
19.9251558676
0
VERTEX
8
___SYMBOL
62
2
6
CONTINUOUS
10
6.7747067757
20
19.9231390805
0
VERTEX
8
___SYMBOL
62
2
6
CONTINUOUS
10
6.7751735589
20
19.9211036774
0
VERTEX
8
___SYMBOL
62
2
6
CONTINUOUS
10
6.7758933182
20
19.9169791297
0
VERTEX
8
___SYMBOL
62
2
6
CONTINUOUS
10
6.7763271621
20
19.9127812590
0
VERTEX
8
___SYMBOL
62
2
6
CONTINUOUS
10
6.7764725977
20
19.9085081765
0
VERTEX
8
___SYMBOL
62
2
6
CONTINUOUS
10
6.7763271337
20
19.9044673068
0
VERTEX
8
___SYMBOL
62
2
6
CONTINUOUS
10
6.7758912770
20
19.9004471293
0
VERTEX
8
___SYMBOL
62
2
6
CONTINUOUS
10
6.7751641964
20
19.8964429482
0
VERTEX
8
___SYMBOL
62
2
6
CONTINUOUS
10
6.7741429866
20
19.8924507602
0
VERTEX
8
___SYMBOL
62
2
6
CONTINUOUS
10
6.7728228484
20
19.8884674701
0
VERTEX
8
___SYMBOL
62
2
6
CONTINUOUS
10
6.7711973282
20
19.8844911016
0
VERTEX
8
___SYMBOL
62
2
6
CONTINUOUS
10
6.7692586148
20
19.8805209949
0
VERTEX
8
___SYMBOL
62
2
6
CONTINUOUS
10
6.7669978936
20
19.8765579901
0
VERTEX
8
___SYMBOL
62
2
6
CONTINUOUS
10
6.7644057532
20
19.8726045925
0
VERTEX
8
___SYMBOL
62
2
6
CONTINUOUS
10
6.7614726463
20
19.8686651168
0
VERTEX
8
___SYMBOL
62
2
6
CONTINUOUS
10
6.7581893998
20
19.8647458087
0
VERTEX
8
___SYMBOL
62
2
6
CONTINUOUS
10
6.7545477720
20
19.8608549387
0
VERTEX
8
___SYMBOL
62
2
6
CONTINUOUS
10
6.7505410520
20
19.8570028622
0
VERTEX
8
___SYMBOL
62
2
6
CONTINUOUS
10
6.7461646928
20
19.8532020406
0
VERTEX
8
___SYMBOL
62
2
6
CONTINUOUS
10
6.7414169632
20
19.8494670109
0
VERTEX
8
___SYMBOL
62
2
6
CONTINUOUS
10
6.7362995996
20
19.8458142954
0
VERTEX
8
___SYMBOL
62
2
6
CONTINUOUS
10
6.7308184282
20
19.8422622380
0
VERTEX
8
___SYMBOL
62
2
6
CONTINUOUS
10
6.7249839215
20
19.8388307565
0
VERTEX
8
___SYMBOL
62
2
6
CONTINUOUS
10
6.7188116461
20
19.8355410045
0
VERTEX
8
___SYMBOL
62
2
6
CONTINUOUS
10
6.7123225518
20
19.8324149395
0
VERTEX
8
___SYMBOL
62
2
6
CONTINUOUS
10
6.7055430573
20
19.8294748032
0
VERTEX
8
___SYMBOL
62
2
6
CONTINUOUS
10
6.6985048895
20
19.8267425320
0
VERTEX
8
___SYMBOL
62
2
6
CONTINUOUS
10
6.6912446545
20
19.8242391226
0
VERTEX
8
___SYMBOL
62
2
6
CONTINUOUS
10
6.6838031363
20
19.8219839921
0
VERTEX
8
___SYMBOL
62
2
6
CONTINUOUS
10
6.6765780026
20
19.8200805061
0
VERTEX
8
___SYMBOL
62
2
6
CONTINUOUS
10
6.6689313600
20
19.8183618051
0
VERTEX
8
___SYMBOL
62
2
6
CONTINUOUS
10
6.6612587088
20
19.8169359542
0
SEQEND
0
POLYLINE
8
___SYMBOL
62
2
6
CONTINUOUS
66
1
70
0
0
VERTEX
8
___SYMBOL
62
2
6
CONTINUOUS
10
6.2004156533
20
19.6936248431
0
VERTEX
8
___SYMBOL
62
2
6
CONTINUOUS
10
6.2133130484
20
19.6926725100
0
VERTEX
8
___SYMBOL
62
2
6
CONTINUOUS
10
6.2295733842
20
19.6913184106
0
VERTEX
8
___SYMBOL
62
2
6
CONTINUOUS
10
6.2432288525
20
19.6901461935
0
VERTEX
8
___SYMBOL
62
2
6
CONTINUOUS
10
6.2578144884
20
19.6889657275
0
VERTEX
8
___SYMBOL
62
2
6
CONTINUOUS
10
6.2696628162
20
19.6881373064
0
VERTEX
8
___SYMBOL
62
2
6
CONTINUOUS
10
6.2800418569
20
19.6875604998
0
VERTEX
8
___SYMBOL
62
2
6
CONTINUOUS
10
6.2894653213
20
19.6871944916
0
VERTEX
8
___SYMBOL
62
2
6
CONTINUOUS
10
6.2982029073
20
19.6870180066
0
VERTEX
8
___SYMBOL
62
2
6
CONTINUOUS
10
6.3064179625
20
19.6870184209
0
VERTEX
8
___SYMBOL
62
2
6
CONTINUOUS
10
6.3142189459
20
19.6871876906
0
VERTEX
8
___SYMBOL
62
2
6
CONTINUOUS
10
6.3216826812
20
19.6875205191
0
VERTEX
8
___SYMBOL
62
2
6
CONTINUOUS
10
6.3288662767
20
19.6880134273
0
VERTEX
8
___SYMBOL
62
2
6
CONTINUOUS
10
6.3358138135
20
19.6886642390
0
VERTEX
8
___SYMBOL
62
2
6
CONTINUOUS
10
6.3425603663
20
19.6894717782
0
VERTEX
8
___SYMBOL
62
2
6
CONTINUOUS
10
6.3491345516
20
19.6904356830
0
VERTEX
8
___SYMBOL
62
2
6
CONTINUOUS
10
6.3555602146
20
19.6915562867
0
VERTEX
8
___SYMBOL
62
2
6
CONTINUOUS
10
6.3618575866
20
19.6928345405
0
VERTEX
8
___SYMBOL
62
2
6
CONTINUOUS
10
6.3680441011
20
19.6942719617
0
VERTEX
8
___SYMBOL
62
2
6
CONTINUOUS
10
6.3741349860
20
19.6958705990
0
VERTEX
8
___SYMBOL
62
2
6
CONTINUOUS
10
6.3801437010
20
19.6976330087
0
VERTEX
8
___SYMBOL
62
2
6
CONTINUOUS
10
6.3860822669
20
19.6995622381
0
VERTEX
8
___SYMBOL
62
2
6
CONTINUOUS
10
6.3919615189
20
19.7016618145
0
VERTEX
8
___SYMBOL
62
2
6
CONTINUOUS
10
6.3977913026
20
19.7039357364
0
VERTEX
8
___SYMBOL
62
2
6
CONTINUOUS
10
6.4035806288
20
19.7063884689
0
VERTEX
8
___SYMBOL
62
2
6
CONTINUOUS
10
6.4093377972
20
19.7090249382
0
VERTEX
8
___SYMBOL
62
2
6
CONTINUOUS
10
6.4150704959
20
19.7118505296
0
VERTEX
8
___SYMBOL
62
2
6
CONTINUOUS
10
6.4207858829
20
19.7148710845
0
VERTEX
8
___SYMBOL
62
2
6
CONTINUOUS
10
6.4264906533
20
19.7180928987
0
SEQEND
0
LINE
8
___SYMBOL
62
2
6
CONTINUOUS
10
6.4264906533
20
19.7180928987
11
6.4286600977
21
19.7180928987
0
LINE
8
___SYMBOL
62
2
6
CONTINUOUS
10
6.4286600977
20
19.7180928987
11
6.3960545422
21
19.6499234542
0
LINE
8
___SYMBOL
62
2
6
CONTINUOUS
10
6.3960545422
20
19.6499234542
11
6.0938962088
21
19.6499234542
0
LINE
8
___SYMBOL
62
2
6
CONTINUOUS
10
6.0938962088
20
19.6499234542
11
6.0938962088
21
19.6514970654
0
POLYLINE
8
___SYMBOL
62
2
6
CONTINUOUS
66
1
70
0
0
VERTEX
8
___SYMBOL
62
2
6
CONTINUOUS
10
6.0938962088
20
19.6514970654
0
VERTEX
8
___SYMBOL
62
2
6
CONTINUOUS
10
6.0980062064
20
19.6527129154
0
VERTEX
8
___SYMBOL
62
2
6
CONTINUOUS
10
6.0999258079
20
19.6534140076
0
VERTEX
8
___SYMBOL
62
2
6
CONTINUOUS
10
6.1017585571
20
19.6541748385
0
VERTEX
8
___SYMBOL
62
2
6
CONTINUOUS
10
6.1051714366
20
19.6558680148
0
VERTEX
8
___SYMBOL
62
2
6
CONTINUOUS
10
6.1082727572
20
19.6577852997
0
VERTEX
8
___SYMBOL
62
2
6
CONTINUOUS
10
6.1110889526
20
19.6599256446
0
VERTEX
8
___SYMBOL
62
2
6
CONTINUOUS
10
6.1136424613
20
19.6622934876
0
VERTEX
8
___SYMBOL
62
2
6
CONTINUOUS
10
6.1159514168
20
19.6648987948
0
VERTEX
8
___SYMBOL
62
2
6
CONTINUOUS
10
6.1180294445
20
19.6677570560
0
VERTEX
8
___SYMBOL
62
2
6
CONTINUOUS
10
6.1198856076
20
19.6708893238
0
VERTEX
8
___SYMBOL
62
2
6
CONTINUOUS
10
6.1215245359
20
19.6743224534
0
VERTEX
8
___SYMBOL
62
2
6
CONTINUOUS
10
6.1229467484
20
19.6780898100
0
VERTEX
8
___SYMBOL
62
2
6
CONTINUOUS
10
6.1241491760
20
19.6822329280
0
VERTEX
8
___SYMBOL
62
2
6
CONTINUOUS
10
6.1251258967
20
19.6868051297
0
VERTEX
8
___SYMBOL
62
2
6
CONTINUOUS
10
6.1258691421
20
19.6918795121
0
VERTEX
8
___SYMBOL
62
2
6
CONTINUOUS
10
6.1263707665
20
19.6975681383
0
VERTEX
8
___SYMBOL
62
2
6
CONTINUOUS
10
6.1266248545
20
19.7040767318
0
VERTEX
8
___SYMBOL
62
2
6
CONTINUOUS
10
6.1266351313
20
19.7119204112
0
VERTEX
8
___SYMBOL
62
2
6
CONTINUOUS
10
6.1266055440
20
19.7141171728
0
VERTEX
8
___SYMBOL
62
2
6
CONTINUOUS
10
6.1265017644
20
19.7227720654
0
VERTEX
8
___SYMBOL
62
2
6
CONTINUOUS
10
6.1265017644
20
19.9189123431
0
VERTEX
8
___SYMBOL
62
2
6
CONTINUOUS
10
6.1266055440
20
19.9277131109
0
VERTEX
8
___SYMBOL
62
2
6
CONTINUOUS
10
6.1266290900
20
19.9294270621
0
VERTEX
8
___SYMBOL
62
2
6
CONTINUOUS
10
6.1266317925
20
19.9374353713
0
VERTEX
8
___SYMBOL
62
2
6
CONTINUOUS
10
6.1263921381
20
19.9440193046
0
VERTEX
8
___SYMBOL
62
2
6
CONTINUOUS
10
6.1259052938
20
19.9497528512
0
VERTEX
8
___SYMBOL
62
2
6
CONTINUOUS
10
6.1251765810
20
19.9548595173
0
VERTEX
8
___SYMBOL
62
2
6
CONTINUOUS
10
6.1242136036
20
19.9594590372
0
VERTEX
8
___SYMBOL
62
2
6
CONTINUOUS
10
6.1230236059
20
19.9636283993
0
VERTEX
8
___SYMBOL
62
2
6
CONTINUOUS
10
6.1216120049
20
19.9674230643
0
VERTEX
8
___SYMBOL
62
2
6
CONTINUOUS
10
6.1199813886
20
19.9708857882
0
VERTEX
8
___SYMBOL
62
2
6
CONTINUOUS
10
6.1181307828
20
19.9740506483
0
VERTEX
8
___SYMBOL
62
2
6
CONTINUOUS
10
6.1160551302
20
19.9769449272
0
VERTEX
8
___SYMBOL
62
2
6
CONTINUOUS
10
6.1137449651
20
19.9795899574
0
VERTEX
8
___SYMBOL
62
2
6
CONTINUOUS
10
6.1111862811
20
19.9820014509
0
VERTEX
8
___SYMBOL
62
2
6
CONTINUOUS
10
6.1083605746
20
19.9841895999
0
VERTEX
8
___SYMBOL
62
2
6
CONTINUOUS
10
6.1052450369
20
19.9861591140
0
VERTEX
8
___SYMBOL
62
2
6
CONTINUOUS
10
6.1018128476
20
19.9879092886
0
VERTEX
8
___SYMBOL
62
2
6
CONTINUOUS
10
6.0999686390
20
19.9887004459
0
VERTEX
8
___SYMBOL
62
2
6
CONTINUOUS
10
6.0980363154
20
19.9894331509
0
VERTEX
8
___SYMBOL
62
2
6
CONTINUOUS
10
6.0938962088
20
19.9907165098
0
SEQEND
0
LINE
8
___SYMBOL
62
2
6
CONTINUOUS
10
6.0938962088
20
19.9907165098
11
6.0938962088
21
19.9922831765
0
LINE
8
___SYMBOL
62
2
6
CONTINUOUS
10
6.0938962088
20
19.9922831765
11
6.3257753755
21
19.9922831765
0
LINE
8
___SYMBOL
62
2
6
CONTINUOUS
10
6.3257753755
20
19.9922831765
11
6.3598267644
21
19.9948734542
0
LINE
8
___SYMBOL
62
2
6
CONTINUOUS
10
6.3598267644
20
19.9948734542
11
6.3620031533
21
19.9948734542
0
LINE
8
___SYMBOL
62
2
6
CONTINUOUS
10
6.3620031533
20
19.9948734542
11
6.3620031533
21
19.9339942876
0
LINE
8
___SYMBOL
62
2
6
CONTINUOUS
10
6.3620031533
20
19.9339942876
11
6.3598267644
21
19.9339942876
0
ARC
8
___SYMBOL
62
2
6
CONTINUOUS
10
6.2886736600
20
19.8278051440
40
0.1278237007
50
56.1755396367
51
96.4463209909
0
LINE
8
___SYMBOL
62
2
6
CONTINUOUS
10
6.2743225977
20
19.9548206765
11
6.2004156533
21
19.9511859542
0
LINE
8
___SYMBOL
62
2
6
CONTINUOUS
10
6.2004156533
20
19.9511859542
11
6.2004156533
21
19.8544109542
0
LINE
8
___SYMBOL
62
2
6
CONTINUOUS
10
6.2004156533
20
19.8544109542
11
6.2866378755
21
19.8544109542
0
LINE
8
___SYMBOL
62
2
6
CONTINUOUS
10
6.2866378755
20
19.8544109542
11
6.3185253755
21
19.8575234542
0
LINE
8
___SYMBOL
62
2
6
CONTINUOUS
10
6.3185253755
20
19.8575234542
11
6.3207031533
21
19.8575234542
0
LINE
8
___SYMBOL
62
2
6
CONTINUOUS
10
6.3207031533
20
19.8575234542
11
6.3207031533
21
19.8023817876
0
LINE
8
___SYMBOL
62
2
6
CONTINUOUS
10
6.3207031533
20
19.8023817876
11
6.3185253755
21
19.8023817876
0
POLYLINE
8
___SYMBOL
62
2
6
CONTINUOUS
66
1
70
0
0
VERTEX
8
___SYMBOL
62
2
6
CONTINUOUS
10
6.3185253755
20
19.8023817876
0
VERTEX
8
___SYMBOL
62
2
6
CONTINUOUS
10
6.3172599697
20
19.8038868280
0
VERTEX
8
___SYMBOL
62
2
6
CONTINUOUS
10
6.3158338360
20
19.8053149506
0
VERTEX
8
___SYMBOL
62
2
6
CONTINUOUS
10
6.3142370508
20
19.8066695999
0
VERTEX
8
___SYMBOL
62
2
6
CONTINUOUS
10
6.3124575525
20
19.8079527049
0
VERTEX
8
___SYMBOL
62
2
6
CONTINUOUS
10
6.3104812220
20
19.8091647278
0
VERTEX
8
___SYMBOL
62
2
6
CONTINUOUS
10
6.3082919102
20
19.8103047511
0
VERTEX
8
___SYMBOL
62
2
6
CONTINUOUS
10
6.3058713809
20
19.8113705961
0
VERTEX
8
___SYMBOL
62
2
6
CONTINUOUS
10
6.3031991243
20
19.8123589651
0
VERTEX
8
___SYMBOL
62
2
6
CONTINUOUS
10
6.3002519741
20
19.8132656028
0
VERTEX
8
___SYMBOL
62
2
6
CONTINUOUS
10
6.2970034101
20
19.8140854761
0
VERTEX
8
___SYMBOL
62
2
6
CONTINUOUS
10
6.2934223259
20
19.8148129747
0
VERTEX
8
___SYMBOL
62
2
6
CONTINUOUS
10
6.2894708198
20
19.8154421442
0
VERTEX
8
___SYMBOL
62
2
6
CONTINUOUS
10
6.2851000466
20
19.8159669757
0
VERTEX
8
___SYMBOL
62
2
6
CONTINUOUS
10
6.2802418001
20
19.8163818055
0
VERTEX
8
___SYMBOL
62
2
6
CONTINUOUS
10
6.2747893099
20
19.8166819638
0
VERTEX
8
___SYMBOL
62
2
6
CONTINUOUS
10
6.2685446812
20
19.8168651213
0
VERTEX
8
___SYMBOL
62
2
6
CONTINUOUS
10
6.2610214306
20
19.8169356123
0
VERTEX
8
___SYMBOL
62
2
6
CONTINUOUS
10
6.2540392644
20
19.8169359542
0
VERTEX
8
___SYMBOL
62
2
6
CONTINUOUS
10
6.2004156533
20
19.8169359542
0
SEQEND
0
LINE
8
___SYMBOL
62
2
6
CONTINUOUS
10
6.2004156533
20
19.8169359542
11
6.2004156533
21
19.6936248431
0
LINE
8
___SYMBOL
62
2
6
CONTINUOUS
10
5.9308642644
20
19.6514970654
11
5.9308642644
21
19.6499234542
0
LINE
8
___SYMBOL
62
2
6
CONTINUOUS
10
5.9308642644
20
19.6499234542
11
5.7873975977
21
19.6499234542
0
LINE
8
___SYMBOL
62
2
6
CONTINUOUS
10
5.7873975977
20
19.6499234542
11
5.7873975977
21
19.6514970654
0
POLYLINE
8
___SYMBOL
62
2
6
CONTINUOUS
66
1
70
0
0
VERTEX
8
___SYMBOL
62
2
6
CONTINUOUS
10
5.7873975977
20
19.6514970654
0
VERTEX
8
___SYMBOL
62
2
6
CONTINUOUS
10
5.7912952330
20
19.6527226722
0
VERTEX
8
___SYMBOL
62
2
6
CONTINUOUS
10
5.7931203537
20
19.6534196591
0
VERTEX
8
___SYMBOL
62
2
6
CONTINUOUS
10
5.7948655927
20
19.6541705972
0
VERTEX
8
___SYMBOL
62
2
6
CONTINUOUS
10
5.7981234809
20
19.6558276237
0
VERTEX
8
___SYMBOL
62
2
6
CONTINUOUS
10
5.8010946067
20
19.6576883662
0
VERTEX
8
___SYMBOL
62
2
6
CONTINUOUS
10
5.8038022596
20
19.6597521741
0
VERTEX
8
___SYMBOL
62
2
6
CONTINUOUS
10
5.8062663541
20
19.6620230001
0
VERTEX
8
___SYMBOL
62
2
6
CONTINUOUS
10
5.8085031820
20
19.6645094464
0
VERTEX
8
___SYMBOL
62
2
6
CONTINUOUS
10
5.8105252424
20
19.6672247797
0
VERTEX
8
___SYMBOL
62
2
6
CONTINUOUS
10
5.8123411856
20
19.6701869790
0
VERTEX
8
___SYMBOL
62
2
6
CONTINUOUS
10
5.8139558932
20
19.6734189318
0
VERTEX
8
___SYMBOL
62
2
6
CONTINUOUS
10
5.8153707065
20
19.6769489665
0
VERTEX
8
___SYMBOL
62
2
6
CONTINUOUS
10
5.8165838072
20
19.6808120566
0
VERTEX
8
___SYMBOL
62
2
6
CONTINUOUS
10
5.8175907549
20
19.6850523519
0
VERTEX
8
___SYMBOL
62
2
6
CONTINUOUS
10
5.8183852099
20
19.6897285030
0
VERTEX
8
___SYMBOL
62
2
6
CONTINUOUS
10
5.8189599297
20
19.6949255737
0
VERTEX
8
___SYMBOL
62
2
6
CONTINUOUS
10
5.8193083254
20
19.7007853536
0
VERTEX
8
___SYMBOL
62
2
6
CONTINUOUS
10
5.8194277397
20
19.7076035764
0
VERTEX
8
___SYMBOL
62
2
6
CONTINUOUS
10
5.8193340599
20
19.7163292627
0
VERTEX
8
___SYMBOL
62
2
6
CONTINUOUS
10
5.8192642644
20
19.7227720654
0
VERTEX
8
___SYMBOL
62
2
6
CONTINUOUS
10
5.8192642644
20
19.8316158154
0
VERTEX
8
___SYMBOL
62
2
6
CONTINUOUS
10
5.8192642644
20
19.9548206765
0
SEQEND
0
LINE
8
___SYMBOL
62
2
6
CONTINUOUS
10
5.8192642644
20
19.9548206765
11
5.7555031533
21
19.9548206765
0
ARC
8
___SYMBOL
62
2
6
CONTINUOUS
10
5.7484329766
20
19.7951963309
40
0.1597808471
50
87.4638787987
51
119.6947324667
0
LINE
8
___SYMBOL
62
2
6
CONTINUOUS
10
5.6692809311
20
19.9339942876
11
5.6671045422
21
19.9339942876
0
LINE
8
___SYMBOL
62
2
6
CONTINUOUS
10
5.6671045422
20
19.9339942876
11
5.6924739866
21
19.9959248431
0
LINE
8
___SYMBOL
62
2
6
CONTINUOUS
10
5.6924739866
20
19.9959248431
11
5.6946378755
21
19.9959248431
0
LINE
8
___SYMBOL
62
2
6
CONTINUOUS
10
5.6946378755
20
19.9959248431
11
5.7221850977
21
19.9922831765
0
LINE
8
___SYMBOL
62
2
6
CONTINUOUS
10
5.7221850977
20
19.9922831765
11
6.0105767644
21
19.9922831765
0
LINE
8
___SYMBOL
62
2
6
CONTINUOUS
10
6.0105767644
20
19.9922831765
11
6.0439017644
21
19.9959248431
0
LINE
8
___SYMBOL
62
2
6
CONTINUOUS
10
6.0439017644
20
19.9959248431
11
6.0460712088
21
19.9959248431
0
LINE
8
___SYMBOL
62
2
6
CONTINUOUS
10
6.0460712088
20
19.9959248431
11
6.0228920422
21
19.9339942876
0
LINE
8
___SYMBOL
62
2
6
CONTINUOUS
10
6.0228920422
20
19.9339942876
11
6.0207142644
21
19.9339942876
0
POLYLINE
8
___SYMBOL
62
2
6
CONTINUOUS
66
1
70
0
0
VERTEX
8
___SYMBOL
62
2
6
CONTINUOUS
10
6.0207142644
20
19.9339942876
0
VERTEX
8
___SYMBOL
62
2
6
CONTINUOUS
10
6.0196442927
20
19.9358665591
0
VERTEX
8
___SYMBOL
62
2
6
CONTINUOUS
10
6.0184166357
20
19.9376488480
0
VERTEX
8
___SYMBOL
62
2
6
CONTINUOUS
10
6.0170262055
20
19.9393470266
0
VERTEX
8
___SYMBOL
62
2
6
CONTINUOUS
10
6.0154658170
20
19.9409655924
0
VERTEX
8
___SYMBOL
62
2
6
CONTINUOUS
10
6.0137263173
20
19.9425076192
0
VERTEX
8
___SYMBOL
62
2
6
CONTINUOUS
10
6.0117967255
20
19.9439747446
0
VERTEX
8
___SYMBOL
62
2
6
CONTINUOUS
10
6.0096643709
20
19.9453671937
0
VERTEX
8
___SYMBOL
62
2
6
CONTINUOUS
10
6.0073150151
20
19.9466838341
0
VERTEX
8
___SYMBOL
62
2
6
CONTINUOUS
10
6.0047329428
20
19.9479222572
0
VERTEX
8
___SYMBOL
62
2
6
CONTINUOUS
10
6.0019010078
20
19.9490788795
0
VERTEX
8
___SYMBOL
62
2
6
CONTINUOUS
10
5.9988006115
20
19.9501490594
0
VERTEX
8
___SYMBOL
62
2
6
CONTINUOUS
10
5.9954115838
20
19.9511272256
0
VERTEX
8
___SYMBOL
62
2
6
CONTINUOUS
10
5.9917119090
20
19.9520070178
0
VERTEX
8
___SYMBOL
62
2
6
CONTINUOUS
10
5.9876771943
20
19.9527814399
0
VERTEX
8
___SYMBOL
62
2
6
CONTINUOUS
10
5.9832796741
20
19.9534430317
0
VERTEX
8
___SYMBOL
62
2
6
CONTINUOUS
10
5.9784863210
20
19.9539840673
0
VERTEX
8
___SYMBOL
62
2
6
CONTINUOUS
10
5.9732550760
20
19.9543967958
0
VERTEX
8
___SYMBOL
62
2
6
CONTINUOUS
10
5.9675266811
20
19.9546737463
0
VERTEX
8
___SYMBOL
62
2
6
CONTINUOUS
10
5.9612045697
20
19.9548081324
0
VERTEX
8
___SYMBOL
62
2
6
CONTINUOUS
10
5.9584045422
20
19.9548206765
0
VERTEX
8
___SYMBOL
62
2
6
CONTINUOUS
10
5.8931781533
20
19.9548206765
0
SEQEND
0
POLYLINE
8
___SYMBOL
62
2
6
CONTINUOUS
66
1
70
0
0
VERTEX
8
___SYMBOL
62
2
6
CONTINUOUS
10
5.8931781533
20
19.9548206765
0
VERTEX
8
___SYMBOL
62
2
6
CONTINUOUS
10
5.8931781533
20
19.8412894265
0
VERTEX
8
___SYMBOL
62
2
6
CONTINUOUS
10
5.8931781533
20
19.7175637320
0
VERTEX
8
___SYMBOL
62
2
6
CONTINUOUS
10
5.8931860394
20
19.7103794393
0
VERTEX
8
___SYMBOL
62
2
6
CONTINUOUS
10
5.8932974341
20
19.7036576028
0
VERTEX
8
___SYMBOL
62
2
6
CONTINUOUS
10
5.8935577752
20
19.6983964529
0
VERTEX
8
___SYMBOL
62
2
6
CONTINUOUS
10
5.8939741523
20
19.6939513192
0
VERTEX
8
___SYMBOL
62
2
6
CONTINUOUS
10
5.8945493260
20
19.6900457042
0
VERTEX
8
___SYMBOL
62
2
6
CONTINUOUS
10
5.8952862515
20
19.6865279940
0
VERTEX
8
___SYMBOL
62
2
6
CONTINUOUS
10
5.8961895313
20
19.6833025612
0
VERTEX
8
___SYMBOL
62
2
6
CONTINUOUS
10
5.8972661998
20
19.6803033343
0
VERTEX
8
___SYMBOL
62
2
6
CONTINUOUS
10
5.8985262824
20
19.6774817009
0
VERTEX
8
___SYMBOL
62
2
6
CONTINUOUS
10
5.8999832400
20
19.6748002952
0
VERTEX
8
___SYMBOL
62
2
6
CONTINUOUS
10
5.9016543359
20
19.6722295314
0
VERTEX
8
___SYMBOL
62
2
6
CONTINUOUS
10
5.9035609483
20
19.6697455363
0
VERTEX
8
___SYMBOL
62
2
6
CONTINUOUS
10
5.9057288478
20
19.6673288328
0
VERTEX
8
___SYMBOL
62
2
6
CONTINUOUS
10
5.9081790335
20
19.6649718961
0
VERTEX
8
___SYMBOL
62
2
6
CONTINUOUS
10
5.9109391110
20
19.6626643982
0
VERTEX
8
___SYMBOL
62
2
6
CONTINUOUS
10
5.9140458327
20
19.6603937126
0
VERTEX
8
___SYMBOL
62
2
6
CONTINUOUS
10
5.9175411210
20
19.6581494925
0
VERTEX
8
___SYMBOL
62
2
6
CONTINUOUS
10
5.9214724644
20
19.6559232041
0
VERTEX
8
___SYMBOL
62
2
6
CONTINUOUS
10
5.9258934235
20
19.6537077361
0
VERTEX
8
___SYMBOL
62
2
6
CONTINUOUS
10
5.9308642644
20
19.6514970654
0
SEQEND
0
POLYLINE
8
___SYMBOL
62
2
6
CONTINUOUS
66
1
70
0
0
VERTEX
8
___SYMBOL
62
2
6
CONTINUOUS
10
5.6127698200
20
19.9303734542
0
VERTEX
8
___SYMBOL
62
2
6
CONTINUOUS
10
5.6047254570
20
19.9352431016
0
VERTEX
8
___SYMBOL
62
2
6
CONTINUOUS
10
5.5967938647
20
19.9396335308
0
VERTEX
8
___SYMBOL
62
2
6
CONTINUOUS
10
5.5889307546
20
19.9435815639
0
VERTEX
8
___SYMBOL
62
2
6
CONTINUOUS
10
5.5810937342
20
19.9471178676
0
VERTEX
8
___SYMBOL
62
2
6
CONTINUOUS
10
5.5732413707
20
19.9502676425
0
VERTEX
8
___SYMBOL
62
2
6
CONTINUOUS
10
5.5653323396
20
19.9530511358
0
VERTEX
8
___SYMBOL
62
2
6
CONTINUOUS
10
5.5613439755
20
19.9543104464
0
VERTEX
8
___SYMBOL
62
2
6
CONTINUOUS
10
5.5573301422
20
19.9554824654
0
VERTEX
8
___SYMBOL
62
2
6
CONTINUOUS
10
5.5492117274
20
19.9575689476
0
VERTEX
8
___SYMBOL
62
2
6
CONTINUOUS
10
5.5409330817
20
19.9593208771
0
VERTEX
8
___SYMBOL
62
2
6
CONTINUOUS
10
5.5324478118
20
19.9607444076
0
VERTEX
8
___SYMBOL
62
2
6
CONTINUOUS
10
5.5237061870
20
19.9618416564
0
VERTEX
8
___SYMBOL
62
2
6
CONTINUOUS
10
5.5146540290
20
19.9626107136
0
VERTEX
8
___SYMBOL
62
2
6
CONTINUOUS
10
5.5052313699
20
19.9630455447
0
VERTEX
8
___SYMBOL
62
2
6
CONTINUOUS
10
5.5033755540
20
19.9630899700
0
VERTEX
8
___SYMBOL
62
2
6
CONTINUOUS
10
5.4958665586
20
19.9630974298
0
VERTEX
8
___SYMBOL
62
2
6
CONTINUOUS
10
5.4871930260
20
19.9627852620
0
VERTEX
8
___SYMBOL
62
2
6
CONTINUOUS
10
5.4785302211
20
19.9621476597
0
VERTEX
8
___SYMBOL
62
2
6
CONTINUOUS
10
5.4701855794
20
19.9612093145
0
VERTEX
8
___SYMBOL
62
2
6
CONTINUOUS
10
5.4623204093
20
19.9599998459
0
VERTEX
8
___SYMBOL
62
2
6
CONTINUOUS
10
5.4550145514
20
19.9585491309
0
VERTEX
8
___SYMBOL
62
2
6
CONTINUOUS
10
5.4483005778
20
19.9568854125
0
VERTEX
8
___SYMBOL
62
2
6
CONTINUOUS
10
5.4421827833
20
19.9550344725
0
VERTEX
8
___SYMBOL
62
2
6
CONTINUOUS
10
5.4366483030
20
19.9530192242
0
VERTEX
8
___SYMBOL
62
2
6
CONTINUOUS
10
5.4316739562
20
19.9508594678
0
VERTEX
8
___SYMBOL
62
2
6
CONTINUOUS
10
5.4272306736
20
19.9485717030
0
VERTEX
8
___SYMBOL
62
2
6
CONTINUOUS
10
5.4232865119
20
19.9461689537
0
VERTEX
8
___SYMBOL
62
2
6
CONTINUOUS
10
5.4198088270
20
19.9436605938
0
VERTEX
8
___SYMBOL
62
2
6
CONTINUOUS
10
5.4167659424
20
19.9410521837
0
VERTEX
8
___SYMBOL
62
2
6
CONTINUOUS
10
5.4141285129
20
19.9383453383
0
VERTEX
8
___SYMBOL
62
2
6
CONTINUOUS
10
5.4118706980
20
19.9355376606
0
VERTEX
8
___SYMBOL
62
2
6
CONTINUOUS
10
5.4099711956
20
19.9326227749
0
VERTEX
8
___SYMBOL
62
2
6
CONTINUOUS
10
5.4084141431
20
19.9295904917
0
VERTEX
8
___SYMBOL
62
2
6
CONTINUOUS
10
5.4071898580
20
19.9264271182
0
VERTEX
8
___SYMBOL
62
2
6
CONTINUOUS
10
5.4062953770
20
19.9231159021
0
VERTEX
8
___SYMBOL
62
2
6
CONTINUOUS
10
5.4057347604
20
19.9196375706
0
VERTEX
8
___SYMBOL
62
2
6
CONTINUOUS
10
5.4055500199
20
19.9163053339
0
VERTEX
8
___SYMBOL
62
2
6
CONTINUOUS
10
5.4057263720
20
19.9130485484
0
VERTEX
8
___SYMBOL
62
2
6
CONTINUOUS
10
5.4062574133
20
19.9098476330
0
VERTEX
8
___SYMBOL
62
2
6
CONTINUOUS
10
5.4071451239
20
19.9066839264
0
VERTEX
8
___SYMBOL
62
2
6
CONTINUOUS
10
5.4083996269
20
19.9035402890
0
VERTEX
8
___SYMBOL
62
2
6
CONTINUOUS
10
5.4100386932
20
19.9004016153
0
VERTEX
8
___SYMBOL
62
2
6
CONTINUOUS
10
5.4120870529
20
19.8972552033
0
VERTEX
8
___SYMBOL
62
2
6
CONTINUOUS
10
5.4145755889
20
19.8940909624
0
VERTEX
8
___SYMBOL
62
2
6
CONTINUOUS
10
5.4175404803
20
19.8909014690
0
VERTEX
8
___SYMBOL
62
2
6
CONTINUOUS
10
5.4210223449
20
19.8876818967
0
VERTEX
8
___SYMBOL
62
2
6
CONTINUOUS
10
5.4250654061
20
19.8844298492
0
VERTEX
8
___SYMBOL
62
2
6
CONTINUOUS
10
5.4297167046
20
19.8811451090
0
VERTEX
8
___SYMBOL
62
2
6
CONTINUOUS
10
5.4350253874
20
19.8778292837
0
VERTEX
8
___SYMBOL
62
2
6
CONTINUOUS
10
5.4410421975
20
19.8744852628
0
VERTEX
8
___SYMBOL
62
2
6
CONTINUOUS
10
5.4478195529
20
19.8711162498
0
VERTEX
8
___SYMBOL
62
2
6
CONTINUOUS
10
5.4554134719
20
19.8677237038
0
VERTEX
8
___SYMBOL
62
2
6
CONTINUOUS
10
5.4638917683
20
19.8643020985
0
VERTEX
8
___SYMBOL
62
2
6
CONTINUOUS
10
5.4733674403
20
19.8608221560
0
VERTEX
8
___SYMBOL
62
2
6
CONTINUOUS
10
5.4841756430
20
19.8571516423
0
VERTEX
8
___SYMBOL
62
2
6
CONTINUOUS
10
5.4918854846
20
19.8545892632
0
VERTEX
8
___SYMBOL
62
2
6
CONTINUOUS
10
5.5091643385
20
19.8488569960
0
VERTEX
8
___SYMBOL
62
2
6
CONTINUOUS
10
5.5269416004
20
19.8430918897
0
VERTEX
8
___SYMBOL
62
2
6
CONTINUOUS
10
5.5441622373
20
19.8373774214
0
VERTEX
8
___SYMBOL
62
2
6
CONTINUOUS
10
5.5580006936
20
19.8325170894
0
VERTEX
8
___SYMBOL
62
2
6
CONTINUOUS
10
5.5700399962
20
19.8279761557
0
VERTEX
8
___SYMBOL
62
2
6
CONTINUOUS
10
5.5808980479
20
19.8235453087
0
VERTEX
8
___SYMBOL
62
2
6
CONTINUOUS
10
5.5908936703
20
19.8191152280
0
VERTEX
8
___SYMBOL
62
2
6
CONTINUOUS
10
5.6002181778
20
19.8146186503
0
VERTEX
8
___SYMBOL
62
2
6
CONTINUOUS
10
5.6071199853
20
19.8109483681
0
VERTEX
8
___SYMBOL
62
2
6
CONTINUOUS
10
5.6134275039
20
19.8071993012
0
VERTEX
8
___SYMBOL
62
2
6
CONTINUOUS
10
5.6191679608
20
19.8033814940
0
VERTEX
8
___SYMBOL
62
2
6
CONTINUOUS
10
5.6243679617
20
19.7995037558
0
VERTEX
8
___SYMBOL
62
2
6
CONTINUOUS
10
5.6290532784
20
19.7955735629
0
VERTEX
8
___SYMBOL
62
2
6
CONTINUOUS
10
5.6332486091
20
19.7915969738
0
VERTEX
8
___SYMBOL
62
2
6
CONTINUOUS
10
5.6369773116
20
19.7875785650
0
VERTEX
8
___SYMBOL
62
2
6
CONTINUOUS
10
5.6402611138
20
19.7835213954
0
VERTEX
8
___SYMBOL
62
2
6
CONTINUOUS
10
5.6431198068
20
19.7794270092
0
VERTEX
8
___SYMBOL
62
2
6
CONTINUOUS
10
5.6455709314
20
19.7752954880
0
VERTEX
8
___SYMBOL
62
2
6
CONTINUOUS
10
5.6476294703
20
19.7711255604
0
VERTEX
8
___SYMBOL
62
2
6
CONTINUOUS
10
5.6493055790
20
19.7669204127
0
VERTEX
8
___SYMBOL
62
2
6
CONTINUOUS
10
5.6506087000
20
19.7626809803
0
VERTEX
8
___SYMBOL
62
2
6
CONTINUOUS
10
5.6515470770
20
19.7584038926
0
VERTEX
8
___SYMBOL
62
2
6
CONTINUOUS
10
5.6521257380
20
19.7540852935
0
VERTEX
8
___SYMBOL
62
2
6
CONTINUOUS
10
5.6523464666
20
19.7497212292
0
VERTEX
8
___SYMBOL
62
2
6
CONTINUOUS
10
5.6522078834
20
19.7453080743
0
VERTEX
8
___SYMBOL
62
2
6
CONTINUOUS
10
5.6517056478
20
19.7408429807
0
VERTEX
8
___SYMBOL
62
2
6
CONTINUOUS
10
5.6508327798
20
19.7363243280
0
VERTEX
8
___SYMBOL
62
2
6
CONTINUOUS
10
5.6495801002
20
19.7317521608
0
VERTEX
8
___SYMBOL
62
2
6
CONTINUOUS
10
5.6479367796
20
19.7271285936
0
VERTEX
8
___SYMBOL
62
2
6
CONTINUOUS
10
5.6458909826
20
19.7224581701
0
VERTEX
8
___SYMBOL
62
2
6
CONTINUOUS
10
5.6434305928
20
19.7177481626
0
VERTEX
8
___SYMBOL
62
2
6
CONTINUOUS
10
5.6405439971
20
19.7130087976
0
VERTEX
8
___SYMBOL
62
2
6
CONTINUOUS
10
5.6372209054
20
19.7082533944
0
VERTEX
8
___SYMBOL
62
2
6
CONTINUOUS
10
5.6334531765
20
19.7034984016
0
VERTEX
8
___SYMBOL
62
2
6
CONTINUOUS
10
5.6292356140
20
19.6987633201
0
VERTEX
8
___SYMBOL
62
2
6
CONTINUOUS
10
5.6245666908
20
19.6940704999
0
VERTEX
8
___SYMBOL
62
2
6
CONTINUOUS
10
5.6194491598
20
19.6894448074
0
VERTEX
8
___SYMBOL
62
2
6
CONTINUOUS
10
5.6138905036
20
19.6849131657
0
VERTEX
8
___SYMBOL
62
2
6
CONTINUOUS
10
5.6079031858
20
19.6805039804
0
VERTEX
8
___SYMBOL
62
2
6
CONTINUOUS
10
5.6015046764
20
19.6762464774
0
VERTEX
8
___SYMBOL
62
2
6
CONTINUOUS
10
5.5947172375
20
19.6721699867
0
VERTEX
8
___SYMBOL
62
2
6
CONTINUOUS
10
5.5875674808
20
19.6683032162
0
VERTEX
8
___SYMBOL
62
2
6
CONTINUOUS
10
5.5800857242
20
19.6646735618
0
VERTEX
8
___SYMBOL
62
2
6
CONTINUOUS
10
5.5754242138
20
19.6626088064
0
VERTEX
8
___SYMBOL
62
2
6
CONTINUOUS
10
5.5674971984
20
19.6594178882
0
VERTEX
8
___SYMBOL
62
2
6
CONTINUOUS
10
5.5593449263
20
19.6565290357
0
VERTEX
8
___SYMBOL
62
2
6
CONTINUOUS
10
5.5506802535
20
19.6538496341
0
VERTEX
8
___SYMBOL
62
2
6
CONTINUOUS
10
5.5415158430
20
19.6513942134
0
VERTEX
8
___SYMBOL
62
2
6
CONTINUOUS
10
5.5318474493
20
19.6491779661
0
VERTEX
8
___SYMBOL
62
2
6
CONTINUOUS
10
5.5216750175
20
19.6472168243
0
VERTEX
8
___SYMBOL
62
2
6
CONTINUOUS
10
5.5110036167
20
19.6455272118
0
VERTEX
8
___SYMBOL
62
2
6
CONTINUOUS
10
5.4998444789
20
19.6441257379
0
VERTEX
8
___SYMBOL
62
2
6
CONTINUOUS
10
5.4882161380
20
19.6430288202
0
VERTEX
8
___SYMBOL
62
2
6
CONTINUOUS
10
5.4761456428
20
19.6422522236
0
VERTEX
8
___SYMBOL
62
2
6
CONTINUOUS
10
5.4636698032
20
19.6418105043
0
VERTEX
8
___SYMBOL
62
2
6
CONTINUOUS
10
5.4508363944
20
19.6417163511
0
VERTEX
8
___SYMBOL
62
2
6
CONTINUOUS
10
5.4377052123
20
19.6419798255
0
VERTEX
8
___SYMBOL
62
2
6
CONTINUOUS
10
5.4243488285
20
19.6426075144
0
VERTEX
8
___SYMBOL
62
2
6
CONTINUOUS
10
5.4108528559
20
19.6436016294
0
VERTEX
8
___SYMBOL
62
2
6
CONTINUOUS
10
5.3973155044
20
19.6449591107
0
VERTEX
8
___SYMBOL
62
2
6
CONTINUOUS
10
5.3838462093
20
19.6466708228
0
VERTEX
8
___SYMBOL
62
2
6
CONTINUOUS
10
5.3705631583
20
19.6487209516
0
VERTEX
8
___SYMBOL
62
2
6
CONTINUOUS
10
5.3678049623
20
19.6491931539
0
VERTEX
8
___SYMBOL
62
2
6
CONTINUOUS
10
5.3549491641
20
19.6516143060
0
VERTEX
8
___SYMBOL
62
2
6
CONTINUOUS
10
5.3426098396
20
19.6542988860
0
VERTEX
8
___SYMBOL
62
2
6
CONTINUOUS
10
5.3308948200
20
19.6572067876
0
SEQEND
0
LINE
8
___SYMBOL
62
2
6
CONTINUOUS
10
5.3308948200
20
19.6572067876
11
5.3098864866
21
19.7222428987
0
POLYLINE
8
___SYMBOL
62
2
6
CONTINUOUS
66
1
70
0
0
VERTEX
8
___SYMBOL
62
2
6
CONTINUOUS
10
5.3098864866
20
19.7222428987
0
VERTEX
8
___SYMBOL
62
2
6
CONTINUOUS
10
5.3182919462
20
19.7175101875
0
VERTEX
8
___SYMBOL
62
2
6
CONTINUOUS
10
5.3272610832
20
19.7128701142
0
VERTEX
8
___SYMBOL
62
2
6
CONTINUOUS
10
5.3367226390
20
19.7083776488
0
VERTEX
8
___SYMBOL
62
2
6
CONTINUOUS
10
5.3399850092
20
19.7069164952
0
VERTEX
8
___SYMBOL
62
2
6
CONTINUOUS
10
5.3499400651
20
19.7027170996
0
VERTEX
8
___SYMBOL
62
2
6
CONTINUOUS
10
5.3601484707
20
19.6987937346
0
VERTEX
8
___SYMBOL
62
2
6
CONTINUOUS
10
5.3705264687
20
19.6951804414
0
VERTEX
8
___SYMBOL
62
2
6
CONTINUOUS
10
5.3809953792
20
19.6919040492
0
VERTEX
8
___SYMBOL
62
2
6
CONTINUOUS
10
5.3914833780
20
19.6889843935
0
VERTEX
8
___SYMBOL
62
2
6
CONTINUOUS
10
5.4019265448
20
19.6864348547
0
VERTEX
8
___SYMBOL
62
2
6
CONTINUOUS
10
5.4122692967
20
19.6842630933
0
VERTEX
8
___SYMBOL
62
2
6
CONTINUOUS
10
5.4224643474
20
19.6824718804
0
VERTEX
8
___SYMBOL
62
2
6
CONTINUOUS
10
5.4324723337
20
19.6810599448
0
VERTEX
8
___SYMBOL
62
2
6
CONTINUOUS
10
5.4422612292
20
19.6800227838
0
VERTEX
8
___SYMBOL
62
2
6
CONTINUOUS
10
5.4518056411
20
19.6793534090
0
VERTEX
8
___SYMBOL
62
2
6
CONTINUOUS
10
5.4610860621
20
19.6790430095
0
VERTEX
8
___SYMBOL
62
2
6
CONTINUOUS
10
5.4700881247
20
19.6790815302
0
VERTEX
8
___SYMBOL
62
2
6
CONTINUOUS
10
5.4788018877
20
19.6794581693
0
VERTEX
8
___SYMBOL
62
2
6
CONTINUOUS
10
5.4872211729
20
19.6801617994
0
VERTEX
8
___SYMBOL
62
2
6
CONTINUOUS
10
5.4953429601
20
19.6811813243
0
VERTEX
8
___SYMBOL
62
2
6
CONTINUOUS
10
5.5031668400
20
19.6825059772
0
VERTEX
8
___SYMBOL
62
2
6
CONTINUOUS
10
5.5106945251
20
19.6841255704
0
VERTEX
8
___SYMBOL
62
2
6
CONTINUOUS
10
5.5179294125
20
19.6860307032
0
VERTEX
8
___SYMBOL
62
2
6
CONTINUOUS
10
5.5248761937
20
19.6882129340
0
VERTEX
8
___SYMBOL
62
2
6
CONTINUOUS
10
5.5315405059
20
19.6906649216
0
VERTEX
8
___SYMBOL
62
2
6
CONTINUOUS
10
5.5379286197
20
19.6933805389
0
VERTEX
8
___SYMBOL
62
2
6
CONTINUOUS
10
5.5431789805
20
19.6959574352
0
VERTEX
8
___SYMBOL
62
2
6
CONTINUOUS
10
5.5479007874
20
19.6986496952
0
VERTEX
8
___SYMBOL
62
2
6
CONTINUOUS
10
5.5521171605
20
19.7014412199
0
VERTEX
8
___SYMBOL
62
2
6
CONTINUOUS
10
5.5558513782
20
19.7043176552
0
VERTEX
8
___SYMBOL
62
2
6
CONTINUOUS
10
5.5591264507
20
19.7072666262
0
VERTEX
8
___SYMBOL
62
2
6
CONTINUOUS
10
5.5619646112
20
19.7102779266
0
VERTEX
8
___SYMBOL
62
2
6
CONTINUOUS
10
5.5643867339
20
19.7133436368
0
VERTEX
8
___SYMBOL
62
2
6
CONTINUOUS
10
5.5664117013
20
19.7164581422
0
VERTEX
8
___SYMBOL
62
2
6
CONTINUOUS
10
5.5680557547
20
19.7196180232
0
VERTEX
8
___SYMBOL
62
2
6
CONTINUOUS
10
5.5693318748
20
19.7228217945
0
VERTEX
8
___SYMBOL
62
2
6
CONTINUOUS
10
5.5702484122
20
19.7260657731
0
VERTEX
8
___SYMBOL
62
2
6
CONTINUOUS
10
5.5708108345
20
19.7293443212
0
VERTEX
8
___SYMBOL
62
2
6
CONTINUOUS
10
5.5710231028
20
19.7326583979
0
VERTEX
8
___SYMBOL
62
2
6
CONTINUOUS
10
5.5708849241
20
19.7360089770
0
VERTEX
8
___SYMBOL
62
2
6
CONTINUOUS
10
5.5703919516
20
19.7393962710
0
VERTEX
8
___SYMBOL
62
2
6
CONTINUOUS
10
5.5695362502
20
19.7428189730
0
VERTEX
8
___SYMBOL
62
2
6
CONTINUOUS
10
5.5683070023
20
19.7462735809
0
VERTEX
8
___SYMBOL
62
2
6
CONTINUOUS
10
5.5666914034
20
19.7497538524
0
VERTEX
8
___SYMBOL
62
2
6
CONTINUOUS
10
5.5646756836
20
19.7532504325
0
VERTEX
8
___SYMBOL
62
2
6
CONTINUOUS
10
5.5622461817
20
19.7567506727
0
VERTEX
8
___SYMBOL
62
2
6
CONTINUOUS
10
5.5593903979
20
19.7602386495
0
VERTEX
8
___SYMBOL
62
2
6
CONTINUOUS
10
5.5560979529
20
19.7636953768
0
VERTEX
8
___SYMBOL
62
2
6
CONTINUOUS
10
5.5523613897
20
19.7670991901
0
VERTEX
8
___SYMBOL
62
2
6
CONTINUOUS
10
5.5481767685
20
19.7704262721
0
VERTEX
8
___SYMBOL
62
2
6
CONTINUOUS
10
5.5435440223
20
19.7736512749
0
VERTEX
8
___SYMBOL
62
2
6
CONTINUOUS
10
5.5384670634
20
19.7767479906
0
VERTEX
8
___SYMBOL
62
2
6
CONTINUOUS
10
5.5336452742
20
19.7793423053
0
VERTEX
8
___SYMBOL
62
2
6
CONTINUOUS
10
5.5252728469
20
19.7833962541
0
VERTEX
8
___SYMBOL
62
2
6
CONTINUOUS
10
5.5163002713
20
19.7873613367
0
VERTEX
8
___SYMBOL
62
2
6
CONTINUOUS
10
5.5065591283
20
19.7912954126
0
VERTEX
8
___SYMBOL
62
2
6
CONTINUOUS
10
5.4957707451
20
19.7952912499
0
VERTEX
8
___SYMBOL
62
2
6
CONTINUOUS
10
5.4834008493
20
19.7995239860
0
VERTEX
8
___SYMBOL
62
2
6
CONTINUOUS
10
5.4681091621
20
19.8044312009
0
VERTEX
8
___SYMBOL
62
2
6
CONTINUOUS
10
5.4493289966
20
19.8102945923
0
VERTEX
8
___SYMBOL
62
2
6
CONTINUOUS
10
5.4342230632
20
19.8151534722
0
VERTEX
8
___SYMBOL
62
2
6
CONTINUOUS
10
5.4219400373
20
19.8193701909
0
VERTEX
8
___SYMBOL
62
2
6
CONTINUOUS
10
5.4130369719
20
19.8225960467
0
VERTEX
8
___SYMBOL
62
2
6
CONTINUOUS
10
5.4025929525
20
19.8265948848
0
VERTEX
8
___SYMBOL
62
2
6
CONTINUOUS
10
5.3933414384
20
19.8304343328
0
VERTEX
8
___SYMBOL
62
2
6
CONTINUOUS
10
5.3849851114
20
19.8342244137
0
VERTEX
8
___SYMBOL
62
2
6
CONTINUOUS
10
5.3773864098
20
19.8380085712
0
VERTEX
8
___SYMBOL
62
2
6
CONTINUOUS
10
5.3704633428
20
19.8418065761
0
VERTEX
8
___SYMBOL
62
2
6
CONTINUOUS
10
5.3641580264
20
19.8456280524
0
VERTEX
8
___SYMBOL
62
2
6
CONTINUOUS
10
5.3584247715
20
19.8494779556
0
VERTEX
8
___SYMBOL
62
2
6
CONTINUOUS
10
5.3532249439
20
19.8533591800
0
VERTEX
8
___SYMBOL
62
2
6
CONTINUOUS
10
5.3485245784
20
19.8572739562
0
VERTEX
8
___SYMBOL
62
2
6
CONTINUOUS
10
5.3442932476
20
19.8612246678
0
VERTEX
8
___SYMBOL
62
2
6
CONTINUOUS
10
5.3405035525
20
19.8652143626
0
VERTEX
8
___SYMBOL
62
2
6
CONTINUOUS
10
5.3371309437
20
19.8692470832
0
VERTEX
8
___SYMBOL
62
2
6
CONTINUOUS
10
5.3341537245
20
19.8733280796
0
VERTEX
8
___SYMBOL
62
2
6
CONTINUOUS
10
5.3315531567
20
19.8774639357
0
VERTEX
8
___SYMBOL
62
2
6
CONTINUOUS
10
5.3293136194
20
19.8816626233
0
VERTEX
8
___SYMBOL
62
2
6
CONTINUOUS
10
5.3274227884
20
19.8859334957
0
VERTEX
8
___SYMBOL
62
2
6
CONTINUOUS
10
5.3255849175
20
19.8910064384
0
VERTEX
8
___SYMBOL
62
2
6
CONTINUOUS
10
5.3241607402
20
19.8959465465
0
VERTEX
8
___SYMBOL
62
2
6
CONTINUOUS
10
5.3231312432
20
19.9007644299
0
VERTEX
8
___SYMBOL
62
2
6
CONTINUOUS
10
5.3224812924
20
19.9054646529
0
VERTEX
8
___SYMBOL
62
2
6
CONTINUOUS
10
5.3221972318
20
19.9100529617
0
VERTEX
8
___SYMBOL
62
2
6
CONTINUOUS
10
5.3222676006
20
19.9145399981
0
VERTEX
8
___SYMBOL
62
2
6
CONTINUOUS
10
5.3226844764
20
19.9189361375
0
VERTEX
8
___SYMBOL
62
2
6
CONTINUOUS
10
5.3234435120
20
19.9232512048
0
VERTEX
8
___SYMBOL
62
2
6
CONTINUOUS
10
5.3245438841
20
19.9274941643
0
VERTEX
8
___SYMBOL
62
2
6
CONTINUOUS
10
5.3259881419
20
19.9316727970
0
VERTEX
8
___SYMBOL
62
2
6
CONTINUOUS
10
5.3277819491
20
19.9357933772
0
VERTEX
8
___SYMBOL
62
2
6
CONTINUOUS
10
5.3299337131
20
19.9398603580
0
VERTEX
8
___SYMBOL
62
2
6
CONTINUOUS
10
5.3324540996
20
19.9438760734
0
VERTEX
8
___SYMBOL
62
2
6
CONTINUOUS
10
5.3353554262
20
19.9478404603
0
VERTEX
8
___SYMBOL
62
2
6
CONTINUOUS
10
5.3386509276
20
19.9517507992
0
VERTEX
8
___SYMBOL
62
2
6
CONTINUOUS
10
5.3423538760
20
19.9556014730
0
VERTEX
8
___SYMBOL
62
2
6
CONTINUOUS
10
5.3464765343
20
19.9593837388
0
VERTEX
8
___SYMBOL
62
2
6
CONTINUOUS
10
5.3510289126
20
19.9630855163
0
VERTEX
8
___SYMBOL
62
2
6
CONTINUOUS
10
5.3560172928
20
19.9666911976
0
VERTEX
8
___SYMBOL
62
2
6
CONTINUOUS
10
5.3614424885
20
19.9701814978
0
VERTEX
8
___SYMBOL
62
2
6
CONTINUOUS
10
5.3672978210
20
19.9735333791
0
VERTEX
8
___SYMBOL
62
2
6
CONTINUOUS
10
5.3735668226
20
19.9767201025
0
VERTEX
8
___SYMBOL
62
2
6
CONTINUOUS
10
5.3784619983
20
19.9789570070
0
VERTEX
8
___SYMBOL
62
2
6
CONTINUOUS
10
5.3858817373
20
19.9820029363
0
VERTEX
8
___SYMBOL
62
2
6
CONTINUOUS
10
5.3937951452
20
19.9848716553
0
VERTEX
8
___SYMBOL
62
2
6
CONTINUOUS
10
5.4022153032
20
19.9875504701
0
VERTEX
8
___SYMBOL
62
2
6
CONTINUOUS
10
5.4111528517
20
19.9900255129
0
VERTEX
8
___SYMBOL
62
2
6
CONTINUOUS
10
5.4206152098
20
19.9922818775
0
VERTEX
8
___SYMBOL
62
2
6
CONTINUOUS
10
5.4306056601
20
19.9943037890
0
VERTEX
8
___SYMBOL
62
2
6
CONTINUOUS
10
5.4411222772
20
19.9960748169
0
VERTEX
8
___SYMBOL
62
2
6
CONTINUOUS
10
5.4521566804
20
19.9975781467
0
VERTEX
8
___SYMBOL
62
2
6
CONTINUOUS
10
5.4636925957
20
19.9987969270
0
VERTEX
8
___SYMBOL
62
2
6
CONTINUOUS
10
5.4757042259
20
19.9997147126
0
VERTEX
8
___SYMBOL
62
2
6
CONTINUOUS
10
5.4881544488
20
20.0003160272
0
VERTEX
8
___SYMBOL
62
2
6
CONTINUOUS
10
5.5009929016
20
20.0005870670
0
VERTEX
8
___SYMBOL
62
2
6
CONTINUOUS
10
5.5141540645
20
20.0005165655
0
VERTEX
8
___SYMBOL
62
2
6
CONTINUOUS
10
5.5275555379
20
20.0000968236
0
VERTEX
8
___SYMBOL
62
2
6
CONTINUOUS
10
5.5410968086
20
19.9993248897
0
VERTEX
8
___SYMBOL
62
2
6
CONTINUOUS
10
5.5546589110
20
19.9982038330
0
VERTEX
8
___SYMBOL
62
2
6
CONTINUOUS
10
5.5681054850
20
19.9967439992
0
VERTEX
8
___SYMBOL
62
2
6
CONTINUOUS
10
5.5812857516
20
19.9949640752
0
VERTEX
8
___SYMBOL
62
2
6
CONTINUOUS
10
5.5888109803
20
19.9937847749
0
VERTEX
8
___SYMBOL
62
2
6
CONTINUOUS
10
5.6011658689
20
19.9915722086
0
VERTEX
8
___SYMBOL
62
2
6
CONTINUOUS
10
5.6127698200
20
19.9891498431
0
SEQEND
0
LINE
8
___SYMBOL
62
2
6
CONTINUOUS
10
5.6127698200
20
19.9891498431
11
5.6127698200
21
19.9303734542
0
POLYLINE
8
___SYMBOL
62
2
6
CONTINUOUS
66
1
70
0
0
VERTEX
8
___SYMBOL
62
2
6
CONTINUOUS
10
5.1654628755
20
19.5332109542
0
VERTEX
8
___SYMBOL
62
2
6
CONTINUOUS
10
5.3920487088
20
19.5332109542
0
VERTEX
8
___SYMBOL
62
2
6
CONTINUOUS
10
6.1965762088
20
19.5332109542
0
VERTEX
8
___SYMBOL
62
2
6
CONTINUOUS
10
7.0011037088
20
19.5332109542
0
VERTEX
8
___SYMBOL
62
2
6
CONTINUOUS
10
7.8056312088
20
19.5332109542
0
VERTEX
8
___SYMBOL
62
2
6
CONTINUOUS
10
8.6101587088
20
19.5332109542
0
VERTEX
8
___SYMBOL
62
2
6
CONTINUOUS
10
8.6101587088
20
20.1111526209
0
VERTEX
8
___SYMBOL
62
2
6
CONTINUOUS
10
8.3835728755
20
20.1111526209
0
VERTEX
8
___SYMBOL
62
2
6
CONTINUOUS
10
7.5790453755
20
20.1111526209
0
VERTEX
8
___SYMBOL
62
2
6
CONTINUOUS
10
6.7745178755
20
20.1111526209
0
VERTEX
8
___SYMBOL
62
2
6
CONTINUOUS
10
5.9699903755
20
20.1111526209
0
VERTEX
8
___SYMBOL
62
2
6
CONTINUOUS
10
5.1654628755
20
20.1111526209
0
VERTEX
8
___SYMBOL
62
2
6
CONTINUOUS
10
5.1654628755
20
19.5332109542
0
SEQEND
0
ENDBLK
8
0
6
BYBLOCK
62
0
0
BLOCK
8
___SYMBOL
62
2
6
CONTINUOUS
2
PLOTTING_TEMPLATE_NOTE_BL2
70
64
10
27.6860398802
20
6.0164778898
0
TEXT
8
___SYMBOL
62
2
6
CONTINUOUS
10
24.1235398802
20
7.1102278898
7
STANDARD
40
0.1562500000
1
WHEN PLOTTING TEMPLATE FULL SIZE:
41
0.8000000000
72
0
0
TEXT
8
___SYMBOL
62
2
6
CONTINUOUS
10
24.1235398802
20
6.8758528898
7
STANDARD
40
0.1562500000
1
Make sure horizontal and vertical dimensions
41
0.8000000000
72
0
0
TEXT
8
___SYMBOL
62
2
6
CONTINUOUS
10
24.1235398802
20
6.6414778898
7
STANDARD
40
0.1562500000
1
match the dimensions labeled on the template.
41
0.8000000000
72
0
0
TEXT
8
___SYMBOL
62
2
6
CONTINUOUS
10
24.1235398802
20
6.4071028898
7
STANDARD
40
0.1562500000
1
 
41
0.8000000000
72
0
0
TEXT
8
___SYMBOL
62
2
6
CONTINUOUS
10
24.1235398802
20
6.1727278898
7
STANDARD
40
0.1562500000
1
AL TRAZAR LA PLANTILLA A ESCALA COMPLETA:
41
0.8000000000
72
0
0
TEXT
8
___SYMBOL
62
2
6
CONTINUOUS
10
24.1235398802
20
5.9383528898
7
STANDARD
40
0.1562500000
1
Asegúrese de que la dimensión horizontal y vertical
41
0.8000000000
72
0
0
TEXT
8
___SYMBOL
62
2
6
CONTINUOUS
10
24.1235398802
20
5.7039778898
7
STANDARD
40
0.1562500000
1
sean iguales a las dimensiones indicadas en la plantilla.
41
0.8000000000
72
0
0
TEXT
8
___SYMBOL
62
2
6
CONTINUOUS
10
24.1235398802
20
5.4696028898
7
STANDARD
40
0.1562500000
1
 
41
0.8000000000
72
0
0
TEXT
8
___SYMBOL
62
2
6
CONTINUOUS
10
24.1235398802
20
5.2352278898
7
STANDARD
40
0.1562500000
1
AU MOMENT DE TRACER LA DÉCOUPE À L'ÉCHELLE,
41
0.8000000000
72
0
0
TEXT
8
___SYMBOL
62
2
6
CONTINUOUS
10
24.1235398802
20
5.0008528898
7
STANDARD
40
0.1562500000
1
S'assurer que les dimensions horizontales et verticales
41
0.8000000000
72
0
0
TEXT
8
___SYMBOL
62
2
6
CONTINUOUS
10
24.1235398802
20
4.7664778898
7
STANDARD
40
0.1562500000
1
correspondent à celles sur l'étiquette du plan
41
0.8000000000
72
0
0
ENDBLK
8
0
6
BYBLOCK
62
0
0
BLOCK
8
___SYMBOL
62
2
6
CONTINUOUS
2
COPYRIGHT_YEAR_BL3
70
64
10
20.0116768275
20
6.2269441587
0
TEXT
8
___SYMBOL
62
2
6
CONTINUOUS
10
19.6379852019
20
6.1916705339
7
STANDARD
40
0.0705000000
1
2007
41
0.8000000000
72
0
0
TEXT
8
___SYMBOL
62
2
6
CONTINUOUS
10
19.8635852019
20
6.1916705339
7
STANDARD
40
0.0705000000
1
 KOHLER CO.
41
0.8000000000
72
0
0
TEXT
8
___SYMBOL
62
7
6
CONTINUOUS
10
19.5579594529
20
6.2081555342
7
STANDARD
40
0.0421874995
1
C
41
1.0000000000
72
0
0
CIRCLE
8
___SYMBOL
62
7
6
CONTINUOUS
10
19.5721944527
20
6.2293917839
40
0.0328259996
0
ENDBLK
8
0
6
BYBLOCK
62
0
0
BLOCK
8
___SYMBOL
62
2
6
CONTINUOUS
2
TEMPLATE_NUMBER_BL4
70
64
10
15.8958635684
20
6.2452471863
0
TEXT
8
___SYMBOL
62
2
6
CONTINUOUS
10
15.5856635684
20
6.2099971863
7
STANDARD
40
0.0705000000
1
1033117-7
41
0.8000000000
72
0
0
TEXT
8
___SYMBOL
62
2
6
CONTINUOUS
10
16.0932635684
20
6.2099971863
7
STANDARD
40
0.0705000000
1
-
41
0.8000000000
72
0
0
TEXT
8
___SYMBOL
62
2
6
CONTINUOUS
10
16.1496635684
20
6.2099971863
7
STANDARD
40
0.0705000000
1
B
41
0.8000000000
72
0
0
ENDBLK
8
0
6
BYBLOCK
62
0
0
BLOCK
8
___SYMBOL
62
2
6
CONTINUOUS
2
TEMPLATE_NUMBER_BL5
70
64
10
15.9387195383
20
4.6114181931
0
TEXT
8
___SYMBOL
62
2
6
CONTINUOUS
10
15.6285195383
20
4.5761681931
7
STANDARD
40
0.0705000000
1
1033117-7
41
0.8000000000
72
0
0
TEXT
8
___SYMBOL
62
2
6
CONTINUOUS
10
16.1361195383
20
4.5761681931
7
STANDARD
40
0.0705000000
1
-
41
0.8000000000
72
0
0
TEXT
8
___SYMBOL
62
2
6
CONTINUOUS
10
16.1925195383
20
4.5761681931
7
STANDARD
40
0.0705000000
1
B
41
0.8000000000
72
0
0
ENDBLK
8
0
6
BYBLOCK
62
0
0
BLOCK
8
0
2
_FILLED
70
64
10
0.0000000000
20
0.0000000000
0
SOLID
8
0
6
BYBLOCK
62
0
10
0.0000000000
20
0.0000000000
11
-1.0000000000
21
0.1666666667
12
-1.0000000000
22
-0.1666666667
13
-1.0000000000
23
-0.1666666667
0
ENDBLK
8
0
6
BYBLOCK
62
0
0
ENDSEC
0
SECTION
2
ENTITIES
0
DIMENSION
8
0
62
2
6
CONTINUOUS
2
*D0
10
24.3428026035
20
9.8445990221
11
17.1736815457
21
9.7274115221
70
128
13
11.5928026035
23
9.9695990221
14
24.3428026035
24
9.9695990221
0
DIMENSION
8
0
62
2
6
CONTINUOUS
2
*D1
10
17.9459212934
20
14.8284119075
11
17.9459212934
21
12.0545173896
70
128
13
17.8209212934
23
4.8284119075
14
17.8209212934
24
14.8284119075
50
90.000000
0
DIMENSION
8
0
62
2
6
CONTINUOUS
2
*D2
10
12.4053026035
20
10.7846078549
11
19.4910185804
21
10.6674203549
70
128
13
23.5303026035
23
9.8909119075
14
12.4053026035
24
9.8909119075
50
180.000000
0
DIMENSION
8
0
62
2
6
CONTINUOUS
2
*D3
10
18.6625597792
20
5.6409119075
11
18.6625597792
21
8.6311785883
70
128
13
18.0303026035
23
14.0159119075
14
18.0303026035
24
5.6409119075
50
270.000000
0
TEXT
8
___NOTE
62
2
6
CONTINUOUS
10
26.0947831494
20
12.7360824745
7
STANDARD
40
0.1562500000
1
RIM OF SINK
41
0.8000000000
72
0
0
TEXT
8
___NOTE
62
2
6
CONTINUOUS
10
26.0947831494
20
12.5017074745
7
STANDARD
40
0.1562500000
1
REBORD DE L'ÉVIER
41
0.8000000000
72
0
0
TEXT
8
___NOTE
62
2
6
CONTINUOUS
10
26.0947831494
20
12.2673324745
7
STANDARD
40
0.1562500000
1
BORDE DEL FREGADERO
41
0.8000000000
72
0
0
TEXT
8
___NOTE
62
2
6
CONTINUOUS
10
26.0947831494
20
12.0329574745
7
STANDARD
40
0.1562500000
1
 
41
0.8000000000
72
0
0
LINE
8
___NOTE
62
2
6
CONTINUOUS
10
24.4731123417
20
10.8218488707
11
25.8447831494
21
12.8142074745
0
LINE
8
___NOTE
62
2
6
CONTINUOUS
10
25.8447831494
20
12.8142074745
11
26.0947831494
21
12.8142074745
0
SOLID
8
___NOTE
62
2
6
CONTINUOUS
10
24.5536980607
20
10.9940079669
11
24.4731123417
21
10.8218488707
12
24.6051774584
22
10.9585661609
13
24.6051774584
23
10.9585661609
0
TEXT
8
___NOTE
62
2
6
CONTINUOUS
10
24.3860128686
20
14.6427111383
7
STANDARD
40
0.1562500000
1
FOR UNDERCOUNTER INSTALLATION CUT ALONG THIS LINE
41
0.8000000000
72
0
0
TEXT
8
___NOTE
62
2
6
CONTINUOUS
10
24.3860128686
20
14.4083361383
7
STANDARD
40
0.1562500000
1
POUR INSTALLATION SOUS COMPTOIR DÉCOUPER LE LONG DE CETTE LIGNE
41
0.8000000000
72
0
0
TEXT
8
___NOTE
62
2
6
CONTINUOUS
10
24.3860128686
20
14.1739611383
7
STANDARD
40
0.1562500000
1
PARA INSTALACIÓN BAJO CUBIERTA, CORTE POR ESTA LÍNEA
41
0.8000000000
72
0
0
TEXT
8
___NOTE
62
2
6
CONTINUOUS
10
24.3860128686
20
13.9395861383
7
STANDARD
40
0.1562500000
1
 
41
0.8000000000
72
0
0
LINE
8
___NOTE
62
2
6
CONTINUOUS
10
22.3731506237
20
12.3729406253
11
24.1360128686
21
14.7208361383
0
LINE
8
___NOTE
62
2
6
CONTINUOUS
10
24.1360128686
20
14.7208361383
11
24.3860128686
21
14.7208361383
0
SOLID
8
___NOTE
62
2
6
CONTINUOUS
10
22.4607398415
20
12.5416443343
11
22.3731506237
21
12.3729406253
12
22.5107200056
22
12.5041179010
13
22.5107200056
23
12.5041179010
0
TEXT
8
___NOTE
62
2
6
CONTINUOUS
10
23.6107034514
20
16.3390898237
7
STANDARD
40
0.1562500000
1
FOR SELF-RIMMING INSTALLATION CUT ALONG THIS LINE
41
0.8000000000
72
0
0
TEXT
8
___NOTE
62
2
6
CONTINUOUS
10
23.6107034514
20
16.1047148237
7
STANDARD
40
0.1562500000
1
POUR INSTALLATION À REBORD INTÉGRÉ DÉCOUPER LE LONG DE CETTE LIGNE
41
0.8000000000
72
0
0
TEXT
8
___NOTE
62
2
6
CONTINUOUS
10
23.6107034514
20
15.8703398237
7
STANDARD
40
0.1562500000
1
PARA INSTALACIÓN CON BORDE TERMINADO, CORTE POR ESTA LÍNEA
41
0.8000000000
72
0
0
TEXT
8
___NOTE
62
2
6
CONTINUOUS
10
23.6107034514
20
15.6359648237
7
STANDARD
40
0.1562500000
1
 
41
0.8000000000
72
0
0
LINE
8
___NOTE
62
2
6
CONTINUOUS
10
21.4998255924
20
13.9892939222
11
23.3607034514
21
16.4172148237
0
LINE
8
___NOTE
62
2
6
CONTINUOUS
10
23.3607034514
20
16.4172148237
11
23.6107034514
21
16.4172148237
0
SOLID
8
___NOTE
62
2
6
CONTINUOUS
10
21.5890833128
20
14.1571208326
11
21.4998255924
21
13.9892939222
12
21.6386889205
22
14.1191006578
13
21.6386889205
23
14.1191006578
0
INSERT
8
___SYMBOL
62
2
6
CONTINUOUS
2
PACKAGING_UPC_NOTE_BL0
10
10.2626874887
20
4.8507945488
0
INSERT
8
___SYMBOL
62
2
6
CONTINUOUS
2
SKU_SINK_STERLING_BL1
10
9.7329785316
20
17.3953702308
0
INSERT
8
___SYMBOL
62
2
6
CONTINUOUS
2
PLOTTING_TEMPLATE_NOTE_BL2
10
27.6860398802
20
6.0164778898
0
INSERT
8
___SYMBOL
62
2
6
CONTINUOUS
2
COPYRIGHT_YEAR_BL3
10
20.0116768275
20
6.2269441587
0
INSERT
8
___SYMBOL
62
2
6
CONTINUOUS
2
TEMPLATE_NUMBER_BL4
10
15.8958635684
20
6.2452471863
0
INSERT
8
___SYMBOL
62
2
6
CONTINUOUS
2
TEMPLATE_NUMBER_BL5
10
15.9387195383
20
4.6114181931
0
POLYLINE
8
_CURVE
62
8
6
HIDDEN
66
1
70
0
0
VERTEX
8
_CURVE
62
8
6
HIDDEN
10
11.3428026035
20
9.8284119075
0
VERTEX
8
_CURVE
62
8
6
HIDDEN
10
11.3710636856
20
9.3440030203
0
VERTEX
8
_CURVE
62
8
6
HIDDEN
10
11.4556058181
20
8.8637269390
0
VERTEX
8
_CURVE
62
8
6
HIDDEN
10
11.5957077175
20
8.3916812096
0
VERTEX
8
_CURVE
62
8
6
HIDDEN
10
11.7901740837
20
7.9318931600
0
VERTEX
8
_CURVE
62
8
6
HIDDEN
10
12.0373457983
20
7.4882855397
0
VERTEX
8
_CURVE
62
8
6
HIDDEN
10
12.3351140793
20
7.0646430524
0
VERTEX
8
_CURVE
62
8
6
HIDDEN
10
12.6809384728
20
6.6645800665
0
VERTEX
8
_CURVE
62
8
6
HIDDEN
10
13.0718685270
20
6.2915097783
0
VERTEX
8
_CURVE
62
8
6
HIDDEN
10
13.5045689644
20
5.9486150921
0
VERTEX
8
_CURVE
62
8
6
HIDDEN
10
13.9753481375
20
5.6388214643
0
VERTEX
8
_CURVE
62
8
6
HIDDEN
10
14.4801895245
20
5.3647719449
0
VERTEX
8
_CURVE
62
8
6
HIDDEN
10
15.0147859965
20
5.1288046279
0
VERTEX
8
_CURVE
62
8
6
HIDDEN
10
15.5745765651
20
4.9329327031
0
VERTEX
8
_CURVE
62
8
6
HIDDEN
10
16.1547852943
20
4.7788272808
0
VERTEX
8
_CURVE
62
8
6
HIDDEN
10
16.7504620480
20
4.6678031342
0
VERTEX
8
_CURVE
62
8
6
HIDDEN
10
17.3565247221
20
4.6008074819
0
VERTEX
8
_CURVE
62
8
6
HIDDEN
10
17.9678026035
20
4.5784119075
0
VERTEX
8
_CURVE
62
8
6
HIDDEN
10
18.5790804850
20
4.6008074819
0
VERTEX
8
_CURVE
62
8
6
HIDDEN
10
19.1851431591
20
4.6678031342
0
VERTEX
8
_CURVE
62
8
6
HIDDEN
10
19.7808199128
20
4.7788272808
0
VERTEX
8
_CURVE
62
8
6
HIDDEN
10
20.3610286420
20
4.9329327031
0
VERTEX
8
_CURVE
62
8
6
HIDDEN
10
20.9208192106
20
5.1288046279
0
VERTEX
8
_CURVE
62
8
6
HIDDEN
10
21.4554156826
20
5.3647719449
0
VERTEX
8
_CURVE
62
8
6
HIDDEN
10
21.9602570696
20
5.6388214643
0
VERTEX
8
_CURVE
62
8
6
HIDDEN
10
22.4310362427
20
5.9486150921
0
VERTEX
8
_CURVE
62
8
6
HIDDEN
10
22.8637366801
20
6.2915097783
0
VERTEX
8
_CURVE
62
8
6
HIDDEN
10
23.2546667343
20
6.6645800665
0
VERTEX
8
_CURVE
62
8
6
HIDDEN
10
23.6004911278
20
7.0646430524
0
VERTEX
8
_CURVE
62
8
6
HIDDEN
10
23.8982594088
20
7.4882855397
0
VERTEX
8
_CURVE
62
8
6
HIDDEN
10
24.1454311234
20
7.9318931600
0
VERTEX
8
_CURVE
62
8
6
HIDDEN
10
24.3398974896
20
8.3916812096
0
VERTEX
8
_CURVE
62
8
6
HIDDEN
10
24.4799993890
20
8.8637269390
0
VERTEX
8
_CURVE
62
8
6
HIDDEN
10
24.5645415215
20
9.3440030203
0
VERTEX
8
_CURVE
62
8
6
HIDDEN
10
24.5928026035
20
9.8284119075
0
SEQEND
0
POLYLINE
8
_CURVE
62
4
6
CONTINUOUS
66
1
70
0
0
VERTEX
8
_CURVE
62
4
6
CONTINUOUS
10
11.5928026035
20
9.8284119075
0
VERTEX
8
_CURVE
62
4
6
CONTINUOUS
10
11.5971690933
20
9.6438976729
0
VERTEX
8
_CURVE
62
4
6
CONTINUOUS
10
11.6102496712
20
9.4596108195
0
VERTEX
8
_CURVE
62
4
6
CONTINUOUS
10
11.6320160004
20
9.2757828466
0
VERTEX
8
_CURVE
62
4
6
CONTINUOUS
10
11.6624397440
20
9.0926452530
0
VERTEX
8
_CURVE
62
4
6
CONTINUOUS
10
11.7014925649
20
8.9104295381
0
VERTEX
8
_CURVE
62
4
6
CONTINUOUS
10
11.7491461264
20
8.7293672008
0
VERTEX
8
_CURVE
62
4
6
CONTINUOUS
10
11.8053720915
20
8.5496897402
0
VERTEX
8
_CURVE
62
4
6
CONTINUOUS
10
11.8701300053
20
8.3716299821
0
VERTEX
8
_CURVE
62
4
6
CONTINUOUS
10
11.9433309419
20
8.1954260590
0
VERTEX
8
_CURVE
62
4
6
CONTINUOUS
10
12.0248738571
20
8.0213174303
0
VERTEX
8
_CURVE
62
4
6
CONTINUOUS
10
12.1146577070
20
7.8495435550
0
VERTEX
8
_CURVE
62
4
6
CONTINUOUS
10
12.2125814477
20
7.6803438925
0
VERTEX
8
_CURVE
62
4
6
CONTINUOUS
10
12.3185440351
20
7.5139579020
0
VERTEX
8
_CURVE
62
4
6
CONTINUOUS
10
12.4324444252
20
7.3506250428
0
VERTEX
8
_CURVE
62
4
6
CONTINUOUS
10
12.5541669172
20
7.1905822681
0
VERTEX
8
_CURVE
62
4
6
CONTINUOUS
10
12.6835371819
20
7.0340565082
0
VERTEX
8
_CURVE
62
4
6
CONTINUOUS
10
12.8203662334
20
6.8812721871
0
VERTEX
8
_CURVE
62
4
6
CONTINUOUS
10
12.9644650857
20
6.7324537291
0
VERTEX
8
_CURVE
62
4
6
CONTINUOUS
10
13.1156447528
20
6.5878255583
0
VERTEX
8
_CURVE
62
4
6
CONTINUOUS
10
13.2737162488
20
6.4476120990
0
VERTEX
8
_CURVE
62
4
6
CONTINUOUS
10
13.4384905877
20
6.3120377754
0
VERTEX
8
_CURVE
62
4
6
CONTINUOUS
10
13.6097659503
20
6.1813192843
0
VERTEX
8
_CURVE
62
4
6
CONTINUOUS
10
13.7872891854
20
6.0556424136
0
VERTEX
8
_CURVE
62
4
6
CONTINUOUS
10
13.9707943086
20
5.9351852236
0
VERTEX
8
_CURVE
62
4
6
CONTINUOUS
10
14.1600153353
20
5.8201257748
0
VERTEX
8
_CURVE
62
4
6
CONTINUOUS
10
14.3546862813
20
5.7106421277
0
VERTEX
8
_CURVE
62
4
6
CONTINUOUS
10
14.5545411620
20
5.6069123427
0
VERTEX
8
_CURVE
62
4
6
CONTINUOUS
10
14.7593139931
20
5.5091144803
0
VERTEX
8
_CURVE
62
4
6
CONTINUOUS
10
14.9687299541
20
5.4174157228
0
VERTEX
8
_CURVE
62
4
6
CONTINUOUS
10
15.1824788811
20
5.3319397394
0
VERTEX
8
_CURVE
62
4
6
CONTINUOUS
10
15.4002417738
20
5.2527993215
0
VERTEX
8
_CURVE
62
4
6
CONTINUOUS
10
15.6216996323
20
5.1801072604
0
VERTEX
8
_CURVE
62
4
6
CONTINUOUS
10
15.8465334564
20
5.1139763471
0
VERTEX
8
_CURVE
62
4
6
CONTINUOUS
10
16.0744242462
20
5.0545193729
0
VERTEX
8
_CURVE
62
4
6
CONTINUOUS
10
16.3050530014
20
5.0018491290
0
VERTEX
8
_CURVE
62
4
6
CONTINUOUS
10
16.5380962944
20
4.9560660206
0
VERTEX
8
_CURVE
62
4
6
CONTINUOUS
10
16.7732129864
20
4.9172209085
0
VERTEX
8
_CURVE
62
4
6
CONTINUOUS
10
17.0100575109
20
4.8853522674
0
VERTEX
8
_CURVE
62
4
6
CONTINUOUS
10
17.2482843013
20
4.8604985720
0
VERTEX
8
_CURVE
62
4
6
CONTINUOUS
10
17.4875477912
20
4.8426982971
0
VERTEX
8
_CURVE
62
4
6
CONTINUOUS
10
17.7275024141
20
4.8319899174
0
VERTEX
8
_CURVE
62
4
6
CONTINUOUS
10
17.9678026035
20
4.8284119075
0
VERTEX
8
_CURVE
62
4
6
CONTINUOUS
10
18.2081027930
20
4.8319899174
0
VERTEX
8
_CURVE
62
4
6
CONTINUOUS
10
18.4480574159
20
4.8426982971
0
VERTEX
8
_CURVE
62
4
6
CONTINUOUS
10
18.6873209058
20
4.8604985720
0
VERTEX
8
_CURVE
62
4
6
CONTINUOUS
10
18.9255476962
20
4.8853522674
0
VERTEX
8
_CURVE
62
4
6
CONTINUOUS
10
19.1623922207
20
4.9172209085
0
VERTEX
8
_CURVE
62
4
6
CONTINUOUS
10
19.3975089127
20
4.9560660206
0
VERTEX
8
_CURVE
62
4
6
CONTINUOUS
10
19.6305522057
20
5.0018491290
0
VERTEX
8
_CURVE
62
4
6
CONTINUOUS
10
19.8611809609
20
5.0545193729
0
VERTEX
8
_CURVE
62
4
6
CONTINUOUS
10
20.0890717507
20
5.1139763471
0
VERTEX
8
_CURVE
62
4
6
CONTINUOUS
10
20.3139055748
20
5.1801072604
0
VERTEX
8
_CURVE
62
4
6
CONTINUOUS
10
20.5353634333
20
5.2527993215
0
VERTEX
8
_CURVE
62
4
6
CONTINUOUS
10
20.7531263260
20
5.3319397394
0
VERTEX
8
_CURVE
62
4
6
CONTINUOUS
10
20.9668752530
20
5.4174157228
0
VERTEX
8
_CURVE
62
4
6
CONTINUOUS
10
21.1762912140
20
5.5091144803
0
VERTEX
8
_CURVE
62
4
6
CONTINUOUS
10
21.3810640451
20
5.6069123427
0
VERTEX
8
_CURVE
62
4
6
CONTINUOUS
10
21.5809189258
20
5.7106421277
0
VERTEX
8
_CURVE
62
4
6
CONTINUOUS
10
21.7755898718
20
5.8201257748
0
VERTEX
8
_CURVE
62
4
6
CONTINUOUS
10
21.9648108985
20
5.9351852236
0
VERTEX
8
_CURVE
62
4
6
CONTINUOUS
10
22.1483160217
20
6.0556424136
0
VERTEX
8
_CURVE
62
4
6
CONTINUOUS
10
22.3258392568
20
6.1813192843
0
VERTEX
8
_CURVE
62
4
6
CONTINUOUS
10
22.4971146194
20
6.3120377754
0
VERTEX
8
_CURVE
62
4
6
CONTINUOUS
10
22.6618889583
20
6.4476120990
0
VERTEX
8
_CURVE
62
4
6
CONTINUOUS
10
22.8199604543
20
6.5878255583
0
VERTEX
8
_CURVE
62
4
6
CONTINUOUS
10
22.9711401214
20
6.7324537291
0
VERTEX
8
_CURVE
62
4
6
CONTINUOUS
10
23.1152389737
20
6.8812721871
0
VERTEX
8
_CURVE
62
4
6
CONTINUOUS
10
23.2520680252
20
7.0340565082
0
VERTEX
8
_CURVE
62
4
6
CONTINUOUS
10
23.3814382899
20
7.1905822681
0
VERTEX
8
_CURVE
62
4
6
CONTINUOUS
10
23.5031607819
20
7.3506250428
0
VERTEX
8
_CURVE
62
4
6
CONTINUOUS
10
23.6170611720
20
7.5139579020
0
VERTEX
8
_CURVE
62
4
6
CONTINUOUS
10
23.7230237594
20
7.6803438925
0
VERTEX
8
_CURVE
62
4
6
CONTINUOUS
10
23.8209475001
20
7.8495435550
0
VERTEX
8
_CURVE
62
4
6
CONTINUOUS
10
23.9107313500
20
8.0213174303
0
VERTEX
8
_CURVE
62
4
6
CONTINUOUS
10
23.9922742652
20
8.1954260590
0
VERTEX
8
_CURVE
62
4
6
CONTINUOUS
10
24.0654752018
20
8.3716299821
0
VERTEX
8
_CURVE
62
4
6
CONTINUOUS
10
24.1302331156
20
8.5496897402
0
VERTEX
8
_CURVE
62
4
6
CONTINUOUS
10
24.1864590807
20
8.7293672008
0
VERTEX
8
_CURVE
62
4
6
CONTINUOUS
10
24.2341126422
20
8.9104295381
0
VERTEX
8
_CURVE
62
4
6
CONTINUOUS
10
24.2731654631
20
9.0926452530
0
VERTEX
8
_CURVE
62
4
6
CONTINUOUS
10
24.3035892067
20
9.2757828466
0
VERTEX
8
_CURVE
62
4
6
CONTINUOUS
10
24.3253555359
20
9.4596108195
0
VERTEX
8
_CURVE
62
4
6
CONTINUOUS
10
24.3384361138
20
9.6438976729
0
VERTEX
8
_CURVE
62
4
6
CONTINUOUS
10
24.3428026035
20
9.8284119075
0
SEQEND
0
POLYLINE
8
_CURVE
62
4
6
CONTINUOUS
66
1
70
0
0
VERTEX
8
_CURVE
62
4
6
CONTINUOUS
10
12.4053026035
20
9.8284119075
0
VERTEX
8
_CURVE
62
4
6
CONTINUOUS
10
12.4087396637
20
9.6823220941
0
VERTEX
8
_CURVE
62
4
6
CONTINUOUS
10
12.4190689765
20
9.5362489223
0
VERTEX
8
_CURVE
62
4
6
CONTINUOUS
10
12.4363177409
20
9.3903022695
0
VERTEX
8
_CURVE
62
4
6
CONTINUOUS
10
12.4605131554
20
9.2445920133
0
VERTEX
8
_CURVE
62
4
6
CONTINUOUS
10
12.4916824188
20
9.0992280310
0
VERTEX
8
_CURVE
62
4
6
CONTINUOUS
10
12.5298527298
20
8.9543202003
0
VERTEX
8
_CURVE
62
4
6
CONTINUOUS
10
12.5750512872
20
8.8099783986
0
VERTEX
8
_CURVE
62
4
6
CONTINUOUS
10
12.6273012300
20
8.6663254033
0
VERTEX
8
_CURVE
62
4
6
CONTINUOUS
10
12.6866094595
20
8.5235355909
0
VERTEX
8
_CURVE
62
4
6
CONTINUOUS
10
12.7529788172
20
8.3817962381
0
VERTEX
8
_CURVE
62
4
6
CONTINUOUS
10
12.8264121446
20
8.2412946212
0
VERTEX
8
_CURVE
62
4
6
CONTINUOUS
10
12.9069122833
20
8.1022180169
0
VERTEX
8
_CURVE
62
4
6
CONTINUOUS
10
12.9944820748
20
7.9647537016
0
VERTEX
8
_CURVE
62
4
6
CONTINUOUS
10
13.0891243607
20
7.8290889519
0
VERTEX
8
_CURVE
62
4
6
CONTINUOUS
10
13.1908222338
20
7.6954206068
0
VERTEX
8
_CURVE
62
4
6
CONTINUOUS
10
13.2994797920
20
7.5639837559
0
VERTEX
8
_CURVE
62
4
6
CONTINUOUS
10
13.4149813842
20
7.4350230514
0
VERTEX
8
_CURVE
62
4
6
CONTINUOUS
10
13.5372113596
20
7.3087831456
0
VERTEX
8
_CURVE
62
4
6
CONTINUOUS
10
13.6660540673
20
7.1855086906
0
VERTEX
8
_CURVE
62
4
6
CONTINUOUS
10
13.8013938562
20
7.0654443385
0
VERTEX
8
_CURVE
62
4
6
CONTINUOUS
10
13.9431150755
20
6.9488347417
0
VERTEX
8
_CURVE
62
4
6
CONTINUOUS
10
14.0910823119
20
6.8359190275
0
VERTEX
8
_CURVE
62
4
6
CONTINUOUS
10
14.2450811027
20
6.7269142249
0
VERTEX
8
_CURVE
62
4
6
CONTINUOUS
10
14.4048772226
20
6.6220318380
0
VERTEX
8
_CURVE
62
4
6
CONTINUOUS
10
14.5702364466
20
6.5214833710
0
VERTEX
8
_CURVE
62
4
6
CONTINUOUS
10
14.7409245496
20
6.4254803280
0
VERTEX
8
_CURVE
62
4
6
CONTINUOUS
10
14.9167073064
20
6.3342342132
0
VERTEX
8
_CURVE
62
4
6
CONTINUOUS
10
15.0973504919
20
6.2479565308
0
VERTEX
8
_CURVE
62
4
6
CONTINUOUS
10
15.3139108105
20
6.1538412007
0
VERTEX
8
_CURVE
62
4
6
CONTINUOUS
10
15.5362722131
20
6.0669937064
0
VERTEX
8
_CURVE
62
4
6
CONTINUOUS
10
15.7639390065
20
5.9876314143
0
VERTEX
8
_CURVE
62
4
6
CONTINUOUS
10
15.9964154974
20
5.9159716909
0
VERTEX
8
_CURVE
62
4
6
CONTINUOUS
10
16.2332059928
20
5.8522319028
0
VERTEX
8
_CURVE
62
4
6
CONTINUOUS
10
16.4738147994
20
5.7966294166
0
VERTEX
8
_CURVE
62
4
6
CONTINUOUS
10
16.7177365447
20
5.7493577170
0
VERTEX
8
_CURVE
62
4
6
CONTINUOUS
10
16.9644271384
20
5.7105147618
0
VERTEX
8
_CURVE
62
4
6
CONTINUOUS
10
17.2133328108
20
5.6801746272
0
VERTEX
8
_CURVE
62
4
6
CONTINUOUS
10
17.4638997923
20
5.6584113892
0
VERTEX
8
_CURVE
62
4
6
CONTINUOUS
10
17.7155743131
20
5.6452991239
0
VERTEX
8
_CURVE
62
4
6
CONTINUOUS
10
17.9678026035
20
5.6409119075
0
VERTEX
8
_CURVE
62
4
6
CONTINUOUS
10
18.2200308940
20
5.6452991239
0
VERTEX
8
_CURVE
62
4
6
CONTINUOUS
10
18.4717054148
20
5.6584113892
0
VERTEX
8
_CURVE
62
4
6
CONTINUOUS
10
18.7222723963
20
5.6801746272
0
VERTEX
8
_CURVE
62
4
6
CONTINUOUS
10
18.9711780687
20
5.7105147618
0
VERTEX
8
_CURVE
62
4
6
CONTINUOUS
10
19.2178686624
20
5.7493577170
0
VERTEX
8
_CURVE
62
4
6
CONTINUOUS
10
19.4617904077
20
5.7966294166
0
VERTEX
8
_CURVE
62
4
6
CONTINUOUS
10
19.7023992143
20
5.8522319028
0
VERTEX
8
_CURVE
62
4
6
CONTINUOUS
10
19.9391897096
20
5.9159716909
0
VERTEX
8
_CURVE
62
4
6
CONTINUOUS
10
20.1716662006
20
5.9876314143
0
VERTEX
8
_CURVE
62
4
6
CONTINUOUS
10
20.3993329940
20
6.0669937064
0
VERTEX
8
_CURVE
62
4
6
CONTINUOUS
10
20.6216943965
20
6.1538412007
0
VERTEX
8
_CURVE
62
4
6
CONTINUOUS
10
20.8382547152
20
6.2479565308
0
VERTEX
8
_CURVE
62
4
6
CONTINUOUS
10
21.0188979007
20
6.3342342132
0
VERTEX
8
_CURVE
62
4
6
CONTINUOUS
10
21.1946806575
20
6.4254803280
0
VERTEX
8
_CURVE
62
4
6
CONTINUOUS
10
21.3653687605
20
6.5214833710
0
VERTEX
8
_CURVE
62
4
6
CONTINUOUS
10
21.5307279845
20
6.6220318380
0
VERTEX
8
_CURVE
62
4
6
CONTINUOUS
10
21.6905241044
20
6.7269142249
0
VERTEX
8
_CURVE
62
4
6
CONTINUOUS
10
21.8445228952
20
6.8359190275
0
VERTEX
8
_CURVE
62
4
6
CONTINUOUS
10
21.9924901316
20
6.9488347417
0
VERTEX
8
_CURVE
62
4
6
CONTINUOUS
10
22.1342113509
20
7.0654443385
0
VERTEX
8
_CURVE
62
4
6
CONTINUOUS
10
22.2695511398
20
7.1855086906
0
VERTEX
8
_CURVE
62
4
6
CONTINUOUS
10
22.3983938475
20
7.3087831456
0
VERTEX
8
_CURVE
62
4
6
CONTINUOUS
10
22.5206238229
20
7.4350230514
0
VERTEX
8
_CURVE
62
4
6
CONTINUOUS
10
22.6361254151
20
7.5639837559
0
VERTEX
8
_CURVE
62
4
6
CONTINUOUS
10
22.7447829732
20
7.6954206068
0
VERTEX
8
_CURVE
62
4
6
CONTINUOUS
10
22.8464808464
20
7.8290889519
0
VERTEX
8
_CURVE
62
4
6
CONTINUOUS
10
22.9411231323
20
7.9647537016
0
VERTEX
8
_CURVE
62
4
6
CONTINUOUS
10
23.0286929238
20
8.1022180169
0
VERTEX
8
_CURVE
62
4
6
CONTINUOUS
10
23.1091930625
20
8.2412946212
0
VERTEX
8
_CURVE
62
4
6
CONTINUOUS
10
23.1826263899
20
8.3817962381
0
VERTEX
8
_CURVE
62
4
6
CONTINUOUS
10
23.2489957476
20
8.5235355909
0
VERTEX
8
_CURVE
62
4
6
CONTINUOUS
10
23.3083039771
20
8.6663254033
0
VERTEX
8
_CURVE
62
4
6
CONTINUOUS
10
23.3605539199
20
8.8099783986
0
VERTEX
8
_CURVE
62
4
6
CONTINUOUS
10
23.4057524773
20
8.9543202003
0
VERTEX
8
_CURVE
62
4
6
CONTINUOUS
10
23.4439227883
20
9.0992280310
0
VERTEX
8
_CURVE
62
4
6
CONTINUOUS
10
23.4750920517
20
9.2445920133
0
VERTEX
8
_CURVE
62
4
6
CONTINUOUS
10
23.4992874662
20
9.3903022695
0
VERTEX
8
_CURVE
62
4
6
CONTINUOUS
10
23.5165362306
20
9.5362489223
0
VERTEX
8
_CURVE
62
4
6
CONTINUOUS
10
23.5268655434
20
9.6823220941
0
VERTEX
8
_CURVE
62
4
6
CONTINUOUS
10
23.5303026035
20
9.8284119075
0
SEQEND
0
LINE
8
_CURVE
62
2
6
CENTER
10
17.9678026035
20
4.8284119075
11
17.9678026035
21
3.8284119075
0
LINE
8
_CURVE
62
2
6
CENTER
10
17.9678026035
20
14.8284119075
11
17.9678026035
21
15.8284119075
0
LINE
8
_CURVE
62
2
6
CENTER
10
11.5928026035
20
9.8284119075
11
10.5928026035
21
9.8284119075
0
LINE
8
_CURVE
62
2
6
CENTER
10
24.3428026035
20
9.8284119075
11
25.3428026035
21
9.8284119075
0
POLYLINE
8
_CURVE
62
4
6
CONTINUOUS
66
1
70
0
0
VERTEX
8
_CURVE
62
4
6
CONTINUOUS
10
23.5303026035
20
9.8284119075
0
VERTEX
8
_CURVE
62
4
6
CONTINUOUS
10
23.5268655434
20
9.9745017209
0
VERTEX
8
_CURVE
62
4
6
CONTINUOUS
10
23.5165362306
20
10.1205748927
0
VERTEX
8
_CURVE
62
4
6
CONTINUOUS
10
23.4992874662
20
10.2665215455
0
VERTEX
8
_CURVE
62
4
6
CONTINUOUS
10
23.4750920517
20
10.4122318017
0
VERTEX
8
_CURVE
62
4
6
CONTINUOUS
10
23.4439227883
20
10.5575957840
0
VERTEX
8
_CURVE
62
4
6
CONTINUOUS
10
23.4057524773
20
10.7025036147
0
VERTEX
8
_CURVE
62
4
6
CONTINUOUS
10
23.3605539199
20
10.8468454164
0
VERTEX
8
_CURVE
62
4
6
CONTINUOUS
10
23.3083039771
20
10.9904984117
0
VERTEX
8
_CURVE
62
4
6
CONTINUOUS
10
23.2489957476
20
11.1332882241
0
VERTEX
8
_CURVE
62
4
6
CONTINUOUS
10
23.1826263899
20
11.2750275769
0
VERTEX
8
_CURVE
62
4
6
CONTINUOUS
10
23.1091930625
20
11.4155291938
0
VERTEX
8
_CURVE
62
4
6
CONTINUOUS
10
23.0286929238
20
11.5546057981
0
VERTEX
8
_CURVE
62
4
6
CONTINUOUS
10
22.9411231323
20
11.6920701134
0
VERTEX
8
_CURVE
62
4
6
CONTINUOUS
10
22.8464808464
20
11.8277348631
0
VERTEX
8
_CURVE
62
4
6
CONTINUOUS
10
22.7447829732
20
11.9614032082
0
VERTEX
8
_CURVE
62
4
6
CONTINUOUS
10
22.6361254151
20
12.0928400591
0
VERTEX
8
_CURVE
62
4
6
CONTINUOUS
10
22.5206238229
20
12.2218007635
0
VERTEX
8
_CURVE
62
4
6
CONTINUOUS
10
22.3983938475
20
12.3480406694
0
VERTEX
8
_CURVE
62
4
6
CONTINUOUS
10
22.2695511398
20
12.4713151244
0
VERTEX
8
_CURVE
62
4
6
CONTINUOUS
10
22.1342113509
20
12.5913794765
0
VERTEX
8
_CURVE
62
4
6
CONTINUOUS
10
21.9924901316
20
12.7079890733
0
VERTEX
8
_CURVE
62
4
6
CONTINUOUS
10
21.8445228952
20
12.8209047874
0
VERTEX
8
_CURVE
62
4
6
CONTINUOUS
10
21.6905241044
20
12.9299095901
0
VERTEX
8
_CURVE
62
4
6
CONTINUOUS
10
21.5307279845
20
13.0347919769
0
VERTEX
8
_CURVE
62
4
6
CONTINUOUS
10
21.3653687605
20
13.1353404440
0
VERTEX
8
_CURVE
62
4
6
CONTINUOUS
10
21.1946806575
20
13.2313434870
0
VERTEX
8
_CURVE
62
4
6
CONTINUOUS
10
21.0188979007
20
13.3225896018
0
VERTEX
8
_CURVE
62
4
6
CONTINUOUS
10
20.8382547152
20
13.4088672842
0
VERTEX
8
_CURVE
62
4
6
CONTINUOUS
10
20.6216943965
20
13.5029826143
0
VERTEX
8
_CURVE
62
4
6
CONTINUOUS
10
20.3993329940
20
13.5898301086
0
VERTEX
8
_CURVE
62
4
6
CONTINUOUS
10
20.1716662006
20
13.6691924007
0
VERTEX
8
_CURVE
62
4
6
CONTINUOUS
10
19.9391897096
20
13.7408521241
0
VERTEX
8
_CURVE
62
4
6
CONTINUOUS
10
19.7023992143
20
13.8045919121
0
VERTEX
8
_CURVE
62
4
6
CONTINUOUS
10
19.4617904077
20
13.8601943984
0
VERTEX
8
_CURVE
62
4
6
CONTINUOUS
10
19.2178686624
20
13.9074660980
0
VERTEX
8
_CURVE
62
4
6
CONTINUOUS
10
18.9711780687
20
13.9463090532
0
VERTEX
8
_CURVE
62
4
6
CONTINUOUS
10
18.7222723963
20
13.9766491878
0
VERTEX
8
_CURVE
62
4
6
CONTINUOUS
10
18.4717054148
20
13.9984124258
0
VERTEX
8
_CURVE
62
4
6
CONTINUOUS
10
18.2200308940
20
14.0115246911
0
VERTEX
8
_CURVE
62
4
6
CONTINUOUS
10
17.9678026035
20
14.0159119075
0
VERTEX
8
_CURVE
62
4
6
CONTINUOUS
10
17.7155743131
20
14.0115246911
0
VERTEX
8
_CURVE
62
4
6
CONTINUOUS
10
17.4638997923
20
13.9984124258
0
VERTEX
8
_CURVE
62
4
6
CONTINUOUS
10
17.2133328108
20
13.9766491878
0
VERTEX
8
_CURVE
62
4
6
CONTINUOUS
10
16.9644271384
20
13.9463090532
0
VERTEX
8
_CURVE
62
4
6
CONTINUOUS
10
16.7177365447
20
13.9074660980
0
VERTEX
8
_CURVE
62
4
6
CONTINUOUS
10
16.4738147994
20
13.8601943984
0
VERTEX
8
_CURVE
62
4
6
CONTINUOUS
10
16.2332059928
20
13.8045919121
0
VERTEX
8
_CURVE
62
4
6
CONTINUOUS
10
15.9964154974
20
13.7408521241
0
VERTEX
8
_CURVE
62
4
6
CONTINUOUS
10
15.7639390065
20
13.6691924007
0
VERTEX
8
_CURVE
62
4
6
CONTINUOUS
10
15.5362722131
20
13.5898301086
0
VERTEX
8
_CURVE
62
4
6
CONTINUOUS
10
15.3139108105
20
13.5029826143
0
VERTEX
8
_CURVE
62
4
6
CONTINUOUS
10
15.0973504919
20
13.4088672842
0
VERTEX
8
_CURVE
62
4
6
CONTINUOUS
10
14.9167073064
20
13.3225896018
0
VERTEX
8
_CURVE
62
4
6
CONTINUOUS
10
14.7409245496
20
13.2313434870
0
VERTEX
8
_CURVE
62
4
6
CONTINUOUS
10
14.5702364466
20
13.1353404440
0
VERTEX
8
_CURVE
62
4
6
CONTINUOUS
10
14.4048772226
20
13.0347919769
0
VERTEX
8
_CURVE
62
4
6
CONTINUOUS
10
14.2450811027
20
12.9299095901
0
VERTEX
8
_CURVE
62
4
6
CONTINUOUS
10
14.0910823119
20
12.8209047874
0
VERTEX
8
_CURVE
62
4
6
CONTINUOUS
10
13.9431150755
20
12.7079890733
0
VERTEX
8
_CURVE
62
4
6
CONTINUOUS
10
13.8013938562
20
12.5913794765
0
VERTEX
8
_CURVE
62
4
6
CONTINUOUS
10
13.6660540673
20
12.4713151244
0
VERTEX
8
_CURVE
62
4
6
CONTINUOUS
10
13.5372113596
20
12.3480406694
0
VERTEX
8
_CURVE
62
4
6
CONTINUOUS
10
13.4149813842
20
12.2218007635
0
VERTEX
8
_CURVE
62
4
6
CONTINUOUS
10
13.2994797920
20
12.0928400591
0
VERTEX
8
_CURVE
62
4
6
CONTINUOUS
10
13.1908222338
20
11.9614032082
0
VERTEX
8
_CURVE
62
4
6
CONTINUOUS
10
13.0891243607
20
11.8277348631
0
VERTEX
8
_CURVE
62
4
6
CONTINUOUS
10
12.9944820748
20
11.6920701134
0
VERTEX
8
_CURVE
62
4
6
CONTINUOUS
10
12.9069122833
20
11.5546057981
0
VERTEX
8
_CURVE
62
4
6
CONTINUOUS
10
12.8264121446
20
11.4155291938
0
VERTEX
8
_CURVE
62
4
6
CONTINUOUS
10
12.7529788172
20
11.2750275769
0
VERTEX
8
_CURVE
62
4
6
CONTINUOUS
10
12.6866094595
20
11.1332882241
0
VERTEX
8
_CURVE
62
4
6
CONTINUOUS
10
12.6273012300
20
10.9904984117
0
VERTEX
8
_CURVE
62
4
6
CONTINUOUS
10
12.5750512872
20
10.8468454164
0
VERTEX
8
_CURVE
62
4
6
CONTINUOUS
10
12.5298527298
20
10.7025036147
0
VERTEX
8
_CURVE
62
4
6
CONTINUOUS
10
12.4916824188
20
10.5575957840
0
VERTEX
8
_CURVE
62
4
6
CONTINUOUS
10
12.4605131554
20
10.4122318017
0
VERTEX
8
_CURVE
62
4
6
CONTINUOUS
10
12.4363177409
20
10.2665215455
0
VERTEX
8
_CURVE
62
4
6
CONTINUOUS
10
12.4190689765
20
10.1205748927
0
VERTEX
8
_CURVE
62
4
6
CONTINUOUS
10
12.4087396637
20
9.9745017209
0
VERTEX
8
_CURVE
62
4
6
CONTINUOUS
10
12.4053026035
20
9.8284119075
0
SEQEND
0
POLYLINE
8
_CURVE
62
4
6
CONTINUOUS
66
1
70
0
0
VERTEX
8
_CURVE
62
4
6
CONTINUOUS
10
24.3428026035
20
9.8284119075
0
VERTEX
8
_CURVE
62
4
6
CONTINUOUS
10
24.3384361138
20
10.0129261421
0
VERTEX
8
_CURVE
62
4
6
CONTINUOUS
10
24.3253555359
20
10.1972129955
0
VERTEX
8
_CURVE
62
4
6
CONTINUOUS
10
24.3035892067
20
10.3810409684
0
VERTEX
8
_CURVE
62
4
6
CONTINUOUS
10
24.2731654631
20
10.5641785619
0
VERTEX
8
_CURVE
62
4
6
CONTINUOUS
10
24.2341126422
20
10.7463942769
0
VERTEX
8
_CURVE
62
4
6
CONTINUOUS
10
24.1864590807
20
10.9274566142
0
VERTEX
8
_CURVE
62
4
6
CONTINUOUS
10
24.1302331156
20
11.1071340748
0
VERTEX
8
_CURVE
62
4
6
CONTINUOUS
10
24.0654752018
20
11.2851938329
0
VERTEX
8
_CURVE
62
4
6
CONTINUOUS
10
23.9922742652
20
11.4613977560
0
VERTEX
8
_CURVE
62
4
6
CONTINUOUS
10
23.9107313500
20
11.6355063847
0
VERTEX
8
_CURVE
62
4
6
CONTINUOUS
10
23.8209475001
20
11.8072802600
0
VERTEX
8
_CURVE
62
4
6
CONTINUOUS
10
23.7230237594
20
11.9764799225
0
VERTEX
8
_CURVE
62
4
6
CONTINUOUS
10
23.6170611720
20
12.1428659130
0
VERTEX
8
_CURVE
62
4
6
CONTINUOUS
10
23.5031607819
20
12.3061987722
0
VERTEX
8
_CURVE
62
4
6
CONTINUOUS
10
23.3814382899
20
12.4662415468
0
VERTEX
8
_CURVE
62
4
6
CONTINUOUS
10
23.2520680252
20
12.6227673068
0
VERTEX
8
_CURVE
62
4
6
CONTINUOUS
10
23.1152389737
20
12.7755516279
0
VERTEX
8
_CURVE
62
4
6
CONTINUOUS
10
22.9711401214
20
12.9243700859
0
VERTEX
8
_CURVE
62
4
6
CONTINUOUS
10
22.8199604543
20
13.0689982567
0
VERTEX
8
_CURVE
62
4
6
CONTINUOUS
10
22.6618889583
20
13.2092117160
0
VERTEX
8
_CURVE
62
4
6
CONTINUOUS
10
22.4971146194
20
13.3447860396
0
VERTEX
8
_CURVE
62
4
6
CONTINUOUS
10
22.3258392568
20
13.4755045307
0
VERTEX
8
_CURVE
62
4
6
CONTINUOUS
10
22.1483160217
20
13.6011814014
0
VERTEX
8
_CURVE
62
4
6
CONTINUOUS
10
21.9648108985
20
13.7216385914
0
VERTEX
8
_CURVE
62
4
6
CONTINUOUS
10
21.7755898718
20
13.8366980402
0
VERTEX
8
_CURVE
62
4
6
CONTINUOUS
10
21.5809189258
20
13.9461816873
0
VERTEX
8
_CURVE
62
4
6
CONTINUOUS
10
21.3810640451
20
14.0499114722
0
VERTEX
8
_CURVE
62
4
6
CONTINUOUS
10
21.1762912140
20
14.1477093346
0
VERTEX
8
_CURVE
62
4
6
CONTINUOUS
10
20.9668752530
20
14.2394080922
0
VERTEX
8
_CURVE
62
4
6
CONTINUOUS
10
20.7531263260
20
14.3248840756
0
VERTEX
8
_CURVE
62
4
6
CONTINUOUS
10
20.5353634333
20
14.4040244934
0
VERTEX
8
_CURVE
62
4
6
CONTINUOUS
10
20.3139055748
20
14.4767165546
0
VERTEX
8
_CURVE
62
4
6
CONTINUOUS
10
20.0890717507
20
14.5428474679
0
VERTEX
8
_CURVE
62
4
6
CONTINUOUS
10
19.8611809609
20
14.6023044421
0
VERTEX
8
_CURVE
62
4
6
CONTINUOUS
10
19.6305522057
20
14.6549746860
0
VERTEX
8
_CURVE
62
4
6
CONTINUOUS
10
19.3975089127
20
14.7007577943
0
VERTEX
8
_CURVE
62
4
6
CONTINUOUS
10
19.1623922207
20
14.7396029065
0
VERTEX
8
_CURVE
62
4
6
CONTINUOUS
10
18.9255476962
20
14.7714715476
0
VERTEX
8
_CURVE
62
4
6
CONTINUOUS
10
18.6873209058
20
14.7963252429
0
VERTEX
8
_CURVE
62
4
6
CONTINUOUS
10
18.4480574159
20
14.8141255179
0
VERTEX
8
_CURVE
62
4
6
CONTINUOUS
10
18.2081027930
20
14.8248338976
0
VERTEX
8
_CURVE
62
4
6
CONTINUOUS
10
17.9678026035
20
14.8284119075
0
VERTEX
8
_CURVE
62
4
6
CONTINUOUS
10
17.7275024141
20
14.8248338976
0
VERTEX
8
_CURVE
62
4
6
CONTINUOUS
10
17.4875477912
20
14.8141255179
0
VERTEX
8
_CURVE
62
4
6
CONTINUOUS
10
17.2482843013
20
14.7963252429
0
VERTEX
8
_CURVE
62
4
6
CONTINUOUS
10
17.0100575109
20
14.7714715476
0
VERTEX
8
_CURVE
62
4
6
CONTINUOUS
10
16.7732129864
20
14.7396029065
0
VERTEX
8
_CURVE
62
4
6
CONTINUOUS
10
16.5380962944
20
14.7007577943
0
VERTEX
8
_CURVE
62
4
6
CONTINUOUS
10
16.3050530014
20
14.6549746860
0
VERTEX
8
_CURVE
62
4
6
CONTINUOUS
10
16.0744242462
20
14.6023044421
0
VERTEX
8
_CURVE
62
4
6
CONTINUOUS
10
15.8465334564
20
14.5428474679
0
VERTEX
8
_CURVE
62
4
6
CONTINUOUS
10
15.6216996323
20
14.4767165546
0
VERTEX
8
_CURVE
62
4
6
CONTINUOUS
10
15.4002417738
20
14.4040244934
0
VERTEX
8
_CURVE
62
4
6
CONTINUOUS
10
15.1824788811
20
14.3248840756
0
VERTEX
8
_CURVE
62
4
6
CONTINUOUS
10
14.9687299541
20
14.2394080922
0
VERTEX
8
_CURVE
62
4
6
CONTINUOUS
10
14.7593139931
20
14.1477093346
0
VERTEX
8
_CURVE
62
4
6
CONTINUOUS
10
14.5545411620
20
14.0499114722
0
VERTEX
8
_CURVE
62
4
6
CONTINUOUS
10
14.3546862813
20
13.9461816873
0
VERTEX
8
_CURVE
62
4
6
CONTINUOUS
10
14.1600153353
20
13.8366980402
0
VERTEX
8
_CURVE
62
4
6
CONTINUOUS
10
13.9707943086
20
13.7216385914
0
VERTEX
8
_CURVE
62
4
6
CONTINUOUS
10
13.7872891854
20
13.6011814014
0
VERTEX
8
_CURVE
62
4
6
CONTINUOUS
10
13.6097659503
20
13.4755045307
0
VERTEX
8
_CURVE
62
4
6
CONTINUOUS
10
13.4384905877
20
13.3447860396
0
VERTEX
8
_CURVE
62
4
6
CONTINUOUS
10
13.2737162488
20
13.2092117160
0
VERTEX
8
_CURVE
62
4
6
CONTINUOUS
10
13.1156447528
20
13.0689982567
0
VERTEX
8
_CURVE
62
4
6
CONTINUOUS
10
12.9644650857
20
12.9243700859
0
VERTEX
8
_CURVE
62
4
6
CONTINUOUS
10
12.8203662334
20
12.7755516279
0
VERTEX
8
_CURVE
62
4
6
CONTINUOUS
10
12.6835371819
20
12.6227673068
0
VERTEX
8
_CURVE
62
4
6
CONTINUOUS
10
12.5541669172
20
12.4662415468
0
VERTEX
8
_CURVE
62
4
6
CONTINUOUS
10
12.4324444252
20
12.3061987722
0
VERTEX
8
_CURVE
62
4
6
CONTINUOUS
10
12.3185440351
20
12.1428659130
0
VERTEX
8
_CURVE
62
4
6
CONTINUOUS
10
12.2125814477
20
11.9764799225
0
VERTEX
8
_CURVE
62
4
6
CONTINUOUS
10
12.1146577070
20
11.8072802600
0
VERTEX
8
_CURVE
62
4
6
CONTINUOUS
10
12.0248738571
20
11.6355063847
0
VERTEX
8
_CURVE
62
4
6
CONTINUOUS
10
11.9433309419
20
11.4613977560
0
VERTEX
8
_CURVE
62
4
6
CONTINUOUS
10
11.8701300053
20
11.2851938329
0
VERTEX
8
_CURVE
62
4
6
CONTINUOUS
10
11.8053720915
20
11.1071340748
0
VERTEX
8
_CURVE
62
4
6
CONTINUOUS
10
11.7491461264
20
10.9274566142
0
VERTEX
8
_CURVE
62
4
6
CONTINUOUS
10
11.7014925649
20
10.7463942769
0
VERTEX
8
_CURVE
62
4
6
CONTINUOUS
10
11.6624397440
20
10.5641785619
0
VERTEX
8
_CURVE
62
4
6
CONTINUOUS
10
11.6320160004
20
10.3810409684
0
VERTEX
8
_CURVE
62
4
6
CONTINUOUS
10
11.6102496712
20
10.1972129955
0
VERTEX
8
_CURVE
62
4
6
CONTINUOUS
10
11.5971690933
20
10.0129261421
0
VERTEX
8
_CURVE
62
4
6
CONTINUOUS
10
11.5928026035
20
9.8284119075
0
SEQEND
0
POLYLINE
8
_CURVE
62
8
6
HIDDEN
66
1
70
0
0
VERTEX
8
_CURVE
62
8
6
HIDDEN
10
24.5928026035
20
9.8284119075
0
VERTEX
8
_CURVE
62
8
6
HIDDEN
10
24.5645415215
20
10.3128207947
0
VERTEX
8
_CURVE
62
8
6
HIDDEN
10
24.4799993890
20
10.7930968760
0
VERTEX
8
_CURVE
62
8
6
HIDDEN
10
24.3398974896
20
11.2651426054
0
VERTEX
8
_CURVE
62
8
6
HIDDEN
10
24.1454311234
20
11.7249306550
0
VERTEX
8
_CURVE
62
8
6
HIDDEN
10
23.8982594088
20
12.1685382753
0
VERTEX
8
_CURVE
62
8
6
HIDDEN
10
23.6004911278
20
12.5921807626
0
VERTEX
8
_CURVE
62
8
6
HIDDEN
10
23.2546667343
20
12.9922437485
0
VERTEX
8
_CURVE
62
8
6
HIDDEN
10
22.8637366801
20
13.3653140366
0
VERTEX
8
_CURVE
62
8
6
HIDDEN
10
22.4310362427
20
13.7082087229
0
VERTEX
8
_CURVE
62
8
6
HIDDEN
10
21.9602570696
20
14.0180023507
0
VERTEX
8
_CURVE
62
8
6
HIDDEN
10
21.4554156826
20
14.2920518701
0
VERTEX
8
_CURVE
62
8
6
HIDDEN
10
20.9208192106
20
14.5280191871
0
VERTEX
8
_CURVE
62
8
6
HIDDEN
10
20.3610286420
20
14.7238911119
0
VERTEX
8
_CURVE
62
8
6
HIDDEN
10
19.7808199128
20
14.8779965342
0
VERTEX
8
_CURVE
62
8
6
HIDDEN
10
19.1851431591
20
14.9890206808
0
VERTEX
8
_CURVE
62
8
6
HIDDEN
10
18.5790804850
20
15.0560163330
0
VERTEX
8
_CURVE
62
8
6
HIDDEN
10
17.9678026035
20
15.0784119075
0
VERTEX
8
_CURVE
62
8
6
HIDDEN
10
17.3565247221
20
15.0560163330
0
VERTEX
8
_CURVE
62
8
6
HIDDEN
10
16.7504620480
20
14.9890206808
0
VERTEX
8
_CURVE
62
8
6
HIDDEN
10
16.1547852943
20
14.8779965342
0
VERTEX
8
_CURVE
62
8
6
HIDDEN
10
15.5745765651
20
14.7238911119
0
VERTEX
8
_CURVE
62
8
6
HIDDEN
10
15.0147859965
20
14.5280191871
0
VERTEX
8
_CURVE
62
8
6
HIDDEN
10
14.4801895245
20
14.2920518701
0
VERTEX
8
_CURVE
62
8
6
HIDDEN
10
13.9753481375
20
14.0180023507
0
VERTEX
8
_CURVE
62
8
6
HIDDEN
10
13.5045689644
20
13.7082087229
0
VERTEX
8
_CURVE
62
8
6
HIDDEN
10
13.0718685270
20
13.3653140366
0
VERTEX
8
_CURVE
62
8
6
HIDDEN
10
12.6809384728
20
12.9922437485
0
VERTEX
8
_CURVE
62
8
6
HIDDEN
10
12.3351140793
20
12.5921807626
0
VERTEX
8
_CURVE
62
8
6
HIDDEN
10
12.0373457983
20
12.1685382753
0
VERTEX
8
_CURVE
62
8
6
HIDDEN
10
11.7901740837
20
11.7249306550
0
VERTEX
8
_CURVE
62
8
6
HIDDEN
10
11.5957077175
20
11.2651426054
0
VERTEX
8
_CURVE
62
8
6
HIDDEN
10
11.4556058181
20
10.7930968760
0
VERTEX
8
_CURVE
62
8
6
HIDDEN
10
11.3710636856
20
10.3128207947
0
VERTEX
8
_CURVE
62
8
6
HIDDEN
10
11.3428026035
20
9.8284119075
0
SEQEND
0
ENDSEC
0
EOF
