999
DXF file: 1033115-7.dxf
999
Pro/ENGINEER 2005030 by Parametric Technology Corporation
0
SECTION
2
HEADER
9
$EXTMAX
10
34.0000000000
20
22.0000000000
30
0.0000000000
9
$EXTMIN
10
0.0000000000
20
0.0000000000
30
0.0000000000
9
$LIMMIN
10
0.0000000000
20
0.0000000000
9
$LIMMAX
10
34.0000000000
20
22.0000000000
9
$VIEWCTR
10
17.0000000000
20
11.0000000000
9
$VIEWSIZE
40
22.0000000000
9
$CLAYER
8
0
9
$LTSCALE
40
1.8700000000
9
$CELTYPE
6
BYLAYER
9
$DIMSCALE
40
1
9
$DIMASZ
40
0.1875000000
9
$DIMEXO
40
0.2125000000
9
$DIMDLI
40
1.2920000000
9
$DIMEXE
40
0.6120000000
9
$DIMCEN
40
0.3060000000
9
$DIMLFAC
40
1.0000000000
9
$DIMBLK
1
_FILLED
9
$DIMTXT
40
0.1562500000
9
$PDMODE
70
3
9
$PDSIZE
40
0.3125000000
0
ENDSEC
0
SECTION
2
TABLES
0
TABLE
2
LTYPE
70
6
0
LTYPE
2
BYBLOCK
70
0
3

72
65
73
0
40
0.0
0
LTYPE
2
BYLAYER
70
0
3

72
65
73
0
40
0.0
0
LTYPE
2
CONTINUOUS
70
64
3
Solid line
72
65
73
0
40
0
0
LTYPE
2
CENTER
70
64
3
____ _ ____ _ ____ _ ____ _ ____ _ ____ _ ____
72
65
73
4
40
0.6
49
0.375
49
-0.075
49
0.075
49
-0.075
0
LTYPE
2
HIDDEN
70
64
3
- - - - - - - - - - - - - - - - - - - -
72
65
73
2
40
0.2
49
0.1
49
-0.1
0
LTYPE
2
PHANTOM
70
64
3
_____ _ _ _____ _ _ _____ _ _ _____
72
65
73
6
40
0.8
49
0.45
49
-0.05
49
0.1
49
-0.05
49
0.1
49
-0.05
0
LTYPE
2
DOT
70
64
3
. . . . . . . . . . . . . . . . . . . .
72
65
73
2
40
0.2
49
0.1
49
-0.1
0
LTYPE
2
DASHED
70
64
3
- - - - - - - - - - - - - - - - - - - -
72
65
73
2
40
0.2
49
0.1
49
-0.1
0
ENDTAB
0
TABLE
2
LAYER
70
36
0
LAYER
2
0
70
0
62
7
6
CONTINUOUS
0
LAYER
2
DEFAULT_1
70
0
62
7
6
CENTER
0
LAYER
2
DEFAULT_2
70
0
62
8
6
HIDDEN
0
LAYER
2
DEFAULT_3
70
0
62
7
6
PHANTOM
0
LAYER
2
_2D_DELETED_OBJS
70
0
62
7
6
CONTINUOUS
0
LAYER
2
DATUMS
70
0
62
7
6
CONTINUOUS
0
LAYER
2
DATUM_AXIS
70
0
62
7
6
CONTINUOUS
0
LAYER
2
DATUM_CSYS
70
0
62
7
6
CONTINUOUS
0
LAYER
2
DATUM_PLANE
70
0
62
7
6
CONTINUOUS
0
LAYER
2
DATUM_POINT
70
0
62
7
6
CONTINUOUS
0
LAYER
2
_CURVE
70
0
62
7
6
CONTINUOUS
0
LAYER
2
_SURFACE
70
0
62
7
6
CONTINUOUS
0
LAYER
2
__REF_CURVE
70
0
62
7
6
CONTINUOUS
0
LAYER
2
__REF_SURFACE
70
0
62
7
6
CONTINUOUS
0
LAYER
2
___NOTE
70
0
62
7
6
CONTINUOUS
0
LAYER
2
___SYMBOL
70
0
62
7
6
CONTINUOUS
0
ENDTAB
0
TABLE
2
STYLE
70
1
0
STYLE
2
STANDARD
70
0
40
0.0
41
0.8000000000
50
0.0
71
0
42
0.2
3
txt
4

0
ENDTAB
0
ENDSEC
0
SECTION
2
BLOCKS
0
BLOCK
8
0
62
2
6
CONTINUOUS
2
*D0
70
65
10
0.0000000000
20
0.0000000000
0
TEXT
8
0
62
2
6
CONTINUOUS
10
16.1415943743
20
13.5613663249
7
STANDARD
40
0.1562500000
1
%%c
41
1.3333333333
72
0
0
TEXT
8
0
62
2
6
CONTINUOUS
10
17.0999277077
20
13.5613663249
7
STANDARD
40
0.1562500000
1
"
41
0.8000000000
72
0
0
TEXT
8
0
62
2
6
CONTINUOUS
10
16.2457610410
20
13.3269913249
7
STANDARD
40
0.1562500000
1
[32 cm]
41
0.8000000000
72
0
0
TEXT
8
0
62
2
6
CONTINUOUS
10
16.3499277077
20
13.5613663249
7
STANDARD
40
0.1562500000
1
12-3/4
41
0.8000000000
72
0
0
LINE
8
0
62
2
6
CONTINUOUS
10
14.4080986132
20
16.1461822765
11
16.5414429485
21
13.7957413249
0
LINE
8
0
62
2
6
CONTINUOUS
10
22.9771523765
20
6.7051114897
11
17.0378062724
21
13.2488663249
0
INSERT
8
0
62
2
6
CONTINUOUS
2
_FILLED
10
14.4080986132
20
16.1461822765
41
  0.187500
42
  0.187500
43
  0.187500
50
132.228009
0
INSERT
8
0
62
2
6
CONTINUOUS
2
_FILLED
10
22.9771523765
20
6.7051114897
41
  0.187500
42
  0.187500
43
  0.187500
50
312.228009
0
ENDBLK
8
0
6
BYBLOCK
62
0
0
BLOCK
8
0
62
2
6
CONTINUOUS
2
*D1
70
65
10
0.0000000000
20
0.0000000000
0
TEXT
8
0
62
2
6
CONTINUOUS
10
20.0631243428
20
13.5915319401
7
STANDARD
40
0.1562500000
1
%%c
41
1.3333333333
72
0
0
TEXT
8
0
62
2
6
CONTINUOUS
10
21.0214576761
20
13.5915319401
7
STANDARD
40
0.1562500000
1
"
41
0.8000000000
72
0
0
TEXT
8
0
62
2
6
CONTINUOUS
10
20.1672910095
20
13.3571569401
7
STANDARD
40
0.1562500000
1
[29 cm]
41
0.8000000000
72
0
0
TEXT
8
0
62
2
6
CONTINUOUS
10
20.2714576761
20
13.5915319401
7
STANDARD
40
0.1562500000
1
11-3/8
41
0.8000000000
72
0
0
LINE
8
0
62
2
6
CONTINUOUS
10
22.3814507229
20
15.7546449990
11
20.7379347361
21
13.8259069401
0
LINE
8
0
62
2
6
CONTINUOUS
10
15.0038002668
20
7.0966487673
11
20.2719316928
21
13.2790319401
0
INSERT
8
0
62
2
6
CONTINUOUS
2
_FILLED
10
22.3814507229
20
15.7546449990
41
  0.187500
42
  0.187500
43
  0.187500
50
 49.565024
0
INSERT
8
0
62
2
6
CONTINUOUS
2
_FILLED
10
15.0038002668
20
7.0966487673
41
  0.187500
42
  0.187500
43
  0.187500
50
229.565024
0
ENDBLK
8
0
6
BYBLOCK
62
0
0
BLOCK
8
0
62
2
6
CONTINUOUS
2
SKU_SINK_STERLING_BL0
70
64
10
8.4648680911
20
18.5368840003
0
TEXT
8
0
62
2
6
CONTINUOUS
10
3.7613544370
20
20.1379772864
7
STANDARD
40
0.2500000000
1
CUT-OUT TEMPLATE
41
0.8000000000
72
0
0
TEXT
8
0
62
2
6
CONTINUOUS
10
3.7613544370
20
19.7629772864
7
STANDARD
40
0.2500000000
1
SELF-RIMMING/UNDERCOUNTER SINK
41
0.8000000000
72
0
0
TEXT
8
0
62
2
6
CONTINUOUS
10
3.7613544370
20
19.3879772864
7
STANDARD
40
0.2500000000
1
PLANTILLA DE RECORTE
41
0.8000000000
72
0
0
TEXT
8
0
62
2
6
CONTINUOUS
10
3.7613544370
20
19.0129772864
7
STANDARD
40
0.2500000000
1
FREGADERO CON BORDE TERMINADO/MONTADO
41
0.8000000000
72
0
0
TEXT
8
0
62
2
6
CONTINUOUS
10
3.7613544370
20
18.6379772864
7
STANDARD
40
0.2500000000
1
  DEBAJO DEL MONTRADOR
41
0.8000000000
72
0
0
TEXT
8
0
62
2
6
CONTINUOUS
10
3.7613544370
20
18.2629772864
7
STANDARD
40
0.2500000000
1
PLAN DE DÉCOUPE
41
0.8000000000
72
0
0
TEXT
8
0
62
2
6
CONTINUOUS
10
3.7613544370
20
17.8879772864
7
STANDARD
40
0.2500000000
1
ÉVIER À REBORD INTÉGRÉ /SOUS-COMPTOIR
41
0.8000000000
72
0
0
TEXT
8
0
62
2
6
CONTINUOUS
10
3.7613544370
20
17.5129772864
7
STANDARD
40
0.2500000000
1
13.625" X 13.625" SINGLE BOWL SINK
41
0.8000000000
72
0
0
TEXT
8
0
62
2
6
CONTINUOUS
10
10.5613544370
20
17.5129772864
7
STANDARD
40
0.2500000000
1
   
41
0.8000000000
72
0
0
TEXT
8
0
62
2
6
CONTINUOUS
10
11.1613544370
20
17.5129772864
7
STANDARD
40
0.2500000000
1
131
41
0.8000000000
72
0
0
TEXT
8
0
62
2
6
CONTINUOUS
10
11.7613544370
20
17.5129772864
7
STANDARD
40
0.2500000000
1
-**-
41
0.8000000000
72
0
0
TEXT
8
0
62
2
6
CONTINUOUS
10
12.5613544370
20
17.5129772864
7
STANDARD
40
0.2500000000
1
AB
41
0.8000000000
72
0
0
TEXT
8
0
62
2
6
CONTINUOUS
10
3.7652454413
20
16.6966042127
7
STANDARD
40
0.2500000000
1
13.625" X 13.625" SINGLE BOWL SINK
41
0.8000000000
72
0
0
TEXT
8
0
62
2
6
CONTINUOUS
10
10.5652454413
20
16.6966042127
7
STANDARD
40
0.2500000000
1
   
41
0.8000000000
72
0
0
TEXT
8
0
62
2
6
CONTINUOUS
10
11.1652454413
20
16.6966042127
7
STANDARD
40
0.2500000000
1
141
41
0.8000000000
72
0
0
TEXT
8
0
62
2
6
CONTINUOUS
10
11.7652454413
20
16.6966042127
7
STANDARD
40
0.2500000000
1
-**-
41
0.8000000000
72
0
0
TEXT
8
0
62
2
6
CONTINUOUS
10
12.5652454413
20
16.6966042127
7
STANDARD
40
0.2500000000
1
AB
41
0.8000000000
72
0
0
TEXT
8
0
62
2
6
CONTINUOUS
10
3.7683817451
20
15.8040793880
7
STANDARD
40
0.2500000000
1
13.625" X 13.625" SINGLE BOWL SINK
41
0.8000000000
72
0
0
TEXT
8
0
62
2
6
CONTINUOUS
10
10.5683817451
20
15.8040793880
7
STANDARD
40
0.2500000000
1
   
41
0.8000000000
72
0
0
TEXT
8
0
62
2
6
CONTINUOUS
10
11.1683817451
20
15.8040793880
7
STANDARD
40
0.2500000000
1
1411
41
0.8000000000
72
0
0
TEXT
8
0
62
2
6
CONTINUOUS
10
11.9683817451
20
15.8040793880
7
STANDARD
40
0.2500000000
1
-**-
41
0.8000000000
72
0
0
TEXT
8
0
62
2
6
CONTINUOUS
10
12.7683817451
20
15.8040793880
7
STANDARD
40
0.2500000000
1
AB
41
0.8000000000
72
0
0
POLYLINE
8
0
62
2
6
CONTINUOUS
66
1
70
0
0
VERTEX
8
0
62
2
6
CONTINUOUS
10
3.7810829905
20
20.6329219459
0
VERTEX
8
0
62
2
6
CONTINUOUS
10
3.7810829905
20
21.2652594459
0
VERTEX
8
0
62
2
6
CONTINUOUS
10
3.9714532683
20
21.2652594459
0
VERTEX
8
0
62
2
6
CONTINUOUS
10
4.7941610461
20
21.2652594459
0
VERTEX
8
0
62
2
6
CONTINUOUS
10
5.6168688239
20
21.2652594459
0
VERTEX
8
0
62
2
6
CONTINUOUS
10
6.4395766016
20
21.2652594459
0
VERTEX
8
0
62
2
6
CONTINUOUS
10
7.2622843794
20
21.2652594459
0
VERTEX
8
0
62
2
6
CONTINUOUS
10
7.2622843794
20
20.6329219459
0
VERTEX
8
0
62
2
6
CONTINUOUS
10
7.0719141016
20
20.6329219459
0
VERTEX
8
0
62
2
6
CONTINUOUS
10
6.2492063239
20
20.6329219459
0
VERTEX
8
0
62
2
6
CONTINUOUS
10
5.4264985461
20
20.6329219459
0
VERTEX
8
0
62
2
6
CONTINUOUS
10
4.6037907683
20
20.6329219459
0
VERTEX
8
0
62
2
6
CONTINUOUS
10
3.7810829905
20
20.6329219459
0
SEQEND
0
LINE
8
0
62
2
6
CONTINUOUS
10
5.9145399350
20
20.5446650014
11
5.9503274350
21
20.5446650014
0
LINE
8
0
62
2
6
CONTINUOUS
10
5.9503274350
20
20.5446650014
11
5.9325524350
21
20.5888538903
0
LINE
8
0
62
2
6
CONTINUOUS
10
5.9325524350
20
20.5888538903
11
5.9145399350
21
20.5446650014
0
POLYLINE
8
0
62
2
6
CONTINUOUS
66
1
70
0
0
VERTEX
8
0
62
2
6
CONTINUOUS
10
5.9325524350
20
20.6097413903
0
VERTEX
8
0
62
2
6
CONTINUOUS
10
5.9350734536
20
20.6035011049
0
VERTEX
8
0
62
2
6
CONTINUOUS
10
5.9483956140
20
20.5705247186
0
VERTEX
8
0
62
2
6
CONTINUOUS
10
5.9617177745
20
20.5375483322
0
VERTEX
8
0
62
2
6
CONTINUOUS
10
5.9750399350
20
20.5045719459
0
VERTEX
8
0
62
2
6
CONTINUOUS
10
5.9667927127
20
20.5045719459
0
VERTEX
8
0
62
2
6
CONTINUOUS
10
5.9540843794
20
20.5369205570
0
VERTEX
8
0
62
2
6
CONTINUOUS
10
5.9469723151
20
20.5369295836
0
VERTEX
8
0
62
2
6
CONTINUOUS
10
5.9114066016
20
20.5369747237
0
VERTEX
8
0
62
2
6
CONTINUOUS
10
5.8976468794
20
20.5045719459
0
VERTEX
8
0
62
2
6
CONTINUOUS
10
5.8898204905
20
20.5045719459
0
VERTEX
8
0
62
2
6
CONTINUOUS
10
5.8915223954
20
20.5087550811
0
VERTEX
8
0
62
2
6
CONTINUOUS
10
5.9049254642
20
20.5416986656
0
VERTEX
8
0
62
2
6
CONTINUOUS
10
5.9183285329
20
20.5746422502
0
VERTEX
8
0
62
2
6
CONTINUOUS
10
5.9317316016
20
20.6075858348
0
VERTEX
8
0
62
2
6
CONTINUOUS
10
5.9325524350
20
20.6097413903
0
SEQEND
0
LINE
8
0
62
2
6
CONTINUOUS
10
7.0219149350
20
20.5446650014
11
7.0577079905
21
20.5446650014
0
LINE
8
0
62
2
6
CONTINUOUS
10
7.0577079905
20
20.5446650014
11
7.0399399350
21
20.5889080570
0
LINE
8
0
62
2
6
CONTINUOUS
10
7.0399399350
20
20.5889080570
11
7.0219149350
21
20.5446650014
0
POLYLINE
8
0
62
2
6
CONTINUOUS
66
1
70
0
0
VERTEX
8
0
62
2
6
CONTINUOUS
10
7.0399399350
20
20.6097413903
0
VERTEX
8
0
62
2
6
CONTINUOUS
10
7.0424857082
20
20.6034408595
0
VERTEX
8
0
62
2
6
CONTINUOUS
10
7.0558019320
20
20.5704845549
0
VERTEX
8
0
62
2
6
CONTINUOUS
10
7.0691181557
20
20.5375282504
0
VERTEX
8
0
62
2
6
CONTINUOUS
10
7.0824343794
20
20.5045719459
0
VERTEX
8
0
62
2
6
CONTINUOUS
10
7.0744857683
20
20.5045719459
0
VERTEX
8
0
62
2
6
CONTINUOUS
10
7.0614524350
20
20.5369205570
0
VERTEX
8
0
62
2
6
CONTINUOUS
10
7.0543528605
20
20.5369295748
0
VERTEX
8
0
62
2
6
CONTINUOUS
10
7.0188079905
20
20.5369747237
0
VERTEX
8
0
62
2
6
CONTINUOUS
10
7.0050149350
20
20.5045719459
0
VERTEX
8
0
62
2
6
CONTINUOUS
10
6.9972024350
20
20.5045719459
0
VERTEX
8
0
62
2
6
CONTINUOUS
10
6.9989229818
20
20.5088037059
0
VERTEX
8
0
62
2
6
CONTINUOUS
10
7.0123105773
20
20.5417310822
0
VERTEX
8
0
62
2
6
CONTINUOUS
10
7.0256981728
20
20.5746584585
0
VERTEX
8
0
62
2
6
CONTINUOUS
10
7.0390857683
20
20.6075858348
0
VERTEX
8
0
62
2
6
CONTINUOUS
10
7.0399399350
20
20.6097413903
0
SEQEND
0
LINE
8
0
62
2
6
CONTINUOUS
10
6.9725704905
20
20.5972372237
11
6.9725704905
21
20.5590427792
0
POLYLINE
8
0
62
2
6
CONTINUOUS
66
1
70
0
0
VERTEX
8
0
62
2
6
CONTINUOUS
10
6.9725704905
20
20.5590427792
0
VERTEX
8
0
62
2
6
CONTINUOUS
10
6.9830149350
20
20.5590427792
0
VERTEX
8
0
62
2
6
CONTINUOUS
10
6.9834884831
20
20.5590441863
0
VERTEX
8
0
62
2
6
CONTINUOUS
10
6.9860115211
20
20.5591106202
0
VERTEX
8
0
62
2
6
CONTINUOUS
10
6.9881365055
20
20.5592728098
0
VERTEX
8
0
62
2
6
CONTINUOUS
10
6.9899988314
20
20.5595280991
0
VERTEX
8
0
62
2
6
CONTINUOUS
10
6.9916737888
20
20.5598761668
0
VERTEX
8
0
62
2
6
CONTINUOUS
10
6.9932094237
20
20.5603188374
0
VERTEX
8
0
62
2
6
CONTINUOUS
10
6.9946392854
20
20.5608601780
0
VERTEX
8
0
62
2
6
CONTINUOUS
10
6.9959882917
20
20.5615066873
0
VERTEX
8
0
62
2
6
CONTINUOUS
10
6.9972757485
20
20.5622675048
0
VERTEX
8
0
62
2
6
CONTINUOUS
10
6.9985170407
20
20.5631546168
0
VERTEX
8
0
62
2
6
CONTINUOUS
10
6.9991247152
20
20.5636503998
0
VERTEX
8
0
62
2
6
CONTINUOUS
10
6.9997246572
20
20.5641830570
0
VERTEX
8
0
62
2
6
CONTINUOUS
10
7.0008193143
20
20.5652733874
0
VERTEX
8
0
62
2
6
CONTINUOUS
10
7.0018598687
20
20.5664863534
0
VERTEX
8
0
62
2
6
CONTINUOUS
10
7.0027752457
20
20.5677527076
0
VERTEX
8
0
62
2
6
CONTINUOUS
10
7.0035687600
20
20.5690734991
0
VERTEX
8
0
62
2
6
CONTINUOUS
10
7.0042425735
20
20.5704505692
0
VERTEX
8
0
62
2
6
CONTINUOUS
10
7.0047971906
20
20.5718852675
0
VERTEX
8
0
62
2
6
CONTINUOUS
10
7.0052317723
20
20.5733776647
0
VERTEX
8
0
62
2
6
CONTINUOUS
10
7.0055455586
20
20.5749309358
0
VERTEX
8
0
62
2
6
CONTINUOUS
10
7.0057364506
20
20.5765486145
0
VERTEX
8
0
62
2
6
CONTINUOUS
10
7.0058010461
20
20.5782344459
0
VERTEX
8
0
62
2
6
CONTINUOUS
10
7.0057357578
20
20.5799030403
0
VERTEX
8
0
62
2
6
CONTINUOUS
10
7.0055410429
20
20.5815451818
0
VERTEX
8
0
62
2
6
CONTINUOUS
10
7.0052190985
20
20.5831519185
0
VERTEX
8
0
62
2
6
CONTINUOUS
10
7.0047729184
20
20.5847135399
0
VERTEX
8
0
62
2
6
CONTINUOUS
10
7.0042064755
20
20.5862197527
0
VERTEX
8
0
62
2
6
CONTINUOUS
10
7.0035248502
20
20.5876599395
0
VERTEX
8
0
62
2
6
CONTINUOUS
10
7.0027515908
20
20.5889962788
0
VERTEX
8
0
62
2
6
CONTINUOUS
10
7.0018641247
20
20.5902712732
0
VERTEX
8
0
62
2
6
CONTINUOUS
10
7.0008859214
20
20.5914481499
0
VERTEX
8
0
62
2
6
CONTINUOUS
10
6.9998261659
20
20.5925194053
0
VERTEX
8
0
62
2
6
CONTINUOUS
10
6.9986941016
20
20.5934788903
0
VERTEX
8
0
62
2
6
CONTINUOUS
10
6.9975919813
20
20.5942508029
0
VERTEX
8
0
62
2
6
CONTINUOUS
10
6.9963951823
20
20.5949319595
0
VERTEX
8
0
62
2
6
CONTINUOUS
10
6.9950936482
20
20.5955249233
0
VERTEX
8
0
62
2
6
CONTINUOUS
10
6.9936744970
20
20.5960307333
0
VERTEX
8
0
62
2
6
CONTINUOUS
10
6.9921209782
20
20.5964491559
0
VERTEX
8
0
62
2
6
CONTINUOUS
10
6.9904101499
20
20.5967790739
0
VERTEX
8
0
62
2
6
CONTINUOUS
10
6.9885073348
20
20.5970191089
0
VERTEX
8
0
62
2
6
CONTINUOUS
10
6.9863507305
20
20.5971688048
0
VERTEX
8
0
62
2
6
CONTINUOUS
10
6.9837942715
20
20.5972319898
0
VERTEX
8
0
62
2
6
CONTINUOUS
10
6.9819968794
20
20.5972372237
0
VERTEX
8
0
62
2
6
CONTINUOUS
10
6.9725704905
20
20.5972372237
0
SEQEND
0
LINE
8
0
62
2
6
CONTINUOUS
10
6.9725704905
20
20.5513247237
11
6.9725704905
21
20.5045719459
0
LINE
8
0
62
2
6
CONTINUOUS
10
6.9725704905
20
20.5045719459
11
6.9644468794
21
20.5045719459
0
LINE
8
0
62
2
6
CONTINUOUS
10
6.9644468794
20
20.5045719459
11
6.9644468794
21
20.6049677792
0
LINE
8
0
62
2
6
CONTINUOUS
10
6.9644468794
20
20.6049677792
11
6.9827566016
21
20.6049677792
0
ARC
8
0
62
2
6
CONTINUOUS
10
6.9872552251
20
20.5781462514
40
0.0271961756
50
260.4787245939
51
99.5212754061
0
LINE
8
0
62
2
6
CONTINUOUS
10
6.9827566016
20
20.5513247237
11
6.9725704905
21
20.5513247237
0
LINE
8
0
62
2
6
CONTINUOUS
10
6.8385107683
20
20.5045719459
11
6.8464718794
21
20.5045719459
0
LINE
8
0
62
2
6
CONTINUOUS
10
6.8464718794
20
20.5045719459
11
6.8628843794
21
20.5842705570
0
LINE
8
0
62
2
6
CONTINUOUS
10
6.8628843794
20
20.5842705570
11
6.8970232683
21
20.4997427792
0
LINE
8
0
62
2
6
CONTINUOUS
10
6.8970232683
20
20.4997427792
11
6.9312843794
21
20.5842705570
0
LINE
8
0
62
2
6
CONTINUOUS
10
6.9312843794
20
20.5842705570
11
6.9477635461
21
20.5045719459
0
LINE
8
0
62
2
6
CONTINUOUS
10
6.9477635461
20
20.5045719459
11
6.9556579905
21
20.5045719459
0
LINE
8
0
62
2
6
CONTINUOUS
10
6.9556579905
20
20.5045719459
11
6.9336441016
21
20.6104469459
0
LINE
8
0
62
2
6
CONTINUOUS
10
6.9336441016
20
20.6104469459
11
6.8970232683
21
20.5200886125
0
LINE
8
0
62
2
6
CONTINUOUS
10
6.8970232683
20
20.5200886125
11
6.8605510461
21
20.6104469459
0
LINE
8
0
62
2
6
CONTINUOUS
10
6.8605510461
20
20.6104469459
11
6.8385107683
21
20.5045719459
0
CIRCLE
8
0
62
2
6
CONTINUOUS
10
6.7876343112
20
20.5547288903
40
0.0437959350
0
CIRCLE
8
0
62
2
6
CONTINUOUS
10
6.7880657493
20
20.5547295848
40
0.0514756023
0
LINE
8
0
62
2
6
CONTINUOUS
10
6.5517274350
20
20.5762538903
11
6.5517274350
21
20.5524913903
0
POLYLINE
8
0
62
2
6
CONTINUOUS
66
1
70
0
0
VERTEX
8
0
62
2
6
CONTINUOUS
10
6.5517274350
20
20.5524913903
0
VERTEX
8
0
62
2
6
CONTINUOUS
10
6.5612760461
20
20.5524913903
0
VERTEX
8
0
62
2
6
CONTINUOUS
10
6.5625114224
20
20.5525553702
0
VERTEX
8
0
62
2
6
CONTINUOUS
10
6.5637271099
20
20.5527463515
0
VERTEX
8
0
62
2
6
CONTINUOUS
10
6.5649148414
20
20.5530626236
0
VERTEX
8
0
62
2
6
CONTINUOUS
10
6.5660649665
20
20.5535017441
0
VERTEX
8
0
62
2
6
CONTINUOUS
10
6.5671665663
20
20.5540600802
0
VERTEX
8
0
62
2
6
CONTINUOUS
10
6.5682077598
20
20.5547324161
0
VERTEX
8
0
62
2
6
CONTINUOUS
10
6.5691761976
20
20.5555117110
0
VERTEX
8
0
62
2
6
CONTINUOUS
10
6.5692228418
20
20.5555536508
0
VERTEX
8
0
62
2
6
CONTINUOUS
10
6.5701008129
20
20.5564346598
0
VERTEX
8
0
62
2
6
CONTINUOUS
10
6.5708796918
20
20.5573991036
0
VERTEX
8
0
62
2
6
CONTINUOUS
10
6.5715509848
20
20.5584350612
0
VERTEX
8
0
62
2
6
CONTINUOUS
10
6.5721080783
20
20.5595307220
0
VERTEX
8
0
62
2
6
CONTINUOUS
10
6.5725461169
20
20.5606749549
0
VERTEX
8
0
62
2
6
CONTINUOUS
10
6.5728616855
20
20.5618577197
0
VERTEX
8
0
62
2
6
CONTINUOUS
10
6.5730523766
20
20.5630702867
0
VERTEX
8
0
62
2
6
CONTINUOUS
10
6.5731163239
20
20.5643052792
0
VERTEX
8
0
62
2
6
CONTINUOUS
10
6.5730523766
20
20.5655485879
0
VERTEX
8
0
62
2
6
CONTINUOUS
10
6.5728615560
20
20.5667713033
0
VERTEX
8
0
62
2
6
CONTINUOUS
10
6.5725456096
20
20.5679655810
0
VERTEX
8
0
62
2
6
CONTINUOUS
10
6.5721069412
20
20.5691221673
0
VERTEX
8
0
62
2
6
CONTINUOUS
10
6.5715490862
20
20.5702304724
0
VERTEX
8
0
62
2
6
CONTINUOUS
10
6.5708771389
20
20.5712788332
0
VERTEX
8
0
62
2
6
CONTINUOUS
10
6.5700980459
20
20.5722549733
0
VERTEX
8
0
62
2
6
CONTINUOUS
10
6.5700209645
20
20.5723410698
0
VERTEX
8
0
62
2
6
CONTINUOUS
10
6.5691352372
20
20.5732241322
0
VERTEX
8
0
62
2
6
CONTINUOUS
10
6.5681665555
20
20.5740075409
0
VERTEX
8
0
62
2
6
CONTINUOUS
10
6.5671273216
20
20.5746825795
0
VERTEX
8
0
62
2
6
CONTINUOUS
10
6.5660299294
20
20.5752424835
0
VERTEX
8
0
62
2
6
CONTINUOUS
10
6.5648861388
20
20.5756823625
0
VERTEX
8
0
62
2
6
CONTINUOUS
10
6.5637066086
20
20.5759989013
0
VERTEX
8
0
62
2
6
CONTINUOUS
10
6.5625006282
20
20.5761899210
0
VERTEX
8
0
62
2
6
CONTINUOUS
10
6.5612760461
20
20.5762538903
0
VERTEX
8
0
62
2
6
CONTINUOUS
10
6.5517274350
20
20.5762538903
0
SEQEND
0
LINE
8
0
62
2
6
CONTINUOUS
10
6.5810107683
20
20.5307761125
11
6.6161260461
21
20.4813913903
0
LINE
8
0
62
2
6
CONTINUOUS
10
6.6161260461
20
20.4813913903
11
6.5793010461
21
20.4814594459
0
LINE
8
0
62
2
6
CONTINUOUS
10
6.5793010461
20
20.4814594459
11
6.5517816016
21
20.5193150014
0
LINE
8
0
62
2
6
CONTINUOUS
10
6.5517816016
20
20.5193150014
11
6.5517816016
21
20.4815413903
0
LINE
8
0
62
2
6
CONTINUOUS
10
6.5517816016
20
20.4815413903
11
6.5187954905
21
20.4815413903
0
LINE
8
0
62
2
6
CONTINUOUS
10
6.5187954905
20
20.4815413903
11
6.5187954905
21
20.6048316681
0
POLYLINE
8
0
62
2
6
CONTINUOUS
66
1
70
0
0
VERTEX
8
0
62
2
6
CONTINUOUS
10
6.5187954905
20
20.6048316681
0
VERTEX
8
0
62
2
6
CONTINUOUS
10
6.5610718794
20
20.6048316681
0
VERTEX
8
0
62
2
6
CONTINUOUS
10
6.5630493466
20
20.6047873565
0
VERTEX
8
0
62
2
6
CONTINUOUS
10
6.5650114010
20
20.6046548338
0
VERTEX
8
0
62
2
6
CONTINUOUS
10
6.5669561601
20
20.6044347140
0
VERTEX
8
0
62
2
6
CONTINUOUS
10
6.5688815516
20
20.6041276277
0
VERTEX
8
0
62
2
6
CONTINUOUS
10
6.5707853025
20
20.6037342489
0
VERTEX
8
0
62
2
6
CONTINUOUS
10
6.5726649311
20
20.6032553263
0
VERTEX
8
0
62
2
6
CONTINUOUS
10
6.5745177427
20
20.6026917148
0
VERTEX
8
0
62
2
6
CONTINUOUS
10
6.5763408301
20
20.6020444095
0
VERTEX
8
0
62
2
6
CONTINUOUS
10
6.5781310792
20
20.6013145787
0
VERTEX
8
0
62
2
6
CONTINUOUS
10
6.5798851805
20
20.6005035968
0
VERTEX
8
0
62
2
6
CONTINUOUS
10
6.5815996471
20
20.5996130753
0
VERTEX
8
0
62
2
6
CONTINUOUS
10
6.5832708395
20
20.5986448900
0
VERTEX
8
0
62
2
6
CONTINUOUS
10
6.5848949966
20
20.5976012033
0
VERTEX
8
0
62
2
6
CONTINUOUS
10
6.5864682735
20
20.5964844810
0
VERTEX
8
0
62
2
6
CONTINUOUS
10
6.5879867841
20
20.5952975008
0
VERTEX
8
0
62
2
6
CONTINUOUS
10
6.5894466495
20
20.5940433527
0
VERTEX
8
0
62
2
6
CONTINUOUS
10
6.5908440478
20
20.5927254298
0
VERTEX
8
0
62
2
6
CONTINUOUS
10
6.5921752664
20
20.5913474092
0
VERTEX
8
0
62
2
6
CONTINUOUS
10
6.5933390624
20
20.5900292406
0
VERTEX
8
0
62
2
6
CONTINUOUS
10
6.5945319775
20
20.5885488758
0
VERTEX
8
0
62
2
6
CONTINUOUS
10
6.5956482441
20
20.5870218862
0
VERTEX
8
0
62
2
6
CONTINUOUS
10
6.5966852678
20
20.5854527561
0
VERTEX
8
0
62
2
6
CONTINUOUS
10
6.5976407791
20
20.5838459934
0
VERTEX
8
0
62
2
6
CONTINUOUS
10
6.5985128416
20
20.5822060736
0
VERTEX
8
0
62
2
6
CONTINUOUS
10
6.5992998501
20
20.5805373878
0
VERTEX
8
0
62
2
6
CONTINUOUS
10
6.6000005182
20
20.5788441946
0
VERTEX
8
0
62
2
6
CONTINUOUS
10
6.6006138579
20
20.5771305780
0
VERTEX
8
0
62
2
6
CONTINUOUS
10
6.6011391520
20
20.5754004133
0
VERTEX
8
0
62
2
6
CONTINUOUS
10
6.6015759193
20
20.5736573405
0
VERTEX
8
0
62
2
6
CONTINUOUS
10
6.6019238771
20
20.5719047460
0
VERTEX
8
0
62
2
6
CONTINUOUS
10
6.6021829004
20
20.5701457524
0
VERTEX
8
0
62
2
6
CONTINUOUS
10
6.6023529797
20
20.5683832161
0
VERTEX
8
0
62
2
6
CONTINUOUS
10
6.6024341800
20
20.5666197313
0
VERTEX
8
0
62
2
6
CONTINUOUS
10
6.6024266010
20
20.5648576401
0
VERTEX
8
0
62
2
6
CONTINUOUS
10
6.6023303399
20
20.5630990484
0
VERTEX
8
0
62
2
6
CONTINUOUS
10
6.6021454573
20
20.5613458447
0
VERTEX
8
0
62
2
6
CONTINUOUS
10
6.6018719474
20
20.5595997224
0
VERTEX
8
0
62
2
6
CONTINUOUS
10
6.6015097126
20
20.5578622044
0
VERTEX
8
0
62
2
6
CONTINUOUS
10
6.6010585413
20
20.5561346687
0
VERTEX
8
0
62
2
6
CONTINUOUS
10
6.6005180916
20
20.5544183738
0
VERTEX
8
0
62
2
6
CONTINUOUS
10
6.5998878780
20
20.5527144851
0
VERTEX
8
0
62
2
6
CONTINUOUS
10
6.5991672627
20
20.5510240987
0
VERTEX
8
0
62
2
6
CONTINUOUS
10
6.5983554504
20
20.5493482658
0
VERTEX
8
0
62
2
6
CONTINUOUS
10
6.5974514862
20
20.5476880138
0
VERTEX
8
0
62
2
6
CONTINUOUS
10
6.5964542565
20
20.5460443663
0
VERTEX
8
0
62
2
6
CONTINUOUS
10
6.5953624926
20
20.5444183607
0
VERTEX
8
0
62
2
6
CONTINUOUS
10
6.5941747757
20
20.5428110637
0
VERTEX
8
0
62
2
6
CONTINUOUS
10
6.5928895440
20
20.5412235848
0
VERTEX
8
0
62
2
6
CONTINUOUS
10
6.5915051012
20
20.5396570869
0
VERTEX
8
0
62
2
6
CONTINUOUS
10
6.5900196248
20
20.5381127959
0
VERTEX
8
0
62
2
6
CONTINUOUS
10
6.5884311763
20
20.5365920073
0
VERTEX
8
0
62
2
6
CONTINUOUS
10
6.5867380479
20
20.5350963780
0
VERTEX
8
0
62
2
6
CONTINUOUS
10
6.5849384020
20
20.5336275312
0
VERTEX
8
0
62
2
6
CONTINUOUS
10
6.5830300624
20
20.5321869281
0
VERTEX
8
0
62
2
6
CONTINUOUS
10
6.5810107683
20
20.5307761125
0
SEQEND
0
POLYLINE
8
0
62
2
6
CONTINUOUS
66
1
70
0
0
VERTEX
8
0
62
2
6
CONTINUOUS
10
6.5096260461
20
20.6048316681
0
VERTEX
8
0
62
2
6
CONTINUOUS
10
6.5096260461
20
20.5763900014
0
VERTEX
8
0
62
2
6
CONTINUOUS
10
6.4757579905
20
20.5763358348
0
VERTEX
8
0
62
2
6
CONTINUOUS
10
6.4756093794
20
20.5568719459
0
VERTEX
8
0
62
2
6
CONTINUOUS
10
6.5069135461
20
20.5568719459
0
VERTEX
8
0
62
2
6
CONTINUOUS
10
6.5069135461
20
20.5292302792
0
VERTEX
8
0
62
2
6
CONTINUOUS
10
6.4757038239
20
20.5292302792
0
VERTEX
8
0
62
2
6
CONTINUOUS
10
6.4757038239
20
20.5104038903
0
VERTEX
8
0
62
2
6
CONTINUOUS
10
6.5098843794
20
20.5104038903
0
VERTEX
8
0
62
2
6
CONTINUOUS
10
6.5098843794
20
20.4814594459
0
VERTEX
8
0
62
2
6
CONTINUOUS
10
6.4926349960
20
20.4814594459
0
VERTEX
8
0
62
2
6
CONTINUOUS
10
6.4411982683
20
20.4814594459
0
VERTEX
8
0
62
2
6
CONTINUOUS
10
6.4411982683
20
20.5019582126
0
VERTEX
8
0
62
2
6
CONTINUOUS
10
6.4411982683
20
20.5533949404
0
VERTEX
8
0
62
2
6
CONTINUOUS
10
6.4411982683
20
20.6048316681
0
VERTEX
8
0
62
2
6
CONTINUOUS
10
6.4581893183
20
20.6048316681
0
VERTEX
8
0
62
2
6
CONTINUOUS
10
6.5096260461
20
20.6048316681
0
SEQEND
0
POLYLINE
8
0
62
2
6
CONTINUOUS
66
1
70
0
0
VERTEX
8
0
62
2
6
CONTINUOUS
10
6.1316691016
20
20.6047775014
0
VERTEX
8
0
62
2
6
CONTINUOUS
10
6.1231303256
20
20.5944782987
0
VERTEX
8
0
62
2
6
CONTINUOUS
10
6.0829899350
20
20.5460622237
0
VERTEX
8
0
62
2
6
CONTINUOUS
10
6.0976460873
20
20.5290451820
0
VERTEX
8
0
62
2
6
CONTINUOUS
10
6.1386885461
20
20.4813913903
0
VERTEX
8
0
62
2
6
CONTINUOUS
10
6.0940316016
20
20.4814594459
0
VERTEX
8
0
62
2
6
CONTINUOUS
10
6.0562093794
20
20.5254191681
0
VERTEX
8
0
62
2
6
CONTINUOUS
10
6.0561482683
20
20.5254191681
0
VERTEX
8
0
62
2
6
CONTINUOUS
10
6.0561482683
20
20.4814594459
0
VERTEX
8
0
62
2
6
CONTINUOUS
10
6.0224302127
20
20.4814594459
0
VERTEX
8
0
62
2
6
CONTINUOUS
10
6.0224302127
20
20.5419399574
0
VERTEX
8
0
62
2
6
CONTINUOUS
10
6.0224302127
20
20.6048316681
0
VERTEX
8
0
62
2
6
CONTINUOUS
10
6.0561482683
20
20.6048316681
0
VERTEX
8
0
62
2
6
CONTINUOUS
10
6.0561482683
20
20.5678719459
0
VERTEX
8
0
62
2
6
CONTINUOUS
10
6.0558843794
20
20.5678719459
0
VERTEX
8
0
62
2
6
CONTINUOUS
10
6.0879885461
20
20.6047775014
0
VERTEX
8
0
62
2
6
CONTINUOUS
10
6.1316691016
20
20.6047775014
0
SEQEND
0
POLYLINE
8
0
62
2
6
CONTINUOUS
66
1
70
0
0
VERTEX
8
0
62
2
6
CONTINUOUS
10
6.2495691016
20
20.4814594459
0
VERTEX
8
0
62
2
6
CONTINUOUS
10
6.2495691016
20
20.5420511125
0
VERTEX
8
0
62
2
6
CONTINUOUS
10
6.2495691016
20
20.6048316681
0
VERTEX
8
0
62
2
6
CONTINUOUS
10
6.2832329905
20
20.6048316681
0
VERTEX
8
0
62
2
6
CONTINUOUS
10
6.2832329905
20
20.5615650014
0
VERTEX
8
0
62
2
6
CONTINUOUS
10
6.3172774350
20
20.5615650014
0
VERTEX
8
0
62
2
6
CONTINUOUS
10
6.3172774350
20
20.6048316681
0
VERTEX
8
0
62
2
6
CONTINUOUS
10
6.3509343794
20
20.6048316681
0
VERTEX
8
0
62
2
6
CONTINUOUS
10
6.3509343794
20
20.5442400014
0
VERTEX
8
0
62
2
6
CONTINUOUS
10
6.3509343794
20
20.4814594459
0
VERTEX
8
0
62
2
6
CONTINUOUS
10
6.3172774350
20
20.4814594459
0
VERTEX
8
0
62
2
6
CONTINUOUS
10
6.3172774350
20
20.5273580570
0
VERTEX
8
0
62
2
6
CONTINUOUS
10
6.2832329905
20
20.5273580570
0
VERTEX
8
0
62
2
6
CONTINUOUS
10
6.2832329905
20
20.4814594459
0
VERTEX
8
0
62
2
6
CONTINUOUS
10
6.2495691016
20
20.4814594459
0
SEQEND
0
POLYLINE
8
0
62
2
6
CONTINUOUS
66
1
70
0
0
VERTEX
8
0
62
2
6
CONTINUOUS
10
6.3606996572
20
20.4814594459
0
VERTEX
8
0
62
2
6
CONTINUOUS
10
6.3606996572
20
20.4878633348
0
VERTEX
8
0
62
2
6
CONTINUOUS
10
6.3606996572
20
20.5268527792
0
VERTEX
8
0
62
2
6
CONTINUOUS
10
6.3606996572
20
20.5658422237
0
VERTEX
8
0
62
2
6
CONTINUOUS
10
6.3606996572
20
20.6048316681
0
VERTEX
8
0
62
2
6
CONTINUOUS
10
6.3944191016
20
20.6048316681
0
VERTEX
8
0
62
2
6
CONTINUOUS
10
6.3944191016
20
20.5909327792
0
VERTEX
8
0
62
2
6
CONTINUOUS
10
6.3944191016
20
20.5519433348
0
VERTEX
8
0
62
2
6
CONTINUOUS
10
6.3944191016
20
20.5129538903
0
VERTEX
8
0
62
2
6
CONTINUOUS
10
6.4322746572
20
20.5129538903
0
VERTEX
8
0
62
2
6
CONTINUOUS
10
6.4322746572
20
20.4814594459
0
VERTEX
8
0
62
2
6
CONTINUOUS
10
6.3996891016
20
20.4814594459
0
VERTEX
8
0
62
2
6
CONTINUOUS
10
6.3606996572
20
20.4814594459
0
SEQEND
0
LINE
8
0
62
2
6
CONTINUOUS
10
7.2502816016
20
20.6049677792
11
7.2212954905
21
20.5559497237
0
LINE
8
0
62
2
6
CONTINUOUS
10
7.2212954905
20
20.5559497237
11
7.1929621572
21
20.6049677792
0
LINE
8
0
62
2
6
CONTINUOUS
10
7.1929621572
20
20.6049677792
11
7.1836843794
21
20.6049677792
0
LINE
8
0
62
2
6
CONTINUOUS
10
7.1836843794
20
20.6049677792
11
7.2173218794
21
20.5470927792
0
LINE
8
0
62
2
6
CONTINUOUS
10
7.2173218794
20
20.5470927792
11
7.2171732683
21
20.5045719459
0
LINE
8
0
62
2
6
CONTINUOUS
10
7.2171732683
20
20.5045719459
11
7.2252968794
21
20.5045719459
0
LINE
8
0
62
2
6
CONTINUOUS
10
7.2252968794
20
20.5045719459
11
7.2252968794
21
20.5475816681
0
LINE
8
0
62
2
6
CONTINUOUS
10
7.2252968794
20
20.5475816681
11
7.2587982683
21
20.6049677792
0
LINE
8
0
62
2
6
CONTINUOUS
10
7.2587982683
20
20.6049677792
11
7.2502816016
21
20.6049677792
0
LINE
8
0
62
2
6
CONTINUOUS
10
7.0878329905
20
20.5045719459
11
7.0959302127
21
20.5045719459
0
LINE
8
0
62
2
6
CONTINUOUS
10
7.0959302127
20
20.5045719459
11
7.0959302127
21
20.5877969459
0
LINE
8
0
62
2
6
CONTINUOUS
10
7.0959302127
20
20.5877969459
11
7.1786802127
21
20.4998927792
0
LINE
8
0
62
2
6
CONTINUOUS
10
7.1786802127
20
20.4998927792
11
7.1786802127
21
20.6049677792
0
LINE
8
0
62
2
6
CONTINUOUS
10
7.1786802127
20
20.6049677792
11
7.1705829905
21
20.6049677792
0
LINE
8
0
62
2
6
CONTINUOUS
10
7.1705829905
20
20.6049677792
11
7.1705829905
21
20.5202775014
0
LINE
8
0
62
2
6
CONTINUOUS
10
7.1705829905
20
20.5202775014
11
7.0878329905
21
20.6075858348
0
LINE
8
0
62
2
6
CONTINUOUS
10
7.0878329905
20
20.6075858348
11
7.0878329905
21
20.5045719459
0
LINE
8
0
62
2
6
CONTINUOUS
10
6.7294343794
20
20.5157205570
11
6.7297871572
21
20.5250663903
0
LINE
8
0
62
2
6
CONTINUOUS
10
6.7297871572
20
20.5250663903
11
6.7297871572
21
20.5276163903
0
LINE
8
0
62
2
6
CONTINUOUS
10
6.7297871572
20
20.5276163903
11
6.7281052127
21
20.5255955570
0
LINE
8
0
62
2
6
CONTINUOUS
10
6.7281052127
20
20.5255955570
11
6.6958371572
21
20.5109330570
0
POLYLINE
8
0
62
2
6
CONTINUOUS
66
1
70
0
0
VERTEX
8
0
62
2
6
CONTINUOUS
10
6.6958371572
20
20.5109330570
0
VERTEX
8
0
62
2
6
CONTINUOUS
10
6.6936795925
20
20.5110777579
0
VERTEX
8
0
62
2
6
CONTINUOUS
10
6.6915749257
20
20.5112964870
0
VERTEX
8
0
62
2
6
CONTINUOUS
10
6.6895225535
20
20.5115876149
0
VERTEX
8
0
62
2
6
CONTINUOUS
10
6.6875219118
20
20.5119496125
0
VERTEX
8
0
62
2
6
CONTINUOUS
10
6.6855724833
20
20.5123810504
0
VERTEX
8
0
62
2
6
CONTINUOUS
10
6.6836738062
20
20.5128805979
0
VERTEX
8
0
62
2
6
CONTINUOUS
10
6.6818254826
20
20.5134470201
0
VERTEX
8
0
62
2
6
CONTINUOUS
10
6.6800271881
20
20.5140791738
0
VERTEX
8
0
62
2
6
CONTINUOUS
10
6.6782786806
20
20.5147760023
0
VERTEX
8
0
62
2
6
CONTINUOUS
10
6.6765798100
20
20.5155365274
0
VERTEX
8
0
62
2
6
CONTINUOUS
10
6.6749305270
20
20.5163598404
0
VERTEX
8
0
62
2
6
CONTINUOUS
10
6.6733308922
20
20.5172450907
0
VERTEX
8
0
62
2
6
CONTINUOUS
10
6.6717810842
20
20.5181914727
0
VERTEX
8
0
62
2
6
CONTINUOUS
10
6.6702814073
20
20.5191982100
0
VERTEX
8
0
62
2
6
CONTINUOUS
10
6.6688322976
20
20.5202645380
0
VERTEX
8
0
62
2
6
CONTINUOUS
10
6.6674343285
20
20.5213896840
0
VERTEX
8
0
62
2
6
CONTINUOUS
10
6.6660882142
20
20.5225728461
0
VERTEX
8
0
62
2
6
CONTINUOUS
10
6.6647948109
20
20.5238131687
0
VERTEX
8
0
62
2
6
CONTINUOUS
10
6.6635551170
20
20.5251097183
0
VERTEX
8
0
62
2
6
CONTINUOUS
10
6.6623702691
20
20.5264614567
0
VERTEX
8
0
62
2
6
CONTINUOUS
10
6.6612415369
20
20.5278672134
0
VERTEX
8
0
62
2
6
CONTINUOUS
10
6.6601703142
20
20.5293256586
0
VERTEX
8
0
62
2
6
CONTINUOUS
10
6.6591581063
20
20.5308352752
0
VERTEX
8
0
62
2
6
CONTINUOUS
10
6.6582065152
20
20.5323943328
0
VERTEX
8
0
62
2
6
CONTINUOUS
10
6.6573172204
20
20.5340008628
0
VERTEX
8
0
62
2
6
CONTINUOUS
10
6.6564919565
20
20.5356526362
0
VERTEX
8
0
62
2
6
CONTINUOUS
10
6.6557324875
20
20.5373471461
0
VERTEX
8
0
62
2
6
CONTINUOUS
10
6.6550405789
20
20.5390815929
0
VERTEX
8
0
62
2
6
CONTINUOUS
10
6.6544179659
20
20.5408528774
0
VERTEX
8
0
62
2
6
CONTINUOUS
10
6.6538663213
20
20.5426575984
0
VERTEX
8
0
62
2
6
CONTINUOUS
10
6.6533872212
20
20.5444920591
0
VERTEX
8
0
62
2
6
CONTINUOUS
10
6.6529821115
20
20.5463522804
0
VERTEX
8
0
62
2
6
CONTINUOUS
10
6.6526522747
20
20.5482340227
0
VERTEX
8
0
62
2
6
CONTINUOUS
10
6.6523988000
20
20.5501328158
0
VERTEX
8
0
62
2
6
CONTINUOUS
10
6.6522225556
20
20.5520439963
0
VERTEX
8
0
62
2
6
CONTINUOUS
10
6.6521241667
20
20.5539627513
0
VERTEX
8
0
62
2
6
CONTINUOUS
10
6.6521019364
20
20.5552674293
0
VERTEX
8
0
62
2
6
CONTINUOUS
10
6.6521348980
20
20.5571864180
0
VERTEX
8
0
62
2
6
CONTINUOUS
10
6.6522458377
20
20.5590981011
0
VERTEX
8
0
62
2
6
CONTINUOUS
10
6.6524341962
20
20.5609976499
0
VERTEX
8
0
62
2
6
CONTINUOUS
10
6.6526991649
20
20.5628803801
0
VERTEX
8
0
62
2
6
CONTINUOUS
10
6.6530397072
20
20.5647417966
0
VERTEX
8
0
62
2
6
CONTINUOUS
10
6.6534545838
20
20.5665776334
0
VERTEX
8
0
62
2
6
CONTINUOUS
10
6.6539423831
20
20.5683838843
0
VERTEX
8
0
62
2
6
CONTINUOUS
10
6.6545015533
20
20.5701568272
0
VERTEX
8
0
62
2
6
CONTINUOUS
10
6.6551304371
20
20.5718930392
0
VERTEX
8
0
62
2
6
CONTINUOUS
10
6.6558273054
20
20.5735894036
0
VERTEX
8
0
62
2
6
CONTINUOUS
10
6.6565903915
20
20.5752431100
0
VERTEX
8
0
62
2
6
CONTINUOUS
10
6.6574179235
20
20.5768516465
0
VERTEX
8
0
62
2
6
CONTINUOUS
10
6.6583081539
20
20.5784127872
0
VERTEX
8
0
62
2
6
CONTINUOUS
10
6.6592593866
20
20.5799245734
0
VERTEX
8
0
62
2
6
CONTINUOUS
10
6.6602700013
20
20.5813852917
0
VERTEX
8
0
62
2
6
CONTINUOUS
10
6.6613384733
20
20.5827934485
0
VERTEX
8
0
62
2
6
CONTINUOUS
10
6.6624633909
20
20.5841477432
0
VERTEX
8
0
62
2
6
CONTINUOUS
10
6.6636434683
20
20.5854470393
0
VERTEX
8
0
62
2
6
CONTINUOUS
10
6.6648775562
20
20.5866903360
0
VERTEX
8
0
62
2
6
CONTINUOUS
10
6.6661646478
20
20.5878767392
0
VERTEX
8
0
62
2
6
CONTINUOUS
10
6.6675038831
20
20.5890054345
0
VERTEX
8
0
62
2
6
CONTINUOUS
10
6.6688945500
20
20.5900756598
0
VERTEX
8
0
62
2
6
CONTINUOUS
10
6.6703360826
20
20.5910866815
0
VERTEX
8
0
62
2
6
CONTINUOUS
10
6.6718280581
20
20.5920377709
0
VERTEX
8
0
62
2
6
CONTINUOUS
10
6.6733701919
20
20.5929281837
0
VERTEX
8
0
62
2
6
CONTINUOUS
10
6.6749623301
20
20.5937571414
0
VERTEX
8
0
62
2
6
CONTINUOUS
10
6.6766044426
20
20.5945238152
0
VERTEX
8
0
62
2
6
CONTINUOUS
10
6.6782966139
20
20.5952273117
0
VERTEX
8
0
62
2
6
CONTINUOUS
10
6.6800390337
20
20.5958666611
0
VERTEX
8
0
62
2
6
CONTINUOUS
10
6.6818319875
20
20.5964408078
0
VERTEX
8
0
62
2
6
CONTINUOUS
10
6.6836758464
20
20.5969486026
0
VERTEX
8
0
62
2
6
CONTINUOUS
10
6.6855710576
20
20.5973887969
0
VERTEX
8
0
62
2
6
CONTINUOUS
10
6.6875181341
20
20.5977600386
0
VERTEX
8
0
62
2
6
CONTINUOUS
10
6.6895176458
20
20.5980608702
0
VERTEX
8
0
62
2
6
CONTINUOUS
10
6.6915702103
20
20.5982897267
0
VERTEX
8
0
62
2
6
CONTINUOUS
10
6.6936764847
20
20.5984449369
0
VERTEX
8
0
62
2
6
CONTINUOUS
10
6.6958371572
20
20.5985247237
0
SEQEND
0
LINE
8
0
62
2
6
CONTINUOUS
10
6.6958371572
20
20.5985247237
11
6.7297871572
21
20.5812997237
0
LINE
8
0
62
2
6
CONTINUOUS
10
6.7297871572
20
20.5812997237
11
6.7297871572
21
20.5925025014
0
ARC
8
0
62
2
6
CONTINUOUS
10
6.6951120421
20
20.5546547726
40
0.0513304411
50
47.5048873671
51
180.0087362707
0
ARC
8
0
62
2
6
CONTINUOUS
10
6.6956870325
20
20.5551610775
40
0.0519079771
50
180.5675053294
51
310.5520051654
0
CIRCLE
8
0
62
2
6
CONTINUOUS
10
6.1822341183
20
20.5441698625
40
0.0317997452
0
POLYLINE
8
0
62
2
6
CONTINUOUS
66
1
70
0
0
VERTEX
8
0
62
2
6
CONTINUOUS
10
6.1154607683
20
20.5441900014
0
VERTEX
8
0
62
2
6
CONTINUOUS
10
6.1155175955
20
20.5472736901
0
VERTEX
8
0
62
2
6
CONTINUOUS
10
6.1157176480
20
20.5503387765
0
VERTEX
8
0
62
2
6
CONTINUOUS
10
6.1160601340
20
20.5533812504
0
VERTEX
8
0
62
2
6
CONTINUOUS
10
6.1165441621
20
20.5563968005
0
VERTEX
8
0
62
2
6
CONTINUOUS
10
6.1171686964
20
20.5593808110
0
VERTEX
8
0
62
2
6
CONTINUOUS
10
6.1179325110
20
20.5623283662
0
VERTEX
8
0
62
2
6
CONTINUOUS
10
6.1188341442
20
20.5652342639
0
VERTEX
8
0
62
2
6
CONTINUOUS
10
6.1198718555
20
20.5680930362
0
VERTEX
8
0
62
2
6
CONTINUOUS
10
6.1210435862
20
20.5708989803
0
VERTEX
8
0
62
2
6
CONTINUOUS
10
6.1223469258
20
20.5736461981
0
VERTEX
8
0
62
2
6
CONTINUOUS
10
6.1237790853
20
20.5763286436
0
VERTEX
8
0
62
2
6
CONTINUOUS
10
6.1253368802
20
20.5789401787
0
VERTEX
8
0
62
2
6
CONTINUOUS
10
6.1270167233
20
20.5814746341
0
VERTEX
8
0
62
2
6
CONTINUOUS
10
6.1288146290
20
20.5839258744
0
VERTEX
8
0
62
2
6
CONTINUOUS
10
6.1307262295
20
20.5862878655
0
VERTEX
8
0
62
2
6
CONTINUOUS
10
6.1311019208
20
20.5867260875
0
VERTEX
8
0
62
2
6
CONTINUOUS
10
6.1331416418
20
20.5889731972
0
VERTEX
8
0
62
2
6
CONTINUOUS
10
6.1352827402
20
20.5911172078
0
VERTEX
8
0
62
2
6
CONTINUOUS
10
6.1375197220
20
20.5931530918
0
VERTEX
8
0
62
2
6
CONTINUOUS
10
6.1398469473
20
20.5950761951
0
VERTEX
8
0
62
2
6
CONTINUOUS
10
6.1422586947
20
20.5968822626
0
VERTEX
8
0
62
2
6
CONTINUOUS
10
6.1447492264
20
20.5985674513
0
VERTEX
8
0
62
2
6
CONTINUOUS
10
6.1473128500
20
20.6001283320
0
VERTEX
8
0
62
2
6
CONTINUOUS
10
6.1499439776
20
20.6015618785
0
VERTEX
8
0
62
2
6
CONTINUOUS
10
6.1526371770
20
20.6028654473
0
VERTEX
8
0
62
2
6
CONTINUOUS
10
6.1553872171
20
20.6040367482
0
VERTEX
8
0
62
2
6
CONTINUOUS
10
6.1581891035
20
20.6050738072
0
VERTEX
8
0
62
2
6
CONTINUOUS
10
6.1610381069
20
20.6059749248
0
VERTEX
8
0
62
2
6
CONTINUOUS
10
6.1639297816
20
20.6067386299
0
VERTEX
8
0
62
2
6
CONTINUOUS
10
6.1668599763
20
20.6073636326
0
VERTEX
8
0
62
2
6
CONTINUOUS
10
6.1698248366
20
20.6078487765
0
VERTEX
8
0
62
2
6
CONTINUOUS
10
6.1728208014
20
20.6081929920
0
VERTEX
8
0
62
2
6
CONTINUOUS
10
6.1758445920
20
20.6083952524
0
VERTEX
8
0
62
2
6
CONTINUOUS
10
6.1788931975
20
20.6084545325
0
VERTEX
8
0
62
2
6
CONTINUOUS
10
6.1819328484
20
20.6083702652
0
VERTEX
8
0
62
2
6
CONTINUOUS
10
6.1849516965
20
20.6081430427
0
VERTEX
8
0
62
2
6
CONTINUOUS
10
6.1879465413
20
20.6077736843
0
VERTEX
8
0
62
2
6
CONTINUOUS
10
6.1909138829
20
20.6072630322
0
VERTEX
8
0
62
2
6
CONTINUOUS
10
6.1938499061
20
20.6066119974
0
VERTEX
8
0
62
2
6
CONTINUOUS
10
6.1967504719
20
20.6058216094
0
VERTEX
8
0
62
2
6
CONTINUOUS
10
6.1996111150
20
20.6048930670
0
VERTEX
8
0
62
2
6
CONTINUOUS
10
6.2024270494
20
20.6038277905
0
VERTEX
8
0
62
2
6
CONTINUOUS
10
6.2051931838
20
20.6026274726
0
VERTEX
8
0
62
2
6
CONTINUOUS
10
6.2079041448
20
20.6012941272
0
VERTEX
8
0
62
2
6
CONTINUOUS
10
6.2105543115
20
20.5998301321
0
VERTEX
8
0
62
2
6
CONTINUOUS
10
6.2131378584
20
20.5982382665
0
VERTEX
8
0
62
2
6
CONTINUOUS
10
6.2156488076
20
20.5965217383
0
VERTEX
8
0
62
2
6
CONTINUOUS
10
6.2180810896
20
20.5946842025
0
VERTEX
8
0
62
2
6
CONTINUOUS
10
6.2204286088
20
20.5927297659
0
VERTEX
8
0
62
2
6
CONTINUOUS
10
6.2226853146
20
20.5906629796
0
VERTEX
8
0
62
2
6
CONTINUOUS
10
6.2248452731
20
20.5884888187
0
VERTEX
8
0
62
2
6
CONTINUOUS
10
6.2269027378
20
20.5862126473
0
VERTEX
8
0
62
2
6
CONTINUOUS
10
6.2269529071
20
20.5861543754
0
VERTEX
8
0
62
2
6
CONTINUOUS
10
6.2288983176
20
20.5837812234
0
VERTEX
8
0
62
2
6
CONTINUOUS
10
6.2307293182
20
20.5813198421
0
VERTEX
8
0
62
2
6
CONTINUOUS
10
6.2324414164
20
20.5787765478
0
VERTEX
8
0
62
2
6
CONTINUOUS
10
6.2340305463
20
20.5761577404
0
VERTEX
8
0
62
2
6
CONTINUOUS
10
6.2354930834
20
20.5734698306
0
VERTEX
8
0
62
2
6
CONTINUOUS
10
6.2368258454
20
20.5707191688
0
VERTEX
8
0
62
2
6
CONTINUOUS
10
6.2380260814
20
20.5679119802
0
VERTEX
8
0
62
2
6
CONTINUOUS
10
6.2390914501
20
20.5650543070
0
VERTEX
8
0
62
2
6
CONTINUOUS
10
6.2400199878
20
20.5621519590
0
VERTEX
8
0
62
2
6
CONTINUOUS
10
6.2408100691
20
20.5592104743
0
VERTEX
8
0
62
2
6
CONTINUOUS
10
6.2414603621
20
20.5562350891
0
VERTEX
8
0
62
2
6
CONTINUOUS
10
6.2419697796
20
20.5532307183
0
VERTEX
8
0
62
2
6
CONTINUOUS
10
6.2423374288
20
20.5502019453
0
VERTEX
8
0
62
2
6
CONTINUOUS
10
6.2425625603
20
20.5471530198
0
VERTEX
8
0
62
2
6
CONTINUOUS
10
6.2426445194
20
20.5440878642
0
VERTEX
8
0
62
2
6
CONTINUOUS
10
6.2425829034
20
20.5410051158
0
VERTEX
8
0
62
2
6
CONTINUOUS
10
6.2423780941
20
20.5379412333
0
VERTEX
8
0
62
2
6
CONTINUOUS
10
6.2420308896
20
20.5349001929
0
VERTEX
8
0
62
2
6
CONTINUOUS
10
6.2415421849
20
20.5318862716
0
VERTEX
8
0
62
2
6
CONTINUOUS
10
6.2409130165
20
20.5289040509
0
VERTEX
8
0
62
2
6
CONTINUOUS
10
6.2401446086
20
20.5259584123
0
VERTEX
8
0
62
2
6
CONTINUOUS
10
6.2392384186
20
20.5230545258
0
VERTEX
8
0
62
2
6
CONTINUOUS
10
6.2381961808
20
20.5201978281
0
VERTEX
8
0
62
2
6
CONTINUOUS
10
6.2370199457
20
20.5173939934
0
VERTEX
8
0
62
2
6
CONTINUOUS
10
6.2357121146
20
20.5146488942
0
VERTEX
8
0
62
2
6
CONTINUOUS
10
6.2342754663
20
20.5119685544
0
VERTEX
8
0
62
2
6
CONTINUOUS
10
6.2327131755
20
20.5093590938
0
VERTEX
8
0
62
2
6
CONTINUOUS
10
6.2310288201
20
20.5068266683
0
VERTEX
8
0
62
2
6
CONTINUOUS
10
6.2292263779
20
20.5043774039
0
VERTEX
8
0
62
2
6
CONTINUOUS
10
6.2273102115
20
20.5020173304
0
VERTEX
8
0
62
2
6
CONTINUOUS
10
6.2269528765
20
20.5016016304
0
VERTEX
8
0
62
2
6
CONTINUOUS
10
6.2249094073
20
20.4993552404
0
VERTEX
8
0
62
2
6
CONTINUOUS
10
6.2227644708
20
20.4972118641
0
VERTEX
8
0
62
2
6
CONTINUOUS
10
6.2205235690
20
20.4951765437
0
VERTEX
8
0
62
2
6
CONTINUOUS
10
6.2181923552
20
20.4932539508
0
VERTEX
8
0
62
2
6
CONTINUOUS
10
6.2157765693
20
20.4914483593
0
VERTEX
8
0
62
2
6
CONTINUOUS
10
6.2132819728
20
20.4897636317
0
VERTEX
8
0
62
2
6
CONTINUOUS
10
6.2107142857
20
20.4882032164
0
VERTEX
8
0
62
2
6
CONTINUOUS
10
6.2080791283
20
20.4867701576
0
VERTEX
8
0
62
2
6
CONTINUOUS
10
6.2053819680
20
20.4854671145
0
VERTEX
8
0
62
2
6
CONTINUOUS
10
6.2026280741
20
20.4842963904
0
VERTEX
8
0
62
2
6
CONTINUOUS
10
6.1998224809
20
20.4832599691
0
VERTEX
8
0
62
2
6
CONTINUOUS
10
6.1969699590
20
20.4823595562
0
VERTEX
8
0
62
2
6
CONTINUOUS
10
6.1940749958
20
20.4815966250
0
VERTEX
8
0
62
2
6
CONTINUOUS
10
6.1911417841
20
20.4809724633
0
VERTEX
8
0
62
2
6
CONTINUOUS
10
6.1881742192
20
20.4804882218
0
VERTEX
8
0
62
2
6
CONTINUOUS
10
6.1851759019
20
20.4801449602
0
VERTEX
8
0
62
2
6
CONTINUOUS
10
6.1821501486
20
20.4799436916
0
VERTEX
8
0
62
2
6
CONTINUOUS
10
6.1791000064
20
20.4798854243
0
VERTEX
8
0
62
2
6
CONTINUOUS
10
6.1760434588
20
20.4799707820
0
VERTEX
8
0
62
2
6
CONTINUOUS
10
6.1730074991
20
20.4801991229
0
VERTEX
8
0
62
2
6
CONTINUOUS
10
6.1699956476
20
20.4805696179
0
VERTEX
8
0
62
2
6
CONTINUOUS
10
6.1670117252
20
20.4810813833
0
VERTEX
8
0
62
2
6
CONTINUOUS
10
6.1640598629
20
20.4817334346
0
VERTEX
8
0
62
2
6
CONTINUOUS
10
6.1611445062
20
20.4825246387
0
VERTEX
8
0
62
2
6
CONTINUOUS
10
6.1582704108
20
20.4834536646
0
VERTEX
8
0
62
2
6
CONTINUOUS
10
6.1554426304
20
20.4845189357
0
VERTEX
8
0
62
2
6
CONTINUOUS
10
6.1526664958
20
20.4857185825
0
VERTEX
8
0
62
2
6
CONTINUOUS
10
6.1499475843
20
20.4870504007
0
VERTEX
8
0
62
2
6
CONTINUOUS
10
6.1472916801
20
20.4885118150
0
VERTEX
8
0
62
2
6
CONTINUOUS
10
6.1447047253
20
20.4900998496
0
VERTEX
8
0
62
2
6
CONTINUOUS
10
6.1421927646
20
20.4918111099
0
VERTEX
8
0
62
2
6
CONTINUOUS
10
6.1397618814
20
20.4936417736
0
VERTEX
8
0
62
2
6
CONTINUOUS
10
6.1374181319
20
20.4955875950
0
VERTEX
8
0
62
2
6
CONTINUOUS
10
6.1351674754
20
20.4976439212
0
VERTEX
8
0
62
2
6
CONTINUOUS
10
6.1330157055
20
20.4998057210
0
VERTEX
8
0
62
2
6
CONTINUOUS
10
6.1327619531
20
20.5000745861
0
VERTEX
8
0
62
2
6
CONTINUOUS
10
6.1307291306
20
20.5023465108
0
VERTEX
8
0
62
2
6
CONTINUOUS
10
6.1288077696
20
20.5047103810
0
VERTEX
8
0
62
2
6
CONTINUOUS
10
6.1270024615
20
20.5071601892
0
VERTEX
8
0
62
2
6
CONTINUOUS
10
6.1253173895
20
20.5096898353
0
VERTEX
8
0
62
2
6
CONTINUOUS
10
6.1237563129
20
20.5122931957
0
VERTEX
8
0
62
2
6
CONTINUOUS
10
6.1223225642
20
20.5149641906
0
VERTEX
8
0
62
2
6
CONTINUOUS
10
6.1210190576
20
20.5176968461
0
VERTEX
8
0
62
2
6
CONTINUOUS
10
6.1198483090
20
20.5204853509
0
VERTEX
8
0
62
2
6
CONTINUOUS
10
6.1188124650
20
20.5233241041
0
VERTEX
8
0
62
2
6
CONTINUOUS
10
6.1179133399
20
20.5262077547
0
VERTEX
8
0
62
2
6
CONTINUOUS
10
6.1171524584
20
20.5291312318
0
VERTEX
8
0
62
2
6
CONTINUOUS
10
6.1165311018
20
20.5320897649
0
VERTEX
8
0
62
2
6
CONTINUOUS
10
6.1160503573
20
20.5350788961
0
VERTEX
8
0
62
2
6
CONTINUOUS
10
6.1157111662
20
20.5380944829
0
VERTEX
8
0
62
2
6
CONTINUOUS
10
6.1155143725
20
20.5411326946
0
VERTEX
8
0
62
2
6
CONTINUOUS
10
6.1154607683
20
20.5441900014
0
SEQEND
0
POLYLINE
8
0
62
2
6
CONTINUOUS
66
1
70
0
0
VERTEX
8
0
62
2
6
CONTINUOUS
10
7.1154607683
20
20.8122900014
0
VERTEX
8
0
62
2
6
CONTINUOUS
10
7.1187024350
20
20.8122900014
0
VERTEX
8
0
62
2
6
CONTINUOUS
10
7.1190018136
20
20.8122929690
0
VERTEX
8
0
62
2
6
CONTINUOUS
10
7.1193978493
20
20.8123063316
0
VERTEX
8
0
62
2
6
CONTINUOUS
10
7.1197811207
20
20.8123301087
0
VERTEX
8
0
62
2
6
CONTINUOUS
10
7.1201511576
20
20.8123639094
0
VERTEX
8
0
62
2
6
CONTINUOUS
10
7.1205076192
20
20.8124073267
0
VERTEX
8
0
62
2
6
CONTINUOUS
10
7.1208502816
20
20.8124599448
0
VERTEX
8
0
62
2
6
CONTINUOUS
10
7.1211790261
20
20.8125213465
0
VERTEX
8
0
62
2
6
CONTINUOUS
10
7.1214938265
20
20.8125911201
0
VERTEX
8
0
62
2
6
CONTINUOUS
10
7.1217947372
20
20.8126688642
0
VERTEX
8
0
62
2
6
CONTINUOUS
10
7.1220818819
20
20.8127541935
0
VERTEX
8
0
62
2
6
CONTINUOUS
10
7.1223554421
20
20.8128467426
0
VERTEX
8
0
62
2
6
CONTINUOUS
10
7.1226156471
20
20.8129461703
0
VERTEX
8
0
62
2
6
CONTINUOUS
10
7.1228627644
20
20.8130521626
0
VERTEX
8
0
62
2
6
CONTINUOUS
10
7.1230970903
20
20.8131644354
0
VERTEX
8
0
62
2
6
CONTINUOUS
10
7.1233189415
20
20.8132827374
0
VERTEX
8
0
62
2
6
CONTINUOUS
10
7.1235286475
20
20.8134068517
0
VERTEX
8
0
62
2
6
CONTINUOUS
10
7.1237265428
20
20.8135365977
0
VERTEX
8
0
62
2
6
CONTINUOUS
10
7.1239129602
20
20.8136718324
0
VERTEX
8
0
62
2
6
CONTINUOUS
10
7.1240882244
20
20.8138124509
0
VERTEX
8
0
62
2
6
CONTINUOUS
10
7.1242526460
20
20.8139583876
0
VERTEX
8
0
62
2
6
CONTINUOUS
10
7.1244065156
20
20.8141096159
0
VERTEX
8
0
62
2
6
CONTINUOUS
10
7.1245500990
20
20.8142661478
0
VERTEX
8
0
62
2
6
CONTINUOUS
10
7.1246836324
20
20.8144280339
0
VERTEX
8
0
62
2
6
CONTINUOUS
10
7.1248073178
20
20.8145953617
0
VERTEX
8
0
62
2
6
CONTINUOUS
10
7.1249213198
20
20.8147682545
0
VERTEX
8
0
62
2
6
CONTINUOUS
10
7.1250257618
20
20.8149468697
0
VERTEX
8
0
62
2
6
CONTINUOUS
10
7.1251207235
20
20.8151313963
0
VERTEX
8
0
62
2
6
CONTINUOUS
10
7.1252062389
20
20.8153220530
0
VERTEX
8
0
62
2
6
CONTINUOUS
10
7.1252822947
20
20.8155190855
0
VERTEX
8
0
62
2
6
CONTINUOUS
10
7.1253488292
20
20.8157227640
0
VERTEX
8
0
62
2
6
CONTINUOUS
10
7.1254057319
20
20.8159333800
0
VERTEX
8
0
62
2
6
CONTINUOUS
10
7.1254528077
20
20.8161510545
0
VERTEX
8
0
62
2
6
CONTINUOUS
10
7.1254898691
20
20.8163760478
0
VERTEX
8
0
62
2
6
CONTINUOUS
10
7.1255166972
20
20.8166086931
0
VERTEX
8
0
62
2
6
CONTINUOUS
10
7.1255330265
20
20.8168493365
0
VERTEX
8
0
62
2
6
CONTINUOUS
10
7.1255385461
20
20.8170983348
0
VERTEX
8
0
62
2
6
CONTINUOUS
10
7.1255341695
20
20.8173089379
0
VERTEX
8
0
62
2
6
CONTINUOUS
10
7.1255189373
20
20.8175418096
0
VERTEX
8
0
62
2
6
CONTINUOUS
10
7.1254929613
20
20.8177706338
0
VERTEX
8
0
62
2
6
CONTINUOUS
10
7.1254564262
20
20.8179950590
0
VERTEX
8
0
62
2
6
CONTINUOUS
10
7.1254095148
20
20.8182147987
0
VERTEX
8
0
62
2
6
CONTINUOUS
10
7.1253524009
20
20.8184296234
0
VERTEX
8
0
62
2
6
CONTINUOUS
10
7.1252852429
20
20.8186393528
0
VERTEX
8
0
62
2
6
CONTINUOUS
10
7.1252081784
20
20.8188438476
0
VERTEX
8
0
62
2
6
CONTINUOUS
10
7.1251213198
20
20.8190430014
0
VERTEX
8
0
62
2
6
CONTINUOUS
10
7.1250247515
20
20.8192367338
0
VERTEX
8
0
62
2
6
CONTINUOUS
10
7.1249185267
20
20.8194249826
0
VERTEX
8
0
62
2
6
CONTINUOUS
10
7.1248026668
20
20.8196076977
0
VERTEX
8
0
62
2
6
CONTINUOUS
10
7.1246771595
20
20.8197848351
0
VERTEX
8
0
62
2
6
CONTINUOUS
10
7.1245419596
20
20.8199563510
0
VERTEX
8
0
62
2
6
CONTINUOUS
10
7.1243969887
20
20.8201221976
0
VERTEX
8
0
62
2
6
CONTINUOUS
10
7.1242421363
20
20.8202823188
0
VERTEX
8
0
62
2
6
CONTINUOUS
10
7.1240772610
20
20.8204366463
0
VERTEX
8
0
62
2
6
CONTINUOUS
10
7.1239021923
20
20.8205850968
0
VERTEX
8
0
62
2
6
CONTINUOUS
10
7.1237167318
20
20.8207275699
0
VERTEX
8
0
62
2
6
CONTINUOUS
10
7.1235206558
20
20.8208639457
0
VERTEX
8
0
62
2
6
CONTINUOUS
10
7.1233137168
20
20.8209940837
0
VERTEX
8
0
62
2
6
CONTINUOUS
10
7.1230956460
20
20.8211178217
0
VERTEX
8
0
62
2
6
CONTINUOUS
10
7.1228661553
20
20.8212349753
0
VERTEX
8
0
62
2
6
CONTINUOUS
10
7.1226250078
20
20.8213453082
0
VERTEX
8
0
62
2
6
CONTINUOUS
10
7.1223719660
20
20.8214485688
0
VERTEX
8
0
62
2
6
CONTINUOUS
10
7.1221067023
20
20.8215445235
0
VERTEX
8
0
62
2
6
CONTINUOUS
10
7.1218288762
20
20.8216329162
0
VERTEX
8
0
62
2
6
CONTINUOUS
10
7.1215381359
20
20.8217134692
0
VERTEX
8
0
62
2
6
CONTINUOUS
10
7.1212341197
20
20.8217858837
0
VERTEX
8
0
62
2
6
CONTINUOUS
10
7.1209164574
20
20.8218498410
0
VERTEX
8
0
62
2
6
CONTINUOUS
10
7.1205847719
20
20.8219050031
0
VERTEX
8
0
62
2
6
CONTINUOUS
10
7.1202386801
20
20.8219510138
0
VERTEX
8
0
62
2
6
CONTINUOUS
10
7.1198777941
20
20.8219874995
0
VERTEX
8
0
62
2
6
CONTINUOUS
10
7.1195017218
20
20.8220140706
0
VERTEX
8
0
62
2
6
CONTINUOUS
10
7.1191100680
20
20.8220303222
0
VERTEX
8
0
62
2
6
CONTINUOUS
10
7.1187024350
20
20.8220358348
0
VERTEX
8
0
62
2
6
CONTINUOUS
10
7.1181841040
20
20.8220304713
0
VERTEX
8
0
62
2
6
CONTINUOUS
10
7.1176901370
20
20.8220147554
0
VERTEX
8
0
62
2
6
CONTINUOUS
10
7.1172168176
20
20.8219891563
0
VERTEX
8
0
62
2
6
CONTINUOUS
10
7.1167592615
20
20.8219539579
0
VERTEX
8
0
62
2
6
CONTINUOUS
10
7.1163102272
20
20.8219091007
0
VERTEX
8
0
62
2
6
CONTINUOUS
10
7.1158568493
20
20.8218537507
0
VERTEX
8
0
62
2
6
CONTINUOUS
10
7.1154607683
20
20.8217983348
0
SEQEND
0
LINE
8
0
62
2
6
CONTINUOUS
10
7.1154607683
20
20.8217983348
11
7.1154607683
21
20.8122900014
0
LINE
8
0
62
2
6
CONTINUOUS
10
7.1154607683
20
20.7967261125
11
7.1109857683
21
20.7967261125
0
LINE
8
0
62
2
6
CONTINUOUS
10
7.1109857683
20
20.7967261125
11
7.1109857683
21
20.8248233348
0
POLYLINE
8
0
62
2
6
CONTINUOUS
66
1
70
0
0
VERTEX
8
0
62
2
6
CONTINUOUS
10
7.1109857683
20
20.8248233348
0
VERTEX
8
0
62
2
6
CONTINUOUS
10
7.1112154405
20
20.8248571615
0
VERTEX
8
0
62
2
6
CONTINUOUS
10
7.1124540124
20
20.8250347109
0
VERTEX
8
0
62
2
6
CONTINUOUS
10
7.1134553816
20
20.8251649560
0
VERTEX
8
0
62
2
6
CONTINUOUS
10
7.1143693461
20
20.8252675824
0
VERTEX
8
0
62
2
6
CONTINUOUS
10
7.1152514402
20
20.8253490369
0
VERTEX
8
0
62
2
6
CONTINUOUS
10
7.1161313647
20
20.8254119171
0
VERTEX
8
0
62
2
6
CONTINUOUS
10
7.1170287089
20
20.8254571531
0
VERTEX
8
0
62
2
6
CONTINUOUS
10
7.1179583865
20
20.8254847617
0
VERTEX
8
0
62
2
6
CONTINUOUS
10
7.1189329905
20
20.8254941681
0
VERTEX
8
0
62
2
6
CONTINUOUS
10
7.1196012230
20
20.8254866947
0
VERTEX
8
0
62
2
6
CONTINUOUS
10
7.1203258906
20
20.8254607248
0
VERTEX
8
0
62
2
6
CONTINUOUS
10
7.1210180927
20
20.8254169635
0
VERTEX
8
0
62
2
6
CONTINUOUS
10
7.1216784857
20
20.8253562364
0
VERTEX
8
0
62
2
6
CONTINUOUS
10
7.1223077283
20
20.8252793578
0
VERTEX
8
0
62
2
6
CONTINUOUS
10
7.1229064807
20
20.8251871294
0
VERTEX
8
0
62
2
6
CONTINUOUS
10
7.1234754044
20
20.8250803393
0
VERTEX
8
0
62
2
6
CONTINUOUS
10
7.1240151609
20
20.8249597600
0
VERTEX
8
0
62
2
6
CONTINUOUS
10
7.1245264107
20
20.8248261475
0
VERTEX
8
0
62
2
6
CONTINUOUS
10
7.1250098119
20
20.8246802392
0
VERTEX
8
0
62
2
6
CONTINUOUS
10
7.1254660186
20
20.8245227522
0
VERTEX
8
0
62
2
6
CONTINUOUS
10
7.1258956787
20
20.8243543823
0
VERTEX
8
0
62
2
6
CONTINUOUS
10
7.1262994321
20
20.8241758019
0
VERTEX
8
0
62
2
6
CONTINUOUS
10
7.1266779071
20
20.8239876591
0
VERTEX
8
0
62
2
6
CONTINUOUS
10
7.1270317182
20
20.8237905761
0
VERTEX
8
0
62
2
6
CONTINUOUS
10
7.1273614618
20
20.8235851487
0
VERTEX
8
0
62
2
6
CONTINUOUS
10
7.1275174961
20
20.8234794796
0
VERTEX
8
0
62
2
6
CONTINUOUS
10
7.1276677127
20
20.8233719459
0
VERTEX
8
0
62
2
6
CONTINUOUS
10
7.1279423502
20
20.8231579322
0
VERTEX
8
0
62
2
6
CONTINUOUS
10
7.1282004239
20
20.8229326108
0
VERTEX
8
0
62
2
6
CONTINUOUS
10
7.1284424864
20
20.8226958155
0
VERTEX
8
0
62
2
6
CONTINUOUS
10
7.1286690065
20
20.8224472965
0
VERTEX
8
0
62
2
6
CONTINUOUS
10
7.1288803644
20
20.8221867227
0
VERTEX
8
0
62
2
6
CONTINUOUS
10
7.1290768475
20
20.8219136845
0
VERTEX
8
0
62
2
6
CONTINUOUS
10
7.1291695891
20
20.8217723198
0
VERTEX
8
0
62
2
6
CONTINUOUS
10
7.1292586386
20
20.8216277112
0
VERTEX
8
0
62
2
6
CONTINUOUS
10
7.1294255937
20
20.8213287070
0
VERTEX
8
0
62
2
6
CONTINUOUS
10
7.1295777816
20
20.8210160971
0
VERTEX
8
0
62
2
6
CONTINUOUS
10
7.1297151702
20
20.8206892437
0
VERTEX
8
0
62
2
6
CONTINUOUS
10
7.1298376259
20
20.8203474519
0
VERTEX
8
0
62
2
6
CONTINUOUS
10
7.1299449156
20
20.8199899749
0
VERTEX
8
0
62
2
6
CONTINUOUS
10
7.1300367082
20
20.8196160193
0
VERTEX
8
0
62
2
6
CONTINUOUS
10
7.1301125782
20
20.8192247506
0
VERTEX
8
0
62
2
6
CONTINUOUS
10
7.1301720082
20
20.8188152970
0
VERTEX
8
0
62
2
6
CONTINUOUS
10
7.1302143935
20
20.8183867544
0
VERTEX
8
0
62
2
6
CONTINUOUS
10
7.1302390452
20
20.8179381898
0
VERTEX
8
0
62
2
6
CONTINUOUS
10
7.1302454905
20
20.8175525014
0
VERTEX
8
0
62
2
6
CONTINUOUS
10
7.1302358727
20
20.8171568253
0
VERTEX
8
0
62
2
6
CONTINUOUS
10
7.1302073734
20
20.8167724402
0
VERTEX
8
0
62
2
6
CONTINUOUS
10
7.1301604740
20
20.8163989972
0
VERTEX
8
0
62
2
6
CONTINUOUS
10
7.1300955891
20
20.8160361644
0
VERTEX
8
0
62
2
6
CONTINUOUS
10
7.1300130651
20
20.8156836315
0
VERTEX
8
0
62
2
6
CONTINUOUS
10
7.1299131809
20
20.8153411160
0
VERTEX
8
0
62
2
6
CONTINUOUS
10
7.1297961492
20
20.8150083682
0
VERTEX
8
0
62
2
6
CONTINUOUS
10
7.1296621192
20
20.8146851774
0
VERTEX
8
0
62
2
6
CONTINUOUS
10
7.1295111805
20
20.8143713779
0
VERTEX
8
0
62
2
6
CONTINUOUS
10
7.1293433689
20
20.8140668547
0
VERTEX
8
0
62
2
6
CONTINUOUS
10
7.1291586735
20
20.8137715490
0
VERTEX
8
0
62
2
6
CONTINUOUS
10
7.1289570454
20
20.8134854636
0
VERTEX
8
0
62
2
6
CONTINUOUS
10
7.1287384085
20
20.8132086675
0
VERTEX
8
0
62
2
6
CONTINUOUS
10
7.1285026718
20
20.8129412994
0
VERTEX
8
0
62
2
6
CONTINUOUS
10
7.1282497433
20
20.8126835711
0
VERTEX
8
0
62
2
6
CONTINUOUS
10
7.1279795461
20
20.8124357690
0
VERTEX
8
0
62
2
6
CONTINUOUS
10
7.1276920354
20
20.8121982549
0
VERTEX
8
0
62
2
6
CONTINUOUS
10
7.1273872181
20
20.8119714651
0
VERTEX
8
0
62
2
6
CONTINUOUS
10
7.1270651724
20
20.8117559082
0
VERTEX
8
0
62
2
6
CONTINUOUS
10
7.1267260696
20
20.8115521602
0
VERTEX
8
0
62
2
6
CONTINUOUS
10
7.1263701960
20
20.8113608583
0
VERTEX
8
0
62
2
6
CONTINUOUS
10
7.1259979745
20
20.8111826923
0
VERTEX
8
0
62
2
6
CONTINUOUS
10
7.1256099864
20
20.8110183932
0
VERTEX
8
0
62
2
6
CONTINUOUS
10
7.1252069908
20
20.8108687191
0
VERTEX
8
0
62
2
6
CONTINUOUS
10
7.1247899414
20
20.8107344391
0
VERTEX
8
0
62
2
6
CONTINUOUS
10
7.1247524350
20
20.8107233348
0
SEQEND
0
LINE
8
0
62
2
6
CONTINUOUS
10
7.1247524350
20
20.8107233348
11
7.1247524350
21
20.8104997237
0
LINE
8
0
62
2
6
CONTINUOUS
10
7.1247524350
20
20.8104997237
11
7.1312357683
21
20.7967261125
0
LINE
8
0
62
2
6
CONTINUOUS
10
7.1312357683
20
20.7967261125
11
7.1265427127
21
20.7967261125
0
LINE
8
0
62
2
6
CONTINUOUS
10
7.1265427127
20
20.7967261125
11
7.1246441016
21
20.8038886125
0
LINE
8
0
62
2
6
CONTINUOUS
10
7.1246441016
20
20.8038886125
11
7.1154607683
21
20.8088247237
0
LINE
8
0
62
2
6
CONTINUOUS
10
7.1154607683
20
20.8088247237
11
7.1154607683
21
20.7967261125
0
CIRCLE
8
0
62
2
6
CONTINUOUS
10
7.1202218794
20
20.8124286760
40
0.0202280646
0
POLYLINE
8
0
62
2
6
CONTINUOUS
66
1
70
0
0
VERTEX
8
0
62
2
6
CONTINUOUS
10
7.1450163239
20
20.8113955570
0
VERTEX
8
0
62
2
6
CONTINUOUS
10
7.1450233411
20
20.8095849370
0
VERTEX
8
0
62
2
6
CONTINUOUS
10
7.1449766845
20
20.8078911467
0
VERTEX
8
0
62
2
6
CONTINUOUS
10
7.1448796458
20
20.8063053325
0
VERTEX
8
0
62
2
6
CONTINUOUS
10
7.1447351620
20
20.8048194263
0
VERTEX
8
0
62
2
6
CONTINUOUS
10
7.1445458326
20
20.8034260497
0
VERTEX
8
0
62
2
6
CONTINUOUS
10
7.1443139293
20
20.8021184347
0
VERTEX
8
0
62
2
6
CONTINUOUS
10
7.1440414019
20
20.8008903601
0
VERTEX
8
0
62
2
6
CONTINUOUS
10
7.1437298788
20
20.7997361004
0
VERTEX
8
0
62
2
6
CONTINUOUS
10
7.1433806642
20
20.7986503840
0
VERTEX
8
0
62
2
6
CONTINUOUS
10
7.1429947333
20
20.7976283624
0
VERTEX
8
0
62
2
6
CONTINUOUS
10
7.1425727250
20
20.7966655862
0
VERTEX
8
0
62
2
6
CONTINUOUS
10
7.1421149337
20
20.7957579879
0
VERTEX
8
0
62
2
6
CONTINUOUS
10
7.1416213012
20
20.7949018711
0
VERTEX
8
0
62
2
6
CONTINUOUS
10
7.1410914084
20
20.7940939040
0
VERTEX
8
0
62
2
6
CONTINUOUS
10
7.1405244684
20
20.7933311167
0
VERTEX
8
0
62
2
6
CONTINUOUS
10
7.1399193207
20
20.7926109015
0
VERTEX
8
0
62
2
6
CONTINUOUS
10
7.1392744273
20
20.7919310137
0
VERTEX
8
0
62
2
6
CONTINUOUS
10
7.1385890791
20
20.7912906384
0
VERTEX
8
0
62
2
6
CONTINUOUS
10
7.1378616517
20
20.7906884248
0
VERTEX
8
0
62
2
6
CONTINUOUS
10
7.1370897531
20
20.7901229546
0
VERTEX
8
0
62
2
6
CONTINUOUS
10
7.1362706196
20
20.7895931802
0
VERTEX
8
0
62
2
6
CONTINUOUS
10
7.1354011171
20
20.7890984193
0
VERTEX
8
0
62
2
6
CONTINUOUS
10
7.1344777405
20
20.7886383491
0
VERTEX
8
0
62
2
6
CONTINUOUS
10
7.1334966091
20
20.7882129982
0
VERTEX
8
0
62
2
6
CONTINUOUS
10
7.1324534588
20
20.7878227382
0
VERTEX
8
0
62
2
6
CONTINUOUS
10
7.1313436282
20
20.7874682746
0
VERTEX
8
0
62
2
6
CONTINUOUS
10
7.1301620386
20
20.7871506390
0
VERTEX
8
0
62
2
6
CONTINUOUS
10
7.1289031662
20
20.7868711818
0
VERTEX
8
0
62
2
6
CONTINUOUS
10
7.1275610060
20
20.7866315677
0
VERTEX
8
0
62
2
6
CONTINUOUS
10
7.1261290255
20
20.7864337734
0
VERTEX
8
0
62
2
6
CONTINUOUS
10
7.1246001064
20
20.7862800895
0
VERTEX
8
0
62
2
6
CONTINUOUS
10
7.1229664730
20
20.7861731267
0
VERTEX
8
0
62
2
6
CONTINUOUS
10
7.1212196033
20
20.7861158279
0
VERTEX
8
0
62
2
6
CONTINUOUS
10
7.1202184812
20
20.7861066727
0
VERTEX
8
0
62
2
6
CONTINUOUS
10
7.1184284204
20
20.7861315910
0
VERTEX
8
0
62
2
6
CONTINUOUS
10
7.1167540210
20
20.7862082050
0
VERTEX
8
0
62
2
6
CONTINUOUS
10
7.1151865097
20
20.7863334011
0
VERTEX
8
0
62
2
6
CONTINUOUS
10
7.1137178765
20
20.7865044116
0
VERTEX
8
0
62
2
6
CONTINUOUS
10
7.1123407859
20
20.7867188013
0
VERTEX
8
0
62
2
6
CONTINUOUS
10
7.1110485027
20
20.7869744591
0
VERTEX
8
0
62
2
6
CONTINUOUS
10
7.1098348331
20
20.7872695947
0
VERTEX
8
0
62
2
6
CONTINUOUS
10
7.1086940753
20
20.7876027393
0
VERTEX
8
0
62
2
6
CONTINUOUS
10
7.1076209818
20
20.7879727491
0
VERTEX
8
0
62
2
6
CONTINUOUS
10
7.1066107288
20
20.7883788118
0
VERTEX
8
0
62
2
6
CONTINUOUS
10
7.1056588942
20
20.7888204541
0
VERTEX
8
0
62
2
6
CONTINUOUS
10
7.1047614409
20
20.7892975505
0
VERTEX
8
0
62
2
6
CONTINUOUS
10
7.1039147066
20
20.7898103319
0
VERTEX
8
0
62
2
6
CONTINUOUS
10
7.1031153972
20
20.7903593950
0
VERTEX
8
0
62
2
6
CONTINUOUS
10
7.1023605839
20
20.7909457092
0
VERTEX
8
0
62
2
6
CONTINUOUS
10
7.1016477025
20
20.7915706240
0
VERTEX
8
0
62
2
6
CONTINUOUS
10
7.1009751707
20
20.7922352273
0
VERTEX
8
0
62
2
6
CONTINUOUS
10
7.1003419201
20
20.7929404931
0
VERTEX
8
0
62
2
6
CONTINUOUS
10
7.0997462114
20
20.7936886404
0
VERTEX
8
0
62
2
6
CONTINUOUS
10
7.0991866762
20
20.7944822724
0
VERTEX
8
0
62
2
6
CONTINUOUS
10
7.0986623117
20
20.7953243776
0
VERTEX
8
0
62
2
6
CONTINUOUS
10
7.0981724752
20
20.7962183339
0
VERTEX
8
0
62
2
6
CONTINUOUS
10
7.0977168762
20
20.7971679159
0
VERTEX
8
0
62
2
6
CONTINUOUS
10
7.0972955688
20
20.7981773061
0
VERTEX
8
0
62
2
6
CONTINUOUS
10
7.0969089421
20
20.7992511135
0
VERTEX
8
0
62
2
6
CONTINUOUS
10
7.0965577126
20
20.8003943982
0
VERTEX
8
0
62
2
6
CONTINUOUS
10
7.0962429168
20
20.8016127062
0
VERTEX
8
0
62
2
6
CONTINUOUS
10
7.0959659058
20
20.8029121146
0
VERTEX
8
0
62
2
6
CONTINUOUS
10
7.0957283432
20
20.8042992895
0
VERTEX
8
0
62
2
6
CONTINUOUS
10
7.0955322069
20
20.8057815603
0
VERTEX
8
0
62
2
6
CONTINUOUS
10
7.0953797957
20
20.8073670117
0
VERTEX
8
0
62
2
6
CONTINUOUS
10
7.0952737427
20
20.8090646008
0
VERTEX
8
0
62
2
6
CONTINUOUS
10
7.0952170365
20
20.8108843023
0
VERTEX
8
0
62
2
6
CONTINUOUS
10
7.0952116464
20
20.8112887657
0
VERTEX
8
0
62
2
6
CONTINUOUS
10
7.0952258962
20
20.8126296504
0
VERTEX
8
0
62
2
6
CONTINUOUS
10
7.0952955339
20
20.8139337874
0
VERTEX
8
0
62
2
6
CONTINUOUS
10
7.0954191138
20
20.8152018156
0
VERTEX
8
0
62
2
6
CONTINUOUS
10
7.0955953057
20
20.8164343433
0
VERTEX
8
0
62
2
6
CONTINUOUS
10
7.0958228968
20
20.8176319387
0
VERTEX
8
0
62
2
6
CONTINUOUS
10
7.0961007916
20
20.8187951196
0
VERTEX
8
0
62
2
6
CONTINUOUS
10
7.0964280103
20
20.8199243429
0
VERTEX
8
0
62
2
6
CONTINUOUS
10
7.0968036850
20
20.8210199934
0
VERTEX
8
0
62
2
6
CONTINUOUS
10
7.0972270536
20
20.8220823718
0
VERTEX
8
0
62
2
6
CONTINUOUS
10
7.0976974518
20
20.8231116829
0
VERTEX
8
0
62
2
6
CONTINUOUS
10
7.0982143014
20
20.8241080247
0
VERTEX
8
0
62
2
6
CONTINUOUS
10
7.0987770966
20
20.8250713763
0
VERTEX
8
0
62
2
6
CONTINUOUS
10
7.0993853867
20
20.8260015884
0
VERTEX
8
0
62
2
6
CONTINUOUS
10
7.1000387555
20
20.8268983734
0
VERTEX
8
0
62
2
6
CONTINUOUS
10
7.1007367987
20
20.8277612984
0
VERTEX
8
0
62
2
6
CONTINUOUS
10
7.1014790968
20
20.8285897793
0
VERTEX
8
0
62
2
6
CONTINUOUS
10
7.1022651863
20
20.8293830778
0
VERTEX
8
0
62
2
6
CONTINUOUS
10
7.1030945276
20
20.8301403010
0
VERTEX
8
0
62
2
6
CONTINUOUS
10
7.1039664716
20
20.8308604047
0
VERTEX
8
0
62
2
6
CONTINUOUS
10
7.1048802239
20
20.8315422001
0
VERTEX
8
0
62
2
6
CONTINUOUS
10
7.1058348095
20
20.8321843649
0
VERTEX
8
0
62
2
6
CONTINUOUS
10
7.1068290366
20
20.8327854589
0
VERTEX
8
0
62
2
6
CONTINUOUS
10
7.1078614629
20
20.8333439439
0
VERTEX
8
0
62
2
6
CONTINUOUS
10
7.1089303644
20
20.8338582091
0
VERTEX
8
0
62
2
6
CONTINUOUS
10
7.1100337088
20
20.8343266006
0
VERTEX
8
0
62
2
6
CONTINUOUS
10
7.1111691351
20
20.8347474551
0
VERTEX
8
0
62
2
6
CONTINUOUS
10
7.1123339409
20
20.8351191382
0
VERTEX
8
0
62
2
6
CONTINUOUS
10
7.1135250798
20
20.8354400842
0
VERTEX
8
0
62
2
6
CONTINUOUS
10
7.1147391692
20
20.8357088381
0
VERTEX
8
0
62
2
6
CONTINUOUS
10
7.1159725097
20
20.8359240976
0
VERTEX
8
0
62
2
6
CONTINUOUS
10
7.1172211182
20
20.8360847519
0
VERTEX
8
0
62
2
6
CONTINUOUS
10
7.1184807709
20
20.8361899184
0
VERTEX
8
0
62
2
6
CONTINUOUS
10
7.1197470590
20
20.8362389715
0
VERTEX
8
0
62
2
6
CONTINUOUS
10
7.1206109720
20
20.8362400684
0
VERTEX
8
0
62
2
6
CONTINUOUS
10
7.1218766490
20
20.8361942500
0
VERTEX
8
0
62
2
6
CONTINUOUS
10
7.1231351370
20
20.8360923543
0
VERTEX
8
0
62
2
6
CONTINUOUS
10
7.1243820478
20
20.8359350243
0
VERTEX
8
0
62
2
6
CONTINUOUS
10
7.1256131866
20
20.8357231584
0
VERTEX
8
0
62
2
6
CONTINUOUS
10
7.1268246057
20
20.8354578798
0
VERTEX
8
0
62
2
6
CONTINUOUS
10
7.1280126472
20
20.8351405004
0
VERTEX
8
0
62
2
6
CONTINUOUS
10
7.1291739734
20
20.8347724809
0
VERTEX
8
0
62
2
6
CONTINUOUS
10
7.1303055860
20
20.8343553890
0
VERTEX
8
0
62
2
6
CONTINUOUS
10
7.1314048317
20
20.8338908575
0
VERTEX
8
0
62
2
6
CONTINUOUS
10
7.1324693985
20
20.8333805442
0
VERTEX
8
0
62
2
6
CONTINUOUS
10
7.1334973021
20
20.8328260942
0
VERTEX
8
0
62
2
6
CONTINUOUS
10
7.1344868642
20
20.8322291062
0
VERTEX
8
0
62
2
6
CONTINUOUS
10
7.1354366852
20
20.8315911032
0
VERTEX
8
0
62
2
6
CONTINUOUS
10
7.1363456126
20
20.8309135074
0
VERTEX
8
0
62
2
6
CONTINUOUS
10
7.1372127060
20
20.8301976211
0
VERTEX
8
0
62
2
6
CONTINUOUS
10
7.1380372015
20
20.8294446104
0
VERTEX
8
0
62
2
6
CONTINUOUS
10
7.1388184757
20
20.8286554957
0
VERTEX
8
0
62
2
6
CONTINUOUS
10
7.1395560098
20
20.8278311442
0
VERTEX
8
0
62
2
6
CONTINUOUS
10
7.1402493560
20
20.8269722676
0
VERTEX
8
0
62
2
6
CONTINUOUS
10
7.1408981057
20
20.8260794225
0
VERTEX
8
0
62
2
6
CONTINUOUS
10
7.1415018608
20
20.8251530140
0
VERTEX
8
0
62
2
6
CONTINUOUS
10
7.1420602069
20
20.8241933011
0
VERTEX
8
0
62
2
6
CONTINUOUS
10
7.1425726904
20
20.8232004052
0
VERTEX
8
0
62
2
6
CONTINUOUS
10
7.1430387986
20
20.8221743190
0
VERTEX
8
0
62
2
6
CONTINUOUS
10
7.1434579430
20
20.8211149174
0
VERTEX
8
0
62
2
6
CONTINUOUS
10
7.1438294452
20
20.8200219686
0
VERTEX
8
0
62
2
6
CONTINUOUS
10
7.1441525260
20
20.8188951459
0
VERTEX
8
0
62
2
6
CONTINUOUS
10
7.1444262979
20
20.8177340397
0
VERTEX
8
0
62
2
6
CONTINUOUS
10
7.1446497590
20
20.8165381692
0
VERTEX
8
0
62
2
6
CONTINUOUS
10
7.1448217897
20
20.8153069939
0
VERTEX
8
0
62
2
6
CONTINUOUS
10
7.1449411515
20
20.8140399240
0
VERTEX
8
0
62
2
6
CONTINUOUS
10
7.1450064875
20
20.8127363310
0
VERTEX
8
0
62
2
6
CONTINUOUS
10
7.1450184400
20
20.8120705969
0
VERTEX
8
0
62
2
6
CONTINUOUS
10
7.1450163239
20
20.8113955570
0
SEQEND
0
POLYLINE
8
0
62
2
6
CONTINUOUS
66
1
70
0
0
VERTEX
8
0
62
2
6
CONTINUOUS
10
7.2053732683
20
21.2173802792
0
VERTEX
8
0
62
2
6
CONTINUOUS
10
7.2053732683
20
20.7077775014
0
VERTEX
8
0
62
2
6
CONTINUOUS
10
6.9390874350
20
20.7077775014
0
VERTEX
8
0
62
2
6
CONTINUOUS
10
6.1631988239
20
20.7077775014
0
VERTEX
8
0
62
2
6
CONTINUOUS
10
5.3873102127
20
20.7077775014
0
VERTEX
8
0
62
2
6
CONTINUOUS
10
4.6114216016
20
20.7077775014
0
VERTEX
8
0
62
2
6
CONTINUOUS
10
3.8355329905
20
20.7077775014
0
VERTEX
8
0
62
2
6
CONTINUOUS
10
3.8355329905
20
21.2173802792
0
VERTEX
8
0
62
2
6
CONTINUOUS
10
4.1018188239
20
21.2173802792
0
VERTEX
8
0
62
2
6
CONTINUOUS
10
4.8777074350
20
21.2173802792
0
VERTEX
8
0
62
2
6
CONTINUOUS
10
5.6535960461
20
21.2173802792
0
VERTEX
8
0
62
2
6
CONTINUOUS
10
6.4294846572
20
21.2173802792
0
VERTEX
8
0
62
2
6
CONTINUOUS
10
7.2053732683
20
21.2173802792
0
SEQEND
0
POLYLINE
8
0
62
2
6
CONTINUOUS
66
1
70
0
0
VERTEX
8
0
62
2
6
CONTINUOUS
10
7.1986454905
20
21.2106663903
0
VERTEX
8
0
62
2
6
CONTINUOUS
10
7.1986454905
20
20.7144913903
0
VERTEX
8
0
62
2
6
CONTINUOUS
10
6.9243057683
20
20.7144913903
0
VERTEX
8
0
62
2
6
CONTINUOUS
10
6.1537910461
20
20.7144913903
0
VERTEX
8
0
62
2
6
CONTINUOUS
10
5.3832763239
20
20.7144913903
0
VERTEX
8
0
62
2
6
CONTINUOUS
10
4.6127616016
20
20.7144913903
0
VERTEX
8
0
62
2
6
CONTINUOUS
10
3.8422468794
20
20.7144913903
0
VERTEX
8
0
62
2
6
CONTINUOUS
10
3.8422468794
20
21.2106663903
0
VERTEX
8
0
62
2
6
CONTINUOUS
10
4.1165866016
20
21.2106663903
0
VERTEX
8
0
62
2
6
CONTINUOUS
10
4.8871013239
20
21.2106663903
0
VERTEX
8
0
62
2
6
CONTINUOUS
10
5.6576160461
20
21.2106663903
0
VERTEX
8
0
62
2
6
CONTINUOUS
10
6.4281307683
20
21.2106663903
0
VERTEX
8
0
62
2
6
CONTINUOUS
10
7.1986454905
20
21.2106663903
0
SEQEND
0
POLYLINE
8
0
62
2
6
CONTINUOUS
66
1
70
0
0
VERTEX
8
0
62
2
6
CONTINUOUS
10
3.7832066016
20
21.2696886125
0
VERTEX
8
0
62
2
6
CONTINUOUS
10
3.7832066016
20
20.6554775014
0
VERTEX
8
0
62
2
6
CONTINUOUS
10
3.9867310461
20
20.6554775014
0
VERTEX
8
0
62
2
6
CONTINUOUS
10
4.8044666016
20
20.6554775014
0
VERTEX
8
0
62
2
6
CONTINUOUS
10
5.6222021572
20
20.6554775014
0
VERTEX
8
0
62
2
6
CONTINUOUS
10
6.4399377127
20
20.6554775014
0
VERTEX
8
0
62
2
6
CONTINUOUS
10
7.2576732683
20
20.6554775014
0
VERTEX
8
0
62
2
6
CONTINUOUS
10
7.2576732683
20
21.2696886125
0
VERTEX
8
0
62
2
6
CONTINUOUS
10
7.0541488239
20
21.2696886125
0
VERTEX
8
0
62
2
6
CONTINUOUS
10
6.2364132683
20
21.2696886125
0
VERTEX
8
0
62
2
6
CONTINUOUS
10
5.4186777127
20
21.2696886125
0
VERTEX
8
0
62
2
6
CONTINUOUS
10
4.6009421572
20
21.2696886125
0
VERTEX
8
0
62
2
6
CONTINUOUS
10
3.7832066016
20
21.2696886125
0
SEQEND
0
LINE
8
0
62
2
6
CONTINUOUS
10
7.0292788239
20
21.0734330570
11
7.0271093794
21
21.0734330570
0
ARC
8
0
62
2
6
CONTINUOUS
10
6.9121558506
20
20.8805312359
40
0.2245560651
50
59.2085551990
51
93.5831215674
0
POLYLINE
8
0
62
2
6
CONTINUOUS
66
1
70
0
0
VERTEX
8
0
62
2
6
CONTINUOUS
10
6.8981218794
20
21.1046483348
0
VERTEX
8
0
62
2
6
CONTINUOUS
10
6.8882566870
20
21.1045122328
0
VERTEX
8
0
62
2
6
CONTINUOUS
10
6.8775368578
20
21.1040485961
0
VERTEX
8
0
62
2
6
CONTINUOUS
10
6.8670372185
20
21.1032631143
0
VERTEX
8
0
62
2
6
CONTINUOUS
10
6.8567763403
20
21.1021639801
0
VERTEX
8
0
62
2
6
CONTINUOUS
10
6.8467718271
20
21.1007602939
0
VERTEX
8
0
62
2
6
CONTINUOUS
10
6.8370401366
20
21.0990619898
0
VERTEX
8
0
62
2
6
CONTINUOUS
10
6.8275964184
20
21.0970797412
0
VERTEX
8
0
62
2
6
CONTINUOUS
10
6.8184543766
20
21.0948248499
0
VERTEX
8
0
62
2
6
CONTINUOUS
10
6.8096261598
20
21.0923091203
0
VERTEX
8
0
62
2
6
CONTINUOUS
10
6.8011222824
20
21.0895447218
0
VERTEX
8
0
62
2
6
CONTINUOUS
10
6.7929515797
20
21.0865440434
0
VERTEX
8
0
62
2
6
CONTINUOUS
10
6.7851211967
20
21.0833195435
0
VERTEX
8
0
62
2
6
CONTINUOUS
10
6.7776366119
20
21.0798835994
0
VERTEX
8
0
62
2
6
CONTINUOUS
10
6.7705016941
20
21.0762483592
0
VERTEX
8
0
62
2
6
CONTINUOUS
10
6.7637187899
20
21.0724256005
0
VERTEX
8
0
62
2
6
CONTINUOUS
10
6.7572888385
20
21.0684265980
0
VERTEX
8
0
62
2
6
CONTINUOUS
10
6.7512115115
20
21.0642620024
0
VERTEX
8
0
62
2
6
CONTINUOUS
10
6.7454853718
20
21.0599417338
0
VERTEX
8
0
62
2
6
CONTINUOUS
10
6.7401080493
20
21.0554748901
0
VERTEX
8
0
62
2
6
CONTINUOUS
10
6.7350764279
20
21.0508696724
0
VERTEX
8
0
62
2
6
CONTINUOUS
10
6.7303868394
20
21.0461333269
0
VERTEX
8
0
62
2
6
CONTINUOUS
10
6.7260352619
20
21.0412721065
0
VERTEX
8
0
62
2
6
CONTINUOUS
10
6.7220175168
20
21.0362912483
0
VERTEX
8
0
62
2
6
CONTINUOUS
10
6.7183294621
20
21.0311949712
0
VERTEX
8
0
62
2
6
CONTINUOUS
10
6.7149671785
20
21.0259864890
0
VERTEX
8
0
62
2
6
CONTINUOUS
10
6.7119271444
20
21.0206680417
0
VERTEX
8
0
62
2
6
CONTINUOUS
10
6.7092063978
20
21.0152409409
0
VERTEX
8
0
62
2
6
CONTINUOUS
10
6.7068026828
20
21.0097056309
0
VERTEX
8
0
62
2
6
CONTINUOUS
10
6.7047145772
20
21.0040617605
0
VERTEX
8
0
62
2
6
CONTINUOUS
10
6.7029416013
20
20.9983082659
0
VERTEX
8
0
62
2
6
CONTINUOUS
10
6.7014843059
20
20.9924434617
0
VERTEX
8
0
62
2
6
CONTINUOUS
10
6.7003443389
20
20.9864651368
0
VERTEX
8
0
62
2
6
CONTINUOUS
10
6.6995244908
20
20.9803706537
0
VERTEX
8
0
62
2
6
CONTINUOUS
10
6.6990287199
20
20.9741570473
0
VERTEX
8
0
62
2
6
CONTINUOUS
10
6.6989039203
20
20.9710045451
0
VERTEX
8
0
62
2
6
CONTINUOUS
10
6.6988621572
20
20.9678219459
0
VERTEX
8
0
62
2
6
CONTINUOUS
10
6.6990286927
20
20.9616917566
0
VERTEX
8
0
62
2
6
CONTINUOUS
10
6.6995266541
20
20.9556154358
0
VERTEX
8
0
62
2
6
CONTINUOUS
10
6.7003543323
20
20.9495925936
0
VERTEX
8
0
62
2
6
CONTINUOUS
10
6.7015109883
20
20.9436232688
0
VERTEX
8
0
62
2
6
CONTINUOUS
10
6.7029967825
20
20.9377080333
0
VERTEX
8
0
62
2
6
CONTINUOUS
10
6.7048126830
20
20.9318480944
0
VERTEX
8
0
62
2
6
CONTINUOUS
10
6.7069603519
20
20.9260453904
0
VERTEX
8
0
62
2
6
CONTINUOUS
10
6.7094420114
20
20.9203026792
0
VERTEX
8
0
62
2
6
CONTINUOUS
10
6.7122602910
20
20.9146236144
0
VERTEX
8
0
62
2
6
CONTINUOUS
10
6.7154180577
20
20.9090128097
0
VERTEX
8
0
62
2
6
CONTINUOUS
10
6.7189182317
20
20.9034758870
0
VERTEX
8
0
62
2
6
CONTINUOUS
10
6.7227635923
20
20.8980195062
0
VERTEX
8
0
62
2
6
CONTINUOUS
10
6.7269565752
20
20.8926513770
0
VERTEX
8
0
62
2
6
CONTINUOUS
10
6.7314990682
20
20.8873802488
0
VERTEX
8
0
62
2
6
CONTINUOUS
10
6.7363922084
20
20.8822158789
0
VERTEX
8
0
62
2
6
CONTINUOUS
10
6.7416361864
20
20.8771689786
0
VERTEX
8
0
62
2
6
CONTINUOUS
10
6.7472300639
20
20.8722511361
0
VERTEX
8
0
62
2
6
CONTINUOUS
10
6.7531716086
20
20.8674747179
0
VERTEX
8
0
62
2
6
CONTINUOUS
10
6.7594571535
20
20.8628527495
0
VERTEX
8
0
62
2
6
CONTINUOUS
10
6.7660814851
20
20.8583987777
0
VERTEX
8
0
62
2
6
CONTINUOUS
10
6.7730377646
20
20.8541267169
0
VERTEX
8
0
62
2
6
CONTINUOUS
10
6.7803174868
20
20.8500506844
0
VERTEX
8
0
62
2
6
CONTINUOUS
10
6.7879104776
20
20.8461848278
0
VERTEX
8
0
62
2
6
CONTINUOUS
10
6.7958049326
20
20.8425431501
0
VERTEX
8
0
62
2
6
CONTINUOUS
10
6.8039874949
20
20.8391393379
0
VERTEX
8
0
62
2
6
CONTINUOUS
10
6.8124433693
20
20.8359865974
0
VERTEX
8
0
62
2
6
CONTINUOUS
10
6.8211564707
20
20.8330975041
0
VERTEX
8
0
62
2
6
CONTINUOUS
10
6.8301095995
20
20.8304838698
0
VERTEX
8
0
62
2
6
CONTINUOUS
10
6.8392846379
20
20.8281566306
0
VERTEX
8
0
62
2
6
CONTINUOUS
10
6.8469511012
20
20.8264709707
0
VERTEX
8
0
62
2
6
CONTINUOUS
10
6.8564727985
20
20.8246909538
0
VERTEX
8
0
62
2
6
CONTINUOUS
10
6.8661545133
20
20.8232232394
0
VERTEX
8
0
62
2
6
CONTINUOUS
10
6.8759767773
20
20.8220740368
0
VERTEX
8
0
62
2
6
CONTINUOUS
10
6.8859203727
20
20.8212485259
0
VERTEX
8
0
62
2
6
CONTINUOUS
10
6.8959664928
20
20.8207509037
0
VERTEX
8
0
62
2
6
CONTINUOUS
10
6.9060968794
20
20.8205844459
0
VERTEX
8
0
62
2
6
CONTINUOUS
10
6.9183516060
20
20.8207245580
0
VERTEX
8
0
62
2
6
CONTINUOUS
10
6.9316830028
20
20.8211948732
0
VERTEX
8
0
62
2
6
CONTINUOUS
10
6.9448995449
20
20.8219909857
0
VERTEX
8
0
62
2
6
CONTINUOUS
10
6.9579216155
20
20.8231038703
0
VERTEX
8
0
62
2
6
CONTINUOUS
10
6.9706793526
20
20.8245216937
0
VERTEX
8
0
62
2
6
CONTINUOUS
10
6.9831130337
20
20.8262304827
0
VERTEX
8
0
62
2
6
CONTINUOUS
10
6.9951729798
20
20.8282147506
0
VERTEX
8
0
62
2
6
CONTINUOUS
10
7.0068191016
20
20.8304580570
0
SEQEND
0
POLYLINE
8
0
62
2
6
CONTINUOUS
66
1
70
0
0
VERTEX
8
0
62
2
6
CONTINUOUS
10
7.0068191016
20
20.8304580570
0
VERTEX
8
0
62
2
6
CONTINUOUS
10
7.0068191016
20
20.9053830570
0
VERTEX
8
0
62
2
6
CONTINUOUS
10
7.0068190261
20
20.9057880802
0
VERTEX
8
0
62
2
6
CONTINUOUS
10
7.0067882702
20
20.9112104795
0
VERTEX
8
0
62
2
6
CONTINUOUS
10
7.0066890000
20
20.9155259829
0
VERTEX
8
0
62
2
6
CONTINUOUS
10
7.0065154344
20
20.9192555438
0
VERTEX
8
0
62
2
6
CONTINUOUS
10
7.0062664420
20
20.9225940352
0
VERTEX
8
0
62
2
6
CONTINUOUS
10
7.0059421650
20
20.9256402201
0
VERTEX
8
0
62
2
6
CONTINUOUS
10
7.0055432024
20
20.9284530050
0
VERTEX
8
0
62
2
6
CONTINUOUS
10
7.0050702817
20
20.9310713791
0
VERTEX
8
0
62
2
6
CONTINUOUS
10
7.0045240815
20
20.9335231037
0
VERTEX
8
0
62
2
6
CONTINUOUS
10
7.0039051152
20
20.9358290402
0
VERTEX
8
0
62
2
6
CONTINUOUS
10
7.0032136453
20
20.9380055184
0
VERTEX
8
0
62
2
6
CONTINUOUS
10
7.0024496157
20
20.9400657231
0
VERTEX
8
0
62
2
6
CONTINUOUS
10
7.0016125950
20
20.9420205481
0
VERTEX
8
0
62
2
6
CONTINUOUS
10
7.0007017311
20
20.9438791430
0
VERTEX
8
0
62
2
6
CONTINUOUS
10
6.9997157122
20
20.9456492721
0
VERTEX
8
0
62
2
6
CONTINUOUS
10
6.9986527371
20
20.9473375552
0
VERTEX
8
0
62
2
6
CONTINUOUS
10
6.9975104924
20
20.9489496316
0
VERTEX
8
0
62
2
6
CONTINUOUS
10
6.9962861370
20
20.9504902734
0
VERTEX
8
0
62
2
6
CONTINUOUS
10
6.9949762937
20
20.9519634637
0
VERTEX
8
0
62
2
6
CONTINUOUS
10
6.9935770466
20
20.9533724540
0
VERTEX
8
0
62
2
6
CONTINUOUS
10
6.9920839450
20
20.9547198054
0
VERTEX
8
0
62
2
6
CONTINUOUS
10
6.9904920107
20
20.9560074217
0
VERTEX
8
0
62
2
6
CONTINUOUS
10
6.9887957494
20
20.9572365765
0
VERTEX
8
0
62
2
6
CONTINUOUS
10
6.9869891641
20
20.9584079378
0
VERTEX
8
0
62
2
6
CONTINUOUS
10
6.9860423102
20
20.9589721000
0
VERTEX
8
0
62
2
6
CONTINUOUS
10
6.9850658064
20
20.9595215709
0
VERTEX
8
0
62
2
6
CONTINUOUS
10
6.9830219864
20
20.9605754188
0
VERTEX
8
0
62
2
6
CONTINUOUS
10
6.9808505672
20
20.9615689002
0
VERTEX
8
0
62
2
6
CONTINUOUS
10
6.9785439647
20
20.9625008902
0
VERTEX
8
0
62
2
6
CONTINUOUS
10
6.9760941603
20
20.9633697467
0
VERTEX
8
0
62
2
6
CONTINUOUS
10
6.9734927127
20
20.9641733348
0
SEQEND
0
LINE
8
0
62
2
6
CONTINUOUS
10
6.9734927127
20
20.9641733348
11
6.9734927127
21
20.9657261125
0
LINE
8
0
62
2
6
CONTINUOUS
10
6.9734927127
20
20.9657261125
11
7.0843468794
21
20.9657261125
0
LINE
8
0
62
2
6
CONTINUOUS
10
7.0843468794
20
20.9657261125
11
7.0843468794
21
20.9641733348
0
LINE
8
0
62
2
6
CONTINUOUS
10
7.0843468794
20
20.9641733348
11
7.0807246572
21
20.9417997237
0
LINE
8
0
62
2
6
CONTINUOUS
10
7.0807246572
20
20.9417997237
11
7.0807246572
21
20.8221372237
0
LINE
8
0
62
2
6
CONTINUOUS
10
7.0807246572
20
20.8221372237
11
7.0843468794
21
20.7987205570
0
POLYLINE
8
0
62
2
6
CONTINUOUS
66
1
70
0
0
VERTEX
8
0
62
2
6
CONTINUOUS
10
7.0843468794
20
20.7987205570
0
VERTEX
8
0
62
2
6
CONTINUOUS
10
7.0708325196
20
20.7969047152
0
VERTEX
8
0
62
2
6
CONTINUOUS
10
7.0369476180
20
20.7924723165
0
VERTEX
8
0
62
2
6
CONTINUOUS
10
7.0104364777
20
20.7893182119
0
VERTEX
8
0
62
2
6
CONTINUOUS
10
6.9874369189
20
20.7869599032
0
VERTEX
8
0
62
2
6
CONTINUOUS
10
6.9665687769
20
20.7852260342
0
VERTEX
8
0
62
2
6
CONTINUOUS
10
6.9471479984
20
20.7840339002
0
VERTEX
8
0
62
2
6
CONTINUOUS
10
6.9287732726
20
20.7833374842
0
VERTEX
8
0
62
2
6
CONTINUOUS
10
6.9111829905
20
20.7831094459
0
VERTEX
8
0
62
2
6
CONTINUOUS
10
6.9024332265
20
20.7831640209
0
VERTEX
8
0
62
2
6
CONTINUOUS
10
6.8847530820
20
20.7836180760
0
VERTEX
8
0
62
2
6
CONTINUOUS
10
6.8676564600
20
20.7845191962
0
VERTEX
8
0
62
2
6
CONTINUOUS
10
6.8511500649
20
20.7858513412
0
VERTEX
8
0
62
2
6
CONTINUOUS
10
6.8352393607
20
20.7875980065
0
VERTEX
8
0
62
2
6
CONTINUOUS
10
6.8199285025
20
20.7897423003
0
VERTEX
8
0
62
2
6
CONTINUOUS
10
6.8052202805
20
20.7922670314
0
VERTEX
8
0
62
2
6
CONTINUOUS
10
6.7911160803
20
20.7951548067
0
VERTEX
8
0
62
2
6
CONTINUOUS
10
6.7776158604
20
20.7983881397
0
VERTEX
8
0
62
2
6
CONTINUOUS
10
6.7647181492
20
20.8019495663
0
VERTEX
8
0
62
2
6
CONTINUOUS
10
6.7524200629
20
20.8058217685
0
VERTEX
8
0
62
2
6
CONTINUOUS
10
6.7407173459
20
20.8099877020
0
VERTEX
8
0
62
2
6
CONTINUOUS
10
6.7296044330
20
20.8144307290
0
VERTEX
8
0
62
2
6
CONTINUOUS
10
6.7190745355
20
20.8191347500
0
VERTEX
8
0
62
2
6
CONTINUOUS
10
6.7091197494
20
20.8240843365
0
VERTEX
8
0
62
2
6
CONTINUOUS
10
6.6997311861
20
20.8292648583
0
VERTEX
8
0
62
2
6
CONTINUOUS
10
6.6908991239
20
20.8346626060
0
VERTEX
8
0
62
2
6
CONTINUOUS
10
6.6826131789
20
20.8402649039
0
VERTEX
8
0
62
2
6
CONTINUOUS
10
6.6748624937
20
20.8460602120
0
VERTEX
8
0
62
2
6
CONTINUOUS
10
6.6676359404
20
20.8520382136
0
VERTEX
8
0
62
2
6
CONTINUOUS
10
6.6609223361
20
20.8581898865
0
VERTEX
8
0
62
2
6
CONTINUOUS
10
6.6547106669
20
20.8645075553
0
VERTEX
8
0
62
2
6
CONTINUOUS
10
6.6489903166
20
20.8709849223
0
VERTEX
8
0
62
2
6
CONTINUOUS
10
6.6437512962
20
20.8776170751
0
VERTEX
8
0
62
2
6
CONTINUOUS
10
6.6389844688
20
20.8844004704
0
VERTEX
8
0
62
2
6
CONTINUOUS
10
6.6346817661
20
20.8913328917
0
VERTEX
8
0
62
2
6
CONTINUOUS
10
6.6308363907
20
20.8984133823
0
VERTEX
8
0
62
2
6
CONTINUOUS
10
6.6274429985
20
20.9056421534
0
VERTEX
8
0
62
2
6
CONTINUOUS
10
6.6244978584
20
20.9130204700
0
VERTEX
8
0
62
2
6
CONTINUOUS
10
6.6219989833
20
20.9205505161
0
VERTEX
8
0
62
2
6
CONTINUOUS
10
6.6199462296
20
20.9282352442
0
VERTEX
8
0
62
2
6
CONTINUOUS
10
6.6183422773
20
20.9360729621
0
VERTEX
8
0
62
2
6
CONTINUOUS
10
6.6171902715
20
20.9440643576
0
VERTEX
8
0
62
2
6
CONTINUOUS
10
6.6164943985
20
20.9522135129
0
VERTEX
8
0
62
2
6
CONTINUOUS
10
6.6162607683
20
20.9605247237
0
VERTEX
8
0
62
2
6
CONTINUOUS
10
6.6164948269
20
20.9688862311
0
VERTEX
8
0
62
2
6
CONTINUOUS
10
6.6171919376
20
20.9770811640
0
VERTEX
8
0
62
2
6
CONTINUOUS
10
6.6183451917
20
20.9851110129
0
VERTEX
8
0
62
2
6
CONTINUOUS
10
6.6199489010
20
20.9929783481
0
VERTEX
8
0
62
2
6
CONTINUOUS
10
6.6219997530
20
21.0006893100
0
VERTEX
8
0
62
2
6
CONTINUOUS
10
6.6244965559
20
21.0082493794
0
VERTEX
8
0
62
2
6
CONTINUOUS
10
6.6274401767
20
21.0156632108
0
VERTEX
8
0
62
2
6
CONTINUOUS
10
6.6308334426
20
21.0229344739
0
VERTEX
8
0
62
2
6
CONTINUOUS
10
6.6346810056
20
21.0300657043
0
VERTEX
8
0
62
2
6
CONTINUOUS
10
6.6389891733
20
21.0370581716
0
VERTEX
8
0
62
2
6
CONTINUOUS
10
6.6437657080
20
21.0439117647
0
VERTEX
8
0
62
2
6
CONTINUOUS
10
6.6490195968
20
21.0506249002
0
VERTEX
8
0
62
2
6
CONTINUOUS
10
6.6547607984
20
21.0571944536
0
VERTEX
8
0
62
2
6
CONTINUOUS
10
6.6609999701
20
21.0636157159
0
VERTEX
8
0
62
2
6
CONTINUOUS
10
6.6677481783
20
21.0698823757
0
VERTEX
8
0
62
2
6
CONTINUOUS
10
6.6750165999
20
21.0759865269
0
VERTEX
8
0
62
2
6
CONTINUOUS
10
6.6828162158
20
21.0819187014
0
VERTEX
8
0
62
2
6
CONTINUOUS
10
6.6911575044
20
21.0876679264
0
VERTEX
8
0
62
2
6
CONTINUOUS
10
6.7000501367
20
21.0932218054
0
VERTEX
8
0
62
2
6
CONTINUOUS
10
6.7095026801
20
21.0985666205
0
VERTEX
8
0
62
2
6
CONTINUOUS
10
6.7195223148
20
21.1036874569
0
VERTEX
8
0
62
2
6
CONTINUOUS
10
6.7301145672
20
21.1085683450
0
VERTEX
8
0
62
2
6
CONTINUOUS
10
6.7412830670
20
21.1131924209
0
VERTEX
8
0
62
2
6
CONTINUOUS
10
6.7530293312
20
21.1175421012
0
VERTEX
8
0
62
2
6
CONTINUOUS
10
6.7653525816
20
21.1215992696
0
VERTEX
8
0
62
2
6
CONTINUOUS
10
6.7782495988
20
21.1253454733
0
VERTEX
8
0
62
2
6
CONTINUOUS
10
6.7917146176
20
21.1287621243
0
VERTEX
8
0
62
2
6
CONTINUOUS
10
6.8057392662
20
21.1318307028
0
VERTEX
8
0
62
2
6
CONTINUOUS
10
6.8203125515
20
21.1345329577
0
VERTEX
8
0
62
2
6
CONTINUOUS
10
6.8354208910
20
21.1368511012
0
VERTEX
8
0
62
2
6
CONTINUOUS
10
6.8510481902
20
21.1387679922
0
VERTEX
8
0
62
2
6
CONTINUOUS
10
6.8671759639
20
21.1402673052
0
VERTEX
8
0
62
2
6
CONTINUOUS
10
6.8837834974
20
21.1413336813
0
VERTEX
8
0
62
2
6
CONTINUOUS
10
6.9008480428
20
21.1419528578
0
VERTEX
8
0
62
2
6
CONTINUOUS
10
6.9155232683
20
21.1421177792
0
VERTEX
8
0
62
2
6
CONTINUOUS
10
6.9337434442
20
21.1418839276
0
VERTEX
8
0
62
2
6
CONTINUOUS
10
6.9520764445
20
21.1411804199
0
VERTEX
8
0
62
2
6
CONTINUOUS
10
6.9705715270
20
21.1400022344
0
VERTEX
8
0
62
2
6
CONTINUOUS
10
6.9892824679
20
21.1383413203
0
VERTEX
8
0
62
2
6
CONTINUOUS
10
7.0082687256
20
21.1361862169
0
VERTEX
8
0
62
2
6
CONTINUOUS
10
7.0275969437
20
21.1335215454
0
VERTEX
8
0
62
2
6
CONTINUOUS
10
7.0292788239
20
21.1332677792
0
SEQEND
0
LINE
8
0
62
2
6
CONTINUOUS
10
7.0292788239
20
21.1332677792
11
7.0292788239
21
21.0734330570
0
LINE
8
0
62
2
6
CONTINUOUS
10
6.2387316016
20
20.7930108348
11
6.2387316016
21
20.7914372237
0
LINE
8
0
62
2
6
CONTINUOUS
10
6.2387316016
20
20.7914372237
11
6.1104829905
21
20.7914372237
0
LINE
8
0
62
2
6
CONTINUOUS
10
6.1104829905
20
20.7914372237
11
6.1104829905
21
20.7930108348
0
POLYLINE
8
0
62
2
6
CONTINUOUS
66
1
70
0
0
VERTEX
8
0
62
2
6
CONTINUOUS
10
6.1104829905
20
20.7930108348
0
VERTEX
8
0
62
2
6
CONTINUOUS
10
6.1163418971
20
20.7956469627
0
VERTEX
8
0
62
2
6
CONTINUOUS
10
6.1214601014
20
20.7983050312
0
VERTEX
8
0
62
2
6
CONTINUOUS
10
6.1259294367
20
20.8009939123
0
VERTEX
8
0
62
2
6
CONTINUOUS
10
6.1298302122
20
20.8037252534
0
VERTEX
8
0
62
2
6
CONTINUOUS
10
6.1332322625
20
20.8065142713
0
VERTEX
8
0
62
2
6
CONTINUOUS
10
6.1361957386
20
20.8093807427
0
VERTEX
8
0
62
2
6
CONTINUOUS
10
6.1387594622
20
20.8123348391
0
VERTEX
8
0
62
2
6
CONTINUOUS
10
6.1409627909
20
20.8153951961
0
VERTEX
8
0
62
2
6
CONTINUOUS
10
6.1428452804
20
20.8185956609
0
VERTEX
8
0
62
2
6
CONTINUOUS
10
6.1444383520
20
20.8219796192
0
VERTEX
8
0
62
2
6
CONTINUOUS
10
6.1457659444
20
20.8256036763
0
VERTEX
8
0
62
2
6
CONTINUOUS
10
6.1468453197
20
20.8295442480
0
VERTEX
8
0
62
2
6
CONTINUOUS
10
6.1476881035
20
20.8339104614
0
VERTEX
8
0
62
2
6
CONTINUOUS
10
6.1483017110
20
20.8388723673
0
VERTEX
8
0
62
2
6
CONTINUOUS
10
6.1486917292
20
20.8447338373
0
VERTEX
8
0
62
2
6
CONTINUOUS
10
6.1488683425
20
20.8521838283
0
VERTEX
8
0
62
2
6
CONTINUOUS
10
6.1488885461
20
20.8590775014
0
VERTEX
8
0
62
2
6
CONTINUOUS
10
6.1488885461
20
21.0666844459
0
VERTEX
8
0
62
2
6
CONTINUOUS
10
6.1488729175
20
21.0730639095
0
VERTEX
8
0
62
2
6
CONTINUOUS
10
6.1487089691
20
21.0806987259
0
VERTEX
8
0
62
2
6
CONTINUOUS
10
6.1483331949
20
21.0866564349
0
VERTEX
8
0
62
2
6
CONTINUOUS
10
6.1477349336
20
21.0916764548
0
VERTEX
8
0
62
2
6
CONTINUOUS
10
6.1469089985
20
21.0960781312
0
VERTEX
8
0
62
2
6
CONTINUOUS
10
6.1458486624
20
21.1000381838
0
VERTEX
8
0
62
2
6
CONTINUOUS
10
6.1445431601
20
21.1036691992
0
VERTEX
8
0
62
2
6
CONTINUOUS
10
6.1429762192
20
21.1070495998
0
VERTEX
8
0
62
2
6
CONTINUOUS
10
6.1411249925
20
21.1102372273
0
VERTEX
8
0
62
2
6
CONTINUOUS
10
6.1389592319
20
21.1132762307
0
VERTEX
8
0
62
2
6
CONTINUOUS
10
6.1364406264
20
21.1162008820
0
VERTEX
8
0
62
2
6
CONTINUOUS
10
6.1335285131
20
21.1190322746
0
VERTEX
8
0
62
2
6
CONTINUOUS
10
6.1301873959
20
21.1217780020
0
VERTEX
8
0
62
2
6
CONTINUOUS
10
6.1263585208
20
21.1244576871
0
VERTEX
8
0
62
2
6
CONTINUOUS
10
6.1219735578
20
21.1270861367
0
VERTEX
8
0
62
2
6
CONTINUOUS
10
6.1169538457
20
21.1296743426
0
VERTEX
8
0
62
2
6
CONTINUOUS
10
6.1112093794
20
21.1322302792
0
SEQEND
0
LINE
8
0
62
2
6
CONTINUOUS
10
6.1112093794
20
21.1322302792
11
6.1112093794
21
21.1337969459
0
LINE
8
0
62
2
6
CONTINUOUS
10
6.1112093794
20
21.1337969459
11
6.2169968794
21
21.1337969459
0
LINE
8
0
62
2
6
CONTINUOUS
10
6.2169968794
20
21.1337969459
11
6.2169968794
21
21.1332677792
0
LINE
8
0
62
2
6
CONTINUOUS
10
6.2169968794
20
21.1332677792
11
6.2278816016
21
21.1202608348
0
LINE
8
0
62
2
6
CONTINUOUS
10
6.2278816016
20
21.1202608348
11
6.2380135461
21
21.1098566681
0
LINE
8
0
62
2
6
CONTINUOUS
10
6.2380135461
20
21.1098566681
11
6.5032246572
21
20.8694802792
0
POLYLINE
8
0
62
2
6
CONTINUOUS
66
1
70
0
0
VERTEX
8
0
62
2
6
CONTINUOUS
10
6.5032246572
20
20.8694802792
0
VERTEX
8
0
62
2
6
CONTINUOUS
10
6.5032246572
20
20.9469640292
0
VERTEX
8
0
62
2
6
CONTINUOUS
10
6.5032246572
20
21.0666844459
0
VERTEX
8
0
62
2
6
CONTINUOUS
10
6.5032253973
20
21.0688962885
0
VERTEX
8
0
62
2
6
CONTINUOUS
10
6.5031888352
20
21.0766796861
0
VERTEX
8
0
62
2
6
CONTINUOUS
10
6.5030335267
20
21.0823111890
0
VERTEX
8
0
62
2
6
CONTINUOUS
10
6.5027440711
20
21.0869355193
0
VERTEX
8
0
62
2
6
CONTINUOUS
10
6.5023170708
20
21.0909384648
0
VERTEX
8
0
62
2
6
CONTINUOUS
10
6.5017507524
20
21.0945084905
0
VERTEX
8
0
62
2
6
CONTINUOUS
10
6.5010428822
20
21.0977563308
0
VERTEX
8
0
62
2
6
CONTINUOUS
10
6.5001899257
20
21.1007548504
0
VERTEX
8
0
62
2
6
CONTINUOUS
10
6.4991865448
20
21.1035558083
0
VERTEX
8
0
62
2
6
CONTINUOUS
10
6.4980252274
20
21.1061980059
0
VERTEX
8
0
62
2
6
CONTINUOUS
10
6.4966959907
20
21.1087116541
0
VERTEX
8
0
62
2
6
CONTINUOUS
10
6.4951861386
20
21.1111208875
0
VERTEX
8
0
62
2
6
CONTINUOUS
10
6.4934800602
20
21.1134452972
0
VERTEX
8
0
62
2
6
CONTINUOUS
10
6.4915590596
20
21.1157009176
0
VERTEX
8
0
62
2
6
CONTINUOUS
10
6.4905106116
20
21.1168077799
0
VERTEX
8
0
62
2
6
CONTINUOUS
10
6.4894012013
20
21.1179008993
0
VERTEX
8
0
62
2
6
CONTINUOUS
10
6.4869926340
20
21.1200464211
0
VERTEX
8
0
62
2
6
CONTINUOUS
10
6.4843071001
20
21.1221477350
0
VERTEX
8
0
62
2
6
CONTINUOUS
10
6.4813147290
20
21.1242131976
0
VERTEX
8
0
62
2
6
CONTINUOUS
10
6.4779819746
20
21.1262494805
0
VERTEX
8
0
62
2
6
CONTINUOUS
10
6.4742713817
20
21.1282618508
0
VERTEX
8
0
62
2
6
CONTINUOUS
10
6.4701412935
20
21.1302544070
0
VERTEX
8
0
62
2
6
CONTINUOUS
10
6.4655454905
20
21.1322302792
0
SEQEND
0
LINE
8
0
62
2
6
CONTINUOUS
10
6.4655454905
20
21.1322302792
11
6.4655454905
21
21.1337969459
0
LINE
8
0
62
2
6
CONTINUOUS
10
6.4655454905
20
21.1337969459
11
6.5930816016
21
21.1337969459
0
LINE
8
0
62
2
6
CONTINUOUS
10
6.5930816016
20
21.1337969459
11
6.5930816016
21
21.1322302792
0
POLYLINE
8
0
62
2
6
CONTINUOUS
66
1
70
0
0
VERTEX
8
0
62
2
6
CONTINUOUS
10
6.5930816016
20
21.1322302792
0
VERTEX
8
0
62
2
6
CONTINUOUS
10
6.5872242632
20
21.1296212173
0
VERTEX
8
0
62
2
6
CONTINUOUS
10
6.5821200379
20
21.1269782984
0
VERTEX
8
0
62
2
6
CONTINUOUS
10
6.5776736101
20
21.1242929289
0
VERTEX
8
0
62
2
6
CONTINUOUS
10
6.5738019250
20
21.1215532005
0
VERTEX
8
0
62
2
6
CONTINUOUS
10
6.5704330850
20
21.1187429930
0
VERTEX
8
0
62
2
6
CONTINUOUS
10
6.5689165593
20
21.1173039575
0
VERTEX
8
0
62
2
6
CONTINUOUS
10
6.5675055325
20
21.1158408414
0
VERTEX
8
0
62
2
6
CONTINUOUS
10
6.5649847697
20
21.1128411316
0
VERTEX
8
0
62
2
6
CONTINUOUS
10
6.5628257371
20
21.1097179161
0
VERTEX
8
0
62
2
6
CONTINUOUS
10
6.5609889585
20
21.1064333741
0
VERTEX
8
0
62
2
6
CONTINUOUS
10
6.5594436108
20
21.1029384505
0
VERTEX
8
0
62
2
6
CONTINUOUS
10
6.5581667600
20
21.0991682163
0
VERTEX
8
0
62
2
6
CONTINUOUS
10
6.5571423941
20
21.0950332538
0
VERTEX
8
0
62
2
6
CONTINUOUS
10
6.5563601568
20
21.0904020756
0
VERTEX
8
0
62
2
6
CONTINUOUS
10
6.5558135288
20
21.0850603932
0
VERTEX
8
0
62
2
6
CONTINUOUS
10
6.5554963733
20
21.0785956422
0
VERTEX
8
0
62
2
6
CONTINUOUS
10
6.5553905223
20
21.0699202146
0
VERTEX
8
0
62
2
6
CONTINUOUS
10
6.5553885461
20
21.0666844459
0
VERTEX
8
0
62
2
6
CONTINUOUS
10
6.5553885461
20
21.0331722237
0
VERTEX
8
0
62
2
6
CONTINUOUS
10
6.5553885461
20
20.9039831959
0
VERTEX
8
0
62
2
6
CONTINUOUS
10
6.5553885461
20
20.7747941681
0
SEQEND
0
ARC
8
0
62
2
6
CONTINUOUS
10
6.5977055943
20
20.9742952178
40
0.2039397004
50
223.4269507726
51
258.0242403069
0
LINE
8
0
62
2
6
CONTINUOUS
10
6.4495941016
20
20.8341011125
11
6.2010663239
21
21.0604261125
0
POLYLINE
8
0
62
2
6
CONTINUOUS
66
1
70
0
0
VERTEX
8
0
62
2
6
CONTINUOUS
10
6.2010663239
20
21.0604261125
0
VERTEX
8
0
62
2
6
CONTINUOUS
10
6.2010663239
20
20.9792123625
0
VERTEX
8
0
62
2
6
CONTINUOUS
10
6.2010663239
20
20.8590775014
0
VERTEX
8
0
62
2
6
CONTINUOUS
10
6.2010851271
20
20.8505081752
0
VERTEX
8
0
62
2
6
CONTINUOUS
10
6.2012137378
20
20.8445151555
0
VERTEX
8
0
62
2
6
CONTINUOUS
10
6.2014773586
20
20.8396806685
0
VERTEX
8
0
62
2
6
CONTINUOUS
10
6.2018806688
20
20.8355306931
0
VERTEX
8
0
62
2
6
CONTINUOUS
10
6.2024257531
20
20.8318469209
0
VERTEX
8
0
62
2
6
CONTINUOUS
10
6.2031149179
20
20.8285052272
0
VERTEX
8
0
62
2
6
CONTINUOUS
10
6.2039516979
20
20.8254256324
0
VERTEX
8
0
62
2
6
CONTINUOUS
10
6.2049414202
20
20.8225521253
0
VERTEX
8
0
62
2
6
CONTINUOUS
10
6.2060916051
20
20.8198431231
0
VERTEX
8
0
62
2
6
CONTINUOUS
10
6.2074122832
20
20.8172664534
0
VERTEX
8
0
62
2
6
CONTINUOUS
10
6.2089162549
20
20.8147965051
0
VERTEX
8
0
62
2
6
CONTINUOUS
10
6.2106193049
20
20.8124125104
0
VERTEX
8
0
62
2
6
CONTINUOUS
10
6.2125403838
20
20.8100974491
0
VERTEX
8
0
62
2
6
CONTINUOUS
10
6.2135900337
20
20.8089607422
0
VERTEX
8
0
62
2
6
CONTINUOUS
10
6.2147017726
20
20.8078373082
0
VERTEX
8
0
62
2
6
CONTINUOUS
10
6.2171186285
20
20.8056296335
0
VERTEX
8
0
62
2
6
CONTINUOUS
10
6.2198167810
20
20.8034644136
0
VERTEX
8
0
62
2
6
CONTINUOUS
10
6.2228266970
20
20.8013325555
0
VERTEX
8
0
62
2
6
CONTINUOUS
10
6.2261826358
20
20.7992266785
0
VERTEX
8
0
62
2
6
CONTINUOUS
10
6.2299228917
20
20.7971408140
0
VERTEX
8
0
62
2
6
CONTINUOUS
10
6.2340900980
20
20.7950701540
0
VERTEX
8
0
62
2
6
CONTINUOUS
10
6.2387316016
20
20.7930108348
0
SEQEND
0
LINE
8
0
62
2
6
CONTINUOUS
10
5.8959996572
20
21.1322302792
11
5.8959996572
21
21.1337969459
0
LINE
8
0
62
2
6
CONTINUOUS
10
5.8959996572
20
21.1337969459
11
6.0336871572
21
21.1337969459
0
LINE
8
0
62
2
6
CONTINUOUS
10
6.0336871572
20
21.1337969459
11
6.0336871572
21
21.1322302792
0
POLYLINE
8
0
62
2
6
CONTINUOUS
66
1
70
0
0
VERTEX
8
0
62
2
6
CONTINUOUS
10
6.0336871572
20
21.1322302792
0
VERTEX
8
0
62
2
6
CONTINUOUS
10
6.0296515820
20
21.1309527219
0
VERTEX
8
0
62
2
6
CONTINUOUS
10
6.0277661913
20
21.1302218095
0
VERTEX
8
0
62
2
6
CONTINUOUS
10
6.0259664530
20
21.1294320289
0
VERTEX
8
0
62
2
6
CONTINUOUS
10
6.0226144580
20
21.1276825802
0
VERTEX
8
0
62
2
6
CONTINUOUS
10
6.0195666096
20
21.1257095238
0
VERTEX
8
0
62
2
6
CONTINUOUS
10
6.0167975877
20
21.1235126720
0
VERTEX
8
0
62
2
6
CONTINUOUS
10
6.0142860881
20
21.1210863989
0
VERTEX
8
0
62
2
6
CONTINUOUS
10
6.0120151098
20
21.1184196169
0
VERTEX
8
0
62
2
6
CONTINUOUS
10
6.0099721269
20
21.1154957841
0
VERTEX
8
0
62
2
6
CONTINUOUS
10
6.0081491064
20
21.1122928447
0
VERTEX
8
0
62
2
6
CONTINUOUS
10
6.0065423449
20
21.1087829320
0
VERTEX
8
0
62
2
6
CONTINUOUS
10
6.0051521141
20
21.1049315483
0
VERTEX
8
0
62
2
6
CONTINUOUS
10
6.0039821115
20
21.1006956859
0
VERTEX
8
0
62
2
6
CONTINUOUS
10
6.0030386983
20
21.0960197601
0
VERTEX
8
0
62
2
6
CONTINUOUS
10
6.0023298561
20
21.0908265850
0
VERTEX
8
0
62
2
6
CONTINUOUS
10
6.0018636368
20
21.0849953246
0
VERTEX
8
0
62
2
6
CONTINUOUS
10
6.0016452881
20
21.0782965789
0
VERTEX
8
0
62
2
6
CONTINUOUS
10
6.0016681569
20
21.0701185287
0
VERTEX
8
0
62
2
6
CONTINUOUS
10
6.0016828886
20
21.0691072667
0
VERTEX
8
0
62
2
6
CONTINUOUS
10
6.0017871572
20
21.0604261125
0
VERTEX
8
0
62
2
6
CONTINUOUS
10
6.0017871572
20
20.8642858348
0
VERTEX
8
0
62
2
6
CONTINUOUS
10
6.0016828886
20
20.8556277520
0
VERTEX
8
0
62
2
6
CONTINUOUS
10
6.0016735065
20
20.8549969589
0
VERTEX
8
0
62
2
6
CONTINUOUS
10
6.0016417070
20
20.8467800340
0
VERTEX
8
0
62
2
6
CONTINUOUS
10
6.0018499974
20
20.8400907646
0
VERTEX
8
0
62
2
6
CONTINUOUS
10
6.0023059897
20
20.8342811470
0
VERTEX
8
0
62
2
6
CONTINUOUS
10
6.0030047615
20
20.8291128103
0
VERTEX
8
0
62
2
6
CONTINUOUS
10
6.0039385144
20
20.8244614892
0
VERTEX
8
0
62
2
6
CONTINUOUS
10
6.0050995230
20
20.8202484067
0
VERTEX
8
0
62
2
6
CONTINUOUS
10
6.0064817077
20
20.8164171788
0
VERTEX
8
0
62
2
6
CONTINUOUS
10
6.0080816895
20
20.8129244015
0
VERTEX
8
0
62
2
6
CONTINUOUS
10
6.0098995582
20
20.8097354128
0
VERTEX
8
0
62
2
6
CONTINUOUS
10
6.0119394237
20
20.8068223292
0
VERTEX
8
0
62
2
6
CONTINUOUS
10
6.0142097691
20
20.8041631776
0
VERTEX
8
0
62
2
6
CONTINUOUS
10
6.0167236094
20
20.8017415688
0
VERTEX
8
0
62
2
6
CONTINUOUS
10
6.0194984687
20
20.7995466147
0
VERTEX
8
0
62
2
6
CONTINUOUS
10
6.0225562023
20
20.7975729167
0
VERTEX
8
0
62
2
6
CONTINUOUS
10
6.0259227076
20
20.7958205248
0
VERTEX
8
0
62
2
6
CONTINUOUS
10
6.0277317982
20
20.7950284113
0
VERTEX
8
0
62
2
6
CONTINUOUS
10
6.0296275740
20
20.7942948206
0
VERTEX
8
0
62
2
6
CONTINUOUS
10
6.0336871572
20
20.7930108348
0
SEQEND
0
LINE
8
0
62
2
6
CONTINUOUS
10
6.0336871572
20
20.7930108348
11
6.0336871572
21
20.7914372237
0
LINE
8
0
62
2
6
CONTINUOUS
10
6.0336871572
20
20.7914372237
11
5.8959996572
21
20.7914372237
0
LINE
8
0
62
2
6
CONTINUOUS
10
5.8959996572
20
20.7914372237
11
5.8959996572
21
20.7930108348
0
POLYLINE
8
0
62
2
6
CONTINUOUS
66
1
70
0
0
VERTEX
8
0
62
2
6
CONTINUOUS
10
5.8959996572
20
20.7930108348
0
VERTEX
8
0
62
2
6
CONTINUOUS
10
5.9000317541
20
20.7942275498
0
VERTEX
8
0
62
2
6
CONTINUOUS
10
5.9019155608
20
20.7949295694
0
VERTEX
8
0
62
2
6
CONTINUOUS
10
5.9037138474
20
20.7956914619
0
VERTEX
8
0
62
2
6
CONTINUOUS
10
5.9070617024
20
20.7973871382
0
VERTEX
8
0
62
2
6
CONTINUOUS
10
5.9101047601
20
20.7993087702
0
VERTEX
8
0
62
2
6
CONTINUOUS
10
5.9128688626
20
20.8014560639
0
VERTEX
8
0
62
2
6
CONTINUOUS
10
5.9153757799
20
20.8038343119
0
VERTEX
8
0
62
2
6
CONTINUOUS
10
5.9176429067
20
20.8064544159
0
VERTEX
8
0
62
2
6
CONTINUOUS
10
5.9196830750
20
20.8093328693
0
VERTEX
8
0
62
2
6
CONTINUOUS
10
5.9215045265
20
20.8124917975
0
VERTEX
8
0
62
2
6
CONTINUOUS
10
5.9231110717
20
20.8159592254
0
VERTEX
8
0
62
2
6
CONTINUOUS
10
5.9245024462
20
20.8197698597
0
VERTEX
8
0
62
2
6
CONTINUOUS
10
5.9256748670
20
20.8239669123
0
VERTEX
8
0
62
2
6
CONTINUOUS
10
5.9266218031
20
20.8286060745
0
VERTEX
8
0
62
2
6
CONTINUOUS
10
5.9273350258
20
20.8337643489
0
VERTEX
8
0
62
2
6
CONTINUOUS
10
5.9278061567
20
20.8395615847
0
VERTEX
8
0
62
2
6
CONTINUOUS
10
5.9280294999
20
20.8462235442
0
VERTEX
8
0
62
2
6
CONTINUOUS
10
5.9280107914
20
20.8543448148
0
VERTEX
8
0
62
2
6
CONTINUOUS
10
5.9279920119
20
20.8556299831
0
VERTEX
8
0
62
2
6
CONTINUOUS
10
5.9278871572
20
20.8642858348
0
VERTEX
8
0
62
2
6
CONTINUOUS
10
5.9278871572
20
21.0604261125
0
VERTEX
8
0
62
2
6
CONTINUOUS
10
5.9280038035
20
21.0685373272
0
VERTEX
8
0
62
2
6
CONTINUOUS
10
5.9280516954
20
21.0709322920
0
VERTEX
8
0
62
2
6
CONTINUOUS
10
5.9281168187
20
21.0791142216
0
VERTEX
8
0
62
2
6
CONTINUOUS
10
5.9279345110
20
21.0857468278
0
VERTEX
8
0
62
2
6
CONTINUOUS
10
5.9275013024
20
21.0914893526
0
VERTEX
8
0
62
2
6
CONTINUOUS
10
5.9268233661
20
21.0965873274
0
VERTEX
8
0
62
2
6
CONTINUOUS
10
5.9259088380
20
21.1011692983
0
VERTEX
8
0
62
2
6
CONTINUOUS
10
5.9247653237
20
21.1053166808
0
VERTEX
8
0
62
2
6
CONTINUOUS
10
5.9233984794
20
21.1090874994
0
VERTEX
8
0
62
2
6
CONTINUOUS
10
5.9218110161
20
21.1125261437
0
VERTEX
8
0
62
2
6
CONTINUOUS
10
5.9200019585
20
21.1156677988
0
VERTEX
8
0
62
2
6
CONTINUOUS
10
5.9179661104
20
21.1185405217
0
VERTEX
8
0
62
2
6
CONTINUOUS
10
5.9156937197
20
21.1211661820
0
VERTEX
8
0
62
2
6
CONTINUOUS
10
5.9131703404
20
21.1235608408
0
VERTEX
8
0
62
2
6
CONTINUOUS
10
5.9103768772
20
21.1257348793
0
VERTEX
8
0
62
2
6
CONTINUOUS
10
5.9072897836
20
21.1276930545
0
VERTEX
8
0
62
2
6
CONTINUOUS
10
5.9038813644
20
21.1294345841
0
VERTEX
8
0
62
2
6
CONTINUOUS
10
5.9001254064
20
21.1309514261
0
VERTEX
8
0
62
2
6
CONTINUOUS
10
5.8959996572
20
21.1322302792
0
SEQEND
0
LINE
8
0
62
2
6
CONTINUOUS
10
5.8641316016
20
20.8606233348
11
5.8663024350
21
20.8606233348
0
LINE
8
0
62
2
6
CONTINUOUS
10
5.8663024350
20
20.8606233348
11
5.8286371572
21
20.7914372237
0
LINE
8
0
62
2
6
CONTINUOUS
10
5.8286371572
20
20.7914372237
11
5.5308121572
21
20.7914372237
0
LINE
8
0
62
2
6
CONTINUOUS
10
5.5308121572
20
20.7914372237
11
5.5308121572
21
20.7930108348
0
POLYLINE
8
0
62
2
6
CONTINUOUS
66
1
70
0
0
VERTEX
8
0
62
2
6
CONTINUOUS
10
5.5308121572
20
20.7930108348
0
VERTEX
8
0
62
2
6
CONTINUOUS
10
5.5349221836
20
20.7942266926
0
VERTEX
8
0
62
2
6
CONTINUOUS
10
5.5368418046
20
20.7949277906
0
VERTEX
8
0
62
2
6
CONTINUOUS
10
5.5386745749
20
20.7956886281
0
VERTEX
8
0
62
2
6
CONTINUOUS
10
5.5420875009
20
20.7973818198
0
VERTEX
8
0
62
2
6
CONTINUOUS
10
5.5451888770
20
20.7992991252
0
VERTEX
8
0
62
2
6
CONTINUOUS
10
5.5480051351
20
20.8014394957
0
VERTEX
8
0
62
2
6
CONTINUOUS
10
5.5505587122
20
20.8038073694
0
VERTEX
8
0
62
2
6
CONTINUOUS
10
5.5528677410
20
20.8064127121
0
VERTEX
8
0
62
2
6
CONTINUOUS
10
5.5549458457
20
20.8092710128
0
VERTEX
8
0
62
2
6
CONTINUOUS
10
5.5568020893
20
20.8124033230
0
VERTEX
8
0
62
2
6
CONTINUOUS
10
5.5584411010
20
20.8158364966
0
VERTEX
8
0
62
2
6
CONTINUOUS
10
5.5598634001
20
20.8196038964
0
VERTEX
8
0
62
2
6
CONTINUOUS
10
5.5610659175
20
20.8237470539
0
VERTEX
8
0
62
2
6
CONTINUOUS
10
5.5620427316
20
20.8283192863
0
VERTEX
8
0
62
2
6
CONTINUOUS
10
5.5627860746
20
20.8333936825
0
VERTEX
8
0
62
2
6
CONTINUOUS
10
5.5632878015
20
20.8390822892
0
VERTEX
8
0
62
2
6
CONTINUOUS
10
5.5635419983
20
20.8455907910
0
VERTEX
8
0
62
2
6
CONTINUOUS
10
5.5635523914
20
20.8534341669
0
VERTEX
8
0
62
2
6
CONTINUOUS
10
5.5635228518
20
20.8556294834
0
VERTEX
8
0
62
2
6
CONTINUOUS
10
5.5634191016
20
20.8642858348
0
VERTEX
8
0
62
2
6
CONTINUOUS
10
5.5634191016
20
21.0604261125
0
VERTEX
8
0
62
2
6
CONTINUOUS
10
5.5635228518
20
21.0692283567
0
VERTEX
8
0
62
2
6
CONTINUOUS
10
5.5635463567
20
21.0709408746
0
VERTEX
8
0
62
2
6
CONTINUOUS
10
5.5635489427
20
21.0789488514
0
VERTEX
8
0
62
2
6
CONTINUOUS
10
5.5633091797
20
21.0855326861
0
VERTEX
8
0
62
2
6
CONTINUOUS
10
5.5628222331
20
21.0912662108
0
VERTEX
8
0
62
2
6
CONTINUOUS
10
5.5620934230
20
21.0963728898
0
VERTEX
8
0
62
2
6
CONTINUOUS
10
5.5611303525
20
21.1009724403
0
VERTEX
8
0
62
2
6
CONTINUOUS
10
5.5599402650
20
21.1051418421
0
VERTEX
8
0
62
2
6
CONTINUOUS
10
5.5585285776
20
21.1089365509
0
VERTEX
8
0
62
2
6
CONTINUOUS
10
5.5568978777
20
21.1123993195
0
VERTEX
8
0
62
2
6
CONTINUOUS
10
5.5550471913
20
21.1155642228
0
VERTEX
8
0
62
2
6
CONTINUOUS
10
5.5529714612
20
21.1184585421
0
VERTEX
8
0
62
2
6
CONTINUOUS
10
5.5506612224
20
21.1211036087
0
VERTEX
8
0
62
2
6
CONTINUOUS
10
5.5481024692
20
21.1235151339
0
VERTEX
8
0
62
2
6
CONTINUOUS
10
5.5452766992
20
21.1257033096
0
VERTEX
8
0
62
2
6
CONTINUOUS
10
5.5421611051
20
21.1276728452
0
VERTEX
8
0
62
2
6
CONTINUOUS
10
5.5387288680
20
21.1294230361
0
VERTEX
8
0
62
2
6
CONTINUOUS
10
5.5368846378
20
21.1302142005
0
VERTEX
8
0
62
2
6
CONTINUOUS
10
5.5349522940
20
21.1309469118
0
VERTEX
8
0
62
2
6
CONTINUOUS
10
5.5308121572
20
21.1322302792
0
SEQEND
0
LINE
8
0
62
2
6
CONTINUOUS
10
5.5308121572
20
21.1322302792
11
5.5308121572
21
21.1337969459
0
LINE
8
0
62
2
6
CONTINUOUS
10
5.5308121572
20
21.1337969459
11
5.6692121572
21
21.1337969459
0
LINE
8
0
62
2
6
CONTINUOUS
10
5.6692121572
20
21.1337969459
11
5.6692121572
21
21.1322302792
0
POLYLINE
8
0
62
2
6
CONTINUOUS
66
1
70
0
0
VERTEX
8
0
62
2
6
CONTINUOUS
10
5.6692121572
20
21.1322302792
0
VERTEX
8
0
62
2
6
CONTINUOUS
10
5.6652998310
20
21.1310242354
0
VERTEX
8
0
62
2
6
CONTINUOUS
10
5.6617182370
20
21.1296000477
0
VERTEX
8
0
62
2
6
CONTINUOUS
10
5.6584495690
20
21.1279697551
0
VERTEX
8
0
62
2
6
CONTINUOUS
10
5.6554706420
20
21.1261402091
0
VERTEX
8
0
62
2
6
CONTINUOUS
10
5.6527577935
20
21.1241126493
0
VERTEX
8
0
62
2
6
CONTINUOUS
10
5.6502906688
20
21.1218838163
0
VERTEX
8
0
62
2
6
CONTINUOUS
10
5.6480524724
20
21.1194458914
0
VERTEX
8
0
62
2
6
CONTINUOUS
10
5.6460301487
20
21.1167864721
0
VERTEX
8
0
62
2
6
CONTINUOUS
10
5.6442144576
20
21.1138885247
0
VERTEX
8
0
62
2
6
CONTINUOUS
10
5.6425999199
20
21.1107302089
0
VERTEX
8
0
62
2
6
CONTINUOUS
10
5.6411846204
20
21.1072844025
0
VERTEX
8
0
62
2
6
CONTINUOUS
10
5.6399698647
20
21.1035176236
0
VERTEX
8
0
62
2
6
CONTINUOUS
10
5.6389596895
20
21.0993877691
0
VERTEX
8
0
62
2
6
CONTINUOUS
10
5.6381602107
20
21.0948394024
0
VERTEX
8
0
62
2
6
CONTINUOUS
10
5.6375787534
20
21.0897933957
0
VERTEX
8
0
62
2
6
CONTINUOUS
10
5.6372225826
20
21.0841213463
0
VERTEX
8
0
62
2
6
CONTINUOUS
10
5.6370965441
20
21.0775676602
0
VERTEX
8
0
62
2
6
CONTINUOUS
10
5.6371946769
20
21.0693924980
0
VERTEX
8
0
62
2
6
CONTINUOUS
10
5.6372234765
20
21.0680060256
0
VERTEX
8
0
62
2
6
CONTINUOUS
10
5.6373316016
20
21.0604261125
0
VERTEX
8
0
62
2
6
CONTINUOUS
10
5.6373316016
20
20.9562748625
0
VERTEX
8
0
62
2
6
CONTINUOUS
10
5.6373316016
20
20.8335913903
0
SEQEND
0
POLYLINE
8
0
62
2
6
CONTINUOUS
66
1
70
0
0
VERTEX
8
0
62
2
6
CONTINUOUS
10
5.6373316016
20
20.8335913903
0
VERTEX
8
0
62
2
6
CONTINUOUS
10
5.6493908206
20
20.8329369874
0
VERTEX
8
0
62
2
6
CONTINUOUS
10
5.6639020841
20
20.8319883486
0
VERTEX
8
0
62
2
6
CONTINUOUS
10
5.6788617689
20
20.8309296430
0
VERTEX
8
0
62
2
6
CONTINUOUS
10
5.6946422080
20
20.8298540810
0
VERTEX
8
0
62
2
6
CONTINUOUS
10
5.7069758977
20
20.8291348522
0
VERTEX
8
0
62
2
6
CONTINUOUS
10
5.7176221159
20
20.8286596644
0
VERTEX
8
0
62
2
6
CONTINUOUS
10
5.7272137574
20
20.8283877907
0
VERTEX
8
0
62
2
6
CONTINUOUS
10
5.7360648502
20
20.8282991415
0
VERTEX
8
0
62
2
6
CONTINUOUS
10
5.7443592927
20
20.8283821974
0
VERTEX
8
0
62
2
6
CONTINUOUS
10
5.7522164617
20
20.8286298059
0
VERTEX
8
0
62
2
6
CONTINUOUS
10
5.7597195452
20
20.8290373742
0
VERTEX
8
0
62
2
6
CONTINUOUS
10
5.7669296181
20
20.8296019798
0
VERTEX
8
0
62
2
6
CONTINUOUS
10
5.7738933617
20
20.8303218917
0
VERTEX
8
0
62
2
6
CONTINUOUS
10
5.7806476215
20
20.8311962936
0
VERTEX
8
0
62
2
6
CONTINUOUS
10
5.7872222566
20
20.8322251181
0
VERTEX
8
0
62
2
6
CONTINUOUS
10
5.7936420038
20
20.8334089419
0
VERTEX
8
0
62
2
6
CONTINUOUS
10
5.7999277444
20
20.8347489198
0
VERTEX
8
0
62
2
6
CONTINUOUS
10
5.8060973909
20
20.8362467409
0
VERTEX
8
0
62
2
6
CONTINUOUS
10
5.8121665253
20
20.8379046002
0
VERTEX
8
0
62
2
6
CONTINUOUS
10
5.8181488677
20
20.8397251800
0
VERTEX
8
0
62
2
6
CONTINUOUS
10
5.8240566282
20
20.8417116368
0
VERTEX
8
0
62
2
6
CONTINUOUS
10
5.8299007749
20
20.8438675934
0
VERTEX
8
0
62
2
6
CONTINUOUS
10
5.8356912411
20
20.8461971332
0
VERTEX
8
0
62
2
6
CONTINUOUS
10
5.8414370885
20
20.8487047962
0
VERTEX
8
0
62
2
6
CONTINUOUS
10
5.8471466367
20
20.8513955763
0
VERTEX
8
0
62
2
6
CONTINUOUS
10
5.8528275669
20
20.8542749199
0
VERTEX
8
0
62
2
6
CONTINUOUS
10
5.8584870071
20
20.8573487239
0
VERTEX
8
0
62
2
6
CONTINUOUS
10
5.8641316016
20
20.8606233348
0
SEQEND
0
POLYLINE
8
0
62
2
6
CONTINUOUS
66
1
70
0
0
VERTEX
8
0
62
2
6
CONTINUOUS
10
5.2931482683
20
20.9584497237
0
VERTEX
8
0
62
2
6
CONTINUOUS
10
5.3128179343
20
20.9406989281
0
VERTEX
8
0
62
2
6
CONTINUOUS
10
5.3974913239
20
20.8642858348
0
VERTEX
8
0
62
2
6
CONTINUOUS
10
5.4031737628
20
20.8593781769
0
VERTEX
8
0
62
2
6
CONTINUOUS
10
5.4093893398
20
20.8543025861
0
VERTEX
8
0
62
2
6
CONTINUOUS
10
5.4161442454
20
20.8490721368
0
VERTEX
8
0
62
2
6
CONTINUOUS
10
5.4234373534
20
20.8437044278
0
VERTEX
8
0
62
2
6
CONTINUOUS
10
5.4312585854
20
20.8382221581
0
VERTEX
8
0
62
2
6
CONTINUOUS
10
5.4395871826
20
20.8326536501
0
VERTEX
8
0
62
2
6
CONTINUOUS
10
5.4483899922
20
20.8270332461
0
VERTEX
8
0
62
2
6
CONTINUOUS
10
5.4576199369
20
20.8214014777
0
VERTEX
8
0
62
2
6
CONTINUOUS
10
5.4672149024
20
20.8158048873
0
VERTEX
8
0
62
2
6
CONTINUOUS
10
5.4770973368
20
20.8102953719
0
VERTEX
8
0
62
2
6
CONTINUOUS
10
5.4871748827
20
20.8049289372
0
VERTEX
8
0
62
2
6
CONTINUOUS
10
5.4973423233
20
20.7997638056
0
VERTEX
8
0
62
2
6
CONTINUOUS
10
5.5048992334
20
20.7960851487
0
VERTEX
8
0
62
2
6
CONTINUOUS
10
5.5148816016
20
20.7914372237
0
SEQEND
0
LINE
8
0
62
2
6
CONTINUOUS
10
5.5148816016
20
20.7914372237
11
5.4482107683
21
20.7914372237
0
ARC
8
0
62
2
6
CONTINUOUS
10
5.4373554013
20
20.9051756524
40
0.1142552807
50
230.1562195028
51
275.4518816802
0
LINE
8
0
62
2
6
CONTINUOUS
10
5.3641524350
20
20.8174511125
11
5.2757593794
21
20.8960177792
0
LINE
8
0
62
2
6
CONTINUOUS
10
5.2757593794
20
20.8960177792
11
5.2090885461
21
20.9693816681
0
POLYLINE
8
0
62
2
6
CONTINUOUS
66
1
70
0
0
VERTEX
8
0
62
2
6
CONTINUOUS
10
5.2090885461
20
20.9693816681
0
VERTEX
8
0
62
2
6
CONTINUOUS
10
5.2173049067
20
20.9703249265
0
VERTEX
8
0
62
2
6
CONTINUOUS
10
5.2251710163
20
20.9713589616
0
VERTEX
8
0
62
2
6
CONTINUOUS
10
5.2324142623
20
20.9724508293
0
VERTEX
8
0
62
2
6
CONTINUOUS
10
5.2391844229
20
20.9736147272
0
VERTEX
8
0
62
2
6
CONTINUOUS
10
5.2455803774
20
20.9748604800
0
VERTEX
8
0
62
2
6
CONTINUOUS
10
5.2516718868
20
20.9761955339
0
VERTEX
8
0
62
2
6
CONTINUOUS
10
5.2575106520
20
20.9776259759
0
VERTEX
8
0
62
2
6
CONTINUOUS
10
5.2631364785
20
20.9791571088
0
VERTEX
8
0
62
2
6
CONTINUOUS
10
5.2685809627
20
20.9807938003
0
VERTEX
8
0
62
2
6
CONTINUOUS
10
5.2738698200
20
20.9825407084
0
VERTEX
8
0
62
2
6
CONTINUOUS
10
5.2790244210
20
20.9844024352
0
VERTEX
8
0
62
2
6
CONTINUOUS
10
5.2840628430
20
20.9863836351
0
VERTEX
8
0
62
2
6
CONTINUOUS
10
5.2890006111
20
20.9884890943
0
VERTEX
8
0
62
2
6
CONTINUOUS
10
5.2894190228
20
20.9886754316
0
VERTEX
8
0
62
2
6
CONTINUOUS
10
5.2934999633
20
20.9905810880
0
VERTEX
8
0
62
2
6
CONTINUOUS
10
5.2973731102
20
20.9925506903
0
VERTEX
8
0
62
2
6
CONTINUOUS
10
5.3010325172
20
20.9945754356
0
VERTEX
8
0
62
2
6
CONTINUOUS
10
5.3044761862
20
20.9966479598
0
VERTEX
8
0
62
2
6
CONTINUOUS
10
5.3077049437
20
20.9987621248
0
VERTEX
8
0
62
2
6
CONTINUOUS
10
5.3107216248
20
21.0009128588
0
VERTEX
8
0
62
2
6
CONTINUOUS
10
5.3135304663
20
21.0030960356
0
VERTEX
8
0
62
2
6
CONTINUOUS
10
5.3161366480
20
21.0053083829
0
VERTEX
8
0
62
2
6
CONTINUOUS
10
5.3185459369
20
21.0075474113
0
VERTEX
8
0
62
2
6
CONTINUOUS
10
5.3207644065
20
21.0098113583
0
VERTEX
8
0
62
2
6
CONTINUOUS
10
5.3227982094
20
21.0120991432
0
VERTEX
8
0
62
2
6
CONTINUOUS
10
5.3246533906
20
21.0144103290
0
VERTEX
8
0
62
2
6
CONTINUOUS
10
5.3263357305
20
21.0167450879
0
VERTEX
8
0
62
2
6
CONTINUOUS
10
5.3278506112
20
21.0191041693
0
VERTEX
8
0
62
2
6
CONTINUOUS
10
5.3292029009
20
21.0214888670
0
VERTEX
8
0
62
2
6
CONTINUOUS
10
5.3303968550
20
21.0239009851
0
VERTEX
8
0
62
2
6
CONTINUOUS
10
5.3314360305
20
21.0263428012
0
VERTEX
8
0
62
2
6
CONTINUOUS
10
5.3323232135
20
21.0288170265
0
VERTEX
8
0
62
2
6
CONTINUOUS
10
5.3330603596
20
21.0313267627
0
VERTEX
8
0
62
2
6
CONTINUOUS
10
5.3336485475
20
21.0338754559
0
VERTEX
8
0
62
2
6
CONTINUOUS
10
5.3340879441
20
21.0364668482
0
VERTEX
8
0
62
2
6
CONTINUOUS
10
5.3343777832
20
21.0391049291
0
VERTEX
8
0
62
2
6
CONTINUOUS
10
5.3345163555
20
21.0417938858
0
VERTEX
8
0
62
2
6
CONTINUOUS
10
5.3345010103
20
21.0445380566
0
VERTEX
8
0
62
2
6
CONTINUOUS
10
5.3343281674
20
21.0473418858
0
VERTEX
8
0
62
2
6
CONTINUOUS
10
5.3339933370
20
21.0502098829
0
VERTEX
8
0
62
2
6
CONTINUOUS
10
5.3335397057
20
21.0528216112
0
VERTEX
8
0
62
2
6
CONTINUOUS
10
5.3329408893
20
21.0553711274
0
VERTEX
8
0
62
2
6
CONTINUOUS
10
5.3321978572
20
21.0578621697
0
VERTEX
8
0
62
2
6
CONTINUOUS
10
5.3313107160
20
21.0602981448
0
VERTEX
8
0
62
2
6
CONTINUOUS
10
5.3302787391
20
21.0626820733
0
VERTEX
8
0
62
2
6
CONTINUOUS
10
5.3291004116
20
21.0650165355
0
VERTEX
8
0
62
2
6
CONTINUOUS
10
5.3277734906
20
21.0673036183
0
VERTEX
8
0
62
2
6
CONTINUOUS
10
5.3262950819
20
21.0695448649
0
VERTEX
8
0
62
2
6
CONTINUOUS
10
5.3246617345
20
21.0717412281
0
VERTEX
8
0
62
2
6
CONTINUOUS
10
5.3228695543
20
21.0738930255
0
VERTEX
8
0
62
2
6
CONTINUOUS
10
5.3209143385
20
21.0759998982
0
VERTEX
8
0
62
2
6
CONTINUOUS
10
5.3187917354
20
21.0780607710
0
VERTEX
8
0
62
2
6
CONTINUOUS
10
5.3164974331
20
21.0800738140
0
VERTEX
8
0
62
2
6
CONTINUOUS
10
5.3140273845
20
21.0820364036
0
VERTEX
8
0
62
2
6
CONTINUOUS
10
5.3113780792
20
21.0839450822
0
VERTEX
8
0
62
2
6
CONTINUOUS
10
5.3085468720
20
21.0857955165
0
VERTEX
8
0
62
2
6
CONTINUOUS
10
5.3055323875
20
21.0875824517
0
VERTEX
8
0
62
2
6
CONTINUOUS
10
5.3023350199
20
21.0892996652
0
VERTEX
8
0
62
2
6
CONTINUOUS
10
5.2989575549
20
21.0909399197
0
VERTEX
8
0
62
2
6
CONTINUOUS
10
5.2954059448
20
21.0924949214
0
VERTEX
8
0
62
2
6
CONTINUOUS
10
5.2916902722
20
21.0939552945
0
VERTEX
8
0
62
2
6
CONTINUOUS
10
5.2878259362
20
21.0953105874
0
VERTEX
8
0
62
2
6
CONTINUOUS
10
5.2838350825
20
21.0965493408
0
VERTEX
8
0
62
2
6
CONTINUOUS
10
5.2797482639
20
21.0976592645
0
VERTEX
8
0
62
2
6
CONTINUOUS
10
5.2756062353
20
21.0986275926
0
VERTEX
8
0
62
2
6
CONTINUOUS
10
5.2738576821
20
21.0989899342
0
VERTEX
8
0
62
2
6
CONTINUOUS
10
5.2692678959
20
21.0998269077
0
VERTEX
8
0
62
2
6
CONTINUOUS
10
5.2646040805
20
21.1005215749
0
VERTEX
8
0
62
2
6
CONTINUOUS
10
5.2598482820
20
21.1010751086
0
VERTEX
8
0
62
2
6
CONTINUOUS
10
5.2549791176
20
21.1014878342
0
VERTEX
8
0
62
2
6
CONTINUOUS
10
5.2499705067
20
21.1017590906
0
VERTEX
8
0
62
2
6
CONTINUOUS
10
5.2447897280
20
21.1018870099
0
VERTEX
8
0
62
2
6
CONTINUOUS
10
5.2393943060
20
21.1018681537
0
VERTEX
8
0
62
2
6
CONTINUOUS
10
5.2337267245
20
21.1016968828
0
VERTEX
8
0
62
2
6
CONTINUOUS
10
5.2277047642
20
21.1013641868
0
VERTEX
8
0
62
2
6
CONTINUOUS
10
5.2212019826
20
21.1008552973
0
VERTEX
8
0
62
2
6
CONTINUOUS
10
5.2140022878
20
21.1001441092
0
VERTEX
8
0
62
2
6
CONTINUOUS
10
5.2056681726
20
21.0991770081
0
VERTEX
8
0
62
2
6
CONTINUOUS
10
5.1949671228
20
21.0978031094
0
VERTEX
8
0
62
2
6
CONTINUOUS
10
5.1917010461
20
21.0973719459
0
SEQEND
0
POLYLINE
8
0
62
2
6
CONTINUOUS
66
1
70
0
0
VERTEX
8
0
62
2
6
CONTINUOUS
10
5.1917010461
20
21.0973719459
0
VERTEX
8
0
62
2
6
CONTINUOUS
10
5.1917010461
20
20.9875944459
0
VERTEX
8
0
62
2
6
CONTINUOUS
10
5.1917010461
20
20.8642858348
0
VERTEX
8
0
62
2
6
CONTINUOUS
10
5.1916201263
20
20.8569720613
0
VERTEX
8
0
62
2
6
CONTINUOUS
10
5.1915558066
20
20.8520911556
0
VERTEX
8
0
62
2
6
CONTINUOUS
10
5.1915767076
20
20.8454402332
0
VERTEX
8
0
62
2
6
CONTINUOUS
10
5.1917744096
20
20.8398322205
0
VERTEX
8
0
62
2
6
CONTINUOUS
10
5.1921490826
20
20.8348800254
0
VERTEX
8
0
62
2
6
CONTINUOUS
10
5.1926967908
20
20.8304186350
0
VERTEX
8
0
62
2
6
CONTINUOUS
10
5.1934124300
20
20.8263568622
0
VERTEX
8
0
62
2
6
CONTINUOUS
10
5.1942908774
20
20.8226357709
0
VERTEX
8
0
62
2
6
CONTINUOUS
10
5.1953276728
20
20.8192130887
0
VERTEX
8
0
62
2
6
CONTINUOUS
10
5.1965195032
20
20.8160563023
0
VERTEX
8
0
62
2
6
CONTINUOUS
10
5.1978645770
20
20.8131392713
0
VERTEX
8
0
62
2
6
CONTINUOUS
10
5.1993629171
20
20.8104404679
0
VERTEX
8
0
62
2
6
CONTINUOUS
10
5.2010165847
20
20.8079420461
0
VERTEX
8
0
62
2
6
CONTINUOUS
10
5.2028298352
20
20.8056293581
0
VERTEX
8
0
62
2
6
CONTINUOUS
10
5.2048092052
20
20.8034907207
0
VERTEX
8
0
62
2
6
CONTINUOUS
10
5.2069635341
20
20.8015173146
0
VERTEX
8
0
62
2
6
CONTINUOUS
10
5.2093039233
20
20.7997031465
0
VERTEX
8
0
62
2
6
CONTINUOUS
10
5.2118436464
20
20.7980450280
0
VERTEX
8
0
62
2
6
CONTINUOUS
10
5.2145980217
20
20.7965425442
0
VERTEX
8
0
62
2
6
CONTINUOUS
10
5.2175842642
20
20.7951979971
0
VERTEX
8
0
62
2
6
CONTINUOUS
10
5.2208150643
20
20.7940183635
0
VERTEX
8
0
62
2
6
CONTINUOUS
10
5.2243066016
20
20.7930108348
0
SEQEND
0
LINE
8
0
62
2
6
CONTINUOUS
10
5.2243066016
20
20.7930108348
11
5.2243066016
21
20.7914372237
0
LINE
8
0
62
2
6
CONTINUOUS
10
5.2243066016
20
20.7914372237
11
5.0859066016
21
20.7914372237
0
LINE
8
0
62
2
6
CONTINUOUS
10
5.0859066016
20
20.7914372237
11
5.0859066016
21
20.7930108348
0
POLYLINE
8
0
62
2
6
CONTINUOUS
66
1
70
0
0
VERTEX
8
0
62
2
6
CONTINUOUS
10
5.0859066016
20
20.7930108348
0
VERTEX
8
0
62
2
6
CONTINUOUS
10
5.0900017517
20
20.7942226846
0
VERTEX
8
0
62
2
6
CONTINUOUS
10
5.0937332253
20
20.7956782201
0
VERTEX
8
0
62
2
6
CONTINUOUS
10
5.0971221394
20
20.7973634496
0
VERTEX
8
0
62
2
6
CONTINUOUS
10
5.1001949561
20
20.7992702082
0
VERTEX
8
0
62
2
6
CONTINUOUS
10
5.1029789535
20
20.8013973651
0
VERTEX
8
0
62
2
6
CONTINUOUS
10
5.1054972808
20
20.8037494028
0
VERTEX
8
0
62
2
6
CONTINUOUS
10
5.1077686397
20
20.8063364746
0
VERTEX
8
0
62
2
6
CONTINUOUS
10
5.1098070744
20
20.8091744175
0
VERTEX
8
0
62
2
6
CONTINUOUS
10
5.1116219182
20
20.8122848183
0
VERTEX
8
0
62
2
6
CONTINUOUS
10
5.1132179265
20
20.8156953003
0
VERTEX
8
0
62
2
6
CONTINUOUS
10
5.1145956124
20
20.8194403222
0
VERTEX
8
0
62
2
6
CONTINUOUS
10
5.1157517826
20
20.8235630221
0
VERTEX
8
0
62
2
6
CONTINUOUS
10
5.1166802840
20
20.8281192191
0
VERTEX
8
0
62
2
6
CONTINUOUS
10
5.1173730077
20
20.8331862767
0
VERTEX
8
0
62
2
6
CONTINUOUS
10
5.1178213200
20
20.8388846250
0
VERTEX
8
0
62
2
6
CONTINUOUS
10
5.1180185458
20
20.8454404268
0
VERTEX
8
0
62
2
6
CONTINUOUS
10
5.1179672238
20
20.8534444948
0
VERTEX
8
0
62
2
6
CONTINUOUS
10
5.1179105619
20
20.8563006144
0
VERTEX
8
0
62
2
6
CONTINUOUS
10
5.1177941016
20
20.8642858348
0
VERTEX
8
0
62
2
6
CONTINUOUS
10
5.1177941016
20
21.0604261125
0
VERTEX
8
0
62
2
6
CONTINUOUS
10
5.1179105619
20
21.0685489583
0
VERTEX
8
0
62
2
6
CONTINUOUS
10
5.1179576357
20
21.0709146051
0
VERTEX
8
0
62
2
6
CONTINUOUS
10
5.1180221180
20
21.0790990354
0
VERTEX
8
0
62
2
6
CONTINUOUS
10
5.1178393086
20
21.0857337622
0
VERTEX
8
0
62
2
6
CONTINUOUS
10
5.1174056673
20
21.0914782146
0
VERTEX
8
0
62
2
6
CONTINUOUS
10
5.1167273455
20
21.0965779473
0
VERTEX
8
0
62
2
6
CONTINUOUS
10
5.1158124725
20
21.1011615082
0
VERTEX
8
0
62
2
6
CONTINUOUS
10
5.1146686555
20
21.1053103121
0
VERTEX
8
0
62
2
6
CONTINUOUS
10
5.1133015570
20
21.1090823845
0
VERTEX
8
0
62
2
6
CONTINUOUS
10
5.1117138990
20
21.1125221181
0
VERTEX
8
0
62
2
6
CONTINUOUS
10
5.1099047208
20
21.1156647034
0
VERTEX
8
0
62
2
6
CONTINUOUS
10
5.1078688441
20
21.1185382055
0
VERTEX
8
0
62
2
6
CONTINUOUS
10
5.1055965380
20
21.1211645040
0
VERTEX
8
0
62
2
6
CONTINUOUS
10
5.1030733798
20
21.1235596722
0
VERTEX
8
0
62
2
6
CONTINUOUS
10
5.1002802996
20
21.1257341050
0
VERTEX
8
0
62
2
6
CONTINUOUS
10
5.0971937779
20
21.1276925744
0
VERTEX
8
0
62
2
6
CONTINUOUS
10
5.0937861477
20
21.1294343131
0
VERTEX
8
0
62
2
6
CONTINUOUS
10
5.0900311385
20
21.1309513247
0
VERTEX
8
0
62
2
6
CONTINUOUS
10
5.0859066016
20
21.1322302792
0
SEQEND
0
LINE
8
0
62
2
6
CONTINUOUS
10
5.0859066016
20
21.1322302792
11
5.0859066016
21
21.1337969459
0
POLYLINE
8
0
62
2
6
CONTINUOUS
66
1
70
0
0
VERTEX
8
0
62
2
6
CONTINUOUS
10
5.0859066016
20
21.1337969459
0
VERTEX
8
0
62
2
6
CONTINUOUS
10
5.2583579905
20
21.1337969459
0
VERTEX
8
0
62
2
6
CONTINUOUS
10
5.2636280310
20
21.1337607378
0
VERTEX
8
0
62
2
6
CONTINUOUS
10
5.2738852509
20
21.1334745709
0
VERTEX
8
0
62
2
6
CONTINUOUS
10
5.2837393973
20
21.1329129814
0
VERTEX
8
0
62
2
6
CONTINUOUS
10
5.2931884074
20
21.1320877510
0
VERTEX
8
0
62
2
6
CONTINUOUS
10
5.3022309972
20
21.1310109509
0
VERTEX
8
0
62
2
6
CONTINUOUS
10
5.3108667183
20
21.1296948906
0
VERTEX
8
0
62
2
6
CONTINUOUS
10
5.3190960041
20
21.1281520569
0
VERTEX
8
0
62
2
6
CONTINUOUS
10
5.3269202076
20
21.1263950420
0
VERTEX
8
0
62
2
6
CONTINUOUS
10
5.3343416244
20
21.1244364633
0
VERTEX
8
0
62
2
6
CONTINUOUS
10
5.3413635012
20
21.1222888737
0
VERTEX
8
0
62
2
6
CONTINUOUS
10
5.3479900263
20
21.1199646641
0
VERTEX
8
0
62
2
6
CONTINUOUS
10
5.3542263018
20
21.1174759599
0
VERTEX
8
0
62
2
6
CONTINUOUS
10
5.3600782932
20
21.1148345127
0
VERTEX
8
0
62
2
6
CONTINUOUS
10
5.3655527589
20
21.1120515904
0
VERTEX
8
0
62
2
6
CONTINUOUS
10
5.3706571562
20
21.1091378669
0
VERTEX
8
0
62
2
6
CONTINUOUS
10
5.3753995250
20
21.1061033157
0
VERTEX
8
0
62
2
6
CONTINUOUS
10
5.3797883502
20
21.1029571090
0
VERTEX
8
0
62
2
6
CONTINUOUS
10
5.3838324034
20
21.0997075276
0
VERTEX
8
0
62
2
6
CONTINUOUS
10
5.3875405667
20
21.0963618835
0
VERTEX
8
0
62
2
6
CONTINUOUS
10
5.3909216414
20
21.0929264596
0
VERTEX
8
0
62
2
6
CONTINUOUS
10
5.3939841454
20
21.0894064699
0
VERTEX
8
0
62
2
6
CONTINUOUS
10
5.3967361046
20
21.0858060433
0
VERTEX
8
0
62
2
6
CONTINUOUS
10
5.3991848429
20
21.0821282342
0
VERTEX
8
0
62
2
6
CONTINUOUS
10
5.4013367793
20
21.0783750614
0
VERTEX
8
0
62
2
6
CONTINUOUS
10
5.4031972361
20
21.0745475756
0
VERTEX
8
0
62
2
6
CONTINUOUS
10
5.4047702689
20
21.0706459568
0
VERTEX
8
0
62
2
6
CONTINUOUS
10
5.4060585219
20
21.0666696370
0
VERTEX
8
0
62
2
6
CONTINUOUS
10
5.4065963352
20
21.0646528499
0
VERTEX
8
0
62
2
6
CONTINUOUS
10
5.4070631184
20
21.0626174468
0
VERTEX
8
0
62
2
6
CONTINUOUS
10
5.4077828776
20
21.0584928991
0
VERTEX
8
0
62
2
6
CONTINUOUS
10
5.4082167216
20
21.0542950284
0
VERTEX
8
0
62
2
6
CONTINUOUS
10
5.4083621572
20
21.0500219459
0
VERTEX
8
0
62
2
6
CONTINUOUS
10
5.4082166932
20
21.0459810762
0
VERTEX
8
0
62
2
6
CONTINUOUS
10
5.4077808365
20
21.0419608987
0
VERTEX
8
0
62
2
6
CONTINUOUS
10
5.4070537559
20
21.0379567177
0
VERTEX
8
0
62
2
6
CONTINUOUS
10
5.4060325460
20
21.0339645296
0
VERTEX
8
0
62
2
6
CONTINUOUS
10
5.4047124079
20
21.0299812395
0
VERTEX
8
0
62
2
6
CONTINUOUS
10
5.4030868876
20
21.0260048711
0
VERTEX
8
0
62
2
6
CONTINUOUS
10
5.4011481743
20
21.0220347644
0
VERTEX
8
0
62
2
6
CONTINUOUS
10
5.3988874530
20
21.0180717596
0
VERTEX
8
0
62
2
6
CONTINUOUS
10
5.3962953126
20
21.0141183619
0
VERTEX
8
0
62
2
6
CONTINUOUS
10
5.3933622058
20
21.0101788862
0
VERTEX
8
0
62
2
6
CONTINUOUS
10
5.3900789593
20
21.0062595782
0
VERTEX
8
0
62
2
6
CONTINUOUS
10
5.3864373314
20
21.0023687081
0
VERTEX
8
0
62
2
6
CONTINUOUS
10
5.3824306115
20
20.9985166316
0
VERTEX
8
0
62
2
6
CONTINUOUS
10
5.3780542522
20
20.9947158100
0
VERTEX
8
0
62
2
6
CONTINUOUS
10
5.3733065227
20
20.9909807803
0
VERTEX
8
0
62
2
6
CONTINUOUS
10
5.3681891591
20
20.9873280649
0
VERTEX
8
0
62
2
6
CONTINUOUS
10
5.3627079876
20
20.9837760074
0
VERTEX
8
0
62
2
6
CONTINUOUS
10
5.3568734810
20
20.9803445259
0
VERTEX
8
0
62
2
6
CONTINUOUS
10
5.3507012055
20
20.9770547739
0
VERTEX
8
0
62
2
6
CONTINUOUS
10
5.3442121113
20
20.9739287089
0
VERTEX
8
0
62
2
6
CONTINUOUS
10
5.3374326167
20
20.9709885727
0
VERTEX
8
0
62
2
6
CONTINUOUS
10
5.3303944489
20
20.9682563015
0
VERTEX
8
0
62
2
6
CONTINUOUS
10
5.3231342140
20
20.9657528920
0
VERTEX
8
0
62
2
6
CONTINUOUS
10
5.3156926957
20
20.9634977615
0
VERTEX
8
0
62
2
6
CONTINUOUS
10
5.3084675620
20
20.9615942755
0
VERTEX
8
0
62
2
6
CONTINUOUS
10
5.3008209194
20
20.9598755745
0
VERTEX
8
0
62
2
6
CONTINUOUS
10
5.2931482683
20
20.9584497237
0
SEQEND
0
POLYLINE
8
0
62
2
6
CONTINUOUS
66
1
70
0
0
VERTEX
8
0
62
2
6
CONTINUOUS
10
4.8323052127
20
20.8351386125
0
VERTEX
8
0
62
2
6
CONTINUOUS
10
4.8452026079
20
20.8341862794
0
VERTEX
8
0
62
2
6
CONTINUOUS
10
4.8614629437
20
20.8328321800
0
VERTEX
8
0
62
2
6
CONTINUOUS
10
4.8751184119
20
20.8316599629
0
VERTEX
8
0
62
2
6
CONTINUOUS
10
4.8897040479
20
20.8304794969
0
VERTEX
8
0
62
2
6
CONTINUOUS
10
4.9015523756
20
20.8296510758
0
VERTEX
8
0
62
2
6
CONTINUOUS
10
4.9119314164
20
20.8290742692
0
VERTEX
8
0
62
2
6
CONTINUOUS
10
4.9213548807
20
20.8287082610
0
VERTEX
8
0
62
2
6
CONTINUOUS
10
4.9300924668
20
20.8285317760
0
VERTEX
8
0
62
2
6
CONTINUOUS
10
4.9383075220
20
20.8285321904
0
VERTEX
8
0
62
2
6
CONTINUOUS
10
4.9461085053
20
20.8287014600
0
VERTEX
8
0
62
2
6
CONTINUOUS
10
4.9535722407
20
20.8290342885
0
VERTEX
8
0
62
2
6
CONTINUOUS
10
4.9607558361
20
20.8295271967
0
VERTEX
8
0
62
2
6
CONTINUOUS
10
4.9677033730
20
20.8301780084
0
VERTEX
8
0
62
2
6
CONTINUOUS
10
4.9744499258
20
20.8309855477
0
VERTEX
8
0
62
2
6
CONTINUOUS
10
4.9810241110
20
20.8319494525
0
VERTEX
8
0
62
2
6
CONTINUOUS
10
4.9874497741
20
20.8330700562
0
VERTEX
8
0
62
2
6
CONTINUOUS
10
4.9937471460
20
20.8343483099
0
VERTEX
8
0
62
2
6
CONTINUOUS
10
4.9999336605
20
20.8357857311
0
VERTEX
8
0
62
2
6
CONTINUOUS
10
5.0060245455
20
20.8373843684
0
VERTEX
8
0
62
2
6
CONTINUOUS
10
5.0120332604
20
20.8391467781
0
VERTEX
8
0
62
2
6
CONTINUOUS
10
5.0179718263
20
20.8410760076
0
VERTEX
8
0
62
2
6
CONTINUOUS
10
5.0238510784
20
20.8431755839
0
VERTEX
8
0
62
2
6
CONTINUOUS
10
5.0296808621
20
20.8454495059
0
VERTEX
8
0
62
2
6
CONTINUOUS
10
5.0354701883
20
20.8479022383
0
VERTEX
8
0
62
2
6
CONTINUOUS
10
5.0412273567
20
20.8505387076
0
VERTEX
8
0
62
2
6
CONTINUOUS
10
5.0469600554
20
20.8533642990
0
VERTEX
8
0
62
2
6
CONTINUOUS
10
5.0526754423
20
20.8563848539
0
VERTEX
8
0
62
2
6
CONTINUOUS
10
5.0583802127
20
20.8596066681
0
SEQEND
0
LINE
8
0
62
2
6
CONTINUOUS
10
5.0583802127
20
20.8596066681
11
5.0605496572
21
20.8596066681
0
LINE
8
0
62
2
6
CONTINUOUS
10
5.0605496572
20
20.8596066681
11
5.0279441016
21
20.7914372237
0
LINE
8
0
62
2
6
CONTINUOUS
10
5.0279441016
20
20.7914372237
11
4.7257857683
21
20.7914372237
0
LINE
8
0
62
2
6
CONTINUOUS
10
4.7257857683
20
20.7914372237
11
4.7257857683
21
20.7930108348
0
POLYLINE
8
0
62
2
6
CONTINUOUS
66
1
70
0
0
VERTEX
8
0
62
2
6
CONTINUOUS
10
4.7257857683
20
20.7930108348
0
VERTEX
8
0
62
2
6
CONTINUOUS
10
4.7298957659
20
20.7942266848
0
VERTEX
8
0
62
2
6
CONTINUOUS
10
4.7318153674
20
20.7949277770
0
VERTEX
8
0
62
2
6
CONTINUOUS
10
4.7336481166
20
20.7956886079
0
VERTEX
8
0
62
2
6
CONTINUOUS
10
4.7370609960
20
20.7973817842
0
VERTEX
8
0
62
2
6
CONTINUOUS
10
4.7401623167
20
20.7992990691
0
VERTEX
8
0
62
2
6
CONTINUOUS
10
4.7429785121
20
20.8014394140
0
VERTEX
8
0
62
2
6
CONTINUOUS
10
4.7455320207
20
20.8038072570
0
VERTEX
8
0
62
2
6
CONTINUOUS
10
4.7478409763
20
20.8064125643
0
VERTEX
8
0
62
2
6
CONTINUOUS
10
4.7499190040
20
20.8092708255
0
VERTEX
8
0
62
2
6
CONTINUOUS
10
4.7517751671
20
20.8124030932
0
VERTEX
8
0
62
2
6
CONTINUOUS
10
4.7534140953
20
20.8158362229
0
VERTEX
8
0
62
2
6
CONTINUOUS
10
4.7548363079
20
20.8196035794
0
VERTEX
8
0
62
2
6
CONTINUOUS
10
4.7560387354
20
20.8237466974
0
VERTEX
8
0
62
2
6
CONTINUOUS
10
4.7570154561
20
20.8283188991
0
VERTEX
8
0
62
2
6
CONTINUOUS
10
4.7577587016
20
20.8333932816
0
VERTEX
8
0
62
2
6
CONTINUOUS
10
4.7582603260
20
20.8390819078
0
VERTEX
8
0
62
2
6
CONTINUOUS
10
4.7585144140
20
20.8455905012
0
VERTEX
8
0
62
2
6
CONTINUOUS
10
4.7585246908
20
20.8534341806
0
VERTEX
8
0
62
2
6
CONTINUOUS
10
4.7584951035
20
20.8556309422
0
VERTEX
8
0
62
2
6
CONTINUOUS
10
4.7583913239
20
20.8642858348
0
VERTEX
8
0
62
2
6
CONTINUOUS
10
4.7583913239
20
21.0604261125
0
VERTEX
8
0
62
2
6
CONTINUOUS
10
4.7584951035
20
21.0692268803
0
VERTEX
8
0
62
2
6
CONTINUOUS
10
4.7585186494
20
21.0709408315
0
VERTEX
8
0
62
2
6
CONTINUOUS
10
4.7585213519
20
21.0789491408
0
VERTEX
8
0
62
2
6
CONTINUOUS
10
4.7582816975
20
21.0855330740
0
VERTEX
8
0
62
2
6
CONTINUOUS
10
4.7577948533
20
21.0912666206
0
VERTEX
8
0
62
2
6
CONTINUOUS
10
4.7570661405
20
21.0963732867
0
VERTEX
8
0
62
2
6
CONTINUOUS
10
4.7561031631
20
21.1009728066
0
VERTEX
8
0
62
2
6
CONTINUOUS
10
4.7549131653
20
21.1051421687
0
VERTEX
8
0
62
2
6
CONTINUOUS
10
4.7535015644
20
21.1089368337
0
VERTEX
8
0
62
2
6
CONTINUOUS
10
4.7518709480
20
21.1123995577
0
VERTEX
8
0
62
2
6
CONTINUOUS
10
4.7500203423
20
21.1155644177
0
VERTEX
8
0
62
2
6
CONTINUOUS
10
4.7479446896
20
21.1184586966
0
VERTEX
8
0
62
2
6
CONTINUOUS
10
4.7456345246
20
21.1211037268
0
VERTEX
8
0
62
2
6
CONTINUOUS
10
4.7430758405
20
21.1235152204
0
VERTEX
8
0
62
2
6
CONTINUOUS
10
4.7402501340
20
21.1257033693
0
VERTEX
8
0
62
2
6
CONTINUOUS
10
4.7371345963
20
21.1276728834
0
VERTEX
8
0
62
2
6
CONTINUOUS
10
4.7337024070
20
21.1294230580
0
VERTEX
8
0
62
2
6
CONTINUOUS
10
4.7318581985
20
21.1302142153
0
VERTEX
8
0
62
2
6
CONTINUOUS
10
4.7299258748
20
21.1309469203
0
VERTEX
8
0
62
2
6
CONTINUOUS
10
4.7257857683
20
21.1322302792
0
SEQEND
0
LINE
8
0
62
2
6
CONTINUOUS
10
4.7257857683
20
21.1322302792
11
4.7257857683
21
21.1337969459
0
LINE
8
0
62
2
6
CONTINUOUS
10
4.7257857683
20
21.1337969459
11
4.9576649350
21
21.1337969459
0
LINE
8
0
62
2
6
CONTINUOUS
10
4.9576649350
20
21.1337969459
11
4.9917163239
21
21.1363872237
0
LINE
8
0
62
2
6
CONTINUOUS
10
4.9917163239
20
21.1363872237
11
4.9938927127
21
21.1363872237
0
LINE
8
0
62
2
6
CONTINUOUS
10
4.9938927127
20
21.1363872237
11
4.9938927127
21
21.0755080570
0
LINE
8
0
62
2
6
CONTINUOUS
10
4.9938927127
20
21.0755080570
11
4.9917163239
21
21.0755080570
0
ARC
8
0
62
2
6
CONTINUOUS
10
4.9205632195
20
20.9693189135
40
0.1278237007
50
56.1755396367
51
96.4463209909
0
LINE
8
0
62
2
6
CONTINUOUS
10
4.9062121572
20
21.0963344459
11
4.8323052127
21
21.0926997237
0
LINE
8
0
62
2
6
CONTINUOUS
10
4.8323052127
20
21.0926997237
11
4.8323052127
21
20.9959247237
0
LINE
8
0
62
2
6
CONTINUOUS
10
4.8323052127
20
20.9959247237
11
4.9185274350
21
20.9959247237
0
LINE
8
0
62
2
6
CONTINUOUS
10
4.9185274350
20
20.9959247237
11
4.9504149350
21
20.9990372237
0
LINE
8
0
62
2
6
CONTINUOUS
10
4.9504149350
20
20.9990372237
11
4.9525927127
21
20.9990372237
0
LINE
8
0
62
2
6
CONTINUOUS
10
4.9525927127
20
20.9990372237
11
4.9525927127
21
20.9438955570
0
LINE
8
0
62
2
6
CONTINUOUS
10
4.9525927127
20
20.9438955570
11
4.9504149350
21
20.9438955570
0
POLYLINE
8
0
62
2
6
CONTINUOUS
66
1
70
0
0
VERTEX
8
0
62
2
6
CONTINUOUS
10
4.9504149350
20
20.9438955570
0
VERTEX
8
0
62
2
6
CONTINUOUS
10
4.9491495291
20
20.9454005974
0
VERTEX
8
0
62
2
6
CONTINUOUS
10
4.9477233955
20
20.9468287200
0
VERTEX
8
0
62
2
6
CONTINUOUS
10
4.9461266103
20
20.9481833693
0
VERTEX
8
0
62
2
6
CONTINUOUS
10
4.9443471119
20
20.9494664744
0
VERTEX
8
0
62
2
6
CONTINUOUS
10
4.9423707814
20
20.9506784972
0
VERTEX
8
0
62
2
6
CONTINUOUS
10
4.9401814697
20
20.9518185205
0
VERTEX
8
0
62
2
6
CONTINUOUS
10
4.9377609404
20
20.9528843655
0
VERTEX
8
0
62
2
6
CONTINUOUS
10
4.9350886838
20
20.9538727345
0
VERTEX
8
0
62
2
6
CONTINUOUS
10
4.9321415336
20
20.9547793722
0
VERTEX
8
0
62
2
6
CONTINUOUS
10
4.9288929696
20
20.9555992455
0
VERTEX
8
0
62
2
6
CONTINUOUS
10
4.9253118854
20
20.9563267441
0
VERTEX
8
0
62
2
6
CONTINUOUS
10
4.9213603793
20
20.9569559136
0
VERTEX
8
0
62
2
6
CONTINUOUS
10
4.9169896060
20
20.9574807451
0
VERTEX
8
0
62
2
6
CONTINUOUS
10
4.9121313596
20
20.9578955749
0
VERTEX
8
0
62
2
6
CONTINUOUS
10
4.9066788694
20
20.9581957333
0
VERTEX
8
0
62
2
6
CONTINUOUS
10
4.9004342406
20
20.9583788907
0
VERTEX
8
0
62
2
6
CONTINUOUS
10
4.8929109901
20
20.9584493817
0
VERTEX
8
0
62
2
6
CONTINUOUS
10
4.8859288239
20
20.9584497237
0
VERTEX
8
0
62
2
6
CONTINUOUS
10
4.8323052127
20
20.9584497237
0
SEQEND
0
LINE
8
0
62
2
6
CONTINUOUS
10
4.8323052127
20
20.9584497237
11
4.8323052127
21
20.8351386125
0
LINE
8
0
62
2
6
CONTINUOUS
10
4.5627538239
20
20.7930108348
11
4.5627538239
21
20.7914372237
0
LINE
8
0
62
2
6
CONTINUOUS
10
4.5627538239
20
20.7914372237
11
4.4192871572
21
20.7914372237
0
LINE
8
0
62
2
6
CONTINUOUS
10
4.4192871572
20
20.7914372237
11
4.4192871572
21
20.7930108348
0
POLYLINE
8
0
62
2
6
CONTINUOUS
66
1
70
0
0
VERTEX
8
0
62
2
6
CONTINUOUS
10
4.4192871572
20
20.7930108348
0
VERTEX
8
0
62
2
6
CONTINUOUS
10
4.4231847925
20
20.7942364416
0
VERTEX
8
0
62
2
6
CONTINUOUS
10
4.4250099132
20
20.7949334285
0
VERTEX
8
0
62
2
6
CONTINUOUS
10
4.4267551522
20
20.7956843666
0
VERTEX
8
0
62
2
6
CONTINUOUS
10
4.4300130403
20
20.7973413931
0
VERTEX
8
0
62
2
6
CONTINUOUS
10
4.4329841661
20
20.7992021356
0
VERTEX
8
0
62
2
6
CONTINUOUS
10
4.4356918190
20
20.8012659436
0
VERTEX
8
0
62
2
6
CONTINUOUS
10
4.4381559136
20
20.8035367695
0
VERTEX
8
0
62
2
6
CONTINUOUS
10
4.4403927415
20
20.8060232158
0
VERTEX
8
0
62
2
6
CONTINUOUS
10
4.4424148019
20
20.8087385491
0
VERTEX
8
0
62
2
6
CONTINUOUS
10
4.4442307451
20
20.8117007484
0
VERTEX
8
0
62
2
6
CONTINUOUS
10
4.4458454526
20
20.8149327012
0
VERTEX
8
0
62
2
6
CONTINUOUS
10
4.4472602660
20
20.8184627359
0
VERTEX
8
0
62
2
6
CONTINUOUS
10
4.4484733666
20
20.8223258260
0
VERTEX
8
0
62
2
6
CONTINUOUS
10
4.4494803144
20
20.8265661214
0
VERTEX
8
0
62
2
6
CONTINUOUS
10
4.4502747694
20
20.8312422724
0
VERTEX
8
0
62
2
6
CONTINUOUS
10
4.4508494892
20
20.8364393431
0
VERTEX
8
0
62
2
6
CONTINUOUS
10
4.4511978849
20
20.8422991230
0
VERTEX
8
0
62
2
6
CONTINUOUS
10
4.4513172991
20
20.8491173458
0
VERTEX
8
0
62
2
6
CONTINUOUS
10
4.4512236193
20
20.8578430321
0
VERTEX
8
0
62
2
6
CONTINUOUS
10
4.4511538239
20
20.8642858348
0
VERTEX
8
0
62
2
6
CONTINUOUS
10
4.4511538239
20
20.9731295848
0
VERTEX
8
0
62
2
6
CONTINUOUS
10
4.4511538239
20
21.0963344459
0
SEQEND
0
LINE
8
0
62
2
6
CONTINUOUS
10
4.4511538239
20
21.0963344459
11
4.3873927127
21
21.0963344459
0
ARC
8
0
62
2
6
CONTINUOUS
10
4.3803225361
20
20.9367101003
40
0.1597808471
50
87.4638787987
51
119.6947324667
0
LINE
8
0
62
2
6
CONTINUOUS
10
4.3011704905
20
21.0755080570
11
4.2989941016
21
21.0755080570
0
LINE
8
0
62
2
6
CONTINUOUS
10
4.2989941016
20
21.0755080570
11
4.3243635461
21
21.1374386125
0
LINE
8
0
62
2
6
CONTINUOUS
10
4.3243635461
20
21.1374386125
11
4.3265274350
21
21.1374386125
0
LINE
8
0
62
2
6
CONTINUOUS
10
4.3265274350
20
21.1374386125
11
4.3540746572
21
21.1337969459
0
LINE
8
0
62
2
6
CONTINUOUS
10
4.3540746572
20
21.1337969459
11
4.6424663239
21
21.1337969459
0
LINE
8
0
62
2
6
CONTINUOUS
10
4.6424663239
20
21.1337969459
11
4.6757913239
21
21.1374386125
0
LINE
8
0
62
2
6
CONTINUOUS
10
4.6757913239
20
21.1374386125
11
4.6779607683
21
21.1374386125
0
LINE
8
0
62
2
6
CONTINUOUS
10
4.6779607683
20
21.1374386125
11
4.6547816016
21
21.0755080570
0
LINE
8
0
62
2
6
CONTINUOUS
10
4.6547816016
20
21.0755080570
11
4.6526038239
21
21.0755080570
0
POLYLINE
8
0
62
2
6
CONTINUOUS
66
1
70
0
0
VERTEX
8
0
62
2
6
CONTINUOUS
10
4.6526038239
20
21.0755080570
0
VERTEX
8
0
62
2
6
CONTINUOUS
10
4.6515338521
20
21.0773803285
0
VERTEX
8
0
62
2
6
CONTINUOUS
10
4.6503061952
20
21.0791626174
0
VERTEX
8
0
62
2
6
CONTINUOUS
10
4.6489157649
20
21.0808607960
0
VERTEX
8
0
62
2
6
CONTINUOUS
10
4.6473553765
20
21.0824793618
0
VERTEX
8
0
62
2
6
CONTINUOUS
10
4.6456158768
20
21.0840213886
0
VERTEX
8
0
62
2
6
CONTINUOUS
10
4.6436862849
20
21.0854885140
0
VERTEX
8
0
62
2
6
CONTINUOUS
10
4.6415539304
20
21.0868809631
0
VERTEX
8
0
62
2
6
CONTINUOUS
10
4.6392045746
20
21.0881976035
0
VERTEX
8
0
62
2
6
CONTINUOUS
10
4.6366225023
20
21.0894360266
0
VERTEX
8
0
62
2
6
CONTINUOUS
10
4.6337905673
20
21.0905926489
0
VERTEX
8
0
62
2
6
CONTINUOUS
10
4.6306901710
20
21.0916628288
0
VERTEX
8
0
62
2
6
CONTINUOUS
10
4.6273011432
20
21.0926409950
0
VERTEX
8
0
62
2
6
CONTINUOUS
10
4.6236014685
20
21.0935207872
0
VERTEX
8
0
62
2
6
CONTINUOUS
10
4.6195667537
20
21.0942952094
0
VERTEX
8
0
62
2
6
CONTINUOUS
10
4.6151692336
20
21.0949568011
0
VERTEX
8
0
62
2
6
CONTINUOUS
10
4.6103758804
20
21.0954978367
0
VERTEX
8
0
62
2
6
CONTINUOUS
10
4.6051446355
20
21.0959105652
0
VERTEX
8
0
62
2
6
CONTINUOUS
10
4.5994162405
20
21.0961875157
0
VERTEX
8
0
62
2
6
CONTINUOUS
10
4.5930941292
20
21.0963219019
0
VERTEX
8
0
62
2
6
CONTINUOUS
10
4.5902941016
20
21.0963344459
0
VERTEX
8
0
62
2
6
CONTINUOUS
10
4.5250677127
20
21.0963344459
0
SEQEND
0
POLYLINE
8
0
62
2
6
CONTINUOUS
66
1
70
0
0
VERTEX
8
0
62
2
6
CONTINUOUS
10
4.5250677127
20
21.0963344459
0
VERTEX
8
0
62
2
6
CONTINUOUS
10
4.5250677127
20
20.9828031959
0
VERTEX
8
0
62
2
6
CONTINUOUS
10
4.5250677127
20
20.8590775014
0
VERTEX
8
0
62
2
6
CONTINUOUS
10
4.5250755988
20
20.8518932087
0
VERTEX
8
0
62
2
6
CONTINUOUS
10
4.5251869936
20
20.8451713722
0
VERTEX
8
0
62
2
6
CONTINUOUS
10
4.5254473346
20
20.8399102223
0
VERTEX
8
0
62
2
6
CONTINUOUS
10
4.5258637118
20
20.8354650886
0
VERTEX
8
0
62
2
6
CONTINUOUS
10
4.5264388854
20
20.8315594736
0
VERTEX
8
0
62
2
6
CONTINUOUS
10
4.5271758110
20
20.8280417634
0
VERTEX
8
0
62
2
6
CONTINUOUS
10
4.5280790907
20
20.8248163306
0
VERTEX
8
0
62
2
6
CONTINUOUS
10
4.5291557592
20
20.8218171037
0
VERTEX
8
0
62
2
6
CONTINUOUS
10
4.5304158419
20
20.8189954703
0
VERTEX
8
0
62
2
6
CONTINUOUS
10
4.5318727994
20
20.8163140646
0
VERTEX
8
0
62
2
6
CONTINUOUS
10
4.5335438953
20
20.8137433008
0
VERTEX
8
0
62
2
6
CONTINUOUS
10
4.5354505078
20
20.8112593057
0
VERTEX
8
0
62
2
6
CONTINUOUS
10
4.5376184073
20
20.8088426022
0
VERTEX
8
0
62
2
6
CONTINUOUS
10
4.5400685929
20
20.8064856655
0
VERTEX
8
0
62
2
6
CONTINUOUS
10
4.5428286704
20
20.8041781676
0
VERTEX
8
0
62
2
6
CONTINUOUS
10
4.5459353922
20
20.8019074820
0
VERTEX
8
0
62
2
6
CONTINUOUS
10
4.5494306805
20
20.7996632619
0
VERTEX
8
0
62
2
6
CONTINUOUS
10
4.5533620239
20
20.7974369735
0
VERTEX
8
0
62
2
6
CONTINUOUS
10
4.5577829829
20
20.7952215055
0
VERTEX
8
0
62
2
6
CONTINUOUS
10
4.5627538239
20
20.7930108348
0
SEQEND
0
POLYLINE
8
0
62
2
6
CONTINUOUS
66
1
70
0
0
VERTEX
8
0
62
2
6
CONTINUOUS
10
4.2446593794
20
21.0718872237
0
VERTEX
8
0
62
2
6
CONTINUOUS
10
4.2366150164
20
21.0767568711
0
VERTEX
8
0
62
2
6
CONTINUOUS
10
4.2286834241
20
21.0811473003
0
VERTEX
8
0
62
2
6
CONTINUOUS
10
4.2208203141
20
21.0850953333
0
VERTEX
8
0
62
2
6
CONTINUOUS
10
4.2129832937
20
21.0886316370
0
VERTEX
8
0
62
2
6
CONTINUOUS
10
4.2051309301
20
21.0917814119
0
VERTEX
8
0
62
2
6
CONTINUOUS
10
4.1972218990
20
21.0945649052
0
VERTEX
8
0
62
2
6
CONTINUOUS
10
4.1932335349
20
21.0958242158
0
VERTEX
8
0
62
2
6
CONTINUOUS
10
4.1892197017
20
21.0969962349
0
VERTEX
8
0
62
2
6
CONTINUOUS
10
4.1811012869
20
21.0990827170
0
VERTEX
8
0
62
2
6
CONTINUOUS
10
4.1728226412
20
21.1008346465
0
VERTEX
8
0
62
2
6
CONTINUOUS
10
4.1643373712
20
21.1022581770
0
VERTEX
8
0
62
2
6
CONTINUOUS
10
4.1555957465
20
21.1033554258
0
VERTEX
8
0
62
2
6
CONTINUOUS
10
4.1465435884
20
21.1041244830
0
VERTEX
8
0
62
2
6
CONTINUOUS
10
4.1371209293
20
21.1045593141
0
VERTEX
8
0
62
2
6
CONTINUOUS
10
4.1352651135
20
21.1046037394
0
VERTEX
8
0
62
2
6
CONTINUOUS
10
4.1277561181
20
21.1046111992
0
VERTEX
8
0
62
2
6
CONTINUOUS
10
4.1190825854
20
21.1042990315
0
VERTEX
8
0
62
2
6
CONTINUOUS
10
4.1104197805
20
21.1036614292
0
VERTEX
8
0
62
2
6
CONTINUOUS
10
4.1020751389
20
21.1027230839
0
VERTEX
8
0
62
2
6
CONTINUOUS
10
4.0942099688
20
21.1015136154
0
VERTEX
8
0
62
2
6
CONTINUOUS
10
4.0869041109
20
21.1000629003
0
VERTEX
8
0
62
2
6
CONTINUOUS
10
4.0801901372
20
21.0983991819
0
VERTEX
8
0
62
2
6
CONTINUOUS
10
4.0740723427
20
21.0965482420
0
VERTEX
8
0
62
2
6
CONTINUOUS
10
4.0685378624
20
21.0945329936
0
VERTEX
8
0
62
2
6
CONTINUOUS
10
4.0635635157
20
21.0923732372
0
VERTEX
8
0
62
2
6
CONTINUOUS
10
4.0591202331
20
21.0900854724
0
VERTEX
8
0
62
2
6
CONTINUOUS
10
4.0551760714
20
21.0876827231
0
VERTEX
8
0
62
2
6
CONTINUOUS
10
4.0516983864
20
21.0851743632
0
VERTEX
8
0
62
2
6
CONTINUOUS
10
4.0486555018
20
21.0825659531
0
VERTEX
8
0
62
2
6
CONTINUOUS
10
4.0460180724
20
21.0798591078
0
VERTEX
8
0
62
2
6
CONTINUOUS
10
4.0437602574
20
21.0770514301
0
VERTEX
8
0
62
2
6
CONTINUOUS
10
4.0418607550
20
21.0741365443
0
VERTEX
8
0
62
2
6
CONTINUOUS
10
4.0403037026
20
21.0711042611
0
VERTEX
8
0
62
2
6
CONTINUOUS
10
4.0390794175
20
21.0679408877
0
VERTEX
8
0
62
2
6
CONTINUOUS
10
4.0381849365
20
21.0646296715
0
VERTEX
8
0
62
2
6
CONTINUOUS
10
4.0376243199
20
21.0611513400
0
VERTEX
8
0
62
2
6
CONTINUOUS
10
4.0374395794
20
21.0578191034
0
VERTEX
8
0
62
2
6
CONTINUOUS
10
4.0376159315
20
21.0545623178
0
VERTEX
8
0
62
2
6
CONTINUOUS
10
4.0381469728
20
21.0513614024
0
VERTEX
8
0
62
2
6
CONTINUOUS
10
4.0390346834
20
21.0481976958
0
VERTEX
8
0
62
2
6
CONTINUOUS
10
4.0402891864
20
21.0450540584
0
VERTEX
8
0
62
2
6
CONTINUOUS
10
4.0419282526
20
21.0419153847
0
VERTEX
8
0
62
2
6
CONTINUOUS
10
4.0439766123
20
21.0387689727
0
VERTEX
8
0
62
2
6
CONTINUOUS
10
4.0464651483
20
21.0356047318
0
VERTEX
8
0
62
2
6
CONTINUOUS
10
4.0494300398
20
21.0324152384
0
VERTEX
8
0
62
2
6
CONTINUOUS
10
4.0529119043
20
21.0291956661
0
VERTEX
8
0
62
2
6
CONTINUOUS
10
4.0569549656
20
21.0259436186
0
VERTEX
8
0
62
2
6
CONTINUOUS
10
4.0616062641
20
21.0226588784
0
VERTEX
8
0
62
2
6
CONTINUOUS
10
4.0669149469
20
21.0193430531
0
VERTEX
8
0
62
2
6
CONTINUOUS
10
4.0729317570
20
21.0159990322
0
VERTEX
8
0
62
2
6
CONTINUOUS
10
4.0797091123
20
21.0126300193
0
VERTEX
8
0
62
2
6
CONTINUOUS
10
4.0873030314
20
21.0092374732
0
VERTEX
8
0
62
2
6
CONTINUOUS
10
4.0957813277
20
21.0058158680
0
VERTEX
8
0
62
2
6
CONTINUOUS
10
4.1052569998
20
21.0023359254
0
VERTEX
8
0
62
2
6
CONTINUOUS
10
4.1160652025
20
20.9986654117
0
VERTEX
8
0
62
2
6
CONTINUOUS
10
4.1237750441
20
20.9961030326
0
VERTEX
8
0
62
2
6
CONTINUOUS
10
4.1410538980
20
20.9903707654
0
VERTEX
8
0
62
2
6
CONTINUOUS
10
4.1588311599
20
20.9846056591
0
VERTEX
8
0
62
2
6
CONTINUOUS
10
4.1760517967
20
20.9788911908
0
VERTEX
8
0
62
2
6
CONTINUOUS
10
4.1898902530
20
20.9740308588
0
VERTEX
8
0
62
2
6
CONTINUOUS
10
4.2019295557
20
20.9694899251
0
VERTEX
8
0
62
2
6
CONTINUOUS
10
4.2127876074
20
20.9650590781
0
VERTEX
8
0
62
2
6
CONTINUOUS
10
4.2227832297
20
20.9606289974
0
VERTEX
8
0
62
2
6
CONTINUOUS
10
4.2321077373
20
20.9561324197
0
VERTEX
8
0
62
2
6
CONTINUOUS
10
4.2390095447
20
20.9524621375
0
VERTEX
8
0
62
2
6
CONTINUOUS
10
4.2453170634
20
20.9487130706
0
VERTEX
8
0
62
2
6
CONTINUOUS
10
4.2510575203
20
20.9448952634
0
VERTEX
8
0
62
2
6
CONTINUOUS
10
4.2562575211
20
20.9410175252
0
VERTEX
8
0
62
2
6
CONTINUOUS
10
4.2609428378
20
20.9370873323
0
VERTEX
8
0
62
2
6
CONTINUOUS
10
4.2651381686
20
20.9331107432
0
VERTEX
8
0
62
2
6
CONTINUOUS
10
4.2688668711
20
20.9290923344
0
VERTEX
8
0
62
2
6
CONTINUOUS
10
4.2721506733
20
20.9250351648
0
VERTEX
8
0
62
2
6
CONTINUOUS
10
4.2750093663
20
20.9209407786
0
VERTEX
8
0
62
2
6
CONTINUOUS
10
4.2774604908
20
20.9168092574
0
VERTEX
8
0
62
2
6
CONTINUOUS
10
4.2795190297
20
20.9126393298
0
VERTEX
8
0
62
2
6
CONTINUOUS
10
4.2811951385
20
20.9084341822
0
VERTEX
8
0
62
2
6
CONTINUOUS
10
4.2824982595
20
20.9041947497
0
VERTEX
8
0
62
2
6
CONTINUOUS
10
4.2834366364
20
20.8999176620
0
VERTEX
8
0
62
2
6
CONTINUOUS
10
4.2840152975
20
20.8955990629
0
VERTEX
8
0
62
2
6
CONTINUOUS
10
4.2842360260
20
20.8912349986
0
VERTEX
8
0
62
2
6
CONTINUOUS
10
4.2840974429
20
20.8868218438
0
VERTEX
8
0
62
2
6
CONTINUOUS
10
4.2835952072
20
20.8823567501
0
VERTEX
8
0
62
2
6
CONTINUOUS
10
4.2827223392
20
20.8778380974
0
VERTEX
8
0
62
2
6
CONTINUOUS
10
4.2814696597
20
20.8732659302
0
VERTEX
8
0
62
2
6
CONTINUOUS
10
4.2798263391
20
20.8686423630
0
VERTEX
8
0
62
2
6
CONTINUOUS
10
4.2777805421
20
20.8639719395
0
VERTEX
8
0
62
2
6
CONTINUOUS
10
4.2753201522
20
20.8592619320
0
VERTEX
8
0
62
2
6
CONTINUOUS
10
4.2724335565
20
20.8545225670
0
VERTEX
8
0
62
2
6
CONTINUOUS
10
4.2691104648
20
20.8497671638
0
VERTEX
8
0
62
2
6
CONTINUOUS
10
4.2653427360
20
20.8450121710
0
VERTEX
8
0
62
2
6
CONTINUOUS
10
4.2611251734
20
20.8402770895
0
VERTEX
8
0
62
2
6
CONTINUOUS
10
4.2564562503
20
20.8355842693
0
VERTEX
8
0
62
2
6
CONTINUOUS
10
4.2513387193
20
20.8309585768
0
VERTEX
8
0
62
2
6
CONTINUOUS
10
4.2457800630
20
20.8264269351
0
VERTEX
8
0
62
2
6
CONTINUOUS
10
4.2397927453
20
20.8220177498
0
VERTEX
8
0
62
2
6
CONTINUOUS
10
4.2333942358
20
20.8177602468
0
VERTEX
8
0
62
2
6
CONTINUOUS
10
4.2266067970
20
20.8136837561
0
VERTEX
8
0
62
2
6
CONTINUOUS
10
4.2194570403
20
20.8098169857
0
VERTEX
8
0
62
2
6
CONTINUOUS
10
4.2119752836
20
20.8061873313
0
VERTEX
8
0
62
2
6
CONTINUOUS
10
4.2073137733
20
20.8041225758
0
VERTEX
8
0
62
2
6
CONTINUOUS
10
4.1993867578
20
20.8009316576
0
VERTEX
8
0
62
2
6
CONTINUOUS
10
4.1912344858
20
20.7980428051
0
VERTEX
8
0
62
2
6
CONTINUOUS
10
4.1825698129
20
20.7953634036
0
VERTEX
8
0
62
2
6
CONTINUOUS
10
4.1734054024
20
20.7929079828
0
VERTEX
8
0
62
2
6
CONTINUOUS
10
4.1637370087
20
20.7906917355
0
VERTEX
8
0
62
2
6
CONTINUOUS
10
4.1535645770
20
20.7887305938
0
VERTEX
8
0
62
2
6
CONTINUOUS
10
4.1428931761
20
20.7870409813
0
VERTEX
8
0
62
2
6
CONTINUOUS
10
4.1317340384
20
20.7856395073
0
VERTEX
8
0
62
2
6
CONTINUOUS
10
4.1201056975
20
20.7845425896
0
VERTEX
8
0
62
2
6
CONTINUOUS
10
4.1080352023
20
20.7837659930
0
VERTEX
8
0
62
2
6
CONTINUOUS
10
4.0955593626
20
20.7833242737
0
VERTEX
8
0
62
2
6
CONTINUOUS
10
4.0827259538
20
20.7832301205
0
VERTEX
8
0
62
2
6
CONTINUOUS
10
4.0695947717
20
20.7834935949
0
VERTEX
8
0
62
2
6
CONTINUOUS
10
4.0562383880
20
20.7841212838
0
VERTEX
8
0
62
2
6
CONTINUOUS
10
4.0427424153
20
20.7851153988
0
VERTEX
8
0
62
2
6
CONTINUOUS
10
4.0292050638
20
20.7864728802
0
VERTEX
8
0
62
2
6
CONTINUOUS
10
4.0157357687
20
20.7881845922
0
VERTEX
8
0
62
2
6
CONTINUOUS
10
4.0024527177
20
20.7902347210
0
VERTEX
8
0
62
2
6
CONTINUOUS
10
3.9996945217
20
20.7907069233
0
VERTEX
8
0
62
2
6
CONTINUOUS
10
3.9868387235
20
20.7931280754
0
VERTEX
8
0
62
2
6
CONTINUOUS
10
3.9744993991
20
20.7958126554
0
VERTEX
8
0
62
2
6
CONTINUOUS
10
3.9627843794
20
20.7987205570
0
SEQEND
0
LINE
8
0
62
2
6
CONTINUOUS
10
3.9627843794
20
20.7987205570
11
3.9417760461
21
20.8637566681
0
POLYLINE
8
0
62
2
6
CONTINUOUS
66
1
70
0
0
VERTEX
8
0
62
2
6
CONTINUOUS
10
3.9417760461
20
20.8637566681
0
VERTEX
8
0
62
2
6
CONTINUOUS
10
3.9501815057
20
20.8590239570
0
VERTEX
8
0
62
2
6
CONTINUOUS
10
3.9591506427
20
20.8543838836
0
VERTEX
8
0
62
2
6
CONTINUOUS
10
3.9686121985
20
20.8498914182
0
VERTEX
8
0
62
2
6
CONTINUOUS
10
3.9718745686
20
20.8484302646
0
VERTEX
8
0
62
2
6
CONTINUOUS
10
3.9818296246
20
20.8442308690
0
VERTEX
8
0
62
2
6
CONTINUOUS
10
3.9920380302
20
20.8403075040
0
VERTEX
8
0
62
2
6
CONTINUOUS
10
4.0024160282
20
20.8366942108
0
VERTEX
8
0
62
2
6
CONTINUOUS
10
4.0128849387
20
20.8334178186
0
VERTEX
8
0
62
2
6
CONTINUOUS
10
4.0233729375
20
20.8304981629
0
VERTEX
8
0
62
2
6
CONTINUOUS
10
4.0338161043
20
20.8279486241
0
VERTEX
8
0
62
2
6
CONTINUOUS
10
4.0441588561
20
20.8257768627
0
VERTEX
8
0
62
2
6
CONTINUOUS
10
4.0543539068
20
20.8239856499
0
VERTEX
8
0
62
2
6
CONTINUOUS
10
4.0643618932
20
20.8225737142
0
VERTEX
8
0
62
2
6
CONTINUOUS
10
4.0741507887
20
20.8215365532
0
VERTEX
8
0
62
2
6
CONTINUOUS
10
4.0836952005
20
20.8208671784
0
VERTEX
8
0
62
2
6
CONTINUOUS
10
4.0929756216
20
20.8205567789
0
VERTEX
8
0
62
2
6
CONTINUOUS
10
4.1019776842
20
20.8205952996
0
VERTEX
8
0
62
2
6
CONTINUOUS
10
4.1106914471
20
20.8209719387
0
VERTEX
8
0
62
2
6
CONTINUOUS
10
4.1191107324
20
20.8216755688
0
VERTEX
8
0
62
2
6
CONTINUOUS
10
4.1272325196
20
20.8226950938
0
VERTEX
8
0
62
2
6
CONTINUOUS
10
4.1350563995
20
20.8240197467
0
VERTEX
8
0
62
2
6
CONTINUOUS
10
4.1425840846
20
20.8256393398
0
VERTEX
8
0
62
2
6
CONTINUOUS
10
4.1498189720
20
20.8275444726
0
VERTEX
8
0
62
2
6
CONTINUOUS
10
4.1567657531
20
20.8297267034
0
VERTEX
8
0
62
2
6
CONTINUOUS
10
4.1634300654
20
20.8321786910
0
VERTEX
8
0
62
2
6
CONTINUOUS
10
4.1698181792
20
20.8348943083
0
VERTEX
8
0
62
2
6
CONTINUOUS
10
4.1750685399
20
20.8374712046
0
VERTEX
8
0
62
2
6
CONTINUOUS
10
4.1797903469
20
20.8401634647
0
VERTEX
8
0
62
2
6
CONTINUOUS
10
4.1840067200
20
20.8429549893
0
VERTEX
8
0
62
2
6
CONTINUOUS
10
4.1877409376
20
20.8458314246
0
VERTEX
8
0
62
2
6
CONTINUOUS
10
4.1910160102
20
20.8487803956
0
VERTEX
8
0
62
2
6
CONTINUOUS
10
4.1938541707
20
20.8517916961
0
VERTEX
8
0
62
2
6
CONTINUOUS
10
4.1962762933
20
20.8548574062
0
VERTEX
8
0
62
2
6
CONTINUOUS
10
4.1983012607
20
20.8579719116
0
VERTEX
8
0
62
2
6
CONTINUOUS
10
4.1999453142
20
20.8611317926
0
VERTEX
8
0
62
2
6
CONTINUOUS
10
4.2012214342
20
20.8643355640
0
VERTEX
8
0
62
2
6
CONTINUOUS
10
4.2021379716
20
20.8675795425
0
VERTEX
8
0
62
2
6
CONTINUOUS
10
4.2027003939
20
20.8708580906
0
VERTEX
8
0
62
2
6
CONTINUOUS
10
4.2029126622
20
20.8741721673
0
VERTEX
8
0
62
2
6
CONTINUOUS
10
4.2027744836
20
20.8775227464
0
VERTEX
8
0
62
2
6
CONTINUOUS
10
4.2022815110
20
20.8809100404
0
VERTEX
8
0
62
2
6
CONTINUOUS
10
4.2014258096
20
20.8843327425
0
VERTEX
8
0
62
2
6
CONTINUOUS
10
4.2001965617
20
20.8877873503
0
VERTEX
8
0
62
2
6
CONTINUOUS
10
4.1985809629
20
20.8912676218
0
VERTEX
8
0
62
2
6
CONTINUOUS
10
4.1965652430
20
20.8947642019
0
VERTEX
8
0
62
2
6
CONTINUOUS
10
4.1941357411
20
20.8982644421
0
VERTEX
8
0
62
2
6
CONTINUOUS
10
4.1912799573
20
20.9017524189
0
VERTEX
8
0
62
2
6
CONTINUOUS
10
4.1879875123
20
20.9052091462
0
VERTEX
8
0
62
2
6
CONTINUOUS
10
4.1842509491
20
20.9086129595
0
VERTEX
8
0
62
2
6
CONTINUOUS
10
4.1800663280
20
20.9119400415
0
VERTEX
8
0
62
2
6
CONTINUOUS
10
4.1754335817
20
20.9151650443
0
VERTEX
8
0
62
2
6
CONTINUOUS
10
4.1703566229
20
20.9182617600
0
VERTEX
8
0
62
2
6
CONTINUOUS
10
4.1655348337
20
20.9208560747
0
VERTEX
8
0
62
2
6
CONTINUOUS
10
4.1571624063
20
20.9249100235
0
VERTEX
8
0
62
2
6
CONTINUOUS
10
4.1481898308
20
20.9288751061
0
VERTEX
8
0
62
2
6
CONTINUOUS
10
4.1384486878
20
20.9328091820
0
VERTEX
8
0
62
2
6
CONTINUOUS
10
4.1276603045
20
20.9368050193
0
VERTEX
8
0
62
2
6
CONTINUOUS
10
4.1152904088
20
20.9410377554
0
VERTEX
8
0
62
2
6
CONTINUOUS
10
4.0999987215
20
20.9459449703
0
VERTEX
8
0
62
2
6
CONTINUOUS
10
4.0812185561
20
20.9518083617
0
VERTEX
8
0
62
2
6
CONTINUOUS
10
4.0661126227
20
20.9566672416
0
VERTEX
8
0
62
2
6
CONTINUOUS
10
4.0538295968
20
20.9608839604
0
VERTEX
8
0
62
2
6
CONTINUOUS
10
4.0449265313
20
20.9641098161
0
VERTEX
8
0
62
2
6
CONTINUOUS
10
4.0344825119
20
20.9681086542
0
VERTEX
8
0
62
2
6
CONTINUOUS
10
4.0252309979
20
20.9719481022
0
VERTEX
8
0
62
2
6
CONTINUOUS
10
4.0168746709
20
20.9757381831
0
VERTEX
8
0
62
2
6
CONTINUOUS
10
4.0092759693
20
20.9795223406
0
VERTEX
8
0
62
2
6
CONTINUOUS
10
4.0023529023
20
20.9833203455
0
VERTEX
8
0
62
2
6
CONTINUOUS
10
3.9960475858
20
20.9871418218
0
VERTEX
8
0
62
2
6
CONTINUOUS
10
3.9903143310
20
20.9909917250
0
VERTEX
8
0
62
2
6
CONTINUOUS
10
3.9851145034
20
20.9948729495
0
VERTEX
8
0
62
2
6
CONTINUOUS
10
3.9804141379
20
20.9987877256
0
VERTEX
8
0
62
2
6
CONTINUOUS
10
3.9761828070
20
21.0027384373
0
VERTEX
8
0
62
2
6
CONTINUOUS
10
3.9723931120
20
21.0067281320
0
VERTEX
8
0
62
2
6
CONTINUOUS
10
3.9690205032
20
21.0107608526
0
VERTEX
8
0
62
2
6
CONTINUOUS
10
3.9660432840
20
21.0148418490
0
VERTEX
8
0
62
2
6
CONTINUOUS
10
3.9634427161
20
21.0189777051
0
VERTEX
8
0
62
2
6
CONTINUOUS
10
3.9612031789
20
21.0231763928
0
VERTEX
8
0
62
2
6
CONTINUOUS
10
3.9593123479
20
21.0274472651
0
VERTEX
8
0
62
2
6
CONTINUOUS
10
3.9574744770
20
21.0325202079
0
VERTEX
8
0
62
2
6
CONTINUOUS
10
3.9560502997
20
21.0374603159
0
VERTEX
8
0
62
2
6
CONTINUOUS
10
3.9550208027
20
21.0422781993
0
VERTEX
8
0
62
2
6
CONTINUOUS
10
3.9543708519
20
21.0469784223
0
VERTEX
8
0
62
2
6
CONTINUOUS
10
3.9540867913
20
21.0515667311
0
VERTEX
8
0
62
2
6
CONTINUOUS
10
3.9541571601
20
21.0560537675
0
VERTEX
8
0
62
2
6
CONTINUOUS
10
3.9545740359
20
21.0604499069
0
VERTEX
8
0
62
2
6
CONTINUOUS
10
3.9553330715
20
21.0647649742
0
VERTEX
8
0
62
2
6
CONTINUOUS
10
3.9564334435
20
21.0690079337
0
VERTEX
8
0
62
2
6
CONTINUOUS
10
3.9578777013
20
21.0731865664
0
VERTEX
8
0
62
2
6
CONTINUOUS
10
3.9596715085
20
21.0773071466
0
VERTEX
8
0
62
2
6
CONTINUOUS
10
3.9618232726
20
21.0813741275
0
VERTEX
8
0
62
2
6
CONTINUOUS
10
3.9643436591
20
21.0853898429
0
VERTEX
8
0
62
2
6
CONTINUOUS
10
3.9672449857
20
21.0893542297
0
VERTEX
8
0
62
2
6
CONTINUOUS
10
3.9705404871
20
21.0932645686
0
VERTEX
8
0
62
2
6
CONTINUOUS
10
3.9742434355
20
21.0971152424
0
VERTEX
8
0
62
2
6
CONTINUOUS
10
3.9783660938
20
21.1008975082
0
VERTEX
8
0
62
2
6
CONTINUOUS
10
3.9829184721
20
21.1045992857
0
VERTEX
8
0
62
2
6
CONTINUOUS
10
3.9879068522
20
21.1082049670
0
VERTEX
8
0
62
2
6
CONTINUOUS
10
3.9933320479
20
21.1116952673
0
VERTEX
8
0
62
2
6
CONTINUOUS
10
3.9991873804
20
21.1150471485
0
VERTEX
8
0
62
2
6
CONTINUOUS
10
4.0054563821
20
21.1182338719
0
VERTEX
8
0
62
2
6
CONTINUOUS
10
4.0103515578
20
21.1204707764
0
VERTEX
8
0
62
2
6
CONTINUOUS
10
4.0177712968
20
21.1235167057
0
VERTEX
8
0
62
2
6
CONTINUOUS
10
4.0256847047
20
21.1263854247
0
VERTEX
8
0
62
2
6
CONTINUOUS
10
4.0341048627
20
21.1290642396
0
VERTEX
8
0
62
2
6
CONTINUOUS
10
4.0430424112
20
21.1315392823
0
VERTEX
8
0
62
2
6
CONTINUOUS
10
4.0525047693
20
21.1337956469
0
VERTEX
8
0
62
2
6
CONTINUOUS
10
4.0624952196
20
21.1358175584
0
VERTEX
8
0
62
2
6
CONTINUOUS
10
4.0730118366
20
21.1375885863
0
VERTEX
8
0
62
2
6
CONTINUOUS
10
4.0840462398
20
21.1390919161
0
VERTEX
8
0
62
2
6
CONTINUOUS
10
4.0955821551
20
21.1403106964
0
VERTEX
8
0
62
2
6
CONTINUOUS
10
4.1075937853
20
21.1412284820
0
VERTEX
8
0
62
2
6
CONTINUOUS
10
4.1200440083
20
21.1418297966
0
VERTEX
8
0
62
2
6
CONTINUOUS
10
4.1328824611
20
21.1421008364
0
VERTEX
8
0
62
2
6
CONTINUOUS
10
4.1460436239
20
21.1420303349
0
VERTEX
8
0
62
2
6
CONTINUOUS
10
4.1594450974
20
21.1416105930
0
VERTEX
8
0
62
2
6
CONTINUOUS
10
4.1729863681
20
21.1408386592
0
VERTEX
8
0
62
2
6
CONTINUOUS
10
4.1865484704
20
21.1397176024
0
VERTEX
8
0
62
2
6
CONTINUOUS
10
4.1999950445
20
21.1382577686
0
VERTEX
8
0
62
2
6
CONTINUOUS
10
4.2131753110
20
21.1364778446
0
VERTEX
8
0
62
2
6
CONTINUOUS
10
4.2207005398
20
21.1352985444
0
VERTEX
8
0
62
2
6
CONTINUOUS
10
4.2330554283
20
21.1330859780
0
VERTEX
8
0
62
2
6
CONTINUOUS
10
4.2446593794
20
21.1306636125
0
SEQEND
0
LINE
8
0
62
2
6
CONTINUOUS
10
4.2446593794
20
21.1306636125
11
4.2446593794
21
21.0718872237
0
POLYLINE
8
0
62
2
6
CONTINUOUS
66
1
70
0
0
VERTEX
8
0
62
2
6
CONTINUOUS
10
3.7973524350
20
20.6747247237
0
VERTEX
8
0
62
2
6
CONTINUOUS
10
4.0239382683
20
20.6747247237
0
VERTEX
8
0
62
2
6
CONTINUOUS
10
4.8284657683
20
20.6747247237
0
VERTEX
8
0
62
2
6
CONTINUOUS
10
5.6329932683
20
20.6747247237
0
VERTEX
8
0
62
2
6
CONTINUOUS
10
6.4375207683
20
20.6747247237
0
VERTEX
8
0
62
2
6
CONTINUOUS
10
7.2420482683
20
20.6747247237
0
VERTEX
8
0
62
2
6
CONTINUOUS
10
7.2420482683
20
21.2526663903
0
VERTEX
8
0
62
2
6
CONTINUOUS
10
7.0154624350
20
21.2526663903
0
VERTEX
8
0
62
2
6
CONTINUOUS
10
6.2109349350
20
21.2526663903
0
VERTEX
8
0
62
2
6
CONTINUOUS
10
5.4064074350
20
21.2526663903
0
VERTEX
8
0
62
2
6
CONTINUOUS
10
4.6018799350
20
21.2526663903
0
VERTEX
8
0
62
2
6
CONTINUOUS
10
3.7973524350
20
21.2526663903
0
VERTEX
8
0
62
2
6
CONTINUOUS
10
3.7973524350
20
20.6747247237
0
SEQEND
0
ENDBLK
8
0
6
BYBLOCK
62
0
0
BLOCK
8
___SYMBOL
62
2
6
CONTINUOUS
2
PACKAGING_UPC_NOTE_BL1
70
64
10
10.8109008460
20
5.7417202252
0
TEXT
8
___SYMBOL
62
7
6
CONTINUOUS
10
9.2144000505
20
6.2687235172
7
STANDARD
40
0.0593587493
1
XXXXX-XX-X-XX
41
0.8258950223
72
0
0
TEXT
8
___SYMBOL
62
7
6
CONTINUOUS
10
10.8483800314
20
6.1395585187
7
STANDARD
40
0.0445192495
1
xxxxxx-xx
41
0.6740211631
72
0
0
TEXT
8
___SYMBOL
62
2
6
CONTINUOUS
10
8.0840557551
20
7.8123521790
7
STANDARD
40
0.1562500052
1
PACKAGING/UPC LABEL ON BOX
41
0.8000000000
72
0
0
TEXT
8
___SYMBOL
62
2
6
CONTINUOUS
10
8.0840557551
20
7.5779771712
7
STANDARD
40
0.1562500052
1
ETIQUETA DE EMBALAJE/UPC EN LA CAJA
41
0.8000000000
72
0
0
TEXT
8
___SYMBOL
62
2
6
CONTINUOUS
10
8.0840557551
20
7.3436021699
7
STANDARD
40
0.1562500000
1
ETIQUETTE D'EMBALLAGE/UPC SUR LA BOÎTE
41
0.8000000000
72
0
0
TEXT
8
___SYMBOL
62
2
6
CONTINUOUS
10
8.0609008460
20
5.6242132661
7
STANDARD
40
0.1562500000
1
The template and the label suffixes circled
41
0.8000000000
72
0
0
TEXT
8
___SYMBOL
62
2
6
CONTINUOUS
10
8.0609008460
20
5.3898382661
7
STANDARD
40
0.1562500000
1
must match for proper cut-out.
41
0.8000000000
72
0
0
TEXT
8
___SYMBOL
62
2
6
CONTINUOUS
10
8.0609008460
20
5.1554632661
7
STANDARD
40
0.1562500000
1
 
41
0.8000000000
72
0
0
TEXT
8
___SYMBOL
62
2
6
CONTINUOUS
10
8.0609008460
20
4.9210882661
7
STANDARD
40
0.1562500000
1
Los sufijos de la plantilla y de la etiqueta
41
0.8000000000
72
0
0
TEXT
8
___SYMBOL
62
2
6
CONTINUOUS
10
8.0609008460
20
4.6867132661
7
STANDARD
40
0.1562500000
1
encerrados en un círculo deben ser
41
0.8000000000
72
0
0
TEXT
8
___SYMBOL
62
2
6
CONTINUOUS
10
8.0609008460
20
4.4523382661
7
STANDARD
40
0.1562500000
1
iguales para la abertura correcta.
41
0.8000000000
72
0
0
TEXT
8
___SYMBOL
62
2
6
CONTINUOUS
10
8.0609008460
20
4.2179632661
7
STANDARD
40
0.1562500000
1
 
41
0.8000000000
72
0
0
TEXT
8
___SYMBOL
62
2
6
CONTINUOUS
10
8.0609008460
20
3.9835882661
7
STANDARD
40
0.1562500000
1
Le gabarit et les suffixes de l'étiquette
41
0.8000000000
72
0
0
TEXT
8
___SYMBOL
62
2
6
CONTINUOUS
10
8.0609008460
20
3.7492132661
7
STANDARD
40
0.1562500000
1
entourés doivent correspondre pour
41
0.8000000000
72
0
0
TEXT
8
___SYMBOL
62
2
6
CONTINUOUS
10
8.0609008460
20
3.5148382661
7
STANDARD
40
0.1562500000
1
une découpe correcte.
41
0.8000000000
72
0
0
LINE
8
___SYMBOL
62
7
6
CONTINUOUS
10
11.2032050272
20
6.1128285190
11
9.0181625528
21
6.1128285190
0
LINE
8
___SYMBOL
62
7
6
CONTINUOUS
10
9.0181625528
20
6.1128285190
11
9.0181625528
21
7.1058585074
0
LINE
8
___SYMBOL
62
7
6
CONTINUOUS
10
9.0181625528
20
7.1058585074
11
11.2032050272
21
7.1058585074
0
LINE
8
___SYMBOL
62
7
6
CONTINUOUS
10
11.2032050272
20
7.1058585074
11
11.2032050272
21
6.1128285190
0
LINE
8
___SYMBOL
62
7
6
CONTINUOUS
10
8.9847950531
20
7.1383185070
11
11.2373600268
21
7.1383185070
0
LINE
8
___SYMBOL
62
7
6
CONTINUOUS
10
11.2373600268
20
7.1383185070
11
11.2373600268
21
6.0454110198
0
LINE
8
___SYMBOL
62
7
6
CONTINUOUS
10
11.2373600268
20
6.0454110198
11
8.9847950531
21
6.0454110198
0
LINE
8
___SYMBOL
62
7
6
CONTINUOUS
10
8.9847950531
20
6.0454110198
11
8.9847950531
21
7.1383185070
0
LINE
8
___SYMBOL
62
7
6
CONTINUOUS
10
10.9980200296
20
6.5444985140
11
10.9980200296
21
6.4228635154
0
LINE
8
___SYMBOL
62
7
6
CONTINUOUS
10
10.9980200296
20
6.4228635154
11
10.6550675336
21
6.4228635154
0
LINE
8
___SYMBOL
62
7
6
CONTINUOUS
10
10.6550675336
20
6.4228635154
11
10.6550675336
21
6.5444985140
0
LINE
8
___SYMBOL
62
7
6
CONTINUOUS
10
10.6550675336
20
6.5444985140
11
10.9980200296
21
6.5444985140
0
SOLID
8
___SYMBOL
62
7
6
CONTINUOUS
10
10.6550675336
20
6.4228635063
11
10.6550675336
21
6.5444985063
12
10.9980200296
22
6.5444985063
13
10.9980200296
23
6.5444985063
0
SOLID
8
___SYMBOL
62
7
6
CONTINUOUS
10
10.9980200296
20
6.5444985063
11
10.9980200296
21
6.4228635063
12
10.6550675336
22
6.4228635063
13
10.6550675336
23
6.4228635063
0
LINE
8
___SYMBOL
62
7
6
CONTINUOUS
10
9.9225650422
20
6.5444985140
11
9.9225650422
21
6.4228635154
0
LINE
8
___SYMBOL
62
7
6
CONTINUOUS
10
9.9225650422
20
6.4228635154
11
9.0668600522
21
6.4228635154
0
LINE
8
___SYMBOL
62
7
6
CONTINUOUS
10
9.0668600522
20
6.4228635154
11
9.0668600522
21
6.5444985140
0
LINE
8
___SYMBOL
62
7
6
CONTINUOUS
10
9.0668600522
20
6.5444985140
11
9.9225650422
21
6.5444985140
0
SOLID
8
___SYMBOL
62
7
6
CONTINUOUS
10
9.0668600522
20
6.4228635063
11
9.0668600522
21
6.5444985063
12
9.9225650422
22
6.5444985063
13
9.9225650422
23
6.5444985063
0
SOLID
8
___SYMBOL
62
7
6
CONTINUOUS
10
9.9225650422
20
6.5444985063
11
9.9225650422
21
6.4228635063
12
9.0668600522
22
6.4228635063
13
9.0668600522
23
6.4228635063
0
LINE
8
___SYMBOL
62
7
6
CONTINUOUS
10
9.9225650422
20
6.1712310183
11
9.9225650422
21
6.1362510187
0
LINE
8
___SYMBOL
62
7
6
CONTINUOUS
10
9.9225650422
20
6.1362510187
11
9.0668600522
21
6.1362510187
0
LINE
8
___SYMBOL
62
7
6
CONTINUOUS
10
9.0668600522
20
6.1362510187
11
9.0668600522
21
6.1712310183
0
LINE
8
___SYMBOL
62
7
6
CONTINUOUS
10
9.0668600522
20
6.1712310183
11
9.9225650422
21
6.1712310183
0
SOLID
8
___SYMBOL
62
7
6
CONTINUOUS
10
9.0668600522
20
6.1362510203
11
9.0668600522
21
6.1712310023
12
9.9225650422
22
6.1712310023
13
9.9225650422
23
6.1712310023
0
SOLID
8
___SYMBOL
62
7
6
CONTINUOUS
10
9.9225650422
20
6.1712310023
11
9.9225650422
21
6.1362510203
12
9.0668600522
22
6.1362510203
13
9.0668600522
23
6.1362510203
0
POLYLINE
8
___SYMBOL
62
7
6
CONTINUOUS
66
1
70
0
0
VERTEX
8
___SYMBOL
62
7
6
CONTINUOUS
10
9.7885699958
20
6.3830086361
0
VERTEX
8
___SYMBOL
62
7
6
CONTINUOUS
10
9.7658418311
20
6.3739220392
0
VERTEX
8
___SYMBOL
62
7
6
CONTINUOUS
10
9.7467915721
20
6.3585524193
0
VERTEX
8
___SYMBOL
62
7
6
CONTINUOUS
10
9.7331046110
20
6.3382595394
0
VERTEX
8
___SYMBOL
62
7
6
CONTINUOUS
10
9.7259918446
20
6.3148387273
0
VERTEX
8
___SYMBOL
62
7
6
CONTINUOUS
10
9.7260825450
20
6.2903620415
0
VERTEX
8
___SYMBOL
62
7
6
CONTINUOUS
10
9.7333686880
20
6.2669949546
0
VERTEX
8
___SYMBOL
62
7
6
CONTINUOUS
10
9.7472056625
20
6.2468047720
0
VERTEX
8
___SYMBOL
62
7
6
CONTINUOUS
10
9.7663692999
20
6.2315777359
0
VERTEX
8
___SYMBOL
62
7
6
CONTINUOUS
10
9.7891641775
20
6.2226609945
0
VERTEX
8
___SYMBOL
62
7
6
CONTINUOUS
10
9.8135736137
20
6.2208434195
0
VERTEX
8
___SYMBOL
62
7
6
CONTINUOUS
10
9.8374380855
20
6.2262858131
0
VERTEX
8
___SYMBOL
62
7
6
CONTINUOUS
10
9.8586462835
20
6.2385066823
0
VERTEX
8
___SYMBOL
62
7
6
CONTINUOUS
10
9.8753219008
20
6.2564248367
0
VERTEX
8
___SYMBOL
62
7
6
CONTINUOUS
10
9.8859896320
20
6.2784550425
0
VERTEX
8
___SYMBOL
62
7
6
CONTINUOUS
10
9.8897056940
20
6.3026482692
0
VERTEX
8
___SYMBOL
62
7
6
CONTINUOUS
10
9.8861413238
20
6.3268641221
0
VERTEX
8
___SYMBOL
62
7
6
CONTINUOUS
10
9.8756118641
20
6.3489602048
0
VERTEX
8
___SYMBOL
62
7
6
CONTINUOUS
10
9.8590488649
20
6.3669816585
0
VERTEX
8
___SYMBOL
62
7
6
CONTINUOUS
10
9.8379176684
20
6.3793341105
0
VERTEX
8
___SYMBOL
62
7
6
CONTINUOUS
10
9.8140877690
20
6.3849247291
0
VERTEX
8
___SYMBOL
62
7
6
CONTINUOUS
10
9.7896674175
20
6.3832589078
0
SEQEND
0
LINE
8
___SYMBOL
62
7
6
CONTINUOUS
10
9.9692150416
20
7.0777335077
11
9.9692150416
21
7.0160835085
0
LINE
8
___SYMBOL
62
7
6
CONTINUOUS
10
9.9692150416
20
7.0160835085
11
9.1135100516
21
7.0160835085
0
LINE
8
___SYMBOL
62
7
6
CONTINUOUS
10
9.1135100516
20
7.0160835085
11
9.1135100516
21
7.0777335077
0
LINE
8
___SYMBOL
62
7
6
CONTINUOUS
10
9.1135100516
20
7.0777335077
11
9.9692150416
21
7.0777335077
0
SOLID
8
___SYMBOL
62
7
6
CONTINUOUS
10
9.1135100516
20
7.0160835043
11
9.1135100516
21
7.0777334943
12
9.9692150416
22
7.0777334943
13
9.9692150416
23
7.0777334943
0
SOLID
8
___SYMBOL
62
7
6
CONTINUOUS
10
9.9692150416
20
7.0777334943
11
9.9692150416
21
7.0160835043
12
9.1135100516
22
7.0160835043
13
9.1135100516
23
7.0160835043
0
LINE
8
___SYMBOL
62
7
6
CONTINUOUS
10
9.9692150416
20
6.9777510089
11
9.9692150416
21
6.9161010096
0
LINE
8
___SYMBOL
62
7
6
CONTINUOUS
10
9.9692150416
20
6.9161010096
11
9.1135100516
21
6.9161010096
0
LINE
8
___SYMBOL
62
7
6
CONTINUOUS
10
9.1135100516
20
6.9161010096
11
9.1135100516
21
6.9777510089
0
LINE
8
___SYMBOL
62
7
6
CONTINUOUS
10
9.1135100516
20
6.9777510089
11
9.9692150416
21
6.9777510089
0
SOLID
8
___SYMBOL
62
7
6
CONTINUOUS
10
9.1135100516
20
6.9161009963
11
9.1135100516
21
6.9777510203
12
9.9692150416
22
6.9777510203
13
9.9692150416
23
6.9777510203
0
SOLID
8
___SYMBOL
62
7
6
CONTINUOUS
10
9.9692150416
20
6.9777510203
11
9.9692150416
21
6.9161009963
12
9.1135100516
22
6.9161009963
13
9.1135100516
23
6.9161009963
0
LINE
8
___SYMBOL
62
7
6
CONTINUOUS
10
9.9692150416
20
6.8777685101
11
9.9692150416
21
6.8161260108
0
LINE
8
___SYMBOL
62
7
6
CONTINUOUS
10
9.9692150416
20
6.8161260108
11
9.1135100516
21
6.8161260108
0
LINE
8
___SYMBOL
62
7
6
CONTINUOUS
10
9.1135100516
20
6.8161260108
11
9.1135100516
21
6.8777685101
0
LINE
8
___SYMBOL
62
7
6
CONTINUOUS
10
9.1135100516
20
6.8777685101
11
9.9692150416
21
6.8777685101
0
SOLID
8
___SYMBOL
62
7
6
CONTINUOUS
10
9.1135100516
20
6.8161260023
11
9.1135100516
21
6.8777685123
12
9.9692150416
22
6.8777685123
13
9.9692150416
23
6.8777685123
0
SOLID
8
___SYMBOL
62
7
6
CONTINUOUS
10
9.9692150416
20
6.8777685123
11
9.9692150416
21
6.8161260023
12
9.1135100516
22
6.8161260023
13
9.1135100516
23
6.8161260023
0
LINE
8
___SYMBOL
62
7
6
CONTINUOUS
10
9.9692150416
20
6.7777860113
11
9.9692150416
21
6.7161435120
0
LINE
8
___SYMBOL
62
7
6
CONTINUOUS
10
9.9692150416
20
6.7161435120
11
9.1135100516
21
6.7161435120
0
LINE
8
___SYMBOL
62
7
6
CONTINUOUS
10
9.1135100516
20
6.7161435120
11
9.1135100516
21
6.7777860113
0
LINE
8
___SYMBOL
62
7
6
CONTINUOUS
10
9.1135100516
20
6.7777860113
11
9.9692150416
21
6.7777860113
0
SOLID
8
___SYMBOL
62
7
6
CONTINUOUS
10
9.1135100516
20
6.7161435283
11
9.1135100516
21
6.7777860043
12
9.9692150416
22
6.7777860043
13
9.9692150416
23
6.7777860043
0
SOLID
8
___SYMBOL
62
7
6
CONTINUOUS
10
9.9692150416
20
6.7777860043
11
9.9692150416
21
6.7161435283
12
9.1135100516
22
6.7161435283
13
9.1135100516
23
6.7161435283
0
LINE
8
___SYMBOL
62
7
6
CONTINUOUS
10
9.9692150416
20
6.6511485127
11
9.9692150416
21
6.5894985135
0
LINE
8
___SYMBOL
62
7
6
CONTINUOUS
10
9.9692150416
20
6.5894985135
11
9.1135100516
21
6.5894985135
0
LINE
8
___SYMBOL
62
7
6
CONTINUOUS
10
9.1135100516
20
6.5894985135
11
9.1135100516
21
6.6511485127
0
LINE
8
___SYMBOL
62
7
6
CONTINUOUS
10
9.1135100516
20
6.6511485127
11
9.9692150416
21
6.6511485127
0
SOLID
8
___SYMBOL
62
7
6
CONTINUOUS
10
9.1135100516
20
6.5894985263
11
9.1135100516
21
6.6511485163
12
9.9692150416
22
6.6511485163
13
9.9692150416
23
6.6511485163
0
SOLID
8
___SYMBOL
62
7
6
CONTINUOUS
10
9.9692150416
20
6.6511485163
11
9.9692150416
21
6.5894985263
12
9.1135100516
22
6.5894985263
13
9.1135100516
23
6.5894985263
0
ENDBLK
8
0
6
BYBLOCK
62
0
0
BLOCK
8
___SYMBOL
62
2
6
CONTINUOUS
2
PLOTTING_TEMPLATE_NOTE_BL2
70
64
10
28.7039304695
20
6.8385263400
0
TEXT
8
___SYMBOL
62
2
6
CONTINUOUS
10
25.1414304695
20
7.9322763400
7
STANDARD
40
0.1562500000
1
WHEN PLOTTING TEMPLATE FULL SIZE:
41
0.8000000000
72
0
0
TEXT
8
___SYMBOL
62
2
6
CONTINUOUS
10
25.1414304695
20
7.6979013400
7
STANDARD
40
0.1562500000
1
Make sure horizontal and vertical dimensions
41
0.8000000000
72
0
0
TEXT
8
___SYMBOL
62
2
6
CONTINUOUS
10
25.1414304695
20
7.4635263400
7
STANDARD
40
0.1562500000
1
match the dimensions labeled on the template.
41
0.8000000000
72
0
0
TEXT
8
___SYMBOL
62
2
6
CONTINUOUS
10
25.1414304695
20
7.2291513400
7
STANDARD
40
0.1562500000
1
 
41
0.8000000000
72
0
0
TEXT
8
___SYMBOL
62
2
6
CONTINUOUS
10
25.1414304695
20
6.9947763400
7
STANDARD
40
0.1562500000
1
AL TRAZAR LA PLANTILLA A ESCALA COMPLETA:
41
0.8000000000
72
0
0
TEXT
8
___SYMBOL
62
2
6
CONTINUOUS
10
25.1414304695
20
6.7604013400
7
STANDARD
40
0.1562500000
1
Asegúrese de que la dimensión horizontal y vertical
41
0.8000000000
72
0
0
TEXT
8
___SYMBOL
62
2
6
CONTINUOUS
10
25.1414304695
20
6.5260263400
7
STANDARD
40
0.1562500000
1
sean iguales a las dimensiones indicadas en la plantilla.
41
0.8000000000
72
0
0
TEXT
8
___SYMBOL
62
2
6
CONTINUOUS
10
25.1414304695
20
6.2916513400
7
STANDARD
40
0.1562500000
1
 
41
0.8000000000
72
0
0
TEXT
8
___SYMBOL
62
2
6
CONTINUOUS
10
25.1414304695
20
6.0572763400
7
STANDARD
40
0.1562500000
1
AU MOMENT DE TRACER LA DÉCOUPE À L'ÉCHELLE,
41
0.8000000000
72
0
0
TEXT
8
___SYMBOL
62
2
6
CONTINUOUS
10
25.1414304695
20
5.8229013400
7
STANDARD
40
0.1562500000
1
S'assurer que les dimensions horizontales et verticales
41
0.8000000000
72
0
0
TEXT
8
___SYMBOL
62
2
6
CONTINUOUS
10
25.1414304695
20
5.5885263400
7
STANDARD
40
0.1562500000
1
correspondent à celles sur l'étiquette du plan
41
0.8000000000
72
0
0
ENDBLK
8
0
6
BYBLOCK
62
0
0
BLOCK
8
___SYMBOL
62
2
6
CONTINUOUS
2
COPYRIGHT_YEAR_BL3
70
64
10
20.6552777776
20
6.3846853331
0
TEXT
8
___SYMBOL
62
2
6
CONTINUOUS
10
20.2815861520
20
6.3494117083
7
STANDARD
40
0.0705000000
1
2007
41
0.8000000000
72
0
0
TEXT
8
___SYMBOL
62
2
6
CONTINUOUS
10
20.5071861520
20
6.3494117083
7
STANDARD
40
0.0705000000
1
 KOHLER CO.
41
0.8000000000
72
0
0
TEXT
8
___SYMBOL
62
7
6
CONTINUOUS
10
20.2015604029
20
6.3658967085
7
STANDARD
40
0.0421874995
1
C
41
1.0000000000
72
0
0
CIRCLE
8
___SYMBOL
62
7
6
CONTINUOUS
10
20.2157954027
20
6.3871329582
40
0.0328259996
0
ENDBLK
8
0
6
BYBLOCK
62
0
0
BLOCK
8
___SYMBOL
62
2
6
CONTINUOUS
2
TEMPLATE_NUMBER_BL4
70
64
10
16.9014549523
20
6.2830826297
0
TEXT
8
___SYMBOL
62
2
6
CONTINUOUS
10
16.5912549523
20
6.2478326297
7
STANDARD
40
0.0705000000
1
1033115-7
41
0.8000000000
72
0
0
TEXT
8
___SYMBOL
62
2
6
CONTINUOUS
10
17.0988549523
20
6.2478326297
7
STANDARD
40
0.0705000000
1
-
41
0.8000000000
72
0
0
TEXT
8
___SYMBOL
62
2
6
CONTINUOUS
10
17.1552549523
20
6.2478326297
7
STANDARD
40
0.0705000000
1
B
41
0.8000000000
72
0
0
ENDBLK
8
0
6
BYBLOCK
62
0
0
BLOCK
8
___SYMBOL
62
2
6
CONTINUOUS
2
TEMPLATE_NUMBER_BL5
70
64
10
16.9943828688
20
4.6176783473
0
TEXT
8
___SYMBOL
62
2
6
CONTINUOUS
10
16.6841828688
20
4.5824283473
7
STANDARD
40
0.0705000000
1
1033115-7
41
0.8000000000
72
0
0
TEXT
8
___SYMBOL
62
2
6
CONTINUOUS
10
17.1917828688
20
4.5824283473
7
STANDARD
40
0.0705000000
1
-
41
0.8000000000
72
0
0
TEXT
8
___SYMBOL
62
2
6
CONTINUOUS
10
17.2481828688
20
4.5824283473
7
STANDARD
40
0.0705000000
1
B
41
0.8000000000
72
0
0
ENDBLK
8
0
6
BYBLOCK
62
0
0
BLOCK
8
0
2
_FILLED
70
64
10
0.0000000000
20
0.0000000000
0
SOLID
8
0
6
BYBLOCK
62
0
10
0.0000000000
20
0.0000000000
11
-1.0000000000
21
0.1666666667
12
-1.0000000000
22
-0.1666666667
13
-1.0000000000
23
-0.1666666667
0
ENDBLK
8
0
6
BYBLOCK
62
0
0
ENDSEC
0
SECTION
2
ENTITIES
0
DIMENSION
8
0
62
2
6
CONTINUOUS
2
*D0
10
14.4080986132
20
16.1461822765
11
16.6832610410
21
13.5223038249
70
131
15
22.9771523765
25
6.7051114897
0
DIMENSION
8
0
62
2
6
CONTINUOUS
2
*D1
10
22.3814507229
20
15.7546449990
11
20.6047910095
21
13.5524694401
70
131
15
15.0038002668
25
7.0966487673
0
TEXT
8
0
62
2
6
CONTINUOUS
10
26.8616409603
20
14.9802675813
7
STANDARD
40
0.1562500000
1
RIM OF SINK
41
0.8000000000
72
0
0
TEXT
8
0
62
2
6
CONTINUOUS
10
26.8616409603
20
14.7458925813
7
STANDARD
40
0.1562500000
1
REBORD DE L'ÉVIER
41
0.8000000000
72
0
0
TEXT
8
0
62
2
6
CONTINUOUS
10
26.8616409603
20
14.5115175813
7
STANDARD
40
0.1562500000
1
BORDE DEL FREGADERO
41
0.8000000000
72
0
0
TEXT
8
0
62
2
6
CONTINUOUS
10
26.8616409603
20
14.2771425813
7
STANDARD
40
0.1562500000
1
 
41
0.8000000000
72
0
0
LINE
8
0
62
2
6
CONTINUOUS
10
25.2729951864
20
13.1888516279
11
26.6116409603
21
15.0583925813
0
LINE
8
0
62
2
6
CONTINUOUS
10
26.6116409603
20
15.0583925813
11
26.8616409603
21
15.0583925813
0
SOLID
8
0
62
2
6
CONTINUOUS
10
25.3567450630
20
13.3594938579
11
25.2729951864
21
13.1888516279
12
25.4075614686
22
13.3231078315
13
25.4075614686
23
13.3231078315
0
TEXT
8
___NOTE
62
2
6
CONTINUOUS
10
25.1983087845
20
16.9256281607
7
STANDARD
40
0.1562500000
1
FOR UNDERCOUNTER INSTALLATION CUT ALONG THIS LINE
41
0.8000000000
72
0
0
TEXT
8
___NOTE
62
2
6
CONTINUOUS
10
25.1983087845
20
16.6912531607
7
STANDARD
40
0.1562500000
1
POUR INSTALLATION SOUS COMPTOIR DÉCOUPER LE LONG DE CETTE LIGNE
41
0.8000000000
72
0
0
TEXT
8
___NOTE
62
2
6
CONTINUOUS
10
25.1983087845
20
16.4568781607
7
STANDARD
40
0.1562500000
1
PARA INSTALACIÓN BAJO CUBIERTA, CORTE POR ESTA LÍNEA
41
0.8000000000
72
0
0
TEXT
8
___NOTE
62
2
6
CONTINUOUS
10
25.1983087845
20
16.2225031607
7
STANDARD
40
0.1562500000
1
 
41
0.8000000000
72
0
0
LINE
8
___NOTE
62
2
6
CONTINUOUS
10
23.2048226178
20
14.8879775106
11
24.9483087845
21
17.0037531607
0
LINE
8
___NOTE
62
2
6
CONTINUOUS
10
24.9483087845
20
17.0037531607
11
25.1983087845
21
17.0037531607
0
SOLID
8
___NOTE
62
2
6
CONTINUOUS
10
23.2999450820
20
15.0525512913
11
23.2048226178
21
14.8879775106
12
23.3481786074
22
15.0128048823
13
23.3481786074
23
15.0128048823
0
TEXT
8
___NOTE
62
2
6
CONTINUOUS
10
24.0746446410
20
19.0116266655
7
STANDARD
40
0.1562500000
1
FOR SELF-RIMMING INSTALLATION CUT ALONG THIS LINE
41
0.8000000000
72
0
0
TEXT
8
___NOTE
62
2
6
CONTINUOUS
10
24.0746446410
20
18.7772516655
7
STANDARD
40
0.1562500000
1
POUR INSTALLATION À REBORD INTÉGRÉ DÉCOUPER LE LONG DE CETTE LIGNE
41
0.8000000000
72
0
0
TEXT
8
___NOTE
62
2
6
CONTINUOUS
10
24.0746446410
20
18.5428766655
7
STANDARD
40
0.1562500000
1
PARA INSTALACIÓN CON BORDE TERMINADO, CORTE POR ESTA LÍNEA
41
0.8000000000
72
0
0
TEXT
8
___NOTE
62
2
6
CONTINUOUS
10
24.0746446410
20
18.3085016655
7
STANDARD
40
0.1562500000
1
 
41
0.8000000000
72
0
0
LINE
8
___NOTE
62
2
6
CONTINUOUS
10
21.9643141326
20
16.8970889652
11
23.8246446410
21
19.0897516655
0
LINE
8
___NOTE
62
2
6
CONTINUOUS
10
23.8246446410
20
19.0897516655
11
24.0746446410
21
19.0897516655
0
SOLID
8
___NOTE
62
2
6
CONTINUOUS
10
22.0617892089
20
17.0602803314
11
21.9643141326
21
16.8970889652
12
22.1094472154
22
17.0198456382
13
22.1094472154
23
17.0198456382
0
INSERT
8
0
62
2
6
CONTINUOUS
2
SKU_SINK_STERLING_BL0
10
8.4648680911
20
18.5368840003
0
INSERT
8
___SYMBOL
62
2
6
CONTINUOUS
2
PACKAGING_UPC_NOTE_BL1
10
10.8109008460
20
5.7417202252
0
INSERT
8
___SYMBOL
62
2
6
CONTINUOUS
2
PLOTTING_TEMPLATE_NOTE_BL2
10
28.7039304695
20
6.8385263400
0
INSERT
8
___SYMBOL
62
2
6
CONTINUOUS
2
COPYRIGHT_YEAR_BL3
10
20.6552777776
20
6.3846853331
0
INSERT
8
___SYMBOL
62
2
6
CONTINUOUS
2
TEMPLATE_NUMBER_BL4
10
16.9014549523
20
6.2830826297
0
INSERT
8
___SYMBOL
62
2
6
CONTINUOUS
2
TEMPLATE_NUMBER_BL5
10
16.9943828688
20
4.6176783473
0
LINE
8
_CURVE
62
4
6
PHANTOM
10
18.6926254948
20
5.0506468831
11
18.6926254948
21
4.0506468831
0
LINE
8
_CURVE
62
4
6
PHANTOM
10
18.6926254948
20
17.8006468831
11
18.6926254948
21
18.8006468831
0
LINE
8
_CURVE
62
4
6
PHANTOM
10
12.3176254948
20
11.4256468831
11
11.3176254948
21
11.4256468831
0
LINE
8
_CURVE
62
4
6
PHANTOM
10
25.0676254948
20
11.4256468831
11
26.0676254948
21
11.4256468831
0
CIRCLE
8
_CURVE
62
4
6
PHANTOM
10
18.6926254948
20
11.4256468831
40
6.8125000000
0
CIRCLE
8
_CURVE
62
4
6
CONTINUOUS
10
18.6926254948
20
11.4256468831
40
5.6875000000
0
CIRCLE
8
_CURVE
62
4
6
CONTINUOUS
10
18.6926254948
20
11.4256468831
40
6.3750000000
0
ENDSEC
0
EOF
