999
DXF file: 1033101_7_a.dxf
999
Pro/ENGINEER 2005030 by Parametric Technology Corporation
0
SECTION
2
HEADER
9
$EXTMAX
10
34.0000000000
20
22.0000000000
30
0.0000000000
9
$EXTMIN
10
0.0000000000
20
0.0000000000
30
0.0000000000
9
$LIMMIN
10
0.0000000000
20
0.0000000000
9
$LIMMAX
10
34.0000000000
20
22.0000000000
9
$VIEWCTR
10
17.0000000000
20
11.0000000000
9
$VIEWSIZE
40
22.0000000000
9
$CLAYER
8
0
9
$LTSCALE
40
1.8700000000
9
$CELTYPE
6
BYLAYER
9
$DIMSCALE
40
1
9
$DIMASZ
40
0.1875000000
9
$DIMEXO
40
0.2125000000
9
$DIMDLI
40
1.2920000000
9
$DIMEXE
40
0.6120000000
9
$DIMCEN
40
0.3060000000
9
$DIMLFAC
40
1.0000000000
9
$DIMBLK
1
_FILLED
9
$DIMTXT
40
0.1562500000
9
$PDMODE
70
3
9
$PDSIZE
40
0.3125000000
0
ENDSEC
0
SECTION
2
TABLES
0
TABLE
2
LTYPE
70
6
0
LTYPE
2
BYBLOCK
70
0
3

72
65
73
0
40
0.0
0
LTYPE
2
BYLAYER
70
0
3

72
65
73
0
40
0.0
0
LTYPE
2
CONTINUOUS
70
64
3
Solid line
72
65
73
0
40
0
0
LTYPE
2
CENTER
70
64
3
____ _ ____ _ ____ _ ____ _ ____ _ ____ _ ____
72
65
73
4
40
0.6
49
0.375
49
-0.075
49
0.075
49
-0.075
0
LTYPE
2
HIDDEN
70
64
3
- - - - - - - - - - - - - - - - - - - -
72
65
73
2
40
0.2
49
0.1
49
-0.1
0
LTYPE
2
PHANTOM
70
64
3
_____ _ _ _____ _ _ _____ _ _ _____
72
65
73
6
40
0.8
49
0.45
49
-0.05
49
0.1
49
-0.05
49
0.1
49
-0.05
0
LTYPE
2
DOT
70
64
3
. . . . . . . . . . . . . . . . . . . .
72
65
73
2
40
0.2
49
0.1
49
-0.1
0
LTYPE
2
DASHED
70
64
3
- - - - - - - - - - - - - - - - - - - -
72
65
73
2
40
0.2
49
0.1
49
-0.1
0
ENDTAB
0
TABLE
2
LAYER
70
36
0
LAYER
2
0
70
0
62
7
6
CONTINUOUS
0
LAYER
2
DEFAULT_1
70
0
62
7
6
CENTER
0
LAYER
2
DEFAULT_2
70
0
62
8
6
HIDDEN
0
LAYER
2
DEFAULT_3
70
0
62
7
6
PHANTOM
0
LAYER
2
_2D_DELETED_OBJS
70
0
62
7
6
CONTINUOUS
0
LAYER
2
DATUMS
70
0
62
7
6
CONTINUOUS
0
LAYER
2
DATUM_AXIS
70
0
62
7
6
CONTINUOUS
0
LAYER
2
DATUM_CSYS
70
0
62
7
6
CONTINUOUS
0
LAYER
2
DATUM_PLANE
70
0
62
7
6
CONTINUOUS
0
LAYER
2
DATUM_POINT
70
0
62
7
6
CONTINUOUS
0
LAYER
2
_CURVE
70
0
62
7
6
CONTINUOUS
0
LAYER
2
_SURFACE
70
0
62
7
6
CONTINUOUS
0
LAYER
2
__REF_CURVE
70
0
62
7
6
CONTINUOUS
0
LAYER
2
__REF_SURFACE
70
0
62
7
6
CONTINUOUS
0
LAYER
2
___NOTE
70
0
62
7
6
CONTINUOUS
0
LAYER
2
___SYMBOL
70
0
62
7
6
CONTINUOUS
0
ENDTAB
0
TABLE
2
STYLE
70
1
0
STYLE
2
STANDARD
70
0
40
0.0
41
0.8000000000
50
0.0
71
0
42
0.2
3
txt
4

0
ENDTAB
0
ENDSEC
0
SECTION
2
BLOCKS
0
BLOCK
8
0
62
2
6
CONTINUOUS
2
*D0
70
65
10
0.0000000000
20
0.0000000000
0
TEXT
8
0
62
2
6
CONTINUOUS
10
17.0185659832
20
12.8977227918
7
STANDARD
40
0.1562500000
1
%%c
41
1.3333333333
72
0
0
TEXT
8
0
62
2
6
CONTINUOUS
10
17.8518993165
20
12.8977227918
7
STANDARD
40
0.1562500000
1
"
41
0.8000000000
72
0
0
TEXT
8
0
62
2
6
CONTINUOUS
10
17.0602326498
20
12.6633477918
7
STANDARD
40
0.1562500000
1
[24 cm]
41
0.8000000000
72
0
0
TEXT
8
0
62
2
6
CONTINUOUS
10
17.2268993165
20
12.8977227918
7
STANDARD
40
0.1562500000
1
9-1/2
41
0.8000000000
72
0
0
LINE
8
0
62
2
6
CONTINUOUS
10
15.7927948903
20
15.1877583202
11
17.3772953530
21
13.1320977918
0
LINE
8
0
62
2
6
CONTINUOUS
10
21.5924560994
20
7.6635354461
11
17.7988258920
21
12.5852227918
0
INSERT
8
0
62
2
6
CONTINUOUS
2
_FILLED
10
15.7927948903
20
15.1877583202
41
  0.187500
42
  0.187500
43
  0.187500
50
127.624989
0
INSERT
8
0
62
2
6
CONTINUOUS
2
_FILLED
10
21.5924560994
20
7.6635354461
41
  0.187500
42
  0.187500
43
  0.187500
50
307.624989
0
ENDBLK
8
0
6
BYBLOCK
62
0
0
BLOCK
8
0
62
2
6
CONTINUOUS
2
*D1
70
65
10
0.0000000000
20
0.0000000000
0
TEXT
8
0
62
2
6
CONTINUOUS
10
19.7033057308
20
13.0183852524
7
STANDARD
40
0.1562500000
1
%%c
41
1.3333333333
72
0
0
TEXT
8
0
62
2
6
CONTINUOUS
10
20.5366390641
20
13.0183852524
7
STANDARD
40
0.1562500000
1
"
41
0.8000000000
72
0
0
TEXT
8
0
62
2
6
CONTINUOUS
10
19.7449723975
20
12.7840102524
7
STANDARD
40
0.1562500000
1
[22 cm]
41
0.8000000000
72
0
0
TEXT
8
0
62
2
6
CONTINUOUS
10
19.9116390641
20
13.0183852524
7
STANDARD
40
0.1562500000
1
8-5/8
41
0.8000000000
72
0
0
LINE
8
0
62
2
6
CONTINUOUS
10
21.5626790093
20
14.6444120305
11
20.3217947280
21
13.2527602524
0
LINE
8
0
62
2
6
CONTINUOUS
10
15.8225719804
20
8.2068817357
11
19.8341665712
21
12.7058852524
0
INSERT
8
0
62
2
6
CONTINUOUS
2
_FILLED
10
21.5626790093
20
14.6444120305
41
  0.187500
42
  0.187500
43
  0.187500
50
 48.277796
0
INSERT
8
0
62
2
6
CONTINUOUS
2
_FILLED
10
15.8225719804
20
8.2068817357
41
  0.187500
42
  0.187500
43
  0.187500
50
228.277796
0
ENDBLK
8
0
6
BYBLOCK
62
0
0
BLOCK
8
0
62
2
6
CONTINUOUS
2
SKU_SINK_STERLING_BL0
70
64
10
12.0113544370
20
18.3287898460
0
TEXT
8
0
62
2
6
CONTINUOUS
10
7.8113544370
20
19.0754341830
7
STANDARD
40
0.2500000000
1
CUT-OUT TEMPLATE
41
0.8000000000
72
0
0
TEXT
8
0
62
2
6
CONTINUOUS
10
7.8113544370
20
18.7004341830
7
STANDARD
40
0.2500000000
1
SELF-RIMMING/UNDERCOUNTER SINK
41
0.8000000000
72
0
0
TEXT
8
0
62
2
6
CONTINUOUS
10
7.8113544370
20
18.3254341830
7
STANDARD
40
0.2500000000
1
PLANTILLA DE RECORTE
41
0.8000000000
72
0
0
TEXT
8
0
62
2
6
CONTINUOUS
10
7.8113544370
20
17.9504341830
7
STANDARD
40
0.2500000000
1
FREGADERO CON BORDE TERMINADO/MONTADO
41
0.8000000000
72
0
0
TEXT
8
0
62
2
6
CONTINUOUS
10
7.8113544370
20
17.5754341830
7
STANDARD
40
0.2500000000
1
  DEBAJO DEL MONTRADOR
41
0.8000000000
72
0
0
TEXT
8
0
62
2
6
CONTINUOUS
10
7.8113544370
20
17.2004341830
7
STANDARD
40
0.2500000000
1
PLAN DE DÉCOUPE
41
0.8000000000
72
0
0
TEXT
8
0
62
2
6
CONTINUOUS
10
7.8113544370
20
16.8254341830
7
STANDARD
40
0.2500000000
1
ÉVIER À REBORD INTÉGRÉ /SOUS-COMPTOIR
41
0.8000000000
72
0
0
TEXT
8
0
62
2
6
CONTINUOUS
10
7.8113544370
20
16.4504341830
7
STANDARD
40
0.2500000000
1
10.5" X 10.5" SINGLE BOWL SINK
41
0.8000000000
72
0
0
TEXT
8
0
62
2
6
CONTINUOUS
10
13.8113544370
20
16.4504341830
7
STANDARD
40
0.2500000000
1
   
41
0.8000000000
72
0
0
TEXT
8
0
62
2
6
CONTINUOUS
10
14.4113544370
20
16.4504341830
7
STANDARD
40
0.2500000000
1
111
41
0.8000000000
72
0
0
TEXT
8
0
62
2
6
CONTINUOUS
10
15.0113544370
20
16.4504341830
7
STANDARD
40
0.2500000000
1
-**-
41
0.8000000000
72
0
0
TEXT
8
0
62
2
6
CONTINUOUS
10
15.8113544370
20
16.4504341830
7
STANDARD
40
0.2500000000
1
AB
41
0.8000000000
72
0
0
POLYLINE
8
0
62
2
6
CONTINUOUS
66
1
70
0
0
VERTEX
8
0
62
2
6
CONTINUOUS
10
7.8310829905
20
19.5703788424
0
VERTEX
8
0
62
2
6
CONTINUOUS
10
7.8310829905
20
20.2027163424
0
VERTEX
8
0
62
2
6
CONTINUOUS
10
8.0214532683
20
20.2027163424
0
VERTEX
8
0
62
2
6
CONTINUOUS
10
8.8441610461
20
20.2027163424
0
VERTEX
8
0
62
2
6
CONTINUOUS
10
9.6668688239
20
20.2027163424
0
VERTEX
8
0
62
2
6
CONTINUOUS
10
10.4895766016
20
20.2027163424
0
VERTEX
8
0
62
2
6
CONTINUOUS
10
11.3122843794
20
20.2027163424
0
VERTEX
8
0
62
2
6
CONTINUOUS
10
11.3122843794
20
19.5703788424
0
VERTEX
8
0
62
2
6
CONTINUOUS
10
11.1219141016
20
19.5703788424
0
VERTEX
8
0
62
2
6
CONTINUOUS
10
10.2992063239
20
19.5703788424
0
VERTEX
8
0
62
2
6
CONTINUOUS
10
9.4764985461
20
19.5703788424
0
VERTEX
8
0
62
2
6
CONTINUOUS
10
8.6537907683
20
19.5703788424
0
VERTEX
8
0
62
2
6
CONTINUOUS
10
7.8310829905
20
19.5703788424
0
SEQEND
0
LINE
8
0
62
2
6
CONTINUOUS
10
9.9645399350
20
19.4821218980
11
10.0003274350
21
19.4821218980
0
LINE
8
0
62
2
6
CONTINUOUS
10
10.0003274350
20
19.4821218980
11
9.9825524350
21
19.5263107869
0
LINE
8
0
62
2
6
CONTINUOUS
10
9.9825524350
20
19.5263107869
11
9.9645399350
21
19.4821218980
0
POLYLINE
8
0
62
2
6
CONTINUOUS
66
1
70
0
0
VERTEX
8
0
62
2
6
CONTINUOUS
10
9.9825524350
20
19.5471982869
0
VERTEX
8
0
62
2
6
CONTINUOUS
10
9.9850734536
20
19.5409580014
0
VERTEX
8
0
62
2
6
CONTINUOUS
10
9.9983956140
20
19.5079816151
0
VERTEX
8
0
62
2
6
CONTINUOUS
10
10.0117177745
20
19.4750052288
0
VERTEX
8
0
62
2
6
CONTINUOUS
10
10.0250399350
20
19.4420288424
0
VERTEX
8
0
62
2
6
CONTINUOUS
10
10.0167927127
20
19.4420288424
0
VERTEX
8
0
62
2
6
CONTINUOUS
10
10.0040843794
20
19.4743774535
0
VERTEX
8
0
62
2
6
CONTINUOUS
10
9.9969723151
20
19.4743864802
0
VERTEX
8
0
62
2
6
CONTINUOUS
10
9.9614066016
20
19.4744316202
0
VERTEX
8
0
62
2
6
CONTINUOUS
10
9.9476468794
20
19.4420288424
0
VERTEX
8
0
62
2
6
CONTINUOUS
10
9.9398204905
20
19.4420288424
0
VERTEX
8
0
62
2
6
CONTINUOUS
10
9.9415223954
20
19.4462119776
0
VERTEX
8
0
62
2
6
CONTINUOUS
10
9.9549254642
20
19.4791555622
0
VERTEX
8
0
62
2
6
CONTINUOUS
10
9.9683285329
20
19.5120991468
0
VERTEX
8
0
62
2
6
CONTINUOUS
10
9.9817316016
20
19.5450427313
0
VERTEX
8
0
62
2
6
CONTINUOUS
10
9.9825524350
20
19.5471982869
0
SEQEND
0
LINE
8
0
62
2
6
CONTINUOUS
10
11.0719149350
20
19.4821218980
11
11.1077079905
21
19.4821218980
0
LINE
8
0
62
2
6
CONTINUOUS
10
11.1077079905
20
19.4821218980
11
11.0899399350
21
19.5263649535
0
LINE
8
0
62
2
6
CONTINUOUS
10
11.0899399350
20
19.5263649535
11
11.0719149350
21
19.4821218980
0
POLYLINE
8
0
62
2
6
CONTINUOUS
66
1
70
0
0
VERTEX
8
0
62
2
6
CONTINUOUS
10
11.0899399350
20
19.5471982869
0
VERTEX
8
0
62
2
6
CONTINUOUS
10
11.0924857082
20
19.5408977560
0
VERTEX
8
0
62
2
6
CONTINUOUS
10
11.1058019320
20
19.5079414515
0
VERTEX
8
0
62
2
6
CONTINUOUS
10
11.1191181557
20
19.4749851470
0
VERTEX
8
0
62
2
6
CONTINUOUS
10
11.1324343794
20
19.4420288424
0
VERTEX
8
0
62
2
6
CONTINUOUS
10
11.1244857683
20
19.4420288424
0
VERTEX
8
0
62
2
6
CONTINUOUS
10
11.1114524350
20
19.4743774535
0
VERTEX
8
0
62
2
6
CONTINUOUS
10
11.1043528605
20
19.4743864714
0
VERTEX
8
0
62
2
6
CONTINUOUS
10
11.0688079905
20
19.4744316202
0
VERTEX
8
0
62
2
6
CONTINUOUS
10
11.0550149350
20
19.4420288424
0
VERTEX
8
0
62
2
6
CONTINUOUS
10
11.0472024350
20
19.4420288424
0
VERTEX
8
0
62
2
6
CONTINUOUS
10
11.0489229818
20
19.4462606025
0
VERTEX
8
0
62
2
6
CONTINUOUS
10
11.0623105773
20
19.4791879788
0
VERTEX
8
0
62
2
6
CONTINUOUS
10
11.0756981728
20
19.5121153550
0
VERTEX
8
0
62
2
6
CONTINUOUS
10
11.0890857683
20
19.5450427313
0
VERTEX
8
0
62
2
6
CONTINUOUS
10
11.0899399350
20
19.5471982869
0
SEQEND
0
LINE
8
0
62
2
6
CONTINUOUS
10
11.0225704905
20
19.5346941202
11
11.0225704905
21
19.4964996758
0
POLYLINE
8
0
62
2
6
CONTINUOUS
66
1
70
0
0
VERTEX
8
0
62
2
6
CONTINUOUS
10
11.0225704905
20
19.4964996758
0
VERTEX
8
0
62
2
6
CONTINUOUS
10
11.0330149350
20
19.4964996758
0
VERTEX
8
0
62
2
6
CONTINUOUS
10
11.0334884831
20
19.4965010829
0
VERTEX
8
0
62
2
6
CONTINUOUS
10
11.0360115211
20
19.4965675167
0
VERTEX
8
0
62
2
6
CONTINUOUS
10
11.0381365055
20
19.4967297064
0
VERTEX
8
0
62
2
6
CONTINUOUS
10
11.0399988314
20
19.4969849957
0
VERTEX
8
0
62
2
6
CONTINUOUS
10
11.0416737888
20
19.4973330634
0
VERTEX
8
0
62
2
6
CONTINUOUS
10
11.0432094237
20
19.4977757339
0
VERTEX
8
0
62
2
6
CONTINUOUS
10
11.0446392854
20
19.4983170746
0
VERTEX
8
0
62
2
6
CONTINUOUS
10
11.0459882917
20
19.4989635838
0
VERTEX
8
0
62
2
6
CONTINUOUS
10
11.0472757485
20
19.4997244013
0
VERTEX
8
0
62
2
6
CONTINUOUS
10
11.0485170407
20
19.5006115134
0
VERTEX
8
0
62
2
6
CONTINUOUS
10
11.0491247152
20
19.5011072963
0
VERTEX
8
0
62
2
6
CONTINUOUS
10
11.0497246572
20
19.5016399535
0
VERTEX
8
0
62
2
6
CONTINUOUS
10
11.0508193143
20
19.5027302840
0
VERTEX
8
0
62
2
6
CONTINUOUS
10
11.0518598687
20
19.5039432500
0
VERTEX
8
0
62
2
6
CONTINUOUS
10
11.0527752457
20
19.5052096042
0
VERTEX
8
0
62
2
6
CONTINUOUS
10
11.0535687600
20
19.5065303956
0
VERTEX
8
0
62
2
6
CONTINUOUS
10
11.0542425735
20
19.5079074658
0
VERTEX
8
0
62
2
6
CONTINUOUS
10
11.0547971906
20
19.5093421640
0
VERTEX
8
0
62
2
6
CONTINUOUS
10
11.0552317723
20
19.5108345613
0
VERTEX
8
0
62
2
6
CONTINUOUS
10
11.0555455586
20
19.5123878324
0
VERTEX
8
0
62
2
6
CONTINUOUS
10
11.0557364506
20
19.5140055110
0
VERTEX
8
0
62
2
6
CONTINUOUS
10
11.0558010461
20
19.5156913424
0
VERTEX
8
0
62
2
6
CONTINUOUS
10
11.0557357578
20
19.5173599368
0
VERTEX
8
0
62
2
6
CONTINUOUS
10
11.0555410429
20
19.5190020783
0
VERTEX
8
0
62
2
6
CONTINUOUS
10
11.0552190985
20
19.5206088151
0
VERTEX
8
0
62
2
6
CONTINUOUS
10
11.0547729184
20
19.5221704365
0
VERTEX
8
0
62
2
6
CONTINUOUS
10
11.0542064755
20
19.5236766492
0
VERTEX
8
0
62
2
6
CONTINUOUS
10
11.0535248502
20
19.5251168360
0
VERTEX
8
0
62
2
6
CONTINUOUS
10
11.0527515908
20
19.5264531753
0
VERTEX
8
0
62
2
6
CONTINUOUS
10
11.0518641247
20
19.5277281698
0
VERTEX
8
0
62
2
6
CONTINUOUS
10
11.0508859214
20
19.5289050465
0
VERTEX
8
0
62
2
6
CONTINUOUS
10
11.0498261659
20
19.5299763018
0
VERTEX
8
0
62
2
6
CONTINUOUS
10
11.0486941016
20
19.5309357869
0
VERTEX
8
0
62
2
6
CONTINUOUS
10
11.0475919813
20
19.5317076994
0
VERTEX
8
0
62
2
6
CONTINUOUS
10
11.0463951823
20
19.5323888561
0
VERTEX
8
0
62
2
6
CONTINUOUS
10
11.0450936482
20
19.5329818199
0
VERTEX
8
0
62
2
6
CONTINUOUS
10
11.0436744970
20
19.5334876299
0
VERTEX
8
0
62
2
6
CONTINUOUS
10
11.0421209782
20
19.5339060524
0
VERTEX
8
0
62
2
6
CONTINUOUS
10
11.0404101499
20
19.5342359705
0
VERTEX
8
0
62
2
6
CONTINUOUS
10
11.0385073348
20
19.5344760055
0
VERTEX
8
0
62
2
6
CONTINUOUS
10
11.0363507305
20
19.5346257013
0
VERTEX
8
0
62
2
6
CONTINUOUS
10
11.0337942715
20
19.5346888863
0
VERTEX
8
0
62
2
6
CONTINUOUS
10
11.0319968794
20
19.5346941202
0
VERTEX
8
0
62
2
6
CONTINUOUS
10
11.0225704905
20
19.5346941202
0
SEQEND
0
LINE
8
0
62
2
6
CONTINUOUS
10
11.0225704905
20
19.4887816202
11
11.0225704905
21
19.4420288424
0
LINE
8
0
62
2
6
CONTINUOUS
10
11.0225704905
20
19.4420288424
11
11.0144468794
21
19.4420288424
0
LINE
8
0
62
2
6
CONTINUOUS
10
11.0144468794
20
19.4420288424
11
11.0144468794
21
19.5424246758
0
LINE
8
0
62
2
6
CONTINUOUS
10
11.0144468794
20
19.5424246758
11
11.0327566016
21
19.5424246758
0
ARC
8
0
62
2
6
CONTINUOUS
10
11.0372552251
20
19.5156031480
40
0.0271961756
50
260.4787245939
51
99.5212754061
0
LINE
8
0
62
2
6
CONTINUOUS
10
11.0327566016
20
19.4887816202
11
11.0225704905
21
19.4887816202
0
LINE
8
0
62
2
6
CONTINUOUS
10
10.8885107683
20
19.4420288424
11
10.8964718794
21
19.4420288424
0
LINE
8
0
62
2
6
CONTINUOUS
10
10.8964718794
20
19.4420288424
11
10.9128843794
21
19.5217274535
0
LINE
8
0
62
2
6
CONTINUOUS
10
10.9128843794
20
19.5217274535
11
10.9470232683
21
19.4371996758
0
LINE
8
0
62
2
6
CONTINUOUS
10
10.9470232683
20
19.4371996758
11
10.9812843794
21
19.5217274535
0
LINE
8
0
62
2
6
CONTINUOUS
10
10.9812843794
20
19.5217274535
11
10.9977635461
21
19.4420288424
0
LINE
8
0
62
2
6
CONTINUOUS
10
10.9977635461
20
19.4420288424
11
11.0056579905
21
19.4420288424
0
LINE
8
0
62
2
6
CONTINUOUS
10
11.0056579905
20
19.4420288424
11
10.9836441016
21
19.5479038424
0
LINE
8
0
62
2
6
CONTINUOUS
10
10.9836441016
20
19.5479038424
11
10.9470232683
21
19.4575455091
0
LINE
8
0
62
2
6
CONTINUOUS
10
10.9470232683
20
19.4575455091
11
10.9105510461
21
19.5479038424
0
LINE
8
0
62
2
6
CONTINUOUS
10
10.9105510461
20
19.5479038424
11
10.8885107683
21
19.4420288424
0
CIRCLE
8
0
62
2
6
CONTINUOUS
10
10.8376343112
20
19.4921857869
40
0.0437959350
0
CIRCLE
8
0
62
2
6
CONTINUOUS
10
10.8380657493
20
19.4921864813
40
0.0514756023
0
LINE
8
0
62
2
6
CONTINUOUS
10
10.6017274350
20
19.5137107869
11
10.6017274350
21
19.4899482869
0
POLYLINE
8
0
62
2
6
CONTINUOUS
66
1
70
0
0
VERTEX
8
0
62
2
6
CONTINUOUS
10
10.6017274350
20
19.4899482869
0
VERTEX
8
0
62
2
6
CONTINUOUS
10
10.6112760461
20
19.4899482869
0
VERTEX
8
0
62
2
6
CONTINUOUS
10
10.6125114224
20
19.4900122668
0
VERTEX
8
0
62
2
6
CONTINUOUS
10
10.6137271099
20
19.4902032481
0
VERTEX
8
0
62
2
6
CONTINUOUS
10
10.6149148414
20
19.4905195201
0
VERTEX
8
0
62
2
6
CONTINUOUS
10
10.6160649665
20
19.4909586406
0
VERTEX
8
0
62
2
6
CONTINUOUS
10
10.6171665663
20
19.4915169768
0
VERTEX
8
0
62
2
6
CONTINUOUS
10
10.6182077598
20
19.4921893126
0
VERTEX
8
0
62
2
6
CONTINUOUS
10
10.6191761976
20
19.4929686075
0
VERTEX
8
0
62
2
6
CONTINUOUS
10
10.6192228418
20
19.4930105473
0
VERTEX
8
0
62
2
6
CONTINUOUS
10
10.6201008129
20
19.4938915564
0
VERTEX
8
0
62
2
6
CONTINUOUS
10
10.6208796918
20
19.4948560001
0
VERTEX
8
0
62
2
6
CONTINUOUS
10
10.6215509848
20
19.4958919578
0
VERTEX
8
0
62
2
6
CONTINUOUS
10
10.6221080783
20
19.4969876185
0
VERTEX
8
0
62
2
6
CONTINUOUS
10
10.6225461169
20
19.4981318515
0
VERTEX
8
0
62
2
6
CONTINUOUS
10
10.6228616855
20
19.4993146162
0
VERTEX
8
0
62
2
6
CONTINUOUS
10
10.6230523766
20
19.5005271833
0
VERTEX
8
0
62
2
6
CONTINUOUS
10
10.6231163239
20
19.5017621758
0
VERTEX
8
0
62
2
6
CONTINUOUS
10
10.6230523766
20
19.5030054844
0
VERTEX
8
0
62
2
6
CONTINUOUS
10
10.6228615560
20
19.5042281999
0
VERTEX
8
0
62
2
6
CONTINUOUS
10
10.6225456096
20
19.5054224775
0
VERTEX
8
0
62
2
6
CONTINUOUS
10
10.6221069412
20
19.5065790638
0
VERTEX
8
0
62
2
6
CONTINUOUS
10
10.6215490862
20
19.5076873689
0
VERTEX
8
0
62
2
6
CONTINUOUS
10
10.6208771389
20
19.5087357297
0
VERTEX
8
0
62
2
6
CONTINUOUS
10
10.6200980459
20
19.5097118698
0
VERTEX
8
0
62
2
6
CONTINUOUS
10
10.6200209645
20
19.5097979663
0
VERTEX
8
0
62
2
6
CONTINUOUS
10
10.6191352372
20
19.5106810288
0
VERTEX
8
0
62
2
6
CONTINUOUS
10
10.6181665555
20
19.5114644374
0
VERTEX
8
0
62
2
6
CONTINUOUS
10
10.6171273216
20
19.5121394761
0
VERTEX
8
0
62
2
6
CONTINUOUS
10
10.6160299294
20
19.5126993801
0
VERTEX
8
0
62
2
6
CONTINUOUS
10
10.6148861388
20
19.5131392591
0
VERTEX
8
0
62
2
6
CONTINUOUS
10
10.6137066086
20
19.5134557978
0
VERTEX
8
0
62
2
6
CONTINUOUS
10
10.6125006282
20
19.5136468176
0
VERTEX
8
0
62
2
6
CONTINUOUS
10
10.6112760461
20
19.5137107869
0
VERTEX
8
0
62
2
6
CONTINUOUS
10
10.6017274350
20
19.5137107869
0
SEQEND
0
LINE
8
0
62
2
6
CONTINUOUS
10
10.6310107683
20
19.4682330091
11
10.6661260461
21
19.4188482869
0
LINE
8
0
62
2
6
CONTINUOUS
10
10.6661260461
20
19.4188482869
11
10.6293010461
21
19.4189163424
0
LINE
8
0
62
2
6
CONTINUOUS
10
10.6293010461
20
19.4189163424
11
10.6017816016
21
19.4567718980
0
LINE
8
0
62
2
6
CONTINUOUS
10
10.6017816016
20
19.4567718980
11
10.6017816016
21
19.4189982869
0
LINE
8
0
62
2
6
CONTINUOUS
10
10.6017816016
20
19.4189982869
11
10.5687954905
21
19.4189982869
0
LINE
8
0
62
2
6
CONTINUOUS
10
10.5687954905
20
19.4189982869
11
10.5687954905
21
19.5422885647
0
POLYLINE
8
0
62
2
6
CONTINUOUS
66
1
70
0
0
VERTEX
8
0
62
2
6
CONTINUOUS
10
10.5687954905
20
19.5422885647
0
VERTEX
8
0
62
2
6
CONTINUOUS
10
10.6110718794
20
19.5422885647
0
VERTEX
8
0
62
2
6
CONTINUOUS
10
10.6130493466
20
19.5422442531
0
VERTEX
8
0
62
2
6
CONTINUOUS
10
10.6150114010
20
19.5421117303
0
VERTEX
8
0
62
2
6
CONTINUOUS
10
10.6169561601
20
19.5418916106
0
VERTEX
8
0
62
2
6
CONTINUOUS
10
10.6188815516
20
19.5415845242
0
VERTEX
8
0
62
2
6
CONTINUOUS
10
10.6207853025
20
19.5411911455
0
VERTEX
8
0
62
2
6
CONTINUOUS
10
10.6226649311
20
19.5407122228
0
VERTEX
8
0
62
2
6
CONTINUOUS
10
10.6245177427
20
19.5401486114
0
VERTEX
8
0
62
2
6
CONTINUOUS
10
10.6263408301
20
19.5395013061
0
VERTEX
8
0
62
2
6
CONTINUOUS
10
10.6281310792
20
19.5387714752
0
VERTEX
8
0
62
2
6
CONTINUOUS
10
10.6298851805
20
19.5379604933
0
VERTEX
8
0
62
2
6
CONTINUOUS
10
10.6315996471
20
19.5370699719
0
VERTEX
8
0
62
2
6
CONTINUOUS
10
10.6332708395
20
19.5361017865
0
VERTEX
8
0
62
2
6
CONTINUOUS
10
10.6348949966
20
19.5350580998
0
VERTEX
8
0
62
2
6
CONTINUOUS
10
10.6364682735
20
19.5339413775
0
VERTEX
8
0
62
2
6
CONTINUOUS
10
10.6379867841
20
19.5327543974
0
VERTEX
8
0
62
2
6
CONTINUOUS
10
10.6394466495
20
19.5315002493
0
VERTEX
8
0
62
2
6
CONTINUOUS
10
10.6408440478
20
19.5301823263
0
VERTEX
8
0
62
2
6
CONTINUOUS
10
10.6421752664
20
19.5288043058
0
VERTEX
8
0
62
2
6
CONTINUOUS
10
10.6433390624
20
19.5274861372
0
VERTEX
8
0
62
2
6
CONTINUOUS
10
10.6445319775
20
19.5260057724
0
VERTEX
8
0
62
2
6
CONTINUOUS
10
10.6456482441
20
19.5244787828
0
VERTEX
8
0
62
2
6
CONTINUOUS
10
10.6466852678
20
19.5229096527
0
VERTEX
8
0
62
2
6
CONTINUOUS
10
10.6476407791
20
19.5213028899
0
VERTEX
8
0
62
2
6
CONTINUOUS
10
10.6485128416
20
19.5196629701
0
VERTEX
8
0
62
2
6
CONTINUOUS
10
10.6492998501
20
19.5179942844
0
VERTEX
8
0
62
2
6
CONTINUOUS
10
10.6500005182
20
19.5163010912
0
VERTEX
8
0
62
2
6
CONTINUOUS
10
10.6506138579
20
19.5145874746
0
VERTEX
8
0
62
2
6
CONTINUOUS
10
10.6511391520
20
19.5128573099
0
VERTEX
8
0
62
2
6
CONTINUOUS
10
10.6515759193
20
19.5111142370
0
VERTEX
8
0
62
2
6
CONTINUOUS
10
10.6519238771
20
19.5093616425
0
VERTEX
8
0
62
2
6
CONTINUOUS
10
10.6521829004
20
19.5076026490
0
VERTEX
8
0
62
2
6
CONTINUOUS
10
10.6523529797
20
19.5058401127
0
VERTEX
8
0
62
2
6
CONTINUOUS
10
10.6524341800
20
19.5040766278
0
VERTEX
8
0
62
2
6
CONTINUOUS
10
10.6524266010
20
19.5023145367
0
VERTEX
8
0
62
2
6
CONTINUOUS
10
10.6523303399
20
19.5005559450
0
VERTEX
8
0
62
2
6
CONTINUOUS
10
10.6521454573
20
19.4988027412
0
VERTEX
8
0
62
2
6
CONTINUOUS
10
10.6518719474
20
19.4970566189
0
VERTEX
8
0
62
2
6
CONTINUOUS
10
10.6515097126
20
19.4953191010
0
VERTEX
8
0
62
2
6
CONTINUOUS
10
10.6510585413
20
19.4935915652
0
VERTEX
8
0
62
2
6
CONTINUOUS
10
10.6505180916
20
19.4918752704
0
VERTEX
8
0
62
2
6
CONTINUOUS
10
10.6498878780
20
19.4901713816
0
VERTEX
8
0
62
2
6
CONTINUOUS
10
10.6491672627
20
19.4884809953
0
VERTEX
8
0
62
2
6
CONTINUOUS
10
10.6483554504
20
19.4868051624
0
VERTEX
8
0
62
2
6
CONTINUOUS
10
10.6474514862
20
19.4851449104
0
VERTEX
8
0
62
2
6
CONTINUOUS
10
10.6464542565
20
19.4835012629
0
VERTEX
8
0
62
2
6
CONTINUOUS
10
10.6453624926
20
19.4818752572
0
VERTEX
8
0
62
2
6
CONTINUOUS
10
10.6441747757
20
19.4802679603
0
VERTEX
8
0
62
2
6
CONTINUOUS
10
10.6428895440
20
19.4786804813
0
VERTEX
8
0
62
2
6
CONTINUOUS
10
10.6415051012
20
19.4771139834
0
VERTEX
8
0
62
2
6
CONTINUOUS
10
10.6400196248
20
19.4755696924
0
VERTEX
8
0
62
2
6
CONTINUOUS
10
10.6384311763
20
19.4740489038
0
VERTEX
8
0
62
2
6
CONTINUOUS
10
10.6367380479
20
19.4725532745
0
VERTEX
8
0
62
2
6
CONTINUOUS
10
10.6349384020
20
19.4710844278
0
VERTEX
8
0
62
2
6
CONTINUOUS
10
10.6330300624
20
19.4696438246
0
VERTEX
8
0
62
2
6
CONTINUOUS
10
10.6310107683
20
19.4682330091
0
SEQEND
0
POLYLINE
8
0
62
2
6
CONTINUOUS
66
1
70
0
0
VERTEX
8
0
62
2
6
CONTINUOUS
10
10.5596260461
20
19.5422885647
0
VERTEX
8
0
62
2
6
CONTINUOUS
10
10.5596260461
20
19.5138468980
0
VERTEX
8
0
62
2
6
CONTINUOUS
10
10.5257579905
20
19.5137927313
0
VERTEX
8
0
62
2
6
CONTINUOUS
10
10.5256093794
20
19.4943288424
0
VERTEX
8
0
62
2
6
CONTINUOUS
10
10.5569135461
20
19.4943288424
0
VERTEX
8
0
62
2
6
CONTINUOUS
10
10.5569135461
20
19.4666871758
0
VERTEX
8
0
62
2
6
CONTINUOUS
10
10.5257038239
20
19.4666871758
0
VERTEX
8
0
62
2
6
CONTINUOUS
10
10.5257038239
20
19.4478607869
0
VERTEX
8
0
62
2
6
CONTINUOUS
10
10.5598843794
20
19.4478607869
0
VERTEX
8
0
62
2
6
CONTINUOUS
10
10.5598843794
20
19.4189163424
0
VERTEX
8
0
62
2
6
CONTINUOUS
10
10.5426349960
20
19.4189163424
0
VERTEX
8
0
62
2
6
CONTINUOUS
10
10.4911982683
20
19.4189163424
0
VERTEX
8
0
62
2
6
CONTINUOUS
10
10.4911982683
20
19.4394151092
0
VERTEX
8
0
62
2
6
CONTINUOUS
10
10.4911982683
20
19.4908518369
0
VERTEX
8
0
62
2
6
CONTINUOUS
10
10.4911982683
20
19.5422885647
0
VERTEX
8
0
62
2
6
CONTINUOUS
10
10.5081893183
20
19.5422885647
0
VERTEX
8
0
62
2
6
CONTINUOUS
10
10.5596260461
20
19.5422885647
0
SEQEND
0
POLYLINE
8
0
62
2
6
CONTINUOUS
66
1
70
0
0
VERTEX
8
0
62
2
6
CONTINUOUS
10
10.1816691016
20
19.5422343980
0
VERTEX
8
0
62
2
6
CONTINUOUS
10
10.1731303256
20
19.5319351952
0
VERTEX
8
0
62
2
6
CONTINUOUS
10
10.1329899350
20
19.4835191202
0
VERTEX
8
0
62
2
6
CONTINUOUS
10
10.1476460873
20
19.4665020785
0
VERTEX
8
0
62
2
6
CONTINUOUS
10
10.1886885461
20
19.4188482869
0
VERTEX
8
0
62
2
6
CONTINUOUS
10
10.1440316016
20
19.4189163424
0
VERTEX
8
0
62
2
6
CONTINUOUS
10
10.1062093794
20
19.4628760647
0
VERTEX
8
0
62
2
6
CONTINUOUS
10
10.1061482683
20
19.4628760647
0
VERTEX
8
0
62
2
6
CONTINUOUS
10
10.1061482683
20
19.4189163424
0
VERTEX
8
0
62
2
6
CONTINUOUS
10
10.0724302127
20
19.4189163424
0
VERTEX
8
0
62
2
6
CONTINUOUS
10
10.0724302127
20
19.4793968539
0
VERTEX
8
0
62
2
6
CONTINUOUS
10
10.0724302127
20
19.5422885647
0
VERTEX
8
0
62
2
6
CONTINUOUS
10
10.1061482683
20
19.5422885647
0
VERTEX
8
0
62
2
6
CONTINUOUS
10
10.1061482683
20
19.5053288424
0
VERTEX
8
0
62
2
6
CONTINUOUS
10
10.1058843794
20
19.5053288424
0
VERTEX
8
0
62
2
6
CONTINUOUS
10
10.1379885461
20
19.5422343980
0
VERTEX
8
0
62
2
6
CONTINUOUS
10
10.1816691016
20
19.5422343980
0
SEQEND
0
POLYLINE
8
0
62
2
6
CONTINUOUS
66
1
70
0
0
VERTEX
8
0
62
2
6
CONTINUOUS
10
10.2995691016
20
19.4189163424
0
VERTEX
8
0
62
2
6
CONTINUOUS
10
10.2995691016
20
19.4795080091
0
VERTEX
8
0
62
2
6
CONTINUOUS
10
10.2995691016
20
19.5422885647
0
VERTEX
8
0
62
2
6
CONTINUOUS
10
10.3332329905
20
19.5422885647
0
VERTEX
8
0
62
2
6
CONTINUOUS
10
10.3332329905
20
19.4990218980
0
VERTEX
8
0
62
2
6
CONTINUOUS
10
10.3672774350
20
19.4990218980
0
VERTEX
8
0
62
2
6
CONTINUOUS
10
10.3672774350
20
19.5422885647
0
VERTEX
8
0
62
2
6
CONTINUOUS
10
10.4009343794
20
19.5422885647
0
VERTEX
8
0
62
2
6
CONTINUOUS
10
10.4009343794
20
19.4816968980
0
VERTEX
8
0
62
2
6
CONTINUOUS
10
10.4009343794
20
19.4189163424
0
VERTEX
8
0
62
2
6
CONTINUOUS
10
10.3672774350
20
19.4189163424
0
VERTEX
8
0
62
2
6
CONTINUOUS
10
10.3672774350
20
19.4648149535
0
VERTEX
8
0
62
2
6
CONTINUOUS
10
10.3332329905
20
19.4648149535
0
VERTEX
8
0
62
2
6
CONTINUOUS
10
10.3332329905
20
19.4189163424
0
VERTEX
8
0
62
2
6
CONTINUOUS
10
10.2995691016
20
19.4189163424
0
SEQEND
0
POLYLINE
8
0
62
2
6
CONTINUOUS
66
1
70
0
0
VERTEX
8
0
62
2
6
CONTINUOUS
10
10.4106996572
20
19.4189163424
0
VERTEX
8
0
62
2
6
CONTINUOUS
10
10.4106996572
20
19.4253202313
0
VERTEX
8
0
62
2
6
CONTINUOUS
10
10.4106996572
20
19.4643096758
0
VERTEX
8
0
62
2
6
CONTINUOUS
10
10.4106996572
20
19.5032991202
0
VERTEX
8
0
62
2
6
CONTINUOUS
10
10.4106996572
20
19.5422885647
0
VERTEX
8
0
62
2
6
CONTINUOUS
10
10.4444191016
20
19.5422885647
0
VERTEX
8
0
62
2
6
CONTINUOUS
10
10.4444191016
20
19.5283896758
0
VERTEX
8
0
62
2
6
CONTINUOUS
10
10.4444191016
20
19.4894002313
0
VERTEX
8
0
62
2
6
CONTINUOUS
10
10.4444191016
20
19.4504107869
0
VERTEX
8
0
62
2
6
CONTINUOUS
10
10.4822746572
20
19.4504107869
0
VERTEX
8
0
62
2
6
CONTINUOUS
10
10.4822746572
20
19.4189163424
0
VERTEX
8
0
62
2
6
CONTINUOUS
10
10.4496891016
20
19.4189163424
0
VERTEX
8
0
62
2
6
CONTINUOUS
10
10.4106996572
20
19.4189163424
0
SEQEND
0
LINE
8
0
62
2
6
CONTINUOUS
10
11.3002816016
20
19.5424246758
11
11.2712954905
21
19.4934066202
0
LINE
8
0
62
2
6
CONTINUOUS
10
11.2712954905
20
19.4934066202
11
11.2429621572
21
19.5424246758
0
LINE
8
0
62
2
6
CONTINUOUS
10
11.2429621572
20
19.5424246758
11
11.2336843794
21
19.5424246758
0
LINE
8
0
62
2
6
CONTINUOUS
10
11.2336843794
20
19.5424246758
11
11.2673218794
21
19.4845496758
0
LINE
8
0
62
2
6
CONTINUOUS
10
11.2673218794
20
19.4845496758
11
11.2671732683
21
19.4420288424
0
LINE
8
0
62
2
6
CONTINUOUS
10
11.2671732683
20
19.4420288424
11
11.2752968794
21
19.4420288424
0
LINE
8
0
62
2
6
CONTINUOUS
10
11.2752968794
20
19.4420288424
11
11.2752968794
21
19.4850385647
0
LINE
8
0
62
2
6
CONTINUOUS
10
11.2752968794
20
19.4850385647
11
11.3087982683
21
19.5424246758
0
LINE
8
0
62
2
6
CONTINUOUS
10
11.3087982683
20
19.5424246758
11
11.3002816016
21
19.5424246758
0
LINE
8
0
62
2
6
CONTINUOUS
10
11.1378329905
20
19.4420288424
11
11.1459302127
21
19.4420288424
0
LINE
8
0
62
2
6
CONTINUOUS
10
11.1459302127
20
19.4420288424
11
11.1459302127
21
19.5252538424
0
LINE
8
0
62
2
6
CONTINUOUS
10
11.1459302127
20
19.5252538424
11
11.2286802127
21
19.4373496758
0
LINE
8
0
62
2
6
CONTINUOUS
10
11.2286802127
20
19.4373496758
11
11.2286802127
21
19.5424246758
0
LINE
8
0
62
2
6
CONTINUOUS
10
11.2286802127
20
19.5424246758
11
11.2205829905
21
19.5424246758
0
LINE
8
0
62
2
6
CONTINUOUS
10
11.2205829905
20
19.5424246758
11
11.2205829905
21
19.4577343980
0
LINE
8
0
62
2
6
CONTINUOUS
10
11.2205829905
20
19.4577343980
11
11.1378329905
21
19.5450427313
0
LINE
8
0
62
2
6
CONTINUOUS
10
11.1378329905
20
19.5450427313
11
11.1378329905
21
19.4420288424
0
LINE
8
0
62
2
6
CONTINUOUS
10
10.7794343794
20
19.4531774535
11
10.7797871572
21
19.4625232869
0
LINE
8
0
62
2
6
CONTINUOUS
10
10.7797871572
20
19.4625232869
11
10.7797871572
21
19.4650732869
0
LINE
8
0
62
2
6
CONTINUOUS
10
10.7797871572
20
19.4650732869
11
10.7781052127
21
19.4630524535
0
LINE
8
0
62
2
6
CONTINUOUS
10
10.7781052127
20
19.4630524535
11
10.7458371572
21
19.4483899535
0
POLYLINE
8
0
62
2
6
CONTINUOUS
66
1
70
0
0
VERTEX
8
0
62
2
6
CONTINUOUS
10
10.7458371572
20
19.4483899535
0
VERTEX
8
0
62
2
6
CONTINUOUS
10
10.7436795925
20
19.4485346545
0
VERTEX
8
0
62
2
6
CONTINUOUS
10
10.7415749257
20
19.4487533835
0
VERTEX
8
0
62
2
6
CONTINUOUS
10
10.7395225535
20
19.4490445115
0
VERTEX
8
0
62
2
6
CONTINUOUS
10
10.7375219118
20
19.4494065091
0
VERTEX
8
0
62
2
6
CONTINUOUS
10
10.7355724833
20
19.4498379470
0
VERTEX
8
0
62
2
6
CONTINUOUS
10
10.7336738062
20
19.4503374945
0
VERTEX
8
0
62
2
6
CONTINUOUS
10
10.7318254826
20
19.4509039166
0
VERTEX
8
0
62
2
6
CONTINUOUS
10
10.7300271881
20
19.4515360704
0
VERTEX
8
0
62
2
6
CONTINUOUS
10
10.7282786806
20
19.4522328989
0
VERTEX
8
0
62
2
6
CONTINUOUS
10
10.7265798100
20
19.4529934240
0
VERTEX
8
0
62
2
6
CONTINUOUS
10
10.7249305270
20
19.4538167370
0
VERTEX
8
0
62
2
6
CONTINUOUS
10
10.7233308922
20
19.4547019873
0
VERTEX
8
0
62
2
6
CONTINUOUS
10
10.7217810842
20
19.4556483693
0
VERTEX
8
0
62
2
6
CONTINUOUS
10
10.7202814073
20
19.4566551066
0
VERTEX
8
0
62
2
6
CONTINUOUS
10
10.7188322976
20
19.4577214345
0
VERTEX
8
0
62
2
6
CONTINUOUS
10
10.7174343285
20
19.4588465806
0
VERTEX
8
0
62
2
6
CONTINUOUS
10
10.7160882142
20
19.4600297426
0
VERTEX
8
0
62
2
6
CONTINUOUS
10
10.7147948109
20
19.4612700653
0
VERTEX
8
0
62
2
6
CONTINUOUS
10
10.7135551170
20
19.4625666149
0
VERTEX
8
0
62
2
6
CONTINUOUS
10
10.7123702691
20
19.4639183532
0
VERTEX
8
0
62
2
6
CONTINUOUS
10
10.7112415369
20
19.4653241100
0
VERTEX
8
0
62
2
6
CONTINUOUS
10
10.7101703142
20
19.4667825551
0
VERTEX
8
0
62
2
6
CONTINUOUS
10
10.7091581063
20
19.4682921718
0
VERTEX
8
0
62
2
6
CONTINUOUS
10
10.7082065152
20
19.4698512294
0
VERTEX
8
0
62
2
6
CONTINUOUS
10
10.7073172204
20
19.4714577593
0
VERTEX
8
0
62
2
6
CONTINUOUS
10
10.7064919565
20
19.4731095328
0
VERTEX
8
0
62
2
6
CONTINUOUS
10
10.7057324875
20
19.4748040426
0
VERTEX
8
0
62
2
6
CONTINUOUS
10
10.7050405789
20
19.4765384895
0
VERTEX
8
0
62
2
6
CONTINUOUS
10
10.7044179659
20
19.4783097740
0
VERTEX
8
0
62
2
6
CONTINUOUS
10
10.7038663213
20
19.4801144950
0
VERTEX
8
0
62
2
6
CONTINUOUS
10
10.7033872212
20
19.4819489557
0
VERTEX
8
0
62
2
6
CONTINUOUS
10
10.7029821115
20
19.4838091769
0
VERTEX
8
0
62
2
6
CONTINUOUS
10
10.7026522747
20
19.4856909192
0
VERTEX
8
0
62
2
6
CONTINUOUS
10
10.7023988000
20
19.4875897124
0
VERTEX
8
0
62
2
6
CONTINUOUS
10
10.7022225556
20
19.4895008928
0
VERTEX
8
0
62
2
6
CONTINUOUS
10
10.7021241667
20
19.4914196478
0
VERTEX
8
0
62
2
6
CONTINUOUS
10
10.7021019364
20
19.4927243259
0
VERTEX
8
0
62
2
6
CONTINUOUS
10
10.7021348980
20
19.4946433146
0
VERTEX
8
0
62
2
6
CONTINUOUS
10
10.7022458377
20
19.4965549976
0
VERTEX
8
0
62
2
6
CONTINUOUS
10
10.7024341962
20
19.4984545465
0
VERTEX
8
0
62
2
6
CONTINUOUS
10
10.7026991649
20
19.5003372766
0
VERTEX
8
0
62
2
6
CONTINUOUS
10
10.7030397072
20
19.5021986932
0
VERTEX
8
0
62
2
6
CONTINUOUS
10
10.7034545838
20
19.5040345299
0
VERTEX
8
0
62
2
6
CONTINUOUS
10
10.7039423831
20
19.5058407808
0
VERTEX
8
0
62
2
6
CONTINUOUS
10
10.7045015533
20
19.5076137238
0
VERTEX
8
0
62
2
6
CONTINUOUS
10
10.7051304371
20
19.5093499358
0
VERTEX
8
0
62
2
6
CONTINUOUS
10
10.7058273054
20
19.5110463002
0
VERTEX
8
0
62
2
6
CONTINUOUS
10
10.7065903915
20
19.5127000065
0
VERTEX
8
0
62
2
6
CONTINUOUS
10
10.7074179235
20
19.5143085431
0
VERTEX
8
0
62
2
6
CONTINUOUS
10
10.7083081539
20
19.5158696838
0
VERTEX
8
0
62
2
6
CONTINUOUS
10
10.7092593866
20
19.5173814700
0
VERTEX
8
0
62
2
6
CONTINUOUS
10
10.7102700013
20
19.5188421883
0
VERTEX
8
0
62
2
6
CONTINUOUS
10
10.7113384733
20
19.5202503451
0
VERTEX
8
0
62
2
6
CONTINUOUS
10
10.7124633909
20
19.5216046398
0
VERTEX
8
0
62
2
6
CONTINUOUS
10
10.7136434683
20
19.5229039359
0
VERTEX
8
0
62
2
6
CONTINUOUS
10
10.7148775562
20
19.5241472325
0
VERTEX
8
0
62
2
6
CONTINUOUS
10
10.7161646478
20
19.5253336358
0
VERTEX
8
0
62
2
6
CONTINUOUS
10
10.7175038831
20
19.5264623310
0
VERTEX
8
0
62
2
6
CONTINUOUS
10
10.7188945500
20
19.5275325564
0
VERTEX
8
0
62
2
6
CONTINUOUS
10
10.7203360826
20
19.5285435781
0
VERTEX
8
0
62
2
6
CONTINUOUS
10
10.7218280581
20
19.5294946674
0
VERTEX
8
0
62
2
6
CONTINUOUS
10
10.7233701919
20
19.5303850802
0
VERTEX
8
0
62
2
6
CONTINUOUS
10
10.7249623301
20
19.5312140380
0
VERTEX
8
0
62
2
6
CONTINUOUS
10
10.7266044426
20
19.5319807118
0
VERTEX
8
0
62
2
6
CONTINUOUS
10
10.7282966139
20
19.5326842083
0
VERTEX
8
0
62
2
6
CONTINUOUS
10
10.7300390337
20
19.5333235577
0
VERTEX
8
0
62
2
6
CONTINUOUS
10
10.7318319875
20
19.5338977044
0
VERTEX
8
0
62
2
6
CONTINUOUS
10
10.7336758464
20
19.5344054992
0
VERTEX
8
0
62
2
6
CONTINUOUS
10
10.7355710576
20
19.5348456934
0
VERTEX
8
0
62
2
6
CONTINUOUS
10
10.7375181341
20
19.5352169352
0
VERTEX
8
0
62
2
6
CONTINUOUS
10
10.7395176458
20
19.5355177667
0
VERTEX
8
0
62
2
6
CONTINUOUS
10
10.7415702103
20
19.5357466233
0
VERTEX
8
0
62
2
6
CONTINUOUS
10
10.7436764847
20
19.5359018335
0
VERTEX
8
0
62
2
6
CONTINUOUS
10
10.7458371572
20
19.5359816202
0
SEQEND
0
LINE
8
0
62
2
6
CONTINUOUS
10
10.7458371572
20
19.5359816202
11
10.7797871572
21
19.5187566202
0
LINE
8
0
62
2
6
CONTINUOUS
10
10.7797871572
20
19.5187566202
11
10.7797871572
21
19.5299593980
0
ARC
8
0
62
2
6
CONTINUOUS
10
10.7451120421
20
19.4921116691
40
0.0513304411
50
47.5048873671
51
180.0087362707
0
ARC
8
0
62
2
6
CONTINUOUS
10
10.7456870325
20
19.4926179740
40
0.0519079771
50
180.5675053294
51
310.5520051654
0
CIRCLE
8
0
62
2
6
CONTINUOUS
10
10.2322341183
20
19.4816267591
40
0.0317997452
0
POLYLINE
8
0
62
2
6
CONTINUOUS
66
1
70
0
0
VERTEX
8
0
62
2
6
CONTINUOUS
10
10.1654607683
20
19.4816468980
0
VERTEX
8
0
62
2
6
CONTINUOUS
10
10.1655175955
20
19.4847305867
0
VERTEX
8
0
62
2
6
CONTINUOUS
10
10.1657176480
20
19.4877956730
0
VERTEX
8
0
62
2
6
CONTINUOUS
10
10.1660601340
20
19.4908381470
0
VERTEX
8
0
62
2
6
CONTINUOUS
10
10.1665441621
20
19.4938536971
0
VERTEX
8
0
62
2
6
CONTINUOUS
10
10.1671686964
20
19.4968377075
0
VERTEX
8
0
62
2
6
CONTINUOUS
10
10.1679325110
20
19.4997852628
0
VERTEX
8
0
62
2
6
CONTINUOUS
10
10.1688341442
20
19.5026911605
0
VERTEX
8
0
62
2
6
CONTINUOUS
10
10.1698718555
20
19.5055499328
0
VERTEX
8
0
62
2
6
CONTINUOUS
10
10.1710435862
20
19.5083558769
0
VERTEX
8
0
62
2
6
CONTINUOUS
10
10.1723469258
20
19.5111030946
0
VERTEX
8
0
62
2
6
CONTINUOUS
10
10.1737790853
20
19.5137855401
0
VERTEX
8
0
62
2
6
CONTINUOUS
10
10.1753368802
20
19.5163970753
0
VERTEX
8
0
62
2
6
CONTINUOUS
10
10.1770167233
20
19.5189315306
0
VERTEX
8
0
62
2
6
CONTINUOUS
10
10.1788146290
20
19.5213827710
0
VERTEX
8
0
62
2
6
CONTINUOUS
10
10.1807262295
20
19.5237447620
0
VERTEX
8
0
62
2
6
CONTINUOUS
10
10.1811019208
20
19.5241829841
0
VERTEX
8
0
62
2
6
CONTINUOUS
10
10.1831416418
20
19.5264300938
0
VERTEX
8
0
62
2
6
CONTINUOUS
10
10.1852827402
20
19.5285741044
0
VERTEX
8
0
62
2
6
CONTINUOUS
10
10.1875197220
20
19.5306099884
0
VERTEX
8
0
62
2
6
CONTINUOUS
10
10.1898469473
20
19.5325330917
0
VERTEX
8
0
62
2
6
CONTINUOUS
10
10.1922586947
20
19.5343391591
0
VERTEX
8
0
62
2
6
CONTINUOUS
10
10.1947492264
20
19.5360243479
0
VERTEX
8
0
62
2
6
CONTINUOUS
10
10.1973128500
20
19.5375852286
0
VERTEX
8
0
62
2
6
CONTINUOUS
10
10.1999439776
20
19.5390187751
0
VERTEX
8
0
62
2
6
CONTINUOUS
10
10.2026371770
20
19.5403223439
0
VERTEX
8
0
62
2
6
CONTINUOUS
10
10.2053872171
20
19.5414936448
0
VERTEX
8
0
62
2
6
CONTINUOUS
10
10.2081891035
20
19.5425307038
0
VERTEX
8
0
62
2
6
CONTINUOUS
10
10.2110381069
20
19.5434318213
0
VERTEX
8
0
62
2
6
CONTINUOUS
10
10.2139297816
20
19.5441955264
0
VERTEX
8
0
62
2
6
CONTINUOUS
10
10.2168599763
20
19.5448205291
0
VERTEX
8
0
62
2
6
CONTINUOUS
10
10.2198248366
20
19.5453056730
0
VERTEX
8
0
62
2
6
CONTINUOUS
10
10.2228208014
20
19.5456498886
0
VERTEX
8
0
62
2
6
CONTINUOUS
10
10.2258445920
20
19.5458521490
0
VERTEX
8
0
62
2
6
CONTINUOUS
10
10.2288931975
20
19.5459114291
0
VERTEX
8
0
62
2
6
CONTINUOUS
10
10.2319328484
20
19.5458271618
0
VERTEX
8
0
62
2
6
CONTINUOUS
10
10.2349516965
20
19.5455999392
0
VERTEX
8
0
62
2
6
CONTINUOUS
10
10.2379465413
20
19.5452305808
0
VERTEX
8
0
62
2
6
CONTINUOUS
10
10.2409138829
20
19.5447199287
0
VERTEX
8
0
62
2
6
CONTINUOUS
10
10.2438499061
20
19.5440688940
0
VERTEX
8
0
62
2
6
CONTINUOUS
10
10.2467504719
20
19.5432785060
0
VERTEX
8
0
62
2
6
CONTINUOUS
10
10.2496111150
20
19.5423499636
0
VERTEX
8
0
62
2
6
CONTINUOUS
10
10.2524270494
20
19.5412846870
0
VERTEX
8
0
62
2
6
CONTINUOUS
10
10.2551931838
20
19.5400843692
0
VERTEX
8
0
62
2
6
CONTINUOUS
10
10.2579041448
20
19.5387510238
0
VERTEX
8
0
62
2
6
CONTINUOUS
10
10.2605543115
20
19.5372870287
0
VERTEX
8
0
62
2
6
CONTINUOUS
10
10.2631378584
20
19.5356951630
0
VERTEX
8
0
62
2
6
CONTINUOUS
10
10.2656488076
20
19.5339786349
0
VERTEX
8
0
62
2
6
CONTINUOUS
10
10.2680810896
20
19.5321410991
0
VERTEX
8
0
62
2
6
CONTINUOUS
10
10.2704286088
20
19.5301866624
0
VERTEX
8
0
62
2
6
CONTINUOUS
10
10.2726853146
20
19.5281198762
0
VERTEX
8
0
62
2
6
CONTINUOUS
10
10.2748452731
20
19.5259457153
0
VERTEX
8
0
62
2
6
CONTINUOUS
10
10.2769027378
20
19.5236695439
0
VERTEX
8
0
62
2
6
CONTINUOUS
10
10.2769529071
20
19.5236112719
0
VERTEX
8
0
62
2
6
CONTINUOUS
10
10.2788983176
20
19.5212381200
0
VERTEX
8
0
62
2
6
CONTINUOUS
10
10.2807293182
20
19.5187767387
0
VERTEX
8
0
62
2
6
CONTINUOUS
10
10.2824414164
20
19.5162334443
0
VERTEX
8
0
62
2
6
CONTINUOUS
10
10.2840305463
20
19.5136146370
0
VERTEX
8
0
62
2
6
CONTINUOUS
10
10.2854930834
20
19.5109267272
0
VERTEX
8
0
62
2
6
CONTINUOUS
10
10.2868258454
20
19.5081760654
0
VERTEX
8
0
62
2
6
CONTINUOUS
10
10.2880260814
20
19.5053688767
0
VERTEX
8
0
62
2
6
CONTINUOUS
10
10.2890914501
20
19.5025112035
0
VERTEX
8
0
62
2
6
CONTINUOUS
10
10.2900199878
20
19.4996088556
0
VERTEX
8
0
62
2
6
CONTINUOUS
10
10.2908100691
20
19.4966673708
0
VERTEX
8
0
62
2
6
CONTINUOUS
10
10.2914603621
20
19.4936919856
0
VERTEX
8
0
62
2
6
CONTINUOUS
10
10.2919697796
20
19.4906876149
0
VERTEX
8
0
62
2
6
CONTINUOUS
10
10.2923374288
20
19.4876588419
0
VERTEX
8
0
62
2
6
CONTINUOUS
10
10.2925625603
20
19.4846099163
0
VERTEX
8
0
62
2
6
CONTINUOUS
10
10.2926445194
20
19.4815447608
0
VERTEX
8
0
62
2
6
CONTINUOUS
10
10.2925829034
20
19.4784620123
0
VERTEX
8
0
62
2
6
CONTINUOUS
10
10.2923780941
20
19.4753981299
0
VERTEX
8
0
62
2
6
CONTINUOUS
10
10.2920308896
20
19.4723570895
0
VERTEX
8
0
62
2
6
CONTINUOUS
10
10.2915421849
20
19.4693431682
0
VERTEX
8
0
62
2
6
CONTINUOUS
10
10.2909130165
20
19.4663609474
0
VERTEX
8
0
62
2
6
CONTINUOUS
10
10.2901446086
20
19.4634153089
0
VERTEX
8
0
62
2
6
CONTINUOUS
10
10.2892384186
20
19.4605114224
0
VERTEX
8
0
62
2
6
CONTINUOUS
10
10.2881961808
20
19.4576547247
0
VERTEX
8
0
62
2
6
CONTINUOUS
10
10.2870199457
20
19.4548508899
0
VERTEX
8
0
62
2
6
CONTINUOUS
10
10.2857121146
20
19.4521057908
0
VERTEX
8
0
62
2
6
CONTINUOUS
10
10.2842754663
20
19.4494254509
0
VERTEX
8
0
62
2
6
CONTINUOUS
10
10.2827131755
20
19.4468159904
0
VERTEX
8
0
62
2
6
CONTINUOUS
10
10.2810288201
20
19.4442835648
0
VERTEX
8
0
62
2
6
CONTINUOUS
10
10.2792263779
20
19.4418343004
0
VERTEX
8
0
62
2
6
CONTINUOUS
10
10.2773102115
20
19.4394742269
0
VERTEX
8
0
62
2
6
CONTINUOUS
10
10.2769528765
20
19.4390585270
0
VERTEX
8
0
62
2
6
CONTINUOUS
10
10.2749094073
20
19.4368121370
0
VERTEX
8
0
62
2
6
CONTINUOUS
10
10.2727644708
20
19.4346687606
0
VERTEX
8
0
62
2
6
CONTINUOUS
10
10.2705235690
20
19.4326334403
0
VERTEX
8
0
62
2
6
CONTINUOUS
10
10.2681923552
20
19.4307108474
0
VERTEX
8
0
62
2
6
CONTINUOUS
10
10.2657765693
20
19.4289052559
0
VERTEX
8
0
62
2
6
CONTINUOUS
10
10.2632819728
20
19.4272205282
0
VERTEX
8
0
62
2
6
CONTINUOUS
10
10.2607142857
20
19.4256601130
0
VERTEX
8
0
62
2
6
CONTINUOUS
10
10.2580791283
20
19.4242270542
0
VERTEX
8
0
62
2
6
CONTINUOUS
10
10.2553819680
20
19.4229240110
0
VERTEX
8
0
62
2
6
CONTINUOUS
10
10.2526280741
20
19.4217532870
0
VERTEX
8
0
62
2
6
CONTINUOUS
10
10.2498224809
20
19.4207168656
0
VERTEX
8
0
62
2
6
CONTINUOUS
10
10.2469699590
20
19.4198164528
0
VERTEX
8
0
62
2
6
CONTINUOUS
10
10.2440749958
20
19.4190535215
0
VERTEX
8
0
62
2
6
CONTINUOUS
10
10.2411417841
20
19.4184293599
0
VERTEX
8
0
62
2
6
CONTINUOUS
10
10.2381742192
20
19.4179451184
0
VERTEX
8
0
62
2
6
CONTINUOUS
10
10.2351759019
20
19.4176018567
0
VERTEX
8
0
62
2
6
CONTINUOUS
10
10.2321501486
20
19.4174005882
0
VERTEX
8
0
62
2
6
CONTINUOUS
10
10.2291000064
20
19.4173423208
0
VERTEX
8
0
62
2
6
CONTINUOUS
10
10.2260434588
20
19.4174276785
0
VERTEX
8
0
62
2
6
CONTINUOUS
10
10.2230074991
20
19.4176560194
0
VERTEX
8
0
62
2
6
CONTINUOUS
10
10.2199956476
20
19.4180265145
0
VERTEX
8
0
62
2
6
CONTINUOUS
10
10.2170117252
20
19.4185382799
0
VERTEX
8
0
62
2
6
CONTINUOUS
10
10.2140598629
20
19.4191903312
0
VERTEX
8
0
62
2
6
CONTINUOUS
10
10.2111445062
20
19.4199815352
0
VERTEX
8
0
62
2
6
CONTINUOUS
10
10.2082704108
20
19.4209105612
0
VERTEX
8
0
62
2
6
CONTINUOUS
10
10.2054426304
20
19.4219758323
0
VERTEX
8
0
62
2
6
CONTINUOUS
10
10.2026664958
20
19.4231754790
0
VERTEX
8
0
62
2
6
CONTINUOUS
10
10.1999475843
20
19.4245072973
0
VERTEX
8
0
62
2
6
CONTINUOUS
10
10.1972916801
20
19.4259687115
0
VERTEX
8
0
62
2
6
CONTINUOUS
10
10.1947047253
20
19.4275567462
0
VERTEX
8
0
62
2
6
CONTINUOUS
10
10.1921927646
20
19.4292680064
0
VERTEX
8
0
62
2
6
CONTINUOUS
10
10.1897618814
20
19.4310986702
0
VERTEX
8
0
62
2
6
CONTINUOUS
10
10.1874181319
20
19.4330444916
0
VERTEX
8
0
62
2
6
CONTINUOUS
10
10.1851674754
20
19.4351008177
0
VERTEX
8
0
62
2
6
CONTINUOUS
10
10.1830157055
20
19.4372626175
0
VERTEX
8
0
62
2
6
CONTINUOUS
10
10.1827619531
20
19.4375314826
0
VERTEX
8
0
62
2
6
CONTINUOUS
10
10.1807291306
20
19.4398034074
0
VERTEX
8
0
62
2
6
CONTINUOUS
10
10.1788077696
20
19.4421672775
0
VERTEX
8
0
62
2
6
CONTINUOUS
10
10.1770024615
20
19.4446170857
0
VERTEX
8
0
62
2
6
CONTINUOUS
10
10.1753173895
20
19.4471467318
0
VERTEX
8
0
62
2
6
CONTINUOUS
10
10.1737563129
20
19.4497500923
0
VERTEX
8
0
62
2
6
CONTINUOUS
10
10.1723225642
20
19.4524210871
0
VERTEX
8
0
62
2
6
CONTINUOUS
10
10.1710190576
20
19.4551537426
0
VERTEX
8
0
62
2
6
CONTINUOUS
10
10.1698483090
20
19.4579422474
0
VERTEX
8
0
62
2
6
CONTINUOUS
10
10.1688124650
20
19.4607810006
0
VERTEX
8
0
62
2
6
CONTINUOUS
10
10.1679133399
20
19.4636646513
0
VERTEX
8
0
62
2
6
CONTINUOUS
10
10.1671524584
20
19.4665881283
0
VERTEX
8
0
62
2
6
CONTINUOUS
10
10.1665311018
20
19.4695466615
0
VERTEX
8
0
62
2
6
CONTINUOUS
10
10.1660503573
20
19.4725357926
0
VERTEX
8
0
62
2
6
CONTINUOUS
10
10.1657111662
20
19.4755513795
0
VERTEX
8
0
62
2
6
CONTINUOUS
10
10.1655143725
20
19.4785895912
0
VERTEX
8
0
62
2
6
CONTINUOUS
10
10.1654607683
20
19.4816468980
0
SEQEND
0
POLYLINE
8
0
62
2
6
CONTINUOUS
66
1
70
0
0
VERTEX
8
0
62
2
6
CONTINUOUS
10
11.1654607683
20
19.7497468980
0
VERTEX
8
0
62
2
6
CONTINUOUS
10
11.1687024350
20
19.7497468980
0
VERTEX
8
0
62
2
6
CONTINUOUS
10
11.1690018136
20
19.7497498655
0
VERTEX
8
0
62
2
6
CONTINUOUS
10
11.1693978493
20
19.7497632282
0
VERTEX
8
0
62
2
6
CONTINUOUS
10
11.1697811207
20
19.7497870052
0
VERTEX
8
0
62
2
6
CONTINUOUS
10
11.1701511576
20
19.7498208060
0
VERTEX
8
0
62
2
6
CONTINUOUS
10
11.1705076192
20
19.7498642233
0
VERTEX
8
0
62
2
6
CONTINUOUS
10
11.1708502816
20
19.7499168413
0
VERTEX
8
0
62
2
6
CONTINUOUS
10
11.1711790261
20
19.7499782431
0
VERTEX
8
0
62
2
6
CONTINUOUS
10
11.1714938265
20
19.7500480166
0
VERTEX
8
0
62
2
6
CONTINUOUS
10
11.1717947372
20
19.7501257608
0
VERTEX
8
0
62
2
6
CONTINUOUS
10
11.1720818819
20
19.7502110900
0
VERTEX
8
0
62
2
6
CONTINUOUS
10
11.1723554421
20
19.7503036392
0
VERTEX
8
0
62
2
6
CONTINUOUS
10
11.1726156471
20
19.7504030669
0
VERTEX
8
0
62
2
6
CONTINUOUS
10
11.1728627644
20
19.7505090591
0
VERTEX
8
0
62
2
6
CONTINUOUS
10
11.1730970903
20
19.7506213319
0
VERTEX
8
0
62
2
6
CONTINUOUS
10
11.1733189415
20
19.7507396339
0
VERTEX
8
0
62
2
6
CONTINUOUS
10
11.1735286475
20
19.7508637482
0
VERTEX
8
0
62
2
6
CONTINUOUS
10
11.1737265428
20
19.7509934943
0
VERTEX
8
0
62
2
6
CONTINUOUS
10
11.1739129602
20
19.7511287289
0
VERTEX
8
0
62
2
6
CONTINUOUS
10
11.1740882244
20
19.7512693475
0
VERTEX
8
0
62
2
6
CONTINUOUS
10
11.1742526460
20
19.7514152842
0
VERTEX
8
0
62
2
6
CONTINUOUS
10
11.1744065156
20
19.7515665124
0
VERTEX
8
0
62
2
6
CONTINUOUS
10
11.1745500990
20
19.7517230444
0
VERTEX
8
0
62
2
6
CONTINUOUS
10
11.1746836324
20
19.7518849305
0
VERTEX
8
0
62
2
6
CONTINUOUS
10
11.1748073178
20
19.7520522583
0
VERTEX
8
0
62
2
6
CONTINUOUS
10
11.1749213198
20
19.7522251511
0
VERTEX
8
0
62
2
6
CONTINUOUS
10
11.1750257618
20
19.7524037662
0
VERTEX
8
0
62
2
6
CONTINUOUS
10
11.1751207235
20
19.7525882928
0
VERTEX
8
0
62
2
6
CONTINUOUS
10
11.1752062389
20
19.7527789495
0
VERTEX
8
0
62
2
6
CONTINUOUS
10
11.1752822947
20
19.7529759821
0
VERTEX
8
0
62
2
6
CONTINUOUS
10
11.1753488292
20
19.7531796605
0
VERTEX
8
0
62
2
6
CONTINUOUS
10
11.1754057319
20
19.7533902766
0
VERTEX
8
0
62
2
6
CONTINUOUS
10
11.1754528077
20
19.7536079511
0
VERTEX
8
0
62
2
6
CONTINUOUS
10
11.1754898691
20
19.7538329443
0
VERTEX
8
0
62
2
6
CONTINUOUS
10
11.1755166972
20
19.7540655896
0
VERTEX
8
0
62
2
6
CONTINUOUS
10
11.1755330265
20
19.7543062331
0
VERTEX
8
0
62
2
6
CONTINUOUS
10
11.1755385461
20
19.7545552313
0
VERTEX
8
0
62
2
6
CONTINUOUS
10
11.1755341695
20
19.7547658345
0
VERTEX
8
0
62
2
6
CONTINUOUS
10
11.1755189373
20
19.7549987062
0
VERTEX
8
0
62
2
6
CONTINUOUS
10
11.1754929613
20
19.7552275304
0
VERTEX
8
0
62
2
6
CONTINUOUS
10
11.1754564262
20
19.7554519555
0
VERTEX
8
0
62
2
6
CONTINUOUS
10
11.1754095148
20
19.7556716952
0
VERTEX
8
0
62
2
6
CONTINUOUS
10
11.1753524009
20
19.7558865200
0
VERTEX
8
0
62
2
6
CONTINUOUS
10
11.1752852429
20
19.7560962494
0
VERTEX
8
0
62
2
6
CONTINUOUS
10
11.1752081784
20
19.7563007441
0
VERTEX
8
0
62
2
6
CONTINUOUS
10
11.1751213198
20
19.7564998980
0
VERTEX
8
0
62
2
6
CONTINUOUS
10
11.1750247515
20
19.7566936304
0
VERTEX
8
0
62
2
6
CONTINUOUS
10
11.1749185267
20
19.7568818792
0
VERTEX
8
0
62
2
6
CONTINUOUS
10
11.1748026668
20
19.7570645943
0
VERTEX
8
0
62
2
6
CONTINUOUS
10
11.1746771595
20
19.7572417316
0
VERTEX
8
0
62
2
6
CONTINUOUS
10
11.1745419596
20
19.7574132475
0
VERTEX
8
0
62
2
6
CONTINUOUS
10
11.1743969887
20
19.7575790942
0
VERTEX
8
0
62
2
6
CONTINUOUS
10
11.1742421363
20
19.7577392154
0
VERTEX
8
0
62
2
6
CONTINUOUS
10
11.1740772610
20
19.7578935428
0
VERTEX
8
0
62
2
6
CONTINUOUS
10
11.1739021923
20
19.7580419934
0
VERTEX
8
0
62
2
6
CONTINUOUS
10
11.1737167318
20
19.7581844665
0
VERTEX
8
0
62
2
6
CONTINUOUS
10
11.1735206558
20
19.7583208423
0
VERTEX
8
0
62
2
6
CONTINUOUS
10
11.1733137168
20
19.7584509802
0
VERTEX
8
0
62
2
6
CONTINUOUS
10
11.1730956460
20
19.7585747182
0
VERTEX
8
0
62
2
6
CONTINUOUS
10
11.1728661553
20
19.7586918719
0
VERTEX
8
0
62
2
6
CONTINUOUS
10
11.1726250078
20
19.7588022047
0
VERTEX
8
0
62
2
6
CONTINUOUS
10
11.1723719660
20
19.7589054653
0
VERTEX
8
0
62
2
6
CONTINUOUS
10
11.1721067023
20
19.7590014200
0
VERTEX
8
0
62
2
6
CONTINUOUS
10
11.1718288762
20
19.7590898127
0
VERTEX
8
0
62
2
6
CONTINUOUS
10
11.1715381359
20
19.7591703657
0
VERTEX
8
0
62
2
6
CONTINUOUS
10
11.1712341197
20
19.7592427803
0
VERTEX
8
0
62
2
6
CONTINUOUS
10
11.1709164574
20
19.7593067376
0
VERTEX
8
0
62
2
6
CONTINUOUS
10
11.1705847719
20
19.7593618997
0
VERTEX
8
0
62
2
6
CONTINUOUS
10
11.1702386801
20
19.7594079103
0
VERTEX
8
0
62
2
6
CONTINUOUS
10
11.1698777941
20
19.7594443961
0
VERTEX
8
0
62
2
6
CONTINUOUS
10
11.1695017218
20
19.7594709672
0
VERTEX
8
0
62
2
6
CONTINUOUS
10
11.1691100680
20
19.7594872187
0
VERTEX
8
0
62
2
6
CONTINUOUS
10
11.1687024350
20
19.7594927313
0
VERTEX
8
0
62
2
6
CONTINUOUS
10
11.1681841040
20
19.7594873679
0
VERTEX
8
0
62
2
6
CONTINUOUS
10
11.1676901370
20
19.7594716520
0
VERTEX
8
0
62
2
6
CONTINUOUS
10
11.1672168176
20
19.7594460529
0
VERTEX
8
0
62
2
6
CONTINUOUS
10
11.1667592615
20
19.7594108544
0
VERTEX
8
0
62
2
6
CONTINUOUS
10
11.1663102272
20
19.7593659972
0
VERTEX
8
0
62
2
6
CONTINUOUS
10
11.1658568493
20
19.7593106473
0
VERTEX
8
0
62
2
6
CONTINUOUS
10
11.1654607683
20
19.7592552313
0
SEQEND
0
LINE
8
0
62
2
6
CONTINUOUS
10
11.1654607683
20
19.7592552313
11
11.1654607683
21
19.7497468980
0
LINE
8
0
62
2
6
CONTINUOUS
10
11.1654607683
20
19.7341830091
11
11.1609857683
21
19.7341830091
0
LINE
8
0
62
2
6
CONTINUOUS
10
11.1609857683
20
19.7341830091
11
11.1609857683
21
19.7622802313
0
POLYLINE
8
0
62
2
6
CONTINUOUS
66
1
70
0
0
VERTEX
8
0
62
2
6
CONTINUOUS
10
11.1609857683
20
19.7622802313
0
VERTEX
8
0
62
2
6
CONTINUOUS
10
11.1612154405
20
19.7623140581
0
VERTEX
8
0
62
2
6
CONTINUOUS
10
11.1624540124
20
19.7624916074
0
VERTEX
8
0
62
2
6
CONTINUOUS
10
11.1634553816
20
19.7626218525
0
VERTEX
8
0
62
2
6
CONTINUOUS
10
11.1643693461
20
19.7627244789
0
VERTEX
8
0
62
2
6
CONTINUOUS
10
11.1652514402
20
19.7628059334
0
VERTEX
8
0
62
2
6
CONTINUOUS
10
11.1661313647
20
19.7628688136
0
VERTEX
8
0
62
2
6
CONTINUOUS
10
11.1670287089
20
19.7629140496
0
VERTEX
8
0
62
2
6
CONTINUOUS
10
11.1679583865
20
19.7629416582
0
VERTEX
8
0
62
2
6
CONTINUOUS
10
11.1689329905
20
19.7629510647
0
VERTEX
8
0
62
2
6
CONTINUOUS
10
11.1696012230
20
19.7629435913
0
VERTEX
8
0
62
2
6
CONTINUOUS
10
11.1703258906
20
19.7629176213
0
VERTEX
8
0
62
2
6
CONTINUOUS
10
11.1710180927
20
19.7628738601
0
VERTEX
8
0
62
2
6
CONTINUOUS
10
11.1716784857
20
19.7628131330
0
VERTEX
8
0
62
2
6
CONTINUOUS
10
11.1723077283
20
19.7627362543
0
VERTEX
8
0
62
2
6
CONTINUOUS
10
11.1729064807
20
19.7626440260
0
VERTEX
8
0
62
2
6
CONTINUOUS
10
11.1734754044
20
19.7625372358
0
VERTEX
8
0
62
2
6
CONTINUOUS
10
11.1740151609
20
19.7624166566
0
VERTEX
8
0
62
2
6
CONTINUOUS
10
11.1745264107
20
19.7622830441
0
VERTEX
8
0
62
2
6
CONTINUOUS
10
11.1750098119
20
19.7621371357
0
VERTEX
8
0
62
2
6
CONTINUOUS
10
11.1754660186
20
19.7619796487
0
VERTEX
8
0
62
2
6
CONTINUOUS
10
11.1758956787
20
19.7618112788
0
VERTEX
8
0
62
2
6
CONTINUOUS
10
11.1762994321
20
19.7616326985
0
VERTEX
8
0
62
2
6
CONTINUOUS
10
11.1766779071
20
19.7614445557
0
VERTEX
8
0
62
2
6
CONTINUOUS
10
11.1770317182
20
19.7612474727
0
VERTEX
8
0
62
2
6
CONTINUOUS
10
11.1773614618
20
19.7610420452
0
VERTEX
8
0
62
2
6
CONTINUOUS
10
11.1775174961
20
19.7609363762
0
VERTEX
8
0
62
2
6
CONTINUOUS
10
11.1776677127
20
19.7608288424
0
VERTEX
8
0
62
2
6
CONTINUOUS
10
11.1779423502
20
19.7606148288
0
VERTEX
8
0
62
2
6
CONTINUOUS
10
11.1782004239
20
19.7603895073
0
VERTEX
8
0
62
2
6
CONTINUOUS
10
11.1784424864
20
19.7601527120
0
VERTEX
8
0
62
2
6
CONTINUOUS
10
11.1786690065
20
19.7599041931
0
VERTEX
8
0
62
2
6
CONTINUOUS
10
11.1788803644
20
19.7596436193
0
VERTEX
8
0
62
2
6
CONTINUOUS
10
11.1790768475
20
19.7593705810
0
VERTEX
8
0
62
2
6
CONTINUOUS
10
11.1791695891
20
19.7592292163
0
VERTEX
8
0
62
2
6
CONTINUOUS
10
11.1792586386
20
19.7590846077
0
VERTEX
8
0
62
2
6
CONTINUOUS
10
11.1794255937
20
19.7587856036
0
VERTEX
8
0
62
2
6
CONTINUOUS
10
11.1795777816
20
19.7584729936
0
VERTEX
8
0
62
2
6
CONTINUOUS
10
11.1797151702
20
19.7581461402
0
VERTEX
8
0
62
2
6
CONTINUOUS
10
11.1798376259
20
19.7578043484
0
VERTEX
8
0
62
2
6
CONTINUOUS
10
11.1799449156
20
19.7574468714
0
VERTEX
8
0
62
2
6
CONTINUOUS
10
11.1800367082
20
19.7570729159
0
VERTEX
8
0
62
2
6
CONTINUOUS
10
11.1801125782
20
19.7566816472
0
VERTEX
8
0
62
2
6
CONTINUOUS
10
11.1801720082
20
19.7562721936
0
VERTEX
8
0
62
2
6
CONTINUOUS
10
11.1802143935
20
19.7558436510
0
VERTEX
8
0
62
2
6
CONTINUOUS
10
11.1802390452
20
19.7553950863
0
VERTEX
8
0
62
2
6
CONTINUOUS
10
11.1802454905
20
19.7550093980
0
VERTEX
8
0
62
2
6
CONTINUOUS
10
11.1802358727
20
19.7546137219
0
VERTEX
8
0
62
2
6
CONTINUOUS
10
11.1802073734
20
19.7542293367
0
VERTEX
8
0
62
2
6
CONTINUOUS
10
11.1801604740
20
19.7538558938
0
VERTEX
8
0
62
2
6
CONTINUOUS
10
11.1800955891
20
19.7534930609
0
VERTEX
8
0
62
2
6
CONTINUOUS
10
11.1800130651
20
19.7531405281
0
VERTEX
8
0
62
2
6
CONTINUOUS
10
11.1799131809
20
19.7527980126
0
VERTEX
8
0
62
2
6
CONTINUOUS
10
11.1797961492
20
19.7524652648
0
VERTEX
8
0
62
2
6
CONTINUOUS
10
11.1796621192
20
19.7521420740
0
VERTEX
8
0
62
2
6
CONTINUOUS
10
11.1795111805
20
19.7518282745
0
VERTEX
8
0
62
2
6
CONTINUOUS
10
11.1793433689
20
19.7515237512
0
VERTEX
8
0
62
2
6
CONTINUOUS
10
11.1791586735
20
19.7512284455
0
VERTEX
8
0
62
2
6
CONTINUOUS
10
11.1789570454
20
19.7509423602
0
VERTEX
8
0
62
2
6
CONTINUOUS
10
11.1787384085
20
19.7506655641
0
VERTEX
8
0
62
2
6
CONTINUOUS
10
11.1785026718
20
19.7503981960
0
VERTEX
8
0
62
2
6
CONTINUOUS
10
11.1782497433
20
19.7501404676
0
VERTEX
8
0
62
2
6
CONTINUOUS
10
11.1779795461
20
19.7498926655
0
VERTEX
8
0
62
2
6
CONTINUOUS
10
11.1776920354
20
19.7496551514
0
VERTEX
8
0
62
2
6
CONTINUOUS
10
11.1773872181
20
19.7494283617
0
VERTEX
8
0
62
2
6
CONTINUOUS
10
11.1770651724
20
19.7492128048
0
VERTEX
8
0
62
2
6
CONTINUOUS
10
11.1767260696
20
19.7490090567
0
VERTEX
8
0
62
2
6
CONTINUOUS
10
11.1763701960
20
19.7488177548
0
VERTEX
8
0
62
2
6
CONTINUOUS
10
11.1759979745
20
19.7486395889
0
VERTEX
8
0
62
2
6
CONTINUOUS
10
11.1756099864
20
19.7484752897
0
VERTEX
8
0
62
2
6
CONTINUOUS
10
11.1752069908
20
19.7483256157
0
VERTEX
8
0
62
2
6
CONTINUOUS
10
11.1747899414
20
19.7481913356
0
VERTEX
8
0
62
2
6
CONTINUOUS
10
11.1747524350
20
19.7481802313
0
SEQEND
0
LINE
8
0
62
2
6
CONTINUOUS
10
11.1747524350
20
19.7481802313
11
11.1747524350
21
19.7479566202
0
LINE
8
0
62
2
6
CONTINUOUS
10
11.1747524350
20
19.7479566202
11
11.1812357683
21
19.7341830091
0
LINE
8
0
62
2
6
CONTINUOUS
10
11.1812357683
20
19.7341830091
11
11.1765427127
21
19.7341830091
0
LINE
8
0
62
2
6
CONTINUOUS
10
11.1765427127
20
19.7341830091
11
11.1746441016
21
19.7413455091
0
LINE
8
0
62
2
6
CONTINUOUS
10
11.1746441016
20
19.7413455091
11
11.1654607683
21
19.7462816202
0
LINE
8
0
62
2
6
CONTINUOUS
10
11.1654607683
20
19.7462816202
11
11.1654607683
21
19.7341830091
0
CIRCLE
8
0
62
2
6
CONTINUOUS
10
11.1702218794
20
19.7498855726
40
0.0202280646
0
POLYLINE
8
0
62
2
6
CONTINUOUS
66
1
70
0
0
VERTEX
8
0
62
2
6
CONTINUOUS
10
11.1950163239
20
19.7488524535
0
VERTEX
8
0
62
2
6
CONTINUOUS
10
11.1950233411
20
19.7470418336
0
VERTEX
8
0
62
2
6
CONTINUOUS
10
11.1949766845
20
19.7453480433
0
VERTEX
8
0
62
2
6
CONTINUOUS
10
11.1948796458
20
19.7437622290
0
VERTEX
8
0
62
2
6
CONTINUOUS
10
11.1947351620
20
19.7422763229
0
VERTEX
8
0
62
2
6
CONTINUOUS
10
11.1945458326
20
19.7408829462
0
VERTEX
8
0
62
2
6
CONTINUOUS
10
11.1943139293
20
19.7395753312
0
VERTEX
8
0
62
2
6
CONTINUOUS
10
11.1940414019
20
19.7383472567
0
VERTEX
8
0
62
2
6
CONTINUOUS
10
11.1937298788
20
19.7371929969
0
VERTEX
8
0
62
2
6
CONTINUOUS
10
11.1933806642
20
19.7361072805
0
VERTEX
8
0
62
2
6
CONTINUOUS
10
11.1929947333
20
19.7350852590
0
VERTEX
8
0
62
2
6
CONTINUOUS
10
11.1925727250
20
19.7341224828
0
VERTEX
8
0
62
2
6
CONTINUOUS
10
11.1921149337
20
19.7332148845
0
VERTEX
8
0
62
2
6
CONTINUOUS
10
11.1916213012
20
19.7323587677
0
VERTEX
8
0
62
2
6
CONTINUOUS
10
11.1910914084
20
19.7315508005
0
VERTEX
8
0
62
2
6
CONTINUOUS
10
11.1905244684
20
19.7307880133
0
VERTEX
8
0
62
2
6
CONTINUOUS
10
11.1899193207
20
19.7300677980
0
VERTEX
8
0
62
2
6
CONTINUOUS
10
11.1892744273
20
19.7293879102
0
VERTEX
8
0
62
2
6
CONTINUOUS
10
11.1885890791
20
19.7287475349
0
VERTEX
8
0
62
2
6
CONTINUOUS
10
11.1878616517
20
19.7281453214
0
VERTEX
8
0
62
2
6
CONTINUOUS
10
11.1870897531
20
19.7275798512
0
VERTEX
8
0
62
2
6
CONTINUOUS
10
11.1862706196
20
19.7270500767
0
VERTEX
8
0
62
2
6
CONTINUOUS
10
11.1854011171
20
19.7265553158
0
VERTEX
8
0
62
2
6
CONTINUOUS
10
11.1844777405
20
19.7260952456
0
VERTEX
8
0
62
2
6
CONTINUOUS
10
11.1834966091
20
19.7256698948
0
VERTEX
8
0
62
2
6
CONTINUOUS
10
11.1824534588
20
19.7252796347
0
VERTEX
8
0
62
2
6
CONTINUOUS
10
11.1813436282
20
19.7249251711
0
VERTEX
8
0
62
2
6
CONTINUOUS
10
11.1801620386
20
19.7246075355
0
VERTEX
8
0
62
2
6
CONTINUOUS
10
11.1789031662
20
19.7243280783
0
VERTEX
8
0
62
2
6
CONTINUOUS
10
11.1775610060
20
19.7240884642
0
VERTEX
8
0
62
2
6
CONTINUOUS
10
11.1761290255
20
19.7238906699
0
VERTEX
8
0
62
2
6
CONTINUOUS
10
11.1746001064
20
19.7237369860
0
VERTEX
8
0
62
2
6
CONTINUOUS
10
11.1729664730
20
19.7236300232
0
VERTEX
8
0
62
2
6
CONTINUOUS
10
11.1712196033
20
19.7235727244
0
VERTEX
8
0
62
2
6
CONTINUOUS
10
11.1702184812
20
19.7235635692
0
VERTEX
8
0
62
2
6
CONTINUOUS
10
11.1684284204
20
19.7235884875
0
VERTEX
8
0
62
2
6
CONTINUOUS
10
11.1667540210
20
19.7236651016
0
VERTEX
8
0
62
2
6
CONTINUOUS
10
11.1651865097
20
19.7237902977
0
VERTEX
8
0
62
2
6
CONTINUOUS
10
11.1637178765
20
19.7239613082
0
VERTEX
8
0
62
2
6
CONTINUOUS
10
11.1623407859
20
19.7241756979
0
VERTEX
8
0
62
2
6
CONTINUOUS
10
11.1610485027
20
19.7244313557
0
VERTEX
8
0
62
2
6
CONTINUOUS
10
11.1598348331
20
19.7247264913
0
VERTEX
8
0
62
2
6
CONTINUOUS
10
11.1586940753
20
19.7250596358
0
VERTEX
8
0
62
2
6
CONTINUOUS
10
11.1576209818
20
19.7254296457
0
VERTEX
8
0
62
2
6
CONTINUOUS
10
11.1566107288
20
19.7258357084
0
VERTEX
8
0
62
2
6
CONTINUOUS
10
11.1556588942
20
19.7262773507
0
VERTEX
8
0
62
2
6
CONTINUOUS
10
11.1547614409
20
19.7267544470
0
VERTEX
8
0
62
2
6
CONTINUOUS
10
11.1539147066
20
19.7272672285
0
VERTEX
8
0
62
2
6
CONTINUOUS
10
11.1531153972
20
19.7278162916
0
VERTEX
8
0
62
2
6
CONTINUOUS
10
11.1523605839
20
19.7284026058
0
VERTEX
8
0
62
2
6
CONTINUOUS
10
11.1516477025
20
19.7290275206
0
VERTEX
8
0
62
2
6
CONTINUOUS
10
11.1509751707
20
19.7296921239
0
VERTEX
8
0
62
2
6
CONTINUOUS
10
11.1503419201
20
19.7303973896
0
VERTEX
8
0
62
2
6
CONTINUOUS
10
11.1497462114
20
19.7311455370
0
VERTEX
8
0
62
2
6
CONTINUOUS
10
11.1491866762
20
19.7319391690
0
VERTEX
8
0
62
2
6
CONTINUOUS
10
11.1486623117
20
19.7327812741
0
VERTEX
8
0
62
2
6
CONTINUOUS
10
11.1481724752
20
19.7336752305
0
VERTEX
8
0
62
2
6
CONTINUOUS
10
11.1477168762
20
19.7346248124
0
VERTEX
8
0
62
2
6
CONTINUOUS
10
11.1472955688
20
19.7356342027
0
VERTEX
8
0
62
2
6
CONTINUOUS
10
11.1469089421
20
19.7367080101
0
VERTEX
8
0
62
2
6
CONTINUOUS
10
11.1465577126
20
19.7378512947
0
VERTEX
8
0
62
2
6
CONTINUOUS
10
11.1462429168
20
19.7390696027
0
VERTEX
8
0
62
2
6
CONTINUOUS
10
11.1459659058
20
19.7403690111
0
VERTEX
8
0
62
2
6
CONTINUOUS
10
11.1457283432
20
19.7417561861
0
VERTEX
8
0
62
2
6
CONTINUOUS
10
11.1455322069
20
19.7432384569
0
VERTEX
8
0
62
2
6
CONTINUOUS
10
11.1453797957
20
19.7448239083
0
VERTEX
8
0
62
2
6
CONTINUOUS
10
11.1452737427
20
19.7465214973
0
VERTEX
8
0
62
2
6
CONTINUOUS
10
11.1452170365
20
19.7483411989
0
VERTEX
8
0
62
2
6
CONTINUOUS
10
11.1452116464
20
19.7487456623
0
VERTEX
8
0
62
2
6
CONTINUOUS
10
11.1452258962
20
19.7500865470
0
VERTEX
8
0
62
2
6
CONTINUOUS
10
11.1452955339
20
19.7513906839
0
VERTEX
8
0
62
2
6
CONTINUOUS
10
11.1454191138
20
19.7526587122
0
VERTEX
8
0
62
2
6
CONTINUOUS
10
11.1455953057
20
19.7538912399
0
VERTEX
8
0
62
2
6
CONTINUOUS
10
11.1458228968
20
19.7550888352
0
VERTEX
8
0
62
2
6
CONTINUOUS
10
11.1461007916
20
19.7562520161
0
VERTEX
8
0
62
2
6
CONTINUOUS
10
11.1464280103
20
19.7573812395
0
VERTEX
8
0
62
2
6
CONTINUOUS
10
11.1468036850
20
19.7584768900
0
VERTEX
8
0
62
2
6
CONTINUOUS
10
11.1472270536
20
19.7595392683
0
VERTEX
8
0
62
2
6
CONTINUOUS
10
11.1476974518
20
19.7605685795
0
VERTEX
8
0
62
2
6
CONTINUOUS
10
11.1482143014
20
19.7615649212
0
VERTEX
8
0
62
2
6
CONTINUOUS
10
11.1487770966
20
19.7625282729
0
VERTEX
8
0
62
2
6
CONTINUOUS
10
11.1493853867
20
19.7634584849
0
VERTEX
8
0
62
2
6
CONTINUOUS
10
11.1500387555
20
19.7643552699
0
VERTEX
8
0
62
2
6
CONTINUOUS
10
11.1507367987
20
19.7652181949
0
VERTEX
8
0
62
2
6
CONTINUOUS
10
11.1514790968
20
19.7660466758
0
VERTEX
8
0
62
2
6
CONTINUOUS
10
11.1522651863
20
19.7668399743
0
VERTEX
8
0
62
2
6
CONTINUOUS
10
11.1530945276
20
19.7675971975
0
VERTEX
8
0
62
2
6
CONTINUOUS
10
11.1539664716
20
19.7683173012
0
VERTEX
8
0
62
2
6
CONTINUOUS
10
11.1548802239
20
19.7689990966
0
VERTEX
8
0
62
2
6
CONTINUOUS
10
11.1558348095
20
19.7696412615
0
VERTEX
8
0
62
2
6
CONTINUOUS
10
11.1568290366
20
19.7702423554
0
VERTEX
8
0
62
2
6
CONTINUOUS
10
11.1578614629
20
19.7708008405
0
VERTEX
8
0
62
2
6
CONTINUOUS
10
11.1589303644
20
19.7713151057
0
VERTEX
8
0
62
2
6
CONTINUOUS
10
11.1600337088
20
19.7717834971
0
VERTEX
8
0
62
2
6
CONTINUOUS
10
11.1611691351
20
19.7722043517
0
VERTEX
8
0
62
2
6
CONTINUOUS
10
11.1623339409
20
19.7725760348
0
VERTEX
8
0
62
2
6
CONTINUOUS
10
11.1635250798
20
19.7728969807
0
VERTEX
8
0
62
2
6
CONTINUOUS
10
11.1647391692
20
19.7731657347
0
VERTEX
8
0
62
2
6
CONTINUOUS
10
11.1659725097
20
19.7733809941
0
VERTEX
8
0
62
2
6
CONTINUOUS
10
11.1672211182
20
19.7735416485
0
VERTEX
8
0
62
2
6
CONTINUOUS
10
11.1684807709
20
19.7736468150
0
VERTEX
8
0
62
2
6
CONTINUOUS
10
11.1697470590
20
19.7736958681
0
VERTEX
8
0
62
2
6
CONTINUOUS
10
11.1706109720
20
19.7736969650
0
VERTEX
8
0
62
2
6
CONTINUOUS
10
11.1718766490
20
19.7736511466
0
VERTEX
8
0
62
2
6
CONTINUOUS
10
11.1731351370
20
19.7735492508
0
VERTEX
8
0
62
2
6
CONTINUOUS
10
11.1743820478
20
19.7733919208
0
VERTEX
8
0
62
2
6
CONTINUOUS
10
11.1756131866
20
19.7731800550
0
VERTEX
8
0
62
2
6
CONTINUOUS
10
11.1768246057
20
19.7729147764
0
VERTEX
8
0
62
2
6
CONTINUOUS
10
11.1780126472
20
19.7725973970
0
VERTEX
8
0
62
2
6
CONTINUOUS
10
11.1791739734
20
19.7722293775
0
VERTEX
8
0
62
2
6
CONTINUOUS
10
11.1803055860
20
19.7718122855
0
VERTEX
8
0
62
2
6
CONTINUOUS
10
11.1814048317
20
19.7713477540
0
VERTEX
8
0
62
2
6
CONTINUOUS
10
11.1824693985
20
19.7708374407
0
VERTEX
8
0
62
2
6
CONTINUOUS
10
11.1834973021
20
19.7702829907
0
VERTEX
8
0
62
2
6
CONTINUOUS
10
11.1844868642
20
19.7696860028
0
VERTEX
8
0
62
2
6
CONTINUOUS
10
11.1854366852
20
19.7690479997
0
VERTEX
8
0
62
2
6
CONTINUOUS
10
11.1863456126
20
19.7683704040
0
VERTEX
8
0
62
2
6
CONTINUOUS
10
11.1872127060
20
19.7676545176
0
VERTEX
8
0
62
2
6
CONTINUOUS
10
11.1880372015
20
19.7669015070
0
VERTEX
8
0
62
2
6
CONTINUOUS
10
11.1888184757
20
19.7661123923
0
VERTEX
8
0
62
2
6
CONTINUOUS
10
11.1895560098
20
19.7652880408
0
VERTEX
8
0
62
2
6
CONTINUOUS
10
11.1902493560
20
19.7644291642
0
VERTEX
8
0
62
2
6
CONTINUOUS
10
11.1908981057
20
19.7635363191
0
VERTEX
8
0
62
2
6
CONTINUOUS
10
11.1915018608
20
19.7626099105
0
VERTEX
8
0
62
2
6
CONTINUOUS
10
11.1920602069
20
19.7616501976
0
VERTEX
8
0
62
2
6
CONTINUOUS
10
11.1925726904
20
19.7606573018
0
VERTEX
8
0
62
2
6
CONTINUOUS
10
11.1930387986
20
19.7596312156
0
VERTEX
8
0
62
2
6
CONTINUOUS
10
11.1934579430
20
19.7585718140
0
VERTEX
8
0
62
2
6
CONTINUOUS
10
11.1938294452
20
19.7574788651
0
VERTEX
8
0
62
2
6
CONTINUOUS
10
11.1941525260
20
19.7563520424
0
VERTEX
8
0
62
2
6
CONTINUOUS
10
11.1944262979
20
19.7551909362
0
VERTEX
8
0
62
2
6
CONTINUOUS
10
11.1946497590
20
19.7539950657
0
VERTEX
8
0
62
2
6
CONTINUOUS
10
11.1948217897
20
19.7527638904
0
VERTEX
8
0
62
2
6
CONTINUOUS
10
11.1949411515
20
19.7514968205
0
VERTEX
8
0
62
2
6
CONTINUOUS
10
11.1950064875
20
19.7501932276
0
VERTEX
8
0
62
2
6
CONTINUOUS
10
11.1950184400
20
19.7495274935
0
VERTEX
8
0
62
2
6
CONTINUOUS
10
11.1950163239
20
19.7488524535
0
SEQEND
0
POLYLINE
8
0
62
2
6
CONTINUOUS
66
1
70
0
0
VERTEX
8
0
62
2
6
CONTINUOUS
10
11.2553732683
20
20.1548371758
0
VERTEX
8
0
62
2
6
CONTINUOUS
10
11.2553732683
20
19.6452343980
0
VERTEX
8
0
62
2
6
CONTINUOUS
10
10.9890874350
20
19.6452343980
0
VERTEX
8
0
62
2
6
CONTINUOUS
10
10.2131988239
20
19.6452343980
0
VERTEX
8
0
62
2
6
CONTINUOUS
10
9.4373102127
20
19.6452343980
0
VERTEX
8
0
62
2
6
CONTINUOUS
10
8.6614216016
20
19.6452343980
0
VERTEX
8
0
62
2
6
CONTINUOUS
10
7.8855329905
20
19.6452343980
0
VERTEX
8
0
62
2
6
CONTINUOUS
10
7.8855329905
20
20.1548371758
0
VERTEX
8
0
62
2
6
CONTINUOUS
10
8.1518188239
20
20.1548371758
0
VERTEX
8
0
62
2
6
CONTINUOUS
10
8.9277074350
20
20.1548371758
0
VERTEX
8
0
62
2
6
CONTINUOUS
10
9.7035960461
20
20.1548371758
0
VERTEX
8
0
62
2
6
CONTINUOUS
10
10.4794846572
20
20.1548371758
0
VERTEX
8
0
62
2
6
CONTINUOUS
10
11.2553732683
20
20.1548371758
0
SEQEND
0
POLYLINE
8
0
62
2
6
CONTINUOUS
66
1
70
0
0
VERTEX
8
0
62
2
6
CONTINUOUS
10
11.2486454905
20
20.1481232869
0
VERTEX
8
0
62
2
6
CONTINUOUS
10
11.2486454905
20
19.6519482869
0
VERTEX
8
0
62
2
6
CONTINUOUS
10
10.9743057683
20
19.6519482869
0
VERTEX
8
0
62
2
6
CONTINUOUS
10
10.2037910461
20
19.6519482869
0
VERTEX
8
0
62
2
6
CONTINUOUS
10
9.4332763239
20
19.6519482869
0
VERTEX
8
0
62
2
6
CONTINUOUS
10
8.6627616016
20
19.6519482869
0
VERTEX
8
0
62
2
6
CONTINUOUS
10
7.8922468794
20
19.6519482869
0
VERTEX
8
0
62
2
6
CONTINUOUS
10
7.8922468794
20
20.1481232869
0
VERTEX
8
0
62
2
6
CONTINUOUS
10
8.1665866016
20
20.1481232869
0
VERTEX
8
0
62
2
6
CONTINUOUS
10
8.9371013239
20
20.1481232869
0
VERTEX
8
0
62
2
6
CONTINUOUS
10
9.7076160461
20
20.1481232869
0
VERTEX
8
0
62
2
6
CONTINUOUS
10
10.4781307683
20
20.1481232869
0
VERTEX
8
0
62
2
6
CONTINUOUS
10
11.2486454905
20
20.1481232869
0
SEQEND
0
POLYLINE
8
0
62
2
6
CONTINUOUS
66
1
70
0
0
VERTEX
8
0
62
2
6
CONTINUOUS
10
7.8332066016
20
20.2071455091
0
VERTEX
8
0
62
2
6
CONTINUOUS
10
7.8332066016
20
19.5929343980
0
VERTEX
8
0
62
2
6
CONTINUOUS
10
8.0367310461
20
19.5929343980
0
VERTEX
8
0
62
2
6
CONTINUOUS
10
8.8544666016
20
19.5929343980
0
VERTEX
8
0
62
2
6
CONTINUOUS
10
9.6722021572
20
19.5929343980
0
VERTEX
8
0
62
2
6
CONTINUOUS
10
10.4899377127
20
19.5929343980
0
VERTEX
8
0
62
2
6
CONTINUOUS
10
11.3076732683
20
19.5929343980
0
VERTEX
8
0
62
2
6
CONTINUOUS
10
11.3076732683
20
20.2071455091
0
VERTEX
8
0
62
2
6
CONTINUOUS
10
11.1041488239
20
20.2071455091
0
VERTEX
8
0
62
2
6
CONTINUOUS
10
10.2864132683
20
20.2071455091
0
VERTEX
8
0
62
2
6
CONTINUOUS
10
9.4686777127
20
20.2071455091
0
VERTEX
8
0
62
2
6
CONTINUOUS
10
8.6509421572
20
20.2071455091
0
VERTEX
8
0
62
2
6
CONTINUOUS
10
7.8332066016
20
20.2071455091
0
SEQEND
0
LINE
8
0
62
2
6
CONTINUOUS
10
11.0792788239
20
20.0108899535
11
11.0771093794
21
20.0108899535
0
ARC
8
0
62
2
6
CONTINUOUS
10
10.9621558506
20
19.8179881324
40
0.2245560651
50
59.2085551990
51
93.5831215674
0
POLYLINE
8
0
62
2
6
CONTINUOUS
66
1
70
0
0
VERTEX
8
0
62
2
6
CONTINUOUS
10
10.9481218794
20
20.0421052313
0
VERTEX
8
0
62
2
6
CONTINUOUS
10
10.9382566870
20
20.0419691294
0
VERTEX
8
0
62
2
6
CONTINUOUS
10
10.9275368578
20
20.0415054926
0
VERTEX
8
0
62
2
6
CONTINUOUS
10
10.9170372185
20
20.0407200109
0
VERTEX
8
0
62
2
6
CONTINUOUS
10
10.9067763403
20
20.0396208766
0
VERTEX
8
0
62
2
6
CONTINUOUS
10
10.8967718271
20
20.0382171905
0
VERTEX
8
0
62
2
6
CONTINUOUS
10
10.8870401366
20
20.0365188864
0
VERTEX
8
0
62
2
6
CONTINUOUS
10
10.8775964184
20
20.0345366377
0
VERTEX
8
0
62
2
6
CONTINUOUS
10
10.8684543766
20
20.0322817464
0
VERTEX
8
0
62
2
6
CONTINUOUS
10
10.8596261598
20
20.0297660168
0
VERTEX
8
0
62
2
6
CONTINUOUS
10
10.8511222824
20
20.0270016183
0
VERTEX
8
0
62
2
6
CONTINUOUS
10
10.8429515797
20
20.0240009400
0
VERTEX
8
0
62
2
6
CONTINUOUS
10
10.8351211967
20
20.0207764401
0
VERTEX
8
0
62
2
6
CONTINUOUS
10
10.8276366119
20
20.0173404959
0
VERTEX
8
0
62
2
6
CONTINUOUS
10
10.8205016941
20
20.0137052557
0
VERTEX
8
0
62
2
6
CONTINUOUS
10
10.8137187899
20
20.0098824971
0
VERTEX
8
0
62
2
6
CONTINUOUS
10
10.8072888385
20
20.0058834946
0
VERTEX
8
0
62
2
6
CONTINUOUS
10
10.8012115115
20
20.0017188989
0
VERTEX
8
0
62
2
6
CONTINUOUS
10
10.7954853718
20
19.9973986303
0
VERTEX
8
0
62
2
6
CONTINUOUS
10
10.7901080493
20
19.9929317867
0
VERTEX
8
0
62
2
6
CONTINUOUS
10
10.7850764279
20
19.9883265689
0
VERTEX
8
0
62
2
6
CONTINUOUS
10
10.7803868394
20
19.9835902235
0
VERTEX
8
0
62
2
6
CONTINUOUS
10
10.7760352619
20
19.9787290030
0
VERTEX
8
0
62
2
6
CONTINUOUS
10
10.7720175168
20
19.9737481449
0
VERTEX
8
0
62
2
6
CONTINUOUS
10
10.7683294621
20
19.9686518677
0
VERTEX
8
0
62
2
6
CONTINUOUS
10
10.7649671785
20
19.9634433856
0
VERTEX
8
0
62
2
6
CONTINUOUS
10
10.7619271444
20
19.9581249382
0
VERTEX
8
0
62
2
6
CONTINUOUS
10
10.7592063978
20
19.9526978375
0
VERTEX
8
0
62
2
6
CONTINUOUS
10
10.7568026828
20
19.9471625275
0
VERTEX
8
0
62
2
6
CONTINUOUS
10
10.7547145772
20
19.9415186570
0
VERTEX
8
0
62
2
6
CONTINUOUS
10
10.7529416013
20
19.9357651624
0
VERTEX
8
0
62
2
6
CONTINUOUS
10
10.7514843059
20
19.9299003582
0
VERTEX
8
0
62
2
6
CONTINUOUS
10
10.7503443389
20
19.9239220334
0
VERTEX
8
0
62
2
6
CONTINUOUS
10
10.7495244908
20
19.9178275502
0
VERTEX
8
0
62
2
6
CONTINUOUS
10
10.7490287199
20
19.9116139439
0
VERTEX
8
0
62
2
6
CONTINUOUS
10
10.7489039203
20
19.9084614417
0
VERTEX
8
0
62
2
6
CONTINUOUS
10
10.7488621572
20
19.9052788424
0
VERTEX
8
0
62
2
6
CONTINUOUS
10
10.7490286927
20
19.8991486531
0
VERTEX
8
0
62
2
6
CONTINUOUS
10
10.7495266541
20
19.8930723323
0
VERTEX
8
0
62
2
6
CONTINUOUS
10
10.7503543323
20
19.8870494902
0
VERTEX
8
0
62
2
6
CONTINUOUS
10
10.7515109883
20
19.8810801653
0
VERTEX
8
0
62
2
6
CONTINUOUS
10
10.7529967825
20
19.8751649298
0
VERTEX
8
0
62
2
6
CONTINUOUS
10
10.7548126830
20
19.8693049909
0
VERTEX
8
0
62
2
6
CONTINUOUS
10
10.7569603519
20
19.8635022870
0
VERTEX
8
0
62
2
6
CONTINUOUS
10
10.7594420114
20
19.8577595757
0
VERTEX
8
0
62
2
6
CONTINUOUS
10
10.7622602910
20
19.8520805109
0
VERTEX
8
0
62
2
6
CONTINUOUS
10
10.7654180577
20
19.8464697063
0
VERTEX
8
0
62
2
6
CONTINUOUS
10
10.7689182317
20
19.8409327835
0
VERTEX
8
0
62
2
6
CONTINUOUS
10
10.7727635923
20
19.8354764027
0
VERTEX
8
0
62
2
6
CONTINUOUS
10
10.7769565752
20
19.8301082735
0
VERTEX
8
0
62
2
6
CONTINUOUS
10
10.7814990682
20
19.8248371453
0
VERTEX
8
0
62
2
6
CONTINUOUS
10
10.7863922084
20
19.8196727755
0
VERTEX
8
0
62
2
6
CONTINUOUS
10
10.7916361864
20
19.8146258752
0
VERTEX
8
0
62
2
6
CONTINUOUS
10
10.7972300639
20
19.8097080326
0
VERTEX
8
0
62
2
6
CONTINUOUS
10
10.8031716086
20
19.8049316144
0
VERTEX
8
0
62
2
6
CONTINUOUS
10
10.8094571535
20
19.8003096461
0
VERTEX
8
0
62
2
6
CONTINUOUS
10
10.8160814851
20
19.7958556742
0
VERTEX
8
0
62
2
6
CONTINUOUS
10
10.8230377646
20
19.7915836134
0
VERTEX
8
0
62
2
6
CONTINUOUS
10
10.8303174868
20
19.7875075810
0
VERTEX
8
0
62
2
6
CONTINUOUS
10
10.8379104776
20
19.7836417244
0
VERTEX
8
0
62
2
6
CONTINUOUS
10
10.8458049326
20
19.7800000467
0
VERTEX
8
0
62
2
6
CONTINUOUS
10
10.8539874949
20
19.7765962344
0
VERTEX
8
0
62
2
6
CONTINUOUS
10
10.8624433693
20
19.7734434939
0
VERTEX
8
0
62
2
6
CONTINUOUS
10
10.8711564707
20
19.7705544007
0
VERTEX
8
0
62
2
6
CONTINUOUS
10
10.8801095995
20
19.7679407663
0
VERTEX
8
0
62
2
6
CONTINUOUS
10
10.8892846379
20
19.7656135272
0
VERTEX
8
0
62
2
6
CONTINUOUS
10
10.8969511012
20
19.7639278672
0
VERTEX
8
0
62
2
6
CONTINUOUS
10
10.9064727985
20
19.7621478503
0
VERTEX
8
0
62
2
6
CONTINUOUS
10
10.9161545133
20
19.7606801360
0
VERTEX
8
0
62
2
6
CONTINUOUS
10
10.9259767773
20
19.7595309334
0
VERTEX
8
0
62
2
6
CONTINUOUS
10
10.9359203727
20
19.7587054225
0
VERTEX
8
0
62
2
6
CONTINUOUS
10
10.9459664928
20
19.7582078003
0
VERTEX
8
0
62
2
6
CONTINUOUS
10
10.9560968794
20
19.7580413424
0
VERTEX
8
0
62
2
6
CONTINUOUS
10
10.9683516060
20
19.7581814545
0
VERTEX
8
0
62
2
6
CONTINUOUS
10
10.9816830028
20
19.7586517698
0
VERTEX
8
0
62
2
6
CONTINUOUS
10
10.9948995449
20
19.7594478823
0
VERTEX
8
0
62
2
6
CONTINUOUS
10
11.0079216155
20
19.7605607669
0
VERTEX
8
0
62
2
6
CONTINUOUS
10
11.0206793526
20
19.7619785902
0
VERTEX
8
0
62
2
6
CONTINUOUS
10
11.0331130337
20
19.7636873793
0
VERTEX
8
0
62
2
6
CONTINUOUS
10
11.0451729798
20
19.7656716472
0
VERTEX
8
0
62
2
6
CONTINUOUS
10
11.0568191016
20
19.7679149535
0
SEQEND
0
POLYLINE
8
0
62
2
6
CONTINUOUS
66
1
70
0
0
VERTEX
8
0
62
2
6
CONTINUOUS
10
11.0568191016
20
19.7679149535
0
VERTEX
8
0
62
2
6
CONTINUOUS
10
11.0568191016
20
19.8428399535
0
VERTEX
8
0
62
2
6
CONTINUOUS
10
11.0568190261
20
19.8432449768
0
VERTEX
8
0
62
2
6
CONTINUOUS
10
11.0567882702
20
19.8486673761
0
VERTEX
8
0
62
2
6
CONTINUOUS
10
11.0566890000
20
19.8529828794
0
VERTEX
8
0
62
2
6
CONTINUOUS
10
11.0565154344
20
19.8567124403
0
VERTEX
8
0
62
2
6
CONTINUOUS
10
11.0562664420
20
19.8600509318
0
VERTEX
8
0
62
2
6
CONTINUOUS
10
11.0559421650
20
19.8630971167
0
VERTEX
8
0
62
2
6
CONTINUOUS
10
11.0555432024
20
19.8659099015
0
VERTEX
8
0
62
2
6
CONTINUOUS
10
11.0550702817
20
19.8685282757
0
VERTEX
8
0
62
2
6
CONTINUOUS
10
11.0545240815
20
19.8709800002
0
VERTEX
8
0
62
2
6
CONTINUOUS
10
11.0539051152
20
19.8732859367
0
VERTEX
8
0
62
2
6
CONTINUOUS
10
11.0532136453
20
19.8754624149
0
VERTEX
8
0
62
2
6
CONTINUOUS
10
11.0524496157
20
19.8775226196
0
VERTEX
8
0
62
2
6
CONTINUOUS
10
11.0516125950
20
19.8794774447
0
VERTEX
8
0
62
2
6
CONTINUOUS
10
11.0507017311
20
19.8813360396
0
VERTEX
8
0
62
2
6
CONTINUOUS
10
11.0497157122
20
19.8831061686
0
VERTEX
8
0
62
2
6
CONTINUOUS
10
11.0486527371
20
19.8847944517
0
VERTEX
8
0
62
2
6
CONTINUOUS
10
11.0475104924
20
19.8864065282
0
VERTEX
8
0
62
2
6
CONTINUOUS
10
11.0462861370
20
19.8879471699
0
VERTEX
8
0
62
2
6
CONTINUOUS
10
11.0449762937
20
19.8894203603
0
VERTEX
8
0
62
2
6
CONTINUOUS
10
11.0435770466
20
19.8908293506
0
VERTEX
8
0
62
2
6
CONTINUOUS
10
11.0420839450
20
19.8921767019
0
VERTEX
8
0
62
2
6
CONTINUOUS
10
11.0404920107
20
19.8934643182
0
VERTEX
8
0
62
2
6
CONTINUOUS
10
11.0387957494
20
19.8946934730
0
VERTEX
8
0
62
2
6
CONTINUOUS
10
11.0369891641
20
19.8958648344
0
VERTEX
8
0
62
2
6
CONTINUOUS
10
11.0360423102
20
19.8964289966
0
VERTEX
8
0
62
2
6
CONTINUOUS
10
11.0350658064
20
19.8969784674
0
VERTEX
8
0
62
2
6
CONTINUOUS
10
11.0330219864
20
19.8980323153
0
VERTEX
8
0
62
2
6
CONTINUOUS
10
11.0308505672
20
19.8990257967
0
VERTEX
8
0
62
2
6
CONTINUOUS
10
11.0285439647
20
19.8999577867
0
VERTEX
8
0
62
2
6
CONTINUOUS
10
11.0260941603
20
19.9008266432
0
VERTEX
8
0
62
2
6
CONTINUOUS
10
11.0234927127
20
19.9016302313
0
SEQEND
0
LINE
8
0
62
2
6
CONTINUOUS
10
11.0234927127
20
19.9016302313
11
11.0234927127
21
19.9031830091
0
LINE
8
0
62
2
6
CONTINUOUS
10
11.0234927127
20
19.9031830091
11
11.1343468794
21
19.9031830091
0
LINE
8
0
62
2
6
CONTINUOUS
10
11.1343468794
20
19.9031830091
11
11.1343468794
21
19.9016302313
0
LINE
8
0
62
2
6
CONTINUOUS
10
11.1343468794
20
19.9016302313
11
11.1307246572
21
19.8792566202
0
LINE
8
0
62
2
6
CONTINUOUS
10
11.1307246572
20
19.8792566202
11
11.1307246572
21
19.7595941202
0
LINE
8
0
62
2
6
CONTINUOUS
10
11.1307246572
20
19.7595941202
11
11.1343468794
21
19.7361774535
0
POLYLINE
8
0
62
2
6
CONTINUOUS
66
1
70
0
0
VERTEX
8
0
62
2
6
CONTINUOUS
10
11.1343468794
20
19.7361774535
0
VERTEX
8
0
62
2
6
CONTINUOUS
10
11.1208325196
20
19.7343616118
0
VERTEX
8
0
62
2
6
CONTINUOUS
10
11.0869476180
20
19.7299292130
0
VERTEX
8
0
62
2
6
CONTINUOUS
10
11.0604364777
20
19.7267751084
0
VERTEX
8
0
62
2
6
CONTINUOUS
10
11.0374369189
20
19.7244167998
0
VERTEX
8
0
62
2
6
CONTINUOUS
10
11.0165687769
20
19.7226829308
0
VERTEX
8
0
62
2
6
CONTINUOUS
10
10.9971479984
20
19.7214907967
0
VERTEX
8
0
62
2
6
CONTINUOUS
10
10.9787732726
20
19.7207943807
0
VERTEX
8
0
62
2
6
CONTINUOUS
10
10.9611829905
20
19.7205663424
0
VERTEX
8
0
62
2
6
CONTINUOUS
10
10.9524332265
20
19.7206209174
0
VERTEX
8
0
62
2
6
CONTINUOUS
10
10.9347530820
20
19.7210749726
0
VERTEX
8
0
62
2
6
CONTINUOUS
10
10.9176564600
20
19.7219760928
0
VERTEX
8
0
62
2
6
CONTINUOUS
10
10.9011500649
20
19.7233082377
0
VERTEX
8
0
62
2
6
CONTINUOUS
10
10.8852393607
20
19.7250549030
0
VERTEX
8
0
62
2
6
CONTINUOUS
10
10.8699285025
20
19.7271991969
0
VERTEX
8
0
62
2
6
CONTINUOUS
10
10.8552202805
20
19.7297239279
0
VERTEX
8
0
62
2
6
CONTINUOUS
10
10.8411160803
20
19.7326117032
0
VERTEX
8
0
62
2
6
CONTINUOUS
10
10.8276158604
20
19.7358450362
0
VERTEX
8
0
62
2
6
CONTINUOUS
10
10.8147181492
20
19.7394064629
0
VERTEX
8
0
62
2
6
CONTINUOUS
10
10.8024200629
20
19.7432786650
0
VERTEX
8
0
62
2
6
CONTINUOUS
10
10.7907173459
20
19.7474445986
0
VERTEX
8
0
62
2
6
CONTINUOUS
10
10.7796044330
20
19.7518876255
0
VERTEX
8
0
62
2
6
CONTINUOUS
10
10.7690745355
20
19.7565916466
0
VERTEX
8
0
62
2
6
CONTINUOUS
10
10.7591197494
20
19.7615412330
0
VERTEX
8
0
62
2
6
CONTINUOUS
10
10.7497311861
20
19.7667217548
0
VERTEX
8
0
62
2
6
CONTINUOUS
10
10.7408991239
20
19.7721195025
0
VERTEX
8
0
62
2
6
CONTINUOUS
10
10.7326131789
20
19.7777218005
0
VERTEX
8
0
62
2
6
CONTINUOUS
10
10.7248624937
20
19.7835171085
0
VERTEX
8
0
62
2
6
CONTINUOUS
10
10.7176359404
20
19.7894951101
0
VERTEX
8
0
62
2
6
CONTINUOUS
10
10.7109223361
20
19.7956467830
0
VERTEX
8
0
62
2
6
CONTINUOUS
10
10.7047106669
20
19.8019644518
0
VERTEX
8
0
62
2
6
CONTINUOUS
10
10.6989903166
20
19.8084418188
0
VERTEX
8
0
62
2
6
CONTINUOUS
10
10.6937512962
20
19.8150739717
0
VERTEX
8
0
62
2
6
CONTINUOUS
10
10.6889844688
20
19.8218573670
0
VERTEX
8
0
62
2
6
CONTINUOUS
10
10.6846817661
20
19.8287897883
0
VERTEX
8
0
62
2
6
CONTINUOUS
10
10.6808363907
20
19.8358702789
0
VERTEX
8
0
62
2
6
CONTINUOUS
10
10.6774429985
20
19.8430990500
0
VERTEX
8
0
62
2
6
CONTINUOUS
10
10.6744978584
20
19.8504773665
0
VERTEX
8
0
62
2
6
CONTINUOUS
10
10.6719989833
20
19.8580074126
0
VERTEX
8
0
62
2
6
CONTINUOUS
10
10.6699462296
20
19.8656921407
0
VERTEX
8
0
62
2
6
CONTINUOUS
10
10.6683422773
20
19.8735298587
0
VERTEX
8
0
62
2
6
CONTINUOUS
10
10.6671902715
20
19.8815212542
0
VERTEX
8
0
62
2
6
CONTINUOUS
10
10.6664943985
20
19.8896704094
0
VERTEX
8
0
62
2
6
CONTINUOUS
10
10.6662607683
20
19.8979816202
0
VERTEX
8
0
62
2
6
CONTINUOUS
10
10.6664948269
20
19.9063431277
0
VERTEX
8
0
62
2
6
CONTINUOUS
10
10.6671919376
20
19.9145380606
0
VERTEX
8
0
62
2
6
CONTINUOUS
10
10.6683451917
20
19.9225679095
0
VERTEX
8
0
62
2
6
CONTINUOUS
10
10.6699489010
20
19.9304352447
0
VERTEX
8
0
62
2
6
CONTINUOUS
10
10.6719997530
20
19.9381462066
0
VERTEX
8
0
62
2
6
CONTINUOUS
10
10.6744965559
20
19.9457062759
0
VERTEX
8
0
62
2
6
CONTINUOUS
10
10.6774401767
20
19.9531201074
0
VERTEX
8
0
62
2
6
CONTINUOUS
10
10.6808334426
20
19.9603913705
0
VERTEX
8
0
62
2
6
CONTINUOUS
10
10.6846810056
20
19.9675226009
0
VERTEX
8
0
62
2
6
CONTINUOUS
10
10.6889891733
20
19.9745150681
0
VERTEX
8
0
62
2
6
CONTINUOUS
10
10.6937657080
20
19.9813686612
0
VERTEX
8
0
62
2
6
CONTINUOUS
10
10.6990195968
20
19.9880817967
0
VERTEX
8
0
62
2
6
CONTINUOUS
10
10.7047607984
20
19.9946513501
0
VERTEX
8
0
62
2
6
CONTINUOUS
10
10.7109999701
20
20.0010726124
0
VERTEX
8
0
62
2
6
CONTINUOUS
10
10.7177481783
20
20.0073392722
0
VERTEX
8
0
62
2
6
CONTINUOUS
10
10.7250165999
20
20.0134434234
0
VERTEX
8
0
62
2
6
CONTINUOUS
10
10.7328162158
20
20.0193755979
0
VERTEX
8
0
62
2
6
CONTINUOUS
10
10.7411575044
20
20.0251248230
0
VERTEX
8
0
62
2
6
CONTINUOUS
10
10.7500501367
20
20.0306787019
0
VERTEX
8
0
62
2
6
CONTINUOUS
10
10.7595026801
20
20.0360235171
0
VERTEX
8
0
62
2
6
CONTINUOUS
10
10.7695223148
20
20.0411443534
0
VERTEX
8
0
62
2
6
CONTINUOUS
10
10.7801145672
20
20.0460252415
0
VERTEX
8
0
62
2
6
CONTINUOUS
10
10.7912830670
20
20.0506493175
0
VERTEX
8
0
62
2
6
CONTINUOUS
10
10.8030293312
20
20.0549989977
0
VERTEX
8
0
62
2
6
CONTINUOUS
10
10.8153525816
20
20.0590561661
0
VERTEX
8
0
62
2
6
CONTINUOUS
10
10.8282495988
20
20.0628023698
0
VERTEX
8
0
62
2
6
CONTINUOUS
10
10.8417146176
20
20.0662190208
0
VERTEX
8
0
62
2
6
CONTINUOUS
10
10.8557392662
20
20.0692875993
0
VERTEX
8
0
62
2
6
CONTINUOUS
10
10.8703125515
20
20.0719898542
0
VERTEX
8
0
62
2
6
CONTINUOUS
10
10.8854208910
20
20.0743079978
0
VERTEX
8
0
62
2
6
CONTINUOUS
10
10.9010481902
20
20.0762248888
0
VERTEX
8
0
62
2
6
CONTINUOUS
10
10.9171759639
20
20.0777242018
0
VERTEX
8
0
62
2
6
CONTINUOUS
10
10.9337834974
20
20.0787905778
0
VERTEX
8
0
62
2
6
CONTINUOUS
10
10.9508480428
20
20.0794097544
0
VERTEX
8
0
62
2
6
CONTINUOUS
10
10.9655232683
20
20.0795746758
0
VERTEX
8
0
62
2
6
CONTINUOUS
10
10.9837434442
20
20.0793408241
0
VERTEX
8
0
62
2
6
CONTINUOUS
10
11.0020764445
20
20.0786373164
0
VERTEX
8
0
62
2
6
CONTINUOUS
10
11.0205715270
20
20.0774591310
0
VERTEX
8
0
62
2
6
CONTINUOUS
10
11.0392824679
20
20.0757982169
0
VERTEX
8
0
62
2
6
CONTINUOUS
10
11.0582687256
20
20.0736431135
0
VERTEX
8
0
62
2
6
CONTINUOUS
10
11.0775969437
20
20.0709784420
0
VERTEX
8
0
62
2
6
CONTINUOUS
10
11.0792788239
20
20.0707246758
0
SEQEND
0
LINE
8
0
62
2
6
CONTINUOUS
10
11.0792788239
20
20.0707246758
11
11.0792788239
21
20.0108899535
0
LINE
8
0
62
2
6
CONTINUOUS
10
10.2887316016
20
19.7304677313
11
10.2887316016
21
19.7288941202
0
LINE
8
0
62
2
6
CONTINUOUS
10
10.2887316016
20
19.7288941202
11
10.1604829905
21
19.7288941202
0
LINE
8
0
62
2
6
CONTINUOUS
10
10.1604829905
20
19.7288941202
11
10.1604829905
21
19.7304677313
0
POLYLINE
8
0
62
2
6
CONTINUOUS
66
1
70
0
0
VERTEX
8
0
62
2
6
CONTINUOUS
10
10.1604829905
20
19.7304677313
0
VERTEX
8
0
62
2
6
CONTINUOUS
10
10.1663418971
20
19.7331038593
0
VERTEX
8
0
62
2
6
CONTINUOUS
10
10.1714601014
20
19.7357619277
0
VERTEX
8
0
62
2
6
CONTINUOUS
10
10.1759294367
20
19.7384508089
0
VERTEX
8
0
62
2
6
CONTINUOUS
10
10.1798302122
20
19.7411821500
0
VERTEX
8
0
62
2
6
CONTINUOUS
10
10.1832322625
20
19.7439711679
0
VERTEX
8
0
62
2
6
CONTINUOUS
10
10.1861957386
20
19.7468376392
0
VERTEX
8
0
62
2
6
CONTINUOUS
10
10.1887594622
20
19.7497917357
0
VERTEX
8
0
62
2
6
CONTINUOUS
10
10.1909627909
20
19.7528520927
0
VERTEX
8
0
62
2
6
CONTINUOUS
10
10.1928452804
20
19.7560525574
0
VERTEX
8
0
62
2
6
CONTINUOUS
10
10.1944383520
20
19.7594365158
0
VERTEX
8
0
62
2
6
CONTINUOUS
10
10.1957659444
20
19.7630605729
0
VERTEX
8
0
62
2
6
CONTINUOUS
10
10.1968453197
20
19.7670011446
0
VERTEX
8
0
62
2
6
CONTINUOUS
10
10.1976881035
20
19.7713673579
0
VERTEX
8
0
62
2
6
CONTINUOUS
10
10.1983017110
20
19.7763292639
0
VERTEX
8
0
62
2
6
CONTINUOUS
10
10.1986917292
20
19.7821907339
0
VERTEX
8
0
62
2
6
CONTINUOUS
10
10.1988683425
20
19.7896407248
0
VERTEX
8
0
62
2
6
CONTINUOUS
10
10.1988885461
20
19.7965343980
0
VERTEX
8
0
62
2
6
CONTINUOUS
10
10.1988885461
20
20.0041413424
0
VERTEX
8
0
62
2
6
CONTINUOUS
10
10.1988729175
20
20.0105208060
0
VERTEX
8
0
62
2
6
CONTINUOUS
10
10.1987089691
20
20.0181556224
0
VERTEX
8
0
62
2
6
CONTINUOUS
10
10.1983331949
20
20.0241133314
0
VERTEX
8
0
62
2
6
CONTINUOUS
10
10.1977349336
20
20.0291333514
0
VERTEX
8
0
62
2
6
CONTINUOUS
10
10.1969089985
20
20.0335350278
0
VERTEX
8
0
62
2
6
CONTINUOUS
10
10.1958486624
20
20.0374950804
0
VERTEX
8
0
62
2
6
CONTINUOUS
10
10.1945431601
20
20.0411260957
0
VERTEX
8
0
62
2
6
CONTINUOUS
10
10.1929762192
20
20.0445064963
0
VERTEX
8
0
62
2
6
CONTINUOUS
10
10.1911249925
20
20.0476941238
0
VERTEX
8
0
62
2
6
CONTINUOUS
10
10.1889592319
20
20.0507331273
0
VERTEX
8
0
62
2
6
CONTINUOUS
10
10.1864406264
20
20.0536577786
0
VERTEX
8
0
62
2
6
CONTINUOUS
10
10.1835285131
20
20.0564891712
0
VERTEX
8
0
62
2
6
CONTINUOUS
10
10.1801873959
20
20.0592348985
0
VERTEX
8
0
62
2
6
CONTINUOUS
10
10.1763585208
20
20.0619145836
0
VERTEX
8
0
62
2
6
CONTINUOUS
10
10.1719735578
20
20.0645430333
0
VERTEX
8
0
62
2
6
CONTINUOUS
10
10.1669538457
20
20.0671312391
0
VERTEX
8
0
62
2
6
CONTINUOUS
10
10.1612093794
20
20.0696871758
0
SEQEND
0
LINE
8
0
62
2
6
CONTINUOUS
10
10.1612093794
20
20.0696871758
11
10.1612093794
21
20.0712538424
0
LINE
8
0
62
2
6
CONTINUOUS
10
10.1612093794
20
20.0712538424
11
10.2669968794
21
20.0712538424
0
LINE
8
0
62
2
6
CONTINUOUS
10
10.2669968794
20
20.0712538424
11
10.2669968794
21
20.0707246758
0
LINE
8
0
62
2
6
CONTINUOUS
10
10.2669968794
20
20.0707246758
11
10.2778816016
21
20.0577177313
0
LINE
8
0
62
2
6
CONTINUOUS
10
10.2778816016
20
20.0577177313
11
10.2880135461
21
20.0473135647
0
LINE
8
0
62
2
6
CONTINUOUS
10
10.2880135461
20
20.0473135647
11
10.5532246572
21
19.8069371758
0
POLYLINE
8
0
62
2
6
CONTINUOUS
66
1
70
0
0
VERTEX
8
0
62
2
6
CONTINUOUS
10
10.5532246572
20
19.8069371758
0
VERTEX
8
0
62
2
6
CONTINUOUS
10
10.5532246572
20
19.8844209258
0
VERTEX
8
0
62
2
6
CONTINUOUS
10
10.5532246572
20
20.0041413424
0
VERTEX
8
0
62
2
6
CONTINUOUS
10
10.5532253973
20
20.0063531850
0
VERTEX
8
0
62
2
6
CONTINUOUS
10
10.5531888352
20
20.0141365826
0
VERTEX
8
0
62
2
6
CONTINUOUS
10
10.5530335267
20
20.0197680856
0
VERTEX
8
0
62
2
6
CONTINUOUS
10
10.5527440711
20
20.0243924158
0
VERTEX
8
0
62
2
6
CONTINUOUS
10
10.5523170708
20
20.0283953613
0
VERTEX
8
0
62
2
6
CONTINUOUS
10
10.5517507524
20
20.0319653870
0
VERTEX
8
0
62
2
6
CONTINUOUS
10
10.5510428822
20
20.0352132274
0
VERTEX
8
0
62
2
6
CONTINUOUS
10
10.5501899257
20
20.0382117470
0
VERTEX
8
0
62
2
6
CONTINUOUS
10
10.5491865448
20
20.0410127049
0
VERTEX
8
0
62
2
6
CONTINUOUS
10
10.5480252274
20
20.0436549025
0
VERTEX
8
0
62
2
6
CONTINUOUS
10
10.5466959907
20
20.0461685507
0
VERTEX
8
0
62
2
6
CONTINUOUS
10
10.5451861386
20
20.0485777840
0
VERTEX
8
0
62
2
6
CONTINUOUS
10
10.5434800602
20
20.0509021937
0
VERTEX
8
0
62
2
6
CONTINUOUS
10
10.5415590596
20
20.0531578142
0
VERTEX
8
0
62
2
6
CONTINUOUS
10
10.5405106116
20
20.0542646765
0
VERTEX
8
0
62
2
6
CONTINUOUS
10
10.5394012013
20
20.0553577959
0
VERTEX
8
0
62
2
6
CONTINUOUS
10
10.5369926340
20
20.0575033177
0
VERTEX
8
0
62
2
6
CONTINUOUS
10
10.5343071001
20
20.0596046316
0
VERTEX
8
0
62
2
6
CONTINUOUS
10
10.5313147290
20
20.0616700941
0
VERTEX
8
0
62
2
6
CONTINUOUS
10
10.5279819746
20
20.0637063770
0
VERTEX
8
0
62
2
6
CONTINUOUS
10
10.5242713817
20
20.0657187474
0
VERTEX
8
0
62
2
6
CONTINUOUS
10
10.5201412935
20
20.0677113035
0
VERTEX
8
0
62
2
6
CONTINUOUS
10
10.5155454905
20
20.0696871758
0
SEQEND
0
LINE
8
0
62
2
6
CONTINUOUS
10
10.5155454905
20
20.0696871758
11
10.5155454905
21
20.0712538424
0
LINE
8
0
62
2
6
CONTINUOUS
10
10.5155454905
20
20.0712538424
11
10.6430816016
21
20.0712538424
0
LINE
8
0
62
2
6
CONTINUOUS
10
10.6430816016
20
20.0712538424
11
10.6430816016
21
20.0696871758
0
POLYLINE
8
0
62
2
6
CONTINUOUS
66
1
70
0
0
VERTEX
8
0
62
2
6
CONTINUOUS
10
10.6430816016
20
20.0696871758
0
VERTEX
8
0
62
2
6
CONTINUOUS
10
10.6372242632
20
20.0670781139
0
VERTEX
8
0
62
2
6
CONTINUOUS
10
10.6321200379
20
20.0644351949
0
VERTEX
8
0
62
2
6
CONTINUOUS
10
10.6276736101
20
20.0617498254
0
VERTEX
8
0
62
2
6
CONTINUOUS
10
10.6238019250
20
20.0590100970
0
VERTEX
8
0
62
2
6
CONTINUOUS
10
10.6204330850
20
20.0561998895
0
VERTEX
8
0
62
2
6
CONTINUOUS
10
10.6189165593
20
20.0547608541
0
VERTEX
8
0
62
2
6
CONTINUOUS
10
10.6175055325
20
20.0532977380
0
VERTEX
8
0
62
2
6
CONTINUOUS
10
10.6149847697
20
20.0502980281
0
VERTEX
8
0
62
2
6
CONTINUOUS
10
10.6128257371
20
20.0471748127
0
VERTEX
8
0
62
2
6
CONTINUOUS
10
10.6109889585
20
20.0438902706
0
VERTEX
8
0
62
2
6
CONTINUOUS
10
10.6094436108
20
20.0403953470
0
VERTEX
8
0
62
2
6
CONTINUOUS
10
10.6081667600
20
20.0366251129
0
VERTEX
8
0
62
2
6
CONTINUOUS
10
10.6071423941
20
20.0324901503
0
VERTEX
8
0
62
2
6
CONTINUOUS
10
10.6063601568
20
20.0278589721
0
VERTEX
8
0
62
2
6
CONTINUOUS
10
10.6058135288
20
20.0225172897
0
VERTEX
8
0
62
2
6
CONTINUOUS
10
10.6054963733
20
20.0160525387
0
VERTEX
8
0
62
2
6
CONTINUOUS
10
10.6053905223
20
20.0073771111
0
VERTEX
8
0
62
2
6
CONTINUOUS
10
10.6053885461
20
20.0041413424
0
VERTEX
8
0
62
2
6
CONTINUOUS
10
10.6053885461
20
19.9706291202
0
VERTEX
8
0
62
2
6
CONTINUOUS
10
10.6053885461
20
19.8414400924
0
VERTEX
8
0
62
2
6
CONTINUOUS
10
10.6053885461
20
19.7122510647
0
SEQEND
0
ARC
8
0
62
2
6
CONTINUOUS
10
10.6477055943
20
19.9117521143
40
0.2039397004
50
223.4269507726
51
258.0242403069
0
LINE
8
0
62
2
6
CONTINUOUS
10
10.4995941016
20
19.7715580091
11
10.2510663239
21
19.9978830091
0
POLYLINE
8
0
62
2
6
CONTINUOUS
66
1
70
0
0
VERTEX
8
0
62
2
6
CONTINUOUS
10
10.2510663239
20
19.9978830091
0
VERTEX
8
0
62
2
6
CONTINUOUS
10
10.2510663239
20
19.9166692591
0
VERTEX
8
0
62
2
6
CONTINUOUS
10
10.2510663239
20
19.7965343980
0
VERTEX
8
0
62
2
6
CONTINUOUS
10
10.2510851271
20
19.7879650717
0
VERTEX
8
0
62
2
6
CONTINUOUS
10
10.2512137378
20
19.7819720521
0
VERTEX
8
0
62
2
6
CONTINUOUS
10
10.2514773586
20
19.7771375651
0
VERTEX
8
0
62
2
6
CONTINUOUS
10
10.2518806688
20
19.7729875897
0
VERTEX
8
0
62
2
6
CONTINUOUS
10
10.2524257531
20
19.7693038175
0
VERTEX
8
0
62
2
6
CONTINUOUS
10
10.2531149179
20
19.7659621238
0
VERTEX
8
0
62
2
6
CONTINUOUS
10
10.2539516979
20
19.7628825289
0
VERTEX
8
0
62
2
6
CONTINUOUS
10
10.2549414202
20
19.7600090218
0
VERTEX
8
0
62
2
6
CONTINUOUS
10
10.2560916051
20
19.7573000197
0
VERTEX
8
0
62
2
6
CONTINUOUS
10
10.2574122832
20
19.7547233500
0
VERTEX
8
0
62
2
6
CONTINUOUS
10
10.2589162549
20
19.7522534017
0
VERTEX
8
0
62
2
6
CONTINUOUS
10
10.2606193049
20
19.7498694070
0
VERTEX
8
0
62
2
6
CONTINUOUS
10
10.2625403838
20
19.7475543456
0
VERTEX
8
0
62
2
6
CONTINUOUS
10
10.2635900337
20
19.7464176388
0
VERTEX
8
0
62
2
6
CONTINUOUS
10
10.2647017726
20
19.7452942047
0
VERTEX
8
0
62
2
6
CONTINUOUS
10
10.2671186285
20
19.7430865300
0
VERTEX
8
0
62
2
6
CONTINUOUS
10
10.2698167810
20
19.7409213102
0
VERTEX
8
0
62
2
6
CONTINUOUS
10
10.2728266970
20
19.7387894521
0
VERTEX
8
0
62
2
6
CONTINUOUS
10
10.2761826358
20
19.7366835750
0
VERTEX
8
0
62
2
6
CONTINUOUS
10
10.2799228917
20
19.7345977106
0
VERTEX
8
0
62
2
6
CONTINUOUS
10
10.2840900980
20
19.7325270505
0
VERTEX
8
0
62
2
6
CONTINUOUS
10
10.2887316016
20
19.7304677313
0
SEQEND
0
LINE
8
0
62
2
6
CONTINUOUS
10
9.9459996572
20
20.0696871758
11
9.9459996572
21
20.0712538424
0
LINE
8
0
62
2
6
CONTINUOUS
10
9.9459996572
20
20.0712538424
11
10.0836871572
21
20.0712538424
0
LINE
8
0
62
2
6
CONTINUOUS
10
10.0836871572
20
20.0712538424
11
10.0836871572
21
20.0696871758
0
POLYLINE
8
0
62
2
6
CONTINUOUS
66
1
70
0
0
VERTEX
8
0
62
2
6
CONTINUOUS
10
10.0836871572
20
20.0696871758
0
VERTEX
8
0
62
2
6
CONTINUOUS
10
10.0796515820
20
20.0684096185
0
VERTEX
8
0
62
2
6
CONTINUOUS
10
10.0777661913
20
20.0676787060
0
VERTEX
8
0
62
2
6
CONTINUOUS
10
10.0759664530
20
20.0668889255
0
VERTEX
8
0
62
2
6
CONTINUOUS
10
10.0726144580
20
20.0651394768
0
VERTEX
8
0
62
2
6
CONTINUOUS
10
10.0695666096
20
20.0631664204
0
VERTEX
8
0
62
2
6
CONTINUOUS
10
10.0667975877
20
20.0609695686
0
VERTEX
8
0
62
2
6
CONTINUOUS
10
10.0642860881
20
20.0585432955
0
VERTEX
8
0
62
2
6
CONTINUOUS
10
10.0620151098
20
20.0558765134
0
VERTEX
8
0
62
2
6
CONTINUOUS
10
10.0599721269
20
20.0529526807
0
VERTEX
8
0
62
2
6
CONTINUOUS
10
10.0581491064
20
20.0497497412
0
VERTEX
8
0
62
2
6
CONTINUOUS
10
10.0565423449
20
20.0462398285
0
VERTEX
8
0
62
2
6
CONTINUOUS
10
10.0551521141
20
20.0423884449
0
VERTEX
8
0
62
2
6
CONTINUOUS
10
10.0539821115
20
20.0381525825
0
VERTEX
8
0
62
2
6
CONTINUOUS
10
10.0530386983
20
20.0334766566
0
VERTEX
8
0
62
2
6
CONTINUOUS
10
10.0523298561
20
20.0282834815
0
VERTEX
8
0
62
2
6
CONTINUOUS
10
10.0518636368
20
20.0224522211
0
VERTEX
8
0
62
2
6
CONTINUOUS
10
10.0516452881
20
20.0157534754
0
VERTEX
8
0
62
2
6
CONTINUOUS
10
10.0516681569
20
20.0075754253
0
VERTEX
8
0
62
2
6
CONTINUOUS
10
10.0516828886
20
20.0065641632
0
VERTEX
8
0
62
2
6
CONTINUOUS
10
10.0517871572
20
19.9978830091
0
VERTEX
8
0
62
2
6
CONTINUOUS
10
10.0517871572
20
19.8017427313
0
VERTEX
8
0
62
2
6
CONTINUOUS
10
10.0516828886
20
19.7930846485
0
VERTEX
8
0
62
2
6
CONTINUOUS
10
10.0516735065
20
19.7924538554
0
VERTEX
8
0
62
2
6
CONTINUOUS
10
10.0516417070
20
19.7842369306
0
VERTEX
8
0
62
2
6
CONTINUOUS
10
10.0518499974
20
19.7775476611
0
VERTEX
8
0
62
2
6
CONTINUOUS
10
10.0523059897
20
19.7717380435
0
VERTEX
8
0
62
2
6
CONTINUOUS
10
10.0530047615
20
19.7665697069
0
VERTEX
8
0
62
2
6
CONTINUOUS
10
10.0539385144
20
19.7619183857
0
VERTEX
8
0
62
2
6
CONTINUOUS
10
10.0550995230
20
19.7577053032
0
VERTEX
8
0
62
2
6
CONTINUOUS
10
10.0564817077
20
19.7538740754
0
VERTEX
8
0
62
2
6
CONTINUOUS
10
10.0580816895
20
19.7503812980
0
VERTEX
8
0
62
2
6
CONTINUOUS
10
10.0598995582
20
19.7471923093
0
VERTEX
8
0
62
2
6
CONTINUOUS
10
10.0619394237
20
19.7442792257
0
VERTEX
8
0
62
2
6
CONTINUOUS
10
10.0642097691
20
19.7416200742
0
VERTEX
8
0
62
2
6
CONTINUOUS
10
10.0667236094
20
19.7391984653
0
VERTEX
8
0
62
2
6
CONTINUOUS
10
10.0694984687
20
19.7370035113
0
VERTEX
8
0
62
2
6
CONTINUOUS
10
10.0725562023
20
19.7350298133
0
VERTEX
8
0
62
2
6
CONTINUOUS
10
10.0759227076
20
19.7332774213
0
VERTEX
8
0
62
2
6
CONTINUOUS
10
10.0777317982
20
19.7324853079
0
VERTEX
8
0
62
2
6
CONTINUOUS
10
10.0796275740
20
19.7317517172
0
VERTEX
8
0
62
2
6
CONTINUOUS
10
10.0836871572
20
19.7304677313
0
SEQEND
0
LINE
8
0
62
2
6
CONTINUOUS
10
10.0836871572
20
19.7304677313
11
10.0836871572
21
19.7288941202
0
LINE
8
0
62
2
6
CONTINUOUS
10
10.0836871572
20
19.7288941202
11
9.9459996572
21
19.7288941202
0
LINE
8
0
62
2
6
CONTINUOUS
10
9.9459996572
20
19.7288941202
11
9.9459996572
21
19.7304677313
0
POLYLINE
8
0
62
2
6
CONTINUOUS
66
1
70
0
0
VERTEX
8
0
62
2
6
CONTINUOUS
10
9.9459996572
20
19.7304677313
0
VERTEX
8
0
62
2
6
CONTINUOUS
10
9.9500317541
20
19.7316844463
0
VERTEX
8
0
62
2
6
CONTINUOUS
10
9.9519155608
20
19.7323864660
0
VERTEX
8
0
62
2
6
CONTINUOUS
10
9.9537138474
20
19.7331483584
0
VERTEX
8
0
62
2
6
CONTINUOUS
10
9.9570617024
20
19.7348440348
0
VERTEX
8
0
62
2
6
CONTINUOUS
10
9.9601047601
20
19.7367656667
0
VERTEX
8
0
62
2
6
CONTINUOUS
10
9.9628688626
20
19.7389129605
0
VERTEX
8
0
62
2
6
CONTINUOUS
10
9.9653757799
20
19.7412912085
0
VERTEX
8
0
62
2
6
CONTINUOUS
10
9.9676429067
20
19.7439113125
0
VERTEX
8
0
62
2
6
CONTINUOUS
10
9.9696830750
20
19.7467897659
0
VERTEX
8
0
62
2
6
CONTINUOUS
10
9.9715045265
20
19.7499486940
0
VERTEX
8
0
62
2
6
CONTINUOUS
10
9.9731110717
20
19.7534161219
0
VERTEX
8
0
62
2
6
CONTINUOUS
10
9.9745024462
20
19.7572267562
0
VERTEX
8
0
62
2
6
CONTINUOUS
10
9.9756748670
20
19.7614238088
0
VERTEX
8
0
62
2
6
CONTINUOUS
10
9.9766218031
20
19.7660629711
0
VERTEX
8
0
62
2
6
CONTINUOUS
10
9.9773350258
20
19.7712212455
0
VERTEX
8
0
62
2
6
CONTINUOUS
10
9.9778061567
20
19.7770184812
0
VERTEX
8
0
62
2
6
CONTINUOUS
10
9.9780294999
20
19.7836804407
0
VERTEX
8
0
62
2
6
CONTINUOUS
10
9.9780107914
20
19.7918017113
0
VERTEX
8
0
62
2
6
CONTINUOUS
10
9.9779920119
20
19.7930868796
0
VERTEX
8
0
62
2
6
CONTINUOUS
10
9.9778871572
20
19.8017427313
0
VERTEX
8
0
62
2
6
CONTINUOUS
10
9.9778871572
20
19.9978830091
0
VERTEX
8
0
62
2
6
CONTINUOUS
10
9.9780038035
20
20.0059942237
0
VERTEX
8
0
62
2
6
CONTINUOUS
10
9.9780516954
20
20.0083891886
0
VERTEX
8
0
62
2
6
CONTINUOUS
10
9.9781168187
20
20.0165711181
0
VERTEX
8
0
62
2
6
CONTINUOUS
10
9.9779345110
20
20.0232037243
0
VERTEX
8
0
62
2
6
CONTINUOUS
10
9.9775013024
20
20.0289462491
0
VERTEX
8
0
62
2
6
CONTINUOUS
10
9.9768233661
20
20.0340442239
0
VERTEX
8
0
62
2
6
CONTINUOUS
10
9.9759088380
20
20.0386261948
0
VERTEX
8
0
62
2
6
CONTINUOUS
10
9.9747653237
20
20.0427735773
0
VERTEX
8
0
62
2
6
CONTINUOUS
10
9.9733984794
20
20.0465443959
0
VERTEX
8
0
62
2
6
CONTINUOUS
10
9.9718110161
20
20.0499830403
0
VERTEX
8
0
62
2
6
CONTINUOUS
10
9.9700019585
20
20.0531246953
0
VERTEX
8
0
62
2
6
CONTINUOUS
10
9.9679661104
20
20.0559974182
0
VERTEX
8
0
62
2
6
CONTINUOUS
10
9.9656937197
20
20.0586230785
0
VERTEX
8
0
62
2
6
CONTINUOUS
10
9.9631703404
20
20.0610177374
0
VERTEX
8
0
62
2
6
CONTINUOUS
10
9.9603768772
20
20.0631917758
0
VERTEX
8
0
62
2
6
CONTINUOUS
10
9.9572897836
20
20.0651499511
0
VERTEX
8
0
62
2
6
CONTINUOUS
10
9.9538813644
20
20.0668914806
0
VERTEX
8
0
62
2
6
CONTINUOUS
10
9.9501254064
20
20.0684083226
0
VERTEX
8
0
62
2
6
CONTINUOUS
10
9.9459996572
20
20.0696871758
0
SEQEND
0
LINE
8
0
62
2
6
CONTINUOUS
10
9.9141316016
20
19.7980802313
11
9.9163024350
21
19.7980802313
0
LINE
8
0
62
2
6
CONTINUOUS
10
9.9163024350
20
19.7980802313
11
9.8786371572
21
19.7288941202
0
LINE
8
0
62
2
6
CONTINUOUS
10
9.8786371572
20
19.7288941202
11
9.5808121572
21
19.7288941202
0
LINE
8
0
62
2
6
CONTINUOUS
10
9.5808121572
20
19.7288941202
11
9.5808121572
21
19.7304677313
0
POLYLINE
8
0
62
2
6
CONTINUOUS
66
1
70
0
0
VERTEX
8
0
62
2
6
CONTINUOUS
10
9.5808121572
20
19.7304677313
0
VERTEX
8
0
62
2
6
CONTINUOUS
10
9.5849221836
20
19.7316835891
0
VERTEX
8
0
62
2
6
CONTINUOUS
10
9.5868418046
20
19.7323846871
0
VERTEX
8
0
62
2
6
CONTINUOUS
10
9.5886745749
20
19.7331455246
0
VERTEX
8
0
62
2
6
CONTINUOUS
10
9.5920875009
20
19.7348387164
0
VERTEX
8
0
62
2
6
CONTINUOUS
10
9.5951888770
20
19.7367560217
0
VERTEX
8
0
62
2
6
CONTINUOUS
10
9.5980051351
20
19.7388963922
0
VERTEX
8
0
62
2
6
CONTINUOUS
10
9.6005587122
20
19.7412642660
0
VERTEX
8
0
62
2
6
CONTINUOUS
10
9.6028677410
20
19.7438696087
0
VERTEX
8
0
62
2
6
CONTINUOUS
10
9.6049458457
20
19.7467279094
0
VERTEX
8
0
62
2
6
CONTINUOUS
10
9.6068020893
20
19.7498602196
0
VERTEX
8
0
62
2
6
CONTINUOUS
10
9.6084411010
20
19.7532933932
0
VERTEX
8
0
62
2
6
CONTINUOUS
10
9.6098634001
20
19.7570607930
0
VERTEX
8
0
62
2
6
CONTINUOUS
10
9.6110659175
20
19.7612039505
0
VERTEX
8
0
62
2
6
CONTINUOUS
10
9.6120427316
20
19.7657761829
0
VERTEX
8
0
62
2
6
CONTINUOUS
10
9.6127860746
20
19.7708505791
0
VERTEX
8
0
62
2
6
CONTINUOUS
10
9.6132878015
20
19.7765391858
0
VERTEX
8
0
62
2
6
CONTINUOUS
10
9.6135419983
20
19.7830476876
0
VERTEX
8
0
62
2
6
CONTINUOUS
10
9.6135523914
20
19.7908910634
0
VERTEX
8
0
62
2
6
CONTINUOUS
10
9.6135228518
20
19.7930863800
0
VERTEX
8
0
62
2
6
CONTINUOUS
10
9.6134191016
20
19.8017427313
0
VERTEX
8
0
62
2
6
CONTINUOUS
10
9.6134191016
20
19.9978830091
0
VERTEX
8
0
62
2
6
CONTINUOUS
10
9.6135228518
20
20.0066852532
0
VERTEX
8
0
62
2
6
CONTINUOUS
10
9.6135463567
20
20.0083977712
0
VERTEX
8
0
62
2
6
CONTINUOUS
10
9.6135489427
20
20.0164057479
0
VERTEX
8
0
62
2
6
CONTINUOUS
10
9.6133091797
20
20.0229895826
0
VERTEX
8
0
62
2
6
CONTINUOUS
10
9.6128222331
20
20.0287231073
0
VERTEX
8
0
62
2
6
CONTINUOUS
10
9.6120934230
20
20.0338297863
0
VERTEX
8
0
62
2
6
CONTINUOUS
10
9.6111303525
20
20.0384293369
0
VERTEX
8
0
62
2
6
CONTINUOUS
10
9.6099402650
20
20.0425987387
0
VERTEX
8
0
62
2
6
CONTINUOUS
10
9.6085285776
20
20.0463934474
0
VERTEX
8
0
62
2
6
CONTINUOUS
10
9.6068978777
20
20.0498562160
0
VERTEX
8
0
62
2
6
CONTINUOUS
10
9.6050471913
20
20.0530211194
0
VERTEX
8
0
62
2
6
CONTINUOUS
10
9.6029714612
20
20.0559154386
0
VERTEX
8
0
62
2
6
CONTINUOUS
10
9.6006612224
20
20.0585605052
0
VERTEX
8
0
62
2
6
CONTINUOUS
10
9.5981024692
20
20.0609720305
0
VERTEX
8
0
62
2
6
CONTINUOUS
10
9.5952766992
20
20.0631602061
0
VERTEX
8
0
62
2
6
CONTINUOUS
10
9.5921611051
20
20.0651297417
0
VERTEX
8
0
62
2
6
CONTINUOUS
10
9.5887288680
20
20.0668799326
0
VERTEX
8
0
62
2
6
CONTINUOUS
10
9.5868846378
20
20.0676710970
0
VERTEX
8
0
62
2
6
CONTINUOUS
10
9.5849522940
20
20.0684038083
0
VERTEX
8
0
62
2
6
CONTINUOUS
10
9.5808121572
20
20.0696871758
0
SEQEND
0
LINE
8
0
62
2
6
CONTINUOUS
10
9.5808121572
20
20.0696871758
11
9.5808121572
21
20.0712538424
0
LINE
8
0
62
2
6
CONTINUOUS
10
9.5808121572
20
20.0712538424
11
9.7192121572
21
20.0712538424
0
LINE
8
0
62
2
6
CONTINUOUS
10
9.7192121572
20
20.0712538424
11
9.7192121572
21
20.0696871758
0
POLYLINE
8
0
62
2
6
CONTINUOUS
66
1
70
0
0
VERTEX
8
0
62
2
6
CONTINUOUS
10
9.7192121572
20
20.0696871758
0
VERTEX
8
0
62
2
6
CONTINUOUS
10
9.7152998310
20
20.0684811319
0
VERTEX
8
0
62
2
6
CONTINUOUS
10
9.7117182370
20
20.0670569442
0
VERTEX
8
0
62
2
6
CONTINUOUS
10
9.7084495690
20
20.0654266517
0
VERTEX
8
0
62
2
6
CONTINUOUS
10
9.7054706420
20
20.0635971056
0
VERTEX
8
0
62
2
6
CONTINUOUS
10
9.7027577935
20
20.0615695459
0
VERTEX
8
0
62
2
6
CONTINUOUS
10
9.7002906688
20
20.0593407129
0
VERTEX
8
0
62
2
6
CONTINUOUS
10
9.6980524724
20
20.0569027879
0
VERTEX
8
0
62
2
6
CONTINUOUS
10
9.6960301487
20
20.0542433687
0
VERTEX
8
0
62
2
6
CONTINUOUS
10
9.6942144576
20
20.0513454212
0
VERTEX
8
0
62
2
6
CONTINUOUS
10
9.6925999199
20
20.0481871054
0
VERTEX
8
0
62
2
6
CONTINUOUS
10
9.6911846204
20
20.0447412991
0
VERTEX
8
0
62
2
6
CONTINUOUS
10
9.6899698647
20
20.0409745202
0
VERTEX
8
0
62
2
6
CONTINUOUS
10
9.6889596895
20
20.0368446656
0
VERTEX
8
0
62
2
6
CONTINUOUS
10
9.6881602107
20
20.0322962990
0
VERTEX
8
0
62
2
6
CONTINUOUS
10
9.6875787534
20
20.0272502923
0
VERTEX
8
0
62
2
6
CONTINUOUS
10
9.6872225826
20
20.0215782429
0
VERTEX
8
0
62
2
6
CONTINUOUS
10
9.6870965441
20
20.0150245568
0
VERTEX
8
0
62
2
6
CONTINUOUS
10
9.6871946769
20
20.0068493946
0
VERTEX
8
0
62
2
6
CONTINUOUS
10
9.6872234765
20
20.0054629222
0
VERTEX
8
0
62
2
6
CONTINUOUS
10
9.6873316016
20
19.9978830091
0
VERTEX
8
0
62
2
6
CONTINUOUS
10
9.6873316016
20
19.8937317591
0
VERTEX
8
0
62
2
6
CONTINUOUS
10
9.6873316016
20
19.7710482869
0
SEQEND
0
POLYLINE
8
0
62
2
6
CONTINUOUS
66
1
70
0
0
VERTEX
8
0
62
2
6
CONTINUOUS
10
9.6873316016
20
19.7710482869
0
VERTEX
8
0
62
2
6
CONTINUOUS
10
9.6993908206
20
19.7703938840
0
VERTEX
8
0
62
2
6
CONTINUOUS
10
9.7139020841
20
19.7694452452
0
VERTEX
8
0
62
2
6
CONTINUOUS
10
9.7288617689
20
19.7683865395
0
VERTEX
8
0
62
2
6
CONTINUOUS
10
9.7446422080
20
19.7673109775
0
VERTEX
8
0
62
2
6
CONTINUOUS
10
9.7569758977
20
19.7665917487
0
VERTEX
8
0
62
2
6
CONTINUOUS
10
9.7676221159
20
19.7661165609
0
VERTEX
8
0
62
2
6
CONTINUOUS
10
9.7772137574
20
19.7658446873
0
VERTEX
8
0
62
2
6
CONTINUOUS
10
9.7860648502
20
19.7657560380
0
VERTEX
8
0
62
2
6
CONTINUOUS
10
9.7943592927
20
19.7658390939
0
VERTEX
8
0
62
2
6
CONTINUOUS
10
9.8022164617
20
19.7660867024
0
VERTEX
8
0
62
2
6
CONTINUOUS
10
9.8097195452
20
19.7664942707
0
VERTEX
8
0
62
2
6
CONTINUOUS
10
9.8169296181
20
19.7670588764
0
VERTEX
8
0
62
2
6
CONTINUOUS
10
9.8238933617
20
19.7677787882
0
VERTEX
8
0
62
2
6
CONTINUOUS
10
9.8306476215
20
19.7686531902
0
VERTEX
8
0
62
2
6
CONTINUOUS
10
9.8372222566
20
19.7696820146
0
VERTEX
8
0
62
2
6
CONTINUOUS
10
9.8436420038
20
19.7708658385
0
VERTEX
8
0
62
2
6
CONTINUOUS
10
9.8499277444
20
19.7722058163
0
VERTEX
8
0
62
2
6
CONTINUOUS
10
9.8560973909
20
19.7737036374
0
VERTEX
8
0
62
2
6
CONTINUOUS
10
9.8621665253
20
19.7753614968
0
VERTEX
8
0
62
2
6
CONTINUOUS
10
9.8681488677
20
19.7771820766
0
VERTEX
8
0
62
2
6
CONTINUOUS
10
9.8740566282
20
19.7791685334
0
VERTEX
8
0
62
2
6
CONTINUOUS
10
9.8799007749
20
19.7813244900
0
VERTEX
8
0
62
2
6
CONTINUOUS
10
9.8856912411
20
19.7836540298
0
VERTEX
8
0
62
2
6
CONTINUOUS
10
9.8914370885
20
19.7861616927
0
VERTEX
8
0
62
2
6
CONTINUOUS
10
9.8971466367
20
19.7888524729
0
VERTEX
8
0
62
2
6
CONTINUOUS
10
9.9028275669
20
19.7917318165
0
VERTEX
8
0
62
2
6
CONTINUOUS
10
9.9084870071
20
19.7948056204
0
VERTEX
8
0
62
2
6
CONTINUOUS
10
9.9141316016
20
19.7980802313
0
SEQEND
0
POLYLINE
8
0
62
2
6
CONTINUOUS
66
1
70
0
0
VERTEX
8
0
62
2
6
CONTINUOUS
10
9.3431482683
20
19.8959066202
0
VERTEX
8
0
62
2
6
CONTINUOUS
10
9.3628179343
20
19.8781558247
0
VERTEX
8
0
62
2
6
CONTINUOUS
10
9.4474913239
20
19.8017427313
0
VERTEX
8
0
62
2
6
CONTINUOUS
10
9.4531737628
20
19.7968350735
0
VERTEX
8
0
62
2
6
CONTINUOUS
10
9.4593893398
20
19.7917594827
0
VERTEX
8
0
62
2
6
CONTINUOUS
10
9.4661442454
20
19.7865290334
0
VERTEX
8
0
62
2
6
CONTINUOUS
10
9.4734373534
20
19.7811613244
0
VERTEX
8
0
62
2
6
CONTINUOUS
10
9.4812585854
20
19.7756790547
0
VERTEX
8
0
62
2
6
CONTINUOUS
10
9.4895871826
20
19.7701105466
0
VERTEX
8
0
62
2
6
CONTINUOUS
10
9.4983899922
20
19.7644901426
0
VERTEX
8
0
62
2
6
CONTINUOUS
10
9.5076199369
20
19.7588583742
0
VERTEX
8
0
62
2
6
CONTINUOUS
10
9.5172149024
20
19.7532617838
0
VERTEX
8
0
62
2
6
CONTINUOUS
10
9.5270973368
20
19.7477522684
0
VERTEX
8
0
62
2
6
CONTINUOUS
10
9.5371748827
20
19.7423858337
0
VERTEX
8
0
62
2
6
CONTINUOUS
10
9.5473423233
20
19.7372207022
0
VERTEX
8
0
62
2
6
CONTINUOUS
10
9.5548992334
20
19.7335420452
0
VERTEX
8
0
62
2
6
CONTINUOUS
10
9.5648816016
20
19.7288941202
0
SEQEND
0
LINE
8
0
62
2
6
CONTINUOUS
10
9.5648816016
20
19.7288941202
11
9.4982107683
21
19.7288941202
0
ARC
8
0
62
2
6
CONTINUOUS
10
9.4873554013
20
19.8426325490
40
0.1142552807
50
230.1562195028
51
275.4518816802
0
LINE
8
0
62
2
6
CONTINUOUS
10
9.4141524350
20
19.7549080091
11
9.3257593794
21
19.8334746758
0
LINE
8
0
62
2
6
CONTINUOUS
10
9.3257593794
20
19.8334746758
11
9.2590885461
21
19.9068385647
0
POLYLINE
8
0
62
2
6
CONTINUOUS
66
1
70
0
0
VERTEX
8
0
62
2
6
CONTINUOUS
10
9.2590885461
20
19.9068385647
0
VERTEX
8
0
62
2
6
CONTINUOUS
10
9.2673049067
20
19.9077818230
0
VERTEX
8
0
62
2
6
CONTINUOUS
10
9.2751710163
20
19.9088158582
0
VERTEX
8
0
62
2
6
CONTINUOUS
10
9.2824142623
20
19.9099077258
0
VERTEX
8
0
62
2
6
CONTINUOUS
10
9.2891844229
20
19.9110716238
0
VERTEX
8
0
62
2
6
CONTINUOUS
10
9.2955803774
20
19.9123173766
0
VERTEX
8
0
62
2
6
CONTINUOUS
10
9.3016718868
20
19.9136524304
0
VERTEX
8
0
62
2
6
CONTINUOUS
10
9.3075106520
20
19.9150828725
0
VERTEX
8
0
62
2
6
CONTINUOUS
10
9.3131364785
20
19.9166140054
0
VERTEX
8
0
62
2
6
CONTINUOUS
10
9.3185809627
20
19.9182506968
0
VERTEX
8
0
62
2
6
CONTINUOUS
10
9.3238698200
20
19.9199976050
0
VERTEX
8
0
62
2
6
CONTINUOUS
10
9.3290244210
20
19.9218593318
0
VERTEX
8
0
62
2
6
CONTINUOUS
10
9.3340628430
20
19.9238405316
0
VERTEX
8
0
62
2
6
CONTINUOUS
10
9.3390006111
20
19.9259459908
0
VERTEX
8
0
62
2
6
CONTINUOUS
10
9.3394190228
20
19.9261323281
0
VERTEX
8
0
62
2
6
CONTINUOUS
10
9.3434999633
20
19.9280379845
0
VERTEX
8
0
62
2
6
CONTINUOUS
10
9.3473731102
20
19.9300075869
0
VERTEX
8
0
62
2
6
CONTINUOUS
10
9.3510325172
20
19.9320323322
0
VERTEX
8
0
62
2
6
CONTINUOUS
10
9.3544761862
20
19.9341048564
0
VERTEX
8
0
62
2
6
CONTINUOUS
10
9.3577049437
20
19.9362190214
0
VERTEX
8
0
62
2
6
CONTINUOUS
10
9.3607216248
20
19.9383697554
0
VERTEX
8
0
62
2
6
CONTINUOUS
10
9.3635304663
20
19.9405529322
0
VERTEX
8
0
62
2
6
CONTINUOUS
10
9.3661366480
20
19.9427652795
0
VERTEX
8
0
62
2
6
CONTINUOUS
10
9.3685459369
20
19.9450043078
0
VERTEX
8
0
62
2
6
CONTINUOUS
10
9.3707644065
20
19.9472682548
0
VERTEX
8
0
62
2
6
CONTINUOUS
10
9.3727982094
20
19.9495560397
0
VERTEX
8
0
62
2
6
CONTINUOUS
10
9.3746533906
20
19.9518672255
0
VERTEX
8
0
62
2
6
CONTINUOUS
10
9.3763357305
20
19.9542019845
0
VERTEX
8
0
62
2
6
CONTINUOUS
10
9.3778506112
20
19.9565610659
0
VERTEX
8
0
62
2
6
CONTINUOUS
10
9.3792029009
20
19.9589457636
0
VERTEX
8
0
62
2
6
CONTINUOUS
10
9.3803968550
20
19.9613578816
0
VERTEX
8
0
62
2
6
CONTINUOUS
10
9.3814360305
20
19.9637996977
0
VERTEX
8
0
62
2
6
CONTINUOUS
10
9.3823232135
20
19.9662739230
0
VERTEX
8
0
62
2
6
CONTINUOUS
10
9.3830603596
20
19.9687836593
0
VERTEX
8
0
62
2
6
CONTINUOUS
10
9.3836485475
20
19.9713323525
0
VERTEX
8
0
62
2
6
CONTINUOUS
10
9.3840879441
20
19.9739237448
0
VERTEX
8
0
62
2
6
CONTINUOUS
10
9.3843777832
20
19.9765618256
0
VERTEX
8
0
62
2
6
CONTINUOUS
10
9.3845163555
20
19.9792507823
0
VERTEX
8
0
62
2
6
CONTINUOUS
10
9.3845010103
20
19.9819949532
0
VERTEX
8
0
62
2
6
CONTINUOUS
10
9.3843281674
20
19.9847987823
0
VERTEX
8
0
62
2
6
CONTINUOUS
10
9.3839933370
20
19.9876667795
0
VERTEX
8
0
62
2
6
CONTINUOUS
10
9.3835397057
20
19.9902785077
0
VERTEX
8
0
62
2
6
CONTINUOUS
10
9.3829408893
20
19.9928280240
0
VERTEX
8
0
62
2
6
CONTINUOUS
10
9.3821978572
20
19.9953190662
0
VERTEX
8
0
62
2
6
CONTINUOUS
10
9.3813107160
20
19.9977550413
0
VERTEX
8
0
62
2
6
CONTINUOUS
10
9.3802787391
20
20.0001389699
0
VERTEX
8
0
62
2
6
CONTINUOUS
10
9.3791004116
20
20.0024734321
0
VERTEX
8
0
62
2
6
CONTINUOUS
10
9.3777734906
20
20.0047605148
0
VERTEX
8
0
62
2
6
CONTINUOUS
10
9.3762950819
20
20.0070017614
0
VERTEX
8
0
62
2
6
CONTINUOUS
10
9.3746617345
20
20.0091981246
0
VERTEX
8
0
62
2
6
CONTINUOUS
10
9.3728695543
20
20.0113499220
0
VERTEX
8
0
62
2
6
CONTINUOUS
10
9.3709143385
20
20.0134567947
0
VERTEX
8
0
62
2
6
CONTINUOUS
10
9.3687917354
20
20.0155176675
0
VERTEX
8
0
62
2
6
CONTINUOUS
10
9.3664974331
20
20.0175307106
0
VERTEX
8
0
62
2
6
CONTINUOUS
10
9.3640273845
20
20.0194933001
0
VERTEX
8
0
62
2
6
CONTINUOUS
10
9.3613780792
20
20.0214019788
0
VERTEX
8
0
62
2
6
CONTINUOUS
10
9.3585468720
20
20.0232524130
0
VERTEX
8
0
62
2
6
CONTINUOUS
10
9.3555323875
20
20.0250393483
0
VERTEX
8
0
62
2
6
CONTINUOUS
10
9.3523350199
20
20.0267565618
0
VERTEX
8
0
62
2
6
CONTINUOUS
10
9.3489575549
20
20.0283968162
0
VERTEX
8
0
62
2
6
CONTINUOUS
10
9.3454059448
20
20.0299518179
0
VERTEX
8
0
62
2
6
CONTINUOUS
10
9.3416902722
20
20.0314121911
0
VERTEX
8
0
62
2
6
CONTINUOUS
10
9.3378259362
20
20.0327674839
0
VERTEX
8
0
62
2
6
CONTINUOUS
10
9.3338350825
20
20.0340062373
0
VERTEX
8
0
62
2
6
CONTINUOUS
10
9.3297482639
20
20.0351161610
0
VERTEX
8
0
62
2
6
CONTINUOUS
10
9.3256062353
20
20.0360844891
0
VERTEX
8
0
62
2
6
CONTINUOUS
10
9.3238576821
20
20.0364468308
0
VERTEX
8
0
62
2
6
CONTINUOUS
10
9.3192678959
20
20.0372838043
0
VERTEX
8
0
62
2
6
CONTINUOUS
10
9.3146040805
20
20.0379784714
0
VERTEX
8
0
62
2
6
CONTINUOUS
10
9.3098482820
20
20.0385320051
0
VERTEX
8
0
62
2
6
CONTINUOUS
10
9.3049791176
20
20.0389447307
0
VERTEX
8
0
62
2
6
CONTINUOUS
10
9.2999705067
20
20.0392159872
0
VERTEX
8
0
62
2
6
CONTINUOUS
10
9.2947897280
20
20.0393439064
0
VERTEX
8
0
62
2
6
CONTINUOUS
10
9.2893943060
20
20.0393250502
0
VERTEX
8
0
62
2
6
CONTINUOUS
10
9.2837267245
20
20.0391537794
0
VERTEX
8
0
62
2
6
CONTINUOUS
10
9.2777047642
20
20.0388210833
0
VERTEX
8
0
62
2
6
CONTINUOUS
10
9.2712019826
20
20.0383121938
0
VERTEX
8
0
62
2
6
CONTINUOUS
10
9.2640022878
20
20.0376010057
0
VERTEX
8
0
62
2
6
CONTINUOUS
10
9.2556681726
20
20.0366339047
0
VERTEX
8
0
62
2
6
CONTINUOUS
10
9.2449671228
20
20.0352600059
0
VERTEX
8
0
62
2
6
CONTINUOUS
10
9.2417010461
20
20.0348288424
0
SEQEND
0
POLYLINE
8
0
62
2
6
CONTINUOUS
66
1
70
0
0
VERTEX
8
0
62
2
6
CONTINUOUS
10
9.2417010461
20
20.0348288424
0
VERTEX
8
0
62
2
6
CONTINUOUS
10
9.2417010461
20
19.9250513424
0
VERTEX
8
0
62
2
6
CONTINUOUS
10
9.2417010461
20
19.8017427313
0
VERTEX
8
0
62
2
6
CONTINUOUS
10
9.2416201263
20
19.7944289578
0
VERTEX
8
0
62
2
6
CONTINUOUS
10
9.2415558066
20
19.7895480522
0
VERTEX
8
0
62
2
6
CONTINUOUS
10
9.2415767076
20
19.7828971297
0
VERTEX
8
0
62
2
6
CONTINUOUS
10
9.2417744096
20
19.7772891170
0
VERTEX
8
0
62
2
6
CONTINUOUS
10
9.2421490826
20
19.7723369219
0
VERTEX
8
0
62
2
6
CONTINUOUS
10
9.2426967908
20
19.7678755315
0
VERTEX
8
0
62
2
6
CONTINUOUS
10
9.2434124300
20
19.7638137588
0
VERTEX
8
0
62
2
6
CONTINUOUS
10
9.2442908774
20
19.7600926675
0
VERTEX
8
0
62
2
6
CONTINUOUS
10
9.2453276728
20
19.7566699852
0
VERTEX
8
0
62
2
6
CONTINUOUS
10
9.2465195032
20
19.7535131989
0
VERTEX
8
0
62
2
6
CONTINUOUS
10
9.2478645770
20
19.7505961679
0
VERTEX
8
0
62
2
6
CONTINUOUS
10
9.2493629171
20
19.7478973645
0
VERTEX
8
0
62
2
6
CONTINUOUS
10
9.2510165847
20
19.7453989426
0
VERTEX
8
0
62
2
6
CONTINUOUS
10
9.2528298352
20
19.7430862546
0
VERTEX
8
0
62
2
6
CONTINUOUS
10
9.2548092052
20
19.7409476173
0
VERTEX
8
0
62
2
6
CONTINUOUS
10
9.2569635341
20
19.7389742112
0
VERTEX
8
0
62
2
6
CONTINUOUS
10
9.2593039233
20
19.7371600431
0
VERTEX
8
0
62
2
6
CONTINUOUS
10
9.2618436464
20
19.7355019246
0
VERTEX
8
0
62
2
6
CONTINUOUS
10
9.2645980217
20
19.7339994408
0
VERTEX
8
0
62
2
6
CONTINUOUS
10
9.2675842642
20
19.7326548936
0
VERTEX
8
0
62
2
6
CONTINUOUS
10
9.2708150643
20
19.7314752601
0
VERTEX
8
0
62
2
6
CONTINUOUS
10
9.2743066016
20
19.7304677313
0
SEQEND
0
LINE
8
0
62
2
6
CONTINUOUS
10
9.2743066016
20
19.7304677313
11
9.2743066016
21
19.7288941202
0
LINE
8
0
62
2
6
CONTINUOUS
10
9.2743066016
20
19.7288941202
11
9.1359066016
21
19.7288941202
0
LINE
8
0
62
2
6
CONTINUOUS
10
9.1359066016
20
19.7288941202
11
9.1359066016
21
19.7304677313
0
POLYLINE
8
0
62
2
6
CONTINUOUS
66
1
70
0
0
VERTEX
8
0
62
2
6
CONTINUOUS
10
9.1359066016
20
19.7304677313
0
VERTEX
8
0
62
2
6
CONTINUOUS
10
9.1400017517
20
19.7316795812
0
VERTEX
8
0
62
2
6
CONTINUOUS
10
9.1437332253
20
19.7331351166
0
VERTEX
8
0
62
2
6
CONTINUOUS
10
9.1471221394
20
19.7348203461
0
VERTEX
8
0
62
2
6
CONTINUOUS
10
9.1501949561
20
19.7367271047
0
VERTEX
8
0
62
2
6
CONTINUOUS
10
9.1529789535
20
19.7388542616
0
VERTEX
8
0
62
2
6
CONTINUOUS
10
9.1554972808
20
19.7412062994
0
VERTEX
8
0
62
2
6
CONTINUOUS
10
9.1577686397
20
19.7437933711
0
VERTEX
8
0
62
2
6
CONTINUOUS
10
9.1598070744
20
19.7466313140
0
VERTEX
8
0
62
2
6
CONTINUOUS
10
9.1616219182
20
19.7497417148
0
VERTEX
8
0
62
2
6
CONTINUOUS
10
9.1632179265
20
19.7531521968
0
VERTEX
8
0
62
2
6
CONTINUOUS
10
9.1645956124
20
19.7568972188
0
VERTEX
8
0
62
2
6
CONTINUOUS
10
9.1657517826
20
19.7610199187
0
VERTEX
8
0
62
2
6
CONTINUOUS
10
9.1666802840
20
19.7655761156
0
VERTEX
8
0
62
2
6
CONTINUOUS
10
9.1673730077
20
19.7706431732
0
VERTEX
8
0
62
2
6
CONTINUOUS
10
9.1678213200
20
19.7763415215
0
VERTEX
8
0
62
2
6
CONTINUOUS
10
9.1680185458
20
19.7828973233
0
VERTEX
8
0
62
2
6
CONTINUOUS
10
9.1679672238
20
19.7909013913
0
VERTEX
8
0
62
2
6
CONTINUOUS
10
9.1679105619
20
19.7937575109
0
VERTEX
8
0
62
2
6
CONTINUOUS
10
9.1677941016
20
19.8017427313
0
VERTEX
8
0
62
2
6
CONTINUOUS
10
9.1677941016
20
19.9978830091
0
VERTEX
8
0
62
2
6
CONTINUOUS
10
9.1679105619
20
20.0060058548
0
VERTEX
8
0
62
2
6
CONTINUOUS
10
9.1679576357
20
20.0083715017
0
VERTEX
8
0
62
2
6
CONTINUOUS
10
9.1680221180
20
20.0165559320
0
VERTEX
8
0
62
2
6
CONTINUOUS
10
9.1678393086
20
20.0231906588
0
VERTEX
8
0
62
2
6
CONTINUOUS
10
9.1674056673
20
20.0289351112
0
VERTEX
8
0
62
2
6
CONTINUOUS
10
9.1667273455
20
20.0340348439
0
VERTEX
8
0
62
2
6
CONTINUOUS
10
9.1658124725
20
20.0386184047
0
VERTEX
8
0
62
2
6
CONTINUOUS
10
9.1646686555
20
20.0427672087
0
VERTEX
8
0
62
2
6
CONTINUOUS
10
9.1633015570
20
20.0465392810
0
VERTEX
8
0
62
2
6
CONTINUOUS
10
9.1617138990
20
20.0499790147
0
VERTEX
8
0
62
2
6
CONTINUOUS
10
9.1599047208
20
20.0531216000
0
VERTEX
8
0
62
2
6
CONTINUOUS
10
9.1578688441
20
20.0559951020
0
VERTEX
8
0
62
2
6
CONTINUOUS
10
9.1555965380
20
20.0586214005
0
VERTEX
8
0
62
2
6
CONTINUOUS
10
9.1530733798
20
20.0610165688
0
VERTEX
8
0
62
2
6
CONTINUOUS
10
9.1502802996
20
20.0631910016
0
VERTEX
8
0
62
2
6
CONTINUOUS
10
9.1471937779
20
20.0651494710
0
VERTEX
8
0
62
2
6
CONTINUOUS
10
9.1437861477
20
20.0668912097
0
VERTEX
8
0
62
2
6
CONTINUOUS
10
9.1400311385
20
20.0684082213
0
VERTEX
8
0
62
2
6
CONTINUOUS
10
9.1359066016
20
20.0696871758
0
SEQEND
0
LINE
8
0
62
2
6
CONTINUOUS
10
9.1359066016
20
20.0696871758
11
9.1359066016
21
20.0712538424
0
POLYLINE
8
0
62
2
6
CONTINUOUS
66
1
70
0
0
VERTEX
8
0
62
2
6
CONTINUOUS
10
9.1359066016
20
20.0712538424
0
VERTEX
8
0
62
2
6
CONTINUOUS
10
9.3083579905
20
20.0712538424
0
VERTEX
8
0
62
2
6
CONTINUOUS
10
9.3136280310
20
20.0712176344
0
VERTEX
8
0
62
2
6
CONTINUOUS
10
9.3238852509
20
20.0709314674
0
VERTEX
8
0
62
2
6
CONTINUOUS
10
9.3337393973
20
20.0703698780
0
VERTEX
8
0
62
2
6
CONTINUOUS
10
9.3431884074
20
20.0695446476
0
VERTEX
8
0
62
2
6
CONTINUOUS
10
9.3522309972
20
20.0684678474
0
VERTEX
8
0
62
2
6
CONTINUOUS
10
9.3608667183
20
20.0671517872
0
VERTEX
8
0
62
2
6
CONTINUOUS
10
9.3690960041
20
20.0656089534
0
VERTEX
8
0
62
2
6
CONTINUOUS
10
9.3769202076
20
20.0638519385
0
VERTEX
8
0
62
2
6
CONTINUOUS
10
9.3843416244
20
20.0618933599
0
VERTEX
8
0
62
2
6
CONTINUOUS
10
9.3913635012
20
20.0597457703
0
VERTEX
8
0
62
2
6
CONTINUOUS
10
9.3979900263
20
20.0574215607
0
VERTEX
8
0
62
2
6
CONTINUOUS
10
9.4042263018
20
20.0549328564
0
VERTEX
8
0
62
2
6
CONTINUOUS
10
9.4100782932
20
20.0522914092
0
VERTEX
8
0
62
2
6
CONTINUOUS
10
9.4155527589
20
20.0495084869
0
VERTEX
8
0
62
2
6
CONTINUOUS
10
9.4206571562
20
20.0465947635
0
VERTEX
8
0
62
2
6
CONTINUOUS
10
9.4253995250
20
20.0435602122
0
VERTEX
8
0
62
2
6
CONTINUOUS
10
9.4297883502
20
20.0404140055
0
VERTEX
8
0
62
2
6
CONTINUOUS
10
9.4338324034
20
20.0371644241
0
VERTEX
8
0
62
2
6
CONTINUOUS
10
9.4375405667
20
20.0338187801
0
VERTEX
8
0
62
2
6
CONTINUOUS
10
9.4409216414
20
20.0303833562
0
VERTEX
8
0
62
2
6
CONTINUOUS
10
9.4439841454
20
20.0268633664
0
VERTEX
8
0
62
2
6
CONTINUOUS
10
9.4467361046
20
20.0232629398
0
VERTEX
8
0
62
2
6
CONTINUOUS
10
9.4491848429
20
20.0195851308
0
VERTEX
8
0
62
2
6
CONTINUOUS
10
9.4513367793
20
20.0158319579
0
VERTEX
8
0
62
2
6
CONTINUOUS
10
9.4531972361
20
20.0120044722
0
VERTEX
8
0
62
2
6
CONTINUOUS
10
9.4547702689
20
20.0081028534
0
VERTEX
8
0
62
2
6
CONTINUOUS
10
9.4560585219
20
20.0041265336
0
VERTEX
8
0
62
2
6
CONTINUOUS
10
9.4565963352
20
20.0021097464
0
VERTEX
8
0
62
2
6
CONTINUOUS
10
9.4570631184
20
20.0000743434
0
VERTEX
8
0
62
2
6
CONTINUOUS
10
9.4577828776
20
19.9959497956
0
VERTEX
8
0
62
2
6
CONTINUOUS
10
9.4582167216
20
19.9917519250
0
VERTEX
8
0
62
2
6
CONTINUOUS
10
9.4583621572
20
19.9874788424
0
VERTEX
8
0
62
2
6
CONTINUOUS
10
9.4582166932
20
19.9834379728
0
VERTEX
8
0
62
2
6
CONTINUOUS
10
9.4577808365
20
19.9794177953
0
VERTEX
8
0
62
2
6
CONTINUOUS
10
9.4570537559
20
19.9754136142
0
VERTEX
8
0
62
2
6
CONTINUOUS
10
9.4560325460
20
19.9714214261
0
VERTEX
8
0
62
2
6
CONTINUOUS
10
9.4547124079
20
19.9674381361
0
VERTEX
8
0
62
2
6
CONTINUOUS
10
9.4530868876
20
19.9634617676
0
VERTEX
8
0
62
2
6
CONTINUOUS
10
9.4511481743
20
19.9594916609
0
VERTEX
8
0
62
2
6
CONTINUOUS
10
9.4488874530
20
19.9555286561
0
VERTEX
8
0
62
2
6
CONTINUOUS
10
9.4462953126
20
19.9515752584
0
VERTEX
8
0
62
2
6
CONTINUOUS
10
9.4433622058
20
19.9476357827
0
VERTEX
8
0
62
2
6
CONTINUOUS
10
9.4400789593
20
19.9437164747
0
VERTEX
8
0
62
2
6
CONTINUOUS
10
9.4364373314
20
19.9398256047
0
VERTEX
8
0
62
2
6
CONTINUOUS
10
9.4324306115
20
19.9359735282
0
VERTEX
8
0
62
2
6
CONTINUOUS
10
9.4280542522
20
19.9321727065
0
VERTEX
8
0
62
2
6
CONTINUOUS
10
9.4233065227
20
19.9284376768
0
VERTEX
8
0
62
2
6
CONTINUOUS
10
9.4181891591
20
19.9247849614
0
VERTEX
8
0
62
2
6
CONTINUOUS
10
9.4127079876
20
19.9212329039
0
VERTEX
8
0
62
2
6
CONTINUOUS
10
9.4068734810
20
19.9178014224
0
VERTEX
8
0
62
2
6
CONTINUOUS
10
9.4007012055
20
19.9145116705
0
VERTEX
8
0
62
2
6
CONTINUOUS
10
9.3942121113
20
19.9113856054
0
VERTEX
8
0
62
2
6
CONTINUOUS
10
9.3874326167
20
19.9084454692
0
VERTEX
8
0
62
2
6
CONTINUOUS
10
9.3803944489
20
19.9057131980
0
VERTEX
8
0
62
2
6
CONTINUOUS
10
9.3731342140
20
19.9032097886
0
VERTEX
8
0
62
2
6
CONTINUOUS
10
9.3656926957
20
19.9009546581
0
VERTEX
8
0
62
2
6
CONTINUOUS
10
9.3584675620
20
19.8990511721
0
VERTEX
8
0
62
2
6
CONTINUOUS
10
9.3508209194
20
19.8973324710
0
VERTEX
8
0
62
2
6
CONTINUOUS
10
9.3431482683
20
19.8959066202
0
SEQEND
0
POLYLINE
8
0
62
2
6
CONTINUOUS
66
1
70
0
0
VERTEX
8
0
62
2
6
CONTINUOUS
10
8.8823052127
20
19.7725955091
0
VERTEX
8
0
62
2
6
CONTINUOUS
10
8.8952026079
20
19.7716431760
0
VERTEX
8
0
62
2
6
CONTINUOUS
10
8.9114629437
20
19.7702890765
0
VERTEX
8
0
62
2
6
CONTINUOUS
10
8.9251184119
20
19.7691168594
0
VERTEX
8
0
62
2
6
CONTINUOUS
10
8.9397040479
20
19.7679363935
0
VERTEX
8
0
62
2
6
CONTINUOUS
10
8.9515523756
20
19.7671079724
0
VERTEX
8
0
62
2
6
CONTINUOUS
10
8.9619314164
20
19.7665311658
0
VERTEX
8
0
62
2
6
CONTINUOUS
10
8.9713548807
20
19.7661651576
0
VERTEX
8
0
62
2
6
CONTINUOUS
10
8.9800924668
20
19.7659886725
0
VERTEX
8
0
62
2
6
CONTINUOUS
10
8.9883075220
20
19.7659890869
0
VERTEX
8
0
62
2
6
CONTINUOUS
10
8.9961085053
20
19.7661583566
0
VERTEX
8
0
62
2
6
CONTINUOUS
10
9.0035722407
20
19.7664911851
0
VERTEX
8
0
62
2
6
CONTINUOUS
10
9.0107558361
20
19.7669840933
0
VERTEX
8
0
62
2
6
CONTINUOUS
10
9.0177033730
20
19.7676349050
0
VERTEX
8
0
62
2
6
CONTINUOUS
10
9.0244499258
20
19.7684424442
0
VERTEX
8
0
62
2
6
CONTINUOUS
10
9.0310241110
20
19.7694063490
0
VERTEX
8
0
62
2
6
CONTINUOUS
10
9.0374497741
20
19.7705269527
0
VERTEX
8
0
62
2
6
CONTINUOUS
10
9.0437471460
20
19.7718052065
0
VERTEX
8
0
62
2
6
CONTINUOUS
10
9.0499336605
20
19.7732426277
0
VERTEX
8
0
62
2
6
CONTINUOUS
10
9.0560245455
20
19.7748412650
0
VERTEX
8
0
62
2
6
CONTINUOUS
10
9.0620332604
20
19.7766036747
0
VERTEX
8
0
62
2
6
CONTINUOUS
10
9.0679718263
20
19.7785329041
0
VERTEX
8
0
62
2
6
CONTINUOUS
10
9.0738510784
20
19.7806324804
0
VERTEX
8
0
62
2
6
CONTINUOUS
10
9.0796808621
20
19.7829064024
0
VERTEX
8
0
62
2
6
CONTINUOUS
10
9.0854701883
20
19.7853591348
0
VERTEX
8
0
62
2
6
CONTINUOUS
10
9.0912273567
20
19.7879956042
0
VERTEX
8
0
62
2
6
CONTINUOUS
10
9.0969600554
20
19.7908211956
0
VERTEX
8
0
62
2
6
CONTINUOUS
10
9.1026754423
20
19.7938417504
0
VERTEX
8
0
62
2
6
CONTINUOUS
10
9.1083802127
20
19.7970635647
0
SEQEND
0
LINE
8
0
62
2
6
CONTINUOUS
10
9.1083802127
20
19.7970635647
11
9.1105496572
21
19.7970635647
0
LINE
8
0
62
2
6
CONTINUOUS
10
9.1105496572
20
19.7970635647
11
9.0779441016
21
19.7288941202
0
LINE
8
0
62
2
6
CONTINUOUS
10
9.0779441016
20
19.7288941202
11
8.7757857683
21
19.7288941202
0
LINE
8
0
62
2
6
CONTINUOUS
10
8.7757857683
20
19.7288941202
11
8.7757857683
21
19.7304677313
0
POLYLINE
8
0
62
2
6
CONTINUOUS
66
1
70
0
0
VERTEX
8
0
62
2
6
CONTINUOUS
10
8.7757857683
20
19.7304677313
0
VERTEX
8
0
62
2
6
CONTINUOUS
10
8.7798957659
20
19.7316835814
0
VERTEX
8
0
62
2
6
CONTINUOUS
10
8.7818153674
20
19.7323846735
0
VERTEX
8
0
62
2
6
CONTINUOUS
10
8.7836481166
20
19.7331455044
0
VERTEX
8
0
62
2
6
CONTINUOUS
10
8.7870609960
20
19.7348386808
0
VERTEX
8
0
62
2
6
CONTINUOUS
10
8.7901623167
20
19.7367559657
0
VERTEX
8
0
62
2
6
CONTINUOUS
10
8.7929785121
20
19.7388963105
0
VERTEX
8
0
62
2
6
CONTINUOUS
10
8.7955320207
20
19.7412641536
0
VERTEX
8
0
62
2
6
CONTINUOUS
10
8.7978409763
20
19.7438694608
0
VERTEX
8
0
62
2
6
CONTINUOUS
10
8.7999190040
20
19.7467277220
0
VERTEX
8
0
62
2
6
CONTINUOUS
10
8.8017751671
20
19.7498599898
0
VERTEX
8
0
62
2
6
CONTINUOUS
10
8.8034140953
20
19.7532931194
0
VERTEX
8
0
62
2
6
CONTINUOUS
10
8.8048363079
20
19.7570604759
0
VERTEX
8
0
62
2
6
CONTINUOUS
10
8.8060387354
20
19.7612035939
0
VERTEX
8
0
62
2
6
CONTINUOUS
10
8.8070154561
20
19.7657757956
0
VERTEX
8
0
62
2
6
CONTINUOUS
10
8.8077587016
20
19.7708501781
0
VERTEX
8
0
62
2
6
CONTINUOUS
10
8.8082603260
20
19.7765388043
0
VERTEX
8
0
62
2
6
CONTINUOUS
10
8.8085144140
20
19.7830473978
0
VERTEX
8
0
62
2
6
CONTINUOUS
10
8.8085246908
20
19.7908910772
0
VERTEX
8
0
62
2
6
CONTINUOUS
10
8.8084951035
20
19.7930878388
0
VERTEX
8
0
62
2
6
CONTINUOUS
10
8.8083913239
20
19.8017427313
0
VERTEX
8
0
62
2
6
CONTINUOUS
10
8.8083913239
20
19.9978830091
0
VERTEX
8
0
62
2
6
CONTINUOUS
10
8.8084951035
20
20.0066837769
0
VERTEX
8
0
62
2
6
CONTINUOUS
10
8.8085186494
20
20.0083977281
0
VERTEX
8
0
62
2
6
CONTINUOUS
10
8.8085213519
20
20.0164060373
0
VERTEX
8
0
62
2
6
CONTINUOUS
10
8.8082816975
20
20.0229899706
0
VERTEX
8
0
62
2
6
CONTINUOUS
10
8.8077948533
20
20.0287235171
0
VERTEX
8
0
62
2
6
CONTINUOUS
10
8.8070661405
20
20.0338301832
0
VERTEX
8
0
62
2
6
CONTINUOUS
10
8.8061031631
20
20.0384297032
0
VERTEX
8
0
62
2
6
CONTINUOUS
10
8.8049131653
20
20.0425990652
0
VERTEX
8
0
62
2
6
CONTINUOUS
10
8.8035015644
20
20.0463937302
0
VERTEX
8
0
62
2
6
CONTINUOUS
10
8.8018709480
20
20.0498564542
0
VERTEX
8
0
62
2
6
CONTINUOUS
10
8.8000203423
20
20.0530213143
0
VERTEX
8
0
62
2
6
CONTINUOUS
10
8.7979446896
20
20.0559155932
0
VERTEX
8
0
62
2
6
CONTINUOUS
10
8.7956345246
20
20.0585606234
0
VERTEX
8
0
62
2
6
CONTINUOUS
10
8.7930758405
20
20.0609721169
0
VERTEX
8
0
62
2
6
CONTINUOUS
10
8.7902501340
20
20.0631602658
0
VERTEX
8
0
62
2
6
CONTINUOUS
10
8.7871345963
20
20.0651297800
0
VERTEX
8
0
62
2
6
CONTINUOUS
10
8.7837024070
20
20.0668799545
0
VERTEX
8
0
62
2
6
CONTINUOUS
10
8.7818581985
20
20.0676711119
0
VERTEX
8
0
62
2
6
CONTINUOUS
10
8.7799258748
20
20.0684038169
0
VERTEX
8
0
62
2
6
CONTINUOUS
10
8.7757857683
20
20.0696871758
0
SEQEND
0
LINE
8
0
62
2
6
CONTINUOUS
10
8.7757857683
20
20.0696871758
11
8.7757857683
21
20.0712538424
0
LINE
8
0
62
2
6
CONTINUOUS
10
8.7757857683
20
20.0712538424
11
9.0076649350
21
20.0712538424
0
LINE
8
0
62
2
6
CONTINUOUS
10
9.0076649350
20
20.0712538424
11
9.0417163239
21
20.0738441202
0
LINE
8
0
62
2
6
CONTINUOUS
10
9.0417163239
20
20.0738441202
11
9.0438927127
21
20.0738441202
0
LINE
8
0
62
2
6
CONTINUOUS
10
9.0438927127
20
20.0738441202
11
9.0438927127
21
20.0129649535
0
LINE
8
0
62
2
6
CONTINUOUS
10
9.0438927127
20
20.0129649535
11
9.0417163239
21
20.0129649535
0
ARC
8
0
62
2
6
CONTINUOUS
10
8.9705632195
20
19.9067758100
40
0.1278237007
50
56.1755396367
51
96.4463209909
0
LINE
8
0
62
2
6
CONTINUOUS
10
8.9562121572
20
20.0337913424
11
8.8823052127
21
20.0301566202
0
LINE
8
0
62
2
6
CONTINUOUS
10
8.8823052127
20
20.0301566202
11
8.8823052127
21
19.9333816202
0
LINE
8
0
62
2
6
CONTINUOUS
10
8.8823052127
20
19.9333816202
11
8.9685274350
21
19.9333816202
0
LINE
8
0
62
2
6
CONTINUOUS
10
8.9685274350
20
19.9333816202
11
9.0004149350
21
19.9364941202
0
LINE
8
0
62
2
6
CONTINUOUS
10
9.0004149350
20
19.9364941202
11
9.0025927127
21
19.9364941202
0
LINE
8
0
62
2
6
CONTINUOUS
10
9.0025927127
20
19.9364941202
11
9.0025927127
21
19.8813524535
0
LINE
8
0
62
2
6
CONTINUOUS
10
9.0025927127
20
19.8813524535
11
9.0004149350
21
19.8813524535
0
POLYLINE
8
0
62
2
6
CONTINUOUS
66
1
70
0
0
VERTEX
8
0
62
2
6
CONTINUOUS
10
9.0004149350
20
19.8813524535
0
VERTEX
8
0
62
2
6
CONTINUOUS
10
8.9991495291
20
19.8828574940
0
VERTEX
8
0
62
2
6
CONTINUOUS
10
8.9977233955
20
19.8842856165
0
VERTEX
8
0
62
2
6
CONTINUOUS
10
8.9961266103
20
19.8856402659
0
VERTEX
8
0
62
2
6
CONTINUOUS
10
8.9943471119
20
19.8869233709
0
VERTEX
8
0
62
2
6
CONTINUOUS
10
8.9923707814
20
19.8881353937
0
VERTEX
8
0
62
2
6
CONTINUOUS
10
8.9901814697
20
19.8892754170
0
VERTEX
8
0
62
2
6
CONTINUOUS
10
8.9877609404
20
19.8903412621
0
VERTEX
8
0
62
2
6
CONTINUOUS
10
8.9850886838
20
19.8913296310
0
VERTEX
8
0
62
2
6
CONTINUOUS
10
8.9821415336
20
19.8922362688
0
VERTEX
8
0
62
2
6
CONTINUOUS
10
8.9788929696
20
19.8930561421
0
VERTEX
8
0
62
2
6
CONTINUOUS
10
8.9753118854
20
19.8937836407
0
VERTEX
8
0
62
2
6
CONTINUOUS
10
8.9713603793
20
19.8944128102
0
VERTEX
8
0
62
2
6
CONTINUOUS
10
8.9669896060
20
19.8949376416
0
VERTEX
8
0
62
2
6
CONTINUOUS
10
8.9621313596
20
19.8953524715
0
VERTEX
8
0
62
2
6
CONTINUOUS
10
8.9566788694
20
19.8956526298
0
VERTEX
8
0
62
2
6
CONTINUOUS
10
8.9504342406
20
19.8958357873
0
VERTEX
8
0
62
2
6
CONTINUOUS
10
8.9429109901
20
19.8959062783
0
VERTEX
8
0
62
2
6
CONTINUOUS
10
8.9359288239
20
19.8959066202
0
VERTEX
8
0
62
2
6
CONTINUOUS
10
8.8823052127
20
19.8959066202
0
SEQEND
0
LINE
8
0
62
2
6
CONTINUOUS
10
8.8823052127
20
19.8959066202
11
8.8823052127
21
19.7725955091
0
LINE
8
0
62
2
6
CONTINUOUS
10
8.6127538239
20
19.7304677313
11
8.6127538239
21
19.7288941202
0
LINE
8
0
62
2
6
CONTINUOUS
10
8.6127538239
20
19.7288941202
11
8.4692871572
21
19.7288941202
0
LINE
8
0
62
2
6
CONTINUOUS
10
8.4692871572
20
19.7288941202
11
8.4692871572
21
19.7304677313
0
POLYLINE
8
0
62
2
6
CONTINUOUS
66
1
70
0
0
VERTEX
8
0
62
2
6
CONTINUOUS
10
8.4692871572
20
19.7304677313
0
VERTEX
8
0
62
2
6
CONTINUOUS
10
8.4731847925
20
19.7316933382
0
VERTEX
8
0
62
2
6
CONTINUOUS
10
8.4750099132
20
19.7323903251
0
VERTEX
8
0
62
2
6
CONTINUOUS
10
8.4767551522
20
19.7331412632
0
VERTEX
8
0
62
2
6
CONTINUOUS
10
8.4800130403
20
19.7347982897
0
VERTEX
8
0
62
2
6
CONTINUOUS
10
8.4829841661
20
19.7366590322
0
VERTEX
8
0
62
2
6
CONTINUOUS
10
8.4856918190
20
19.7387228401
0
VERTEX
8
0
62
2
6
CONTINUOUS
10
8.4881559136
20
19.7409936661
0
VERTEX
8
0
62
2
6
CONTINUOUS
10
8.4903927415
20
19.7434801124
0
VERTEX
8
0
62
2
6
CONTINUOUS
10
8.4924148019
20
19.7461954456
0
VERTEX
8
0
62
2
6
CONTINUOUS
10
8.4942307451
20
19.7491576450
0
VERTEX
8
0
62
2
6
CONTINUOUS
10
8.4958454526
20
19.7523895978
0
VERTEX
8
0
62
2
6
CONTINUOUS
10
8.4972602660
20
19.7559196324
0
VERTEX
8
0
62
2
6
CONTINUOUS
10
8.4984733666
20
19.7597827226
0
VERTEX
8
0
62
2
6
CONTINUOUS
10
8.4994803144
20
19.7640230179
0
VERTEX
8
0
62
2
6
CONTINUOUS
10
8.5002747694
20
19.7686991690
0
VERTEX
8
0
62
2
6
CONTINUOUS
10
8.5008494892
20
19.7738962397
0
VERTEX
8
0
62
2
6
CONTINUOUS
10
8.5011978849
20
19.7797560195
0
VERTEX
8
0
62
2
6
CONTINUOUS
10
8.5013172991
20
19.7865742424
0
VERTEX
8
0
62
2
6
CONTINUOUS
10
8.5012236193
20
19.7952999287
0
VERTEX
8
0
62
2
6
CONTINUOUS
10
8.5011538239
20
19.8017427313
0
VERTEX
8
0
62
2
6
CONTINUOUS
10
8.5011538239
20
19.9105864813
0
VERTEX
8
0
62
2
6
CONTINUOUS
10
8.5011538239
20
20.0337913424
0
SEQEND
0
LINE
8
0
62
2
6
CONTINUOUS
10
8.5011538239
20
20.0337913424
11
8.4373927127
21
20.0337913424
0
ARC
8
0
62
2
6
CONTINUOUS
10
8.4303225361
20
19.8741669969
40
0.1597808471
50
87.4638787987
51
119.6947324667
0
LINE
8
0
62
2
6
CONTINUOUS
10
8.3511704905
20
20.0129649535
11
8.3489941016
21
20.0129649535
0
LINE
8
0
62
2
6
CONTINUOUS
10
8.3489941016
20
20.0129649535
11
8.3743635461
21
20.0748955091
0
LINE
8
0
62
2
6
CONTINUOUS
10
8.3743635461
20
20.0748955091
11
8.3765274350
21
20.0748955091
0
LINE
8
0
62
2
6
CONTINUOUS
10
8.3765274350
20
20.0748955091
11
8.4040746572
21
20.0712538424
0
LINE
8
0
62
2
6
CONTINUOUS
10
8.4040746572
20
20.0712538424
11
8.6924663239
21
20.0712538424
0
LINE
8
0
62
2
6
CONTINUOUS
10
8.6924663239
20
20.0712538424
11
8.7257913239
21
20.0748955091
0
LINE
8
0
62
2
6
CONTINUOUS
10
8.7257913239
20
20.0748955091
11
8.7279607683
21
20.0748955091
0
LINE
8
0
62
2
6
CONTINUOUS
10
8.7279607683
20
20.0748955091
11
8.7047816016
21
20.0129649535
0
LINE
8
0
62
2
6
CONTINUOUS
10
8.7047816016
20
20.0129649535
11
8.7026038239
21
20.0129649535
0
POLYLINE
8
0
62
2
6
CONTINUOUS
66
1
70
0
0
VERTEX
8
0
62
2
6
CONTINUOUS
10
8.7026038239
20
20.0129649535
0
VERTEX
8
0
62
2
6
CONTINUOUS
10
8.7015338521
20
20.0148372251
0
VERTEX
8
0
62
2
6
CONTINUOUS
10
8.7003061952
20
20.0166195140
0
VERTEX
8
0
62
2
6
CONTINUOUS
10
8.6989157649
20
20.0183176925
0
VERTEX
8
0
62
2
6
CONTINUOUS
10
8.6973553765
20
20.0199362583
0
VERTEX
8
0
62
2
6
CONTINUOUS
10
8.6956158768
20
20.0214782851
0
VERTEX
8
0
62
2
6
CONTINUOUS
10
8.6936862849
20
20.0229454106
0
VERTEX
8
0
62
2
6
CONTINUOUS
10
8.6915539304
20
20.0243378596
0
VERTEX
8
0
62
2
6
CONTINUOUS
10
8.6892045746
20
20.0256545000
0
VERTEX
8
0
62
2
6
CONTINUOUS
10
8.6866225023
20
20.0268929231
0
VERTEX
8
0
62
2
6
CONTINUOUS
10
8.6837905673
20
20.0280495455
0
VERTEX
8
0
62
2
6
CONTINUOUS
10
8.6806901710
20
20.0291197254
0
VERTEX
8
0
62
2
6
CONTINUOUS
10
8.6773011432
20
20.0300978916
0
VERTEX
8
0
62
2
6
CONTINUOUS
10
8.6736014685
20
20.0309776838
0
VERTEX
8
0
62
2
6
CONTINUOUS
10
8.6695667537
20
20.0317521059
0
VERTEX
8
0
62
2
6
CONTINUOUS
10
8.6651692336
20
20.0324136977
0
VERTEX
8
0
62
2
6
CONTINUOUS
10
8.6603758804
20
20.0329547332
0
VERTEX
8
0
62
2
6
CONTINUOUS
10
8.6551446355
20
20.0333674618
0
VERTEX
8
0
62
2
6
CONTINUOUS
10
8.6494162405
20
20.0336444123
0
VERTEX
8
0
62
2
6
CONTINUOUS
10
8.6430941292
20
20.0337787984
0
VERTEX
8
0
62
2
6
CONTINUOUS
10
8.6402941016
20
20.0337913424
0
VERTEX
8
0
62
2
6
CONTINUOUS
10
8.5750677127
20
20.0337913424
0
SEQEND
0
POLYLINE
8
0
62
2
6
CONTINUOUS
66
1
70
0
0
VERTEX
8
0
62
2
6
CONTINUOUS
10
8.5750677127
20
20.0337913424
0
VERTEX
8
0
62
2
6
CONTINUOUS
10
8.5750677127
20
19.9202600924
0
VERTEX
8
0
62
2
6
CONTINUOUS
10
8.5750677127
20
19.7965343980
0
VERTEX
8
0
62
2
6
CONTINUOUS
10
8.5750755988
20
19.7893501053
0
VERTEX
8
0
62
2
6
CONTINUOUS
10
8.5751869936
20
19.7826282688
0
VERTEX
8
0
62
2
6
CONTINUOUS
10
8.5754473346
20
19.7773671188
0
VERTEX
8
0
62
2
6
CONTINUOUS
10
8.5758637118
20
19.7729219851
0
VERTEX
8
0
62
2
6
CONTINUOUS
10
8.5764388854
20
19.7690163701
0
VERTEX
8
0
62
2
6
CONTINUOUS
10
8.5771758110
20
19.7654986599
0
VERTEX
8
0
62
2
6
CONTINUOUS
10
8.5780790907
20
19.7622732272
0
VERTEX
8
0
62
2
6
CONTINUOUS
10
8.5791557592
20
19.7592740002
0
VERTEX
8
0
62
2
6
CONTINUOUS
10
8.5804158419
20
19.7564523669
0
VERTEX
8
0
62
2
6
CONTINUOUS
10
8.5818727994
20
19.7537709612
0
VERTEX
8
0
62
2
6
CONTINUOUS
10
8.5835438953
20
19.7512001974
0
VERTEX
8
0
62
2
6
CONTINUOUS
10
8.5854505078
20
19.7487162022
0
VERTEX
8
0
62
2
6
CONTINUOUS
10
8.5876184073
20
19.7462994988
0
VERTEX
8
0
62
2
6
CONTINUOUS
10
8.5900685929
20
19.7439425620
0
VERTEX
8
0
62
2
6
CONTINUOUS
10
8.5928286704
20
19.7416350642
0
VERTEX
8
0
62
2
6
CONTINUOUS
10
8.5959353922
20
19.7393643785
0
VERTEX
8
0
62
2
6
CONTINUOUS
10
8.5994306805
20
19.7371201585
0
VERTEX
8
0
62
2
6
CONTINUOUS
10
8.6033620239
20
19.7348938701
0
VERTEX
8
0
62
2
6
CONTINUOUS
10
8.6077829829
20
19.7326784020
0
VERTEX
8
0
62
2
6
CONTINUOUS
10
8.6127538239
20
19.7304677313
0
SEQEND
0
POLYLINE
8
0
62
2
6
CONTINUOUS
66
1
70
0
0
VERTEX
8
0
62
2
6
CONTINUOUS
10
8.2946593794
20
20.0093441202
0
VERTEX
8
0
62
2
6
CONTINUOUS
10
8.2866150164
20
20.0142137676
0
VERTEX
8
0
62
2
6
CONTINUOUS
10
8.2786834241
20
20.0186041968
0
VERTEX
8
0
62
2
6
CONTINUOUS
10
8.2708203141
20
20.0225522298
0
VERTEX
8
0
62
2
6
CONTINUOUS
10
8.2629832937
20
20.0260885336
0
VERTEX
8
0
62
2
6
CONTINUOUS
10
8.2551309301
20
20.0292383085
0
VERTEX
8
0
62
2
6
CONTINUOUS
10
8.2472218990
20
20.0320218017
0
VERTEX
8
0
62
2
6
CONTINUOUS
10
8.2432335349
20
20.0332811123
0
VERTEX
8
0
62
2
6
CONTINUOUS
10
8.2392197017
20
20.0344531314
0
VERTEX
8
0
62
2
6
CONTINUOUS
10
8.2311012869
20
20.0365396136
0
VERTEX
8
0
62
2
6
CONTINUOUS
10
8.2228226412
20
20.0382915431
0
VERTEX
8
0
62
2
6
CONTINUOUS
10
8.2143373712
20
20.0397150735
0
VERTEX
8
0
62
2
6
CONTINUOUS
10
8.2055957465
20
20.0408123223
0
VERTEX
8
0
62
2
6
CONTINUOUS
10
8.1965435884
20
20.0415813795
0
VERTEX
8
0
62
2
6
CONTINUOUS
10
8.1871209293
20
20.0420162106
0
VERTEX
8
0
62
2
6
CONTINUOUS
10
8.1852651135
20
20.0420606360
0
VERTEX
8
0
62
2
6
CONTINUOUS
10
8.1777561181
20
20.0420680958
0
VERTEX
8
0
62
2
6
CONTINUOUS
10
8.1690825854
20
20.0417559280
0
VERTEX
8
0
62
2
6
CONTINUOUS
10
8.1604197805
20
20.0411183257
0
VERTEX
8
0
62
2
6
CONTINUOUS
10
8.1520751389
20
20.0401799804
0
VERTEX
8
0
62
2
6
CONTINUOUS
10
8.1442099688
20
20.0389705119
0
VERTEX
8
0
62
2
6
CONTINUOUS
10
8.1369041109
20
20.0375197968
0
VERTEX
8
0
62
2
6
CONTINUOUS
10
8.1301901372
20
20.0358560784
0
VERTEX
8
0
62
2
6
CONTINUOUS
10
8.1240723427
20
20.0340051385
0
VERTEX
8
0
62
2
6
CONTINUOUS
10
8.1185378624
20
20.0319898902
0
VERTEX
8
0
62
2
6
CONTINUOUS
10
8.1135635157
20
20.0298301337
0
VERTEX
8
0
62
2
6
CONTINUOUS
10
8.1091202331
20
20.0275423690
0
VERTEX
8
0
62
2
6
CONTINUOUS
10
8.1051760714
20
20.0251396196
0
VERTEX
8
0
62
2
6
CONTINUOUS
10
8.1016983864
20
20.0226312598
0
VERTEX
8
0
62
2
6
CONTINUOUS
10
8.0986555018
20
20.0200228496
0
VERTEX
8
0
62
2
6
CONTINUOUS
10
8.0960180724
20
20.0173160043
0
VERTEX
8
0
62
2
6
CONTINUOUS
10
8.0937602574
20
20.0145083266
0
VERTEX
8
0
62
2
6
CONTINUOUS
10
8.0918607550
20
20.0115934408
0
VERTEX
8
0
62
2
6
CONTINUOUS
10
8.0903037026
20
20.0085611577
0
VERTEX
8
0
62
2
6
CONTINUOUS
10
8.0890794175
20
20.0053977842
0
VERTEX
8
0
62
2
6
CONTINUOUS
10
8.0881849365
20
20.0020865680
0
VERTEX
8
0
62
2
6
CONTINUOUS
10
8.0876243199
20
19.9986082366
0
VERTEX
8
0
62
2
6
CONTINUOUS
10
8.0874395794
20
19.9952759999
0
VERTEX
8
0
62
2
6
CONTINUOUS
10
8.0876159315
20
19.9920192144
0
VERTEX
8
0
62
2
6
CONTINUOUS
10
8.0881469728
20
19.9888182989
0
VERTEX
8
0
62
2
6
CONTINUOUS
10
8.0890346834
20
19.9856545923
0
VERTEX
8
0
62
2
6
CONTINUOUS
10
8.0902891864
20
19.9825109550
0
VERTEX
8
0
62
2
6
CONTINUOUS
10
8.0919282526
20
19.9793722812
0
VERTEX
8
0
62
2
6
CONTINUOUS
10
8.0939766123
20
19.9762258692
0
VERTEX
8
0
62
2
6
CONTINUOUS
10
8.0964651483
20
19.9730616284
0
VERTEX
8
0
62
2
6
CONTINUOUS
10
8.0994300398
20
19.9698721350
0
VERTEX
8
0
62
2
6
CONTINUOUS
10
8.1029119043
20
19.9666525627
0
VERTEX
8
0
62
2
6
CONTINUOUS
10
8.1069549656
20
19.9634005151
0
VERTEX
8
0
62
2
6
CONTINUOUS
10
8.1116062641
20
19.9601157750
0
VERTEX
8
0
62
2
6
CONTINUOUS
10
8.1169149469
20
19.9567999496
0
VERTEX
8
0
62
2
6
CONTINUOUS
10
8.1229317570
20
19.9534559288
0
VERTEX
8
0
62
2
6
CONTINUOUS
10
8.1297091123
20
19.9500869158
0
VERTEX
8
0
62
2
6
CONTINUOUS
10
8.1373030314
20
19.9466943698
0
VERTEX
8
0
62
2
6
CONTINUOUS
10
8.1457813277
20
19.9432727645
0
VERTEX
8
0
62
2
6
CONTINUOUS
10
8.1552569998
20
19.9397928220
0
VERTEX
8
0
62
2
6
CONTINUOUS
10
8.1660652025
20
19.9361223083
0
VERTEX
8
0
62
2
6
CONTINUOUS
10
8.1737750441
20
19.9335599292
0
VERTEX
8
0
62
2
6
CONTINUOUS
10
8.1910538980
20
19.9278276620
0
VERTEX
8
0
62
2
6
CONTINUOUS
10
8.2088311599
20
19.9220625557
0
VERTEX
8
0
62
2
6
CONTINUOUS
10
8.2260517967
20
19.9163480874
0
VERTEX
8
0
62
2
6
CONTINUOUS
10
8.2398902530
20
19.9114877554
0
VERTEX
8
0
62
2
6
CONTINUOUS
10
8.2519295557
20
19.9069468216
0
VERTEX
8
0
62
2
6
CONTINUOUS
10
8.2627876074
20
19.9025159746
0
VERTEX
8
0
62
2
6
CONTINUOUS
10
8.2727832297
20
19.8980858940
0
VERTEX
8
0
62
2
6
CONTINUOUS
10
8.2821077373
20
19.8935893163
0
VERTEX
8
0
62
2
6
CONTINUOUS
10
8.2890095447
20
19.8899190341
0
VERTEX
8
0
62
2
6
CONTINUOUS
10
8.2953170634
20
19.8861699671
0
VERTEX
8
0
62
2
6
CONTINUOUS
10
8.3010575203
20
19.8823521600
0
VERTEX
8
0
62
2
6
CONTINUOUS
10
8.3062575211
20
19.8784744218
0
VERTEX
8
0
62
2
6
CONTINUOUS
10
8.3109428378
20
19.8745442289
0
VERTEX
8
0
62
2
6
CONTINUOUS
10
8.3151381686
20
19.8705676398
0
VERTEX
8
0
62
2
6
CONTINUOUS
10
8.3188668711
20
19.8665492310
0
VERTEX
8
0
62
2
6
CONTINUOUS
10
8.3221506733
20
19.8624920613
0
VERTEX
8
0
62
2
6
CONTINUOUS
10
8.3250093663
20
19.8583976752
0
VERTEX
8
0
62
2
6
CONTINUOUS
10
8.3274604908
20
19.8542661540
0
VERTEX
8
0
62
2
6
CONTINUOUS
10
8.3295190297
20
19.8500962264
0
VERTEX
8
0
62
2
6
CONTINUOUS
10
8.3311951385
20
19.8458910787
0
VERTEX
8
0
62
2
6
CONTINUOUS
10
8.3324982595
20
19.8416516463
0
VERTEX
8
0
62
2
6
CONTINUOUS
10
8.3334366364
20
19.8373745585
0
VERTEX
8
0
62
2
6
CONTINUOUS
10
8.3340152975
20
19.8330559595
0
VERTEX
8
0
62
2
6
CONTINUOUS
10
8.3342360260
20
19.8286918951
0
VERTEX
8
0
62
2
6
CONTINUOUS
10
8.3340974429
20
19.8242787403
0
VERTEX
8
0
62
2
6
CONTINUOUS
10
8.3335952072
20
19.8198136466
0
VERTEX
8
0
62
2
6
CONTINUOUS
10
8.3327223392
20
19.8152949940
0
VERTEX
8
0
62
2
6
CONTINUOUS
10
8.3314696597
20
19.8107228268
0
VERTEX
8
0
62
2
6
CONTINUOUS
10
8.3298263391
20
19.8060992596
0
VERTEX
8
0
62
2
6
CONTINUOUS
10
8.3277805421
20
19.8014288361
0
VERTEX
8
0
62
2
6
CONTINUOUS
10
8.3253201522
20
19.7967188286
0
VERTEX
8
0
62
2
6
CONTINUOUS
10
8.3224335565
20
19.7919794636
0
VERTEX
8
0
62
2
6
CONTINUOUS
10
8.3191104648
20
19.7872240603
0
VERTEX
8
0
62
2
6
CONTINUOUS
10
8.3153427360
20
19.7824690676
0
VERTEX
8
0
62
2
6
CONTINUOUS
10
8.3111251734
20
19.7777339861
0
VERTEX
8
0
62
2
6
CONTINUOUS
10
8.3064562503
20
19.7730411658
0
VERTEX
8
0
62
2
6
CONTINUOUS
10
8.3013387193
20
19.7684154734
0
VERTEX
8
0
62
2
6
CONTINUOUS
10
8.2957800630
20
19.7638838316
0
VERTEX
8
0
62
2
6
CONTINUOUS
10
8.2897927453
20
19.7594746463
0
VERTEX
8
0
62
2
6
CONTINUOUS
10
8.2833942358
20
19.7552171433
0
VERTEX
8
0
62
2
6
CONTINUOUS
10
8.2766067970
20
19.7511406526
0
VERTEX
8
0
62
2
6
CONTINUOUS
10
8.2694570403
20
19.7472738822
0
VERTEX
8
0
62
2
6
CONTINUOUS
10
8.2619752836
20
19.7436442278
0
VERTEX
8
0
62
2
6
CONTINUOUS
10
8.2573137733
20
19.7415794724
0
VERTEX
8
0
62
2
6
CONTINUOUS
10
8.2493867578
20
19.7383885542
0
VERTEX
8
0
62
2
6
CONTINUOUS
10
8.2412344858
20
19.7354997017
0
VERTEX
8
0
62
2
6
CONTINUOUS
10
8.2325698129
20
19.7328203001
0
VERTEX
8
0
62
2
6
CONTINUOUS
10
8.2234054024
20
19.7303648794
0
VERTEX
8
0
62
2
6
CONTINUOUS
10
8.2137370087
20
19.7281486321
0
VERTEX
8
0
62
2
6
CONTINUOUS
10
8.2035645770
20
19.7261874903
0
VERTEX
8
0
62
2
6
CONTINUOUS
10
8.1928931761
20
19.7244978778
0
VERTEX
8
0
62
2
6
CONTINUOUS
10
8.1817340384
20
19.7230964039
0
VERTEX
8
0
62
2
6
CONTINUOUS
10
8.1701056975
20
19.7219994862
0
VERTEX
8
0
62
2
6
CONTINUOUS
10
8.1580352023
20
19.7212228896
0
VERTEX
8
0
62
2
6
CONTINUOUS
10
8.1455593626
20
19.7207811703
0
VERTEX
8
0
62
2
6
CONTINUOUS
10
8.1327259538
20
19.7206870171
0
VERTEX
8
0
62
2
6
CONTINUOUS
10
8.1195947717
20
19.7209504914
0
VERTEX
8
0
62
2
6
CONTINUOUS
10
8.1062383880
20
19.7215781803
0
VERTEX
8
0
62
2
6
CONTINUOUS
10
8.0927424153
20
19.7225722953
0
VERTEX
8
0
62
2
6
CONTINUOUS
10
8.0792050638
20
19.7239297767
0
VERTEX
8
0
62
2
6
CONTINUOUS
10
8.0657357687
20
19.7256414887
0
VERTEX
8
0
62
2
6
CONTINUOUS
10
8.0524527177
20
19.7276916176
0
VERTEX
8
0
62
2
6
CONTINUOUS
10
8.0496945217
20
19.7281638198
0
VERTEX
8
0
62
2
6
CONTINUOUS
10
8.0368387235
20
19.7305849720
0
VERTEX
8
0
62
2
6
CONTINUOUS
10
8.0244993991
20
19.7332695519
0
VERTEX
8
0
62
2
6
CONTINUOUS
10
8.0127843794
20
19.7361774535
0
SEQEND
0
LINE
8
0
62
2
6
CONTINUOUS
10
8.0127843794
20
19.7361774535
11
7.9917760461
21
19.8012135647
0
POLYLINE
8
0
62
2
6
CONTINUOUS
66
1
70
0
0
VERTEX
8
0
62
2
6
CONTINUOUS
10
7.9917760461
20
19.8012135647
0
VERTEX
8
0
62
2
6
CONTINUOUS
10
8.0001815057
20
19.7964808535
0
VERTEX
8
0
62
2
6
CONTINUOUS
10
8.0091506427
20
19.7918407802
0
VERTEX
8
0
62
2
6
CONTINUOUS
10
8.0186121985
20
19.7873483148
0
VERTEX
8
0
62
2
6
CONTINUOUS
10
8.0218745686
20
19.7858871612
0
VERTEX
8
0
62
2
6
CONTINUOUS
10
8.0318296246
20
19.7816877656
0
VERTEX
8
0
62
2
6
CONTINUOUS
10
8.0420380302
20
19.7777644005
0
VERTEX
8
0
62
2
6
CONTINUOUS
10
8.0524160282
20
19.7741511074
0
VERTEX
8
0
62
2
6
CONTINUOUS
10
8.0628849387
20
19.7708747151
0
VERTEX
8
0
62
2
6
CONTINUOUS
10
8.0733729375
20
19.7679550595
0
VERTEX
8
0
62
2
6
CONTINUOUS
10
8.0838161043
20
19.7654055206
0
VERTEX
8
0
62
2
6
CONTINUOUS
10
8.0941588561
20
19.7632337593
0
VERTEX
8
0
62
2
6
CONTINUOUS
10
8.1043539068
20
19.7614425464
0
VERTEX
8
0
62
2
6
CONTINUOUS
10
8.1143618932
20
19.7600306107
0
VERTEX
8
0
62
2
6
CONTINUOUS
10
8.1241507887
20
19.7589934497
0
VERTEX
8
0
62
2
6
CONTINUOUS
10
8.1336952005
20
19.7583240750
0
VERTEX
8
0
62
2
6
CONTINUOUS
10
8.1429756216
20
19.7580136754
0
VERTEX
8
0
62
2
6
CONTINUOUS
10
8.1519776842
20
19.7580521962
0
VERTEX
8
0
62
2
6
CONTINUOUS
10
8.1606914471
20
19.7584288352
0
VERTEX
8
0
62
2
6
CONTINUOUS
10
8.1691107324
20
19.7591324654
0
VERTEX
8
0
62
2
6
CONTINUOUS
10
8.1772325196
20
19.7601519903
0
VERTEX
8
0
62
2
6
CONTINUOUS
10
8.1850563995
20
19.7614766432
0
VERTEX
8
0
62
2
6
CONTINUOUS
10
8.1925840846
20
19.7630962364
0
VERTEX
8
0
62
2
6
CONTINUOUS
10
8.1998189720
20
19.7650013692
0
VERTEX
8
0
62
2
6
CONTINUOUS
10
8.2067657531
20
19.7671836000
0
VERTEX
8
0
62
2
6
CONTINUOUS
10
8.2134300654
20
19.7696355876
0
VERTEX
8
0
62
2
6
CONTINUOUS
10
8.2198181792
20
19.7723512049
0
VERTEX
8
0
62
2
6
CONTINUOUS
10
8.2250685399
20
19.7749281011
0
VERTEX
8
0
62
2
6
CONTINUOUS
10
8.2297903469
20
19.7776203612
0
VERTEX
8
0
62
2
6
CONTINUOUS
10
8.2340067200
20
19.7804118859
0
VERTEX
8
0
62
2
6
CONTINUOUS
10
8.2377409376
20
19.7832883211
0
VERTEX
8
0
62
2
6
CONTINUOUS
10
8.2410160102
20
19.7862372922
0
VERTEX
8
0
62
2
6
CONTINUOUS
10
8.2438541707
20
19.7892485926
0
VERTEX
8
0
62
2
6
CONTINUOUS
10
8.2462762933
20
19.7923143028
0
VERTEX
8
0
62
2
6
CONTINUOUS
10
8.2483012607
20
19.7954288081
0
VERTEX
8
0
62
2
6
CONTINUOUS
10
8.2499453142
20
19.7985886892
0
VERTEX
8
0
62
2
6
CONTINUOUS
10
8.2512214342
20
19.8017924605
0
VERTEX
8
0
62
2
6
CONTINUOUS
10
8.2521379716
20
19.8050364390
0
VERTEX
8
0
62
2
6
CONTINUOUS
10
8.2527003939
20
19.8083149871
0
VERTEX
8
0
62
2
6
CONTINUOUS
10
8.2529126622
20
19.8116290639
0
VERTEX
8
0
62
2
6
CONTINUOUS
10
8.2527744836
20
19.8149796430
0
VERTEX
8
0
62
2
6
CONTINUOUS
10
8.2522815110
20
19.8183669369
0
VERTEX
8
0
62
2
6
CONTINUOUS
10
8.2514258096
20
19.8217896390
0
VERTEX
8
0
62
2
6
CONTINUOUS
10
8.2501965617
20
19.8252442468
0
VERTEX
8
0
62
2
6
CONTINUOUS
10
8.2485809629
20
19.8287245183
0
VERTEX
8
0
62
2
6
CONTINUOUS
10
8.2465652430
20
19.8322210985
0
VERTEX
8
0
62
2
6
CONTINUOUS
10
8.2441357411
20
19.8357213386
0
VERTEX
8
0
62
2
6
CONTINUOUS
10
8.2412799573
20
19.8392093154
0
VERTEX
8
0
62
2
6
CONTINUOUS
10
8.2379875123
20
19.8426660427
0
VERTEX
8
0
62
2
6
CONTINUOUS
10
8.2342509491
20
19.8460698561
0
VERTEX
8
0
62
2
6
CONTINUOUS
10
8.2300663280
20
19.8493969381
0
VERTEX
8
0
62
2
6
CONTINUOUS
10
8.2254335817
20
19.8526219408
0
VERTEX
8
0
62
2
6
CONTINUOUS
10
8.2203566229
20
19.8557186566
0
VERTEX
8
0
62
2
6
CONTINUOUS
10
8.2155348337
20
19.8583129713
0
VERTEX
8
0
62
2
6
CONTINUOUS
10
8.2071624063
20
19.8623669200
0
VERTEX
8
0
62
2
6
CONTINUOUS
10
8.1981898308
20
19.8663320026
0
VERTEX
8
0
62
2
6
CONTINUOUS
10
8.1884486878
20
19.8702660785
0
VERTEX
8
0
62
2
6
CONTINUOUS
10
8.1776603045
20
19.8742619159
0
VERTEX
8
0
62
2
6
CONTINUOUS
10
8.1652904088
20
19.8784946520
0
VERTEX
8
0
62
2
6
CONTINUOUS
10
8.1499987215
20
19.8834018669
0
VERTEX
8
0
62
2
6
CONTINUOUS
10
8.1312185561
20
19.8892652583
0
VERTEX
8
0
62
2
6
CONTINUOUS
10
8.1161126227
20
19.8941241382
0
VERTEX
8
0
62
2
6
CONTINUOUS
10
8.1038295968
20
19.8983408569
0
VERTEX
8
0
62
2
6
CONTINUOUS
10
8.0949265313
20
19.9015667127
0
VERTEX
8
0
62
2
6
CONTINUOUS
10
8.0844825119
20
19.9055655508
0
VERTEX
8
0
62
2
6
CONTINUOUS
10
8.0752309979
20
19.9094049988
0
VERTEX
8
0
62
2
6
CONTINUOUS
10
8.0668746709
20
19.9131950796
0
VERTEX
8
0
62
2
6
CONTINUOUS
10
8.0592759693
20
19.9169792372
0
VERTEX
8
0
62
2
6
CONTINUOUS
10
8.0523529023
20
19.9207772420
0
VERTEX
8
0
62
2
6
CONTINUOUS
10
8.0460475858
20
19.9245987184
0
VERTEX
8
0
62
2
6
CONTINUOUS
10
8.0403143310
20
19.9284486215
0
VERTEX
8
0
62
2
6
CONTINUOUS
10
8.0351145034
20
19.9323298460
0
VERTEX
8
0
62
2
6
CONTINUOUS
10
8.0304141379
20
19.9362446222
0
VERTEX
8
0
62
2
6
CONTINUOUS
10
8.0261828070
20
19.9401953338
0
VERTEX
8
0
62
2
6
CONTINUOUS
10
8.0223931120
20
19.9441850286
0
VERTEX
8
0
62
2
6
CONTINUOUS
10
8.0190205032
20
19.9482177491
0
VERTEX
8
0
62
2
6
CONTINUOUS
10
8.0160432840
20
19.9522987456
0
VERTEX
8
0
62
2
6
CONTINUOUS
10
8.0134427161
20
19.9564346017
0
VERTEX
8
0
62
2
6
CONTINUOUS
10
8.0112031789
20
19.9606332893
0
VERTEX
8
0
62
2
6
CONTINUOUS
10
8.0093123479
20
19.9649041617
0
VERTEX
8
0
62
2
6
CONTINUOUS
10
8.0074744770
20
19.9699771044
0
VERTEX
8
0
62
2
6
CONTINUOUS
10
8.0060502997
20
19.9749172125
0
VERTEX
8
0
62
2
6
CONTINUOUS
10
8.0050208027
20
19.9797350959
0
VERTEX
8
0
62
2
6
CONTINUOUS
10
8.0043708519
20
19.9844353189
0
VERTEX
8
0
62
2
6
CONTINUOUS
10
8.0040867913
20
19.9890236277
0
VERTEX
8
0
62
2
6
CONTINUOUS
10
8.0041571601
20
19.9935106640
0
VERTEX
8
0
62
2
6
CONTINUOUS
10
8.0045740359
20
19.9979068035
0
VERTEX
8
0
62
2
6
CONTINUOUS
10
8.0053330715
20
20.0022218708
0
VERTEX
8
0
62
2
6
CONTINUOUS
10
8.0064334435
20
20.0064648302
0
VERTEX
8
0
62
2
6
CONTINUOUS
10
8.0078777013
20
20.0106434629
0
VERTEX
8
0
62
2
6
CONTINUOUS
10
8.0096715085
20
20.0147640432
0
VERTEX
8
0
62
2
6
CONTINUOUS
10
8.0118232726
20
20.0188310240
0
VERTEX
8
0
62
2
6
CONTINUOUS
10
8.0143436591
20
20.0228467394
0
VERTEX
8
0
62
2
6
CONTINUOUS
10
8.0172449857
20
20.0268111262
0
VERTEX
8
0
62
2
6
CONTINUOUS
10
8.0205404871
20
20.0307214652
0
VERTEX
8
0
62
2
6
CONTINUOUS
10
8.0242434355
20
20.0345721389
0
VERTEX
8
0
62
2
6
CONTINUOUS
10
8.0283660938
20
20.0383544048
0
VERTEX
8
0
62
2
6
CONTINUOUS
10
8.0329184721
20
20.0420561823
0
VERTEX
8
0
62
2
6
CONTINUOUS
10
8.0379068522
20
20.0456618636
0
VERTEX
8
0
62
2
6
CONTINUOUS
10
8.0433320479
20
20.0491521638
0
VERTEX
8
0
62
2
6
CONTINUOUS
10
8.0491873804
20
20.0525040450
0
VERTEX
8
0
62
2
6
CONTINUOUS
10
8.0554563821
20
20.0556907685
0
VERTEX
8
0
62
2
6
CONTINUOUS
10
8.0603515578
20
20.0579276729
0
VERTEX
8
0
62
2
6
CONTINUOUS
10
8.0677712968
20
20.0609736022
0
VERTEX
8
0
62
2
6
CONTINUOUS
10
8.0756847047
20
20.0638423212
0
VERTEX
8
0
62
2
6
CONTINUOUS
10
8.0841048627
20
20.0665211361
0
VERTEX
8
0
62
2
6
CONTINUOUS
10
8.0930424112
20
20.0689961789
0
VERTEX
8
0
62
2
6
CONTINUOUS
10
8.1025047693
20
20.0712525434
0
VERTEX
8
0
62
2
6
CONTINUOUS
10
8.1124952196
20
20.0732744549
0
VERTEX
8
0
62
2
6
CONTINUOUS
10
8.1230118366
20
20.0750454828
0
VERTEX
8
0
62
2
6
CONTINUOUS
10
8.1340462398
20
20.0765488127
0
VERTEX
8
0
62
2
6
CONTINUOUS
10
8.1455821551
20
20.0777675930
0
VERTEX
8
0
62
2
6
CONTINUOUS
10
8.1575937853
20
20.0786853786
0
VERTEX
8
0
62
2
6
CONTINUOUS
10
8.1700440083
20
20.0792866931
0
VERTEX
8
0
62
2
6
CONTINUOUS
10
8.1828824611
20
20.0795577329
0
VERTEX
8
0
62
2
6
CONTINUOUS
10
8.1960436239
20
20.0794872314
0
VERTEX
8
0
62
2
6
CONTINUOUS
10
8.2094450974
20
20.0790674896
0
VERTEX
8
0
62
2
6
CONTINUOUS
10
8.2229863681
20
20.0782955557
0
VERTEX
8
0
62
2
6
CONTINUOUS
10
8.2365484704
20
20.0771744989
0
VERTEX
8
0
62
2
6
CONTINUOUS
10
8.2499950445
20
20.0757146652
0
VERTEX
8
0
62
2
6
CONTINUOUS
10
8.2631753110
20
20.0739347411
0
VERTEX
8
0
62
2
6
CONTINUOUS
10
8.2707005398
20
20.0727554409
0
VERTEX
8
0
62
2
6
CONTINUOUS
10
8.2830554283
20
20.0705428746
0
VERTEX
8
0
62
2
6
CONTINUOUS
10
8.2946593794
20
20.0681205091
0
SEQEND
0
LINE
8
0
62
2
6
CONTINUOUS
10
8.2946593794
20
20.0681205091
11
8.2946593794
21
20.0093441202
0
POLYLINE
8
0
62
2
6
CONTINUOUS
66
1
70
0
0
VERTEX
8
0
62
2
6
CONTINUOUS
10
7.8473524350
20
19.6121816202
0
VERTEX
8
0
62
2
6
CONTINUOUS
10
8.0739382683
20
19.6121816202
0
VERTEX
8
0
62
2
6
CONTINUOUS
10
8.8784657683
20
19.6121816202
0
VERTEX
8
0
62
2
6
CONTINUOUS
10
9.6829932683
20
19.6121816202
0
VERTEX
8
0
62
2
6
CONTINUOUS
10
10.4875207683
20
19.6121816202
0
VERTEX
8
0
62
2
6
CONTINUOUS
10
11.2920482683
20
19.6121816202
0
VERTEX
8
0
62
2
6
CONTINUOUS
10
11.2920482683
20
20.1901232869
0
VERTEX
8
0
62
2
6
CONTINUOUS
10
11.0654624350
20
20.1901232869
0
VERTEX
8
0
62
2
6
CONTINUOUS
10
10.2609349350
20
20.1901232869
0
VERTEX
8
0
62
2
6
CONTINUOUS
10
9.4564074350
20
20.1901232869
0
VERTEX
8
0
62
2
6
CONTINUOUS
10
8.6518799350
20
20.1901232869
0
VERTEX
8
0
62
2
6
CONTINUOUS
10
7.8473524350
20
20.1901232869
0
VERTEX
8
0
62
2
6
CONTINUOUS
10
7.8473524350
20
19.6121816202
0
SEQEND
0
ENDBLK
8
0
6
BYBLOCK
62
0
0
BLOCK
8
___SYMBOL
62
2
6
CONTINUOUS
2
PACKAGING_UPC_NOTE_BL1
70
64
10
12.0037887770
20
6.3527116045
0
TEXT
8
___SYMBOL
62
7
6
CONTINUOUS
10
10.4072879815
20
6.8797148965
7
STANDARD
40
0.0593587493
1
XXXXX-XX-X-XX
41
0.8258950223
72
0
0
TEXT
8
___SYMBOL
62
7
6
CONTINUOUS
10
12.0412679624
20
6.7505498980
7
STANDARD
40
0.0445192495
1
xxxxxx-xx
41
0.6740211631
72
0
0
TEXT
8
___SYMBOL
62
2
6
CONTINUOUS
10
9.2769436862
20
8.4233435583
7
STANDARD
40
0.1562500052
1
PACKAGING/UPC LABEL ON BOX
41
0.8000000000
72
0
0
TEXT
8
___SYMBOL
62
2
6
CONTINUOUS
10
9.2769436862
20
8.1889685505
7
STANDARD
40
0.1562500052
1
ETIQUETA DE EMBALAJE/UPC EN LA CAJA
41
0.8000000000
72
0
0
TEXT
8
___SYMBOL
62
2
6
CONTINUOUS
10
9.2769436862
20
7.9545935492
7
STANDARD
40
0.1562500000
1
ETIQUETTE D'EMBALLAGE/UPC SUR LA BOÎTE
41
0.8000000000
72
0
0
TEXT
8
___SYMBOL
62
2
6
CONTINUOUS
10
9.2537887770
20
6.2352046454
7
STANDARD
40
0.1562500000
1
The template and the label suffixes circled
41
0.8000000000
72
0
0
TEXT
8
___SYMBOL
62
2
6
CONTINUOUS
10
9.2537887770
20
6.0008296454
7
STANDARD
40
0.1562500000
1
must match for proper cut-out.
41
0.8000000000
72
0
0
TEXT
8
___SYMBOL
62
2
6
CONTINUOUS
10
9.2537887770
20
5.7664546454
7
STANDARD
40
0.1562500000
1
 
41
0.8000000000
72
0
0
TEXT
8
___SYMBOL
62
2
6
CONTINUOUS
10
9.2537887770
20
5.5320796454
7
STANDARD
40
0.1562500000
1
Los sufijos de la plantilla y de la etiqueta
41
0.8000000000
72
0
0
TEXT
8
___SYMBOL
62
2
6
CONTINUOUS
10
9.2537887770
20
5.2977046454
7
STANDARD
40
0.1562500000
1
encerrados en un círculo deben ser
41
0.8000000000
72
0
0
TEXT
8
___SYMBOL
62
2
6
CONTINUOUS
10
9.2537887770
20
5.0633296454
7
STANDARD
40
0.1562500000
1
iguales para la abertura correcta.
41
0.8000000000
72
0
0
TEXT
8
___SYMBOL
62
2
6
CONTINUOUS
10
9.2537887770
20
4.8289546454
7
STANDARD
40
0.1562500000
1
 
41
0.8000000000
72
0
0
TEXT
8
___SYMBOL
62
2
6
CONTINUOUS
10
9.2537887770
20
4.5945796454
7
STANDARD
40
0.1562500000
1
Le gabarit et les suffixes de l'étiquette
41
0.8000000000
72
0
0
TEXT
8
___SYMBOL
62
2
6
CONTINUOUS
10
9.2537887770
20
4.3602046454
7
STANDARD
40
0.1562500000
1
entourés doivent correspondre pour
41
0.8000000000
72
0
0
TEXT
8
___SYMBOL
62
2
6
CONTINUOUS
10
9.2537887770
20
4.1258296454
7
STANDARD
40
0.1562500000
1
une découpe correcte.
41
0.8000000000
72
0
0
LINE
8
___SYMBOL
62
7
6
CONTINUOUS
10
12.3960929583
20
6.7238198983
11
10.2110504838
21
6.7238198983
0
LINE
8
___SYMBOL
62
7
6
CONTINUOUS
10
10.2110504838
20
6.7238198983
11
10.2110504838
21
7.7168498867
0
LINE
8
___SYMBOL
62
7
6
CONTINUOUS
10
10.2110504838
20
7.7168498867
11
12.3960929583
21
7.7168498867
0
LINE
8
___SYMBOL
62
7
6
CONTINUOUS
10
12.3960929583
20
7.7168498867
11
12.3960929583
21
6.7238198983
0
LINE
8
___SYMBOL
62
7
6
CONTINUOUS
10
10.1776829842
20
7.7493098863
11
12.4302479579
21
7.7493098863
0
LINE
8
___SYMBOL
62
7
6
CONTINUOUS
10
12.4302479579
20
7.7493098863
11
12.4302479579
21
6.6564023991
0
LINE
8
___SYMBOL
62
7
6
CONTINUOUS
10
12.4302479579
20
6.6564023991
11
10.1776829842
21
6.6564023991
0
LINE
8
___SYMBOL
62
7
6
CONTINUOUS
10
10.1776829842
20
6.6564023991
11
10.1776829842
21
7.7493098863
0
LINE
8
___SYMBOL
62
7
6
CONTINUOUS
10
12.1909079607
20
7.1554898933
11
12.1909079607
21
7.0338548947
0
LINE
8
___SYMBOL
62
7
6
CONTINUOUS
10
12.1909079607
20
7.0338548947
11
11.8479554647
21
7.0338548947
0
LINE
8
___SYMBOL
62
7
6
CONTINUOUS
10
11.8479554647
20
7.0338548947
11
11.8479554647
21
7.1554898933
0
LINE
8
___SYMBOL
62
7
6
CONTINUOUS
10
11.8479554647
20
7.1554898933
11
12.1909079607
21
7.1554898933
0
SOLID
8
___SYMBOL
62
7
6
CONTINUOUS
10
11.8479554647
20
7.0338548856
11
11.8479554647
21
7.1554898856
12
12.1909079607
22
7.1554898856
13
12.1909079607
23
7.1554898856
0
SOLID
8
___SYMBOL
62
7
6
CONTINUOUS
10
12.1909079607
20
7.1554898856
11
12.1909079607
21
7.0338548856
12
11.8479554647
22
7.0338548856
13
11.8479554647
23
7.0338548856
0
LINE
8
___SYMBOL
62
7
6
CONTINUOUS
10
11.1154529732
20
7.1554898933
11
11.1154529732
21
7.0338548947
0
LINE
8
___SYMBOL
62
7
6
CONTINUOUS
10
11.1154529732
20
7.0338548947
11
10.2597479832
21
7.0338548947
0
LINE
8
___SYMBOL
62
7
6
CONTINUOUS
10
10.2597479832
20
7.0338548947
11
10.2597479832
21
7.1554898933
0
LINE
8
___SYMBOL
62
7
6
CONTINUOUS
10
10.2597479832
20
7.1554898933
11
11.1154529732
21
7.1554898933
0
SOLID
8
___SYMBOL
62
7
6
CONTINUOUS
10
10.2597479832
20
7.0338548856
11
10.2597479832
21
7.1554898856
12
11.1154529732
22
7.1554898856
13
11.1154529732
23
7.1554898856
0
SOLID
8
___SYMBOL
62
7
6
CONTINUOUS
10
11.1154529732
20
7.1554898856
11
11.1154529732
21
7.0338548856
12
10.2597479832
22
7.0338548856
13
10.2597479832
23
7.0338548856
0
LINE
8
___SYMBOL
62
7
6
CONTINUOUS
10
11.1154529732
20
6.7822223976
11
11.1154529732
21
6.7472423981
0
LINE
8
___SYMBOL
62
7
6
CONTINUOUS
10
11.1154529732
20
6.7472423981
11
10.2597479832
21
6.7472423981
0
LINE
8
___SYMBOL
62
7
6
CONTINUOUS
10
10.2597479832
20
6.7472423981
11
10.2597479832
21
6.7822223976
0
LINE
8
___SYMBOL
62
7
6
CONTINUOUS
10
10.2597479832
20
6.7822223976
11
11.1154529732
21
6.7822223976
0
SOLID
8
___SYMBOL
62
7
6
CONTINUOUS
10
10.2597479832
20
6.7472423996
11
10.2597479832
21
6.7822223816
12
11.1154529732
22
6.7822223816
13
11.1154529732
23
6.7822223816
0
SOLID
8
___SYMBOL
62
7
6
CONTINUOUS
10
11.1154529732
20
6.7822223816
11
11.1154529732
21
6.7472423996
12
10.2597479832
22
6.7472423996
13
10.2597479832
23
6.7472423996
0
POLYLINE
8
___SYMBOL
62
7
6
CONTINUOUS
66
1
70
0
0
VERTEX
8
___SYMBOL
62
7
6
CONTINUOUS
10
10.9814579268
20
6.9940000154
0
VERTEX
8
___SYMBOL
62
7
6
CONTINUOUS
10
10.9576742940
20
6.9842849460
0
VERTEX
8
___SYMBOL
62
7
6
CONTINUOUS
10
10.9380453324
20
6.9677093777
0
VERTEX
8
___SYMBOL
62
7
6
CONTINUOUS
10
10.9244841737
20
6.9458888439
0
VERTEX
8
___SYMBOL
62
7
6
CONTINUOUS
10
10.9183125526
20
6.9209500771
0
VERTEX
8
___SYMBOL
62
7
6
CONTINUOUS
10
10.9201319846
20
6.8953237277
0
VERTEX
8
___SYMBOL
62
7
6
CONTINUOUS
10
10.9297651391
20
6.8715074610
0
VERTEX
8
___SYMBOL
62
7
6
CONTINUOUS
10
10.9462731233
20
6.8518225233
0
VERTEX
8
___SYMBOL
62
7
6
CONTINUOUS
10
10.9680469909
20
6.8381875017
0
VERTEX
8
___SYMBOL
62
7
6
CONTINUOUS
10
10.9929645576
20
6.8319313302
0
VERTEX
8
___SYMBOL
62
7
6
CONTINUOUS
10
11.0185972393
20
6.8336637647
0
VERTEX
8
___SYMBOL
62
7
6
CONTINUOUS
10
11.0424467536
20
6.8432159540
0
VERTEX
8
___SYMBOL
62
7
6
CONTINUOUS
10
11.0621886137
20
6.8596568965
0
VERTEX
8
___SYMBOL
62
7
6
CONTINUOUS
10
11.0758986844
20
6.8813841801
0
VERTEX
8
___SYMBOL
62
7
6
CONTINUOUS
10
11.0822407174
20
6.9062801607
0
VERTEX
8
___SYMBOL
62
7
6
CONTINUOUS
10
11.0805965881
20
6.9319183583
0
VERTEX
8
___SYMBOL
62
7
6
CONTINUOUS
10
11.0711265410
20
6.9557999526
0
VERTEX
8
___SYMBOL
62
7
6
CONTINUOUS
10
11.0547535719
20
6.9755973304
0
VERTEX
8
___SYMBOL
62
7
6
CONTINUOUS
10
11.0330734679
20
6.9893809454
0
VERTEX
8
___SYMBOL
62
7
6
CONTINUOUS
10
11.0081992745
20
6.9958073813
0
VERTEX
8
___SYMBOL
62
7
6
CONTINUOUS
10
10.9825553485
20
6.9942502871
0
SEQEND
0
LINE
8
___SYMBOL
62
7
6
CONTINUOUS
10
11.1621029727
20
7.6887248871
11
11.1621029727
21
7.6270748878
0
LINE
8
___SYMBOL
62
7
6
CONTINUOUS
10
11.1621029727
20
7.6270748878
11
10.3063979827
21
7.6270748878
0
LINE
8
___SYMBOL
62
7
6
CONTINUOUS
10
10.3063979827
20
7.6270748878
11
10.3063979827
21
7.6887248871
0
LINE
8
___SYMBOL
62
7
6
CONTINUOUS
10
10.3063979827
20
7.6887248871
11
11.1621029727
21
7.6887248871
0
SOLID
8
___SYMBOL
62
7
6
CONTINUOUS
10
10.3063979827
20
7.6270748836
11
10.3063979827
21
7.6887248736
12
11.1621029727
22
7.6887248736
13
11.1621029727
23
7.6887248736
0
SOLID
8
___SYMBOL
62
7
6
CONTINUOUS
10
11.1621029727
20
7.6887248736
11
11.1621029727
21
7.6270748836
12
10.3063979827
22
7.6270748836
13
10.3063979827
23
7.6270748836
0
LINE
8
___SYMBOL
62
7
6
CONTINUOUS
10
11.1621029727
20
7.5887423882
11
11.1621029727
21
7.5270923889
0
LINE
8
___SYMBOL
62
7
6
CONTINUOUS
10
11.1621029727
20
7.5270923889
11
10.3063979827
21
7.5270923889
0
LINE
8
___SYMBOL
62
7
6
CONTINUOUS
10
10.3063979827
20
7.5270923889
11
10.3063979827
21
7.5887423882
0
LINE
8
___SYMBOL
62
7
6
CONTINUOUS
10
10.3063979827
20
7.5887423882
11
11.1621029727
21
7.5887423882
0
SOLID
8
___SYMBOL
62
7
6
CONTINUOUS
10
10.3063979827
20
7.5270923756
11
10.3063979827
21
7.5887423996
12
11.1621029727
22
7.5887423996
13
11.1621029727
23
7.5887423996
0
SOLID
8
___SYMBOL
62
7
6
CONTINUOUS
10
11.1621029727
20
7.5887423996
11
11.1621029727
21
7.5270923756
12
10.3063979827
22
7.5270923756
13
10.3063979827
23
7.5270923756
0
LINE
8
___SYMBOL
62
7
6
CONTINUOUS
10
11.1621029727
20
7.4887598894
11
11.1621029727
21
7.4271173901
0
LINE
8
___SYMBOL
62
7
6
CONTINUOUS
10
11.1621029727
20
7.4271173901
11
10.3063979827
21
7.4271173901
0
LINE
8
___SYMBOL
62
7
6
CONTINUOUS
10
10.3063979827
20
7.4271173901
11
10.3063979827
21
7.4887598894
0
LINE
8
___SYMBOL
62
7
6
CONTINUOUS
10
10.3063979827
20
7.4887598894
11
11.1621029727
21
7.4887598894
0
SOLID
8
___SYMBOL
62
7
6
CONTINUOUS
10
10.3063979827
20
7.4271173816
11
10.3063979827
21
7.4887598916
12
11.1621029727
22
7.4887598916
13
11.1621029727
23
7.4887598916
0
SOLID
8
___SYMBOL
62
7
6
CONTINUOUS
10
11.1621029727
20
7.4887598916
11
11.1621029727
21
7.4271173816
12
10.3063979827
22
7.4271173816
13
10.3063979827
23
7.4271173816
0
LINE
8
___SYMBOL
62
7
6
CONTINUOUS
10
11.1621029727
20
7.3887773906
11
11.1621029727
21
7.3271348913
0
LINE
8
___SYMBOL
62
7
6
CONTINUOUS
10
11.1621029727
20
7.3271348913
11
10.3063979827
21
7.3271348913
0
LINE
8
___SYMBOL
62
7
6
CONTINUOUS
10
10.3063979827
20
7.3271348913
11
10.3063979827
21
7.3887773906
0
LINE
8
___SYMBOL
62
7
6
CONTINUOUS
10
10.3063979827
20
7.3887773906
11
11.1621029727
21
7.3887773906
0
SOLID
8
___SYMBOL
62
7
6
CONTINUOUS
10
10.3063979827
20
7.3271349076
11
10.3063979827
21
7.3887773836
12
11.1621029727
22
7.3887773836
13
11.1621029727
23
7.3887773836
0
SOLID
8
___SYMBOL
62
7
6
CONTINUOUS
10
11.1621029727
20
7.3887773836
11
11.1621029727
21
7.3271349076
12
10.3063979827
22
7.3271349076
13
10.3063979827
23
7.3271349076
0
LINE
8
___SYMBOL
62
7
6
CONTINUOUS
10
11.1621029727
20
7.2621398920
11
11.1621029727
21
7.2004898928
0
LINE
8
___SYMBOL
62
7
6
CONTINUOUS
10
11.1621029727
20
7.2004898928
11
10.3063979827
21
7.2004898928
0
LINE
8
___SYMBOL
62
7
6
CONTINUOUS
10
10.3063979827
20
7.2004898928
11
10.3063979827
21
7.2621398920
0
LINE
8
___SYMBOL
62
7
6
CONTINUOUS
10
10.3063979827
20
7.2621398920
11
11.1621029727
21
7.2621398920
0
SOLID
8
___SYMBOL
62
7
6
CONTINUOUS
10
10.3063979827
20
7.2004899056
11
10.3063979827
21
7.2621398956
12
11.1621029727
22
7.2621398956
13
11.1621029727
23
7.2621398956
0
SOLID
8
___SYMBOL
62
7
6
CONTINUOUS
10
11.1621029727
20
7.2621398956
11
11.1621029727
21
7.2004899056
12
10.3063979827
22
7.2004899056
13
10.3063979827
23
7.2004899056
0
ENDBLK
8
0
6
BYBLOCK
62
0
0
BLOCK
8
___SYMBOL
62
2
6
CONTINUOUS
2
PLOTTING_TEMPLATE_NOTE_BL2
70
64
10
27.0455252970
20
6.9258108227
0
TEXT
8
___SYMBOL
62
2
6
CONTINUOUS
10
23.4830252970
20
8.0195608227
7
STANDARD
40
0.1562500000
1
WHEN PLOTTING TEMPLATE FULL SIZE:
41
0.8000000000
72
0
0
TEXT
8
___SYMBOL
62
2
6
CONTINUOUS
10
23.4830252970
20
7.7851858227
7
STANDARD
40
0.1562500000
1
Make sure horizontal and vertical dimensions
41
0.8000000000
72
0
0
TEXT
8
___SYMBOL
62
2
6
CONTINUOUS
10
23.4830252970
20
7.5508108227
7
STANDARD
40
0.1562500000
1
match the dimensions labeled on the template.
41
0.8000000000
72
0
0
TEXT
8
___SYMBOL
62
2
6
CONTINUOUS
10
23.4830252970
20
7.3164358227
7
STANDARD
40
0.1562500000
1
 
41
0.8000000000
72
0
0
TEXT
8
___SYMBOL
62
2
6
CONTINUOUS
10
23.4830252970
20
7.0820608227
7
STANDARD
40
0.1562500000
1
AL TRAZAR LA PLANTILLA A ESCALA COMPLETA:
41
0.8000000000
72
0
0
TEXT
8
___SYMBOL
62
2
6
CONTINUOUS
10
23.4830252970
20
6.8476858227
7
STANDARD
40
0.1562500000
1
Asegúrese de que la dimensión horizontal y vertical
41
0.8000000000
72
0
0
TEXT
8
___SYMBOL
62
2
6
CONTINUOUS
10
23.4830252970
20
6.6133108227
7
STANDARD
40
0.1562500000
1
sean iguales a las dimensiones indicadas en la plantilla.
41
0.8000000000
72
0
0
TEXT
8
___SYMBOL
62
2
6
CONTINUOUS
10
23.4830252970
20
6.3789358227
7
STANDARD
40
0.1562500000
1
 
41
0.8000000000
72
0
0
TEXT
8
___SYMBOL
62
2
6
CONTINUOUS
10
23.4830252970
20
6.1445608227
7
STANDARD
40
0.1562500000
1
AU MOMENT DE TRACER LA DÉCOUPE À L'ÉCHELLE,
41
0.8000000000
72
0
0
TEXT
8
___SYMBOL
62
2
6
CONTINUOUS
10
23.4830252970
20
5.9101858227
7
STANDARD
40
0.1562500000
1
S'assurer que les dimensions horizontales et verticales
41
0.8000000000
72
0
0
TEXT
8
___SYMBOL
62
2
6
CONTINUOUS
10
23.4830252970
20
5.6758108227
7
STANDARD
40
0.1562500000
1
correspondent à celles sur l'étiquette du plan
41
0.8000000000
72
0
0
ENDBLK
8
0
6
BYBLOCK
62
0
0
BLOCK
8
___SYMBOL
62
2
6
CONTINUOUS
2
COPYRIGHT_YEAR_BL3
70
64
10
20.2968232862
20
7.9643152308
0
TEXT
8
___SYMBOL
62
2
6
CONTINUOUS
10
19.9231316606
20
7.9290416060
7
STANDARD
40
0.0705000000
1
2007
41
0.8000000000
72
0
0
TEXT
8
___SYMBOL
62
2
6
CONTINUOUS
10
20.1487316606
20
7.9290416060
7
STANDARD
40
0.0705000000
1
 KOHLER CO.
41
0.8000000000
72
0
0
TEXT
8
___SYMBOL
62
7
6
CONTINUOUS
10
19.8431059115
20
7.9455266062
7
STANDARD
40
0.0421874995
1
C
41
1.0000000000
72
0
0
CIRCLE
8
___SYMBOL
62
7
6
CONTINUOUS
10
19.8573409113
20
7.9667628559
40
0.0328259996
0
ENDBLK
8
0
6
BYBLOCK
62
0
0
BLOCK
8
0
62
2
6
CONTINUOUS
2
TEMPLATE_NUMBER_BL4
70
64
10
17.2390731664
20
7.9888396372
0
TEXT
8
0
62
2
6
CONTINUOUS
10
16.9288731664
20
7.9535896372
7
STANDARD
40
0.0705000000
1
1033101-7
41
0.8000000000
72
0
0
TEXT
8
0
62
2
6
CONTINUOUS
10
17.4364731664
20
7.9535896372
7
STANDARD
40
0.0705000000
1
-
41
0.8000000000
72
0
0
TEXT
8
0
62
2
6
CONTINUOUS
10
17.4928731664
20
7.9535896372
7
STANDARD
40
0.0705000000
1
A
41
0.8000000000
72
0
0
ENDBLK
8
0
6
BYBLOCK
62
0
0
BLOCK
8
___SYMBOL
62
2
6
CONTINUOUS
2
TEMPLATE_NUMBER_BL5
70
64
10
17.2833861704
20
6.0427792658
0
TEXT
8
___SYMBOL
62
2
6
CONTINUOUS
10
16.9731861704
20
6.0075292658
7
STANDARD
40
0.0705000000
1
1033101-7
41
0.8000000000
72
0
0
TEXT
8
___SYMBOL
62
2
6
CONTINUOUS
10
17.4807861704
20
6.0075292658
7
STANDARD
40
0.0705000000
1
-
41
0.8000000000
72
0
0
TEXT
8
___SYMBOL
62
2
6
CONTINUOUS
10
17.5371861704
20
6.0075292658
7
STANDARD
40
0.0705000000
1
A
41
0.8000000000
72
0
0
ENDBLK
8
0
6
BYBLOCK
62
0
0
BLOCK
8
0
2
_FILLED
70
64
10
0.0000000000
20
0.0000000000
0
SOLID
8
0
6
BYBLOCK
62
0
10
0.0000000000
20
0.0000000000
11
-1.0000000000
21
0.1666666667
12
-1.0000000000
22
-0.1666666667
13
-1.0000000000
23
-0.1666666667
0
ENDBLK
8
0
6
BYBLOCK
62
0
0
ENDSEC
0
SECTION
2
ENTITIES
0
DIMENSION
8
0
62
2
6
CONTINUOUS
2
*D0
10
15.7927948903
20
15.1877583202
11
17.4977326498
21
12.8586602918
70
131
15
21.5924560994
25
7.6635354461
0
DIMENSION
8
0
62
2
6
CONTINUOUS
2
*D1
10
21.5626790093
20
14.6444120305
11
20.1824723975
21
12.9793227524
70
131
15
15.8225719804
25
8.2068817357
0
TEXT
8
0
62
2
6
CONTINUOUS
10
25.4866409603
20
14.3029760105
7
STANDARD
40
0.1562500000
1
RIM OF SINK
41
0.8000000000
72
0
0
TEXT
8
0
62
2
6
CONTINUOUS
10
25.4866409603
20
14.0686010105
7
STANDARD
40
0.1562500000
1
REBORD DE L'ÉVIER
41
0.8000000000
72
0
0
TEXT
8
0
62
2
6
CONTINUOUS
10
25.4866409603
20
13.8342260105
7
STANDARD
40
0.1562500000
1
BORDE DEL FREGADERO
41
0.8000000000
72
0
0
TEXT
8
0
62
2
6
CONTINUOUS
10
25.4866409603
20
13.5998510105
7
STANDARD
40
0.1562500000
1
 
41
0.8000000000
72
0
0
LINE
8
0
62
2
6
CONTINUOUS
10
23.7637360829
20
12.7844468699
11
25.2366409603
21
14.3811010105
0
LINE
8
0
62
2
6
CONTINUOUS
10
25.2366409603
20
14.3811010105
11
25.4866409603
21
14.3811010105
0
SOLID
8
0
62
2
6
CONTINUOUS
10
23.8679009943
20
12.9434515357
11
23.7637360829
21
12.7844468699
12
23.9138395393
22
12.9010734744
13
23.9138395393
23
12.9010734744
0
TEXT
8
___NOTE
62
2
6
CONTINUOUS
10
24.0319949509
20
15.8856422446
7
STANDARD
40
0.1562500000
1
FOR UNDERCOUNTER INSTALLATION CUT ALONG THIS LINE
41
0.8000000000
72
0
0
TEXT
8
___NOTE
62
2
6
CONTINUOUS
10
24.0319949509
20
15.6512672446
7
STANDARD
40
0.1562500000
1
POUR INSTALLATION SOUS COMPTOIR DÉCOUPER LE LONG DE CETTE LIGNE
41
0.8000000000
72
0
0
TEXT
8
___NOTE
62
2
6
CONTINUOUS
10
24.0319949509
20
15.4168922446
7
STANDARD
40
0.1562500000
1
PARA INSTALACIÓN BAJO CUBIERTA, CORTE POR ESTA LÍNEA
41
0.8000000000
72
0
0
TEXT
8
___NOTE
62
2
6
CONTINUOUS
10
24.0319949509
20
15.1825172446
7
STANDARD
40
0.1562500000
1
 
41
0.8000000000
72
0
0
LINE
8
___NOTE
62
2
6
CONTINUOUS
10
22.1139617749
20
14.0509305457
11
23.7819949509
21
15.9637672446
0
LINE
8
___NOTE
62
2
6
CONTINUOUS
10
23.7819949509
20
15.9637672446
11
24.0319949509
21
15.9637672446
0
SOLID
8
___NOTE
62
2
6
CONTINUOUS
10
22.2136399922
20
14.2127856213
11
22.1139617749
21
14.0509305457
12
22.2607455184
22
14.1717086278
13
22.2607455184
23
14.1717086278
0
TEXT
8
___NOTE
62
2
6
CONTINUOUS
10
23.1178275120
20
17.6366266655
7
STANDARD
40
0.1562500000
1
FOR SELF-RIMMING INSTALLATION CUT ALONG THIS LINE
41
0.8000000000
72
0
0
TEXT
8
___NOTE
62
2
6
CONTINUOUS
10
23.1178275120
20
17.4022516655
7
STANDARD
40
0.1562500000
1
POUR INSTALLATION À REBORD INTÉGRÉ DÉCOUPER LE LONG DE CETTE LIGNE
41
0.8000000000
72
0
0
TEXT
8
___NOTE
62
2
6
CONTINUOUS
10
23.1178275120
20
17.1678766655
7
STANDARD
40
0.1562500000
1
PARA INSTALACIÓN CON BORDE TERMINADO, CORTE POR ESTA LÍNEA
41
0.8000000000
72
0
0
TEXT
8
___NOTE
62
2
6
CONTINUOUS
10
23.1178275120
20
16.9335016655
7
STANDARD
40
0.1562500000
1
 
41
0.8000000000
72
0
0
LINE
8
___NOTE
62
2
6
CONTINUOUS
10
21.1303542838
20
15.5024076502
11
22.8678275120
21
17.7147516655
0
LINE
8
___NOTE
62
2
6
CONTINUOUS
10
22.8678275120
20
17.7147516655
11
23.1178275120
21
17.7147516655
0
SOLID
8
___NOTE
62
2
6
CONTINUOUS
10
21.2215862243
20
15.6691695929
11
21.1303542838
21
15.5024076502
12
21.2707397224
22
15.6305666963
13
21.2707397224
23
15.6305666963
0
INSERT
8
0
62
2
6
CONTINUOUS
2
SKU_SINK_STERLING_BL0
10
12.0113544370
20
18.3287898460
0
INSERT
8
___SYMBOL
62
2
6
CONTINUOUS
2
PACKAGING_UPC_NOTE_BL1
10
12.0037887770
20
6.3527116045
0
INSERT
8
___SYMBOL
62
2
6
CONTINUOUS
2
PLOTTING_TEMPLATE_NOTE_BL2
10
27.0455252970
20
6.9258108227
0
INSERT
8
___SYMBOL
62
2
6
CONTINUOUS
2
COPYRIGHT_YEAR_BL3
10
20.2968232862
20
7.9643152308
0
INSERT
8
0
62
2
6
CONTINUOUS
2
TEMPLATE_NUMBER_BL4
10
17.2390731664
20
7.9888396372
0
INSERT
8
___SYMBOL
62
2
6
CONTINUOUS
2
TEMPLATE_NUMBER_BL5
10
17.2833861704
20
6.0427792658
0
LINE
8
_CURVE
62
4
6
PHANTOM
10
18.6926254948
20
6.4256468831
11
18.6926254948
21
5.4256468831
0
LINE
8
_CURVE
62
4
6
PHANTOM
10
18.6926254948
20
16.4256468831
11
18.6926254948
21
17.4256468831
0
LINE
8
_CURVE
62
4
6
PHANTOM
10
13.6926254948
20
11.4256468831
11
12.6926254948
21
11.4256468831
0
LINE
8
_CURVE
62
4
6
PHANTOM
10
23.6926254948
20
11.4256468831
11
24.6926254948
21
11.4256468831
0
CIRCLE
8
_CURVE
62
4
6
PHANTOM
10
18.6926254948
20
11.4256468831
40
5.2500000000
0
CIRCLE
8
_CURVE
62
4
6
CONTINUOUS
10
18.6926254948
20
11.4256468831
40
4.3125000000
0
CIRCLE
8
_CURVE
62
4
6
CONTINUOUS
10
18.6926254948
20
11.4256468831
40
4.7500000000
0
ENDSEC
0
EOF
