999
DXF file: 1033071-7.dxf
999
Pro/ENGINEER 2004030 by Parametric Technology Corporation
0
SECTION
2
HEADER
9
$EXTMAX
10
34.0000000000
20
22.0000000000
30
0.0000000000
9
$EXTMIN
10
0.0000000000
20
0.0000000000
30
0.0000000000
9
$LIMMIN
10
0.0000000000
20
0.0000000000
9
$LIMMAX
10
34.0000000000
20
22.0000000000
9
$VIEWCTR
10
17.0000000000
20
11.0000000000
9
$VIEWSIZE
40
22.0000000000
9
$CLAYER
8
0
9
$LTSCALE
40
1.8700000000
9
$CELTYPE
6
BYLAYER
9
$DIMSCALE
40
1
9
$DIMASZ
40
0.1875000000
9
$DIMEXO
40
0.2125000000
9
$DIMDLI
40
1.2920000000
9
$DIMEXE
40
0.6120000000
9
$DIMCEN
40
0.3060000000
9
$DIMLFAC
40
1.0000000000
9
$DIMBLK
1
_FILLED
9
$DIMTXT
40
0.1562500000
9
$PDMODE
70
3
9
$PDSIZE
40
0.3125000000
0
ENDSEC
0
SECTION
2
TABLES
0
TABLE
2
LTYPE
70
6
0
LTYPE
2
BYBLOCK
70
0
3

72
65
73
0
40
0.0
0
LTYPE
2
BYLAYER
70
0
3

72
65
73
0
40
0.0
0
LTYPE
2
CONTINUOUS
70
64
3
Solid line
72
65
73
0
40
0
0
LTYPE
2
CENTER
70
64
3
____ _ ____ _ ____ _ ____ _ ____ _ ____ _ ____
72
65
73
4
40
0.6
49
0.375
49
-0.075
49
0.075
49
-0.075
0
LTYPE
2
HIDDEN
70
64
3
- - - - - - - - - - - - - - - - - - - -
72
65
73
2
40
0.2
49
0.1
49
-0.1
0
LTYPE
2
PHANTOM
70
64
3
_____ _ _ _____ _ _ _____ _ _ _____
72
65
73
6
40
0.8
49
0.45
49
-0.05
49
0.1
49
-0.05
49
0.1
49
-0.05
0
LTYPE
2
DOT
70
64
3
. . . . . . . . . . . . . . . . . . . .
72
65
73
2
40
0.2
49
0.1
49
-0.1
0
LTYPE
2
DASHED
70
64
3
- - - - - - - - - - - - - - - - - - - -
72
65
73
2
40
0.2
49
0.1
49
-0.1
0
ENDTAB
0
TABLE
2
LAYER
70
36
0
LAYER
2
0
70
0
62
7
6
CONTINUOUS
0
LAYER
2
DEFAULT_1
70
0
62
7
6
CENTER
0
LAYER
2
DEFAULT_2
70
0
62
8
6
HIDDEN
0
LAYER
2
DEFAULT_3
70
0
62
7
6
PHANTOM
0
LAYER
2
DATUMS
70
0
62
7
6
CONTINUOUS
0
LAYER
2
DATUM_AXIS
70
0
62
7
6
CONTINUOUS
0
LAYER
2
DATUM_CSYS
70
0
62
7
6
CONTINUOUS
0
LAYER
2
DATUM_PLANE
70
0
62
7
6
CONTINUOUS
0
LAYER
2
DATUM_POINT
70
0
62
7
6
CONTINUOUS
0
LAYER
2
_CURVE
70
0
62
7
6
CONTINUOUS
0
LAYER
2
_SURFACE
70
0
62
7
6
CONTINUOUS
0
LAYER
2
__REF_CURVE
70
0
62
7
6
CONTINUOUS
0
LAYER
2
__REF_SURFACE
70
0
62
7
6
CONTINUOUS
0
LAYER
2
___NOTE
70
0
62
7
6
CONTINUOUS
0
ENDTAB
0
ENDSEC
0
SECTION
2
BLOCKS
0
BLOCK
8
0
62
2
6
CONTINUOUS
2
KOHLER_BL0
70
64
10
30.2123715000
20
2.2616460000
0
ARC
8
0
62
2
6
CONTINUOUS
10
30.7781840000
20
2.3171147500
40
0.0306562500
50
270.0000000000
51
90.0000000000
0
LINE
8
0
62
2
6
CONTINUOUS
10
29.5281840000
20
2.1210210000
11
29.5281840000
21
2.4022710000
0
LINE
8
0
62
2
6
CONTINUOUS
10
29.5281840000
20
2.4022710000
11
29.5951840000
21
2.4022710000
0
LINE
8
0
62
2
6
CONTINUOUS
10
29.5281840000
20
2.1210210000
11
29.5951840000
21
2.1210210000
0
LINE
8
0
62
2
6
CONTINUOUS
10
29.7781840000
20
2.4022710000
11
29.6531840000
21
2.2772710000
0
LINE
8
0
62
2
6
CONTINUOUS
10
29.6531840000
20
2.2772710000
11
29.7781840000
21
2.1210210000
0
CIRCLE
8
0
62
2
6
CONTINUOUS
10
29.8875590000
20
2.2616460000
40
0.0736250000
0
LINE
8
0
62
2
6
CONTINUOUS
10
29.6923821352
20
2.1210210000
11
29.7781840000
21
2.1210210000
0
CIRCLE
8
0
62
2
6
CONTINUOUS
10
29.8875590000
20
2.2616460000
40
0.1406250000
0
LINE
8
0
62
2
6
CONTINUOUS
10
29.5951840000
20
2.1210210000
11
29.5951840000
21
2.2425186690
0
LINE
8
0
62
2
6
CONTINUOUS
10
29.6834316913
20
2.4022710000
11
29.5951840000
21
2.3140233087
0
LINE
8
0
62
2
6
CONTINUOUS
10
29.5951840000
20
2.2425186690
11
29.6923821352
21
2.1210210000
0
LINE
8
0
62
2
6
CONTINUOUS
10
29.6834316913
20
2.4022710000
11
29.7781840000
21
2.4022710000
0
LINE
8
0
62
2
6
CONTINUOUS
10
29.5951840000
20
2.4022710000
11
29.5951840000
21
2.3140233087
0
LINE
8
0
62
2
6
CONTINUOUS
10
30.0594340000
20
2.4022710000
11
30.0594340000
21
2.1210210000
0
LINE
8
0
62
2
6
CONTINUOUS
10
30.1264340000
20
2.1210210000
11
30.1264340000
21
2.2437710000
0
LINE
8
0
62
2
6
CONTINUOUS
10
30.1264340000
20
2.3107710000
11
30.1264340000
21
2.4022710000
0
LINE
8
0
62
2
6
CONTINUOUS
10
30.2045590000
20
2.1210210000
11
30.2045590000
21
2.2437710000
0
LINE
8
0
62
2
6
CONTINUOUS
10
30.2045590000
20
2.3107710000
11
30.2045590000
21
2.4022710000
0
LINE
8
0
62
2
6
CONTINUOUS
10
30.2715590000
20
2.4022710000
11
30.2715590000
21
2.1210210000
0
LINE
8
0
62
2
6
CONTINUOUS
10
30.1264340000
20
2.3107710000
11
30.2045590000
21
2.3107710000
0
LINE
8
0
62
2
6
CONTINUOUS
10
30.1264340000
20
2.2437710000
11
30.2045590000
21
2.2437710000
0
LINE
8
0
62
2
6
CONTINUOUS
10
30.2045590000
20
2.1210210000
11
30.2715590000
21
2.1210210000
0
LINE
8
0
62
2
6
CONTINUOUS
10
30.0594340000
20
2.1210210000
11
30.1264340000
21
2.1210210000
0
LINE
8
0
62
2
6
CONTINUOUS
10
30.2045590000
20
2.4022710000
11
30.2715590000
21
2.4022710000
0
LINE
8
0
62
2
6
CONTINUOUS
10
30.0594340000
20
2.4022710000
11
30.1264340000
21
2.4022710000
0
LINE
8
0
62
2
6
CONTINUOUS
10
30.3028090000
20
2.4022710000
11
30.3028090000
21
2.1210210000
0
LINE
8
0
62
2
6
CONTINUOUS
10
30.4590590000
20
2.1880210000
11
30.4590590000
21
2.1210210000
0
LINE
8
0
62
2
6
CONTINUOUS
10
30.3028090000
20
2.1210210000
11
30.4590590000
21
2.1210210000
0
LINE
8
0
62
2
6
CONTINUOUS
10
30.3698090000
20
2.1880210000
11
30.3698090000
21
2.4022710000
0
LINE
8
0
62
2
6
CONTINUOUS
10
30.3698090000
20
2.1880210000
11
30.4590590000
21
2.1880210000
0
LINE
8
0
62
2
6
CONTINUOUS
10
30.3028090000
20
2.4022710000
11
30.3698090000
21
2.4022710000
0
LINE
8
0
62
2
6
CONTINUOUS
10
30.4903090000
20
2.1210210000
11
30.6465590000
21
2.1210210000
0
LINE
8
0
62
2
6
CONTINUOUS
10
30.6465590000
20
2.1880210000
11
30.6465590000
21
2.1210210000
0
LINE
8
0
62
2
6
CONTINUOUS
10
30.5573090000
20
2.1880210000
11
30.6465590000
21
2.1880210000
0
LINE
8
0
62
2
6
CONTINUOUS
10
30.5573090000
20
2.2359585000
11
30.5573090000
21
2.1880210000
0
LINE
8
0
62
2
6
CONTINUOUS
10
30.5573090000
20
2.3352710000
11
30.6465590000
21
2.3352710000
0
LINE
8
0
62
2
6
CONTINUOUS
10
30.4903090000
20
2.4022710000
11
30.4903090000
21
2.1210210000
0
LINE
8
0
62
2
6
CONTINUOUS
10
30.6465590000
20
2.3352710000
11
30.6465590000
21
2.4022710000
0
LINE
8
0
62
2
6
CONTINUOUS
10
30.4903090000
20
2.4022710000
11
30.6465590000
21
2.4022710000
0
LINE
8
0
62
2
6
CONTINUOUS
10
30.5573090000
20
2.2873335000
11
30.6465590000
21
2.2873335000
0
LINE
8
0
62
2
6
CONTINUOUS
10
30.6465590000
20
2.2873335000
11
30.6465590000
21
2.2359585000
0
LINE
8
0
62
2
6
CONTINUOUS
10
30.5573090000
20
2.2359585000
11
30.6465590000
21
2.2359585000
0
LINE
8
0
62
2
6
CONTINUOUS
10
30.5573090000
20
2.2873335000
11
30.5573090000
21
2.3352710000
0
LINE
8
0
62
2
6
CONTINUOUS
10
30.6778090000
20
2.1210210000
11
30.6778090000
21
2.4022710000
0
LINE
8
0
62
2
6
CONTINUOUS
10
30.7448090000
20
2.2303960000
11
30.7448090000
21
2.1210210000
0
ARC
8
0
62
2
6
CONTINUOUS
10
30.7793715000
20
2.3163335000
40
0.0859375000
50
304.1679402531
51
90.0000000000
0
LINE
8
0
62
2
6
CONTINUOUS
10
30.7793715000
20
2.4022710000
11
30.6778090000
21
2.4022710000
0
LINE
8
0
62
2
6
CONTINUOUS
10
30.7781840000
20
2.3477710000
11
30.7448090000
21
2.3477710000
0
LINE
8
0
62
2
6
CONTINUOUS
10
30.8276357616
20
2.2452292458
11
30.8965590000
21
2.1210210000
0
LINE
8
0
62
2
6
CONTINUOUS
10
30.8199350526
20
2.1210210000
11
30.7592427922
21
2.2303960000
0
LINE
8
0
62
2
6
CONTINUOUS
10
30.6778090000
20
2.1210210000
11
30.7448090000
21
2.1210210000
0
LINE
8
0
62
2
6
CONTINUOUS
10
30.8199350526
20
2.1210210000
11
30.8965590000
21
2.1210210000
0
LINE
8
0
62
2
6
CONTINUOUS
10
30.7781840000
20
2.2864585000
11
30.7448090000
21
2.2864585000
0
LINE
8
0
62
2
6
CONTINUOUS
10
30.7448090000
20
2.3477710000
11
30.7448090000
21
2.2864585000
0
LINE
8
0
62
2
6
CONTINUOUS
10
30.7448090000
20
2.2303960000
11
30.7592427922
21
2.2303960000
0
POLYLINE
8
0
62
2
6
CONTINUOUS
66
1
70
1
0
VERTEX
8
0
62
2
6
CONTINUOUS
10
30.8965590000
20
2.1210210000
0
VERTEX
8
0
62
2
6
CONTINUOUS
10
30.8199350526
20
2.1210210000
0
VERTEX
8
0
62
2
6
CONTINUOUS
10
30.7592427922
20
2.2303960000
0
VERTEX
8
0
62
2
6
CONTINUOUS
10
30.7448090000
20
2.2303960000
0
VERTEX
8
0
62
2
6
CONTINUOUS
10
30.7448090000
20
2.1210210000
0
VERTEX
8
0
62
2
6
CONTINUOUS
10
30.6778090000
20
2.1210210000
0
VERTEX
8
0
62
2
6
CONTINUOUS
10
30.6778090000
20
2.3477710000
0
VERTEX
8
0
62
2
6
CONTINUOUS
10
30.7448090000
20
2.3477710000
0
VERTEX
8
0
62
2
6
CONTINUOUS
10
30.7448090000
20
2.2864585000
0
VERTEX
8
0
62
2
6
CONTINUOUS
10
30.7781840000
20
2.2864585000
0
VERTEX
8
0
62
2
6
CONTINUOUS
10
30.8586501340
20
2.2864585000
0
VERTEX
8
0
62
2
6
CONTINUOUS
10
30.8497683179
20
2.2670431162
0
VERTEX
8
0
62
2
6
CONTINUOUS
10
30.8276357616
20
2.2452292458
0
VERTEX
8
0
62
2
6
CONTINUOUS
10
30.8965590000
20
2.1210210000
0
SEQEND
0
POLYLINE
8
0
62
2
6
CONTINUOUS
66
1
70
1
0
VERTEX
8
0
62
2
6
CONTINUOUS
10
30.6778090000
20
2.3477710000
0
VERTEX
8
0
62
2
6
CONTINUOUS
10
30.6778090000
20
2.4022710000
0
VERTEX
8
0
62
2
6
CONTINUOUS
10
30.7793715000
20
2.4022710000
0
VERTEX
8
0
62
2
6
CONTINUOUS
10
30.8099349823
20
2.3966524110
0
VERTEX
8
0
62
2
6
CONTINUOUS
10
30.8365019870
20
2.3805313299
0
VERTEX
8
0
62
2
6
CONTINUOUS
10
30.8555986155
20
2.3560157476
0
VERTEX
8
0
62
2
6
CONTINUOUS
10
30.8647277946
20
2.3263113190
0
VERTEX
8
0
62
2
6
CONTINUOUS
10
30.8626957941
20
2.2953021918
0
VERTEX
8
0
62
2
6
CONTINUOUS
10
30.8586501340
20
2.2864585000
0
VERTEX
8
0
62
2
6
CONTINUOUS
10
30.7781840000
20
2.2864585000
0
VERTEX
8
0
62
2
6
CONTINUOUS
10
30.7935121250
20
2.2905656587
0
VERTEX
8
0
62
2
6
CONTINUOUS
10
30.8047330913
20
2.3017866250
0
VERTEX
8
0
62
2
6
CONTINUOUS
10
30.8088402500
20
2.3171147500
0
VERTEX
8
0
62
2
6
CONTINUOUS
10
30.8047330913
20
2.3324428750
0
VERTEX
8
0
62
2
6
CONTINUOUS
10
30.7935121250
20
2.3436638413
0
VERTEX
8
0
62
2
6
CONTINUOUS
10
30.7781840000
20
2.3477710000
0
VERTEX
8
0
62
2
6
CONTINUOUS
10
30.7448090000
20
2.3477710000
0
VERTEX
8
0
62
2
6
CONTINUOUS
10
30.6778090000
20
2.3477710000
0
SEQEND
0
POLYLINE
8
0
62
2
6
CONTINUOUS
66
1
70
1
0
VERTEX
8
0
62
2
6
CONTINUOUS
10
29.5951840000
20
2.1210210000
0
VERTEX
8
0
62
2
6
CONTINUOUS
10
29.5281840000
20
2.1210210000
0
VERTEX
8
0
62
2
6
CONTINUOUS
10
29.5281840000
20
2.4022710000
0
VERTEX
8
0
62
2
6
CONTINUOUS
10
29.5951840000
20
2.4022710000
0
VERTEX
8
0
62
2
6
CONTINUOUS
10
29.5951840000
20
2.3140233087
0
VERTEX
8
0
62
2
6
CONTINUOUS
10
29.6834316913
20
2.4022710000
0
VERTEX
8
0
62
2
6
CONTINUOUS
10
29.7781840000
20
2.4022710000
0
VERTEX
8
0
62
2
6
CONTINUOUS
10
29.6531840000
20
2.2772710000
0
VERTEX
8
0
62
2
6
CONTINUOUS
10
29.7781840000
20
2.1210210000
0
VERTEX
8
0
62
2
6
CONTINUOUS
10
29.6923821352
20
2.1210210000
0
VERTEX
8
0
62
2
6
CONTINUOUS
10
29.5951840000
20
2.2425186690
0
VERTEX
8
0
62
2
6
CONTINUOUS
10
29.5951840000
20
2.1210210000
0
SEQEND
0
POLYLINE
8
0
62
2
6
CONTINUOUS
66
1
70
1
0
VERTEX
8
0
62
2
6
CONTINUOUS
10
29.8875590000
20
2.1210210000
0
VERTEX
8
0
62
2
6
CONTINUOUS
10
29.8441034852
20
2.1279036774
0
VERTEX
8
0
62
2
6
CONTINUOUS
10
29.8049016989
20
2.1478779852
0
VERTEX
8
0
62
2
6
CONTINUOUS
10
29.7737909852
20
2.1789886989
0
VERTEX
8
0
62
2
6
CONTINUOUS
10
29.7538166774
20
2.2181904852
0
VERTEX
8
0
62
2
6
CONTINUOUS
10
29.7469340000
20
2.2616460000
0
VERTEX
8
0
62
2
6
CONTINUOUS
10
29.7538166774
20
2.3051015148
0
VERTEX
8
0
62
2
6
CONTINUOUS
10
29.7690287706
20
2.3349569287
0
VERTEX
8
0
62
2
6
CONTINUOUS
10
29.8943522580
20
2.3349569287
0
VERTEX
8
0
62
2
6
CONTINUOUS
10
29.8674105624
20
2.3324604130
0
VERTEX
8
0
62
2
6
CONTINUOUS
10
29.8431900249
20
2.3204000184
0
VERTEX
8
0
62
2
6
CONTINUOUS
10
29.8249617634
20
2.3004045680
0
VERTEX
8
0
62
2
6
CONTINUOUS
10
29.8151876055
20
2.2751745582
0
VERTEX
8
0
62
2
6
CONTINUOUS
10
29.8151876055
20
2.2481174418
0
VERTEX
8
0
62
2
6
CONTINUOUS
10
29.8249617634
20
2.2228874320
0
VERTEX
8
0
62
2
6
CONTINUOUS
10
29.8431900249
20
2.2028919816
0
VERTEX
8
0
62
2
6
CONTINUOUS
10
29.8674105624
20
2.1908315870
0
VERTEX
8
0
62
2
6
CONTINUOUS
10
29.8943522580
20
2.1883350713
0
VERTEX
8
0
62
2
6
CONTINUOUS
10
30.0060892294
20
2.1883350713
0
VERTEX
8
0
62
2
6
CONTINUOUS
10
30.0013270148
20
2.1789886989
0
VERTEX
8
0
62
2
6
CONTINUOUS
10
29.9702163011
20
2.1478779852
0
VERTEX
8
0
62
2
6
CONTINUOUS
10
29.9310145148
20
2.1279036774
0
VERTEX
8
0
62
2
6
CONTINUOUS
10
29.8875590000
20
2.1210210000
0
SEQEND
0
POLYLINE
8
0
62
2
6
CONTINUOUS
66
1
70
1
0
VERTEX
8
0
62
2
6
CONTINUOUS
10
29.7690287706
20
2.3349569287
0
VERTEX
8
0
62
2
6
CONTINUOUS
10
29.7737909852
20
2.3443033011
0
VERTEX
8
0
62
2
6
CONTINUOUS
10
29.8049016989
20
2.3754140148
0
VERTEX
8
0
62
2
6
CONTINUOUS
10
29.8441034852
20
2.3953883226
0
VERTEX
8
0
62
2
6
CONTINUOUS
10
29.8875590000
20
2.4022710000
0
VERTEX
8
0
62
2
6
CONTINUOUS
10
29.9310145148
20
2.3953883226
0
VERTEX
8
0
62
2
6
CONTINUOUS
10
29.9702163011
20
2.3754140148
0
VERTEX
8
0
62
2
6
CONTINUOUS
10
30.0013270148
20
2.3443033011
0
VERTEX
8
0
62
2
6
CONTINUOUS
10
30.0213013226
20
2.3051015148
0
VERTEX
8
0
62
2
6
CONTINUOUS
10
30.0281840000
20
2.2616460000
0
VERTEX
8
0
62
2
6
CONTINUOUS
10
30.0213013226
20
2.2181904852
0
VERTEX
8
0
62
2
6
CONTINUOUS
10
30.0060892294
20
2.1883350713
0
VERTEX
8
0
62
2
6
CONTINUOUS
10
29.8943522580
20
2.1883350713
0
VERTEX
8
0
62
2
6
CONTINUOUS
10
29.9203764864
20
2.1957396027
0
VERTEX
8
0
62
2
6
CONTINUOUS
10
29.9419685315
20
2.2120451582
0
VERTEX
8
0
62
2
6
CONTINUOUS
10
29.9562122679
20
2.2350495823
0
VERTEX
8
0
62
2
6
CONTINUOUS
10
29.9611840000
20
2.2616460000
0
VERTEX
8
0
62
2
6
CONTINUOUS
10
29.9562122679
20
2.2882424177
0
VERTEX
8
0
62
2
6
CONTINUOUS
10
29.9419685315
20
2.3112468418
0
VERTEX
8
0
62
2
6
CONTINUOUS
10
29.9203764864
20
2.3275523973
0
VERTEX
8
0
62
2
6
CONTINUOUS
10
29.8943522580
20
2.3349569287
0
VERTEX
8
0
62
2
6
CONTINUOUS
10
29.7690287706
20
2.3349569287
0
SEQEND
0
POLYLINE
8
0
62
2
6
CONTINUOUS
66
1
70
1
0
VERTEX
8
0
62
2
6
CONTINUOUS
10
30.1264340000
20
2.1210210000
0
VERTEX
8
0
62
2
6
CONTINUOUS
10
30.0594340000
20
2.1210210000
0
VERTEX
8
0
62
2
6
CONTINUOUS
10
30.0594340000
20
2.4022710000
0
VERTEX
8
0
62
2
6
CONTINUOUS
10
30.1264340000
20
2.4022710000
0
VERTEX
8
0
62
2
6
CONTINUOUS
10
30.1264340000
20
2.3107710000
0
VERTEX
8
0
62
2
6
CONTINUOUS
10
30.2045590000
20
2.3107710000
0
VERTEX
8
0
62
2
6
CONTINUOUS
10
30.2045590000
20
2.4022710000
0
VERTEX
8
0
62
2
6
CONTINUOUS
10
30.2715590000
20
2.4022710000
0
VERTEX
8
0
62
2
6
CONTINUOUS
10
30.2715590000
20
2.1210210000
0
VERTEX
8
0
62
2
6
CONTINUOUS
10
30.2045590000
20
2.1210210000
0
VERTEX
8
0
62
2
6
CONTINUOUS
10
30.2045590000
20
2.2437710000
0
VERTEX
8
0
62
2
6
CONTINUOUS
10
30.1264340000
20
2.2437710000
0
VERTEX
8
0
62
2
6
CONTINUOUS
10
30.1264340000
20
2.1210210000
0
SEQEND
0
POLYLINE
8
0
62
2
6
CONTINUOUS
66
1
70
1
0
VERTEX
8
0
62
2
6
CONTINUOUS
10
30.4590590000
20
2.1210210000
0
VERTEX
8
0
62
2
6
CONTINUOUS
10
30.3028090000
20
2.1210210000
0
VERTEX
8
0
62
2
6
CONTINUOUS
10
30.3028090000
20
2.4022710000
0
VERTEX
8
0
62
2
6
CONTINUOUS
10
30.3698090000
20
2.4022710000
0
VERTEX
8
0
62
2
6
CONTINUOUS
10
30.3698090000
20
2.1880210000
0
VERTEX
8
0
62
2
6
CONTINUOUS
10
30.4590590000
20
2.1880210000
0
VERTEX
8
0
62
2
6
CONTINUOUS
10
30.4590590000
20
2.1210210000
0
SEQEND
0
POLYLINE
8
0
62
2
6
CONTINUOUS
66
1
70
1
0
VERTEX
8
0
62
2
6
CONTINUOUS
10
30.6465590000
20
2.1210210000
0
VERTEX
8
0
62
2
6
CONTINUOUS
10
30.4903090000
20
2.1210210000
0
VERTEX
8
0
62
2
6
CONTINUOUS
10
30.4903090000
20
2.4022710000
0
VERTEX
8
0
62
2
6
CONTINUOUS
10
30.6465590000
20
2.4022710000
0
VERTEX
8
0
62
2
6
CONTINUOUS
10
30.6465590000
20
2.3352710000
0
VERTEX
8
0
62
2
6
CONTINUOUS
10
30.5573090000
20
2.3352710000
0
VERTEX
8
0
62
2
6
CONTINUOUS
10
30.5573090000
20
2.2873335000
0
VERTEX
8
0
62
2
6
CONTINUOUS
10
30.6465590000
20
2.2873335000
0
VERTEX
8
0
62
2
6
CONTINUOUS
10
30.6465590000
20
2.2359585000
0
VERTEX
8
0
62
2
6
CONTINUOUS
10
30.5573090000
20
2.2359585000
0
VERTEX
8
0
62
2
6
CONTINUOUS
10
30.5573090000
20
2.1880210000
0
VERTEX
8
0
62
2
6
CONTINUOUS
10
30.6465590000
20
2.1880210000
0
VERTEX
8
0
62
2
6
CONTINUOUS
10
30.6465590000
20
2.1210210000
0
SEQEND
0
ENDBLK
8
0
6
BYBLOCK
62
0
0
BLOCK
8
DEFAULT_2
62
8
6
HIDDEN
2
C_ARROW_BL1
70
64
10
17.0000000000
20
21.7750000000
0
LINE
8
DEFAULT_2
62
8
6
HIDDEN
10
17.0000000000
20
21.5875000000
11
17.0937500000
21
21.7750000000
0
LINE
8
DEFAULT_2
62
8
6
HIDDEN
10
17.0000000000
20
21.5875000000
11
16.9062500000
21
21.7750000000
0
LINE
8
DEFAULT_2
62
8
6
HIDDEN
10
16.9765625000
20
21.7750000000
11
16.9062500000
21
21.7750000000
0
LINE
8
DEFAULT_2
62
8
6
HIDDEN
10
16.9765625000
20
21.9625000000
11
16.9765625000
21
21.7750000000
0
LINE
8
DEFAULT_2
62
8
6
HIDDEN
10
16.9765625000
20
21.9625000000
11
17.0234375000
21
21.9625000000
0
LINE
8
DEFAULT_2
62
8
6
HIDDEN
10
17.0234375000
20
21.7750000000
11
17.0234375000
21
21.9625000000
0
LINE
8
DEFAULT_2
62
8
6
HIDDEN
10
17.0937500000
20
21.7750000000
11
17.0234375000
21
21.7750000000
0
POLYLINE
8
DEFAULT_2
62
8
6
HIDDEN
66
1
70
1
0
VERTEX
8
DEFAULT_2
62
8
6
HIDDEN
10
17.0000000000
20
21.5875000000
0
VERTEX
8
DEFAULT_2
62
8
6
HIDDEN
10
16.9062500000
20
21.7750000000
0
VERTEX
8
DEFAULT_2
62
8
6
HIDDEN
10
16.9765625000
20
21.7750000000
0
VERTEX
8
DEFAULT_2
62
8
6
HIDDEN
10
16.9765625000
20
21.9625000000
0
VERTEX
8
DEFAULT_2
62
8
6
HIDDEN
10
17.0234375000
20
21.9625000000
0
VERTEX
8
DEFAULT_2
62
8
6
HIDDEN
10
17.0234375000
20
21.7750000000
0
VERTEX
8
DEFAULT_2
62
8
6
HIDDEN
10
17.0937500000
20
21.7750000000
0
VERTEX
8
DEFAULT_2
62
8
6
HIDDEN
10
17.0000000000
20
21.5875000000
0
SEQEND
0
ENDBLK
8
0
6
BYBLOCK
62
0
0
BLOCK
8
DEFAULT_2
62
8
6
HIDDEN
2
C_ARROW_BL2
70
64
10
0.3375000000
20
11.0000000000
0
LINE
8
DEFAULT_2
62
8
6
HIDDEN
10
0.5250000000
20
11.0000000000
11
0.3375000000
21
11.0937500000
0
LINE
8
DEFAULT_2
62
8
6
HIDDEN
10
0.5250000000
20
11.0000000000
11
0.3375000000
21
10.9062500000
0
LINE
8
DEFAULT_2
62
8
6
HIDDEN
10
0.3375000000
20
10.9765625000
11
0.3375000000
21
10.9062500000
0
LINE
8
DEFAULT_2
62
8
6
HIDDEN
10
0.1500000000
20
10.9765625000
11
0.3375000000
21
10.9765625000
0
LINE
8
DEFAULT_2
62
8
6
HIDDEN
10
0.1500000000
20
10.9765625000
11
0.1500000000
21
11.0234375000
0
LINE
8
DEFAULT_2
62
8
6
HIDDEN
10
0.3375000000
20
11.0234375000
11
0.1500000000
21
11.0234375000
0
LINE
8
DEFAULT_2
62
8
6
HIDDEN
10
0.3375000000
20
11.0937500000
11
0.3375000000
21
11.0234375000
0
POLYLINE
8
DEFAULT_2
62
8
6
HIDDEN
66
1
70
1
0
VERTEX
8
DEFAULT_2
62
8
6
HIDDEN
10
0.5250000000
20
11.0000000000
0
VERTEX
8
DEFAULT_2
62
8
6
HIDDEN
10
0.3375000000
20
10.9062500000
0
VERTEX
8
DEFAULT_2
62
8
6
HIDDEN
10
0.3375000000
20
10.9765625000
0
VERTEX
8
DEFAULT_2
62
8
6
HIDDEN
10
0.1500000000
20
10.9765625000
0
VERTEX
8
DEFAULT_2
62
8
6
HIDDEN
10
0.1500000000
20
11.0234375000
0
VERTEX
8
DEFAULT_2
62
8
6
HIDDEN
10
0.3375000000
20
11.0234375000
0
VERTEX
8
DEFAULT_2
62
8
6
HIDDEN
10
0.3375000000
20
11.0937500000
0
VERTEX
8
DEFAULT_2
62
8
6
HIDDEN
10
0.5250000000
20
11.0000000000
0
SEQEND
0
ENDBLK
8
0
6
BYBLOCK
62
0
0
BLOCK
8
DEFAULT_2
62
8
6
HIDDEN
2
C_ARROW_BL3
70
64
10
17.0000000000
20
0.4000000000
0
LINE
8
DEFAULT_2
62
8
6
HIDDEN
10
17.0000000000
20
0.5875000000
11
16.9062500000
21
0.4000000000
0
LINE
8
DEFAULT_2
62
8
6
HIDDEN
10
17.0000000000
20
0.5875000000
11
17.0937500000
21
0.4000000000
0
LINE
8
DEFAULT_2
62
8
6
HIDDEN
10
17.0234375000
20
0.4000000000
11
17.0937500000
21
0.4000000000
0
LINE
8
DEFAULT_2
62
8
6
HIDDEN
10
17.0234375000
20
0.2125000000
11
17.0234375000
21
0.4000000000
0
LINE
8
DEFAULT_2
62
8
6
HIDDEN
10
17.0234375000
20
0.2125000000
11
16.9765625000
21
0.2125000000
0
LINE
8
DEFAULT_2
62
8
6
HIDDEN
10
16.9765625000
20
0.4000000000
11
16.9765625000
21
0.2125000000
0
LINE
8
DEFAULT_2
62
8
6
HIDDEN
10
16.9062500000
20
0.4000000000
11
16.9765625000
21
0.4000000000
0
POLYLINE
8
DEFAULT_2
62
8
6
HIDDEN
66
1
70
1
0
VERTEX
8
DEFAULT_2
62
8
6
HIDDEN
10
17.0000000000
20
0.5875000000
0
VERTEX
8
DEFAULT_2
62
8
6
HIDDEN
10
17.0937500000
20
0.4000000000
0
VERTEX
8
DEFAULT_2
62
8
6
HIDDEN
10
17.0234375000
20
0.4000000000
0
VERTEX
8
DEFAULT_2
62
8
6
HIDDEN
10
17.0234375000
20
0.2125000000
0
VERTEX
8
DEFAULT_2
62
8
6
HIDDEN
10
16.9765625000
20
0.2125000000
0
VERTEX
8
DEFAULT_2
62
8
6
HIDDEN
10
16.9765625000
20
0.4000000000
0
VERTEX
8
DEFAULT_2
62
8
6
HIDDEN
10
16.9062500000
20
0.4000000000
0
VERTEX
8
DEFAULT_2
62
8
6
HIDDEN
10
17.0000000000
20
0.5875000000
0
SEQEND
0
ENDBLK
8
0
6
BYBLOCK
62
0
0
BLOCK
8
DEFAULT_2
62
8
6
HIDDEN
2
C_ARROW_BL4
70
64
10
33.7125000000
20
11.0000000000
0
LINE
8
DEFAULT_2
62
8
6
HIDDEN
10
33.5250000000
20
11.0000000000
11
33.7125000000
21
10.9062500000
0
LINE
8
DEFAULT_2
62
8
6
HIDDEN
10
33.5250000000
20
11.0000000000
11
33.7125000000
21
11.0937500000
0
LINE
8
DEFAULT_2
62
8
6
HIDDEN
10
33.7125000000
20
11.0234375000
11
33.7125000000
21
11.0937500000
0
LINE
8
DEFAULT_2
62
8
6
HIDDEN
10
33.9000000000
20
11.0234375000
11
33.7125000000
21
11.0234375000
0
LINE
8
DEFAULT_2
62
8
6
HIDDEN
10
33.9000000000
20
11.0234375000
11
33.9000000000
21
10.9765625000
0
LINE
8
DEFAULT_2
62
8
6
HIDDEN
10
33.7125000000
20
10.9765625000
11
33.9000000000
21
10.9765625000
0
LINE
8
DEFAULT_2
62
8
6
HIDDEN
10
33.7125000000
20
10.9062500000
11
33.7125000000
21
10.9765625000
0
POLYLINE
8
DEFAULT_2
62
8
6
HIDDEN
66
1
70
1
0
VERTEX
8
DEFAULT_2
62
8
6
HIDDEN
10
33.5250000000
20
11.0000000000
0
VERTEX
8
DEFAULT_2
62
8
6
HIDDEN
10
33.7125000000
20
11.0937500000
0
VERTEX
8
DEFAULT_2
62
8
6
HIDDEN
10
33.7125000000
20
11.0234375000
0
VERTEX
8
DEFAULT_2
62
8
6
HIDDEN
10
33.9000000000
20
11.0234375000
0
VERTEX
8
DEFAULT_2
62
8
6
HIDDEN
10
33.9000000000
20
10.9765625000
0
VERTEX
8
DEFAULT_2
62
8
6
HIDDEN
10
33.7125000000
20
10.9765625000
0
VERTEX
8
DEFAULT_2
62
8
6
HIDDEN
10
33.7125000000
20
10.9062500000
0
VERTEX
8
DEFAULT_2
62
8
6
HIDDEN
10
33.5250000000
20
11.0000000000
0
SEQEND
0
ENDBLK
8
0
6
BYBLOCK
62
0
0
BLOCK
8
0
62
2
6
CONTINUOUS
2
*D0
70
65
10
0.0000000000
20
0.0000000000
0
TEXT
8
0
62
2
6
CONTINUOUS
10
10.6308811021
20
12.5504282715
40
0.1562500000
1
"
72
5
11
10.7558811021
21
12.5504282715
0
TEXT
8
0
62
2
6
CONTINUOUS
10
9.7558811021
20
12.3160532715
40
0.1562500000
1
(36,8 cm)
72
5
11
10.8808811021
21
12.3160532715
0
TEXT
8
0
62
2
6
CONTINUOUS
10
9.8808811021
20
12.5504282715
40
0.1562500000
1
14-1/2
72
5
11
10.6308811021
21
12.5504282715
0
LINE
8
0
62
2
6
CONTINUOUS
10
19.8909902597
20
12.5767857143
11
19.8909902597
21
12.5035532715
0
LINE
8
0
62
2
6
CONTINUOUS
10
5.3909902597
20
12.5767857143
11
5.3909902597
21
12.5035532715
0
LINE
8
0
62
2
6
CONTINUOUS
10
19.8909902597
20
12.6285532715
11
10.9590061021
21
12.6285532715
0
LINE
8
0
62
2
6
CONTINUOUS
10
5.3909902597
20
12.6285532715
11
9.6777561021
21
12.6285532715
0
INSERT
8
0
62
2
6
CONTINUOUS
2
_FILLED
10
19.8909902597
20
12.6285532715
41
  0.187500
42
  0.187500
43
  0.187500
0
INSERT
8
0
62
2
6
CONTINUOUS
2
_FILLED
10
5.3909902597
20
12.6285532715
41
  0.187500
42
  0.187500
43
  0.187500
50
180.000000
0
ENDBLK
8
0
6
BYBLOCK
62
0
0
BLOCK
8
0
62
2
6
CONTINUOUS
2
*D1
70
65
10
0.0000000000
20
0.0000000000
0
TEXT
8
0
62
2
6
CONTINUOUS
10
12.9744089080
20
14.5427456210
40
0.1562500000
1
"
72
5
11
13.0994089080
21
14.5427456210
0
TEXT
8
0
62
2
6
CONTINUOUS
10
12.0994089080
20
14.3083706210
40
0.1562500000
1
(36,8 cm)
72
5
11
13.2244089080
21
14.3083706210
0
TEXT
8
0
62
2
6
CONTINUOUS
10
12.2244089080
20
14.5427456210
40
0.1562500000
1
14-1/2
72
5
11
12.9744089080
21
14.5427456210
0
LINE
8
0
62
2
6
CONTINUOUS
10
12.7034902597
20
19.8892857143
11
12.7869089080
21
19.8892857143
0
LINE
8
0
62
2
6
CONTINUOUS
10
12.7034902597
20
5.3892857143
11
12.7869089080
21
5.3892857143
0
LINE
8
0
62
2
6
CONTINUOUS
10
12.6619089080
20
19.8892857143
11
12.6619089080
21
14.7771206210
0
LINE
8
0
62
2
6
CONTINUOUS
10
12.6619089080
20
5.3892857143
11
12.6619089080
21
14.2302456210
0
INSERT
8
0
62
2
6
CONTINUOUS
2
_FILLED
10
12.6619089080
20
19.8892857143
41
  0.187500
42
  0.187500
43
  0.187500
50
 90.000000
0
INSERT
8
0
62
2
6
CONTINUOUS
2
_FILLED
10
12.6619089080
20
5.3892857143
41
  0.187500
42
  0.187500
43
  0.187500
50
270.000000
0
ENDBLK
8
0
6
BYBLOCK
62
0
0
BLOCK
8
0
2
_FILLED
70
64
10
0.0000000000
20
0.0000000000
0
SOLID
8
0
6
BYBLOCK
62
0
10
0.0000000000
20
0.0000000000
11
-1.0000000000
21
0.1666666667
12
-1.0000000000
22
-0.1666666667
13
-1.0000000000
23
-0.1666666667
0
ENDBLK
8
0
6
BYBLOCK
62
0
0
ENDSEC
0
SECTION
2
ENTITIES
0
POLYLINE
8
0
62
2
6
CONTINUOUS
66
1
70
1
0
VERTEX
8
0
62
2
6
CONTINUOUS
10
33.1015559674
20
2.7522448979
0
VERTEX
8
0
62
2
6
CONTINUOUS
10
32.9861199674
20
2.7522448979
0
VERTEX
8
0
62
2
6
CONTINUOUS
10
32.9861199674
20
2.9466198979
0
VERTEX
8
0
62
2
6
CONTINUOUS
10
33.0261199674
20
2.9466198979
0
VERTEX
8
0
62
2
6
CONTINUOUS
10
33.0261199674
20
2.7922448979
0
VERTEX
8
0
62
2
6
CONTINUOUS
10
33.1016409674
20
2.7922448979
0
VERTEX
8
0
62
2
6
CONTINUOUS
10
33.1811849565
20
2.7922448979
0
VERTEX
8
0
62
2
6
CONTINUOUS
10
33.1712259891
20
2.7805086583
0
VERTEX
8
0
62
2
6
CONTINUOUS
10
33.1561985351
20
2.7684941380
0
VERTEX
8
0
62
2
6
CONTINUOUS
10
33.1391483605
20
2.7595798453
0
VERTEX
8
0
62
2
6
CONTINUOUS
10
33.1207066167
20
2.7540957633
0
VERTEX
8
0
62
2
6
CONTINUOUS
10
33.1015559674
20
2.7522448979
0
SEQEND
0
POLYLINE
8
0
62
2
6
CONTINUOUS
66
1
70
1
0
VERTEX
8
0
62
2
6
CONTINUOUS
10
32.9861199674
20
2.9466198979
0
VERTEX
8
0
62
2
6
CONTINUOUS
10
32.9861199674
20
2.9866198979
0
VERTEX
8
0
62
2
6
CONTINUOUS
10
33.0945189674
20
2.9866198979
0
VERTEX
8
0
62
2
6
CONTINUOUS
10
33.1133221436
20
2.9848366933
0
VERTEX
8
0
62
2
6
CONTINUOUS
10
33.1314545400
20
2.9795492357
0
VERTEX
8
0
62
2
6
CONTINUOUS
10
33.1482693060
20
2.9709466401
0
VERTEX
8
0
62
2
6
CONTINUOUS
10
33.1631665958
20
2.9593357933
0
VERTEX
8
0
62
2
6
CONTINUOUS
10
33.1756149674
20
2.9451308979
0
VERTEX
8
0
62
2
6
CONTINUOUS
10
33.1880334779
20
2.9244288232
0
VERTEX
8
0
62
2
6
CONTINUOUS
10
33.1967857491
20
2.9019301352
0
VERTEX
8
0
62
2
6
CONTINUOUS
10
33.2016209721
20
2.8782782043
0
VERTEX
8
0
62
2
6
CONTINUOUS
10
33.2024008151
20
2.8541496929
0
VERTEX
8
0
62
2
6
CONTINUOUS
10
33.1991029674
20
2.8302348979
0
VERTEX
8
0
62
2
6
CONTINUOUS
10
33.1930830989
20
2.8119611021
0
VERTEX
8
0
62
2
6
CONTINUOUS
10
33.1836744465
20
2.7951786610
0
VERTEX
8
0
62
2
6
CONTINUOUS
10
33.1811849565
20
2.7922448979
0
VERTEX
8
0
62
2
6
CONTINUOUS
10
33.1016409674
20
2.7922448979
0
VERTEX
8
0
62
2
6
CONTINUOUS
10
33.1150275925
20
2.7937573072
0
VERTEX
8
0
62
2
6
CONTINUOUS
10
33.1277393491
20
2.7982182890
0
VERTEX
8
0
62
2
6
CONTINUOUS
10
33.1391353912
20
2.8054029490
0
VERTEX
8
0
62
2
6
CONTINUOUS
10
33.1486412029
20
2.8149490823
0
VERTEX
8
0
62
2
6
CONTINUOUS
10
33.1557775614
20
2.8263754335
0
VERTEX
8
0
62
2
6
CONTINUOUS
10
33.1601849674
20
2.8391058979
0
VERTEX
8
0
62
2
6
CONTINUOUS
10
33.1626755570
20
2.8606248271
0
VERTEX
8
0
62
2
6
CONTINUOUS
10
33.1606019649
20
2.8821879337
0
VERTEX
8
0
62
2
6
CONTINUOUS
10
33.1540562508
20
2.9028378968
0
VERTEX
8
0
62
2
6
CONTINUOUS
10
33.1433289674
20
2.9216578979
0
VERTEX
8
0
62
2
6
CONTINUOUS
10
33.1337501369
20
2.9321063755
0
VERTEX
8
0
62
2
6
CONTINUOUS
10
33.1219874892
20
2.9400161666
0
VERTEX
8
0
62
2
6
CONTINUOUS
10
33.1086975199
20
2.9449458108
0
VERTEX
8
0
62
2
6
CONTINUOUS
10
33.0946219674
20
2.9466198979
0
VERTEX
8
0
62
2
6
CONTINUOUS
10
33.0261199674
20
2.9466198979
0
VERTEX
8
0
62
2
6
CONTINUOUS
10
32.9861199674
20
2.9466198979
0
SEQEND
0
TEXT
8
0
62
2
6
CONTINUOUS
10
28.9222000000
20
3.0867005000
40
0.0750000000
1
DRAWN
51
0.0000187240
72
5
11
29.3122000000
21
3.0867005000
0
TEXT
8
0
62
2
6
CONTINUOUS
10
33.1193750000
20
0.8796870000
40
0.0750000000
1
SHT
51
0.0000187240
72
5
11
33.3308750000
21
0.8796870000
0
TEXT
8
0
62
2
6
CONTINUOUS
10
27.7596214221
20
3.6314747277
40
0.0900000000
1
GEOMETRIC DIMENSIONING AND TOLERANCING PER ANSI Y14.5M-1982
51
0.0000187240
72
5
11
33.2289213069
21
3.6314747277
0
TEXT
8
0
62
2
6
CONTINUOUS
10
31.9329880000
20
2.5945550000
40
0.0900000000
1
PRO/E
51
0.0000187240
72
5
11
32.2929880000
21
2.5945550000
0
TEXT
8
0
62
2
6
CONTINUOUS
10
32.9660617674
20
3.0568889018
40
0.0750000000
1
DWG
51
0.0000187240
72
5
11
33.1910617674
21
3.0568889018
0
TEXT
8
0
62
2
6
CONTINUOUS
10
29.1260150000
20
2.5897100000
40
0.0900000000
1
DO NOT SCALE DRAWING
51
0.0000187240
72
5
11
31.2860150000
21
2.5897100000
0
TEXT
8
0
62
2
6
CONTINUOUS
10
28.9334570000
20
1.9312025000
40
0.0750000000
1
KOHLER CO. KOHLER, WISCONSIN 53044
51
0.0000187240
72
5
11
31.5344570000
21
1.9312025000
0
TEXT
8
0
62
2
6
CONTINUOUS
10
31.7163760000
20
2.3739645000
40
0.0750000000
1
THIRD ANGLE PROJECTION
51
0.0000187240
72
5
11
33.3663760000
21
2.3739645000
0
TEXT
8
0
62
2
6
CONTINUOUS
10
27.5796880000
20
1.5875000000
40
0.0625000000
1
THIS DRAWING IN DESIGN
51
0.0000187240
72
5
11
28.8515630000
21
1.5875000000
0
TEXT
8
0
62
2
6
CONTINUOUS
10
27.5796880000
20
1.4718750000
40
0.0625000000
1
AND DETAILS IS THE PROP-
51
0.0000187240
72
5
11
28.8546880000
21
1.4718750000
0
TEXT
8
0
62
2
6
CONTINUOUS
10
32.9241803700
20
2.5989856239
40
0.0750000000
1
SIZE
51
0.0000187240
72
5
11
33.2241803700
21
2.5989856239
0
TEXT
8
0
62
2
6
CONTINUOUS
10
27.5796880000
20
1.3568750000
40
0.0625000000
1
ERTY OF KOHLER CO. 
51
0.0000187240
72
5
11
28.7671880000
21
1.3568750000
0
TEXT
8
0
62
2
6
CONTINUOUS
10
27.5796880000
20
0.8968750000
40
0.0625000000
1
ALL RIGHTS OF DESIGN
51
0.0000187240
72
5
11
28.8296880000
21
0.8968750000
0
TEXT
8
0
62
2
6
CONTINUOUS
10
27.5796880000
20
0.7818750000
40
0.0625000000
1
OR INVENTION ARE
51
0.0000187240
72
5
11
28.5796880000
21
0.7818750000
0
TEXT
8
0
62
2
6
CONTINUOUS
10
27.5796880000
20
0.6668750000
40
0.0625000000
1
RESERVED.
51
0.0000187240
72
5
11
28.1421880000
21
0.6668750000
0
TEXT
8
0
62
2
6
CONTINUOUS
10
27.5796880000
20
1.2450000000
40
0.0625000000
1
AND MAY NOT BE USED
51
0.0000187240
72
5
11
28.7671880000
21
1.2450000000
0
TEXT
8
0
62
2
6
CONTINUOUS
10
27.5796880000
20
1.1300000000
40
0.0625000000
1
EXCEPT IN CONNECTION
51
0.0000187240
72
5
11
28.8296880000
21
1.1300000000
0
TEXT
8
0
62
2
6
CONTINUOUS
10
27.5796880000
20
1.0118750000
40
0.0625000000
1
WITH KOHLER CO. WORK.
51
0.0000187240
72
5
11
28.8921880000
21
1.0118750000
0
TEXT
8
0
62
2
6
CONTINUOUS
10
28.9326500000
20
0.8819240000
40
0.0750000000
1
DWG. NO.
51
0.0000187240
72
5
11
29.4126500000
21
0.8819240000
0
TEXT
8
0
62
2
6
CONTINUOUS
10
28.9415910000
20
1.7356175000
40
0.0750000000
1
DESCRIPTION
51
0.0000187240
72
5
11
29.8078412400
21
1.7356175000
0
TEXT
8
0
62
2
6
CONTINUOUS
10
29.9623360000
20
3.0887475000
40
0.0750000000
1
DATE
51
0.0000187240
72
5
11
30.2893360000
21
3.0887475000
0
TEXT
8
0
62
2
6
CONTINUOUS
10
31.0110240000
20
3.0874145000
40
0.0750000000
1
CHECKED
51
0.0000187240
72
5
11
31.5307737600
21
3.0874145000
0
TEXT
8
0
62
2
6
CONTINUOUS
10
32.0085190000
20
3.0890595000
40
0.0750000000
1
DATE
51
0.0000187240
72
5
11
32.3355190000
21
3.0890595000
0
TEXT
8
0
62
2
6
CONTINUOUS
10
28.9178380000
20
3.4333065000
40
0.0750000000
1
APPROVED
51
0.0000187240
72
5
11
29.5598380000
21
3.4333065000
0
TEXT
8
0
62
2
6
CONTINUOUS
10
31.0153153210
20
3.4296382561
40
0.0750000000
1
DATE
51
0.0000187240
72
5
11
31.3423153210
21
3.4296382561
0
TEXT
8
0
62
2
6
CONTINUOUS
10
27.7205000000
20
3.3859380000
40
0.0750000000
1
TOLERANCES
51
0.0000187240
72
5
11
28.6430000000
21
3.3859380000
0
TEXT
8
0
62
2
6
CONTINUOUS
10
32.7184270000
20
3.4332915000
40
0.0750000000
1
SCALE
51
0.0000187240
72
5
11
33.1196745579
21
3.4332915000
0
TEXT
8
0
62
2
6
CONTINUOUS
10
27.9701000000
20
3.2453130000
40
0.0750000000
1
UNLESS
51
0.0000187240
72
5
11
28.4246000000
21
3.2453130000
0
TEXT
8
0
62
2
6
CONTINUOUS
10
27.8381000000
20
3.1046880000
40
0.0750000000
1
OTHERWISE
51
0.0000187240
72
5
11
28.5401000000
21
3.1046880000
0
TEXT
8
0
62
2
6
CONTINUOUS
10
27.8417000000
20
2.9640630000
40
0.0750000000
1
SPECIFIED
51
0.0000187240
72
5
11
28.5369500000
21
2.9640630000
0
TEXT
8
0
62
2
6
CONTINUOUS
10
23.2195310000
20
0.9331255000
40
0.0900000000
1
SHT
51
0.0000187240
72
5
11
23.4733315760
21
0.9331255000
0
TEXT
8
0
62
2
6
CONTINUOUS
10
23.8375000000
20
0.9331255000
40
0.0900000000
1
SYM
51
0.0000187240
72
5
11
24.1075000000
21
0.9331255000
0
TEXT
8
0
62
2
6
CONTINUOUS
10
24.4570310000
20
0.9331255000
40
0.0900000000
1
BY
51
0.0000187240
72
5
11
24.6316315760
21
0.9331255000
0
TEXT
8
0
62
2
6
CONTINUOUS
10
25.3628910000
20
0.9331255000
40
0.0900000000
1
DESCRIPTION
51
0.0000187240
72
5
11
26.4023912880
21
0.9331255000
0
TEXT
8
0
62
2
6
CONTINUOUS
10
27.0578130000
20
0.9331255000
40
0.0900000000
1
DATE
51
0.0000187240
72
5
11
27.4502130000
21
0.9331255000
0
TEXT
8
0
62
2
6
CONTINUOUS
10
24.0343130000
20
0.6753130000
40
0.0900000000
1
DWG REVISION RECORD
51
0.0000187240
72
5
11
26.3941130000
21
0.6753130000
0
TEXT
8
0
62
2
6
CONTINUOUS
10
23.6661250000
20
3.6130000000
40
0.0900000000
1
ALL DIMENSIONS IN:
51
0.0000187240
72
5
11
25.5777250000
21
3.6130000000
0
TEXT
8
0
62
2
6
CONTINUOUS
10
26.0488130000
20
3.6136250000
40
0.0900000000
1
Inches
51
0.0000187240
72
5
11
26.4700130000
21
3.6136250000
0
TEXT
8
0
62
2
6
CONTINUOUS
10
32.0007510000
20
3.4287370000
40
0.0750000000
1
PLOT DATE
51
0.0000187240
72
5
11
32.6251257600
21
3.4287370000
0
TEXT
8
0
62
2
6
CONTINUOUS
10
31.7146686430
20
1.7472696872
40
0.0750000000
1
PART
51
0.0000187240
72
5
11
31.9546686430
21
1.7472696872
0
TEXT
8
0
62
2
6
CONTINUOUS
10
31.9546686430
20
1.7472696872
40
0.0750000000
1
 NAME:
51
0.0000187240
72
5
11
32.3146686430
21
1.7472696872
0
TEXT
8
0
6
CONTINUOUS
10
33.6625000000
20
2.6250000000
40
0.2500000000
1
A
72
5
11
33.8625000000
21
2.6250000000
0
TEXT
8
0
6
CONTINUOUS
10
33.6625000000
20
8.1250000000
40
0.2500000000
1
B
72
5
11
33.8625000000
21
8.1250000000
0
TEXT
8
0
6
CONTINUOUS
10
33.6625000000
20
13.6250000000
40
0.2500000000
1
C
72
5
11
33.8625000000
21
13.6250000000
0
TEXT
8
0
6
CONTINUOUS
10
33.6625000000
20
19.1250000000
40
0.2500000000
1
D
72
5
11
33.8625000000
21
19.1250000000
0
TEXT
8
0
6
CONTINUOUS
10
2.0250000000
20
0.1687500000
40
0.2500000000
1
8
72
5
11
2.2250000000
21
0.1687500000
0
TEXT
8
0
6
CONTINUOUS
10
6.2750000000
20
0.1687500000
40
0.2500000000
1
7
72
5
11
6.4750000000
21
0.1687500000
0
TEXT
8
0
6
CONTINUOUS
10
10.5250000000
20
0.1687500000
40
0.2500000000
1
6
72
5
11
10.7250000000
21
0.1687500000
0
TEXT
8
0
6
CONTINUOUS
10
14.7750000000
20
0.1687500000
40
0.2500000000
1
5
72
5
11
14.9750000000
21
0.1687500000
0
TEXT
8
0
6
CONTINUOUS
10
19.0250000000
20
0.1687500000
40
0.2500000000
1
4
72
5
11
19.2250000000
21
0.1687500000
0
TEXT
8
0
6
CONTINUOUS
10
23.2750000000
20
0.1687500000
40
0.2500000000
1
3
72
5
11
23.4750000000
21
0.1687500000
0
TEXT
8
0
6
CONTINUOUS
10
27.5250000000
20
0.1687500000
40
0.2500000000
1
2
72
5
11
27.7250000000
21
0.1687500000
0
TEXT
8
0
6
CONTINUOUS
10
31.7750000000
20
0.1687500000
40
0.2500000000
1
1
72
5
11
31.9750000000
21
0.1687500000
0
INSERT
8
0
62
2
6
CONTINUOUS
2
KOHLER_BL0
10
30.2123715000
20
2.2616460000
0
INSERT
8
DEFAULT_2
62
8
6
HIDDEN
2
C_ARROW_BL1
10
17.0000000000
20
21.7750000000
0
INSERT
8
DEFAULT_2
62
8
6
HIDDEN
2
C_ARROW_BL2
10
0.3375000000
20
11.0000000000
0
INSERT
8
DEFAULT_2
62
8
6
HIDDEN
2
C_ARROW_BL3
10
17.0000000000
20
0.4000000000
0
INSERT
8
DEFAULT_2
62
8
6
HIDDEN
2
C_ARROW_BL4
10
33.7125000000
20
11.0000000000
0
DIMENSION
8
0
62
2
6
CONTINUOUS
2
*D0
10
5.3909902597
20
12.6285532715
11
10.3183811021
21
12.5113657715
70
128
13
19.8909902597
23
12.5035532715
14
5.3909902597
24
12.5035532715
50
180.000000
0
DIMENSION
8
0
62
2
6
CONTINUOUS
2
*D1
10
12.6619089080
20
5.3892857143
11
12.6619089080
21
14.5036831210
70
128
13
12.7869089080
23
19.8892857143
14
12.7869089080
24
5.3892857143
50
270.000000
0
LINE
8
0
62
2
6
CONTINUOUS
10
33.5250002292
20
0.5875000314
11
27.5250002292
21
0.5875000314
0
LINE
8
0
62
2
6
CONTINUOUS
10
33.5250002292
20
0.5875000314
11
33.5250002292
21
3.7875000314
0
LINE
8
0
62
2
6
CONTINUOUS
10
33.5250002292
20
1.0175000314
11
28.8950002292
21
1.0175000314
0
LINE
8
0
62
2
6
CONTINUOUS
10
33.5250002292
20
1.7175000314
11
31.6750002292
21
1.7175000314
0
LINE
8
0
62
2
6
CONTINUOUS
10
28.8950002292
20
1.7175000314
11
27.5250002292
21
1.7175000314
0
LINE
8
0
62
2
6
CONTINUOUS
10
33.5250002292
20
1.8575000314
11
28.8950002292
21
1.8575000314
0
LINE
8
0
62
2
6
CONTINUOUS
10
33.5250002292
20
2.5175000314
11
28.8950002292
21
2.5175000314
0
LINE
8
0
62
2
6
CONTINUOUS
10
32.6850002292
20
2.7375000314
11
28.8950002292
21
2.7375000314
0
LINE
8
0
62
2
6
CONTINUOUS
10
33.5250002292
20
3.2075000314
11
28.8950002292
21
3.2075000314
0
LINE
8
0
62
2
6
CONTINUOUS
10
33.5250002292
20
3.5375000314
11
27.5250002292
21
3.5375000314
0
LINE
8
0
62
2
6
CONTINUOUS
10
33.5250002292
20
3.7875000314
11
27.5250002292
21
3.7875000314
0
LINE
8
0
62
2
6
CONTINUOUS
10
33.0150002292
20
0.5875000314
11
33.0150002292
21
1.0175000314
0
LINE
8
0
62
2
6
CONTINUOUS
10
32.6850002292
20
2.5175000314
11
32.6850002292
21
3.5375000314
0
LINE
8
0
62
2
6
CONTINUOUS
10
31.9650002292
20
2.7375000314
11
31.9650002292
21
3.5375000314
0
LINE
8
0
62
2
6
CONTINUOUS
10
31.6750002292
20
1.7175000314
11
31.6750002292
21
2.7375000314
0
LINE
8
0
62
2
6
CONTINUOUS
10
30.9950002292
20
2.7375000314
11
30.9950002292
21
3.5375000314
0
LINE
8
0
62
2
6
CONTINUOUS
10
29.9150002292
20
2.7375000314
11
29.9150002292
21
3.2075000314
0
LINE
8
0
62
2
6
CONTINUOUS
10
28.8950002292
20
0.5875000314
11
28.8950002292
21
3.5375000314
0
LINE
8
0
62
2
6
CONTINUOUS
10
27.5250002292
20
0.5875000314
11
27.5250002292
21
3.7875000314
0
TEXT
8
0
62
2
6
CONTINUOUS
10
33.0300002292
20
0.6375000314
40
0.1000000000
1
1
72
5
11
33.1100002292
21
0.6375000314
0
TEXT
8
0
62
2
6
CONTINUOUS
10
33.1100002292
20
0.6375000314
40
0.1000000000
1
 of 
72
5
11
33.4300002292
21
0.6375000314
0
TEXT
8
0
62
2
6
CONTINUOUS
10
33.4300002292
20
0.6375000314
40
0.1000000000
1
1
72
5
11
33.5100002292
21
0.6375000314
0
TEXT
8
0
62
2
6
CONTINUOUS
10
30.0910002292
20
0.6825000314
40
0.2400000000
1
1033071-7
72
5
11
31.8190002292
21
0.6825000314
0
TEXT
8
0
62
2
6
CONTINUOUS
10
29.8660002292
20
1.2475000314
40
0.2400000000
1
TEMPLATE, SINK
72
5
11
32.5540002292
21
1.2475000314
0
TEXT
8
0
62
2
6
CONTINUOUS
10
32.7650002292
20
1.7375000314
40
0.1000000000
1
1033071-7
72
5
11
33.4850002292
21
1.7375000314
0
TEXT
8
0
62
2
6
CONTINUOUS
10
27.5650002292
20
1.9175000314
40
0.1000000000
1
    ANG %%p 
72
5
11
28.4016668959
21
1.9175000314
0
TEXT
8
0
62
2
6
CONTINUOUS
10
28.4016668959
20
1.9175000314
40
0.1000000000
1
3.0
72
5
11
28.6416668959
21
1.9175000314
0
TEXT
8
0
62
2
6
CONTINUOUS
10
27.5650002292
20
2.1375000314
40
0.1000000000
1
     .X %%p
72
5
11
28.3216668959
21
2.1375000314
0
TEXT
8
0
62
2
6
CONTINUOUS
10
28.3216668959
20
2.1375000314
40
0.1000000000
1
 
72
5
11
28.4016668959
21
2.1375000314
0
TEXT
8
0
62
2
6
CONTINUOUS
10
28.4016668959
20
2.1375000314
40
0.1000000000
1
0.1
72
5
11
28.6416668959
21
2.1375000314
0
TEXT
8
0
62
2
6
CONTINUOUS
10
27.5650002292
20
2.3575000314
40
0.1000000000
1
    .XX %%p 
72
5
11
28.4016668959
21
2.3575000314
0
TEXT
8
0
62
2
6
CONTINUOUS
10
28.4016668959
20
2.3575000314
40
0.1000000000
1
0.02
72
5
11
28.7216668959
21
2.3575000314
0
TEXT
8
0
62
2
6
CONTINUOUS
10
27.5650002292
20
2.5775000314
40
0.1000000000
1
   .XXX %%p 
72
5
11
28.4016668959
21
2.5775000314
0
TEXT
8
0
62
2
6
CONTINUOUS
10
28.4016668959
20
2.5775000314
40
0.1000000000
1
0.010
72
5
11
28.8016668959
21
2.5775000314
0
TEXT
8
0
62
2
6
CONTINUOUS
10
30.1350002292
20
2.7875000314
40
0.1000000000
1
09.09.03
72
5
11
30.7750002292
21
2.7875000314
0
TEXT
8
0
62
2
6
CONTINUOUS
10
29.2850002292
20
2.7875000314
40
0.1000000000
1
DEL
72
5
11
29.5250002292
21
2.7875000314
0
TEXT
8
0
62
2
6
CONTINUOUS
10
32.9050002292
20
3.2575000314
40
0.1000000000
1
1.000
72
5
11
33.3050002292
21
3.2575000314
0
TEXT
8
0
62
2
6
CONTINUOUS
10
32.0050002292
20
3.2575000314
40
0.1000000000
1
09.09.03
72
5
11
32.6450002292
21
3.2575000314
0
TEXT
8
0
62
2
6
CONTINUOUS
10
31.1600002292
20
3.2575000314
40
0.1000000000
1
09.09.03
72
5
11
31.8000002292
21
3.2575000314
0
TEXT
8
0
62
2
6
CONTINUOUS
10
29.4650002292
20
3.2575000314
40
0.1000000000
1
PAUL LEFEBER
72
5
11
30.4250002292
21
3.2575000314
0
LINE
8
0
62
2
6
CONTINUOUS
10
27.5250004903
20
0.5875000178
11
23.0250004903
21
0.5875000178
0
LINE
8
0
62
2
6
CONTINUOUS
10
27.5250004903
20
0.5875000178
11
27.5250004903
21
3.7875000178
0
LINE
8
0
62
2
6
CONTINUOUS
10
27.5250004903
20
0.8475000178
11
23.0250004903
21
0.8475000178
0
LINE
8
0
62
2
6
CONTINUOUS
10
27.5250004903
20
1.1075000178
11
23.0250004903
21
1.1075000178
0
LINE
8
0
62
2
6
CONTINUOUS
10
27.5250004903
20
1.3505000178
11
23.0250004903
21
1.3505000178
0
LINE
8
0
62
2
6
CONTINUOUS
10
27.5250004903
20
1.5935000178
11
23.0250004903
21
1.5935000178
0
LINE
8
0
62
2
6
CONTINUOUS
10
27.5250004903
20
1.8365000178
11
23.0250004903
21
1.8365000178
0
LINE
8
0
62
2
6
CONTINUOUS
10
27.5250004903
20
2.0795000178
11
23.0250004903
21
2.0795000178
0
LINE
8
0
62
2
6
CONTINUOUS
10
27.5250004903
20
2.3225000178
11
23.0250004903
21
2.3225000178
0
LINE
8
0
62
2
6
CONTINUOUS
10
27.5250004903
20
2.5655000178
11
23.0250004903
21
2.5655000178
0
LINE
8
0
62
2
6
CONTINUOUS
10
27.5250004903
20
2.8085000178
11
23.0250004903
21
2.8085000178
0
LINE
8
0
62
2
6
CONTINUOUS
10
27.5250004903
20
3.0515000178
11
23.0250004903
21
3.0515000178
0
LINE
8
0
62
2
6
CONTINUOUS
10
27.5250004903
20
3.2945000178
11
23.0250004903
21
3.2945000178
0
LINE
8
0
62
2
6
CONTINUOUS
10
27.5250004903
20
3.5375000178
11
23.0250004903
21
3.5375000178
0
LINE
8
0
62
2
6
CONTINUOUS
10
27.5250004903
20
3.7875000178
11
23.0250004903
21
3.7875000178
0
LINE
8
0
62
2
6
CONTINUOUS
10
26.8750004903
20
0.8475000178
11
26.8750004903
21
3.5375000178
0
LINE
8
0
62
2
6
CONTINUOUS
10
24.8050004903
20
0.8475000178
11
24.8050004903
21
3.5375000178
0
LINE
8
0
62
2
6
CONTINUOUS
10
24.2450004903
20
0.8475000178
11
24.2450004903
21
3.5375000178
0
LINE
8
0
62
2
6
CONTINUOUS
10
23.6150004903
20
0.8475000178
11
23.6150004903
21
3.5375000178
0
LINE
8
0
62
2
6
CONTINUOUS
10
23.0250004903
20
0.5875000178
11
23.0250004903
21
3.7875000178
0
TEXT
8
0
62
2
6
CONTINUOUS
10
26.8800004903
20
1.1790000178
40
0.1000000000
1
09.09.03
72
5
11
27.5200004903
21
1.1790000178
0
TEXT
8
0
62
2
6
CONTINUOUS
10
25.4800004903
20
1.1790000178
40
0.1000000000
1
SEE PCI #
72
5
11
26.2000004903
21
1.1790000178
0
TEXT
8
0
62
2
6
CONTINUOUS
10
24.4050004903
20
1.1790000178
40
0.1000000000
1
DEL
72
5
11
24.6450004903
21
1.1790000178
0
TEXT
8
0
62
2
6
CONTINUOUS
10
23.8900004903
20
1.1790000178
40
0.1000000000
1
A
72
5
11
23.9700004903
21
1.1790000178
0
TEXT
8
0
62
2
6
CONTINUOUS
10
23.2800004903
20
1.1790000178
40
0.1000000000
1
1
72
5
11
23.3600004903
21
1.1790000178
0
TEXT
8
___NOTE
62
2
6
CONTINUOUS
10
22.2997495726
20
1.9377537415
40
0.1200000000
1
A
72
5
11
22.3957495726
21
1.9377537415
0
TEXT
8
0
62
2
6
CONTINUOUS
10
5.9941539635
20
17.8629833041
40
0.1562500000
1
WHEN PLOTTING TEMPLATE FULL SIZE: 
72
5
11
10.2441539635
21
17.8629833041
0
TEXT
8
0
62
2
6
CONTINUOUS
10
5.9941539635
20
17.6286083041
40
0.1562500000
1
Make sure horizontal and vertical dimensions 
72
5
11
11.6191539635
21
17.6286083041
0
TEXT
8
0
62
2
6
CONTINUOUS
10
5.9941539635
20
17.3942333041
40
0.1562500000
1
match the dimensions labeled on the template.
72
5
11
11.6191539635
21
17.3942333041
0
TEXT
8
0
62
2
6
CONTINUOUS
10
5.9941539635
20
17.1598583041
40
0.1562500000
1
 
72
5
11
6.1191539635
21
17.1598583041
0
TEXT
8
0
62
2
6
CONTINUOUS
10
5.9941539635
20
16.9254833041
40
0.1562500000
1
AL TRAZAR LA PLANTILLA A ESCALA,  
72
5
11
10.2441539635
21
16.9254833041
0
TEXT
8
0
62
2
6
CONTINUOUS
10
5.9941539635
20
16.6911083041
40
0.1562500000
1
asegúrese de que las dimensiones horizontales 
72
5
11
11.7441539635
21
16.6911083041
0
TEXT
8
0
62
2
6
CONTINUOUS
10
5.9941539635
20
16.4567333041
40
0.1562500000
1
y verticales concuerden con las dimensiones 
72
5
11
11.4941539635
21
16.4567333041
0
TEXT
8
0
62
2
6
CONTINUOUS
10
5.9941539635
20
16.2223583041
40
0.1562500000
1
marcadas en la plantilla.
72
5
11
9.1191539635
21
16.2223583041
0
TEXT
8
0
62
2
6
CONTINUOUS
10
5.9941539635
20
15.9879833041
40
0.1562500000
1
 
72
5
11
6.1191539635
21
15.9879833041
0
TEXT
8
0
62
2
6
CONTINUOUS
10
5.9941539635
20
15.7536083041
40
0.1562500000
1
AU MOMENT DE TRACER LA DÉCOUPE À L'ÉCHELLE,  
72
5
11
11.6191539635
21
15.7536083041
0
TEXT
8
0
62
2
6
CONTINUOUS
10
5.9941539635
20
15.5192333041
40
0.1562500000
1
Assurez vos que les dimensions horizotales et 
72
5
11
11.7441539635
21
15.5192333041
0
TEXT
8
0
62
2
6
CONTINUOUS
10
5.9941539635
20
15.2848583041
40
0.1562500000
1
verticales correspondent avec les dimensions 
72
5
11
11.6191539635
21
15.2848583041
0
TEXT
8
0
62
2
6
CONTINUOUS
10
5.9941539635
20
15.0504833041
40
0.1562500000
1
du plan.
72
5
11
6.9941539635
21
15.0504833041
0
TEXT
8
0
62
2
6
CONTINUOUS
10
7.0252451575
20
4.9021926490
40
0.0705000000
1
1033071-7-A
72
5
11
7.6456451575
21
4.9021926490
0
TEXT
8
0
62
2
6
CONTINUOUS
10
7.0479119103
20
5.5935286096
40
0.0705000000
1
1033071-7-A
72
5
11
7.6683119103
21
5.5935286096
0
TEXT
8
0
62
2
6
CONTINUOUS
10
17.2077070998
20
5.6289998329
40
0.0355957500
1
C
72
5
11
17.2433028498
21
5.6289998329
0
TEXT
8
0
62
2
6
CONTINUOUS
10
17.2806375123
20
5.6174229315
40
0.0594840000
1
2003 KOHLER CO.
72
5
11
18.1728975123
21
5.6174229315
0
TEXT
8
0
62
2
6
CONTINUOUS
10
12.9530808843
20
17.1289954475
40
0.1875000000
1
CUT-OUT TEMPLATE
72
5
11
15.3530808843
21
17.1289954475
0
TEXT
8
0
62
2
6
CONTINUOUS
10
12.9530808843
20
16.8477454475
40
0.1875000000
1
15 X 15 SINGLE BOWL SINK
72
5
11
16.5530808843
21
16.8477454475
0
TEXT
8
0
62
2
6
CONTINUOUS
10
12.9530808843
20
16.5664954475
40
0.1875000000
1
PLANTILLA DE RECORTE
72
5
11
15.9530808843
21
16.5664954475
0
TEXT
8
0
62
2
6
CONTINUOUS
10
12.9530808843
20
16.2852454475
40
0.1875000000
1
15"X15" (38 CM X 38 CM) FREGADERO DE UNA PILA
72
5
11
19.7030808843
21
16.2852454475
0
TEXT
8
0
62
2
6
CONTINUOUS
10
12.9530808843
20
16.0039954475
40
0.1875000000
1
PLAN DE DÉCOUPE
72
5
11
15.2030808843
21
16.0039954475
0
TEXT
8
0
62
2
6
CONTINUOUS
10
12.9530808843
20
15.7227454475
40
0.1875000000
1
15"X15" (38 CM X 38 CM) ÉVIER Á UN BAC
72
5
11
18.6530808843
21
15.7227454475
0
SOLID
8
0
62
2
6
CONTINUOUS
10
5.3909902597
20
10.0101932306
11
5.4824659315
21
10.1768216015
12
5.5315629344
22
10.1381468771
13
5.5315629344
23
10.1381468771
0
TEXT
8
0
62
2
6
CONTINUOUS
10
6.5584326494
20
11.0967480666
40
0.1562500000
1
CUT ALONG THIS LINE
72
5
11
8.9334326494
21
11.0967480666
0
TEXT
8
0
62
2
6
CONTINUOUS
10
6.5584326494
20
10.8623730666
40
0.1562500000
1
CORTE A LO LARGO DE ESTA LÍNEA
72
5
11
10.3084326494
21
10.8623730666
0
TEXT
8
0
62
2
6
CONTINUOUS
10
6.5584326494
20
10.6279980666
40
0.1562500000
1
DÉCOUPEZ LE LONG DE CETTE LIGNE
72
5
11
10.4334326494
21
10.6279980666
0
SOLID
8
0
62
2
6
CONTINUOUS
10
5.1409902597
20
8.4387998011
11
5.2414343618
21
8.6001807010
12
5.2883447022
22
8.5588809436
13
5.2883447022
23
8.5588809436
0
TEXT
8
0
62
2
6
CONTINUOUS
10
6.5954066124
20
9.7287114338
40
0.1562500000
1
RIM OF LAVATORY
72
5
11
8.4704066124
21
9.7287114338
0
TEXT
8
0
62
2
6
CONTINUOUS
10
6.5954066124
20
9.4943364338
40
0.1562500000
1
REBORDE DEL LAVABO
72
5
11
8.8454066124
21
9.4943364338
0
TEXT
8
0
62
2
6
CONTINUOUS
10
6.5954066124
20
9.2599614338
40
0.1562500000
1
REBORD DU LAVABO
72
5
11
8.5954066124
21
9.2599614338
0
LINE
8
0
62
7
6
CONTINUOUS
10
0.0000000000
20
0.0000000000
11
0.0000000000
21
22.0000000000
0
LINE
8
DEFAULT_2
62
8
6
HIDDEN
10
0.1500000000
20
11.0234375000
11
0.1500000000
21
10.9765625000
0
LINE
8
DEFAULT_2
62
8
6
HIDDEN
10
0.3375000000
20
11.0937500000
11
0.3375000000
21
11.0234375000
0
LINE
8
DEFAULT_2
62
8
6
HIDDEN
10
0.3375000000
20
10.9765625000
11
0.3375000000
21
10.9062500000
0
LINE
8
0
6
CONTINUOUS
10
0.5250000000
20
0.5875000000
11
0.5250000000
21
21.5875000000
0
LINE
8
0
6
CONTINUOUS
10
4.2500000000
20
0.5875000000
11
4.2500000000
21
0.0000000000
0
LINE
8
0
62
2
6
CONTINUOUS
10
33.0171880000
20
2.2750000000
11
32.6734380000
21
2.2125000000
0
LINE
8
0
62
7
6
CONTINUOUS
10
0.0000000000
20
0.0000000000
11
34.0000000000
21
0.0000000000
0
LINE
8
DEFAULT_2
62
8
6
HIDDEN
10
16.9765625000
20
0.2125000000
11
17.0234375000
21
0.2125000000
0
LINE
8
DEFAULT_2
62
8
6
HIDDEN
10
16.9062500000
20
0.4000000000
11
16.9765625000
21
0.4000000000
0
LINE
8
DEFAULT_2
62
8
6
HIDDEN
10
17.0234375000
20
0.4000000000
11
17.0937500000
21
0.4000000000
0
LINE
8
0
6
CONTINUOUS
10
33.5250000000
20
0.5875000000
11
0.5250000000
21
0.5875000000
0
LINE
8
0
6
CONTINUOUS
10
8.5000000000
20
0.5875000000
11
8.5000000000
21
0.0000000000
0
LINE
8
0
62
2
6
CONTINUOUS
10
29.5281840000
20
2.1210210000
11
29.5951840000
21
2.1210210000
0
LINE
8
0
62
2
6
CONTINUOUS
10
29.6923820000
20
2.1210210000
11
29.7781840000
21
2.1210210000
0
LINE
8
0
62
2
6
CONTINUOUS
10
30.0594340000
20
2.1210210000
11
30.1264340000
21
2.1210210000
0
LINE
8
0
62
2
6
CONTINUOUS
10
30.2045590000
20
2.1210210000
11
30.2715590000
21
2.1210210000
0
LINE
8
0
62
2
6
CONTINUOUS
10
30.3028090000
20
2.1210210000
11
30.4590590000
21
2.1210210000
0
LINE
8
0
62
2
6
CONTINUOUS
10
30.4903090000
20
2.1210210000
11
30.6465590000
21
2.1210210000
0
LINE
8
0
62
2
6
CONTINUOUS
10
30.6778090000
20
2.1210210000
11
30.7448090000
21
2.1210210000
0
LINE
8
0
62
2
6
CONTINUOUS
10
30.8199350000
20
2.1210210000
11
30.8965590000
21
2.1210210000
0
LINE
8
0
62
2
6
CONTINUOUS
10
32.0117180000
20
2.1343750000
11
32.3394140000
21
2.1343750000
0
LINE
8
0
62
2
6
CONTINUOUS
10
32.3898290000
20
2.1343750000
11
32.4425360000
21
2.1343750000
0
LINE
8
0
62
2
6
CONTINUOUS
10
32.4952420000
20
2.1343750000
11
33.0681380000
21
2.1343750000
0
LINE
8
0
62
2
6
CONTINUOUS
10
30.3698090000
20
2.1880210000
11
30.4590590000
21
2.1880210000
0
LINE
8
0
62
2
6
CONTINUOUS
10
30.5573090000
20
2.1880210000
11
30.6465590000
21
2.1880210000
0
LINE
8
0
62
2
6
CONTINUOUS
10
30.7448090000
20
2.2303960000
11
30.7592420000
21
2.2303960000
0
LINE
8
0
62
2
6
CONTINUOUS
10
30.5573090000
20
2.2359590000
11
30.6465590000
21
2.2359590000
0
LINE
8
0
62
2
6
CONTINUOUS
10
30.1264340000
20
2.2437710000
11
30.2045590000
21
2.2437710000
0
LINE
8
0
62
2
6
CONTINUOUS
10
30.7781840000
20
2.2864590000
11
30.7448090000
21
2.2864590000
0
LINE
8
0
62
2
6
CONTINUOUS
10
30.5573090000
20
2.2873340000
11
30.6465590000
21
2.2873340000
0
LINE
8
0
62
2
6
CONTINUOUS
10
30.1264340000
20
2.3107710000
11
30.2045590000
21
2.3107710000
0
LINE
8
0
62
2
6
CONTINUOUS
10
30.5573090000
20
2.3352710000
11
30.6465590000
21
2.3352710000
0
LINE
8
0
62
2
6
CONTINUOUS
10
30.7781840000
20
2.3477710000
11
30.7448090000
21
2.3477710000
0
LINE
8
0
62
2
6
CONTINUOUS
10
30.7793710000
20
2.4022710000
11
30.6778090000
21
2.4022710000
0
LINE
8
0
62
2
6
CONTINUOUS
10
29.5281840000
20
2.4022710000
11
29.5951840000
21
2.4022710000
0
LINE
8
0
62
2
6
CONTINUOUS
10
29.6834310000
20
2.4022710000
11
29.7781840000
21
2.4022710000
0
LINE
8
0
62
2
6
CONTINUOUS
10
30.0594340000
20
2.4022710000
11
30.1264340000
21
2.4022710000
0
LINE
8
0
62
2
6
CONTINUOUS
10
30.2045590000
20
2.4022710000
11
30.2715590000
21
2.4022710000
0
LINE
8
0
62
2
6
CONTINUOUS
10
30.3028090000
20
2.4022710000
11
30.3698090000
21
2.4022710000
0
LINE
8
0
62
2
6
CONTINUOUS
10
30.4903090000
20
2.4022710000
11
30.6465590000
21
2.4022710000
0
LINE
8
0
62
2
6
CONTINUOUS
10
32.9861199674
20
2.7522448979
11
33.1015559674
21
2.7522448979
0
LINE
8
0
62
2
6
CONTINUOUS
10
33.0261199674
20
2.7922448979
11
33.1016409674
21
2.7922448979
0
LINE
8
DEFAULT_2
62
8
6
HIDDEN
10
0.3375000000
20
10.9062500000
11
0.5250000000
21
11.0000000000
0
POLYLINE
8
0
62
7
6
CONTINUOUS
66
1
70
0
0
VERTEX
8
0
62
7
6
CONTINUOUS
10
14.7061317894
20
17.6602417023
0
VERTEX
8
0
62
7
6
CONTINUOUS
10
14.7105259693
20
17.6622187983
0
VERTEX
8
0
62
7
6
CONTINUOUS
10
14.7143646225
20
17.6642123496
0
VERTEX
8
0
62
7
6
CONTINUOUS
10
14.7177166240
20
17.6662290105
0
VERTEX
8
0
62
7
6
CONTINUOUS
10
14.7206422056
20
17.6682775163
0
VERTEX
8
0
62
7
6
CONTINUOUS
10
14.7231937434
20
17.6703692797
0
VERTEX
8
0
62
7
6
CONTINUOUS
10
14.7254163504
20
17.6725191332
0
VERTEX
8
0
62
7
6
CONTINUOUS
10
14.7273391431
20
17.6747347056
0
VERTEX
8
0
62
7
6
CONTINUOUS
10
14.7289916397
20
17.6770299733
0
VERTEX
8
0
62
7
6
CONTINUOUS
10
14.7304035068
20
17.6794303219
0
VERTEX
8
0
62
7
6
CONTINUOUS
10
14.7315983105
20
17.6819682906
0
VERTEX
8
0
62
7
6
CONTINUOUS
10
14.7325940047
20
17.6846863335
0
VERTEX
8
0
62
7
6
CONTINUOUS
10
14.7334035362
20
17.6876417623
0
VERTEX
8
0
62
7
6
CONTINUOUS
10
14.7340356241
20
17.6909164223
0
VERTEX
8
0
62
7
6
CONTINUOUS
10
14.7344958297
20
17.6946378517
0
VERTEX
8
0
62
7
6
CONTINUOUS
10
14.7347883434
20
17.6990339542
0
VERTEX
8
0
62
7
6
CONTINUOUS
10
14.7349208033
20
17.7046214474
0
VERTEX
8
0
62
7
6
CONTINUOUS
10
14.7349359560
20
17.7097917023
0
VERTEX
8
0
62
7
6
CONTINUOUS
10
14.7349359560
20
17.8654969106
0
VERTEX
8
0
62
7
6
CONTINUOUS
10
14.7349242346
20
17.8702815083
0
VERTEX
8
0
62
7
6
CONTINUOUS
10
14.7348012733
20
17.8760076206
0
VERTEX
8
0
62
7
6
CONTINUOUS
10
14.7345194427
20
17.8804759024
0
VERTEX
8
0
62
7
6
CONTINUOUS
10
14.7340707466
20
17.8842409174
0
VERTEX
8
0
62
7
6
CONTINUOUS
10
14.7334512953
20
17.8875421746
0
VERTEX
8
0
62
7
6
CONTINUOUS
10
14.7326560432
20
17.8905122141
0
VERTEX
8
0
62
7
6
CONTINUOUS
10
14.7316769166
20
17.8932354756
0
VERTEX
8
0
62
7
6
CONTINUOUS
10
14.7305017109
20
17.8957707761
0
VERTEX
8
0
62
7
6
CONTINUOUS
10
14.7291132909
20
17.8981614967
0
VERTEX
8
0
62
7
6
CONTINUOUS
10
14.7274889704
20
17.9004407493
0
VERTEX
8
0
62
7
6
CONTINUOUS
10
14.7256000163
20
17.9026342377
0
VERTEX
8
0
62
7
6
CONTINUOUS
10
14.7234159313
20
17.9047577822
0
VERTEX
8
0
62
7
6
CONTINUOUS
10
14.7209100934
20
17.9068170777
0
VERTEX
8
0
62
7
6
CONTINUOUS
10
14.7180384370
20
17.9088268415
0
VERTEX
8
0
62
7
6
CONTINUOUS
10
14.7147497148
20
17.9107981788
0
VERTEX
8
0
62
7
6
CONTINUOUS
10
14.7109849307
20
17.9127393332
0
VERTEX
8
0
62
7
6
CONTINUOUS
10
14.7066765810
20
17.9146562856
0
SEQEND
0
POLYLINE
8
0
62
7
6
CONTINUOUS
66
1
70
0
0
VERTEX
8
0
62
7
6
CONTINUOUS
10
15.0680807477
20
17.9146562856
0
VERTEX
8
0
62
7
6
CONTINUOUS
10
15.0636877438
20
17.9126994892
0
VERTEX
8
0
62
7
6
CONTINUOUS
10
15.0598595749
20
17.9107173000
0
VERTEX
8
0
62
7
6
CONTINUOUS
10
15.0565247541
20
17.9087032729
0
VERTEX
8
0
62
7
6
CONTINUOUS
10
15.0536209902
20
17.9066484766
0
VERTEX
8
0
62
7
6
CONTINUOUS
10
15.0510943602
20
17.9045408210
0
VERTEX
8
0
62
7
6
CONTINUOUS
10
15.0499569660
20
17.9034615444
0
VERTEX
8
0
62
7
6
CONTINUOUS
10
15.0488986959
20
17.9023642073
0
VERTEX
8
0
62
7
6
CONTINUOUS
10
15.0470081237
20
17.9001144249
0
VERTEX
8
0
62
7
6
CONTINUOUS
10
15.0453888493
20
17.8977720133
0
VERTEX
8
0
62
7
6
CONTINUOUS
10
15.0440112653
20
17.8953086068
0
VERTEX
8
0
62
7
6
CONTINUOUS
10
15.0428522546
20
17.8926874141
0
VERTEX
8
0
62
7
6
CONTINUOUS
10
15.0418946165
20
17.8898597385
0
VERTEX
8
0
62
7
6
CONTINUOUS
10
15.0411263420
20
17.8867585165
0
VERTEX
8
0
62
7
6
CONTINUOUS
10
15.0405396640
20
17.8832851329
0
VERTEX
8
0
62
7
6
CONTINUOUS
10
15.0401296931
20
17.8792788711
0
VERTEX
8
0
62
7
6
CONTINUOUS
10
15.0398918265
20
17.8744303079
0
VERTEX
8
0
62
7
6
CONTINUOUS
10
15.0398124382
20
17.8679237371
0
VERTEX
8
0
62
7
6
CONTINUOUS
10
15.0398109560
20
17.6465792023
0
SEQEND
0
POLYLINE
8
0
62
7
6
CONTINUOUS
66
1
70
0
0
VERTEX
8
0
62
7
6
CONTINUOUS
10
14.6485349144
20
17.9146562856
0
VERTEX
8
0
62
7
6
CONTINUOUS
10
14.6455082330
20
17.9136981177
0
VERTEX
8
0
62
7
6
CONTINUOUS
10
14.6440941900
20
17.9131499333
0
VERTEX
8
0
62
7
6
CONTINUOUS
10
14.6427443862
20
17.9125575979
0
VERTEX
8
0
62
7
6
CONTINUOUS
10
14.6402303899
20
17.9112455114
0
VERTEX
8
0
62
7
6
CONTINUOUS
10
14.6379445037
20
17.9097657191
0
VERTEX
8
0
62
7
6
CONTINUOUS
10
14.6358677372
20
17.9081180803
0
VERTEX
8
0
62
7
6
CONTINUOUS
10
14.6339841125
20
17.9062983754
0
VERTEX
8
0
62
7
6
CONTINUOUS
10
14.6322808788
20
17.9042982889
0
VERTEX
8
0
62
7
6
CONTINUOUS
10
14.6307486416
20
17.9021054143
0
VERTEX
8
0
62
7
6
CONTINUOUS
10
14.6293813763
20
17.8997032097
0
VERTEX
8
0
62
7
6
CONTINUOUS
10
14.6281763051
20
17.8970707752
0
VERTEX
8
0
62
7
6
CONTINUOUS
10
14.6271336320
20
17.8941822375
0
VERTEX
8
0
62
7
6
CONTINUOUS
10
14.6262561301
20
17.8910053407
0
VERTEX
8
0
62
7
6
CONTINUOUS
10
14.6255485702
20
17.8874983963
0
VERTEX
8
0
62
7
6
CONTINUOUS
10
14.6250169386
20
17.8836035150
0
VERTEX
8
0
62
7
6
CONTINUOUS
10
14.6246672741
20
17.8792300697
0
VERTEX
8
0
62
7
6
CONTINUOUS
10
14.6245035125
20
17.8742060104
0
VERTEX
8
0
62
7
6
CONTINUOUS
10
14.6245206642
20
17.8680724728
0
SEQEND
0
POLYLINE
8
0
62
7
6
CONTINUOUS
66
1
70
0
0
VERTEX
8
0
62
7
6
CONTINUOUS
10
13.4377349144
20
17.6602417023
0
VERTEX
8
0
62
7
6
CONTINUOUS
10
13.4406581408
20
17.6611609074
0
VERTEX
8
0
62
7
6
CONTINUOUS
10
13.4420269814
20
17.6616836476
0
VERTEX
8
0
62
7
6
CONTINUOUS
10
13.4433359106
20
17.6622468512
0
VERTEX
8
0
62
7
6
CONTINUOUS
10
13.4457793267
20
17.6634896211
0
VERTEX
8
0
62
7
6
CONTINUOUS
10
13.4480076711
20
17.6648851780
0
VERTEX
8
0
62
7
6
CONTINUOUS
10
13.4500384107
20
17.6664330339
0
VERTEX
8
0
62
7
6
CONTINUOUS
10
13.4518864817
20
17.6681361534
0
VERTEX
8
0
62
7
6
CONTINUOUS
10
13.4535641026
20
17.6700009881
0
VERTEX
8
0
62
7
6
CONTINUOUS
10
13.4550806479
20
17.6720374880
0
VERTEX
8
0
62
7
6
CONTINUOUS
10
13.4564426053
20
17.6742591375
0
VERTEX
8
0
62
7
6
CONTINUOUS
10
13.4576536359
20
17.6766831021
0
VERTEX
8
0
62
7
6
CONTINUOUS
10
13.4587147459
20
17.6793306281
0
VERTEX
8
0
62
7
6
CONTINUOUS
10
13.4596245714
20
17.6822279457
0
VERTEX
8
0
62
7
6
CONTINUOUS
10
13.4603797822
20
17.6854081672
0
VERTEX
8
0
62
7
6
CONTINUOUS
10
13.4609756235
20
17.6889152805
0
VERTEX
8
0
62
7
6
CONTINUOUS
10
13.4614066633
20
17.6928130836
0
VERTEX
8
0
62
7
6
CONTINUOUS
10
13.4616679601
20
17.6972079185
0
VERTEX
8
0
62
7
6
CONTINUOUS
10
13.4617575208
20
17.7023215856
0
VERTEX
8
0
62
7
6
CONTINUOUS
10
13.4616349144
20
17.7136979523
0
SEQEND
0
POLYLINE
8
0
62
7
6
CONTINUOUS
66
1
70
0
0
VERTEX
8
0
62
7
6
CONTINUOUS
10
14.3751786644
20
17.9146562856
0
VERTEX
8
0
62
7
6
CONTINUOUS
10
14.3722444198
20
17.9137517527
0
VERTEX
8
0
62
7
6
CONTINUOUS
10
14.3695582243
20
17.9126836120
0
VERTEX
8
0
62
7
6
CONTINUOUS
10
14.3671067232
20
17.9114608926
0
VERTEX
8
0
62
7
6
CONTINUOUS
10
14.3648725280
20
17.9100887330
0
VERTEX
8
0
62
7
6
CONTINUOUS
10
14.3628378916
20
17.9085680632
0
VERTEX
8
0
62
7
6
CONTINUOUS
10
14.3609875480
20
17.9068964385
0
VERTEX
8
0
62
7
6
CONTINUOUS
10
14.3593089007
20
17.9050679948
0
VERTEX
8
0
62
7
6
CONTINUOUS
10
14.3577921580
20
17.9030734303
0
VERTEX
8
0
62
7
6
CONTINUOUS
10
14.3564303896
20
17.9008999697
0
VERTEX
8
0
62
7
6
CONTINUOUS
10
14.3552194864
20
17.8985312329
0
VERTEX
8
0
62
7
6
CONTINUOUS
10
14.3541580118
20
17.8959468781
0
VERTEX
8
0
62
7
6
CONTINUOUS
10
14.3532469450
20
17.8931217939
0
VERTEX
8
0
62
7
6
CONTINUOUS
10
14.3524893136
20
17.8900244030
0
VERTEX
8
0
62
7
6
CONTINUOUS
10
14.3518897045
20
17.8866131280
0
VERTEX
8
0
62
7
6
CONTINUOUS
10
14.3514536115
20
17.8828286230
0
VERTEX
8
0
62
7
6
CONTINUOUS
10
14.3511864834
20
17.8785745860
0
VERTEX
8
0
62
7
6
CONTINUOUS
10
14.3510919545
20
17.8736593214
0
VERTEX
8
0
62
7
6
CONTINUOUS
10
14.3511655541
20
17.8675279497
0
VERTEX
8
0
62
7
6
CONTINUOUS
10
14.3511871539
20
17.8664880955
0
VERTEX
8
0
62
7
6
CONTINUOUS
10
14.3512682477
20
17.8608031606
0
SEQEND
0
POLYLINE
8
0
62
7
6
CONTINUOUS
66
1
70
0
0
VERTEX
8
0
62
7
6
CONTINUOUS
10
14.5452692894
20
17.6602417023
0
VERTEX
8
0
62
7
6
CONTINUOUS
10
14.5482933620
20
17.6611542385
0
VERTEX
8
0
62
7
6
CONTINUOUS
10
14.5497062171
20
17.6616807533
0
VERTEX
8
0
62
7
6
CONTINUOUS
10
14.5510549320
20
17.6622521726
0
VERTEX
8
0
62
7
6
CONTINUOUS
10
14.5535658233
20
17.6635239299
0
VERTEX
8
0
62
7
6
CONTINUOUS
10
14.5558481165
20
17.6649651539
0
VERTEX
8
0
62
7
6
CONTINUOUS
10
14.5579211934
20
17.6665756242
0
VERTEX
8
0
62
7
6
CONTINUOUS
10
14.5598013814
20
17.6683593102
0
VERTEX
8
0
62
7
6
CONTINUOUS
10
14.5615017265
20
17.6703243882
0
VERTEX
8
0
62
7
6
CONTINUOUS
10
14.5630318527
20
17.6724832282
0
VERTEX
8
0
62
7
6
CONTINUOUS
10
14.5643979414
20
17.6748524243
0
VERTEX
8
0
62
7
6
CONTINUOUS
10
14.5656028502
20
17.6774529953
0
VERTEX
8
0
62
7
6
CONTINUOUS
10
14.5666463811
20
17.6803109710
0
VERTEX
8
0
62
7
6
CONTINUOUS
10
14.5675256967
20
17.6834587604
0
VERTEX
8
0
62
7
6
CONTINUOUS
10
14.5682358988
20
17.6869381321
0
VERTEX
8
0
62
7
6
CONTINUOUS
10
14.5687708158
20
17.6908068379
0
VERTEX
8
0
62
7
6
CONTINUOUS
10
14.5691241640
20
17.6951547647
0
VERTEX
8
0
62
7
6
CONTINUOUS
10
14.5692916714
20
17.7001512343
0
VERTEX
8
0
62
7
6
CONTINUOUS
10
14.5692776400
20
17.7062421873
0
SEQEND
0
POLYLINE
8
0
62
7
6
CONTINUOUS
66
1
70
0
0
VERTEX
8
0
62
7
6
CONTINUOUS
10
13.6676088727
20
17.6602417023
0
VERTEX
8
0
62
7
6
CONTINUOUS
10
13.6706913709
20
17.6611535898
0
VERTEX
8
0
62
7
6
CONTINUOUS
10
13.6721310720
20
17.6616794090
0
VERTEX
8
0
62
7
6
CONTINUOUS
10
13.6735056339
20
17.6622500321
0
VERTEX
8
0
62
7
6
CONTINUOUS
10
13.6760652935
20
17.6635199144
0
VERTEX
8
0
62
7
6
CONTINUOUS
10
13.6783912840
20
17.6649578781
0
VERTEX
8
0
62
7
6
CONTINUOUS
10
13.6805034305
20
17.6665631367
0
VERTEX
8
0
62
7
6
CONTINUOUS
10
13.6824185620
20
17.6683390190
0
VERTEX
8
0
62
7
6
CONTINUOUS
10
13.6841502787
20
17.6702929994
0
VERTEX
8
0
62
7
6
CONTINUOUS
10
13.6857087994
20
17.6724366953
0
VERTEX
8
0
62
7
6
CONTINUOUS
10
13.6871009218
20
17.6747858961
0
VERTEX
8
0
62
7
6
CONTINUOUS
10
13.6883301180
20
17.6773607434
0
VERTEX
8
0
62
7
6
CONTINUOUS
10
13.6893967774
20
17.6801862608
0
VERTEX
8
0
62
7
6
CONTINUOUS
10
13.6902985981
20
17.6832935993
0
VERTEX
8
0
62
7
6
CONTINUOUS
10
13.6910311386
20
17.6867227505
0
VERTEX
8
0
62
7
6
CONTINUOUS
10
13.6915885727
20
17.6905285374
0
VERTEX
8
0
62
7
6
CONTINUOUS
10
13.6919647909
20
17.6947950070
0
VERTEX
8
0
62
7
6
CONTINUOUS
10
13.6921553569
20
17.6996764521
0
VERTEX
8
0
62
7
6
CONTINUOUS
10
13.6921630645
20
17.7055592117
0
SEQEND
0
POLYLINE
8
0
62
7
6
CONTINUOUS
66
1
70
0
0
VERTEX
8
0
62
7
6
CONTINUOUS
10
13.9376994977
20
17.6602417023
0
VERTEX
8
0
62
7
6
CONTINUOUS
10
13.9407708603
20
17.6611505897
0
VERTEX
8
0
62
7
6
CONTINUOUS
10
13.9435694654
20
17.6622422413
0
VERTEX
8
0
62
7
6
CONTINUOUS
10
13.9461111510
20
17.6635061634
0
VERTEX
8
0
62
7
6
CONTINUOUS
10
13.9484157635
20
17.6649362324
0
VERTEX
8
0
62
7
6
CONTINUOUS
10
13.9505037616
20
17.6665316000
0
VERTEX
8
0
62
7
6
CONTINUOUS
10
13.9523925071
20
17.6682956283
0
VERTEX
8
0
62
7
6
CONTINUOUS
10
13.9540960262
20
17.6702359321
0
VERTEX
8
0
62
7
6
CONTINUOUS
10
13.9556248523
20
17.6723643893
0
VERTEX
8
0
62
7
6
CONTINUOUS
10
13.9569859851
20
17.6746971899
0
VERTEX
8
0
62
7
6
CONTINUOUS
10
13.9581829913
20
17.6772550514
0
VERTEX
8
0
62
7
6
CONTINUOUS
10
13.9592162558
20
17.6800638179
0
VERTEX
8
0
62
7
6
CONTINUOUS
10
13.9600833834
20
17.6831558428
0
VERTEX
8
0
62
7
6
CONTINUOUS
10
13.9607797595
20
17.6865729905
0
VERTEX
8
0
62
7
6
CONTINUOUS
10
13.9612993022
20
17.6903732837
0
VERTEX
8
0
62
7
6
CONTINUOUS
10
13.9616355364
20
17.6946470450
0
VERTEX
8
0
62
7
6
CONTINUOUS
10
13.9617834558
20
17.6995638963
0
VERTEX
8
0
62
7
6
CONTINUOUS
10
13.9617449643
20
17.7055669473
0
VERTEX
8
0
62
7
6
CONTINUOUS
10
13.9617024679
20
17.7077090370
0
VERTEX
8
0
62
7
6
CONTINUOUS
10
13.9616151227
20
17.7136979523
0
VERTEX
8
0
62
7
6
CONTINUOUS
10
13.9616151227
20
17.8608031606
0
VERTEX
8
0
62
7
6
CONTINUOUS
10
13.9617024679
20
17.8668952949
0
VERTEX
8
0
62
7
6
CONTINUOUS
10
13.9617377732
20
17.8686695301
0
VERTEX
8
0
62
7
6
CONTINUOUS
10
13.9617861350
20
17.8748078528
0
VERTEX
8
0
62
7
6
CONTINUOUS
10
13.9616490280
20
17.8797838979
0
VERTEX
8
0
62
7
6
CONTINUOUS
10
13.9613237969
20
17.8840922372
0
VERTEX
8
0
62
7
6
CONTINUOUS
10
13.9608150556
20
17.8879170367
0
VERTEX
8
0
62
7
6
CONTINUOUS
10
13.9601289009
20
17.8913547074
0
VERTEX
8
0
62
7
6
CONTINUOUS
10
13.9592710381
20
17.8944663103
0
VERTEX
8
0
62
7
6
CONTINUOUS
10
13.9582457142
20
17.8972953646
0
VERTEX
8
0
62
7
6
CONTINUOUS
10
13.9570549708
20
17.8998751648
0
VERTEX
8
0
62
7
6
CONTINUOUS
10
13.9556980870
20
17.9022321038
0
VERTEX
8
0
62
7
6
CONTINUOUS
10
13.9541711795
20
17.9043872303
0
VERTEX
8
0
62
7
6
CONTINUOUS
10
13.9524669500
20
17.9063569542
0
VERTEX
8
0
62
7
6
CONTINUOUS
10
13.9505745813
20
17.9081533304
0
VERTEX
8
0
62
7
6
CONTINUOUS
10
13.9484797712
20
17.9097841550
0
VERTEX
8
0
62
7
6
CONTINUOUS
10
13.9461648799
20
17.9112530070
0
VERTEX
8
0
62
7
6
CONTINUOUS
10
13.9436091572
20
17.9125593111
0
VERTEX
8
0
62
7
6
CONTINUOUS
10
13.9407929004
20
17.9136970698
0
VERTEX
8
0
62
7
6
CONTINUOUS
10
13.9376994977
20
17.9146562856
0
SEQEND
0
POLYLINE
8
0
62
7
6
CONTINUOUS
66
1
70
0
0
VERTEX
8
0
62
7
6
CONTINUOUS
10
14.2713786644
20
17.6602417023
0
VERTEX
8
0
62
7
6
CONTINUOUS
10
14.2744611842
20
17.6611535957
0
VERTEX
8
0
62
7
6
CONTINUOUS
10
14.2759008999
20
17.6616794191
0
VERTEX
8
0
62
7
6
CONTINUOUS
10
14.2772754776
20
17.6622500473
0
VERTEX
8
0
62
7
6
CONTINUOUS
10
14.2798351722
20
17.6635199411
0
VERTEX
8
0
62
7
6
CONTINUOUS
10
14.2821612042
20
17.6649579201
0
VERTEX
8
0
62
7
6
CONTINUOUS
10
14.2842733978
20
17.6665631980
0
VERTEX
8
0
62
7
6
CONTINUOUS
10
14.2861885806
20
17.6683391033
0
VERTEX
8
0
62
7
6
CONTINUOUS
10
14.2879203522
20
17.6702931103
0
VERTEX
8
0
62
7
6
CONTINUOUS
10
14.2894789308
20
17.6724368358
0
VERTEX
8
0
62
7
6
CONTINUOUS
10
14.2908711134
20
17.6747860685
0
VERTEX
8
0
62
7
6
CONTINUOUS
10
14.2921003722
20
17.6773609487
0
VERTEX
8
0
62
7
6
CONTINUOUS
10
14.2931670965
20
17.6801864986
0
VERTEX
8
0
62
7
6
CONTINUOUS
10
14.2940689846
20
17.6832938667
0
VERTEX
8
0
62
7
6
CONTINUOUS
10
14.2948015951
20
17.6867230410
0
VERTEX
8
0
62
7
6
CONTINUOUS
10
14.2953591024
20
17.6905288381
0
VERTEX
8
0
62
7
6
CONTINUOUS
10
14.2957353976
20
17.6947952932
0
VERTEX
8
0
62
7
6
CONTINUOUS
10
14.2959260452
20
17.6996766695
0
VERTEX
8
0
62
7
6
CONTINUOUS
10
14.2959338401
20
17.7055592014
0
SEQEND
0
LINE
8
0
62
2
6
CONTINUOUS
10
33.0261199674
20
2.9466198979
11
33.0946219674
21
2.9466198979
0
LINE
8
0
62
2
6
CONTINUOUS
10
32.9861199674
20
2.9866198979
11
33.0945189674
21
2.9866198979
0
LINE
8
DEFAULT_2
62
8
6
HIDDEN
10
0.5250000000
20
11.0000000000
11
0.3375000000
21
11.0937500000
0
LINE
8
0
62
7
6
CONTINUOUS
10
13.3475151227
20
17.8721146190
11
13.3665422060
21
17.9185625356
0
LINE
8
0
62
7
6
CONTINUOUS
10
14.7220213727
20
17.5190667023
11
14.6855119977
21
17.4750302440
0
LINE
8
0
62
7
6
CONTINUOUS
10
15.1693484560
20
17.4596802440
11
15.1451474144
21
17.4486833690
0
LINE
8
0
62
2
6
CONTINUOUS
10
32.6734380000
20
2.0562500000
11
33.0171880000
21
1.9937500000
0
LINE
8
0
62
7
6
CONTINUOUS
10
13.6317401227
20
17.9185625356
11
13.6143557477
21
17.8721146190
0
POLYLINE
8
0
62
7
6
CONTINUOUS
66
1
70
0
0
VERTEX
8
0
62
7
6
CONTINUOUS
10
14.5406349144
20
17.4439125356
0
VERTEX
8
0
62
7
6
CONTINUOUS
10
14.5720682477
20
17.5211729523
0
VERTEX
8
0
62
7
6
CONTINUOUS
10
14.5726838727
20
17.5227896190
0
SEQEND
0
LINE
8
0
62
7
6
CONTINUOUS
10
14.5726838727
20
17.5071239940
11
14.5591744977
21
17.4739823273
0
LINE
8
0
62
7
6
CONTINUOUS
10
13.9186817894
20
17.7101885773
11
13.8942276227
21
17.6590614940
0
LINE
8
DEFAULT_2
62
8
6
HIDDEN
10
17.0000000000
20
21.5875000000
11
17.0937500000
21
21.7750000000
0
LINE
8
0
62
7
6
CONTINUOUS
10
14.5229963727
20
17.7109510773
11
14.4947474144
21
17.6590614940
0
LINE
8
0
62
7
6
CONTINUOUS
10
15.1706099144
20
17.4611958690
11
15.1693484560
21
17.4596802440
0
LINE
8
0
6
CONTINUOUS
10
34.0000000000
20
5.5000000000
11
33.5250000000
21
5.5000000000
0
LINE
8
DEFAULT_2
62
8
6
HIDDEN
10
17.0937500000
20
0.4000000000
11
17.0000000000
21
0.5875000000
0
LINE
8
0
6
CONTINUOUS
10
12.7500000000
20
0.5875000000
11
12.7500000000
21
0.0000000000
0
LINE
8
0
62
7
6
CONTINUOUS
10
12.9590817894
20
17.5401750356
11
12.9590817894
21
18.0144281606
0
LINE
8
0
62
7
6
CONTINUOUS
10
12.9606744977
20
18.0177500356
11
12.9606744977
21
17.5570917023
0
LINE
8
0
62
7
6
CONTINUOUS
10
13.3067640810
20
17.9134812856
11
13.3067640810
21
17.8693989940
0
LINE
8
0
62
7
6
CONTINUOUS
10
13.4377349144
20
17.6590614940
11
13.4377349144
21
17.6602417023
0
LINE
8
0
62
7
6
CONTINUOUS
10
13.4616349144
20
17.7136979523
11
13.4616349144
21
17.8877344106
0
POLYLINE
8
0
62
7
6
CONTINUOUS
66
1
70
0
0
VERTEX
8
0
62
7
6
CONTINUOUS
10
13.5170703310
20
17.8877344106
0
VERTEX
8
0
62
7
6
CONTINUOUS
10
13.5170703310
20
17.7097917023
0
VERTEX
8
0
62
7
6
CONTINUOUS
10
13.5170762456
20
17.7044034828
0
VERTEX
8
0
62
7
6
CONTINUOUS
10
13.5171597916
20
17.6993621054
0
VERTEX
8
0
62
7
6
CONTINUOUS
10
13.5173550474
20
17.6954162429
0
VERTEX
8
0
62
7
6
CONTINUOUS
10
13.5176673303
20
17.6920823927
0
VERTEX
8
0
62
7
6
CONTINUOUS
10
13.5180987105
20
17.6891531814
0
VERTEX
8
0
62
7
6
CONTINUOUS
10
13.5186514047
20
17.6865148988
0
VERTEX
8
0
62
7
6
CONTINUOUS
10
13.5193288645
20
17.6840958242
0
VERTEX
8
0
62
7
6
CONTINUOUS
10
13.5201363659
20
17.6818464040
0
VERTEX
8
0
62
7
6
CONTINUOUS
10
13.5210814279
20
17.6797301790
0
VERTEX
8
0
62
7
6
CONTINUOUS
10
13.5221741460
20
17.6777191247
0
VERTEX
8
0
62
7
6
CONTINUOUS
10
13.5234274680
20
17.6757910518
0
VERTEX
8
0
62
7
6
CONTINUOUS
10
13.5248574273
20
17.6739280555
0
VERTEX
8
0
62
7
6
CONTINUOUS
10
13.5264833519
20
17.6721155279
0
VERTEX
8
0
62
7
6
CONTINUOUS
10
13.5283209911
20
17.6703478253
0
VERTEX
8
0
62
7
6
CONTINUOUS
10
13.5303910493
20
17.6686172019
0
VERTEX
8
0
62
7
6
CONTINUOUS
10
13.5327210906
20
17.6669141877
0
VERTEX
8
0
62
7
6
CONTINUOUS
10
13.5353425568
20
17.6652310227
0
VERTEX
8
0
62
7
6
CONTINUOUS
10
13.5382910644
20
17.6635613064
0
VERTEX
8
0
62
7
6
CONTINUOUS
10
13.5416067837
20
17.6618997053
0
VERTEX
8
0
62
7
6
CONTINUOUS
10
13.5453349144
20
17.6602417023
0
SEQEND
0
LINE
8
0
62
7
6
CONTINUOUS
10
13.5453349144
20
17.6602417023
11
13.5453349144
21
17.6590614940
0
LINE
8
0
62
7
6
CONTINUOUS
10
15.3235026227
20
17.5233187856
11
15.2960369977
21
17.4555500356
0
LINE
8
0
62
7
6
CONTINUOUS
10
15.2960369977
20
17.4402906606
11
15.3217328310
21
17.5036864940
0
POLYLINE
8
0
62
7
6
CONTINUOUS
66
1
70
0
0
VERTEX
8
0
62
7
6
CONTINUOUS
10
15.3711713727
20
17.4439125356
0
VERTEX
8
0
62
7
6
CONTINUOUS
10
15.4025838727
20
17.5211729523
0
VERTEX
8
0
62
7
6
CONTINUOUS
10
15.4032244977
20
17.5227896190
0
SEQEND
0
LINE
8
0
62
7
6
CONTINUOUS
10
15.4032244977
20
17.5071646190
11
15.3897057477
21
17.4739823273
0
LINE
8
0
62
7
6
CONTINUOUS
10
15.5422422060
20
17.4761698273
11
15.5673682477
21
17.5192094106
0
LINE
8
0
62
7
6
CONTINUOUS
10
15.5609807477
20
17.5192094106
11
15.5392411644
21
17.4824458690
0
POLYLINE
8
0
62
7
6
CONTINUOUS
66
1
70
0
0
VERTEX
8
0
62
7
6
CONTINUOUS
10
14.5692776400
20
17.7062421873
0
VERTEX
8
0
62
7
6
CONTINUOUS
10
14.5691849144
20
17.7136979523
0
VERTEX
8
0
62
7
6
CONTINUOUS
10
14.5691849144
20
17.8608031606
0
VERTEX
8
0
62
7
6
CONTINUOUS
10
14.5692723991
20
17.8668865716
0
VERTEX
8
0
62
7
6
CONTINUOUS
10
14.5693083180
20
17.8686827953
0
VERTEX
8
0
62
7
6
CONTINUOUS
10
14.5693571605
20
17.8748192424
0
VERTEX
8
0
62
7
6
CONTINUOUS
10
14.5692204297
20
17.8797936971
0
VERTEX
8
0
62
7
6
CONTINUOUS
10
14.5688955232
20
17.8841005907
0
VERTEX
8
0
62
7
6
CONTINUOUS
10
14.5683870711
20
17.8879240718
0
VERTEX
8
0
62
7
6
CONTINUOUS
10
14.5677011749
20
17.8913605499
0
VERTEX
8
0
62
7
6
CONTINUOUS
10
14.5668435392
20
17.8944710868
0
VERTEX
8
0
62
7
6
CONTINUOUS
10
14.5658184060
20
17.8972992007
0
VERTEX
8
0
62
7
6
CONTINUOUS
10
14.5646278086
20
17.8998781840
0
VERTEX
8
0
62
7
6
CONTINUOUS
10
14.5632710153
20
17.9022344253
0
VERTEX
8
0
62
7
6
CONTINUOUS
10
14.5617441292
20
17.9043889675
0
VERTEX
8
0
62
7
6
CONTINUOUS
10
14.5600398363
20
17.9063582127
0
VERTEX
8
0
62
7
6
CONTINUOUS
10
14.5581473018
20
17.9081542068
0
VERTEX
8
0
62
7
6
CONTINUOUS
10
14.5560522044
20
17.9097847357
0
VERTEX
8
0
62
7
6
CONTINUOUS
10
14.5537368842
20
17.9112533671
0
VERTEX
8
0
62
7
6
CONTINUOUS
10
14.5511805698
20
17.9125595143
0
VERTEX
8
0
62
7
6
CONTINUOUS
10
14.5483636013
20
17.9136971458
0
VERTEX
8
0
62
7
6
CONTINUOUS
10
14.5452692894
20
17.9146562856
0
SEQEND
0
POLYLINE
8
0
62
7
6
CONTINUOUS
66
1
70
0
0
VERTEX
8
0
62
7
6
CONTINUOUS
10
14.6245206642
20
17.8680724728
0
VERTEX
8
0
62
7
6
CONTINUOUS
10
14.6246099144
20
17.8608031606
0
VERTEX
8
0
62
7
6
CONTINUOUS
10
14.6246099144
20
17.7136979523
0
SEQEND
0
POLYLINE
8
0
62
7
6
CONTINUOUS
66
1
70
0
0
VERTEX
8
0
62
7
6
CONTINUOUS
10
13.6921630645
20
17.7055592117
0
VERTEX
8
0
62
7
6
CONTINUOUS
10
13.6920630394
20
17.7136979523
0
VERTEX
8
0
62
7
6
CONTINUOUS
10
13.6920630394
20
17.8608031606
0
VERTEX
8
0
62
7
6
CONTINUOUS
10
13.6921408741
20
17.8674037365
0
VERTEX
8
0
62
7
6
CONTINUOUS
10
13.6921585335
20
17.8686891999
0
VERTEX
8
0
62
7
6
CONTINUOUS
10
13.6921605604
20
17.8746954318
0
VERTEX
8
0
62
7
6
CONTINUOUS
10
13.6919808196
20
17.8796333818
0
VERTEX
8
0
62
7
6
CONTINUOUS
10
13.6916156864
20
17.8839335417
0
VERTEX
8
0
62
7
6
CONTINUOUS
10
13.6910691518
20
17.8877635412
0
VERTEX
8
0
62
7
6
CONTINUOUS
10
13.6903469188
20
17.8912131812
0
VERTEX
8
0
62
7
6
CONTINUOUS
10
13.6894544205
20
17.8943402027
0
VERTEX
8
0
62
7
6
CONTINUOUS
10
13.6883957197
20
17.8971862015
0
VERTEX
8
0
62
7
6
CONTINUOUS
10
13.6871727575
20
17.8997832445
0
VERTEX
8
0
62
7
6
CONTINUOUS
10
13.6857848032
20
17.9021568895
0
VERTEX
8
0
62
7
6
CONTINUOUS
10
13.6842280637
20
17.9043275987
0
VERTEX
8
0
62
7
6
CONTINUOUS
10
13.6824954399
20
17.9063113713
0
VERTEX
8
0
62
7
6
CONTINUOUS
10
13.6805764269
20
17.9081199915
0
VERTEX
8
0
62
7
6
CONTINUOUS
10
13.6784571470
20
17.9097611032
0
VERTEX
8
0
62
7
6
CONTINUOUS
10
13.6761204937
20
17.9112382388
0
VERTEX
8
0
62
7
6
CONTINUOUS
10
13.6735463517
20
17.9125508697
0
VERTEX
8
0
62
7
6
CONTINUOUS
10
13.6721631953
20
17.9131442377
0
VERTEX
8
0
62
7
6
CONTINUOUS
10
13.6707139526
20
17.9136937665
0
VERTEX
8
0
62
7
6
CONTINUOUS
10
13.6676088727
20
17.9146562856
0
SEQEND
0
POLYLINE
8
0
62
7
6
CONTINUOUS
66
1
70
0
0
VERTEX
8
0
62
7
6
CONTINUOUS
10
14.2959338401
20
17.7055592014
0
VERTEX
8
0
62
7
6
CONTINUOUS
10
14.2958338727
20
17.7136979523
0
VERTEX
8
0
62
7
6
CONTINUOUS
10
14.2958338727
20
17.8608031606
0
SEQEND
0
LINE
8
0
62
7
6
CONTINUOUS
10
13.6676088727
20
17.6590614940
11
13.6676088727
21
17.6602417023
0
LINE
8
0
62
7
6
CONTINUOUS
10
13.6676088727
20
17.9146562856
11
13.6676088727
21
17.9158312856
0
LINE
8
0
62
7
6
CONTINUOUS
10
13.7474984560
20
17.8850083690
11
13.7474984560
21
17.8124271190
0
LINE
8
0
62
7
6
CONTINUOUS
10
13.7474984560
20
17.7843208690
11
13.7474984560
21
17.6918375356
0
LINE
8
0
62
7
6
CONTINUOUS
10
13.8377140810
20
17.8147614940
11
13.8377140810
21
17.7734052440
0
LINE
8
0
62
7
6
CONTINUOUS
10
13.8686890810
20
17.9177739940
11
13.8686890810
21
17.8721146190
0
LINE
8
0
62
7
6
CONTINUOUS
10
13.9376994977
20
17.6590614940
11
13.9376994977
21
17.6602417023
0
LINE
8
0
62
7
6
CONTINUOUS
10
13.9376994977
20
17.9146562856
11
13.9376994977
21
17.9158312856
0
POLYLINE
8
0
62
7
6
CONTINUOUS
66
1
70
0
0
VERTEX
8
0
62
7
6
CONTINUOUS
10
14.0170453310
20
17.8885125356
0
VERTEX
8
0
62
7
6
CONTINUOUS
10
14.0170453310
20
17.7136979523
0
VERTEX
8
0
62
7
6
CONTINUOUS
10
14.0169846412
20
17.7082126222
0
VERTEX
8
0
62
7
6
CONTINUOUS
10
14.0169364014
20
17.7045519429
0
VERTEX
8
0
62
7
6
CONTINUOUS
10
14.0169520771
20
17.6995637511
0
VERTEX
8
0
62
7
6
CONTINUOUS
10
14.0171003537
20
17.6953577416
0
VERTEX
8
0
62
7
6
CONTINUOUS
10
14.0173813584
20
17.6916435953
0
VERTEX
8
0
62
7
6
CONTINUOUS
10
14.0177921395
20
17.6882975525
0
VERTEX
8
0
62
7
6
CONTINUOUS
10
14.0183288689
20
17.6852512229
0
VERTEX
8
0
62
7
6
CONTINUOUS
10
14.0189877045
20
17.6824604044
0
VERTEX
8
0
62
7
6
CONTINUOUS
10
14.0197653010
20
17.6798933927
0
VERTEX
8
0
62
7
6
CONTINUOUS
10
14.0206591739
20
17.6775258030
0
VERTEX
8
0
62
7
6
CONTINUOUS
10
14.0216679792
20
17.6753380297
0
VERTEX
8
0
62
7
6
CONTINUOUS
10
14.0227917343
20
17.6733139272
0
VERTEX
8
0
62
7
6
CONTINUOUS
10
14.0240319850
20
17.6714401108
0
VERTEX
8
0
62
7
6
CONTINUOUS
10
14.0253919229
20
17.6697055948
0
VERTEX
8
0
62
7
6
CONTINUOUS
10
14.0268764504
20
17.6681016168
0
VERTEX
8
0
62
7
6
CONTINUOUS
10
14.0284921970
20
17.6666215622
0
VERTEX
8
0
62
7
6
CONTINUOUS
10
14.0302474889
20
17.6652609361
0
VERTEX
8
0
62
7
6
CONTINUOUS
10
14.0321522813
20
17.6640173473
0
VERTEX
8
0
62
7
6
CONTINUOUS
10
14.0342180628
20
17.6628904844
0
VERTEX
8
0
62
7
6
CONTINUOUS
10
14.0364577446
20
17.6618820740
0
VERTEX
8
0
62
7
6
CONTINUOUS
10
14.0388808447
20
17.6609973489
0
VERTEX
8
0
62
7
6
CONTINUOUS
10
14.0414994977
20
17.6602417023
0
SEQEND
0
LINE
8
0
62
7
6
CONTINUOUS
10
14.0414994977
20
17.6602417023
11
14.0414994977
21
17.6590614940
0
LINE
8
0
62
7
6
CONTINUOUS
10
14.2713786644
20
17.6590614940
11
14.2713786644
21
17.6602417023
0
LINE
8
0
62
7
6
CONTINUOUS
10
14.2713786644
20
17.9146562856
11
14.2713786644
21
17.9158312856
0
LINE
8
0
62
7
6
CONTINUOUS
10
14.3512682477
20
17.8608031606
11
14.3512682477
21
17.6906771190
0
LINE
8
0
62
7
6
CONTINUOUS
10
14.3751786644
20
17.9158312856
11
14.3751786644
21
17.9146562856
0
LINE
8
0
62
7
6
CONTINUOUS
10
14.5452692894
20
17.6590614940
11
14.5452692894
21
17.6602417023
0
LINE
8
0
62
7
6
CONTINUOUS
10
14.5452692894
20
17.9146562856
11
14.5452692894
21
17.9158312856
0
POLYLINE
8
0
62
7
6
CONTINUOUS
66
1
70
0
0
VERTEX
8
0
62
7
6
CONTINUOUS
10
14.6400922060
20
17.4265781606
0
VERTEX
8
0
62
7
6
CONTINUOUS
10
14.6400922060
20
17.5191073273
0
VERTEX
8
0
62
7
6
CONTINUOUS
10
14.6653807477
20
17.5191073273
0
VERTEX
8
0
62
7
6
CONTINUOUS
10
14.6653807477
20
17.4913875356
0
VERTEX
8
0
62
7
6
CONTINUOUS
10
14.6651828310
20
17.4913875356
0
VERTEX
8
0
62
7
6
CONTINUOUS
10
14.6892609560
20
17.5190667023
0
VERTEX
8
0
62
7
6
CONTINUOUS
10
14.7220213727
20
17.5190667023
0
SEQEND
0
LINE
8
0
62
7
6
CONTINUOUS
10
14.6485349144
20
17.9158312856
11
14.6485349144
21
17.9146562856
0
LINE
8
0
62
7
6
CONTINUOUS
10
14.6485349144
20
17.6602417023
11
14.6485349144
21
17.6590614940
0
LINE
8
0
62
7
6
CONTINUOUS
10
14.7061317894
20
17.6590614940
11
14.7061317894
21
17.6602417023
0
LINE
8
0
62
7
6
CONTINUOUS
10
14.7066765810
20
17.9146562856
11
14.7066765810
21
17.9158312856
0
POLYLINE
8
0
62
7
6
CONTINUOUS
66
1
70
0
0
VERTEX
8
0
62
7
6
CONTINUOUS
10
14.7740692894
20
17.8608031606
0
VERTEX
8
0
62
7
6
CONTINUOUS
10
14.7740692894
20
17.7097917023
0
VERTEX
8
0
62
7
6
CONTINUOUS
10
14.7740833918
20
17.7033647076
0
VERTEX
8
0
62
7
6
CONTINUOUS
10
14.7741798498
20
17.6988699429
0
VERTEX
8
0
62
7
6
CONTINUOUS
10
14.7743775654
20
17.6952440776
0
VERTEX
8
0
62
7
6
CONTINUOUS
10
14.7746800481
20
17.6921315961
0
VERTEX
8
0
62
7
6
CONTINUOUS
10
14.7750888613
20
17.6893687669
0
VERTEX
8
0
62
7
6
CONTINUOUS
10
14.7756057349
20
17.6868624966
0
VERTEX
8
0
62
7
6
CONTINUOUS
10
14.7762333199
20
17.6845528005
0
VERTEX
8
0
62
7
6
CONTINUOUS
10
14.7769756117
20
17.6823976702
0
VERTEX
8
0
62
7
6
CONTINUOUS
10
14.7778382503
20
17.6803659186
0
VERTEX
8
0
62
7
6
CONTINUOUS
10
14.7788287588
20
17.6784334163
0
VERTEX
8
0
62
7
6
CONTINUOUS
10
14.7799567377
20
17.6765809551
0
VERTEX
8
0
62
7
6
CONTINUOUS
10
14.7812340252
20
17.6747929590
0
VERTEX
8
0
62
7
6
CONTINUOUS
10
14.7826748343
20
17.6730566630
0
VERTEX
8
0
62
7
6
CONTINUOUS
10
14.7834620717
20
17.6722041329
0
VERTEX
8
0
62
7
6
CONTINUOUS
10
14.7842958759
20
17.6713615573
0
VERTEX
8
0
62
7
6
CONTINUOUS
10
14.7861085178
20
17.6697058013
0
VERTEX
8
0
62
7
6
CONTINUOUS
10
14.7881321322
20
17.6680818864
0
VERTEX
8
0
62
7
6
CONTINUOUS
10
14.7903895692
20
17.6664829929
0
VERTEX
8
0
62
7
6
CONTINUOUS
10
14.7929065233
20
17.6649035851
0
VERTEX
8
0
62
7
6
CONTINUOUS
10
14.7957117152
20
17.6633391867
0
VERTEX
8
0
62
7
6
CONTINUOUS
10
14.7988371200
20
17.6617861917
0
VERTEX
8
0
62
7
6
CONTINUOUS
10
14.8023182477
20
17.6602417023
0
SEQEND
0
LINE
8
0
62
7
6
CONTINUOUS
10
14.7860172060
20
17.9158312856
11
14.7860172060
21
17.9154344106
0
POLYLINE
8
0
62
7
6
CONTINUOUS
66
1
70
0
0
VERTEX
8
0
62
7
6
CONTINUOUS
10
14.2958338727
20
17.8608031606
0
VERTEX
8
0
62
7
6
CONTINUOUS
10
14.2959293140
20
17.8686892322
0
VERTEX
8
0
62
7
6
CONTINUOUS
10
14.2959312535
20
17.8746952148
0
VERTEX
8
0
62
7
6
CONTINUOUS
10
14.2957514312
20
17.8796330908
0
VERTEX
8
0
62
7
6
CONTINUOUS
10
14.2953862213
20
17.8839332343
0
VERTEX
8
0
62
7
6
CONTINUOUS
10
14.2948396137
20
17.8877632436
0
VERTEX
8
0
62
7
6
CONTINUOUS
10
14.2941173108
20
17.8912129065
0
VERTEX
8
0
62
7
6
CONTINUOUS
10
14.2932247453
20
17.8943399578
0
VERTEX
8
0
62
7
6
CONTINUOUS
10
14.2921659797
20
17.8971859894
0
VERTEX
8
0
62
7
6
CONTINUOUS
10
14.2909429547
20
17.8997830658
0
VERTEX
8
0
62
7
6
CONTINUOUS
10
14.2895549400
20
17.9021567433
0
VERTEX
8
0
62
7
6
CONTINUOUS
10
14.2879981424
20
17.9043274828
0
VERTEX
8
0
62
7
6
CONTINUOUS
10
14.2862654633
20
17.9063112827
0
VERTEX
8
0
62
7
6
CONTINUOUS
10
14.2843463984
20
17.9081199267
0
VERTEX
8
0
62
7
6
CONTINUOUS
10
14.2822270709
20
17.9097610584
0
VERTEX
8
0
62
7
6
CONTINUOUS
10
14.2798903753
20
17.9112382101
0
VERTEX
8
0
62
7
6
CONTINUOUS
10
14.2773161975
20
17.9125508533
0
VERTEX
8
0
62
7
6
CONTINUOUS
10
14.2759330248
20
17.9131442266
0
VERTEX
8
0
62
7
6
CONTINUOUS
10
14.2744837669
20
17.9136937601
0
VERTEX
8
0
62
7
6
CONTINUOUS
10
14.2713786644
20
17.9146562856
0
SEQEND
0
POLYLINE
8
0
62
7
6
CONTINUOUS
66
1
70
0
0
VERTEX
8
0
62
7
6
CONTINUOUS
10
14.6246099144
20
17.7136979523
0
VERTEX
8
0
62
7
6
CONTINUOUS
10
14.6245246764
20
17.7067312954
0
VERTEX
8
0
62
7
6
CONTINUOUS
10
14.6245008267
20
17.7005686017
0
VERTEX
8
0
62
7
6
CONTINUOUS
10
14.6246570445
20
17.6955516496
0
VERTEX
8
0
62
7
6
CONTINUOUS
10
14.6249990387
20
17.6911944364
0
VERTEX
8
0
62
7
6
CONTINUOUS
10
14.6255231176
20
17.6873181840
0
VERTEX
8
0
62
7
6
CONTINUOUS
10
14.6262234322
20
17.6838296931
0
VERTEX
8
0
62
7
6
CONTINUOUS
10
14.6270941887
20
17.6806698812
0
VERTEX
8
0
62
7
6
CONTINUOUS
10
14.6281308273
20
17.6777964604
0
VERTEX
8
0
62
7
6
CONTINUOUS
10
14.6293308136
20
17.6751768773
0
VERTEX
8
0
62
7
6
CONTINUOUS
10
14.6306942151
20
17.6727851358
0
VERTEX
8
0
62
7
6
CONTINUOUS
10
14.6322241143
20
17.6706003231
0
VERTEX
8
0
62
7
6
CONTINUOUS
10
14.6339268733
20
17.6686059594
0
VERTEX
8
0
62
7
6
CONTINUOUS
10
14.6358122535
20
17.6667897528
0
VERTEX
8
0
62
7
6
CONTINUOUS
10
14.6378933980
20
17.6651435373
0
VERTEX
8
0
62
7
6
CONTINUOUS
10
14.6401866982
20
17.6636632638
0
VERTEX
8
0
62
7
6
CONTINUOUS
10
14.6427115772
20
17.6623489698
0
VERTEX
8
0
62
7
6
CONTINUOUS
10
14.6440683951
20
17.6617548847
0
VERTEX
8
0
62
7
6
CONTINUOUS
10
14.6454902269
20
17.6612046917
0
VERTEX
8
0
62
7
6
CONTINUOUS
10
14.6485349144
20
17.6602417023
0
SEQEND
0
POLYLINE
8
0
62
7
6
CONTINUOUS
66
1
70
0
0
VERTEX
8
0
62
7
6
CONTINUOUS
10
14.7098651227
20
17.4736260773
0
VERTEX
8
0
62
7
6
CONTINUOUS
10
14.7099077431
20
17.4759388438
0
VERTEX
8
0
62
7
6
CONTINUOUS
10
14.7100577825
20
17.4782376586
0
VERTEX
8
0
62
7
6
CONTINUOUS
10
14.7103146470
20
17.4805195141
0
VERTEX
8
0
62
7
6
CONTINUOUS
10
14.7106776680
20
17.4827811766
0
VERTEX
8
0
62
7
6
CONTINUOUS
10
14.7111460688
20
17.4850191845
0
VERTEX
8
0
62
7
6
CONTINUOUS
10
14.7117189297
20
17.4872298509
0
VERTEX
8
0
62
7
6
CONTINUOUS
10
14.7123951546
20
17.4894092742
0
VERTEX
8
0
62
7
6
CONTINUOUS
10
14.7131734381
20
17.4915533534
0
VERTEX
8
0
62
7
6
CONTINUOUS
10
14.7140522361
20
17.4936578115
0
VERTEX
8
0
62
7
6
CONTINUOUS
10
14.7150297408
20
17.4957182248
0
VERTEX
8
0
62
7
6
CONTINUOUS
10
14.7161038605
20
17.4977300589
0
VERTEX
8
0
62
7
6
CONTINUOUS
10
14.7172722067
20
17.4996887103
0
VERTEX
8
0
62
7
6
CONTINUOUS
10
14.7185320890
20
17.5015895518
0
VERTEX
8
0
62
7
6
CONTINUOUS
10
14.7198805183
20
17.5034279820
0
VERTEX
8
0
62
7
6
CONTINUOUS
10
14.7213142186
20
17.5051994753
0
VERTEX
8
0
62
7
6
CONTINUOUS
10
14.7215959871
20
17.5055281419
0
VERTEX
8
0
62
7
6
CONTINUOUS
10
14.7231257778
20
17.5072134741
0
VERTEX
8
0
62
7
6
CONTINUOUS
10
14.7247316016
20
17.5088214821
0
VERTEX
8
0
62
7
6
CONTINUOUS
10
14.7264093380
20
17.5103483951
0
VERTEX
8
0
62
7
6
CONTINUOUS
10
14.7281547569
20
17.5117907226
0
VERTEX
8
0
62
7
6
CONTINUOUS
10
14.7299635675
20
17.5131452732
0
VERTEX
8
0
62
7
6
CONTINUOUS
10
14.7318314662
20
17.5144091647
0
VERTEX
8
0
62
7
6
CONTINUOUS
10
14.7337541840
20
17.5155798252
0
VERTEX
8
0
62
7
6
CONTINUOUS
10
14.7357275297
20
17.5166549851
0
VERTEX
8
0
62
7
6
CONTINUOUS
10
14.7377474292
20
17.5176326617
0
VERTEX
8
0
62
7
6
CONTINUOUS
10
14.7398099593
20
17.5185111374
0
VERTEX
8
0
62
7
6
CONTINUOUS
10
14.7419113741
20
17.5192889317
0
VERTEX
8
0
62
7
6
CONTINUOUS
10
14.7440481267
20
17.5199647698
0
VERTEX
8
0
62
7
6
CONTINUOUS
10
14.7462168827
20
17.5205375486
0
VERTEX
8
0
62
7
6
CONTINUOUS
10
14.7484145287
20
17.5210063007
0
VERTEX
8
0
62
7
6
CONTINUOUS
10
14.7506381739
20
17.5213701586
0
VERTEX
8
0
62
7
6
CONTINUOUS
10
14.7528851475
20
17.5216283202
0
VERTEX
8
0
62
7
6
CONTINUOUS
10
14.7551529905
20
17.5217800155
0
VERTEX
8
0
62
7
6
CONTINUOUS
10
14.7574394446
20
17.5218244756
0
VERTEX
8
0
62
7
6
CONTINUOUS
10
14.7597191828
20
17.5217612751
0
VERTEX
8
0
62
7
6
CONTINUOUS
10
14.7619833188
20
17.5215908582
0
VERTEX
8
0
62
7
6
CONTINUOUS
10
14.7642294525
20
17.5213138394
0
VERTEX
8
0
62
7
6
CONTINUOUS
10
14.7664549586
20
17.5209308504
0
VERTEX
8
0
62
7
6
CONTINUOUS
10
14.7686569761
20
17.5204425743
0
VERTEX
8
0
62
7
6
CONTINUOUS
10
14.7708324004
20
17.5198497833
0
VERTEX
8
0
62
7
6
CONTINUOUS
10
14.7729778827
20
17.5191533765
0
VERTEX
8
0
62
7
6
CONTINUOUS
10
14.7750898335
20
17.5183544191
0
VERTEX
8
0
62
7
6
CONTINUOUS
10
14.7771644343
20
17.5174541807
0
VERTEX
8
0
62
7
6
CONTINUOUS
10
14.7791976551
20
17.5164541716
0
VERTEX
8
0
62
7
6
CONTINUOUS
10
14.7811852801
20
17.5153561753
0
VERTEX
8
0
62
7
6
CONTINUOUS
10
14.7831229403
20
17.5141622761
0
VERTEX
8
0
62
7
6
CONTINUOUS
10
14.7850061522
20
17.5128748800
0
VERTEX
8
0
62
7
6
CONTINUOUS
10
14.7868303637
20
17.5114967281
0
VERTEX
8
0
62
7
6
CONTINUOUS
10
14.7885910031
20
17.5100309006
0
VERTEX
8
0
62
7
6
CONTINUOUS
10
14.7902835324
20
17.5084808110
0
VERTEX
8
0
62
7
6
CONTINUOUS
10
14.7919035013
20
17.5068501903
0
VERTEX
8
0
62
7
6
CONTINUOUS
10
14.7934465998
20
17.5051430617
0
VERTEX
8
0
62
7
6
CONTINUOUS
10
14.7934842268
20
17.5050993578
0
VERTEX
8
0
62
7
6
CONTINUOUS
10
14.7949432847
20
17.5033194938
0
VERTEX
8
0
62
7
6
CONTINUOUS
10
14.7963165351
20
17.5014734578
0
VERTEX
8
0
62
7
6
CONTINUOUS
10
14.7976006087
20
17.4995659870
0
VERTEX
8
0
62
7
6
CONTINUOUS
10
14.7987924562
20
17.4976018816
0
VERTEX
8
0
62
7
6
CONTINUOUS
10
14.7998893590
20
17.4955859492
0
VERTEX
8
0
62
7
6
CONTINUOUS
10
14.8008889305
20
17.4935229528
0
VERTEX
8
0
62
7
6
CONTINUOUS
10
14.8017891075
20
17.4914175614
0
VERTEX
8
0
62
7
6
CONTINUOUS
10
14.8025881341
20
17.4892743065
0
VERTEX
8
0
62
7
6
CONTINUOUS
10
14.8032845373
20
17.4870975455
0
VERTEX
8
0
62
7
6
CONTINUOUS
10
14.8038770983
20
17.4848914319
0
VERTEX
8
0
62
7
6
CONTINUOUS
10
14.8043648180
20
17.4826598930
0
VERTEX
8
0
62
7
6
CONTINUOUS
10
14.8047468812
20
17.4804066150
0
VERTEX
8
0
62
7
6
CONTINUOUS
10
14.8050226181
20
17.4781350352
0
VERTEX
8
0
62
7
6
CONTINUOUS
10
14.8051914667
20
17.4758483411
0
VERTEX
8
0
62
7
6
CONTINUOUS
10
14.8052529360
20
17.4735494744
0
VERTEX
8
0
62
7
6
CONTINUOUS
10
14.8052067240
20
17.4712374130
0
VERTEX
8
0
62
7
6
CONTINUOUS
10
14.8050531170
20
17.4689395012
0
VERTEX
8
0
62
7
6
CONTINUOUS
10
14.8047927137
20
17.4666587209
0
VERTEX
8
0
62
7
6
CONTINUOUS
10
14.8044261851
20
17.4643982799
0
VERTEX
8
0
62
7
6
CONTINUOUS
10
14.8039543088
20
17.4621616144
0
VERTEX
8
0
62
7
6
CONTINUOUS
10
14.8033780029
20
17.4599523855
0
VERTEX
8
0
62
7
6
CONTINUOUS
10
14.8026983604
20
17.4577744706
0
VERTEX
8
0
62
7
6
CONTINUOUS
10
14.8019166821
20
17.4556319473
0
VERTEX
8
0
62
7
6
CONTINUOUS
10
14.8010345057
20
17.4535290713
0
VERTEX
8
0
62
7
6
CONTINUOUS
10
14.8000536324
20
17.4514702469
0
VERTEX
8
0
62
7
6
CONTINUOUS
10
14.7989761462
20
17.4494599920
0
VERTEX
8
0
62
7
6
CONTINUOUS
10
14.7978044281
20
17.4475028966
0
VERTEX
8
0
62
7
6
CONTINUOUS
10
14.7965411615
20
17.4456035774
0
VERTEX
8
0
62
7
6
CONTINUOUS
10
14.7951893299
20
17.4437666291
0
VERTEX
8
0
62
7
6
CONTINUOUS
10
14.7937522051
20
17.4419965740
0
VERTEX
8
0
62
7
6
CONTINUOUS
10
14.7934842038
20
17.4416847990
0
VERTEX
8
0
62
7
6
CONTINUOUS
10
14.7919516020
20
17.4400000065
0
VERTEX
8
0
62
7
6
CONTINUOUS
10
14.7903428996
20
17.4383924743
0
VERTEX
8
0
62
7
6
CONTINUOUS
10
14.7886622232
20
17.4368659840
0
VERTEX
8
0
62
7
6
CONTINUOUS
10
14.7869138129
20
17.4354240393
0
VERTEX
8
0
62
7
6
CONTINUOUS
10
14.7851019735
20
17.4340698457
0
VERTEX
8
0
62
7
6
CONTINUOUS
10
14.7832310260
20
17.4328063000
0
VERTEX
8
0
62
7
6
CONTINUOUS
10
14.7813052608
20
17.4316359886
0
VERTEX
8
0
62
7
6
CONTINUOUS
10
14.7793288927
20
17.4305611944
0
VERTEX
8
0
62
7
6
CONTINUOUS
10
14.7773060225
20
17.4295839121
0
VERTEX
8
0
62
7
6
CONTINUOUS
10
14.7752406021
20
17.4287058690
0
VERTEX
8
0
62
7
6
CONTINUOUS
10
14.7731364072
20
17.4279285530
0
VERTEX
8
0
62
7
6
CONTINUOUS
10
14.7709970157
20
17.4272532434
0
VERTEX
8
0
62
7
6
CONTINUOUS
10
14.7688257933
20
17.4266810450
0
VERTEX
8
0
62
7
6
CONTINUOUS
10
14.7666258846
20
17.4262129237
0
VERTEX
8
0
62
7
6
CONTINUOUS
10
14.7644002109
20
17.4258497426
0
VERTEX
8
0
62
7
6
CONTINUOUS
10
14.7621514729
20
17.4255922964
0
VERTEX
8
0
62
7
6
CONTINUOUS
10
14.7598821579
20
17.4254413449
0
VERTEX
8
0
62
7
6
CONTINUOUS
10
14.7575945513
20
17.4253976444
0
VERTEX
8
0
62
7
6
CONTINUOUS
10
14.7553021406
20
17.4254616627
0
VERTEX
8
0
62
7
6
CONTINUOUS
10
14.7530251708
20
17.4256329184
0
VERTEX
8
0
62
7
6
CONTINUOUS
10
14.7507662822
20
17.4259107897
0
VERTEX
8
0
62
7
6
CONTINUOUS
10
14.7485283403
20
17.4262946137
0
VERTEX
8
0
62
7
6
CONTINUOUS
10
14.7463144436
20
17.4267836522
0
VERTEX
8
0
62
7
6
CONTINUOUS
10
14.7441279261
20
17.4273770552
0
VERTEX
8
0
62
7
6
CONTINUOUS
10
14.7419723545
20
17.4280738247
0
VERTEX
8
0
62
7
6
CONTINUOUS
10
14.7398515192
20
17.4288727780
0
VERTEX
8
0
62
7
6
CONTINUOUS
10
14.7377694183
20
17.4297725131
0
VERTEX
8
0
62
7
6
CONTINUOUS
10
14.7357302347
20
17.4307713768
0
VERTEX
8
0
62
7
6
CONTINUOUS
10
14.7337383065
20
17.4318674374
0
VERTEX
8
0
62
7
6
CONTINUOUS
10
14.7317980905
20
17.4330584634
0
VERTEX
8
0
62
7
6
CONTINUOUS
10
14.7299141199
20
17.4343419086
0
VERTEX
8
0
62
7
6
CONTINUOUS
10
14.7280909575
20
17.4357149065
0
VERTEX
8
0
62
7
6
CONTINUOUS
10
14.7263331454
20
17.4371742725
0
VERTEX
8
0
62
7
6
CONTINUOUS
10
14.7246451530
20
17.4387165171
0
VERTEX
8
0
62
7
6
CONTINUOUS
10
14.7230313256
20
17.4403378669
0
VERTEX
8
0
62
7
6
CONTINUOUS
10
14.7228410113
20
17.4405395158
0
VERTEX
8
0
62
7
6
CONTINUOUS
10
14.7213163944
20
17.4422434593
0
VERTEX
8
0
62
7
6
CONTINUOUS
10
14.7198753737
20
17.4440163620
0
VERTEX
8
0
62
7
6
CONTINUOUS
10
14.7185213926
20
17.4458537181
0
VERTEX
8
0
62
7
6
CONTINUOUS
10
14.7172575886
20
17.4477509527
0
VERTEX
8
0
62
7
6
CONTINUOUS
10
14.7160867811
20
17.4497034730
0
VERTEX
8
0
62
7
6
CONTINUOUS
10
14.7150114696
20
17.4517067191
0
VERTEX
8
0
62
7
6
CONTINUOUS
10
14.7140338396
20
17.4537562108
0
VERTEX
8
0
62
7
6
CONTINUOUS
10
14.7131557782
20
17.4558475894
0
VERTEX
8
0
62
7
6
CONTINUOUS
10
14.7123788952
20
17.4579766543
0
VERTEX
8
0
62
7
6
CONTINUOUS
10
14.7117045514
20
17.4601393923
0
VERTEX
8
0
62
7
6
CONTINUOUS
10
14.7111338903
20
17.4623320001
0
VERTEX
8
0
62
7
6
CONTINUOUS
10
14.7106678728
20
17.4645508999
0
VERTEX
8
0
62
7
6
CONTINUOUS
10
14.7103073144
20
17.4667927483
0
VERTEX
8
0
62
7
6
CONTINUOUS
10
14.7100529211
20
17.4690544384
0
VERTEX
8
0
62
7
6
CONTINUOUS
10
14.7099053258
20
17.4713330972
0
VERTEX
8
0
62
7
6
CONTINUOUS
10
14.7098651227
20
17.4736260773
0
SEQEND
0
LINE
8
0
62
7
6
CONTINUOUS
10
15.4365297060
20
17.7886135773
11
15.4338130394
21
17.7718333690
0
LINE
8
0
62
7
6
CONTINUOUS
10
15.2581234560
20
17.4439125356
11
15.2704328310
21
17.5036864940
0
LINE
8
0
62
7
6
CONTINUOUS
10
15.2686828310
20
17.5233187856
11
15.2521526227
21
17.4439125356
0
POLYLINE
8
0
62
7
6
CONTINUOUS
66
1
70
0
0
VERTEX
8
0
62
7
6
CONTINUOUS
10
15.3783838161
20
17.7448246364
0
VERTEX
8
0
62
7
6
CONTINUOUS
10
15.3783607491
20
17.7488914359
0
VERTEX
8
0
62
7
6
CONTINUOUS
10
15.3782862965
20
17.7521280634
0
VERTEX
8
0
62
7
6
CONTINUOUS
10
15.3781561223
20
17.7549252341
0
VERTEX
8
0
62
7
6
CONTINUOUS
10
15.3779693780
20
17.7574291027
0
VERTEX
8
0
62
7
6
CONTINUOUS
10
15.3777261702
20
17.7597137413
0
VERTEX
8
0
62
7
6
CONTINUOUS
10
15.3774269483
20
17.7618233300
0
VERTEX
8
0
62
7
6
CONTINUOUS
10
15.3770722577
20
17.7637871106
0
VERTEX
8
0
62
7
6
CONTINUOUS
10
15.3766626076
20
17.7656259040
0
VERTEX
8
0
62
7
6
CONTINUOUS
10
15.3761983828
20
17.7673553563
0
VERTEX
8
0
62
7
6
CONTINUOUS
10
15.3756797805
20
17.7689877150
0
VERTEX
8
0
62
7
6
CONTINUOUS
10
15.3751067582
20
17.7705328685
0
VERTEX
8
0
62
7
6
CONTINUOUS
10
15.3744789927
20
17.7719989873
0
VERTEX
8
0
62
7
6
CONTINUOUS
10
15.3737958448
20
17.7733929335
0
VERTEX
8
0
62
7
6
CONTINUOUS
10
15.3730563306
20
17.7747205303
0
VERTEX
8
0
62
7
6
CONTINUOUS
10
15.3722590993
20
17.7759867426
0
VERTEX
8
0
62
7
6
CONTINUOUS
10
15.3714024158
20
17.7771958000
0
VERTEX
8
0
62
7
6
CONTINUOUS
10
15.3704841492
20
17.7783512813
0
VERTEX
8
0
62
7
6
CONTINUOUS
10
15.3695017667
20
17.7794561740
0
VERTEX
8
0
62
7
6
CONTINUOUS
10
15.3684523314
20
17.7805129167
0
VERTEX
8
0
62
7
6
CONTINUOUS
10
15.3673325052
20
17.7815234303
0
VERTEX
8
0
62
7
6
CONTINUOUS
10
15.3661385545
20
17.7824891425
0
VERTEX
8
0
62
7
6
CONTINUOUS
10
15.3648663585
20
17.7834110086
0
VERTEX
8
0
62
7
6
CONTINUOUS
10
15.3635114195
20
17.7842895296
0
VERTEX
8
0
62
7
6
CONTINUOUS
10
15.3628012791
20
17.7847126512
0
VERTEX
8
0
62
7
6
CONTINUOUS
10
15.3620689013
20
17.7851247544
0
VERTEX
8
0
62
7
6
CONTINUOUS
10
15.3605360363
20
17.7859151403
0
VERTEX
8
0
62
7
6
CONTINUOUS
10
15.3589074719
20
17.7866602513
0
VERTEX
8
0
62
7
6
CONTINUOUS
10
15.3571775200
20
17.7873592439
0
VERTEX
8
0
62
7
6
CONTINUOUS
10
15.3553401667
20
17.7880108862
0
VERTEX
8
0
62
7
6
CONTINUOUS
10
15.3533890810
20
17.7886135773
0
SEQEND
0
POLYLINE
8
0
62
7
6
CONTINUOUS
66
1
70
0
0
VERTEX
8
0
62
7
6
CONTINUOUS
10
15.4820317894
20
17.6740302440
0
VERTEX
8
0
62
7
6
CONTINUOUS
10
15.4820370523
20
17.6726722790
0
VERTEX
8
0
62
7
6
CONTINUOUS
10
15.4820020599
20
17.6714019363
0
VERTEX
8
0
62
7
6
CONTINUOUS
10
15.4819292808
20
17.6702125756
0
VERTEX
8
0
62
7
6
CONTINUOUS
10
15.4818209180
20
17.6690981460
0
VERTEX
8
0
62
7
6
CONTINUOUS
10
15.4816789209
20
17.6680531135
0
VERTEX
8
0
62
7
6
CONTINUOUS
10
15.4815049934
20
17.6670724022
0
VERTEX
8
0
62
7
6
CONTINUOUS
10
15.4813005979
20
17.6661513463
0
VERTEX
8
0
62
7
6
CONTINUOUS
10
15.4810669555
20
17.6652856515
0
VERTEX
8
0
62
7
6
CONTINUOUS
10
15.4808050446
20
17.6644713642
0
VERTEX
8
0
62
7
6
CONTINUOUS
10
15.4805155965
20
17.6637048480
0
VERTEX
8
0
62
7
6
CONTINUOUS
10
15.4801990902
20
17.6629827659
0
VERTEX
8
0
62
7
6
CONTINUOUS
10
15.4798557468
20
17.6623020672
0
VERTEX
8
0
62
7
6
CONTINUOUS
10
15.4794855224
20
17.6616599796
0
VERTEX
8
0
62
7
6
CONTINUOUS
10
15.4790881027
20
17.6610540042
0
VERTEX
8
0
62
7
6
CONTINUOUS
10
15.4786628977
20
17.6604819138
0
VERTEX
8
0
62
7
6
CONTINUOUS
10
15.4782090370
20
17.6599417523
0
VERTEX
8
0
62
7
6
CONTINUOUS
10
15.4777253670
20
17.6594318365
0
VERTEX
8
0
62
7
6
CONTINUOUS
10
15.4772113558
20
17.6589515550
0
VERTEX
8
0
62
7
6
CONTINUOUS
10
15.4766657853
20
17.6584998948
0
VERTEX
8
0
62
7
6
CONTINUOUS
10
15.4760868613
20
17.6580757922
0
VERTEX
8
0
62
7
6
CONTINUOUS
10
15.4754725112
20
17.6576784613
0
VERTEX
8
0
62
7
6
CONTINUOUS
10
15.4748203843
20
17.6573073907
0
VERTEX
8
0
62
7
6
CONTINUOUS
10
15.4741278518
20
17.6569623380
0
VERTEX
8
0
62
7
6
CONTINUOUS
10
15.4733920033
20
17.6566433249
0
VERTEX
8
0
62
7
6
CONTINUOUS
10
15.4726096405
20
17.6563506299
0
VERTEX
8
0
62
7
6
CONTINUOUS
10
15.4717772676
20
17.6560847822
0
VERTEX
8
0
62
7
6
CONTINUOUS
10
15.4708910754
20
17.6558465554
0
VERTEX
8
0
62
7
6
CONTINUOUS
10
15.4699469211
20
17.6556369626
0
VERTEX
8
0
62
7
6
CONTINUOUS
10
15.4689403010
20
17.6554572520
0
VERTEX
8
0
62
7
6
CONTINUOUS
10
15.4678663156
20
17.6553089063
0
VERTEX
8
0
62
7
6
CONTINUOUS
10
15.4667196263
20
17.6551936433
0
VERTEX
8
0
62
7
6
CONTINUOUS
10
15.4654944012
20
17.6551134212
0
VERTEX
8
0
62
7
6
CONTINUOUS
10
15.4641842489
20
17.6550704471
0
VERTEX
8
0
62
7
6
CONTINUOUS
10
15.4634334074
20
17.6550635807
0
VERTEX
8
0
62
7
6
CONTINUOUS
10
15.4620908617
20
17.6550822695
0
VERTEX
8
0
62
7
6
CONTINUOUS
10
15.4608350622
20
17.6551397300
0
VERTEX
8
0
62
7
6
CONTINUOUS
10
15.4596594287
20
17.6552336270
0
VERTEX
8
0
62
7
6
CONTINUOUS
10
15.4585579539
20
17.6553618849
0
VERTEX
8
0
62
7
6
CONTINUOUS
10
15.4575251359
20
17.6555226772
0
VERTEX
8
0
62
7
6
CONTINUOUS
10
15.4565559235
20
17.6557144206
0
VERTEX
8
0
62
7
6
CONTINUOUS
10
15.4556456713
20
17.6559357723
0
VERTEX
8
0
62
7
6
CONTINUOUS
10
15.4547901029
20
17.6561856307
0
VERTEX
8
0
62
7
6
CONTINUOUS
10
15.4539852828
20
17.6564631381
0
VERTEX
8
0
62
7
6
CONTINUOUS
10
15.4532275931
20
17.6567676851
0
VERTEX
8
0
62
7
6
CONTINUOUS
10
15.4525137171
20
17.6570989168
0
VERTEX
8
0
62
7
6
CONTINUOUS
10
15.4518406271
20
17.6574567391
0
VERTEX
8
0
62
7
6
CONTINUOUS
10
15.4512055764
20
17.6578413252
0
VERTEX
8
0
62
7
6
CONTINUOUS
10
15.4506060944
20
17.6582531225
0
VERTEX
8
0
62
7
6
CONTINUOUS
10
15.4500399844
20
17.6586928581
0
VERTEX
8
0
62
7
6
CONTINUOUS
10
15.4495053234
20
17.6591615442
0
VERTEX
8
0
62
7
6
CONTINUOUS
10
15.4490009245
20
17.6596599967
0
VERTEX
8
0
62
7
6
CONTINUOUS
10
15.4485259865
20
17.6601889460
0
VERTEX
8
0
62
7
6
CONTINUOUS
10
15.4480792050
20
17.6607500566
0
VERTEX
8
0
62
7
6
CONTINUOUS
10
15.4476595536
20
17.6613452805
0
VERTEX
8
0
62
7
6
CONTINUOUS
10
15.4472662802
20
17.6619768594
0
VERTEX
8
0
62
7
6
CONTINUOUS
10
15.4468989028
20
17.6626473267
0
VERTEX
8
0
62
7
6
CONTINUOUS
10
15.4465572037
20
17.6633595131
0
VERTEX
8
0
62
7
6
CONTINUOUS
10
15.4462412230
20
17.6641165558
0
VERTEX
8
0
62
7
6
CONTINUOUS
10
15.4459512530
20
17.6649219114
0
VERTEX
8
0
62
7
6
CONTINUOUS
10
15.4456878309
20
17.6657793749
0
VERTEX
8
0
62
7
6
CONTINUOUS
10
15.4454517341
20
17.6666931059
0
VERTEX
8
0
62
7
6
CONTINUOUS
10
15.4452439758
20
17.6676676621
0
VERTEX
8
0
62
7
6
CONTINUOUS
10
15.4450658039
20
17.6687080434
0
VERTEX
8
0
62
7
6
CONTINUOUS
10
15.4449187016
20
17.6698197465
0
VERTEX
8
0
62
7
6
CONTINUOUS
10
15.4448043933
20
17.6710088350
0
VERTEX
8
0
62
7
6
CONTINUOUS
10
15.4447248535
20
17.6722820268
0
VERTEX
8
0
62
7
6
CONTINUOUS
10
15.4446823239
20
17.6736468029
0
VERTEX
8
0
62
7
6
CONTINUOUS
10
15.4446782812
20
17.6739501505
0
VERTEX
8
0
62
7
6
CONTINUOUS
10
15.4446889686
20
17.6749558140
0
VERTEX
8
0
62
7
6
CONTINUOUS
10
15.4447411969
20
17.6759339168
0
VERTEX
8
0
62
7
6
CONTINUOUS
10
15.4448338818
20
17.6768849379
0
VERTEX
8
0
62
7
6
CONTINUOUS
10
15.4449660257
20
17.6778093337
0
VERTEX
8
0
62
7
6
CONTINUOUS
10
15.4451367191
20
17.6787075302
0
VERTEX
8
0
62
7
6
CONTINUOUS
10
15.4453451402
20
17.6795799159
0
VERTEX
8
0
62
7
6
CONTINUOUS
10
15.4455905542
20
17.6804268334
0
VERTEX
8
0
62
7
6
CONTINUOUS
10
15.4458723102
20
17.6812485713
0
VERTEX
8
0
62
7
6
CONTINUOUS
10
15.4461898367
20
17.6820453550
0
VERTEX
8
0
62
7
6
CONTINUOUS
10
15.4465426353
20
17.6828173384
0
VERTEX
8
0
62
7
6
CONTINUOUS
10
15.4469302725
20
17.6835645947
0
VERTEX
8
0
62
7
6
CONTINUOUS
10
15.4473523690
20
17.6842871085
0
VERTEX
8
0
62
7
6
CONTINUOUS
10
15.4478085865
20
17.6849847675
0
VERTEX
8
0
62
7
6
CONTINUOUS
10
15.4482986131
20
17.6856573563
0
VERTEX
8
0
62
7
6
CONTINUOUS
10
15.4488221455
20
17.6863045500
0
VERTEX
8
0
62
7
6
CONTINUOUS
10
15.4493788691
20
17.6869259107
0
VERTEX
8
0
62
7
6
CONTINUOUS
10
15.4499684362
20
17.6875208845
0
VERTEX
8
0
62
7
6
CONTINUOUS
10
15.4505904422
20
17.6880888020
0
VERTEX
8
0
62
7
6
CONTINUOUS
10
15.4512444002
20
17.6886288797
0
VERTEX
8
0
62
7
6
CONTINUOUS
10
15.4519297144
20
17.6891402263
0
VERTEX
8
0
62
7
6
CONTINUOUS
10
15.4526456536
20
17.6896218499
0
VERTEX
8
0
62
7
6
CONTINUOUS
10
15.4533913239
20
17.6900726704
0
VERTEX
8
0
62
7
6
CONTINUOUS
10
15.4541656436
20
17.6904915342
0
VERTEX
8
0
62
7
6
CONTINUOUS
10
15.4549673198
20
17.6908772331
0
VERTEX
8
0
62
7
6
CONTINUOUS
10
15.4557948281
20
17.6912285267
0
VERTEX
8
0
62
7
6
CONTINUOUS
10
15.4566463978
20
17.6915441676
0
VERTEX
8
0
62
7
6
CONTINUOUS
10
15.4575200022
20
17.6918229299
0
VERTEX
8
0
62
7
6
CONTINUOUS
10
15.4584133564
20
17.6920636394
0
VERTEX
8
0
62
7
6
CONTINUOUS
10
15.4593239233
20
17.6922652048
0
VERTEX
8
0
62
7
6
CONTINUOUS
10
15.4602489288
20
17.6924266494
0
VERTEX
8
0
62
7
6
CONTINUOUS
10
15.4611853851
20
17.6925471402
0
VERTEX
8
0
62
7
6
CONTINUOUS
10
15.4621301247
20
17.6926260150
0
VERTEX
8
0
62
7
6
CONTINUOUS
10
15.4630798407
20
17.6926628049
0
VERTEX
8
0
62
7
6
CONTINUOUS
10
15.4637277754
20
17.6926636275
0
VERTEX
8
0
62
7
6
CONTINUOUS
10
15.4646770332
20
17.6926292637
0
VERTEX
8
0
62
7
6
CONTINUOUS
10
15.4656208992
20
17.6925528419
0
VERTEX
8
0
62
7
6
CONTINUOUS
10
15.4665560823
20
17.6924348444
0
VERTEX
8
0
62
7
6
CONTINUOUS
10
15.4674794364
20
17.6922759450
0
VERTEX
8
0
62
7
6
CONTINUOUS
10
15.4683880008
20
17.6920769861
0
VERTEX
8
0
62
7
6
CONTINUOUS
10
15.4692790318
20
17.6918389516
0
VERTEX
8
0
62
7
6
CONTINUOUS
10
15.4701500265
20
17.6915629369
0
VERTEX
8
0
62
7
6
CONTINUOUS
10
15.4709987360
20
17.6912501179
0
VERTEX
8
0
62
7
6
CONTINUOUS
10
15.4718231702
20
17.6909017193
0
VERTEX
8
0
62
7
6
CONTINUOUS
10
15.4726215953
20
17.6905189844
0
VERTEX
8
0
62
7
6
CONTINUOUS
10
15.4733925230
20
17.6901031469
0
VERTEX
8
0
62
7
6
CONTINUOUS
10
15.4741346946
20
17.6896554059
0
VERTEX
8
0
62
7
6
CONTINUOUS
10
15.4748470604
20
17.6891769036
0
VERTEX
8
0
62
7
6
CONTINUOUS
10
15.4755287559
20
17.6886687068
0
VERTEX
8
0
62
7
6
CONTINUOUS
10
15.4761790759
20
17.6881317920
0
VERTEX
8
0
62
7
6
CONTINUOUS
10
15.4767974476
20
17.6875670341
0
VERTEX
8
0
62
7
6
CONTINUOUS
10
15.4773834033
20
17.6869751980
0
VERTEX
8
0
62
7
6
CONTINUOUS
10
15.4779365538
20
17.6863569344
0
VERTEX
8
0
62
7
6
CONTINUOUS
10
15.4784565634
20
17.6857127769
0
VERTEX
8
0
62
7
6
CONTINUOUS
10
15.4789431258
20
17.6850431431
0
VERTEX
8
0
62
7
6
CONTINUOUS
10
15.4793959421
20
17.6843483367
0
VERTEX
8
0
62
7
6
CONTINUOUS
10
15.4798147016
20
17.6836285520
0
VERTEX
8
0
62
7
6
CONTINUOUS
10
15.4801990642
20
17.6828838801
0
VERTEX
8
0
62
7
6
CONTINUOUS
10
15.4805486454
20
17.6821143155
0
VERTEX
8
0
62
7
6
CONTINUOUS
10
15.4808630037
20
17.6813197643
0
VERTEX
8
0
62
7
6
CONTINUOUS
10
15.4811416303
20
17.6805000527
0
VERTEX
8
0
62
7
6
CONTINUOUS
10
15.4813839410
20
17.6796549356
0
VERTEX
8
0
62
7
6
CONTINUOUS
10
15.4815892699
20
17.6787841060
0
VERTEX
8
0
62
7
6
CONTINUOUS
10
15.4817568657
20
17.6778872031
0
VERTEX
8
0
62
7
6
CONTINUOUS
10
15.4818858887
20
17.6769638216
0
VERTEX
8
0
62
7
6
CONTINUOUS
10
15.4819754101
20
17.6760135192
0
VERTEX
8
0
62
7
6
CONTINUOUS
10
15.4820244121
20
17.6750358245
0
VERTEX
8
0
62
7
6
CONTINUOUS
10
15.4820333765
20
17.6745365239
0
VERTEX
8
0
62
7
6
CONTINUOUS
10
15.4820317894
20
17.6740302440
0
SEQEND
0
LINE
8
0
62
7
6
CONTINUOUS
10
14.8023182477
20
17.6602417023
11
14.8023182477
21
17.6590614940
0
POLYLINE
8
0
62
7
6
CONTINUOUS
66
1
70
0
0
VERTEX
8
0
62
7
6
CONTINUOUS
10
14.8104463727
20
17.4265781606
0
VERTEX
8
0
62
7
6
CONTINUOUS
10
14.8104463727
20
17.5191073273
0
VERTEX
8
0
62
7
6
CONTINUOUS
10
14.8356942894
20
17.5191073273
0
VERTEX
8
0
62
7
6
CONTINUOUS
10
14.8356942894
20
17.4866573273
0
VERTEX
8
0
62
7
6
CONTINUOUS
10
14.8612276227
20
17.4866573273
0
VERTEX
8
0
62
7
6
CONTINUOUS
10
14.8612276227
20
17.5191073273
0
VERTEX
8
0
62
7
6
CONTINUOUS
10
14.8864703310
20
17.5191073273
0
SEQEND
0
POLYLINE
8
0
62
7
6
CONTINUOUS
66
1
70
0
0
VERTEX
8
0
62
7
6
CONTINUOUS
10
14.8864703310
20
17.5191073273
0
VERTEX
8
0
62
7
6
CONTINUOUS
10
14.8864703310
20
17.4265781606
0
VERTEX
8
0
62
7
6
CONTINUOUS
10
14.8612276227
20
17.4265781606
0
VERTEX
8
0
62
7
6
CONTINUOUS
10
14.8612276227
20
17.4610021190
0
VERTEX
8
0
62
7
6
CONTINUOUS
10
14.8356942894
20
17.4610021190
0
VERTEX
8
0
62
7
6
CONTINUOUS
10
14.8356942894
20
17.4265781606
0
VERTEX
8
0
62
7
6
CONTINUOUS
10
14.8104463727
20
17.4265781606
0
SEQEND
0
POLYLINE
8
0
62
7
6
CONTINUOUS
66
1
70
0
0
VERTEX
8
0
62
7
6
CONTINUOUS
10
14.8937942894
20
17.4265781606
0
VERTEX
8
0
62
7
6
CONTINUOUS
10
14.8937942894
20
17.5191073273
0
VERTEX
8
0
62
7
6
CONTINUOUS
10
14.9190838727
20
17.5191073273
0
SEQEND
0
POLYLINE
8
0
62
7
6
CONTINUOUS
66
1
70
0
0
VERTEX
8
0
62
7
6
CONTINUOUS
10
14.9190838727
20
17.5191073273
0
VERTEX
8
0
62
7
6
CONTINUOUS
10
14.9190838727
20
17.4501989940
0
VERTEX
8
0
62
7
6
CONTINUOUS
10
14.9474755394
20
17.4501989940
0
VERTEX
8
0
62
7
6
CONTINUOUS
10
14.9474755394
20
17.4265781606
0
SEQEND
0
LINE
8
0
62
7
6
CONTINUOUS
10
14.9541682477
20
17.4265781606
11
14.9541682477
21
17.5191073273
0
LINE
8
0
62
7
6
CONTINUOUS
10
14.9724286644
20
17.9146562856
11
14.9724286644
21
17.9158312856
0
POLYLINE
8
0
62
7
6
CONTINUOUS
66
1
70
0
0
VERTEX
8
0
62
7
6
CONTINUOUS
10
15.0054890810
20
17.5191073273
0
VERTEX
8
0
62
7
6
CONTINUOUS
10
15.0054890810
20
17.4977760773
0
VERTEX
8
0
62
7
6
CONTINUOUS
10
14.9800880394
20
17.4977354523
0
VERTEX
8
0
62
7
6
CONTINUOUS
10
14.9799765810
20
17.4831375356
0
VERTEX
8
0
62
7
6
CONTINUOUS
10
15.0034547060
20
17.4831375356
0
VERTEX
8
0
62
7
6
CONTINUOUS
10
15.0034547060
20
17.4624062856
0
VERTEX
8
0
62
7
6
CONTINUOUS
10
14.9800474144
20
17.4624062856
0
VERTEX
8
0
62
7
6
CONTINUOUS
10
14.9800474144
20
17.4482864940
0
VERTEX
8
0
62
7
6
CONTINUOUS
10
15.0056828310
20
17.4482864940
0
VERTEX
8
0
62
7
6
CONTINUOUS
10
15.0056828310
20
17.4265781606
0
SEQEND
0
LINE
8
0
62
7
6
CONTINUOUS
10
15.0123661644
20
17.4266396190
11
15.0123661644
21
17.5191073273
0
LINE
8
0
62
7
6
CONTINUOUS
10
15.0370651227
20
17.4976739940
11
15.0370651227
21
17.4798521190
0
LINE
8
0
62
7
6
CONTINUOUS
10
15.0371057477
20
17.4549698273
11
15.0371057477
21
17.4266396190
0
LINE
8
0
62
7
6
CONTINUOUS
10
15.0680807477
20
17.9158312856
11
15.0680807477
21
17.9146562856
0
LINE
8
0
62
7
6
CONTINUOUS
10
15.1706099144
20
17.4592833690
11
15.1706099144
21
17.4611958690
0
LINE
8
0
62
7
6
CONTINUOUS
10
15.1706099144
20
17.5014583690
11
15.1706099144
21
17.5098604523
0
LINE
8
0
62
7
6
CONTINUOUS
10
15.3466047060
20
17.4439125356
11
15.3466047060
21
17.5192094106
0
LINE
8
0
62
7
6
CONTINUOUS
10
15.3526974144
20
17.5134114940
11
15.3526974144
21
17.4847656606
0
LINE
8
0
62
7
6
CONTINUOUS
10
15.3526974144
20
17.4789771190
11
15.3526974144
21
17.4439125356
0
LINE
8
0
62
7
6
CONTINUOUS
10
15.3533890810
20
17.7886135773
11
15.3533890810
21
17.7897781606
0
LINE
8
0
62
7
6
CONTINUOUS
10
15.3783838727
20
17.6883271190
11
15.3783838161
21
17.7448246364
0
LINE
8
0
62
7
6
CONTINUOUS
10
15.3952286644
20
17.9154344106
11
15.3952286644
21
17.8705583690
0
LINE
8
0
62
7
6
CONTINUOUS
10
15.4338130394
20
17.7718333690
11
15.4338130394
21
17.6820864940
0
LINE
8
0
62
7
6
CONTINUOUS
10
15.4365297060
20
17.7897781606
11
15.4365297060
21
17.7886135773
0
LINE
8
0
62
7
6
CONTINUOUS
10
15.4391442894
20
17.5211729523
11
15.4391442894
21
17.4439125356
0
LINE
8
0
62
7
6
CONTINUOUS
10
15.4452172060
20
17.4439125356
11
15.4452172060
21
17.5063312856
0
LINE
8
0
62
7
6
CONTINUOUS
10
15.4565088727
20
17.6630281606
11
15.4565088727
21
17.6841010773
0
LINE
8
0
62
7
6
CONTINUOUS
10
15.4598651227
20
17.6818323273
11
15.4598651227
21
17.6747010773
0
LINE
8
0
62
7
6
CONTINUOUS
10
15.4598651227
20
17.6721021190
11
15.4598651227
21
17.6630281606
0
LINE
8
0
62
7
6
CONTINUOUS
10
15.4668338727
20
17.6735260773
11
15.4668338727
21
17.6733583690
0
LINE
8
0
62
7
6
CONTINUOUS
10
15.5012067894
20
17.5192094106
11
15.5012067894
21
17.4556917023
0
LINE
8
0
62
7
6
CONTINUOUS
10
15.5072797060
20
17.4404031606
11
15.5072797060
21
17.5192094106
0
LINE
8
0
62
7
6
CONTINUOUS
10
15.5222536644
20
17.9734833690
11
15.5222536644
21
17.6013521190
0
LINE
8
0
62
7
6
CONTINUOUS
10
15.5272994977
20
17.9785187856
11
15.5272994977
21
17.5963167023
0
LINE
8
0
62
7
6
CONTINUOUS
10
15.5422422060
20
17.4439125356
11
15.5422422060
21
17.4761698273
0
POLYLINE
8
0
62
7
6
CONTINUOUS
66
1
70
0
0
VERTEX
8
0
62
7
6
CONTINUOUS
10
15.0006880394
20
17.7175937856
0
VERTEX
8
0
62
7
6
CONTINUOUS
10
15.0006885945
20
17.8671557926
0
VERTEX
8
0
62
7
6
CONTINUOUS
10
15.0006611729
20
17.8729933408
0
VERTEX
8
0
62
7
6
CONTINUOUS
10
15.0005446915
20
17.8772169680
0
VERTEX
8
0
62
7
6
CONTINUOUS
10
15.0003275998
20
17.8806852157
0
VERTEX
8
0
62
7
6
CONTINUOUS
10
15.0000073496
20
17.8836874248
0
VERTEX
8
0
62
7
6
CONTINUOUS
10
14.9995826108
20
17.8863649441
0
VERTEX
8
0
62
7
6
CONTINUOUS
10
14.9990517081
20
17.8888008244
0
VERTEX
8
0
62
7
6
CONTINUOUS
10
14.9984119907
20
17.8910497140
0
VERTEX
8
0
62
7
6
CONTINUOUS
10
14.9976594551
20
17.8931504325
0
VERTEX
8
0
62
7
6
CONTINUOUS
10
14.9967884670
20
17.8951320807
0
VERTEX
8
0
62
7
6
CONTINUOUS
10
14.9957915395
20
17.8970173168
0
VERTEX
8
0
62
7
6
CONTINUOUS
10
14.9946591504
20
17.8988242418
0
VERTEX
8
0
62
7
6
CONTINUOUS
10
14.9933795916
20
17.9005675491
0
VERTEX
8
0
62
7
6
CONTINUOUS
10
14.9919388411
20
17.9022592644
0
VERTEX
8
0
62
7
6
CONTINUOUS
10
14.9911525052
20
17.9030894112
0
VERTEX
8
0
62
7
6
CONTINUOUS
10
14.9903204475
20
17.9039092507
0
VERTEX
8
0
62
7
6
CONTINUOUS
10
14.9885140220
20
17.9055183921
0
VERTEX
8
0
62
7
6
CONTINUOUS
10
14.9864998715
20
17.9070943775
0
VERTEX
8
0
62
7
6
CONTINUOUS
10
14.9842555932
20
17.9086434744
0
VERTEX
8
0
62
7
6
CONTINUOUS
10
14.9817560274
20
17.9101706866
0
VERTEX
8
0
62
7
6
CONTINUOUS
10
14.9789730828
20
17.9116799643
0
VERTEX
8
0
62
7
6
CONTINUOUS
10
14.9758755166
20
17.9131743814
0
VERTEX
8
0
62
7
6
CONTINUOUS
10
14.9724286644
20
17.9146562856
0
SEQEND
0
LINE
8
0
62
7
6
CONTINUOUS
10
15.5362609560
20
17.4758031606
11
15.5361494977
21
17.4439125356
0
LINE
8
0
62
7
6
CONTINUOUS
10
15.1703453310
20
17.4522739940
11
15.1706099144
21
17.4592833690
0
LINE
8
0
62
7
6
CONTINUOUS
10
13.0953578310
20
17.6645239940
11
13.0796015810
21
17.7133010773
0
LINE
8
DEFAULT_2
62
8
6
HIDDEN
10
16.9765625000
20
21.9625000000
11
16.9765625000
21
21.7750000000
0
LINE
8
DEFAULT_2
62
8
6
HIDDEN
10
16.9765625000
20
0.4000000000
11
16.9765625000
21
0.2125000000
0
LINE
8
DEFAULT_2
62
8
6
HIDDEN
10
17.0234375000
20
0.2125000000
11
17.0234375000
21
0.4000000000
0
LINE
8
DEFAULT_2
62
8
6
HIDDEN
10
17.0234375000
20
21.7750000000
11
17.0234375000
21
21.9625000000
0
LINE
8
DEFAULT_2
62
8
6
HIDDEN
10
0.1500000000
20
10.9765625000
11
0.3375000000
21
10.9765625000
0
LINE
8
DEFAULT_2
62
8
6
HIDDEN
10
33.7125000000
20
10.9765625000
11
33.9000000000
21
10.9765625000
0
LINE
8
DEFAULT_2
62
8
6
HIDDEN
10
33.9000000000
20
11.0234375000
11
33.7125000000
21
11.0234375000
0
LINE
8
DEFAULT_2
62
8
6
HIDDEN
10
0.3375000000
20
11.0234375000
11
0.1500000000
21
11.0234375000
0
LINE
8
0
62
7
6
CONTINUOUS
10
15.3400130394
20
17.4439125356
11
15.3235026227
21
17.5233187856
0
LINE
8
0
62
7
6
CONTINUOUS
10
15.3217328310
20
17.5036864940
11
15.3340922060
21
17.4439125356
0
LINE
8
0
62
7
6
CONTINUOUS
10
15.4338130394
20
17.6820864940
11
15.4365297060
21
17.6645239940
0
POLYLINE
8
0
62
7
6
CONTINUOUS
66
1
70
0
0
VERTEX
8
0
62
7
6
CONTINUOUS
10
13.6127224144
20
17.8721146190
0
VERTEX
8
0
62
7
6
CONTINUOUS
10
13.6119199356
20
17.8735188226
0
VERTEX
8
0
62
7
6
CONTINUOUS
10
13.6109991928
20
17.8748555393
0
VERTEX
8
0
62
7
6
CONTINUOUS
10
13.6099563702
20
17.8761291732
0
VERTEX
8
0
62
7
6
CONTINUOUS
10
13.6087860788
20
17.8773430976
0
VERTEX
8
0
62
7
6
CONTINUOUS
10
13.6074814540
20
17.8784996177
0
VERTEX
8
0
62
7
6
CONTINUOUS
10
13.6060342602
20
17.8795999617
0
VERTEX
8
0
62
7
6
CONTINUOUS
10
13.6044349942
20
17.8806442985
0
VERTEX
8
0
62
7
6
CONTINUOUS
10
13.6026729774
20
17.8816317788
0
VERTEX
8
0
62
7
6
CONTINUOUS
10
13.6007364232
20
17.8825605962
0
VERTEX
8
0
62
7
6
CONTINUOUS
10
13.5986124719
20
17.8834280629
0
VERTEX
8
0
62
7
6
CONTINUOUS
10
13.5962871747
20
17.8842306978
0
VERTEX
8
0
62
7
6
CONTINUOUS
10
13.5937454039
20
17.8849643225
0
VERTEX
8
0
62
7
6
CONTINUOUS
10
13.5909706478
20
17.8856241666
0
VERTEX
8
0
62
7
6
CONTINUOUS
10
13.5879446118
20
17.8862049832
0
VERTEX
8
0
62
7
6
CONTINUOUS
10
13.5846464716
20
17.8867011771
0
VERTEX
8
0
62
7
6
CONTINUOUS
10
13.5810514568
20
17.8871069537
0
VERTEX
8
0
62
7
6
CONTINUOUS
10
13.5771280231
20
17.8874165001
0
VERTEX
8
0
62
7
6
CONTINUOUS
10
13.5728317269
20
17.8876242130
0
VERTEX
8
0
62
7
6
CONTINUOUS
10
13.5680901434
20
17.8877250026
0
VERTEX
8
0
62
7
6
CONTINUOUS
10
13.5659901227
20
17.8877344106
0
VERTEX
8
0
62
7
6
CONTINUOUS
10
13.5170703310
20
17.8877344106
0
SEQEND
0
POLYLINE
8
0
62
7
6
CONTINUOUS
66
1
70
0
0
VERTEX
8
0
62
7
6
CONTINUOUS
10
14.5726838727
20
17.5227896190
0
VERTEX
8
0
62
7
6
CONTINUOUS
10
14.6045494977
20
17.4439125356
0
VERTEX
8
0
62
7
6
CONTINUOUS
10
14.5983640810
20
17.4439125356
0
VERTEX
8
0
62
7
6
CONTINUOUS
10
14.5888328310
20
17.4681739940
0
SEQEND
0
POLYLINE
8
0
62
7
6
CONTINUOUS
66
1
70
0
0
VERTEX
8
0
62
7
6
CONTINUOUS
10
15.4032244977
20
17.5227896190
0
VERTEX
8
0
62
7
6
CONTINUOUS
10
15.4350953310
20
17.4439125356
0
VERTEX
8
0
62
7
6
CONTINUOUS
10
15.4291338727
20
17.4439125356
0
VERTEX
8
0
62
7
6
CONTINUOUS
10
15.4193588727
20
17.4681739940
0
SEQEND
0
LINE
8
0
62
7
6
CONTINUOUS
10
15.2704328310
20
17.5036864940
11
15.2960369977
21
17.4402906606
0
LINE
8
0
62
7
6
CONTINUOUS
10
15.2960369977
20
17.4555500356
11
15.2686828310
21
17.5233187856
0
LINE
8
0
62
7
6
CONTINUOUS
10
14.5860151227
20
17.4739823273
11
14.5726838727
21
17.5071239940
0
LINE
8
0
62
7
6
CONTINUOUS
10
15.4165505394
20
17.4739823273
11
15.4032244977
21
17.5071646190
0
LINE
8
0
62
7
6
CONTINUOUS
10
15.4681765810
20
17.6630281606
11
15.4667526227
21
17.6684000356
0
LINE
8
0
62
7
6
CONTINUOUS
10
14.0800890810
20
17.7374969106
11
14.0300859560
21
17.7925198273
0
POLYLINE
8
0
62
7
6
CONTINUOUS
66
1
70
0
0
VERTEX
8
0
62
7
6
CONTINUOUS
10
14.6855119977
20
17.4750302440
0
VERTEX
8
0
62
7
6
CONTINUOUS
10
14.7272859560
20
17.4265271190
0
VERTEX
8
0
62
7
6
CONTINUOUS
10
14.6937932477
20
17.4265781606
0
VERTEX
8
0
62
7
6
CONTINUOUS
10
14.6654265810
20
17.4595479523
0
VERTEX
8
0
62
7
6
CONTINUOUS
10
14.6653807477
20
17.4595479523
0
VERTEX
8
0
62
7
6
CONTINUOUS
10
14.6653807477
20
17.4265781606
0
VERTEX
8
0
62
7
6
CONTINUOUS
10
14.6400922060
20
17.4265781606
0
SEQEND
0
POLYLINE
8
0
62
7
6
CONTINUOUS
66
1
70
0
0
VERTEX
8
0
62
7
6
CONTINUOUS
10
13.8360807477
20
17.7734052440
0
VERTEX
8
0
62
7
6
CONTINUOUS
10
13.8351316933
20
17.7745340243
0
VERTEX
8
0
62
7
6
CONTINUOUS
10
13.8340620931
20
17.7756051162
0
VERTEX
8
0
62
7
6
CONTINUOUS
10
13.8328645042
20
17.7766211032
0
VERTEX
8
0
62
7
6
CONTINUOUS
10
13.8315298804
20
17.7775834320
0
VERTEX
8
0
62
7
6
CONTINUOUS
10
13.8300476325
20
17.7784924491
0
VERTEX
8
0
62
7
6
CONTINUOUS
10
13.8284056487
20
17.7793474666
0
VERTEX
8
0
62
7
6
CONTINUOUS
10
13.8265902518
20
17.7801468503
0
VERTEX
8
0
62
7
6
CONTINUOUS
10
13.8245860593
20
17.7808881271
0
VERTEX
8
0
62
7
6
CONTINUOUS
10
13.8223756966
20
17.7815681054
0
VERTEX
8
0
62
7
6
CONTINUOUS
10
13.8199392737
20
17.7821830104
0
VERTEX
8
0
62
7
6
CONTINUOUS
10
13.8172534605
20
17.7827286343
0
VERTEX
8
0
62
7
6
CONTINUOUS
10
13.8142898309
20
17.7832005114
0
VERTEX
8
0
62
7
6
CONTINUOUS
10
13.8110117510
20
17.7835941350
0
VERTEX
8
0
62
7
6
CONTINUOUS
10
13.8073680661
20
17.7839052574
0
VERTEX
8
0
62
7
6
CONTINUOUS
10
13.8032786985
20
17.7841303762
0
VERTEX
8
0
62
7
6
CONTINUOUS
10
13.7985952269
20
17.7842677443
0
VERTEX
8
0
62
7
6
CONTINUOUS
10
13.7929527890
20
17.7843206125
0
VERTEX
8
0
62
7
6
CONTINUOUS
10
13.7474984560
20
17.7843208690
0
SEQEND
0
LINE
8
0
62
7
6
CONTINUOUS
10
15.0577453310
20
17.4265781606
11
15.0371057477
21
17.4549698273
0
LINE
8
0
62
7
6
CONTINUOUS
10
15.0590276227
20
17.4635656606
11
15.0853640810
21
17.4265271190
0
LINE
8
0
62
7
6
CONTINUOUS
10
15.5110328310
20
17.5192094106
11
15.5362609560
21
17.4758031606
0
LINE
8
0
62
7
6
CONTINUOUS
10
15.5392411644
20
17.4824458690
11
15.5179911644
21
17.5192094106
0
LINE
8
0
62
7
6
CONTINUOUS
10
15.4668338727
20
17.6733583690
11
15.4716963727
21
17.6630281606
0
LINE
8
0
62
7
6
CONTINUOUS
10
14.1463838727
20
17.6785719106
11
14.0800890810
21
17.7374969106
0
POLYLINE
8
0
62
7
6
CONTINUOUS
66
1
70
0
0
VERTEX
8
0
62
7
6
CONTINUOUS
10
14.0931307477
20
17.7843208690
0
VERTEX
8
0
62
7
6
CONTINUOUS
10
14.1713880394
20
17.7136979523
0
VERTEX
8
0
62
7
6
CONTINUOUS
10
14.1756498685
20
17.7100172089
0
VERTEX
8
0
62
7
6
CONTINUOUS
10
14.1803115513
20
17.7062105158
0
VERTEX
8
0
62
7
6
CONTINUOUS
10
14.1853777305
20
17.7022876788
0
VERTEX
8
0
62
7
6
CONTINUOUS
10
14.1908475615
20
17.6982618971
0
VERTEX
8
0
62
7
6
CONTINUOUS
10
14.1967134856
20
17.6941501948
0
VERTEX
8
0
62
7
6
CONTINUOUS
10
14.2029599334
20
17.6899738138
0
VERTEX
8
0
62
7
6
CONTINUOUS
10
14.2095620406
20
17.6857585108
0
VERTEX
8
0
62
7
6
CONTINUOUS
10
14.2164844992
20
17.6815346845
0
VERTEX
8
0
62
7
6
CONTINUOUS
10
14.2236807233
20
17.6773372417
0
VERTEX
8
0
62
7
6
CONTINUOUS
10
14.2310925491
20
17.6732051051
0
VERTEX
8
0
62
7
6
CONTINUOUS
10
14.2386507085
20
17.6691802791
0
VERTEX
8
0
62
7
6
CONTINUOUS
10
14.2462762889
20
17.6653064305
0
VERTEX
8
0
62
7
6
CONTINUOUS
10
14.2519439715
20
17.6625474377
0
VERTEX
8
0
62
7
6
CONTINUOUS
10
14.2594307477
20
17.6590614940
0
SEQEND
0
LINE
8
0
62
7
6
CONTINUOUS
10
14.8017797060
20
17.8978760773
11
15.0006880394
21
17.7175937856
0
LINE
8
0
62
7
6
CONTINUOUS
10
14.9604651227
20
17.6910594106
11
14.7740692894
21
17.8608031606
0
LINE
8
0
62
7
6
CONTINUOUS
10
14.7941807477
20
17.9056792023
11
14.8017797060
21
17.8978760773
0
LINE
8
0
62
7
6
CONTINUOUS
10
15.5012067894
20
17.4556917023
11
15.4391442894
21
17.5211729523
0
LINE
8
0
62
7
6
CONTINUOUS
10
15.4452172060
20
17.5063312856
11
15.5072797060
21
17.4404031606
0
LINE
8
0
62
7
6
CONTINUOUS
10
14.7860172060
20
17.9154344106
11
14.7941807477
21
17.9056792023
0
LINE
8
0
6
CONTINUOUS
10
21.2500000000
20
0.5875000000
11
21.2500000000
21
0.0000000000
0
LINE
8
DEFAULT_2
62
8
6
HIDDEN
10
17.0000000000
20
0.5875000000
11
16.9062500000
21
0.4000000000
0
POLYLINE
8
0
62
7
6
CONTINUOUS
66
1
70
0
0
VERTEX
8
0
62
7
6
CONTINUOUS
10
13.0796015810
20
17.7133010773
0
VERTEX
8
0
62
7
6
CONTINUOUS
10
13.0859056757
20
17.7097515439
0
VERTEX
8
0
62
7
6
CONTINUOUS
10
13.0926325285
20
17.7062714890
0
VERTEX
8
0
62
7
6
CONTINUOUS
10
13.0997286953
20
17.7029021399
0
VERTEX
8
0
62
7
6
CONTINUOUS
10
13.1021754729
20
17.7018062747
0
VERTEX
8
0
62
7
6
CONTINUOUS
10
13.1096417649
20
17.6986567280
0
VERTEX
8
0
62
7
6
CONTINUOUS
10
13.1172980691
20
17.6957142042
0
VERTEX
8
0
62
7
6
CONTINUOUS
10
13.1250815676
20
17.6930042343
0
VERTEX
8
0
62
7
6
CONTINUOUS
10
13.1329332505
20
17.6905469402
0
VERTEX
8
0
62
7
6
CONTINUOUS
10
13.1407992496
20
17.6883571984
0
VERTEX
8
0
62
7
6
CONTINUOUS
10
13.1486316247
20
17.6864450443
0
VERTEX
8
0
62
7
6
CONTINUOUS
10
13.1563886886
20
17.6848162233
0
VERTEX
8
0
62
7
6
CONTINUOUS
10
13.1640349766
20
17.6834728136
0
VERTEX
8
0
62
7
6
CONTINUOUS
10
13.1715409664
20
17.6824138619
0
VERTEX
8
0
62
7
6
CONTINUOUS
10
13.1788826380
20
17.6816359911
0
VERTEX
8
0
62
7
6
CONTINUOUS
10
13.1860409469
20
17.6811339600
0
VERTEX
8
0
62
7
6
CONTINUOUS
10
13.1930012626
20
17.6809011604
0
VERTEX
8
0
62
7
6
CONTINUOUS
10
13.1997528096
20
17.6809300510
0
VERTEX
8
0
62
7
6
CONTINUOUS
10
13.2062881318
20
17.6812125302
0
VERTEX
8
0
62
7
6
CONTINUOUS
10
13.2126025958
20
17.6817402528
0
VERTEX
8
0
62
7
6
CONTINUOUS
10
13.2186939361
20
17.6825048965
0
VERTEX
8
0
62
7
6
CONTINUOUS
10
13.2245618461
20
17.6834983862
0
VERTEX
8
0
62
7
6
CONTINUOUS
10
13.2302076099
20
17.6847130811
0
VERTEX
8
0
62
7
6
CONTINUOUS
10
13.2356337755
20
17.6861419307
0
VERTEX
8
0
62
7
6
CONTINUOUS
10
13.2408438613
20
17.6877786038
0
VERTEX
8
0
62
7
6
CONTINUOUS
10
13.2458420955
20
17.6896175945
0
VERTEX
8
0
62
7
6
CONTINUOUS
10
13.2506331809
20
17.6916543075
0
VERTEX
8
0
62
7
6
CONTINUOUS
10
13.2545709514
20
17.6935869797
0
VERTEX
8
0
62
7
6
CONTINUOUS
10
13.2581123066
20
17.6956061747
0
VERTEX
8
0
62
7
6
CONTINUOUS
10
13.2612745864
20
17.6976998182
0
VERTEX
8
0
62
7
6
CONTINUOUS
10
13.2640752497
20
17.6998571447
0
VERTEX
8
0
62
7
6
CONTINUOUS
10
13.2665315541
20
17.7020688729
0
VERTEX
8
0
62
7
6
CONTINUOUS
10
13.2686601745
20
17.7043273483
0
VERTEX
8
0
62
7
6
CONTINUOUS
10
13.2704767665
20
17.7066266309
0
VERTEX
8
0
62
7
6
CONTINUOUS
10
13.2719954920
20
17.7089625099
0
VERTEX
8
0
62
7
6
CONTINUOUS
10
13.2732285321
20
17.7113324207
0
VERTEX
8
0
62
7
6
CONTINUOUS
10
13.2741856221
20
17.7137352492
0
VERTEX
8
0
62
7
6
CONTINUOUS
10
13.2748730252
20
17.7161682331
0
VERTEX
8
0
62
7
6
CONTINUOUS
10
13.2752948419
20
17.7186271442
0
VERTEX
8
0
62
7
6
CONTINUOUS
10
13.2754540431
20
17.7211127017
0
VERTEX
8
0
62
7
6
CONTINUOUS
10
13.2753504091
20
17.7236256361
0
VERTEX
8
0
62
7
6
CONTINUOUS
10
13.2749806797
20
17.7261661065
0
VERTEX
8
0
62
7
6
CONTINUOUS
10
13.2743389037
20
17.7287331331
0
VERTEX
8
0
62
7
6
CONTINUOUS
10
13.2734169678
20
17.7313240889
0
VERTEX
8
0
62
7
6
CONTINUOUS
10
13.2722052686
20
17.7339342926
0
VERTEX
8
0
62
7
6
CONTINUOUS
10
13.2706934787
20
17.7365567277
0
VERTEX
8
0
62
7
6
CONTINUOUS
10
13.2688713523
20
17.7391819078
0
VERTEX
8
0
62
7
6
CONTINUOUS
10
13.2667295145
20
17.7417978904
0
VERTEX
8
0
62
7
6
CONTINUOUS
10
13.2642601807
20
17.7443904359
0
VERTEX
8
0
62
7
6
CONTINUOUS
10
13.2614577583
20
17.7469432959
0
VERTEX
8
0
62
7
6
CONTINUOUS
10
13.2583192924
20
17.7494386074
0
VERTEX
8
0
62
7
6
CONTINUOUS
10
13.2548447328
20
17.7518573594
0
VERTEX
8
0
62
7
6
CONTINUOUS
10
13.2510370136
20
17.7541798962
0
VERTEX
8
0
62
7
6
CONTINUOUS
10
13.2474206717
20
17.7561256323
0
VERTEX
8
0
62
7
6
CONTINUOUS
10
13.2411413512
20
17.7591660938
0
VERTEX
8
0
62
7
6
CONTINUOUS
10
13.2344119196
20
17.7621399058
0
VERTEX
8
0
62
7
6
CONTINUOUS
10
13.2271060623
20
17.7650904627
0
VERTEX
8
0
62
7
6
CONTINUOUS
10
13.2190147749
20
17.7680873407
0
VERTEX
8
0
62
7
6
CONTINUOUS
10
13.2097373530
20
17.7712618928
0
VERTEX
8
0
62
7
6
CONTINUOUS
10
13.1982685876
20
17.7749423040
0
VERTEX
8
0
62
7
6
CONTINUOUS
10
13.1841834635
20
17.7793398475
0
VERTEX
8
0
62
7
6
CONTINUOUS
10
13.1728540135
20
17.7829840074
0
VERTEX
8
0
62
7
6
CONTINUOUS
10
13.1636417441
20
17.7861465465
0
VERTEX
8
0
62
7
6
CONTINUOUS
10
13.1569644450
20
17.7885659383
0
VERTEX
8
0
62
7
6
CONTINUOUS
10
13.1491314304
20
17.7915650669
0
VERTEX
8
0
62
7
6
CONTINUOUS
10
13.1421927949
20
17.7944446529
0
VERTEX
8
0
62
7
6
CONTINUOUS
10
13.1359255496
20
17.7972872135
0
VERTEX
8
0
62
7
6
CONTINUOUS
10
13.1302265234
20
17.8001253317
0
VERTEX
8
0
62
7
6
CONTINUOUS
10
13.1250342232
20
17.8029738353
0
VERTEX
8
0
62
7
6
CONTINUOUS
10
13.1203052359
20
17.8058399426
0
VERTEX
8
0
62
7
6
CONTINUOUS
10
13.1160052947
20
17.8087273700
0
VERTEX
8
0
62
7
6
CONTINUOUS
10
13.1121054240
20
17.8116382883
0
VERTEX
8
0
62
7
6
CONTINUOUS
10
13.1085801499
20
17.8145743705
0
VERTEX
8
0
62
7
6
CONTINUOUS
10
13.1054066517
20
17.8175374042
0
VERTEX
8
0
62
7
6
CONTINUOUS
10
13.1025643804
20
17.8205296753
0
VERTEX
8
0
62
7
6
CONTINUOUS
10
13.1000349239
20
17.8235542157
0
VERTEX
8
0
62
7
6
CONTINUOUS
10
13.0978020095
20
17.8266149630
0
VERTEX
8
0
62
7
6
CONTINUOUS
10
13.0958515836
20
17.8297168551
0
VERTEX
8
0
62
7
6
CONTINUOUS
10
13.0941719306
20
17.8328658708
0
VERTEX
8
0
62
7
6
CONTINUOUS
10
13.0927538074
20
17.8360690251
0
VERTEX
8
0
62
7
6
CONTINUOUS
10
13.0913754042
20
17.8398737321
0
VERTEX
8
0
62
7
6
CONTINUOUS
10
13.0903072712
20
17.8435788132
0
VERTEX
8
0
62
7
6
CONTINUOUS
10
13.0895351485
20
17.8471922257
0
VERTEX
8
0
62
7
6
CONTINUOUS
10
13.0890476854
20
17.8507173930
0
VERTEX
8
0
62
7
6
CONTINUOUS
10
13.0888346399
20
17.8541586246
0
VERTEX
8
0
62
7
6
CONTINUOUS
10
13.0888874165
20
17.8575239018
0
VERTEX
8
0
62
7
6
CONTINUOUS
10
13.0892000734
20
17.8608210064
0
VERTEX
8
0
62
7
6
CONTINUOUS
10
13.0897693501
20
17.8640573069
0
VERTEX
8
0
62
7
6
CONTINUOUS
10
13.0905946291
20
17.8672395265
0
VERTEX
8
0
62
7
6
CONTINUOUS
10
13.0916778225
20
17.8703735010
0
VERTEX
8
0
62
7
6
CONTINUOUS
10
13.0930231779
20
17.8734639362
0
VERTEX
8
0
62
7
6
CONTINUOUS
10
13.0946370009
20
17.8765141718
0
VERTEX
8
0
62
7
6
CONTINUOUS
10
13.0965272908
20
17.8795259584
0
VERTEX
8
0
62
7
6
CONTINUOUS
10
13.0987032857
20
17.8824992485
0
VERTEX
8
0
62
7
6
CONTINUOUS
10
13.1011749118
20
17.8854320027
0
VERTEX
8
0
62
7
6
CONTINUOUS
10
13.1039521231
20
17.8883200080
0
VERTEX
8
0
62
7
6
CONTINUOUS
10
13.1070441168
20
17.8911567074
0
VERTEX
8
0
62
7
6
CONTINUOUS
10
13.1104584005
20
17.8939330405
0
VERTEX
8
0
62
7
6
CONTINUOUS
10
13.1141996856
20
17.8966373015
0
VERTEX
8
0
62
7
6
CONTINUOUS
10
13.1182685824
20
17.8992550267
0
VERTEX
8
0
62
7
6
CONTINUOUS
10
13.1226600818
20
17.9017689376
0
VERTEX
8
0
62
7
6
CONTINUOUS
10
13.1273618330
20
17.9041589802
0
VERTEX
8
0
62
7
6
CONTINUOUS
10
13.1310332148
20
17.9058366585
0
VERTEX
8
0
62
7
6
CONTINUOUS
10
13.1365980190
20
17.9081211055
0
VERTEX
8
0
62
7
6
CONTINUOUS
10
13.1425330750
20
17.9102726447
0
VERTEX
8
0
62
7
6
CONTINUOUS
10
13.1488481935
20
17.9122817559
0
VERTEX
8
0
62
7
6
CONTINUOUS
10
13.1555513549
20
17.9141380380
0
VERTEX
8
0
62
7
6
CONTINUOUS
10
13.1626481234
20
17.9158303114
0
VERTEX
8
0
62
7
6
CONTINUOUS
10
13.1701409611
20
17.9173467450
0
VERTEX
8
0
62
7
6
CONTINUOUS
10
13.1780284239
20
17.9186750159
0
VERTEX
8
0
62
7
6
CONTINUOUS
10
13.1863042263
20
17.9198025133
0
VERTEX
8
0
62
7
6
CONTINUOUS
10
13.1949561628
20
17.9207165985
0
VERTEX
8
0
62
7
6
CONTINUOUS
10
13.2039648855
20
17.9214049378
0
VERTEX
8
0
62
7
6
CONTINUOUS
10
13.2133025527
20
17.9218559236
0
VERTEX
8
0
62
7
6
CONTINUOUS
10
13.2229313923
20
17.9220592035
0
VERTEX
8
0
62
7
6
CONTINUOUS
10
13.2328022644
20
17.9220063274
0
VERTEX
8
0
62
7
6
CONTINUOUS
10
13.2428533695
20
17.9216915210
0
VERTEX
8
0
62
7
6
CONTINUOUS
10
13.2530093225
20
17.9211125706
0
VERTEX
8
0
62
7
6
CONTINUOUS
10
13.2631808993
20
17.9202717780
0
VERTEX
8
0
62
7
6
CONTINUOUS
10
13.2732658298
20
17.9191769027
0
VERTEX
8
0
62
7
6
CONTINUOUS
10
13.2831510297
20
17.9178419597
0
VERTEX
8
0
62
7
6
CONTINUOUS
10
13.2887949513
20
17.9169574845
0
VERTEX
8
0
62
7
6
CONTINUOUS
10
13.2980611177
20
17.9152980598
0
VERTEX
8
0
62
7
6
CONTINUOUS
10
13.3067640810
20
17.9134812856
0
SEQEND
0
POLYLINE
8
0
62
7
6
CONTINUOUS
66
1
70
0
0
VERTEX
8
0
62
7
6
CONTINUOUS
10
13.3067640810
20
17.8693989940
0
VERTEX
8
0
62
7
6
CONTINUOUS
10
13.3007308088
20
17.8730512295
0
VERTEX
8
0
62
7
6
CONTINUOUS
10
13.2947821146
20
17.8763440514
0
VERTEX
8
0
62
7
6
CONTINUOUS
10
13.2888847820
20
17.8793050762
0
VERTEX
8
0
62
7
6
CONTINUOUS
10
13.2830070167
20
17.8819573040
0
VERTEX
8
0
62
7
6
CONTINUOUS
10
13.2771177441
20
17.8843196352
0
VERTEX
8
0
62
7
6
CONTINUOUS
10
13.2711859707
20
17.8864072551
0
VERTEX
8
0
62
7
6
CONTINUOUS
10
13.2681946977
20
17.8873517381
0
VERTEX
8
0
62
7
6
CONTINUOUS
10
13.2651843227
20
17.8882307524
0
VERTEX
8
0
62
7
6
CONTINUOUS
10
13.2590955116
20
17.8897956140
0
VERTEX
8
0
62
7
6
CONTINUOUS
10
13.2528865273
20
17.8911095611
0
VERTEX
8
0
62
7
6
CONTINUOUS
10
13.2465225749
20
17.8921772090
0
VERTEX
8
0
62
7
6
CONTINUOUS
10
13.2399663563
20
17.8930001456
0
VERTEX
8
0
62
7
6
CONTINUOUS
10
13.2331772378
20
17.8935769385
0
VERTEX
8
0
62
7
6
CONTINUOUS
10
13.2261102434
20
17.8939030618
0
VERTEX
8
0
62
7
6
CONTINUOUS
10
13.2247183816
20
17.8939363808
0
VERTEX
8
0
62
7
6
CONTINUOUS
10
13.2190866350
20
17.8939419757
0
VERTEX
8
0
62
7
6
CONTINUOUS
10
13.2125814856
20
17.8937078498
0
VERTEX
8
0
62
7
6
CONTINUOUS
10
13.2060843819
20
17.8932296481
0
VERTEX
8
0
62
7
6
CONTINUOUS
10
13.1998259006
20
17.8925258891
0
VERTEX
8
0
62
7
6
CONTINUOUS
10
13.1939270230
20
17.8916187877
0
VERTEX
8
0
62
7
6
CONTINUOUS
10
13.1884476296
20
17.8905307514
0
VERTEX
8
0
62
7
6
CONTINUOUS
10
13.1834121494
20
17.8892829626
0
VERTEX
8
0
62
7
6
CONTINUOUS
10
13.1788238035
20
17.8878947577
0
VERTEX
8
0
62
7
6
CONTINUOUS
10
13.1746729433
20
17.8863833214
0
VERTEX
8
0
62
7
6
CONTINUOUS
10
13.1709421832
20
17.8847635041
0
VERTEX
8
0
62
7
6
CONTINUOUS
10
13.1676097213
20
17.8830476805
0
VERTEX
8
0
62
7
6
CONTINUOUS
10
13.1646516000
20
17.8812456185
0
VERTEX
8
0
62
7
6
CONTINUOUS
10
13.1620433363
20
17.8793643486
0
VERTEX
8
0
62
7
6
CONTINUOUS
10
13.1597611728
20
17.8774080410
0
VERTEX
8
0
62
7
6
CONTINUOUS
10
13.1577831007
20
17.8753779070
0
VERTEX
8
0
62
7
6
CONTINUOUS
10
13.1560897395
20
17.8732721488
0
VERTEX
8
0
62
7
6
CONTINUOUS
10
13.1546651127
20
17.8710859844
0
VERTEX
8
0
62
7
6
CONTINUOUS
10
13.1534973234
20
17.8688117721
0
VERTEX
8
0
62
7
6
CONTINUOUS
10
13.1525791096
20
17.8664392420
0
VERTEX
8
0
62
7
6
CONTINUOUS
10
13.1519082488
20
17.8639558298
0
VERTEX
8
0
62
7
6
CONTINUOUS
10
13.1514877864
20
17.8613470812
0
VERTEX
8
0
62
7
6
CONTINUOUS
10
13.1513492310
20
17.8588479037
0
VERTEX
8
0
62
7
6
CONTINUOUS
10
13.1514814951
20
17.8564053146
0
VERTEX
8
0
62
7
6
CONTINUOUS
10
13.1518797760
20
17.8540046280
0
VERTEX
8
0
62
7
6
CONTINUOUS
10
13.1525455590
20
17.8516318481
0
VERTEX
8
0
62
7
6
CONTINUOUS
10
13.1534864362
20
17.8492741200
0
VERTEX
8
0
62
7
6
CONTINUOUS
10
13.1547157359
20
17.8469201147
0
VERTEX
8
0
62
7
6
CONTINUOUS
10
13.1562520057
20
17.8445603057
0
VERTEX
8
0
62
7
6
CONTINUOUS
10
13.1581184077
20
17.8421871251
0
VERTEX
8
0
62
7
6
CONTINUOUS
10
13.1603420763
20
17.8397950050
0
VERTEX
8
0
62
7
6
CONTINUOUS
10
13.1629534747
20
17.8373803258
0
VERTEX
8
0
62
7
6
CONTINUOUS
10
13.1659857707
20
17.8349412902
0
VERTEX
8
0
62
7
6
CONTINUOUS
10
13.1694742445
20
17.8324777351
0
VERTEX
8
0
62
7
6
CONTINUOUS
10
13.1734557566
20
17.8299908660
0
VERTEX
8
0
62
7
6
CONTINUOUS
10
13.1779683642
20
17.8274828504
0
VERTEX
8
0
62
7
6
CONTINUOUS
10
13.1830513807
20
17.8249560907
0
VERTEX
8
0
62
7
6
CONTINUOUS
10
13.1887468200
20
17.8224116811
0
VERTEX
8
0
62
7
6
CONTINUOUS
10
13.1951055423
20
17.8198454772
0
VERTEX
8
0
62
7
6
CONTINUOUS
10
13.2022122963
20
17.8172355203
0
VERTEX
8
0
62
7
6
CONTINUOUS
10
13.2103184483
20
17.8144826350
0
VERTEX
8
0
62
7
6
CONTINUOUS
10
13.2290599700
20
17.8082616503
0
SEQEND
0
LINE
8
0
62
2
6
CONTINUOUS
10
29.5951840000
20
2.2425190000
11
29.6923820000
21
2.1210210000
0
LINE
8
0
62
2
6
CONTINUOUS
10
29.6531840000
20
2.2772710000
11
29.7781840000
21
2.1210210000
0
LINE
8
0
62
7
6
CONTINUOUS
10
27.5256457084
20
3.5417649386
11
28.8981001059
21
1.7326205056
0
LINE
8
DEFAULT_2
62
8
6
HIDDEN
10
16.9062500000
20
21.7750000000
11
17.0000000000
21
21.5875000000
0
LINE
8
0
6
CONTINUOUS
10
34.0000000000
20
16.5000000000
11
33.5250000000
21
16.5000000000
0
POLYLINE
8
0
62
7
6
CONTINUOUS
66
1
70
0
0
VERTEX
8
0
62
7
6
CONTINUOUS
10
13.2290599700
20
17.8082616503
0
VERTEX
8
0
62
7
6
CONTINUOUS
10
13.2423929164
20
17.8039378206
0
VERTEX
8
0
62
7
6
CONTINUOUS
10
13.2553083940
20
17.7996519693
0
VERTEX
8
0
62
7
6
CONTINUOUS
10
13.2656872363
20
17.7960067204
0
VERTEX
8
0
62
7
6
CONTINUOUS
10
13.2747167132
20
17.7926010200
0
VERTEX
8
0
62
7
6
CONTINUOUS
10
13.2828602520
20
17.7892778848
0
VERTEX
8
0
62
7
6
CONTINUOUS
10
13.2903569688
20
17.7859553243
0
VERTEX
8
0
62
7
6
CONTINUOUS
10
13.2973503494
20
17.7825828910
0
VERTEX
8
0
62
7
6
CONTINUOUS
10
13.3025267050
20
17.7798301794
0
VERTEX
8
0
62
7
6
CONTINUOUS
10
13.3072573440
20
17.7770183791
0
VERTEX
8
0
62
7
6
CONTINUOUS
10
13.3115626867
20
17.7741550238
0
VERTEX
8
0
62
7
6
CONTINUOUS
10
13.3154626873
20
17.7712467202
0
VERTEX
8
0
62
7
6
CONTINUOUS
10
13.3189766749
20
17.7682990755
0
VERTEX
8
0
62
7
6
CONTINUOUS
10
13.3221231729
20
17.7653166336
0
VERTEX
8
0
62
7
6
CONTINUOUS
10
13.3249196998
20
17.7623028270
0
VERTEX
8
0
62
7
6
CONTINUOUS
10
13.3273825514
20
17.7592599498
0
VERTEX
8
0
62
7
6
CONTINUOUS
10
13.3295265712
20
17.7561891602
0
VERTEX
8
0
62
7
6
CONTINUOUS
10
13.3313649146
20
17.7530905193
0
VERTEX
8
0
62
7
6
CONTINUOUS
10
13.3329088188
20
17.7499630736
0
VERTEX
8
0
62
7
6
CONTINUOUS
10
13.3341659003
20
17.7468092128
0
VERTEX
8
0
62
7
6
CONTINUOUS
10
13.3351432411
20
17.7436296385
0
VERTEX
8
0
62
7
6
CONTINUOUS
10
13.3358470238
20
17.7404218227
0
VERTEX
8
0
62
7
6
CONTINUOUS
10
13.3362810196
20
17.7371828734
0
VERTEX
8
0
62
7
6
CONTINUOUS
10
13.3364465660
20
17.7339098252
0
VERTEX
8
0
62
7
6
CONTINUOUS
10
13.3363426286
20
17.7305999590
0
VERTEX
8
0
62
7
6
CONTINUOUS
10
13.3359659519
20
17.7272511388
0
VERTEX
8
0
62
7
6
CONTINUOUS
10
13.3353113009
20
17.7238621493
0
VERTEX
8
0
62
7
6
CONTINUOUS
10
13.3343717912
20
17.7204330239
0
VERTEX
8
0
62
7
6
CONTINUOUS
10
13.3331393008
20
17.7169653485
0
VERTEX
8
0
62
7
6
CONTINUOUS
10
13.3316049530
20
17.7134625309
0
VERTEX
8
0
62
7
6
CONTINUOUS
10
13.3297596607
20
17.7099300252
0
VERTEX
8
0
62
7
6
CONTINUOUS
10
13.3275947139
20
17.7063755015
0
VERTEX
8
0
62
7
6
CONTINUOUS
10
13.3251023951
20
17.7028089491
0
VERTEX
8
0
62
7
6
CONTINUOUS
10
13.3222765985
20
17.6992427045
0
VERTEX
8
0
62
7
6
CONTINUOUS
10
13.3191134265
20
17.6956913933
0
VERTEX
8
0
62
7
6
CONTINUOUS
10
13.3156117342
20
17.6921717782
0
VERTEX
8
0
62
7
6
CONTINUOUS
10
13.3117735859
20
17.6887025088
0
VERTEX
8
0
62
7
6
CONTINUOUS
10
13.3076045937
20
17.6853037775
0
VERTEX
8
0
62
7
6
CONTINUOUS
10
13.3031141054
20
17.6819968886
0
VERTEX
8
0
62
7
6
CONTINUOUS
10
13.2983152233
20
17.6788037613
0
VERTEX
8
0
62
7
6
CONTINUOUS
10
13.2932246442
20
17.6757463933
0
VERTEX
8
0
62
7
6
CONTINUOUS
10
13.2878623267
20
17.6728463155
0
VERTEX
8
0
62
7
6
CONTINUOUS
10
13.2822510092
20
17.6701240747
0
VERTEX
8
0
62
7
6
CONTINUOUS
10
13.2787548764
20
17.6685755081
0
VERTEX
8
0
62
7
6
CONTINUOUS
10
13.2728096148
20
17.6661823194
0
VERTEX
8
0
62
7
6
CONTINUOUS
10
13.2666954108
20
17.6640156801
0
VERTEX
8
0
62
7
6
CONTINUOUS
10
13.2601969062
20
17.6620061289
0
VERTEX
8
0
62
7
6
CONTINUOUS
10
13.2533235983
20
17.6601645633
0
VERTEX
8
0
62
7
6
CONTINUOUS
10
13.2460723030
20
17.6585023779
0
VERTEX
8
0
62
7
6
CONTINUOUS
10
13.2384429792
20
17.6570315215
0
VERTEX
8
0
62
7
6
CONTINUOUS
10
13.2304394286
20
17.6557643122
0
VERTEX
8
0
62
7
6
CONTINUOUS
10
13.2220700753
20
17.6547132067
0
VERTEX
8
0
62
7
6
CONTINUOUS
10
13.2133488196
20
17.6538905184
0
VERTEX
8
0
62
7
6
CONTINUOUS
10
13.2042959482
20
17.6533080710
0
VERTEX
8
0
62
7
6
CONTINUOUS
10
13.1949390684
20
17.6529767815
0
VERTEX
8
0
62
7
6
CONTINUOUS
10
13.1853140118
20
17.6529061666
0
VERTEX
8
0
62
7
6
CONTINUOUS
10
13.1754656253
20
17.6531037724
0
VERTEX
8
0
62
7
6
CONTINUOUS
10
13.1654483374
20
17.6535745391
0
VERTEX
8
0
62
7
6
CONTINUOUS
10
13.1553263580
20
17.6543201253
0
VERTEX
8
0
62
7
6
CONTINUOUS
10
13.1451733443
20
17.6553382363
0
VERTEX
8
0
62
7
6
CONTINUOUS
10
13.1350713730
20
17.6566220204
0
VERTEX
8
0
62
7
6
CONTINUOUS
10
13.1251090848
20
17.6581596170
0
VERTEX
8
0
62
7
6
CONTINUOUS
10
13.1230404378
20
17.6585137687
0
VERTEX
8
0
62
7
6
CONTINUOUS
10
13.1133985891
20
17.6603296328
0
VERTEX
8
0
62
7
6
CONTINUOUS
10
13.1041440958
20
17.6623430678
0
VERTEX
8
0
62
7
6
CONTINUOUS
10
13.0953578310
20
17.6645239940
0
SEQEND
0
LINE
8
0
62
7
6
CONTINUOUS
10
15.1451474144
20
17.5143771190
11
15.1706099144
21
17.5014583690
0
LINE
8
0
62
7
6
CONTINUOUS
10
15.4667526227
20
17.6684000356
11
15.4598651227
21
17.6721021190
0
POLYLINE
8
0
62
7
6
CONTINUOUS
66
1
70
0
0
VERTEX
8
0
62
7
6
CONTINUOUS
10
15.4565088727
20
17.6841010773
0
VERTEX
8
0
62
7
6
CONTINUOUS
10
15.4576100558
20
17.6842596094
0
VERTEX
8
0
62
7
6
CONTINUOUS
10
15.4583610827
20
17.6843572932
0
VERTEX
8
0
62
7
6
CONTINUOUS
10
15.4590465560
20
17.6844342630
0
VERTEX
8
0
62
7
6
CONTINUOUS
10
15.4597081266
20
17.6844953539
0
VERTEX
8
0
62
7
6
CONTINUOUS
10
15.4603680700
20
17.6845425140
0
VERTEX
8
0
62
7
6
CONTINUOUS
10
15.4610410781
20
17.6845764410
0
VERTEX
8
0
62
7
6
CONTINUOUS
10
15.4617383363
20
17.6845971475
0
VERTEX
8
0
62
7
6
CONTINUOUS
10
15.4624692894
20
17.6846042023
0
VERTEX
8
0
62
7
6
CONTINUOUS
10
15.4629704637
20
17.6845985972
0
VERTEX
8
0
62
7
6
CONTINUOUS
10
15.4635139645
20
17.6845791198
0
VERTEX
8
0
62
7
6
CONTINUOUS
10
15.4640331160
20
17.6845462989
0
VERTEX
8
0
62
7
6
CONTINUOUS
10
15.4645284108
20
17.6845007536
0
VERTEX
8
0
62
7
6
CONTINUOUS
10
15.4650003427
20
17.6844430946
0
VERTEX
8
0
62
7
6
CONTINUOUS
10
15.4654494070
20
17.6843739233
0
VERTEX
8
0
62
7
6
CONTINUOUS
10
15.4658760998
20
17.6842938307
0
VERTEX
8
0
62
7
6
CONTINUOUS
10
15.4662809172
20
17.6842033963
0
VERTEX
8
0
62
7
6
CONTINUOUS
10
15.4666643545
20
17.6841031869
0
VERTEX
8
0
62
7
6
CONTINUOUS
10
15.4670269054
20
17.6839937556
0
VERTEX
8
0
62
7
6
CONTINUOUS
10
15.4673690604
20
17.6838756403
0
VERTEX
8
0
62
7
6
CONTINUOUS
10
15.4676913055
20
17.6837493629
0
VERTEX
8
0
62
7
6
CONTINUOUS
10
15.4679941205
20
17.6836154277
0
VERTEX
8
0
62
7
6
CONTINUOUS
10
15.4682779768
20
17.6834743206
0
VERTEX
8
0
62
7
6
CONTINUOUS
10
15.4685433351
20
17.6833265083
0
VERTEX
8
0
62
7
6
CONTINUOUS
10
15.4687906428
20
17.6831724377
0
VERTEX
8
0
62
7
6
CONTINUOUS
10
15.4689076686
20
17.6830931860
0
VERTEX
8
0
62
7
6
CONTINUOUS
10
15.4690203310
20
17.6830125356
0
VERTEX
8
0
62
7
6
CONTINUOUS
10
15.4692263091
20
17.6828520254
0
VERTEX
8
0
62
7
6
CONTINUOUS
10
15.4694198644
20
17.6826830343
0
VERTEX
8
0
62
7
6
CONTINUOUS
10
15.4696014113
20
17.6825054378
0
VERTEX
8
0
62
7
6
CONTINUOUS
10
15.4697713013
20
17.6823190486
0
VERTEX
8
0
62
7
6
CONTINUOUS
10
15.4699298198
20
17.6821236183
0
VERTEX
8
0
62
7
6
CONTINUOUS
10
15.4700771821
20
17.6819188396
0
VERTEX
8
0
62
7
6
CONTINUOUS
10
15.4701467383
20
17.6818128161
0
VERTEX
8
0
62
7
6
CONTINUOUS
10
15.4702135255
20
17.6817043596
0
VERTEX
8
0
62
7
6
CONTINUOUS
10
15.4703387417
20
17.6814801065
0
VERTEX
8
0
62
7
6
CONTINUOUS
10
15.4704528827
20
17.6812456490
0
VERTEX
8
0
62
7
6
CONTINUOUS
10
15.4705559241
20
17.6810005090
0
VERTEX
8
0
62
7
6
CONTINUOUS
10
15.4706477659
20
17.6807441651
0
VERTEX
8
0
62
7
6
CONTINUOUS
10
15.4707282331
20
17.6804760574
0
VERTEX
8
0
62
7
6
CONTINUOUS
10
15.4707970776
20
17.6801955907
0
VERTEX
8
0
62
7
6
CONTINUOUS
10
15.4708539801
20
17.6799021392
0
VERTEX
8
0
62
7
6
CONTINUOUS
10
15.4708985527
20
17.6795950490
0
VERTEX
8
0
62
7
6
CONTINUOUS
10
15.4709303416
20
17.6792736420
0
VERTEX
8
0
62
7
6
CONTINUOUS
10
15.4709488304
20
17.6789372185
0
VERTEX
8
0
62
7
6
CONTINUOUS
10
15.4709536644
20
17.6786479523
0
VERTEX
8
0
62
7
6
CONTINUOUS
10
15.4709464510
20
17.6783511952
0
VERTEX
8
0
62
7
6
CONTINUOUS
10
15.4709250765
20
17.6780629064
0
VERTEX
8
0
62
7
6
CONTINUOUS
10
15.4708899020
20
17.6777828241
0
VERTEX
8
0
62
7
6
CONTINUOUS
10
15.4708412383
20
17.6775106995
0
VERTEX
8
0
62
7
6
CONTINUOUS
10
15.4707793453
20
17.6772462999
0
VERTEX
8
0
62
7
6
CONTINUOUS
10
15.4707044321
20
17.6769894132
0
VERTEX
8
0
62
7
6
CONTINUOUS
10
15.4706166584
20
17.6767398524
0
VERTEX
8
0
62
7
6
CONTINUOUS
10
15.4705161358
20
17.6764974593
0
VERTEX
8
0
62
7
6
CONTINUOUS
10
15.4704029318
20
17.6762621097
0
VERTEX
8
0
62
7
6
CONTINUOUS
10
15.4702770732
20
17.6760337172
0
VERTEX
8
0
62
7
6
CONTINUOUS
10
15.4701385516
20
17.6758122379
0
VERTEX
8
0
62
7
6
CONTINUOUS
10
15.4699873305
20
17.6755976739
0
VERTEX
8
0
62
7
6
CONTINUOUS
10
15.4698233529
20
17.6753900769
0
VERTEX
8
0
62
7
6
CONTINUOUS
10
15.4696465503
20
17.6751895508
0
VERTEX
8
0
62
7
6
CONTINUOUS
10
15.4694568540
20
17.6749962545
0
VERTEX
8
0
62
7
6
CONTINUOUS
10
15.4692542060
20
17.6748104029
0
VERTEX
8
0
62
7
6
CONTINUOUS
10
15.4690385730
20
17.6746322674
0
VERTEX
8
0
62
7
6
CONTINUOUS
10
15.4688099600
20
17.6744621751
0
VERTEX
8
0
62
7
6
CONTINUOUS
10
15.4685684258
20
17.6743005074
0
VERTEX
8
0
62
7
6
CONTINUOUS
10
15.4683140987
20
17.6741476964
0
VERTEX
8
0
62
7
6
CONTINUOUS
10
15.4680471934
20
17.6740042199
0
VERTEX
8
0
62
7
6
CONTINUOUS
10
15.4677680273
20
17.6738705955
0
VERTEX
8
0
62
7
6
CONTINUOUS
10
15.4674770363
20
17.6737473711
0
VERTEX
8
0
62
7
6
CONTINUOUS
10
15.4671747896
20
17.6736351156
0
VERTEX
8
0
62
7
6
CONTINUOUS
10
15.4668620025
20
17.6735344055
0
VERTEX
8
0
62
7
6
CONTINUOUS
10
15.4668338727
20
17.6735260773
0
SEQEND
0
POLYLINE
8
0
62
7
6
CONTINUOUS
66
1
70
0
0
VERTEX
8
0
62
7
6
CONTINUOUS
10
15.4365297060
20
17.6645239940
0
VERTEX
8
0
62
7
6
CONTINUOUS
10
15.4263939362
20
17.6631621126
0
VERTEX
8
0
62
7
6
CONTINUOUS
10
15.4009802599
20
17.6598378136
0
VERTEX
8
0
62
7
6
CONTINUOUS
10
15.3810969047
20
17.6574722351
0
VERTEX
8
0
62
7
6
CONTINUOUS
10
15.3638472356
20
17.6557035036
0
VERTEX
8
0
62
7
6
CONTINUOUS
10
15.3481961291
20
17.6544031019
0
VERTEX
8
0
62
7
6
CONTINUOUS
10
15.3336305453
20
17.6535090013
0
VERTEX
8
0
62
7
6
CONTINUOUS
10
15.3198495009
20
17.6529866894
0
VERTEX
8
0
62
7
6
CONTINUOUS
10
15.3066567894
20
17.6528156606
0
VERTEX
8
0
62
7
6
CONTINUOUS
10
15.3000944663
20
17.6528565919
0
VERTEX
8
0
62
7
6
CONTINUOUS
10
15.2868343580
20
17.6531971332
0
VERTEX
8
0
62
7
6
CONTINUOUS
10
15.2740118915
20
17.6538729734
0
VERTEX
8
0
62
7
6
CONTINUOUS
10
15.2616320952
20
17.6548720821
0
VERTEX
8
0
62
7
6
CONTINUOUS
10
15.2496990670
20
17.6561820811
0
VERTEX
8
0
62
7
6
CONTINUOUS
10
15.2382159233
20
17.6577903015
0
VERTEX
8
0
62
7
6
CONTINUOUS
10
15.2271847568
20
17.6596838498
0
VERTEX
8
0
62
7
6
CONTINUOUS
10
15.2166066067
20
17.6618496812
0
VERTEX
8
0
62
7
6
CONTINUOUS
10
15.2064814418
20
17.6642746810
0
VERTEX
8
0
62
7
6
CONTINUOUS
10
15.1968081584
20
17.6669457510
0
VERTEX
8
0
62
7
6
CONTINUOUS
10
15.1875845936
20
17.6698499026
0
VERTEX
8
0
62
7
6
CONTINUOUS
10
15.1788075559
20
17.6729743527
0
VERTEX
8
0
62
7
6
CONTINUOUS
10
15.1704728712
20
17.6763066229
0
VERTEX
8
0
62
7
6
CONTINUOUS
10
15.1625754481
20
17.6798346387
0
VERTEX
8
0
62
7
6
CONTINUOUS
10
15.1551093585
20
17.6835468286
0
VERTEX
8
0
62
7
6
CONTINUOUS
10
15.1480679361
20
17.6874322199
0
VERTEX
8
0
62
7
6
CONTINUOUS
10
15.1414438894
20
17.6914805307
0
VERTEX
8
0
62
7
6
CONTINUOUS
10
15.1352294306
20
17.6956822541
0
VERTEX
8
0
62
7
6
CONTINUOUS
10
15.1294164167
20
17.7000287352
0
VERTEX
8
0
62
7
6
CONTINUOUS
10
15.1239965017
20
17.7045122364
0
VERTEX
8
0
62
7
6
CONTINUOUS
10
15.1189612985
20
17.7091259911
0
VERTEX
8
0
62
7
6
CONTINUOUS
10
15.1143025466
20
17.7138642427
0
VERTEX
8
0
62
7
6
CONTINUOUS
10
15.1100122839
20
17.7187222679
0
VERTEX
8
0
62
7
6
CONTINUOUS
10
15.1060830186
20
17.7236963826
0
VERTEX
8
0
62
7
6
CONTINUOUS
10
15.1025078980
20
17.7287839290
0
VERTEX
8
0
62
7
6
CONTINUOUS
10
15.0992808711
20
17.7339832450
0
VERTEX
8
0
62
7
6
CONTINUOUS
10
15.0963968395
20
17.7392936130
0
VERTEX
8
0
62
7
6
CONTINUOUS
10
15.0938517953
20
17.7447151913
0
VERTEX
8
0
62
7
6
CONTINUOUS
10
15.0916429403
20
17.7502489287
0
VERTEX
8
0
62
7
6
CONTINUOUS
10
15.0897687840
20
17.7558964633
0
VERTEX
8
0
62
7
6
CONTINUOUS
10
15.0882292187
20
17.7616600094
0
VERTEX
8
0
62
7
6
CONTINUOUS
10
15.0870262545
20
17.7675382978
0
VERTEX
8
0
62
7
6
CONTINUOUS
10
15.0861622501
20
17.7735318444
0
VERTEX
8
0
62
7
6
CONTINUOUS
10
15.0856403453
20
17.7796437109
0
VERTEX
8
0
62
7
6
CONTINUOUS
10
15.0854651227
20
17.7858771190
0
VERTEX
8
0
62
7
6
CONTINUOUS
10
15.0856406667
20
17.7921482496
0
VERTEX
8
0
62
7
6
CONTINUOUS
10
15.0861634997
20
17.7982944493
0
VERTEX
8
0
62
7
6
CONTINUOUS
10
15.0870284402
20
17.8043168359
0
VERTEX
8
0
62
7
6
CONTINUOUS
10
15.0882312222
20
17.8102173373
0
VERTEX
8
0
62
7
6
CONTINUOUS
10
15.0897693612
20
17.8160005587
0
VERTEX
8
0
62
7
6
CONTINUOUS
10
15.0916419634
20
17.8216706107
0
VERTEX
8
0
62
7
6
CONTINUOUS
10
15.0938496790
20
17.8272309844
0
VERTEX
8
0
62
7
6
CONTINUOUS
10
15.0963946284
20
17.8326844316
0
VERTEX
8
0
62
7
6
CONTINUOUS
10
15.0992803006
20
17.8380328545
0
VERTEX
8
0
62
7
6
CONTINUOUS
10
15.1025114265
20
17.8432772049
0
VERTEX
8
0
62
7
6
CONTINUOUS
10
15.1060938275
20
17.8484173997
0
VERTEX
8
0
62
7
6
CONTINUOUS
10
15.1100342440
20
17.8534522514
0
VERTEX
8
0
62
7
6
CONTINUOUS
10
15.1143401453
20
17.8583794164
0
VERTEX
8
0
62
7
6
CONTINUOUS
10
15.1190195240
20
17.8631953631
0
VERTEX
8
0
62
7
6
CONTINUOUS
10
15.1240806802
20
17.8678953580
0
VERTEX
8
0
62
7
6
CONTINUOUS
10
15.1295319964
20
17.8724734714
0
VERTEX
8
0
62
7
6
CONTINUOUS
10
15.1353817083
20
17.8769226022
0
VERTEX
8
0
62
7
6
CONTINUOUS
10
15.1416376748
20
17.8812345210
0
VERTEX
8
0
62
7
6
CONTINUOUS
10
15.1483071490
20
17.8853999302
0
VERTEX
8
0
62
7
6
CONTINUOUS
10
15.1553965565
20
17.8894085416
0
VERTEX
8
0
62
7
6
CONTINUOUS
10
15.1629112825
20
17.8932491689
0
VERTEX
8
0
62
7
6
CONTINUOUS
10
15.1708554719
20
17.8969098350
0
VERTEX
8
0
62
7
6
CONTINUOUS
10
15.1792318467
20
17.9003778919
0
VERTEX
8
0
62
7
6
CONTINUOUS
10
15.1880415449
20
17.9036401521
0
VERTEX
8
0
62
7
6
CONTINUOUS
10
15.1972839827
20
17.9066830284
0
VERTEX
8
0
62
7
6
CONTINUOUS
10
15.2069567456
20
17.9094926812
0
VERTEX
8
0
62
7
6
CONTINUOUS
10
15.2170555097
20
17.9120551694
0
VERTEX
8
0
62
7
6
CONTINUOUS
10
15.2275739961
20
17.9143566033
0
VERTEX
8
0
62
7
6
CONTINUOUS
10
15.2385039601
20
17.9163832945
0
VERTEX
8
0
62
7
6
CONTINUOUS
10
15.2498352147
20
17.9181219021
0
VERTEX
8
0
62
7
6
CONTINUOUS
10
15.2615556891
20
17.9195595704
0
VERTEX
8
0
62
7
6
CONTINUOUS
10
15.2736515194
20
17.9206840551
0
VERTEX
8
0
62
7
6
CONTINUOUS
10
15.2861071695
20
17.9214838372
0
VERTEX
8
0
62
7
6
CONTINUOUS
10
15.2989055786
20
17.9219482196
0
VERTEX
8
0
62
7
6
CONTINUOUS
10
15.3099119977
20
17.9220719106
0
VERTEX
8
0
62
7
6
CONTINUOUS
10
15.3235771296
20
17.9218965219
0
VERTEX
8
0
62
7
6
CONTINUOUS
10
15.3373268799
20
17.9213688911
0
VERTEX
8
0
62
7
6
CONTINUOUS
10
15.3511981917
20
17.9204852521
0
VERTEX
8
0
62
7
6
CONTINUOUS
10
15.3652313974
20
17.9192395665
0
VERTEX
8
0
62
7
6
CONTINUOUS
10
15.3794710907
20
17.9176232389
0
VERTEX
8
0
62
7
6
CONTINUOUS
10
15.3939672543
20
17.9156247353
0
VERTEX
8
0
62
7
6
CONTINUOUS
10
15.3952286644
20
17.9154344106
0
SEQEND
0
POLYLINE
8
0
62
7
6
CONTINUOUS
66
1
70
0
0
VERTEX
8
0
62
7
6
CONTINUOUS
10
14.0300859560
20
17.7925198273
0
VERTEX
8
0
62
7
6
CONTINUOUS
10
14.0362482265
20
17.7932272711
0
VERTEX
8
0
62
7
6
CONTINUOUS
10
14.0421478087
20
17.7940027974
0
VERTEX
8
0
62
7
6
CONTINUOUS
10
14.0475802432
20
17.7948216982
0
VERTEX
8
0
62
7
6
CONTINUOUS
10
14.0526578636
20
17.7956946216
0
VERTEX
8
0
62
7
6
CONTINUOUS
10
14.0574548295
20
17.7966289362
0
VERTEX
8
0
62
7
6
CONTINUOUS
10
14.0620234616
20
17.7976302266
0
VERTEX
8
0
62
7
6
CONTINUOUS
10
14.0664025355
20
17.7987030582
0
VERTEX
8
0
62
7
6
CONTINUOUS
10
14.0706219053
20
17.7998514079
0
VERTEX
8
0
62
7
6
CONTINUOUS
10
14.0747052685
20
17.8010789264
0
VERTEX
8
0
62
7
6
CONTINUOUS
10
14.0786719115
20
17.8023891075
0
VERTEX
8
0
62
7
6
CONTINUOUS
10
14.0825378622
20
17.8037854026
0
VERTEX
8
0
62
7
6
CONTINUOUS
10
14.0863166787
20
17.8052713025
0
VERTEX
8
0
62
7
6
CONTINUOUS
10
14.0900200048
20
17.8068503969
0
VERTEX
8
0
62
7
6
CONTINUOUS
10
14.0903338136
20
17.8069901499
0
VERTEX
8
0
62
7
6
CONTINUOUS
10
14.0933945190
20
17.8084193922
0
VERTEX
8
0
62
7
6
CONTINUOUS
10
14.0962993791
20
17.8098965940
0
VERTEX
8
0
62
7
6
CONTINUOUS
10
14.0990439344
20
17.8114151529
0
VERTEX
8
0
62
7
6
CONTINUOUS
10
14.1016266861
20
17.8129695461
0
VERTEX
8
0
62
7
6
CONTINUOUS
10
14.1040482543
20
17.8145551699
0
VERTEX
8
0
62
7
6
CONTINUOUS
10
14.1063107651
20
17.8161682203
0
VERTEX
8
0
62
7
6
CONTINUOUS
10
14.1084173962
20
17.8178056029
0
VERTEX
8
0
62
7
6
CONTINUOUS
10
14.1103720324
20
17.8194648634
0
VERTEX
8
0
62
7
6
CONTINUOUS
10
14.1121789992
20
17.8211441347
0
VERTEX
8
0
62
7
6
CONTINUOUS
10
14.1138428514
20
17.8228420949
0
VERTEX
8
0
62
7
6
CONTINUOUS
10
14.1153682035
20
17.8245579336
0
VERTEX
8
0
62
7
6
CONTINUOUS
10
14.1167595894
20
17.8262913230
0
VERTEX
8
0
62
7
6
CONTINUOUS
10
14.1180213444
20
17.8280423922
0
VERTEX
8
0
62
7
6
CONTINUOUS
10
14.1191575048
20
17.8298117032
0
VERTEX
8
0
62
7
6
CONTINUOUS
10
14.1201717221
20
17.8316002265
0
VERTEX
8
0
62
7
6
CONTINUOUS
10
14.1210671877
20
17.8334093150
0
VERTEX
8
0
62
7
6
CONTINUOUS
10
14.1218465693
20
17.8352406771
0
VERTEX
8
0
62
7
6
CONTINUOUS
10
14.1225119566
20
17.8370963461
0
VERTEX
8
0
62
7
6
CONTINUOUS
10
14.1230648162
20
17.8389786483
0
VERTEX
8
0
62
7
6
CONTINUOUS
10
14.1235059571
20
17.8408901682
0
VERTEX
8
0
62
7
6
CONTINUOUS
10
14.1238355045
20
17.8428337124
0
VERTEX
8
0
62
7
6
CONTINUOUS
10
14.1240528838
20
17.8448122730
0
VERTEX
8
0
62
7
6
CONTINUOUS
10
14.1241568131
20
17.8468289906
0
VERTEX
8
0
62
7
6
CONTINUOUS
10
14.1241453042
20
17.8488871187
0
VERTEX
8
0
62
7
6
CONTINUOUS
10
14.1240156720
20
17.8509899906
0
VERTEX
8
0
62
7
6
CONTINUOUS
10
14.1237645492
20
17.8531409884
0
VERTEX
8
0
62
7
6
CONTINUOUS
10
14.1234243257
20
17.8550997846
0
VERTEX
8
0
62
7
6
CONTINUOUS
10
14.1229752135
20
17.8570119218
0
VERTEX
8
0
62
7
6
CONTINUOUS
10
14.1224179394
20
17.8588802035
0
VERTEX
8
0
62
7
6
CONTINUOUS
10
14.1217525835
20
17.8607071848
0
VERTEX
8
0
62
7
6
CONTINUOUS
10
14.1209786008
20
17.8624951312
0
VERTEX
8
0
62
7
6
CONTINUOUS
10
14.1200948552
20
17.8642459779
0
VERTEX
8
0
62
7
6
CONTINUOUS
10
14.1190996644
20
17.8659612899
0
VERTEX
8
0
62
7
6
CONTINUOUS
10
14.1179908579
20
17.8676422249
0
VERTEX
8
0
62
7
6
CONTINUOUS
10
14.1167658474
20
17.8692894973
0
VERTEX
8
0
62
7
6
CONTINUOUS
10
14.1154217122
20
17.8709033453
0
VERTEX
8
0
62
7
6
CONTINUOUS
10
14.1139553004
20
17.8724834998
0
VERTEX
8
0
62
7
6
CONTINUOUS
10
14.1123633481
20
17.8740291545
0
VERTEX
8
0
62
7
6
CONTINUOUS
10
14.1106426213
20
17.8755389367
0
VERTEX
8
0
62
7
6
CONTINUOUS
10
14.1087900849
20
17.8770108789
0
VERTEX
8
0
62
7
6
CONTINUOUS
10
14.1068031059
20
17.8784423879
0
VERTEX
8
0
62
7
6
CONTINUOUS
10
14.1046797005
20
17.8798302136
0
VERTEX
8
0
62
7
6
CONTINUOUS
10
14.1024188371
20
17.8811704150
0
VERTEX
8
0
62
7
6
CONTINUOUS
10
14.1000208114
20
17.8824583252
0
VERTEX
8
0
62
7
6
CONTINUOUS
10
14.0974877126
20
17.8836885160
0
VERTEX
8
0
62
7
6
CONTINUOUS
10
14.0948240050
20
17.8848547673
0
VERTEX
8
0
62
7
6
CONTINUOUS
10
14.0920372506
20
17.8859500471
0
VERTEX
8
0
62
7
6
CONTINUOUS
10
14.0891389986
20
17.8869665168
0
VERTEX
8
0
62
7
6
CONTINUOUS
10
14.0861458584
20
17.8878955818
0
VERTEX
8
0
62
7
6
CONTINUOUS
10
14.0830807444
20
17.8887280246
0
VERTEX
8
0
62
7
6
CONTINUOUS
10
14.0799742230
20
17.8894542707
0
VERTEX
8
0
62
7
6
CONTINUOUS
10
14.0786628080
20
17.8897260269
0
VERTEX
8
0
62
7
6
CONTINUOUS
10
14.0752204684
20
17.8903537570
0
VERTEX
8
0
62
7
6
CONTINUOUS
10
14.0717226069
20
17.8908747574
0
VERTEX
8
0
62
7
6
CONTINUOUS
10
14.0681557580
20
17.8912899076
0
VERTEX
8
0
62
7
6
CONTINUOUS
10
14.0645038846
20
17.8915994519
0
VERTEX
8
0
62
7
6
CONTINUOUS
10
14.0607474265
20
17.8918028942
0
VERTEX
8
0
62
7
6
CONTINUOUS
10
14.0568618425
20
17.8918988336
0
VERTEX
8
0
62
7
6
CONTINUOUS
10
14.0528152759
20
17.8918846915
0
VERTEX
8
0
62
7
6
CONTINUOUS
10
14.0485645899
20
17.8917562383
0
VERTEX
8
0
62
7
6
CONTINUOUS
10
14.0440481196
20
17.8915067163
0
VERTEX
8
0
62
7
6
CONTINUOUS
10
14.0391710334
20
17.8911250492
0
VERTEX
8
0
62
7
6
CONTINUOUS
10
14.0337712623
20
17.8905916581
0
VERTEX
8
0
62
7
6
CONTINUOUS
10
14.0275206759
20
17.8898663323
0
VERTEX
8
0
62
7
6
CONTINUOUS
10
14.0194948885
20
17.8888359083
0
VERTEX
8
0
62
7
6
CONTINUOUS
10
14.0170453310
20
17.8885125356
0
SEQEND
0
LINE
8
0
62
7
6
CONTINUOUS
10
13.6051192894
20
17.9158312856
11
13.6301130394
21
17.9185625356
0
LINE
8
0
62
7
6
CONTINUOUS
10
13.8121651227
20
17.8124271190
11
13.8360807477
21
17.8147614940
0
LINE
8
0
62
7
6
CONTINUOUS
10
13.8415182477
20
17.9158312856
11
13.8670567894
21
17.9177739940
0
LINE
8
0
62
7
6
CONTINUOUS
10
13.8029286644
20
17.8877344106
11
13.7474984560
21
17.8850083690
0
POLYLINE
8
0
62
7
6
CONTINUOUS
66
1
70
0
0
VERTEX
8
0
62
7
6
CONTINUOUS
10
15.3608859088
20
17.4847667160
0
VERTEX
8
0
62
7
6
CONTINUOUS
10
15.3627781873
20
17.4848165414
0
VERTEX
8
0
62
7
6
CONTINUOUS
10
15.3643719256
20
17.4849381836
0
VERTEX
8
0
62
7
6
CONTINUOUS
10
15.3657686700
20
17.4851296506
0
VERTEX
8
0
62
7
6
CONTINUOUS
10
15.3670248881
20
17.4853907013
0
VERTEX
8
0
62
7
6
CONTINUOUS
10
15.3681766143
20
17.4857227043
0
VERTEX
8
0
62
7
6
CONTINUOUS
10
15.3692490105
20
17.4861287097
0
VERTEX
8
0
62
7
6
CONTINUOUS
10
15.3702607653
20
17.4866135917
0
VERTEX
8
0
62
7
6
CONTINUOUS
10
15.3712263578
20
17.4871842048
0
VERTEX
8
0
62
7
6
CONTINUOUS
10
15.3721573270
20
17.4878495388
0
VERTEX
8
0
62
7
6
CONTINUOUS
10
15.3726130829
20
17.4882213761
0
VERTEX
8
0
62
7
6
CONTINUOUS
10
15.3730630394
20
17.4886208690
0
VERTEX
8
0
62
7
6
CONTINUOUS
10
15.3738840322
20
17.4894386168
0
VERTEX
8
0
62
7
6
CONTINUOUS
10
15.3746644480
20
17.4903483413
0
VERTEX
8
0
62
7
6
CONTINUOUS
10
15.3753509807
20
17.4912981069
0
VERTEX
8
0
62
7
6
CONTINUOUS
10
15.3759461165
20
17.4922887005
0
VERTEX
8
0
62
7
6
CONTINUOUS
10
15.3764514766
20
17.4933215031
0
VERTEX
8
0
62
7
6
CONTINUOUS
10
15.3768674395
20
17.4943975268
0
VERTEX
8
0
62
7
6
CONTINUOUS
10
15.3771933757
20
17.4955168248
0
VERTEX
8
0
62
7
6
CONTINUOUS
10
15.3774287154
20
17.4966817781
0
VERTEX
8
0
62
7
6
CONTINUOUS
10
15.3775718844
20
17.4978950371
0
VERTEX
8
0
62
7
6
CONTINUOUS
10
15.3776203310
20
17.4991594106
0
VERTEX
8
0
62
7
6
CONTINUOUS
10
15.3775713648
20
17.5004108564
0
VERTEX
8
0
62
7
6
CONTINUOUS
10
15.3774253286
20
17.5016424625
0
VERTEX
8
0
62
7
6
CONTINUOUS
10
15.3771838704
20
17.5028475151
0
VERTEX
8
0
62
7
6
CONTINUOUS
10
15.3768492353
20
17.5040187312
0
VERTEX
8
0
62
7
6
CONTINUOUS
10
15.3764244031
20
17.5051483907
0
VERTEX
8
0
62
7
6
CONTINUOUS
10
15.3759131841
20
17.5062285308
0
VERTEX
8
0
62
7
6
CONTINUOUS
10
15.3753332396
20
17.5072307853
0
VERTEX
8
0
62
7
6
CONTINUOUS
10
15.3746676400
20
17.5081870312
0
VERTEX
8
0
62
7
6
CONTINUOUS
10
15.3739339875
20
17.5090696887
0
VERTEX
8
0
62
7
6
CONTINUOUS
10
15.3731391709
20
17.5098731302
0
VERTEX
8
0
62
7
6
CONTINUOUS
10
15.3722901227
20
17.5105927440
0
VERTEX
8
0
62
7
6
CONTINUOUS
10
15.3714635325
20
17.5111716784
0
VERTEX
8
0
62
7
6
CONTINUOUS
10
15.3705659332
20
17.5116825459
0
VERTEX
8
0
62
7
6
CONTINUOUS
10
15.3695897826
20
17.5121272687
0
VERTEX
8
0
62
7
6
CONTINUOUS
10
15.3685254192
20
17.5125066262
0
VERTEX
8
0
62
7
6
CONTINUOUS
10
15.3673602801
20
17.5128204431
0
VERTEX
8
0
62
7
6
CONTINUOUS
10
15.3660771589
20
17.5130678817
0
VERTEX
8
0
62
7
6
CONTINUOUS
10
15.3646500476
20
17.5132479079
0
VERTEX
8
0
62
7
6
CONTINUOUS
10
15.3630325943
20
17.5133601798
0
VERTEX
8
0
62
7
6
CONTINUOUS
10
15.3611152501
20
17.5134075686
0
VERTEX
8
0
62
7
6
CONTINUOUS
10
15.3597672060
20
17.5134114940
0
VERTEX
8
0
62
7
6
CONTINUOUS
10
15.3526974144
20
17.5134114940
0
SEQEND
0
POLYLINE
8
0
62
7
6
CONTINUOUS
66
1
70
0
0
VERTEX
8
0
62
7
6
CONTINUOUS
10
15.2968609560
20
17.8939698273
0
VERTEX
8
0
62
7
6
CONTINUOUS
10
15.2894620617
20
17.8938677508
0
VERTEX
8
0
62
7
6
CONTINUOUS
10
15.2814221899
20
17.8935200233
0
VERTEX
8
0
62
7
6
CONTINUOUS
10
15.2735474604
20
17.8929309120
0
VERTEX
8
0
62
7
6
CONTINUOUS
10
15.2658518017
20
17.8921065613
0
VERTEX
8
0
62
7
6
CONTINUOUS
10
15.2583484168
20
17.8910537967
0
VERTEX
8
0
62
7
6
CONTINUOUS
10
15.2510496490
20
17.8897800686
0
VERTEX
8
0
62
7
6
CONTINUOUS
10
15.2439668603
20
17.8882933821
0
VERTEX
8
0
62
7
6
CONTINUOUS
10
15.2371103289
20
17.8866022136
0
VERTEX
8
0
62
7
6
CONTINUOUS
10
15.2304891663
20
17.8847154164
0
VERTEX
8
0
62
7
6
CONTINUOUS
10
15.2241112583
20
17.8826421176
0
VERTEX
8
0
62
7
6
CONTINUOUS
10
15.2179832313
20
17.8803916088
0
VERTEX
8
0
62
7
6
CONTINUOUS
10
15.2121104440
20
17.8779732339
0
VERTEX
8
0
62
7
6
CONTINUOUS
10
15.2064970054
20
17.8753962758
0
VERTEX
8
0
62
7
6
CONTINUOUS
10
15.2011458171
20
17.8726698456
0
VERTEX
8
0
62
7
6
CONTINUOUS
10
15.1960586389
20
17.8698027766
0
VERTEX
8
0
62
7
6
CONTINUOUS
10
15.1912361754
20
17.8668035247
0
VERTEX
8
0
62
7
6
CONTINUOUS
10
15.1866781801
20
17.8636800780
0
VERTEX
8
0
62
7
6
CONTINUOUS
10
15.1823835753
20
17.8604398766
0
VERTEX
8
0
62
7
6
CONTINUOUS
10
15.1783505835
20
17.8570897438
0
VERTEX
8
0
62
7
6
CONTINUOUS
10
15.1745768674
20
17.8536358305
0
VERTEX
8
0
62
7
6
CONTINUOUS
10
15.1710596760
20
17.8500835714
0
VERTEX
8
0
62
7
6
CONTINUOUS
10
15.1677959929
20
17.8464376561
0
VERTEX
8
0
62
7
6
CONTINUOUS
10
15.1647826841
20
17.8427020125
0
VERTEX
8
0
62
7
6
CONTINUOUS
10
15.1620166430
20
17.8388798046
0
VERTEX
8
0
62
7
6
CONTINUOUS
10
15.1594949303
20
17.8349734430
0
VERTEX
8
0
62
7
6
CONTINUOUS
10
15.1572149047
20
17.8309846075
0
VERTEX
8
0
62
7
6
CONTINUOUS
10
15.1551743448
20
17.8269142819
0
VERTEX
8
0
62
7
6
CONTINUOUS
10
15.1533715586
20
17.8227627994
0
VERTEX
8
0
62
7
6
CONTINUOUS
10
15.1518054794
20
17.8185298966
0
VERTEX
8
0
62
7
6
CONTINUOUS
10
15.1504757474
20
17.8142147756
0
VERTEX
8
0
62
7
6
CONTINUOUS
10
15.1493827759
20
17.8098161725
0
VERTEX
8
0
62
7
6
CONTINUOUS
10
15.1485278006
20
17.8053324288
0
VERTEX
8
0
62
7
6
CONTINUOUS
10
15.1479129146
20
17.8007615665
0
VERTEX
8
0
62
7
6
CONTINUOUS
10
15.1475410864
20
17.7961013617
0
VERTEX
8
0
62
7
6
CONTINUOUS
10
15.1474474867
20
17.7937369851
0
VERTEX
8
0
62
7
6
CONTINUOUS
10
15.1474161644
20
17.7913500356
0
VERTEX
8
0
62
7
6
CONTINUOUS
10
15.1475410660
20
17.7867523937
0
VERTEX
8
0
62
7
6
CONTINUOUS
10
15.1479145371
20
17.7821951531
0
VERTEX
8
0
62
7
6
CONTINUOUS
10
15.1485352957
20
17.7776780214
0
VERTEX
8
0
62
7
6
CONTINUOUS
10
15.1494027877
20
17.7732010278
0
VERTEX
8
0
62
7
6
CONTINUOUS
10
15.1505171334
20
17.7687646012
0
VERTEX
8
0
62
7
6
CONTINUOUS
10
15.1518790587
20
17.7643696470
0
VERTEX
8
0
62
7
6
CONTINUOUS
10
15.1534898104
20
17.7600176190
0
VERTEX
8
0
62
7
6
CONTINUOUS
10
15.1553510550
20
17.7557105856
0
VERTEX
8
0
62
7
6
CONTINUOUS
10
15.1574647648
20
17.7514512870
0
VERTEX
8
0
62
7
6
CONTINUOUS
10
15.1598330897
20
17.7472431835
0
VERTEX
8
0
62
7
6
CONTINUOUS
10
15.1624582203
20
17.7430904914
0
VERTEX
8
0
62
7
6
CONTINUOUS
10
15.1653422407
20
17.7389982058
0
VERTEX
8
0
62
7
6
CONTINUOUS
10
15.1684869779
20
17.7349721090
0
VERTEX
8
0
62
7
6
CONTINUOUS
10
15.1718938476
20
17.7310187628
0
VERTEX
8
0
62
7
6
CONTINUOUS
10
15.1755637027
20
17.7271454854
0
VERTEX
8
0
62
7
6
CONTINUOUS
10
15.1794966863
20
17.7233603102
0
VERTEX
8
0
62
7
6
CONTINUOUS
10
15.1836920944
20
17.7196719283
0
VERTEX
8
0
62
7
6
CONTINUOUS
10
15.1881482529
20
17.7160896146
0
VERTEX
8
0
62
7
6
CONTINUOUS
10
15.1928624116
20
17.7126231384
0
VERTEX
8
0
62
7
6
CONTINUOUS
10
15.1978306603
20
17.7092826595
0
VERTEX
8
0
62
7
6
CONTINUOUS
10
15.2030478699
20
17.7060786139
0
VERTEX
8
0
62
7
6
CONTINUOUS
10
15.2085076615
20
17.7030215895
0
VERTEX
8
0
62
7
6
CONTINUOUS
10
15.2142024046
20
17.7001221971
0
VERTEX
8
0
62
7
6
CONTINUOUS
10
15.2201232459
20
17.6973909388
0
VERTEX
8
0
62
7
6
CONTINUOUS
10
15.2262601676
20
17.6948380796
0
VERTEX
8
0
62
7
6
CONTINUOUS
10
15.2326020734
20
17.6924735242
0
VERTEX
8
0
62
7
6
CONTINUOUS
10
15.2391368995
20
17.6903067043
0
VERTEX
8
0
62
7
6
CONTINUOUS
10
15.2458517461
20
17.6883464786
0
VERTEX
8
0
62
7
6
CONTINUOUS
10
15.2527330249
20
17.6866010492
0
VERTEX
8
0
62
7
6
CONTINUOUS
10
15.2584828724
20
17.6853368042
0
VERTEX
8
0
62
7
6
CONTINUOUS
10
15.2656241454
20
17.6840017915
0
VERTEX
8
0
62
7
6
CONTINUOUS
10
15.2728854315
20
17.6829010058
0
VERTEX
8
0
62
7
6
CONTINUOUS
10
15.2802521294
20
17.6820391039
0
VERTEX
8
0
62
7
6
CONTINUOUS
10
15.2877098260
20
17.6814199706
0
VERTEX
8
0
62
7
6
CONTINUOUS
10
15.2952444161
20
17.6810467540
0
VERTEX
8
0
62
7
6
CONTINUOUS
10
15.3028422060
20
17.6809219106
0
VERTEX
8
0
62
7
6
CONTINUOUS
10
15.3120332510
20
17.6810269947
0
VERTEX
8
0
62
7
6
CONTINUOUS
10
15.3220317985
20
17.6813797311
0
VERTEX
8
0
62
7
6
CONTINUOUS
10
15.3319442051
20
17.6819768155
0
VERTEX
8
0
62
7
6
CONTINUOUS
10
15.3417107581
20
17.6828114790
0
VERTEX
8
0
62
7
6
CONTINUOUS
10
15.3512790609
20
17.6838748465
0
VERTEX
8
0
62
7
6
CONTINUOUS
10
15.3606043217
20
17.6851564383
0
VERTEX
8
0
62
7
6
CONTINUOUS
10
15.3696492813
20
17.6866446392
0
VERTEX
8
0
62
7
6
CONTINUOUS
10
15.3783838727
20
17.6883271190
0
SEQEND
0
LINE
8
0
62
7
6
CONTINUOUS
10
15.0056828310
20
17.4265781606
11
14.9541682477
21
17.4265781606
0
LINE
8
0
62
7
6
CONTINUOUS
10
14.9474755394
20
17.4265781606
11
14.8937942894
21
17.4265781606
0
LINE
8
0
62
7
6
CONTINUOUS
10
15.0371057477
20
17.4266396190
11
15.0123661644
21
17.4266396190
0
LINE
8
0
62
7
6
CONTINUOUS
10
15.3526974144
20
17.4439125356
11
15.3466047060
21
17.4439125356
0
LINE
8
0
62
7
6
CONTINUOUS
10
15.2521526227
20
17.4439125356
11
15.2581234560
21
17.4439125356
0
LINE
8
0
62
7
6
CONTINUOUS
10
15.3340922060
20
17.4439125356
11
15.3400130394
21
17.4439125356
0
LINE
8
0
62
7
6
CONTINUOUS
10
15.4391442894
20
17.4439125356
11
15.4452172060
21
17.4439125356
0
LINE
8
0
62
7
6
CONTINUOUS
10
15.5361494977
20
17.4439125356
11
15.5422422060
21
17.4439125356
0
LINE
8
0
62
7
6
CONTINUOUS
10
14.5591744977
20
17.4739823273
11
14.5860151227
21
17.4739823273
0
LINE
8
0
62
7
6
CONTINUOUS
10
15.3897057477
20
17.4739823273
11
15.4165505394
21
17.4739823273
0
LINE
8
0
62
7
6
CONTINUOUS
10
15.3603369977
20
17.4789771190
11
15.3526974144
21
17.4789771190
0
POLYLINE
8
0
62
7
6
CONTINUOUS
66
1
70
0
0
VERTEX
8
0
62
7
6
CONTINUOUS
10
15.0370651227
20
17.4798521190
0
VERTEX
8
0
62
7
6
CONTINUOUS
10
15.0442265810
20
17.4798521190
0
VERTEX
8
0
62
7
6
CONTINUOUS
10
15.0451531133
20
17.4799001039
0
VERTEX
8
0
62
7
6
CONTINUOUS
10
15.0460648789
20
17.4800433399
0
VERTEX
8
0
62
7
6
CONTINUOUS
10
15.0469556775
20
17.4802805439
0
VERTEX
8
0
62
7
6
CONTINUOUS
10
15.0478182713
20
17.4806098843
0
VERTEX
8
0
62
7
6
CONTINUOUS
10
15.0486444712
20
17.4810286364
0
VERTEX
8
0
62
7
6
CONTINUOUS
10
15.0494253664
20
17.4815328883
0
VERTEX
8
0
62
7
6
CONTINUOUS
10
15.0501516947
20
17.4821173595
0
VERTEX
8
0
62
7
6
CONTINUOUS
10
15.0501866778
20
17.4821488143
0
VERTEX
8
0
62
7
6
CONTINUOUS
10
15.0508451561
20
17.4828095711
0
VERTEX
8
0
62
7
6
CONTINUOUS
10
15.0514293153
20
17.4835329039
0
VERTEX
8
0
62
7
6
CONTINUOUS
10
15.0519327851
20
17.4843098722
0
VERTEX
8
0
62
7
6
CONTINUOUS
10
15.0523506052
20
17.4851316177
0
VERTEX
8
0
62
7
6
CONTINUOUS
10
15.0526791341
20
17.4859897924
0
VERTEX
8
0
62
7
6
CONTINUOUS
10
15.0529158106
20
17.4868768660
0
VERTEX
8
0
62
7
6
CONTINUOUS
10
15.0530588289
20
17.4877862913
0
VERTEX
8
0
62
7
6
CONTINUOUS
10
15.0531067894
20
17.4887125356
0
VERTEX
8
0
62
7
6
CONTINUOUS
10
15.0530588289
20
17.4896450171
0
VERTEX
8
0
62
7
6
CONTINUOUS
10
15.0529157135
20
17.4905620537
0
VERTEX
8
0
62
7
6
CONTINUOUS
10
15.0526787537
20
17.4914577620
0
VERTEX
8
0
62
7
6
CONTINUOUS
10
15.0523497524
20
17.4923252017
0
VERTEX
8
0
62
7
6
CONTINUOUS
10
15.0519313611
20
17.4931564305
0
VERTEX
8
0
62
7
6
CONTINUOUS
10
15.0514274006
20
17.4939427011
0
VERTEX
8
0
62
7
6
CONTINUOUS
10
15.0508430809
20
17.4946748062
0
VERTEX
8
0
62
7
6
CONTINUOUS
10
15.0507852699
20
17.4947393785
0
VERTEX
8
0
62
7
6
CONTINUOUS
10
15.0501209744
20
17.4954016754
0
VERTEX
8
0
62
7
6
CONTINUOUS
10
15.0493944631
20
17.4959892319
0
VERTEX
8
0
62
7
6
CONTINUOUS
10
15.0486150377
20
17.4964955109
0
VERTEX
8
0
62
7
6
CONTINUOUS
10
15.0477919935
20
17.4969154389
0
VERTEX
8
0
62
7
6
CONTINUOUS
10
15.0469341506
20
17.4972453481
0
VERTEX
8
0
62
7
6
CONTINUOUS
10
15.0460495029
20
17.4974827522
0
VERTEX
8
0
62
7
6
CONTINUOUS
10
15.0451450176
20
17.4976260170
0
VERTEX
8
0
62
7
6
CONTINUOUS
10
15.0442265810
20
17.4976739940
0
VERTEX
8
0
62
7
6
CONTINUOUS
10
15.0370651227
20
17.4976739940
0
SEQEND
0
LINE
8
0
62
7
6
CONTINUOUS
10
15.3526974144
20
17.4847656606
11
15.3608859088
21
17.4847667160
0
LINE
8
0
62
7
6
CONTINUOUS
10
14.9541682477
20
17.5191073273
11
15.0054890810
21
17.5191073273
0
POLYLINE
8
0
62
7
6
CONTINUOUS
66
1
70
0
0
VERTEX
8
0
62
7
6
CONTINUOUS
10
15.0123661644
20
17.5191073273
0
VERTEX
8
0
62
7
6
CONTINUOUS
10
15.0440734560
20
17.5191073273
0
VERTEX
8
0
62
7
6
CONTINUOUS
10
15.0455565564
20
17.5190740936
0
VERTEX
8
0
62
7
6
CONTINUOUS
10
15.0470280973
20
17.5189747015
0
VERTEX
8
0
62
7
6
CONTINUOUS
10
15.0484866666
20
17.5188096118
0
VERTEX
8
0
62
7
6
CONTINUOUS
10
15.0499307102
20
17.5185792970
0
VERTEX
8
0
62
7
6
CONTINUOUS
10
15.0513585233
20
17.5182842629
0
VERTEX
8
0
62
7
6
CONTINUOUS
10
15.0527682448
20
17.5179250709
0
VERTEX
8
0
62
7
6
CONTINUOUS
10
15.0541578535
20
17.5175023624
0
VERTEX
8
0
62
7
6
CONTINUOUS
10
15.0555251691
20
17.5170168834
0
VERTEX
8
0
62
7
6
CONTINUOUS
10
15.0568678559
20
17.5164695102
0
VERTEX
8
0
62
7
6
CONTINUOUS
10
15.0581834318
20
17.5158612738
0
VERTEX
8
0
62
7
6
CONTINUOUS
10
15.0594692818
20
17.5151933827
0
VERTEX
8
0
62
7
6
CONTINUOUS
10
15.0607226761
20
17.5144672437
0
VERTEX
8
0
62
7
6
CONTINUOUS
10
15.0619407939
20
17.5136844787
0
VERTEX
8
0
62
7
6
CONTINUOUS
10
15.0631207516
20
17.5128469370
0
VERTEX
8
0
62
7
6
CONTINUOUS
10
15.0642596346
20
17.5119567018
0
VERTEX
8
0
62
7
6
CONTINUOUS
10
15.0653545336
20
17.5110160908
0
VERTEX
8
0
62
7
6
CONTINUOUS
10
15.0664025823
20
17.5100276486
0
VERTEX
8
0
62
7
6
CONTINUOUS
10
15.0674009963
20
17.5089941332
0
VERTEX
8
0
62
7
6
CONTINUOUS
10
15.0682738433
20
17.5080055067
0
VERTEX
8
0
62
7
6
CONTINUOUS
10
15.0691685296
20
17.5068952331
0
VERTEX
8
0
62
7
6
CONTINUOUS
10
15.0700057296
20
17.5057499909
0
VERTEX
8
0
62
7
6
CONTINUOUS
10
15.0707834973
20
17.5045731433
0
VERTEX
8
0
62
7
6
CONTINUOUS
10
15.0715001308
20
17.5033680712
0
VERTEX
8
0
62
7
6
CONTINUOUS
10
15.0721541777
20
17.5021381314
0
VERTEX
8
0
62
7
6
CONTINUOUS
10
15.0727444340
20
17.5008866171
0
VERTEX
8
0
62
7
6
CONTINUOUS
10
15.0732699351
20
17.4996167222
0
VERTEX
8
0
62
7
6
CONTINUOUS
10
15.0737299399
20
17.4983315097
0
VERTEX
8
0
62
7
6
CONTINUOUS
10
15.0741239104
20
17.4970338862
0
VERTEX
8
0
62
7
6
CONTINUOUS
10
15.0744514859
20
17.4957265816
0
VERTEX
8
0
62
7
6
CONTINUOUS
10
15.0747124543
20
17.4944121357
0
VERTEX
8
0
62
7
6
CONTINUOUS
10
15.0749067217
20
17.4930928905
0
VERTEX
8
0
62
7
6
CONTINUOUS
10
15.0750342812
20
17.4917709883
0
VERTEX
8
0
62
7
6
CONTINUOUS
10
15.0750951815
20
17.4904483747
0
VERTEX
8
0
62
7
6
CONTINUOUS
10
15.0750894972
20
17.4891268063
0
VERTEX
8
0
62
7
6
CONTINUOUS
10
15.0750173014
20
17.4878078625
0
VERTEX
8
0
62
7
6
CONTINUOUS
10
15.0748786394
20
17.4864929597
0
VERTEX
8
0
62
7
6
CONTINUOUS
10
15.0746735070
20
17.4851833680
0
VERTEX
8
0
62
7
6
CONTINUOUS
10
15.0744018309
20
17.4838802295
0
VERTEX
8
0
62
7
6
CONTINUOUS
10
15.0740634524
20
17.4825845777
0
VERTEX
8
0
62
7
6
CONTINUOUS
10
15.0736581152
20
17.4812973566
0
VERTEX
8
0
62
7
6
CONTINUOUS
10
15.0731854550
20
17.4800194400
0
VERTEX
8
0
62
7
6
CONTINUOUS
10
15.0726449935
20
17.4787516503
0
VERTEX
8
0
62
7
6
CONTINUOUS
10
15.0720361343
20
17.4774947756
0
VERTEX
8
0
62
7
6
CONTINUOUS
10
15.0713581611
20
17.4762495866
0
VERTEX
8
0
62
7
6
CONTINUOUS
10
15.0706102388
20
17.4750168510
0
VERTEX
8
0
62
7
6
CONTINUOUS
10
15.0697914159
20
17.4737973467
0
VERTEX
8
0
62
7
6
CONTINUOUS
10
15.0689006282
20
17.4725918740
0
VERTEX
8
0
62
7
6
CONTINUOUS
10
15.0679367045
20
17.4714012648
0
VERTEX
8
0
62
7
6
CONTINUOUS
10
15.0668983724
20
17.4702263914
0
VERTEX
8
0
62
7
6
CONTINUOUS
10
15.0657842651
20
17.4690681731
0
VERTEX
8
0
62
7
6
CONTINUOUS
10
15.0645929287
20
17.4679275817
0
VERTEX
8
0
62
7
6
CONTINUOUS
10
15.0633230824
20
17.4668058597
0
VERTEX
8
0
62
7
6
CONTINUOUS
10
15.0619733479
20
17.4657042247
0
VERTEX
8
0
62
7
6
CONTINUOUS
10
15.0605420933
20
17.4646237723
0
VERTEX
8
0
62
7
6
CONTINUOUS
10
15.0590276227
20
17.4635656606
0
SEQEND
0
LINE
8
0
62
7
6
CONTINUOUS
10
15.5673682477
20
17.5192094106
11
15.5609807477
21
17.5192094106
0
LINE
8
0
62
7
6
CONTINUOUS
10
15.5179911644
20
17.5192094106
11
15.5110328310
21
17.5192094106
0
LINE
8
0
62
7
6
CONTINUOUS
10
15.5072797060
20
17.5192094106
11
15.5012067894
21
17.5192094106
0
LINE
8
0
62
7
6
CONTINUOUS
10
15.3466047060
20
17.5192094106
11
15.3603369977
21
17.5192094106
0
LINE
8
0
62
7
6
CONTINUOUS
10
15.5699828310
20
17.5401750356
11
12.9590817894
21
17.5401750356
0
POLYLINE
8
0
62
7
6
CONTINUOUS
66
1
70
0
0
VERTEX
8
0
62
7
6
CONTINUOUS
10
12.9606744977
20
17.5570917023
0
VERTEX
8
0
62
7
6
CONTINUOUS
10
15.5665244977
20
17.5570917023
0
VERTEX
8
0
62
7
6
CONTINUOUS
10
15.5665244977
20
18.0177500356
0
SEQEND
0
POLYLINE
8
0
62
7
6
CONTINUOUS
66
1
70
0
0
VERTEX
8
0
62
7
6
CONTINUOUS
10
12.9712838727
20
17.5715271190
0
VERTEX
8
0
62
7
6
CONTINUOUS
10
15.5548057477
20
17.5715271190
0
VERTEX
8
0
62
7
6
CONTINUOUS
10
15.5548057477
20
18.0049833690
0
SEQEND
0
POLYLINE
8
0
62
7
6
CONTINUOUS
66
1
70
0
0
VERTEX
8
0
62
7
6
CONTINUOUS
10
15.5272994977
20
17.5963167023
0
VERTEX
8
0
62
7
6
CONTINUOUS
10
12.9999192894
20
17.5963167023
0
VERTEX
8
0
62
7
6
CONTINUOUS
10
12.9999192894
20
17.9785187856
0
SEQEND
0
POLYLINE
8
0
62
7
6
CONTINUOUS
66
1
70
0
0
VERTEX
8
0
62
7
6
CONTINUOUS
10
15.5222536644
20
17.6013521190
0
VERTEX
8
0
62
7
6
CONTINUOUS
10
13.0049547060
20
17.6013521190
0
VERTEX
8
0
62
7
6
CONTINUOUS
10
13.0049547060
20
17.9734833690
0
SEQEND
0
LINE
8
0
62
7
6
CONTINUOUS
10
14.8023182477
20
17.6590614940
11
14.7061317894
21
17.6590614940
0
LINE
8
0
62
7
6
CONTINUOUS
10
14.6485349144
20
17.6590614940
11
14.5452692894
21
17.6590614940
0
LINE
8
0
62
7
6
CONTINUOUS
10
14.4947474144
20
17.6590614940
11
14.2713786644
21
17.6590614940
0
LINE
8
0
62
7
6
CONTINUOUS
10
14.2594307477
20
17.6590614940
11
14.2094276227
21
17.6590614940
0
LINE
8
0
62
7
6
CONTINUOUS
10
14.0414994977
20
17.6590614940
11
13.9376994977
21
17.6590614940
0
LINE
8
0
62
7
6
CONTINUOUS
10
13.8942276227
20
17.6590614940
11
13.6676088727
21
17.6590614940
0
LINE
8
0
62
7
6
CONTINUOUS
10
13.5453349144
20
17.6590614940
11
13.4377349144
21
17.6590614940
0
LINE
8
0
62
7
6
CONTINUOUS
10
15.4598651227
20
17.6630281606
11
15.4565088727
21
17.6630281606
0
LINE
8
0
62
7
6
CONTINUOUS
10
15.4716963727
20
17.6630281606
11
15.4681765810
21
17.6630281606
0
POLYLINE
8
0
62
7
6
CONTINUOUS
66
1
70
0
0
VERTEX
8
0
62
7
6
CONTINUOUS
10
15.4598651227
20
17.6747010773
0
VERTEX
8
0
62
7
6
CONTINUOUS
10
15.4622963727
20
17.6747010773
0
VERTEX
8
0
62
7
6
CONTINUOUS
10
15.4625209067
20
17.6747033030
0
VERTEX
8
0
62
7
6
CONTINUOUS
10
15.4628179334
20
17.6747133250
0
VERTEX
8
0
62
7
6
CONTINUOUS
10
15.4631053870
20
17.6747311577
0
VERTEX
8
0
62
7
6
CONTINUOUS
10
15.4633829147
20
17.6747565083
0
VERTEX
8
0
62
7
6
CONTINUOUS
10
15.4636502608
20
17.6747890713
0
VERTEX
8
0
62
7
6
CONTINUOUS
10
15.4639072576
20
17.6748285348
0
VERTEX
8
0
62
7
6
CONTINUOUS
10
15.4641538160
20
17.6748745861
0
VERTEX
8
0
62
7
6
CONTINUOUS
10
15.4643899163
20
17.6749269163
0
VERTEX
8
0
62
7
6
CONTINUOUS
10
15.4646155994
20
17.6749852244
0
VERTEX
8
0
62
7
6
CONTINUOUS
10
15.4648309579
20
17.6750492213
0
VERTEX
8
0
62
7
6
CONTINUOUS
10
15.4650361280
20
17.6751186332
0
VERTEX
8
0
62
7
6
CONTINUOUS
10
15.4652312818
20
17.6751932040
0
VERTEX
8
0
62
7
6
CONTINUOUS
10
15.4654166198
20
17.6752726981
0
VERTEX
8
0
62
7
6
CONTINUOUS
10
15.4655923642
20
17.6753569027
0
VERTEX
8
0
62
7
6
CONTINUOUS
10
15.4657587526
20
17.6754456292
0
VERTEX
8
0
62
7
6
CONTINUOUS
10
15.4659160321
20
17.6755387150
0
VERTEX
8
0
62
7
6
CONTINUOUS
10
15.4660644535
20
17.6756360245
0
VERTEX
8
0
62
7
6
CONTINUOUS
10
15.4662042666
20
17.6757374505
0
VERTEX
8
0
62
7
6
CONTINUOUS
10
15.4663357148
20
17.6758429144
0
VERTEX
8
0
62
7
6
CONTINUOUS
10
15.4664590309
20
17.6759523669
0
VERTEX
8
0
62
7
6
CONTINUOUS
10
15.4665744331
20
17.6760657881
0
VERTEX
8
0
62
7
6
CONTINUOUS
10
15.4666821207
20
17.6761831871
0
VERTEX
8
0
62
7
6
CONTINUOUS
10
15.4667822707
20
17.6763046017
0
VERTEX
8
0
62
7
6
CONTINUOUS
10
15.4668750348
20
17.6764300975
0
VERTEX
8
0
62
7
6
CONTINUOUS
10
15.4669605363
20
17.6765597671
0
VERTEX
8
0
62
7
6
CONTINUOUS
10
15.4670388678
20
17.6766937285
0
VERTEX
8
0
62
7
6
CONTINUOUS
10
15.4671100891
20
17.6768321234
0
VERTEX
8
0
62
7
6
CONTINUOUS
10
15.4671742257
20
17.6769751160
0
VERTEX
8
0
62
7
6
CONTINUOUS
10
15.4672312675
20
17.6771228904
0
VERTEX
8
0
62
7
6
CONTINUOUS
10
15.4672811683
20
17.6772756492
0
VERTEX
8
0
62
7
6
CONTINUOUS
10
15.4673238454
20
17.6774336112
0
VERTEX
8
0
62
7
6
CONTINUOUS
10
15.4673591523
20
17.6775968671
0
VERTEX
8
0
62
7
6
CONTINUOUS
10
15.4673869483
20
17.6777656121
0
VERTEX
8
0
62
7
6
CONTINUOUS
10
15.4674070694
20
17.6779400960
0
VERTEX
8
0
62
7
6
CONTINUOUS
10
15.4674193164
20
17.6781205786
0
VERTEX
8
0
62
7
6
CONTINUOUS
10
15.4674234560
20
17.6783073273
0
VERTEX
8
0
62
7
6
CONTINUOUS
10
15.4674201736
20
17.6784652797
0
VERTEX
8
0
62
7
6
CONTINUOUS
10
15.4674087494
20
17.6786399334
0
VERTEX
8
0
62
7
6
CONTINUOUS
10
15.4673892675
20
17.6788115516
0
VERTEX
8
0
62
7
6
CONTINUOUS
10
15.4673618661
20
17.6789798705
0
VERTEX
8
0
62
7
6
CONTINUOUS
10
15.4673266826
20
17.6791446752
0
VERTEX
8
0
62
7
6
CONTINUOUS
10
15.4672838471
20
17.6793057938
0
VERTEX
8
0
62
7
6
CONTINUOUS
10
15.4672334786
20
17.6794630908
0
VERTEX
8
0
62
7
6
CONTINUOUS
10
15.4671756803
20
17.6796164619
0
VERTEX
8
0
62
7
6
CONTINUOUS
10
15.4671105364
20
17.6797658273
0
VERTEX
8
0
62
7
6
CONTINUOUS
10
15.4670381101
20
17.6799111266
0
VERTEX
8
0
62
7
6
CONTINUOUS
10
15.4669584415
20
17.6800523132
0
VERTEX
8
0
62
7
6
CONTINUOUS
10
15.4668715465
20
17.6801893495
0
VERTEX
8
0
62
7
6
CONTINUOUS
10
15.4667774161
20
17.6803222025
0
VERTEX
8
0
62
7
6
CONTINUOUS
10
15.4666760162
20
17.6804508394
0
VERTEX
8
0
62
7
6
CONTINUOUS
10
15.4665672880
20
17.6805752244
0
VERTEX
8
0
62
7
6
CONTINUOUS
10
15.4664511487
20
17.6806953153
0
VERTEX
8
0
62
7
6
CONTINUOUS
10
15.4663274923
20
17.6808110609
0
VERTEX
8
0
62
7
6
CONTINUOUS
10
15.4661961907
20
17.6809223988
0
VERTEX
8
0
62
7
6
CONTINUOUS
10
15.4660570953
20
17.6810292537
0
VERTEX
8
0
62
7
6
CONTINUOUS
10
15.4659100383
20
17.6811315355
0
VERTEX
8
0
62
7
6
CONTINUOUS
10
15.4657548340
20
17.6812291390
0
VERTEX
8
0
62
7
6
CONTINUOUS
10
15.4655912810
20
17.6813219425
0
VERTEX
8
0
62
7
6
CONTINUOUS
10
15.4654191630
20
17.6814098077
0
VERTEX
8
0
62
7
6
CONTINUOUS
10
15.4652383024
20
17.6814925573
0
VERTEX
8
0
62
7
6
CONTINUOUS
10
15.4650485210
20
17.6815700028
0
VERTEX
8
0
62
7
6
CONTINUOUS
10
15.4648495732
20
17.6816419688
0
VERTEX
8
0
62
7
6
CONTINUOUS
10
15.4646412037
20
17.6817082634
0
VERTEX
8
0
62
7
6
CONTINUOUS
10
15.4644231484
20
17.6817686781
0
VERTEX
8
0
62
7
6
CONTINUOUS
10
15.4641951362
20
17.6818229890
0
VERTEX
8
0
62
7
6
CONTINUOUS
10
15.4639568895
20
17.6818709570
0
VERTEX
8
0
62
7
6
CONTINUOUS
10
15.4637081254
20
17.6819123286
0
VERTEX
8
0
62
7
6
CONTINUOUS
10
15.4634485566
20
17.6819468366
0
VERTEX
8
0
62
7
6
CONTINUOUS
10
15.4631778921
20
17.6819742009
0
VERTEX
8
0
62
7
6
CONTINUOUS
10
15.4628958378
20
17.6819941292
0
VERTEX
8
0
62
7
6
CONTINUOUS
10
15.4626020975
20
17.6820063178
0
VERTEX
8
0
62
7
6
CONTINUOUS
10
15.4622963727
20
17.6820104523
0
VERTEX
8
0
62
7
6
CONTINUOUS
10
15.4619076245
20
17.6820064297
0
VERTEX
8
0
62
7
6
CONTINUOUS
10
15.4615371492
20
17.6819946428
0
VERTEX
8
0
62
7
6
CONTINUOUS
10
15.4611821597
20
17.6819754435
0
VERTEX
8
0
62
7
6
CONTINUOUS
10
15.4608389926
20
17.6819490446
0
VERTEX
8
0
62
7
6
CONTINUOUS
10
15.4605022169
20
17.6819154017
0
VERTEX
8
0
62
7
6
CONTINUOUS
10
15.4601621835
20
17.6818738893
0
VERTEX
8
0
62
7
6
CONTINUOUS
10
15.4598651227
20
17.6818323273
0
SEQEND
0
LINE
8
0
62
7
6
CONTINUOUS
10
13.9170547060
20
17.7101885773
11
13.9186817894
21
17.7101885773
0
LINE
8
0
62
7
6
CONTINUOUS
10
14.5213682477
20
17.7109510773
11
14.5229963727
21
17.7109510773
0
LINE
8
0
62
7
6
CONTINUOUS
10
13.8377140810
20
17.7734052440
11
13.8360807477
21
17.7734052440
0
LINE
8
0
62
7
6
CONTINUOUS
10
15.3533890810
20
17.7897781606
11
15.4365297060
21
17.7897781606
0
LINE
8
0
62
7
6
CONTINUOUS
10
13.7474984560
20
17.8124271190
11
13.8121651227
21
17.8124271190
0
LINE
8
0
62
7
6
CONTINUOUS
10
13.8360807477
20
17.8147614940
11
13.8377140810
21
17.8147614940
0
LINE
8
0
62
7
6
CONTINUOUS
10
15.3952286644
20
17.8705583690
11
15.3936015810
21
17.8705583690
0
LINE
8
0
62
7
6
CONTINUOUS
10
13.8686890810
20
17.8721146190
11
13.8670567894
21
17.8721146190
0
LINE
8
0
62
7
6
CONTINUOUS
10
13.6143557477
20
17.8721146190
11
13.6127224144
21
17.8721146190
0
LINE
8
0
62
7
6
CONTINUOUS
10
13.3491474144
20
17.8721146190
11
13.3475151227
21
17.8721146190
0
LINE
8
0
62
7
6
CONTINUOUS
10
13.4616349144
20
17.8877344106
11
13.4138140810
21
17.8877344106
0
LINE
8
0
62
7
6
CONTINUOUS
10
13.3888255394
20
17.9158312856
11
13.6051192894
21
17.9158312856
0
LINE
8
0
62
7
6
CONTINUOUS
10
13.6676088727
20
17.9158312856
11
13.8415182477
21
17.9158312856
0
POLYLINE
8
0
62
7
6
CONTINUOUS
66
1
70
0
0
VERTEX
8
0
62
7
6
CONTINUOUS
10
13.9376994977
20
17.9158312856
0
VERTEX
8
0
62
7
6
CONTINUOUS
10
14.0670380394
20
17.9158312856
0
VERTEX
8
0
62
7
6
CONTINUOUS
10
14.0709905697
20
17.9158041296
0
VERTEX
8
0
62
7
6
CONTINUOUS
10
14.0786834846
20
17.9155895044
0
VERTEX
8
0
62
7
6
CONTINUOUS
10
14.0860740945
20
17.9151683123
0
VERTEX
8
0
62
7
6
CONTINUOUS
10
14.0931608520
20
17.9145493895
0
VERTEX
8
0
62
7
6
CONTINUOUS
10
14.0999427944
20
17.9137417894
0
VERTEX
8
0
62
7
6
CONTINUOUS
10
14.1064195852
20
17.9127547442
0
VERTEX
8
0
62
7
6
CONTINUOUS
10
14.1125915495
20
17.9115976189
0
VERTEX
8
0
62
7
6
CONTINUOUS
10
14.1184597022
20
17.9102798577
0
VERTEX
8
0
62
7
6
CONTINUOUS
10
14.1240257648
20
17.9088109237
0
VERTEX
8
0
62
7
6
CONTINUOUS
10
14.1292921723
20
17.9072002315
0
VERTEX
8
0
62
7
6
CONTINUOUS
10
14.1342620662
20
17.9054570743
0
VERTEX
8
0
62
7
6
CONTINUOUS
10
14.1389392728
20
17.9035905461
0
VERTEX
8
0
62
7
6
CONTINUOUS
10
14.1433282664
20
17.9016094607
0
VERTEX
8
0
62
7
6
CONTINUOUS
10
14.1474341156
20
17.8995222690
0
VERTEX
8
0
62
7
6
CONTINUOUS
10
14.1512624136
20
17.8973369764
0
VERTEX
8
0
62
7
6
CONTINUOUS
10
14.1548191902
20
17.8950610630
0
VERTEX
8
0
62
7
6
CONTINUOUS
10
14.1581108091
20
17.8927014079
0
VERTEX
8
0
62
7
6
CONTINUOUS
10
14.1611438490
20
17.8902642219
0
VERTEX
8
0
62
7
6
CONTINUOUS
10
14.1639249715
20
17.8877549889
0
VERTEX
8
0
62
7
6
CONTINUOUS
10
14.1664607775
20
17.8851784209
0
VERTEX
8
0
62
7
6
CONTINUOUS
10
14.1687576555
20
17.8825384286
0
VERTEX
8
0
62
7
6
CONTINUOUS
10
14.1708216249
20
17.8798381087
0
VERTEX
8
0
62
7
6
CONTINUOUS
10
14.1726581787
20
17.8770797519
0
VERTEX
8
0
62
7
6
CONTINUOUS
10
14.1742721309
20
17.8742648723
0
VERTEX
8
0
62
7
6
CONTINUOUS
10
14.1756674736
20
17.8713942580
0
VERTEX
8
0
62
7
6
CONTINUOUS
10
14.1768472481
20
17.8684680438
0
VERTEX
8
0
62
7
6
CONTINUOUS
10
14.1778134379
20
17.8654858040
0
VERTEX
8
0
62
7
6
CONTINUOUS
10
14.1782167979
20
17.8639732136
0
VERTEX
8
0
62
7
6
CONTINUOUS
10
14.1785668853
20
17.8624466613
0
VERTEX
8
0
62
7
6
CONTINUOUS
10
14.1791067047
20
17.8593532505
0
VERTEX
8
0
62
7
6
CONTINUOUS
10
14.1794320876
20
17.8562048475
0
VERTEX
8
0
62
7
6
CONTINUOUS
10
14.1795411644
20
17.8530000356
0
VERTEX
8
0
62
7
6
CONTINUOUS
10
14.1794320664
20
17.8499693834
0
VERTEX
8
0
62
7
6
CONTINUOUS
10
14.1791051738
20
17.8469542503
0
VERTEX
8
0
62
7
6
CONTINUOUS
10
14.1785598634
20
17.8439511145
0
VERTEX
8
0
62
7
6
CONTINUOUS
10
14.1777939560
20
17.8409569734
0
VERTEX
8
0
62
7
6
CONTINUOUS
10
14.1768038524
20
17.8379695059
0
VERTEX
8
0
62
7
6
CONTINUOUS
10
14.1755847122
20
17.8349872295
0
VERTEX
8
0
62
7
6
CONTINUOUS
10
14.1741306772
20
17.8320096495
0
VERTEX
8
0
62
7
6
CONTINUOUS
10
14.1724351362
20
17.8290373959
0
VERTEX
8
0
62
7
6
CONTINUOUS
10
14.1704910309
20
17.8260723476
0
VERTEX
8
0
62
7
6
CONTINUOUS
10
14.1682912008
20
17.8231177409
0
VERTEX
8
0
62
7
6
CONTINUOUS
10
14.1658287659
20
17.8201782598
0
VERTEX
8
0
62
7
6
CONTINUOUS
10
14.1630975450
20
17.8172601073
0
VERTEX
8
0
62
7
6
CONTINUOUS
10
14.1600925051
20
17.8143710499
0
VERTEX
8
0
62
7
6
CONTINUOUS
10
14.1568102357
20
17.8115204337
0
VERTEX
8
0
62
7
6
CONTINUOUS
10
14.1532494385
20
17.8087191614
0
VERTEX
8
0
62
7
6
CONTINUOUS
10
14.1494114158
20
17.8059796249
0
VERTEX
8
0
62
7
6
CONTINUOUS
10
14.1453005372
20
17.8033155818
0
VERTEX
8
0
62
7
6
CONTINUOUS
10
14.1409246572
20
17.8007419706
0
VERTEX
8
0
62
7
6
CONTINUOUS
10
14.1362954506
20
17.7982746567
0
VERTEX
8
0
62
7
6
CONTINUOUS
10
14.1314286299
20
17.7959301079
0
VERTEX
8
0
62
7
6
CONTINUOUS
10
14.1263440090
20
17.7937250057
0
VERTEX
8
0
62
7
6
CONTINUOUS
10
14.1210653832
20
17.7916758023
0
VERTEX
8
0
62
7
6
CONTINUOUS
10
14.1156202070
20
17.7897982453
0
VERTEX
8
0
62
7
6
CONTINUOUS
10
14.1100390683
20
17.7881068974
0
VERTEX
8
0
62
7
6
CONTINUOUS
10
14.1046202180
20
17.7866792829
0
VERTEX
8
0
62
7
6
CONTINUOUS
10
14.0988852360
20
17.7853902571
0
VERTEX
8
0
62
7
6
CONTINUOUS
10
14.0931307477
20
17.7843208690
0
SEQEND
0
LINE
8
0
62
7
6
CONTINUOUS
10
14.2713786644
20
17.9158312856
11
14.3751786644
21
17.9158312856
0
LINE
8
0
62
7
6
CONTINUOUS
10
14.5452692894
20
17.9158312856
11
14.6485349144
21
17.9158312856
0
LINE
8
0
62
7
6
CONTINUOUS
10
14.7066765810
20
17.9158312856
11
14.7860172060
21
17.9158312856
0
LINE
8
0
62
7
6
CONTINUOUS
10
14.9724286644
20
17.9158312856
11
15.0680807477
21
17.9158312856
0
LINE
8
0
62
7
6
CONTINUOUS
10
13.8670567894
20
17.9177739940
11
13.8686890810
21
17.9177739940
0
LINE
8
0
62
7
6
CONTINUOUS
10
13.3665422060
20
17.9185625356
11
13.3681651227
21
17.9185625356
0
LINE
8
0
62
7
6
CONTINUOUS
10
13.6301130394
20
17.9185625356
11
13.6317401227
21
17.9185625356
0
LINE
8
0
62
7
6
CONTINUOUS
10
13.0049547060
20
17.9734833690
11
15.5222536644
21
17.9734833690
0
LINE
8
0
62
7
6
CONTINUOUS
10
12.9999192894
20
17.9785187856
11
15.5272994977
21
17.9785187856
0
POLYLINE
8
0
62
7
6
CONTINUOUS
66
1
70
0
0
VERTEX
8
0
62
7
6
CONTINUOUS
10
15.5548057477
20
18.0049833690
0
VERTEX
8
0
62
7
6
CONTINUOUS
10
12.9712838727
20
18.0049833690
0
VERTEX
8
0
62
7
6
CONTINUOUS
10
12.9712838727
20
17.5715271190
0
SEQEND
0
POLYLINE
8
0
62
7
6
CONTINUOUS
66
1
70
0
0
VERTEX
8
0
62
7
6
CONTINUOUS
10
12.9590817894
20
18.0144281606
0
VERTEX
8
0
62
7
6
CONTINUOUS
10
15.5699828310
20
18.0144281606
0
VERTEX
8
0
62
7
6
CONTINUOUS
10
15.5699828310
20
17.5401750356
0
SEQEND
0
LINE
8
0
62
7
6
CONTINUOUS
10
15.5665244977
20
18.0177500356
11
12.9606744977
21
18.0177500356
0
POLYLINE
8
0
62
7
6
CONTINUOUS
66
1
70
0
0
VERTEX
8
0
62
7
6
CONTINUOUS
10
14.5888328310
20
17.4681739940
0
VERTEX
8
0
62
7
6
CONTINUOUS
10
14.5568244977
20
17.4682146190
0
VERTEX
8
0
62
7
6
CONTINUOUS
10
14.5465047060
20
17.4439125356
0
VERTEX
8
0
62
7
6
CONTINUOUS
10
14.5406349144
20
17.4439125356
0
SEQEND
0
POLYLINE
8
0
62
7
6
CONTINUOUS
66
1
70
0
0
VERTEX
8
0
62
7
6
CONTINUOUS
10
15.4193588727
20
17.4681739940
0
VERTEX
8
0
62
7
6
CONTINUOUS
10
15.3873755394
20
17.4682146190
0
VERTEX
8
0
62
7
6
CONTINUOUS
10
15.3770307477
20
17.4439125356
0
VERTEX
8
0
62
7
6
CONTINUOUS
10
15.3711713727
20
17.4439125356
0
SEQEND
0
LINE
8
0
62
7
6
CONTINUOUS
10
15.0853640810
20
17.4265271190
11
15.0577453310
21
17.4265781606
0
POLYLINE
8
0
62
7
6
CONTINUOUS
66
1
70
0
0
VERTEX
8
0
62
7
6
CONTINUOUS
10
14.3512682477
20
17.6906771190
0
VERTEX
8
0
62
7
6
CONTINUOUS
10
14.3603126619
20
17.6901863168
0
VERTEX
8
0
62
7
6
CONTINUOUS
10
14.3711961095
20
17.6894748377
0
VERTEX
8
0
62
7
6
CONTINUOUS
10
14.3824158731
20
17.6886808085
0
VERTEX
8
0
62
7
6
CONTINUOUS
10
14.3942512025
20
17.6878741370
0
VERTEX
8
0
62
7
6
CONTINUOUS
10
14.4035014697
20
17.6873347154
0
VERTEX
8
0
62
7
6
CONTINUOUS
10
14.4114861334
20
17.6869783245
0
VERTEX
8
0
62
7
6
CONTINUOUS
10
14.4186798645
20
17.6867744192
0
VERTEX
8
0
62
7
6
CONTINUOUS
10
14.4253181841
20
17.6867079323
0
VERTEX
8
0
62
7
6
CONTINUOUS
10
14.4315390160
20
17.6867702242
0
VERTEX
8
0
62
7
6
CONTINUOUS
10
14.4374318927
20
17.6869559306
0
VERTEX
8
0
62
7
6
CONTINUOUS
10
14.4430592054
20
17.6872616068
0
VERTEX
8
0
62
7
6
CONTINUOUS
10
14.4484667600
20
17.6876850611
0
VERTEX
8
0
62
7
6
CONTINUOUS
10
14.4536895677
20
17.6882249950
0
VERTEX
8
0
62
7
6
CONTINUOUS
10
14.4587552626
20
17.6888807964
0
VERTEX
8
0
62
7
6
CONTINUOUS
10
14.4636862389
20
17.6896524148
0
VERTEX
8
0
62
7
6
CONTINUOUS
10
14.4685010493
20
17.6905402827
0
VERTEX
8
0
62
7
6
CONTINUOUS
10
14.4732153547
20
17.6915452661
0
VERTEX
8
0
62
7
6
CONTINUOUS
10
14.4778425896
20
17.6926686319
0
VERTEX
8
0
62
7
6
CONTINUOUS
10
14.4823944404
20
17.6939120264
0
VERTEX
8
0
62
7
6
CONTINUOUS
10
14.4868811972
20
17.6952774612
0
VERTEX
8
0
62
7
6
CONTINUOUS
10
14.4913120176
20
17.6967673038
0
VERTEX
8
0
62
7
6
CONTINUOUS
10
14.4956951276
20
17.6983842713
0
VERTEX
8
0
62
7
6
CONTINUOUS
10
14.5000379773
20
17.7001314261
0
VERTEX
8
0
62
7
6
CONTINUOUS
10
14.5043473629
20
17.7020121734
0
VERTEX
8
0
62
7
6
CONTINUOUS
10
14.5086295240
20
17.7040302585
0
VERTEX
8
0
62
7
6
CONTINUOUS
10
14.5128902216
20
17.7061897662
0
VERTEX
8
0
62
7
6
CONTINUOUS
10
14.5171348018
20
17.7084951191
0
VERTEX
8
0
62
7
6
CONTINUOUS
10
14.5213682477
20
17.7109510773
0
SEQEND
0
POLYLINE
8
0
62
7
6
CONTINUOUS
66
1
70
0
0
VERTEX
8
0
62
7
6
CONTINUOUS
10
15.1451474144
20
17.4486833690
0
VERTEX
8
0
62
7
6
CONTINUOUS
10
15.1435292408
20
17.4487918947
0
VERTEX
8
0
62
7
6
CONTINUOUS
10
15.1419507407
20
17.4489559415
0
VERTEX
8
0
62
7
6
CONTINUOUS
10
15.1404114616
20
17.4491742874
0
VERTEX
8
0
62
7
6
CONTINUOUS
10
15.1389109803
20
17.4494457856
0
VERTEX
8
0
62
7
6
CONTINUOUS
10
15.1374489090
20
17.4497693641
0
VERTEX
8
0
62
7
6
CONTINUOUS
10
15.1360249011
20
17.4501440247
0
VERTEX
8
0
62
7
6
CONTINUOUS
10
15.1346386584
20
17.4505688413
0
VERTEX
8
0
62
7
6
CONTINUOUS
10
15.1332899375
20
17.4510429566
0
VERTEX
8
0
62
7
6
CONTINUOUS
10
15.1319785569
20
17.4515655780
0
VERTEX
8
0
62
7
6
CONTINUOUS
10
15.1307044040
20
17.4521359718
0
VERTEX
8
0
62
7
6
CONTINUOUS
10
15.1294674417
20
17.4527534565
0
VERTEX
8
0
62
7
6
CONTINUOUS
10
15.1282677156
20
17.4534173943
0
VERTEX
8
0
62
7
6
CONTINUOUS
10
15.1271053596
20
17.4541271808
0
VERTEX
8
0
62
7
6
CONTINUOUS
10
15.1259806019
20
17.4548822337
0
VERTEX
8
0
62
7
6
CONTINUOUS
10
15.1248937697
20
17.4556819797
0
VERTEX
8
0
62
7
6
CONTINUOUS
10
15.1238452929
20
17.4565258393
0
VERTEX
8
0
62
7
6
CONTINUOUS
10
15.1228357071
20
17.4574132108
0
VERTEX
8
0
62
7
6
CONTINUOUS
10
15.1218656547
20
17.4583434527
0
VERTEX
8
0
62
7
6
CONTINUOUS
10
15.1209358842
20
17.4593158650
0
VERTEX
8
0
62
7
6
CONTINUOUS
10
15.1200472483
20
17.4603296687
0
VERTEX
8
0
62
7
6
CONTINUOUS
10
15.1192006992
20
17.4613839863
0
VERTEX
8
0
62
7
6
CONTINUOUS
10
15.1183972821
20
17.4624778202
0
VERTEX
8
0
62
7
6
CONTINUOUS
10
15.1176381262
20
17.4636100326
0
VERTEX
8
0
62
7
6
CONTINUOUS
10
15.1169244329
20
17.4647793259
0
VERTEX
8
0
62
7
6
CONTINUOUS
10
15.1162574618
20
17.4659842233
0
VERTEX
8
0
62
7
6
CONTINUOUS
10
15.1156385138
20
17.4672230534
0
VERTEX
8
0
62
7
6
CONTINUOUS
10
15.1150689121
20
17.4684939358
0
VERTEX
8
0
62
7
6
CONTINUOUS
10
15.1145499806
20
17.4697947709
0
VERTEX
8
0
62
7
6
CONTINUOUS
10
15.1140830209
20
17.4711232343
0
VERTEX
8
0
62
7
6
CONTINUOUS
10
15.1136692874
20
17.4724767750
0
VERTEX
8
0
62
7
6
CONTINUOUS
10
15.1133099624
20
17.4738526206
0
VERTEX
8
0
62
7
6
CONTINUOUS
10
15.1130061301
20
17.4752477865
0
VERTEX
8
0
62
7
6
CONTINUOUS
10
15.1127587525
20
17.4766590932
0
VERTEX
8
0
62
7
6
CONTINUOUS
10
15.1125686465
20
17.4780831881
0
VERTEX
8
0
62
7
6
CONTINUOUS
10
15.1124364632
20
17.4795165734
0
VERTEX
8
0
62
7
6
CONTINUOUS
10
15.1123626715
20
17.4809556397
0
VERTEX
8
0
62
7
6
CONTINUOUS
10
15.1123459988
20
17.4819341482
0
VERTEX
8
0
62
7
6
CONTINUOUS
10
15.1123707200
20
17.4833733897
0
VERTEX
8
0
62
7
6
CONTINUOUS
10
15.1124539248
20
17.4848071520
0
VERTEX
8
0
62
7
6
CONTINUOUS
10
15.1125951936
20
17.4862318137
0
VERTEX
8
0
62
7
6
CONTINUOUS
10
15.1127939202
20
17.4876438613
0
VERTEX
8
0
62
7
6
CONTINUOUS
10
15.1130493269
20
17.4890399237
0
VERTEX
8
0
62
7
6
CONTINUOUS
10
15.1133604843
20
17.4904168013
0
VERTEX
8
0
62
7
6
CONTINUOUS
10
15.1137263338
20
17.4917714894
0
VERTEX
8
0
62
7
6
CONTINUOUS
10
15.1141457115
20
17.4931011967
0
VERTEX
8
0
62
7
6
CONTINUOUS
10
15.1146173743
20
17.4944033556
0
VERTEX
8
0
62
7
6
CONTINUOUS
10
15.1151400255
20
17.4956756290
0
VERTEX
8
0
62
7
6
CONTINUOUS
10
15.1157123401
20
17.4969159087
0
VERTEX
8
0
62
7
6
CONTINUOUS
10
15.1163329891
20
17.4981223111
0
VERTEX
8
0
62
7
6
CONTINUOUS
10
15.1170006619
20
17.4992931666
0
VERTEX
8
0
62
7
6
CONTINUOUS
10
15.1177140864
20
17.5004270063
0
VERTEX
8
0
62
7
6
CONTINUOUS
10
15.1184720474
20
17.5015225450
0
VERTEX
8
0
62
7
6
CONTINUOUS
10
15.1192734014
20
17.5025786626
0
VERTEX
8
0
62
7
6
CONTINUOUS
10
15.1201170896
20
17.5035943836
0
VERTEX
8
0
62
7
6
CONTINUOUS
10
15.1210021477
20
17.5045688557
0
VERTEX
8
0
62
7
6
CONTINUOUS
10
15.1219277136
20
17.5055013282
0
VERTEX
8
0
62
7
6
CONTINUOUS
10
15.1228930323
20
17.5063911307
0
VERTEX
8
0
62
7
6
CONTINUOUS
10
15.1238974588
20
17.5072376521
0
VERTEX
8
0
62
7
6
CONTINUOUS
10
15.1249404589
20
17.5080403211
0
VERTEX
8
0
62
7
6
CONTINUOUS
10
15.1260216084
20
17.5087985874
0
VERTEX
8
0
62
7
6
CONTINUOUS
10
15.1271405901
20
17.5095119044
0
VERTEX
8
0
62
7
6
CONTINUOUS
10
15.1282971904
20
17.5101797140
0
VERTEX
8
0
62
7
6
CONTINUOUS
10
15.1294912941
20
17.5108014323
0
VERTEX
8
0
62
7
6
CONTINUOUS
10
15.1307228784
20
17.5113764376
0
VERTEX
8
0
62
7
6
CONTINUOUS
10
15.1319920069
20
17.5119040600
0
VERTEX
8
0
62
7
6
CONTINUOUS
10
15.1332988217
20
17.5123835721
0
VERTEX
8
0
62
7
6
CONTINUOUS
10
15.1346435371
20
17.5128141821
0
VERTEX
8
0
62
7
6
CONTINUOUS
10
15.1360264313
20
17.5131950282
0
VERTEX
8
0
62
7
6
CONTINUOUS
10
15.1374478397
20
17.5135251739
0
VERTEX
8
0
62
7
6
CONTINUOUS
10
15.1389081470
20
17.5138036052
0
VERTEX
8
0
62
7
6
CONTINUOUS
10
15.1404077808
20
17.5140292288
0
VERTEX
8
0
62
7
6
CONTINUOUS
10
15.1419472042
20
17.5142008713
0
VERTEX
8
0
62
7
6
CONTINUOUS
10
15.1435269100
20
17.5143172789
0
VERTEX
8
0
62
7
6
CONTINUOUS
10
15.1451474144
20
17.5143771190
0
SEQEND
0
POLYLINE
8
0
62
7
6
CONTINUOUS
66
1
70
0
0
VERTEX
8
0
62
7
6
CONTINUOUS
10
13.7474984560
20
17.6918375356
0
VERTEX
8
0
62
7
6
CONTINUOUS
10
13.7571715024
20
17.6911232858
0
VERTEX
8
0
62
7
6
CONTINUOUS
10
13.7693667542
20
17.6901077112
0
VERTEX
8
0
62
7
6
CONTINUOUS
10
13.7796083554
20
17.6892285484
0
VERTEX
8
0
62
7
6
CONTINUOUS
10
13.7905475824
20
17.6883431989
0
VERTEX
8
0
62
7
6
CONTINUOUS
10
13.7994338282
20
17.6877218831
0
VERTEX
8
0
62
7
6
CONTINUOUS
10
13.8072181088
20
17.6872892782
0
VERTEX
8
0
62
7
6
CONTINUOUS
10
13.8142857070
20
17.6870147720
0
VERTEX
8
0
62
7
6
CONTINUOUS
10
13.8208388966
20
17.6868824082
0
VERTEX
8
0
62
7
6
CONTINUOUS
10
13.8270001879
20
17.6868827190
0
VERTEX
8
0
62
7
6
CONTINUOUS
10
13.8328509255
20
17.6870096712
0
VERTEX
8
0
62
7
6
CONTINUOUS
10
13.8384487270
20
17.6872592926
0
VERTEX
8
0
62
7
6
CONTINUOUS
10
13.8438364236
20
17.6876289738
0
VERTEX
8
0
62
7
6
CONTINUOUS
10
13.8490470762
20
17.6881170825
0
VERTEX
8
0
62
7
6
CONTINUOUS
10
13.8541069908
20
17.6887227370
0
VERTEX
8
0
62
7
6
CONTINUOUS
10
13.8590376297
20
17.6894456656
0
VERTEX
8
0
62
7
6
CONTINUOUS
10
13.8638568770
20
17.6902861183
0
VERTEX
8
0
62
7
6
CONTINUOUS
10
13.8685799060
20
17.6912448087
0
VERTEX
8
0
62
7
6
CONTINUOUS
10
13.8732197919
20
17.6923228746
0
VERTEX
8
0
62
7
6
CONTINUOUS
10
13.8777879556
20
17.6935218526
0
VERTEX
8
0
62
7
6
CONTINUOUS
10
13.8822944918
20
17.6948436598
0
VERTEX
8
0
62
7
6
CONTINUOUS
10
13.8867484162
20
17.6962905819
0
VERTEX
8
0
62
7
6
CONTINUOUS
10
13.8911578552
20
17.6978652641
0
VERTEX
8
0
62
7
6
CONTINUOUS
10
13.8955301930
20
17.6995707056
0
VERTEX
8
0
62
7
6
CONTINUOUS
10
13.8998721877
20
17.7014102549
0
VERTEX
8
0
62
7
6
CONTINUOUS
10
13.9041900640
20
17.7033876069
0
VERTEX
8
0
62
7
6
CONTINUOUS
10
13.9084895880
20
17.7055068005
0
VERTEX
8
0
62
7
6
CONTINUOUS
10
13.9127761282
20
17.7077722166
0
VERTEX
8
0
62
7
6
CONTINUOUS
10
13.9170547060
20
17.7101885773
0
SEQEND
0
LINE
8
0
62
7
6
CONTINUOUS
10
13.3681651227
20
17.9185625356
11
13.3888255394
21
17.9158312856
0
LINE
8
DEFAULT_2
62
8
6
HIDDEN
10
33.7125000000
20
11.0937500000
11
33.5250000000
21
11.0000000000
0
LINE
8
DEFAULT_2
62
8
6
HIDDEN
10
33.5250000000
20
11.0000000000
11
33.7125000000
21
10.9062500000
0
LINE
8
0
62
2
6
CONTINUOUS
10
30.8199350000
20
2.1210210000
11
30.7592420000
21
2.2303960000
0
LINE
8
0
62
2
6
CONTINUOUS
10
30.8276350000
20
2.2452290000
11
30.8965590000
21
2.1210210000
0
LINE
8
0
6
CONTINUOUS
10
25.5000000000
20
0.5875000000
11
25.5000000000
21
0.0000000000
0
LINE
8
0
6
CONTINUOUS
10
33.5250000000
20
21.5875000000
11
0.5250000000
21
21.5875000000
0
LINE
8
DEFAULT_2
62
8
6
HIDDEN
10
17.0937500000
20
21.7750000000
11
17.0234375000
21
21.7750000000
0
LINE
8
DEFAULT_2
62
8
6
HIDDEN
10
16.9765625000
20
21.7750000000
11
16.9062500000
21
21.7750000000
0
LINE
8
DEFAULT_2
62
8
6
HIDDEN
10
17.0234375000
20
21.9625000000
11
16.9765625000
21
21.9625000000
0
LINE
8
0
62
7
6
CONTINUOUS
10
0.0000000000
20
22.0000000000
11
34.0000000000
21
22.0000000000
0
LINE
8
0
62
2
6
CONTINUOUS
10
29.5281840000
20
2.1210210000
11
29.5281840000
21
2.4022710000
0
LINE
8
0
62
2
6
CONTINUOUS
10
29.5951840000
20
2.4022710000
11
29.5951840000
21
2.3140230000
0
LINE
8
0
62
2
6
CONTINUOUS
10
29.5951840000
20
2.1210210000
11
29.5951840000
21
2.2425190000
0
LINE
8
0
6
CONTINUOUS
10
29.7500000000
20
0.5875000000
11
29.7500000000
21
0.0000000000
0
LINE
8
0
62
2
6
CONTINUOUS
10
30.0594340000
20
2.4022710000
11
30.0594340000
21
2.1210210000
0
LINE
8
0
62
2
6
CONTINUOUS
10
30.1264340000
20
2.1210210000
11
30.1264340000
21
2.2437710000
0
LINE
8
0
62
2
6
CONTINUOUS
10
30.1264340000
20
2.3107710000
11
30.1264340000
21
2.4022710000
0
LINE
8
0
62
2
6
CONTINUOUS
10
30.2045590000
20
2.1210210000
11
30.2045590000
21
2.2437710000
0
LINE
8
0
62
2
6
CONTINUOUS
10
30.2045590000
20
2.3107710000
11
30.2045590000
21
2.4022710000
0
LINE
8
0
62
2
6
CONTINUOUS
10
30.2715590000
20
2.4022710000
11
30.2715590000
21
2.1210210000
0
LINE
8
0
62
2
6
CONTINUOUS
10
30.3028090000
20
2.4022710000
11
30.3028090000
21
2.1210210000
0
LINE
8
0
62
2
6
CONTINUOUS
10
30.3698090000
20
2.1880210000
11
30.3698090000
21
2.4022710000
0
LINE
8
0
62
2
6
CONTINUOUS
10
30.4590590000
20
2.1880210000
11
30.4590590000
21
2.1210210000
0
LINE
8
0
62
2
6
CONTINUOUS
10
30.4903090000
20
2.4022710000
11
30.4903090000
21
2.1210210000
0
LINE
8
0
62
2
6
CONTINUOUS
10
30.5573090000
20
2.2359590000
11
30.5573090000
21
2.1880210000
0
LINE
8
0
62
2
6
CONTINUOUS
10
30.5573090000
20
2.2873340000
11
30.5573090000
21
2.3352710000
0
LINE
8
0
62
2
6
CONTINUOUS
10
30.6465590000
20
2.2873340000
11
30.6465590000
21
2.2359590000
0
LINE
8
0
62
2
6
CONTINUOUS
10
30.6465590000
20
2.1880210000
11
30.6465590000
21
2.1210210000
0
LINE
8
0
62
2
6
CONTINUOUS
10
30.6465590000
20
2.3352710000
11
30.6465590000
21
2.4022710000
0
LINE
8
0
62
2
6
CONTINUOUS
10
30.6778090000
20
2.1210210000
11
30.6778090000
21
2.4022710000
0
LINE
8
0
62
2
6
CONTINUOUS
10
30.7448090000
20
2.3477710000
11
30.7448090000
21
2.2864590000
0
LINE
8
0
62
2
6
CONTINUOUS
10
30.7448090000
20
2.2303960000
11
30.7448090000
21
2.1210210000
0
LINE
8
0
62
7
6
CONTINUOUS
10
28.8981001059
20
3.5417649386
11
27.5256457084
21
1.7326205056
0
LINE
8
0
62
2
6
CONTINUOUS
10
32.1734380000
20
2.2935650000
11
32.1734380000
21
1.9727440000
0
LINE
8
0
62
2
6
CONTINUOUS
10
29.6834310000
20
2.4022710000
11
29.5951840000
21
2.3140230000
0
LINE
8
0
62
2
6
CONTINUOUS
10
29.7781840000
20
2.4022710000
11
29.6531840000
21
2.2772710000
0
LINE
8
0
62
2
6
CONTINUOUS
10
32.6734380000
20
2.2125000000
11
32.6734380000
21
2.0562500000
0
LINE
8
0
62
2
6
CONTINUOUS
10
32.9861199674
20
2.7522448979
11
32.9861199674
21
2.9866198979
0
LINE
8
0
62
2
6
CONTINUOUS
10
33.0171880000
20
1.9937500000
11
33.0171880000
21
2.2750000000
0
LINE
8
0
62
2
6
CONTINUOUS
10
33.0261199674
20
2.9466198979
11
33.0261199674
21
2.7922448979
0
LINE
8
0
6
CONTINUOUS
10
33.5250000000
20
0.5875000000
11
33.5250000000
21
21.5875000000
0
LINE
8
DEFAULT_2
62
8
6
HIDDEN
10
33.7125000000
20
10.9062500000
11
33.7125000000
21
10.9765625000
0
LINE
8
DEFAULT_2
62
8
6
HIDDEN
10
33.7125000000
20
11.0234375000
11
33.7125000000
21
11.0937500000
0
LINE
8
DEFAULT_2
62
8
6
HIDDEN
10
33.9000000000
20
10.9765625000
11
33.9000000000
21
11.0234375000
0
LINE
8
0
62
7
6
CONTINUOUS
10
34.0000000000
20
0.0000000000
11
34.0000000000
21
22.0000000000
0
LINE
8
_CURVE
62
8
6
HIDDEN
10
5.1409902597
20
6.8892857143
11
5.1409902597
21
18.3892857143
0
LINE
8
_CURVE
62
7
6
CONTINUOUS
10
5.3909902597
20
6.8892857143
11
5.3909902597
21
18.3892857143
0
LINE
8
_CURVE
62
8
6
HIDDEN
10
18.3909902597
20
5.1392857143
11
6.8909902597
21
5.1392857143
0
LINE
8
_CURVE
62
7
6
CONTINUOUS
10
18.3909902597
20
5.3892857143
11
6.8909902597
21
5.3892857143
0
LINE
8
0
62
2
6
CONTINUOUS
10
5.3909902597
20
10.0101932306
11
6.3084326494
21
11.1748730666
0
LINE
8
0
62
2
6
CONTINUOUS
10
5.1409902597
20
8.4387998011
11
6.3454066124
21
9.8068364338
0
LINE
8
0
62
2
6
CONTINUOUS
10
6.3454066124
20
9.8068364338
11
6.5954066124
21
9.8068364338
0
LINE
8
0
62
2
6
CONTINUOUS
10
6.3084326494
20
11.1748730666
11
6.5584326494
21
11.1748730666
0
LINE
8
_CURVE
62
2
6
CENTER
10
12.6409902597
20
5.3892857143
11
12.6409902597
21
4.3892857143
0
LINE
8
_CURVE
62
2
6
CENTER
10
12.6409902597
20
19.8892857143
11
12.6409902597
21
20.8892857143
0
LINE
8
_CURVE
62
2
6
CENTER
10
5.3909902597
20
12.6392857143
11
4.3909902597
21
12.6392857143
0
LINE
8
_CURVE
62
2
6
CENTER
10
19.8909902597
20
12.6392857143
11
20.8909902597
21
12.6392857143
0
LINE
8
_CURVE
62
7
6
CONTINUOUS
10
19.8909902597
20
18.3892857143
11
19.8909902597
21
6.8892857143
0
LINE
8
_CURVE
62
8
6
HIDDEN
10
20.1409902597
20
18.3892857143
11
20.1409902597
21
6.8892857143
0
LINE
8
_CURVE
62
7
6
CONTINUOUS
10
6.8909902597
20
19.8892857143
11
18.3909902597
21
19.8892857143
0
LINE
8
_CURVE
62
8
6
HIDDEN
10
6.8909902597
20
20.1392857143
11
18.3909902597
21
20.1392857143
0
ARC
8
0
62
2
6
CONTINUOUS
10
30.7781840000
20
2.3171150000
40
0.0306560000
50
270.0000000000
51
90.0000000000
0
CIRCLE
8
0
62
2
6
CONTINUOUS
10
32.1734380000
20
2.1343750000
40
0.0781250000
0
CIRCLE
8
0
62
2
6
CONTINUOUS
10
32.1734380000
20
2.1343750000
40
0.1406250000
0
CIRCLE
8
0
62
2
6
CONTINUOUS
10
29.8875590000
20
2.2616460000
40
0.0736250000
0
CIRCLE
8
0
62
2
6
CONTINUOUS
10
29.8875590000
20
2.2616460000
40
0.1406250000
0
ARC
8
0
62
2
6
CONTINUOUS
10
30.7793710000
20
2.3163340000
40
0.0859379702
50
304.1675166806
51
90.0000000000
0
ARC
8
0
62
2
6
CONTINUOUS
10
33.0598699674
20
2.8616198979
40
0.1427264745
50
347.2970674615
51
35.8107683241
0
ARC
8
0
62
2
6
CONTINUOUS
10
33.0598699674
20
2.8616198979
40
0.1028104052
50
347.3505396154
51
35.7301523998
0
ARC
8
0
62
2
6
CONTINUOUS
10
33.0945189674
20
2.8866198979
40
0.1000004917
50
35.8105581291
51
90.0000000000
0
ARC
8
0
62
2
6
CONTINUOUS
10
33.0946219674
20
2.8866198979
40
0.0600002774
50
35.7298326621
51
90.0000000000
0
ARC
8
0
62
2
6
CONTINUOUS
10
33.1016409674
20
2.8522448979
40
0.0600000000
50
270.0000000000
51
347.3507330983
0
ARC
8
0
62
2
6
CONTINUOUS
10
33.1015559674
20
2.8522448979
40
0.1000000000
50
270.0000000000
51
347.2850012235
0
CIRCLE
8
0
62
2
6
CONTINUOUS
10
17.2242225101
20
5.6469179422
40
0.0276969375
0
ARC
8
0
62
7
6
CONTINUOUS
10
15.3637109653
20
17.4990932648
40
0.0203971317
50
260.4787245939
51
99.5212754061
0
CIRCLE
8
0
62
7
6
CONTINUOUS
10
15.2139952799
20
17.4815302440
40
0.0328469513
0
CIRCLE
8
0
62
7
6
CONTINUOUS
10
15.2143188585
20
17.4815307648
40
0.0386067017
0
ARC
8
0
62
7
6
CONTINUOUS
10
15.1446035781
20
17.4814746557
40
0.0384978308
50
47.5048873671
51
180.0087362707
0
ARC
8
0
62
7
6
CONTINUOUS
10
15.1450348208
20
17.4818543843
40
0.0389309828
50
180.5675053294
51
310.5520051654
0
CIRCLE
8
0
62
7
6
CONTINUOUS
10
14.7599451352
20
17.4736109731
40
0.0238498089
0
CIRCLE
8
0
62
7
6
CONTINUOUS
10
15.4634359560
20
17.6748050832
40
0.0151710485
0
ARC
8
0
62
7
6
CONTINUOUS
10
15.3073864345
20
17.7258820031
40
0.1684170488
50
59.2085551990
51
93.5831215674
0
ARC
8
0
62
7
6
CONTINUOUS
10
15.0715487422
20
17.7962049896
40
0.1529547753
50
223.4269507726
51
258.0242403069
0
ARC
8
0
62
7
6
CONTINUOUS
10
14.2012860974
20
17.7443653155
40
0.0856914605
50
230.1562195028
51
275.4518816802
0
ARC
8
0
62
7
6
CONTINUOUS
10
13.8136919611
20
17.7924727613
40
0.0958677755
50
56.1755396367
51
96.4463209909
0
ARC
8
0
62
7
6
CONTINUOUS
10
13.4085114485
20
17.7680161515
40
0.1198356353
50
87.4638787987
51
119.6947324667
0
CIRCLE
8
___NOTE
62
2
6
CONTINUOUS
10
22.3477495726
20
1.9977537415
40
0.1368374908
0
ARC
8
_CURVE
62
8
6
HIDDEN
10
6.8909902597
20
18.3892857143
40
1.7500000000
50
90.0000000000
51
180.0000000000
0
ARC
8
_CURVE
62
8
6
HIDDEN
10
6.8909902597
20
6.8892857143
40
1.7500000000
50
180.0000000000
51
270.0000000000
0
ARC
8
_CURVE
62
8
6
HIDDEN
10
18.3909902597
20
6.8892857143
40
1.7500000000
50
270.0000000000
51
360.0000000000
0
ARC
8
_CURVE
62
8
6
HIDDEN
10
18.3909902597
20
18.3892857143
40
1.7500000000
50
0.0000000000
51
90.0000000000
0
ARC
8
_CURVE
62
7
6
CONTINUOUS
10
18.3909902597
20
18.3892857143
40
1.5000000000
50
0.0000000000
51
90.0000000000
0
ARC
8
_CURVE
62
7
6
CONTINUOUS
10
18.3909902597
20
6.8892857143
40
1.5000000000
50
270.0000000000
51
360.0000000000
0
ARC
8
_CURVE
62
7
6
CONTINUOUS
10
6.8909902597
20
6.8892857143
40
1.5000000000
50
180.0000000000
51
270.0000000000
0
ARC
8
_CURVE
62
7
6
CONTINUOUS
10
6.8909902597
20
18.3892857143
40
1.5000000000
50
90.0000000000
51
180.0000000000
0
ENDSEC
0
EOF
