999
DXF file: 1032929-7.dxf
999
Pro/ENGINEER 2004030 by Parametric Technology Corporation
0
SECTION
2
HEADER
9
$EXTMAX
10
44.0000000000
20
34.0000000000
30
0.0000000000
9
$EXTMIN
10
0.0000000000
20
0.0000000000
30
0.0000000000
9
$LIMMIN
10
0.0000000000
20
0.0000000000
9
$LIMMAX
10
44.0000000000
20
34.0000000000
9
$VIEWCTR
10
22.0000000000
20
17.0000000000
9
$VIEWSIZE
40
34.0000000000
9
$CLAYER
8
0
9
$LTSCALE
40
2.4200000000
9
$CELTYPE
6
BYLAYER
9
$DIMSCALE
40
1
9
$DIMASZ
40
0.1875000000
9
$DIMEXO
40
0.2750000000
9
$DIMDLI
40
1.6720000000
9
$DIMEXE
40
0.7920000000
9
$DIMCEN
40
0.3960000000
9
$DIMLFAC
40
1.0000000000
9
$DIMBLK
1
_FILLED
9
$DIMTXT
40
0.1562500000
9
$PDMODE
70
3
9
$PDSIZE
40
0.3125000000
0
ENDSEC
0
SECTION
2
TABLES
0
TABLE
2
LTYPE
70
6
0
LTYPE
2
BYBLOCK
70
0
3

72
65
73
0
40
0.0
0
LTYPE
2
BYLAYER
70
0
3

72
65
73
0
40
0.0
0
LTYPE
2
CONTINUOUS
70
64
3
Solid line
72
65
73
0
40
0
0
LTYPE
2
CENTER
70
64
3
____ _ ____ _ ____ _ ____ _ ____ _ ____ _ ____
72
65
73
4
40
0.6
49
0.375
49
-0.075
49
0.075
49
-0.075
0
LTYPE
2
HIDDEN
70
64
3
- - - - - - - - - - - - - - - - - - - -
72
65
73
2
40
0.2
49
0.1
49
-0.1
0
LTYPE
2
PHANTOM
70
64
3
_____ _ _ _____ _ _ _____ _ _ _____
72
65
73
6
40
0.8
49
0.45
49
-0.05
49
0.1
49
-0.05
49
0.1
49
-0.05
0
LTYPE
2
DOT
70
64
3
. . . . . . . . . . . . . . . . . . . .
72
65
73
2
40
0.2
49
0.1
49
-0.1
0
LTYPE
2
DASHED
70
64
3
- - - - - - - - - - - - - - - - - - - -
72
65
73
2
40
0.2
49
0.1
49
-0.1
0
ENDTAB
0
TABLE
2
LAYER
70
36
0
LAYER
2
0
70
0
62
7
6
CONTINUOUS
0
LAYER
2
DEFAULT_1
70
0
62
7
6
CENTER
0
LAYER
2
DEFAULT_2
70
0
62
8
6
HIDDEN
0
LAYER
2
DEFAULT_3
70
0
62
7
6
PHANTOM
0
LAYER
2
DATUMS
70
0
62
7
6
CONTINUOUS
0
LAYER
2
DATUM_AXIS
70
0
62
7
6
CONTINUOUS
0
LAYER
2
DATUM_CSYS
70
0
62
7
6
CONTINUOUS
0
LAYER
2
DATUM_PLANE
70
0
62
7
6
CONTINUOUS
0
LAYER
2
DATUM_POINT
70
0
62
7
6
CONTINUOUS
0
LAYER
2
_CURVE
70
0
62
7
6
CONTINUOUS
0
LAYER
2
_SURFACE
70
0
62
7
6
CONTINUOUS
0
LAYER
2
__REF_CURVE
70
0
62
7
6
CONTINUOUS
0
LAYER
2
__REF_SURFACE
70
0
62
7
6
CONTINUOUS
0
LAYER
2
___NOTE
70
0
62
7
6
CONTINUOUS
0
ENDTAB
0
ENDSEC
0
SECTION
2
BLOCKS
0
BLOCK
8
DEFAULT_2
62
8
6
HIDDEN
2
C_ARROW_BL0
70
64
10
22.0000000000
20
33.6875000000
0
LINE
8
DEFAULT_2
62
8
6
HIDDEN
10
22.0000000000
20
33.5000000000
11
22.0937500000
21
33.6875000000
0
LINE
8
DEFAULT_2
62
8
6
HIDDEN
10
22.0000000000
20
33.5000000000
11
21.9062500000
21
33.6875000000
0
LINE
8
DEFAULT_2
62
8
6
HIDDEN
10
21.9765625000
20
33.6875000000
11
21.9062500000
21
33.6875000000
0
LINE
8
DEFAULT_2
62
8
6
HIDDEN
10
21.9765625000
20
33.8750000000
11
21.9765625000
21
33.6875000000
0
LINE
8
DEFAULT_2
62
8
6
HIDDEN
10
21.9765625000
20
33.8750000000
11
22.0234375000
21
33.8750000000
0
LINE
8
DEFAULT_2
62
8
6
HIDDEN
10
22.0234375000
20
33.6875000000
11
22.0234375000
21
33.8750000000
0
LINE
8
DEFAULT_2
62
8
6
HIDDEN
10
22.0937500000
20
33.6875000000
11
22.0234375000
21
33.6875000000
0
POLYLINE
8
DEFAULT_2
62
8
6
HIDDEN
66
1
70
1
0
VERTEX
8
DEFAULT_2
62
8
6
HIDDEN
10
22.0000000000
20
33.5000000000
0
VERTEX
8
DEFAULT_2
62
8
6
HIDDEN
10
21.9062500000
20
33.6875000000
0
VERTEX
8
DEFAULT_2
62
8
6
HIDDEN
10
21.9765625000
20
33.6875000000
0
VERTEX
8
DEFAULT_2
62
8
6
HIDDEN
10
21.9765625000
20
33.8750000000
0
VERTEX
8
DEFAULT_2
62
8
6
HIDDEN
10
22.0234375000
20
33.8750000000
0
VERTEX
8
DEFAULT_2
62
8
6
HIDDEN
10
22.0234375000
20
33.6875000000
0
VERTEX
8
DEFAULT_2
62
8
6
HIDDEN
10
22.0937500000
20
33.6875000000
0
VERTEX
8
DEFAULT_2
62
8
6
HIDDEN
10
22.0000000000
20
33.5000000000
0
SEQEND
0
ENDBLK
8
0
6
BYBLOCK
62
0
0
BLOCK
8
DEFAULT_2
62
8
6
HIDDEN
2
C_ARROW_BL1
70
64
10
0.3120169847
20
17.0000000000
0
LINE
8
DEFAULT_2
62
8
6
HIDDEN
10
0.4995169847
20
17.0000000000
11
0.3120169847
21
17.0937500000
0
LINE
8
DEFAULT_2
62
8
6
HIDDEN
10
0.4995169847
20
17.0000000000
11
0.3120169847
21
16.9062500000
0
LINE
8
DEFAULT_2
62
8
6
HIDDEN
10
0.3120169847
20
16.9765625000
11
0.3120169847
21
16.9062500000
0
LINE
8
DEFAULT_2
62
8
6
HIDDEN
10
0.1245169847
20
16.9765625000
11
0.3120169847
21
16.9765625000
0
LINE
8
DEFAULT_2
62
8
6
HIDDEN
10
0.1245169847
20
16.9765625000
11
0.1245169847
21
17.0234375000
0
LINE
8
DEFAULT_2
62
8
6
HIDDEN
10
0.3120169847
20
17.0234375000
11
0.1245169847
21
17.0234375000
0
LINE
8
DEFAULT_2
62
8
6
HIDDEN
10
0.3120169847
20
17.0937500000
11
0.3120169847
21
17.0234375000
0
POLYLINE
8
DEFAULT_2
62
8
6
HIDDEN
66
1
70
1
0
VERTEX
8
DEFAULT_2
62
8
6
HIDDEN
10
0.4995169847
20
17.0000000000
0
VERTEX
8
DEFAULT_2
62
8
6
HIDDEN
10
0.3120169847
20
16.9062500000
0
VERTEX
8
DEFAULT_2
62
8
6
HIDDEN
10
0.3120169847
20
16.9765625000
0
VERTEX
8
DEFAULT_2
62
8
6
HIDDEN
10
0.1245169847
20
16.9765625000
0
VERTEX
8
DEFAULT_2
62
8
6
HIDDEN
10
0.1245169847
20
17.0234375000
0
VERTEX
8
DEFAULT_2
62
8
6
HIDDEN
10
0.3120169847
20
17.0234375000
0
VERTEX
8
DEFAULT_2
62
8
6
HIDDEN
10
0.3120169847
20
17.0937500000
0
VERTEX
8
DEFAULT_2
62
8
6
HIDDEN
10
0.4995169847
20
17.0000000000
0
SEQEND
0
ENDBLK
8
0
6
BYBLOCK
62
0
0
BLOCK
8
DEFAULT_2
62
8
6
HIDDEN
2
C_ARROW_BL2
70
64
10
22.0000000000
20
0.3125000000
0
LINE
8
DEFAULT_2
62
8
6
HIDDEN
10
22.0000000000
20
0.5000000000
11
21.9062500000
21
0.3125000000
0
LINE
8
DEFAULT_2
62
8
6
HIDDEN
10
22.0000000000
20
0.5000000000
11
22.0937500000
21
0.3125000000
0
LINE
8
DEFAULT_2
62
8
6
HIDDEN
10
22.0234375000
20
0.3125000000
11
22.0937500000
21
0.3125000000
0
LINE
8
DEFAULT_2
62
8
6
HIDDEN
10
22.0234375000
20
0.1250000000
11
22.0234375000
21
0.3125000000
0
LINE
8
DEFAULT_2
62
8
6
HIDDEN
10
22.0234375000
20
0.1250000000
11
21.9765625000
21
0.1250000000
0
LINE
8
DEFAULT_2
62
8
6
HIDDEN
10
21.9765625000
20
0.3125000000
11
21.9765625000
21
0.1250000000
0
LINE
8
DEFAULT_2
62
8
6
HIDDEN
10
21.9062500000
20
0.3125000000
11
21.9765625000
21
0.3125000000
0
POLYLINE
8
DEFAULT_2
62
8
6
HIDDEN
66
1
70
1
0
VERTEX
8
DEFAULT_2
62
8
6
HIDDEN
10
22.0000000000
20
0.5000000000
0
VERTEX
8
DEFAULT_2
62
8
6
HIDDEN
10
22.0937500000
20
0.3125000000
0
VERTEX
8
DEFAULT_2
62
8
6
HIDDEN
10
22.0234375000
20
0.3125000000
0
VERTEX
8
DEFAULT_2
62
8
6
HIDDEN
10
22.0234375000
20
0.1250000000
0
VERTEX
8
DEFAULT_2
62
8
6
HIDDEN
10
21.9765625000
20
0.1250000000
0
VERTEX
8
DEFAULT_2
62
8
6
HIDDEN
10
21.9765625000
20
0.3125000000
0
VERTEX
8
DEFAULT_2
62
8
6
HIDDEN
10
21.9062500000
20
0.3125000000
0
VERTEX
8
DEFAULT_2
62
8
6
HIDDEN
10
22.0000000000
20
0.5000000000
0
SEQEND
0
ENDBLK
8
0
6
BYBLOCK
62
0
0
BLOCK
8
DEFAULT_2
62
8
6
HIDDEN
2
C_ARROW_BL3
70
64
10
43.6878685885
20
17.0000000000
0
LINE
8
DEFAULT_2
62
8
6
HIDDEN
10
43.5003685885
20
17.0000000000
11
43.6878685885
21
16.9062500000
0
LINE
8
DEFAULT_2
62
8
6
HIDDEN
10
43.5003685885
20
17.0000000000
11
43.6878685885
21
17.0937500000
0
LINE
8
DEFAULT_2
62
8
6
HIDDEN
10
43.6878685885
20
17.0234375000
11
43.6878685885
21
17.0937500000
0
LINE
8
DEFAULT_2
62
8
6
HIDDEN
10
43.8753685885
20
17.0234375000
11
43.6878685885
21
17.0234375000
0
LINE
8
DEFAULT_2
62
8
6
HIDDEN
10
43.8753685885
20
17.0234375000
11
43.8753685885
21
16.9765625000
0
LINE
8
DEFAULT_2
62
8
6
HIDDEN
10
43.6878685885
20
16.9765625000
11
43.8753685885
21
16.9765625000
0
LINE
8
DEFAULT_2
62
8
6
HIDDEN
10
43.6878685885
20
16.9062500000
11
43.6878685885
21
16.9765625000
0
POLYLINE
8
DEFAULT_2
62
8
6
HIDDEN
66
1
70
1
0
VERTEX
8
DEFAULT_2
62
8
6
HIDDEN
10
43.5003685885
20
17.0000000000
0
VERTEX
8
DEFAULT_2
62
8
6
HIDDEN
10
43.6878685885
20
17.0937500000
0
VERTEX
8
DEFAULT_2
62
8
6
HIDDEN
10
43.6878685885
20
17.0234375000
0
VERTEX
8
DEFAULT_2
62
8
6
HIDDEN
10
43.8753685885
20
17.0234375000
0
VERTEX
8
DEFAULT_2
62
8
6
HIDDEN
10
43.8753685885
20
16.9765625000
0
VERTEX
8
DEFAULT_2
62
8
6
HIDDEN
10
43.6878685885
20
16.9765625000
0
VERTEX
8
DEFAULT_2
62
8
6
HIDDEN
10
43.6878685885
20
16.9062500000
0
VERTEX
8
DEFAULT_2
62
8
6
HIDDEN
10
43.5003685885
20
17.0000000000
0
SEQEND
0
ENDBLK
8
0
6
BYBLOCK
62
0
0
BLOCK
8
0
62
2
6
CONTINUOUS
2
*D0
70
65
10
0.0000000000
20
0.0000000000
0
TEXT
8
0
62
2
6
CONTINUOUS
10
15.4492166811
20
18.2295047650
40
0.2083333333
1
"
72
5
11
15.6158833478
21
18.2295047650
0
TEXT
8
0
62
2
6
CONTINUOUS
10
14.2825500144
20
17.9170047650
40
0.2083333333
1
(82,6 cm)
72
5
11
15.7825500144
21
17.9170047650
0
TEXT
8
0
62
2
6
CONTINUOUS
10
14.4492166811
20
18.2295047650
40
0.2083333333
1
32-1/2
72
5
11
15.4492166811
21
18.2295047650
0
LINE
8
0
62
2
6
CONTINUOUS
10
2.8045689723
20
18.3155158342
11
2.8045689723
21
18.2086714317
0
LINE
8
0
62
2
6
CONTINUOUS
10
35.3045689723
20
18.3155158342
11
35.3045689723
21
18.2086714317
0
LINE
8
0
62
2
6
CONTINUOUS
10
2.8045689723
20
18.3336714317
11
14.1783833478
21
18.3336714317
0
LINE
8
0
62
2
6
CONTINUOUS
10
35.3045689723
20
18.3336714317
11
15.8867166811
21
18.3336714317
0
INSERT
8
0
62
2
6
CONTINUOUS
2
_FILLED
10
2.8045689723
20
18.3336714317
41
  0.187500
42
  0.187500
43
  0.187500
50
180.000000
0
INSERT
8
0
62
2
6
CONTINUOUS
2
_FILLED
10
35.3045689723
20
18.3336714317
41
  0.187500
42
  0.187500
43
  0.187500
0
ENDBLK
8
0
6
BYBLOCK
62
0
0
BLOCK
8
0
62
2
6
CONTINUOUS
2
*D1
70
65
10
0.0000000000
20
0.0000000000
0
TEXT
8
0
62
2
6
CONTINUOUS
10
19.5100562921
20
22.3355729868
40
0.2083333333
1
"
72
5
11
19.6767229588
21
22.3355729868
0
TEXT
8
0
62
2
6
CONTINUOUS
10
18.3433896254
20
22.0230729868
40
0.2083333333
1
(54,6 cm)
72
5
11
19.8433896254
21
22.0230729868
0
TEXT
8
0
62
2
6
CONTINUOUS
10
18.5100562921
20
22.3355729868
40
0.2083333333
1
21-1/2
72
5
11
19.5100562921
21
22.3355729868
0
LINE
8
0
62
2
6
CONTINUOUS
10
19.1170689723
20
29.1280158342
11
19.2183896254
21
29.1280158342
0
LINE
8
0
62
2
6
CONTINUOUS
10
19.1170689723
20
7.6280158342
11
19.2183896254
21
7.6280158342
0
LINE
8
0
62
2
6
CONTINUOUS
10
19.0933896254
20
29.1280158342
11
19.0933896254
21
22.6480729868
0
LINE
8
0
62
2
6
CONTINUOUS
10
19.0933896254
20
7.6280158342
11
19.0933896254
21
21.9189063202
0
INSERT
8
0
62
2
6
CONTINUOUS
2
_FILLED
10
19.0933896254
20
29.1280158342
41
  0.187500
42
  0.187500
43
  0.187500
50
 90.000000
0
INSERT
8
0
62
2
6
CONTINUOUS
2
_FILLED
10
19.0933896254
20
7.6280158342
41
  0.187500
42
  0.187500
43
  0.187500
50
270.000000
0
ENDBLK
8
0
6
BYBLOCK
62
0
0
BLOCK
8
0
2
_FILLED
70
64
10
0.0000000000
20
0.0000000000
0
SOLID
8
0
6
BYBLOCK
62
0
10
0.0000000000
20
0.0000000000
11
-1.0000000000
21
0.1666666667
12
-1.0000000000
22
-0.1666666667
13
-1.0000000000
23
-0.1666666667
0
ENDBLK
8
0
6
BYBLOCK
62
0
0
ENDSEC
0
SECTION
2
ENTITIES
0
SOLID
8
0
62
2
6
CONTINUOUS
10
40.8072610938
20
2.1494786233
11
40.7244340938
21
2.1346456233
12
40.8293930938
22
2.1712926233
13
40.8293930938
23
2.1712926233
0
SOLID
8
0
62
2
6
CONTINUOUS
10
40.8293930938
20
2.1712926233
11
40.7244340938
21
2.1346456233
12
40.8382750938
22
2.1907086233
13
40.8382750938
23
2.1907086233
0
SOLID
8
0
62
2
6
CONTINUOUS
10
40.8382750938
20
2.1907086233
11
40.7244340938
21
2.1346456233
12
40.7578090938
22
2.1907086233
13
40.7578090938
23
2.1907086233
0
SOLID
8
0
62
2
6
CONTINUOUS
10
40.7244340938
20
2.1346456233
11
40.6574340938
21
2.0252706233
12
40.7578090938
22
2.1907086233
13
40.7578090938
23
2.1907086233
0
SOLID
8
0
62
2
6
CONTINUOUS
10
40.7578090938
20
2.1907086233
11
40.6574340938
21
2.0252706233
12
40.7244340938
22
2.1907086233
13
40.7244340938
23
2.1907086233
0
SOLID
8
0
62
2
6
CONTINUOUS
10
40.7244340938
20
2.1907086233
11
40.6574340938
21
2.0252706233
12
40.7244340938
22
2.2520206233
13
40.7244340938
23
2.2520206233
0
SOLID
8
0
62
2
6
CONTINUOUS
10
40.6574340938
20
2.0252706233
11
40.6574340938
21
2.2520206233
12
40.7244340938
22
2.2520206233
13
40.7244340938
23
2.2520206233
0
SOLID
8
0
62
2
6
CONTINUOUS
10
40.7244340938
20
2.1346456233
11
40.7244340938
21
2.0252706233
12
40.6574340938
22
2.0252706233
13
40.6574340938
23
2.0252706233
0
SOLID
8
0
62
2
6
CONTINUOUS
10
40.7244340938
20
2.1346456233
11
40.8072610938
21
2.1494786233
12
40.7388680938
22
2.1346456233
13
40.7388680938
23
2.1346456233
0
SOLID
8
0
62
2
6
CONTINUOUS
10
40.7388680938
20
2.1346456233
11
40.8072610938
21
2.1494786233
12
40.7995600938
22
2.0252706233
13
40.7995600938
23
2.0252706233
0
SOLID
8
0
62
2
6
CONTINUOUS
10
40.8072610938
20
2.1494786233
11
40.8761840938
21
2.0252706233
12
40.7995600938
22
2.0252706233
13
40.7995600938
23
2.0252706233
0
SOLID
8
0
62
2
6
CONTINUOUS
10
40.8376968411
20
2.2602656233
11
40.6599068411
21
2.2520206233
12
40.8185998411
22
2.2847806233
13
40.8185998411
23
2.2847806233
0
SOLID
8
0
62
2
6
CONTINUOUS
10
40.8185998411
20
2.2847806233
11
40.6599068411
21
2.2520206233
12
40.7920328411
22
2.3009016233
13
40.7920328411
23
2.3009016233
0
SOLID
8
0
62
2
6
CONTINUOUS
10
40.7920328411
20
2.3009016233
11
40.6599068411
21
2.2520206233
12
40.7614698411
22
2.3065206233
13
40.7614698411
23
2.3065206233
0
SOLID
8
0
62
2
6
CONTINUOUS
10
40.6599068411
20
2.2520206233
11
40.6599068411
21
2.3065206233
12
40.7614698411
22
2.3065206233
13
40.7614698411
23
2.3065206233
0
SOLID
8
0
62
2
6
CONTINUOUS
10
40.6599068411
20
2.2520206233
11
40.8376968411
21
2.2602656233
12
40.7269068411
22
2.2520206233
13
40.7269068411
23
2.2520206233
0
SOLID
8
0
62
2
6
CONTINUOUS
10
40.7269068411
20
2.2520206233
11
40.8376968411
21
2.2602656233
12
40.7602818411
22
2.2520206233
13
40.7602818411
23
2.2520206233
0
SOLID
8
0
62
2
6
CONTINUOUS
10
40.7602818411
20
2.2520206233
11
40.8376968411
21
2.2602656233
12
40.7756098411
22
2.2479136233
13
40.7756098411
23
2.2479136233
0
SOLID
8
0
62
2
6
CONTINUOUS
10
40.7756098411
20
2.2479136233
11
40.8376968411
21
2.2602656233
12
40.7868308411
22
2.2366926233
13
40.7868308411
23
2.2366926233
0
SOLID
8
0
62
2
6
CONTINUOUS
10
40.8376968411
20
2.2602656233
11
40.8468258411
21
2.2305606233
12
40.7868308411
22
2.2366926233
13
40.7868308411
23
2.2366926233
0
SOLID
8
0
62
2
6
CONTINUOUS
10
40.7909378411
20
2.2213646233
11
40.7868308411
21
2.2366926233
12
40.8468258411
22
2.2305606233
13
40.8468258411
23
2.2305606233
0
SOLID
8
0
62
2
6
CONTINUOUS
10
40.7909378411
20
2.2213646233
11
40.8468258411
21
2.2305606233
12
40.7868308411
22
2.2060366233
13
40.7868308411
23
2.2060366233
0
SOLID
8
0
62
2
6
CONTINUOUS
10
40.8468258411
20
2.2305606233
11
40.8447938411
21
2.1995516233
12
40.7868308411
22
2.2060366233
13
40.7868308411
23
2.2060366233
0
SOLID
8
0
62
2
6
CONTINUOUS
10
40.7756098411
20
2.1948156233
11
40.7868308411
21
2.2060366233
12
40.8447938411
22
2.1995516233
13
40.8447938411
23
2.1995516233
0
SOLID
8
0
62
2
6
CONTINUOUS
10
40.7756098411
20
2.1948156233
11
40.8447938411
21
2.1995516233
12
40.7602818411
22
2.1907086233
13
40.7602818411
23
2.1907086233
0
SOLID
8
0
62
2
6
CONTINUOUS
10
40.8447938411
20
2.1995516233
11
40.8407478411
21
2.1907086233
12
40.7602818411
22
2.1907086233
13
40.7602818411
23
2.1907086233
0
SOLID
8
0
62
2
6
CONTINUOUS
10
39.5748090938
20
2.2182726233
11
39.6630570938
21
2.3065206233
12
39.7578090938
22
2.3065206233
13
39.7578090938
23
2.3065206233
0
SOLID
8
0
62
2
6
CONTINUOUS
10
39.7578090938
20
2.3065206233
11
39.6328090938
21
2.1815206233
12
39.5748090938
22
2.2182726233
13
39.5748090938
23
2.2182726233
0
SOLID
8
0
62
2
6
CONTINUOUS
10
39.6328090938
20
2.1815206233
11
39.5748090938
21
2.1467686233
12
39.5748090938
22
2.2182726233
13
39.5748090938
23
2.2182726233
0
SOLID
8
0
62
2
6
CONTINUOUS
10
39.5748090938
20
2.1467686233
11
39.5078090938
21
2.0252706233
12
39.5748090938
22
2.2182726233
13
39.5748090938
23
2.2182726233
0
SOLID
8
0
62
2
6
CONTINUOUS
10
39.5748090938
20
2.2182726233
11
39.5078090938
21
2.0252706233
12
39.5748090938
22
2.3065206233
13
39.5748090938
23
2.3065206233
0
SOLID
8
0
62
2
6
CONTINUOUS
10
39.5078090938
20
2.0252706233
11
39.5078090938
21
2.3065206233
12
39.5748090938
22
2.3065206233
13
39.5748090938
23
2.3065206233
0
SOLID
8
0
62
2
6
CONTINUOUS
10
39.5748090938
20
2.1467686233
11
39.5748090938
21
2.0252706233
12
39.5078090938
22
2.0252706233
13
39.5078090938
23
2.0252706233
0
SOLID
8
0
62
2
6
CONTINUOUS
10
39.5748090938
20
2.1467686233
11
39.6328090938
21
2.1815206233
12
39.6720070938
22
2.0252706233
13
39.6720070938
23
2.0252706233
0
SOLID
8
0
62
2
6
CONTINUOUS
10
39.6328090938
20
2.1815206233
11
39.7578090938
21
2.0252706233
12
39.6720070938
22
2.0252706233
13
39.6720070938
23
2.0252706233
0
SOLID
8
0
62
2
6
CONTINUOUS
10
39.8228150938
20
2.2246496233
11
39.7334420938
21
2.2093516233
12
39.8470360938
22
2.2367096233
13
39.8470360938
23
2.2367096233
0
SOLID
8
0
62
2
6
CONTINUOUS
10
39.8739770938
20
2.2392066233
11
39.8470360938
21
2.2367096233
12
39.7486540938
22
2.2392066233
13
39.7486540938
23
2.2392066233
0
SOLID
8
0
62
2
6
CONTINUOUS
10
39.7334420938
20
2.2093516233
11
39.7486540938
21
2.2392066233
12
39.8470360938
22
2.2367096233
13
39.8470360938
23
2.2367096233
0
SOLID
8
0
62
2
6
CONTINUOUS
10
39.8228150938
20
2.2246496233
11
39.8045870938
21
2.2046546233
12
39.7334420938
22
2.2093516233
13
39.7334420938
23
2.2093516233
0
SOLID
8
0
62
2
6
CONTINUOUS
10
39.7948130938
20
2.1794246233
11
39.7265590938
21
2.1658956233
12
39.8045870938
22
2.2046546233
13
39.8045870938
23
2.2046546233
0
SOLID
8
0
62
2
6
CONTINUOUS
10
39.7265590938
20
2.1658956233
11
39.7334420938
21
2.2093516233
12
39.8045870938
22
2.2046546233
13
39.8045870938
23
2.2046546233
0
SOLID
8
0
62
2
6
CONTINUOUS
10
39.7948130938
20
2.1794246233
11
39.7948130938
21
2.1523666233
12
39.7265590938
22
2.1658956233
13
39.7265590938
23
2.1658956233
0
SOLID
8
0
62
2
6
CONTINUOUS
10
39.8045870938
20
2.1271366233
11
39.7334420938
21
2.1224396233
12
39.7948130938
22
2.1523666233
13
39.7948130938
23
2.1523666233
0
SOLID
8
0
62
2
6
CONTINUOUS
10
39.7334420938
20
2.1224396233
11
39.7265590938
21
2.1658956233
12
39.7948130938
22
2.1523666233
13
39.7948130938
23
2.1523666233
0
SOLID
8
0
62
2
6
CONTINUOUS
10
39.8045870938
20
2.1271366233
11
39.8228150938
21
2.1071416233
12
39.7334420938
22
2.1224396233
13
39.7334420938
23
2.1224396233
0
SOLID
8
0
62
2
6
CONTINUOUS
10
39.9857140938
20
2.0925846233
11
39.7534160938
21
2.0832386233
12
39.8739770938
22
2.0925846233
13
39.8739770938
23
2.0925846233
0
SOLID
8
0
62
2
6
CONTINUOUS
10
39.8739770938
20
2.0925846233
11
39.7534160938
21
2.0832386233
12
39.8470360938
22
2.0950816233
13
39.8470360938
23
2.0950816233
0
SOLID
8
0
62
2
6
CONTINUOUS
10
39.8470360938
20
2.0950816233
11
39.7534160938
21
2.0832386233
12
39.8228150938
22
2.1071416233
13
39.8228150938
23
2.1071416233
0
SOLID
8
0
62
2
6
CONTINUOUS
10
39.7534160938
20
2.0832386233
11
39.7334420938
21
2.1224396233
12
39.8228150938
22
2.1071416233
13
39.8228150938
23
2.1071416233
0
SOLID
8
0
62
2
6
CONTINUOUS
10
39.9857140938
20
2.0925846233
11
39.9809520938
21
2.0832386233
12
39.7534160938
22
2.0832386233
13
39.7534160938
23
2.0832386233
0
SOLID
8
0
62
2
6
CONTINUOUS
10
39.7845270938
20
2.0521276233
11
39.7534160938
21
2.0832386233
12
39.9809520938
22
2.0832386233
13
39.9809520938
23
2.0832386233
0
SOLID
8
0
62
2
6
CONTINUOUS
10
39.9809520938
20
2.0832386233
11
39.9498410938
21
2.0521276233
12
39.7845270938
22
2.0521276233
13
39.7845270938
23
2.0521276233
0
SOLID
8
0
62
2
6
CONTINUOUS
10
39.8237280938
20
2.0321536233
11
39.7845270938
21
2.0521276233
12
39.9498410938
22
2.0521276233
13
39.9498410938
23
2.0521276233
0
SOLID
8
0
62
2
6
CONTINUOUS
10
39.9498410938
20
2.0521276233
11
39.9106400938
21
2.0321536233
12
39.8237280938
22
2.0321536233
13
39.8237280938
23
2.0321536233
0
SOLID
8
0
62
2
6
CONTINUOUS
10
39.8671840938
20
2.0252706233
11
39.8237280938
21
2.0321536233
12
39.9106400938
22
2.0321536233
13
39.9106400938
23
2.0321536233
0
SOLID
8
0
62
2
6
CONTINUOUS
10
39.8671840938
20
2.3065206233
11
39.9106400938
21
2.2996376233
12
39.8237280938
22
2.2996376233
13
39.8237280938
23
2.2996376233
0
SOLID
8
0
62
2
6
CONTINUOUS
10
39.7845270938
20
2.2796636233
11
39.8237280938
21
2.2996376233
12
39.9106400938
22
2.2996376233
13
39.9106400938
23
2.2996376233
0
SOLID
8
0
62
2
6
CONTINUOUS
10
39.9106400938
20
2.2996376233
11
39.9498410938
21
2.2796636233
12
39.7845270938
22
2.2796636233
13
39.7845270938
23
2.2796636233
0
SOLID
8
0
62
2
6
CONTINUOUS
10
39.7534160938
20
2.2485526233
11
39.7845270938
21
2.2796636233
12
39.9498410938
22
2.2796636233
13
39.9498410938
23
2.2796636233
0
SOLID
8
0
62
2
6
CONTINUOUS
10
39.9498410938
20
2.2796636233
11
39.9809520938
21
2.2485526233
12
39.7534160938
22
2.2485526233
13
39.7534160938
23
2.2485526233
0
SOLID
8
0
62
2
6
CONTINUOUS
10
39.7486540938
20
2.2392066233
11
39.7534160938
21
2.2485526233
12
39.9809520938
22
2.2485526233
13
39.9809520938
23
2.2485526233
0
SOLID
8
0
62
2
6
CONTINUOUS
10
39.7486540938
20
2.2392066233
11
39.9809520938
21
2.2485526233
12
39.8739770938
22
2.2392066233
13
39.8739770938
23
2.2392066233
0
SOLID
8
0
62
2
6
CONTINUOUS
10
39.8739770938
20
2.2392066233
11
39.9809520938
21
2.2485526233
12
39.9000010938
22
2.2318016233
13
39.9000010938
23
2.2318016233
0
SOLID
8
0
62
2
6
CONTINUOUS
10
39.9000010938
20
2.2318016233
11
39.9809520938
21
2.2485526233
12
39.9215940938
22
2.2154966233
13
39.9215940938
23
2.2154966233
0
SOLID
8
0
62
2
6
CONTINUOUS
10
39.9809520938
20
2.2485526233
11
40.0009260938
21
2.2093516233
12
39.9215940938
22
2.2154966233
13
39.9215940938
23
2.2154966233
0
SOLID
8
0
62
2
6
CONTINUOUS
10
39.9358370938
20
2.1924916233
11
39.9215940938
21
2.2154966233
12
40.0009260938
22
2.2093516233
13
40.0009260938
23
2.2093516233
0
SOLID
8
0
62
2
6
CONTINUOUS
10
39.9358370938
20
2.1924916233
11
40.0009260938
21
2.2093516233
12
39.9408090938
22
2.1658956233
13
39.9408090938
23
2.1658956233
0
SOLID
8
0
62
2
6
CONTINUOUS
10
40.0009260938
20
2.2093516233
11
40.0078090938
21
2.1658956233
12
39.9408090938
22
2.1658956233
13
39.9408090938
23
2.1658956233
0
SOLID
8
0
62
2
6
CONTINUOUS
10
39.9358370938
20
2.1392996233
11
39.9408090938
21
2.1658956233
12
40.0078090938
22
2.1658956233
13
40.0078090938
23
2.1658956233
0
SOLID
8
0
62
2
6
CONTINUOUS
10
40.0078090938
20
2.1658956233
11
40.0009260938
21
2.1224396233
12
39.9358370938
22
2.1392996233
13
39.9358370938
23
2.1392996233
0
SOLID
8
0
62
2
6
CONTINUOUS
10
39.9215940938
20
2.1162946233
11
39.9358370938
21
2.1392996233
12
40.0009260938
22
2.1224396233
13
40.0009260938
23
2.1224396233
0
SOLID
8
0
62
2
6
CONTINUOUS
10
39.9215940938
20
2.1162946233
11
40.0009260938
21
2.1224396233
12
39.9000010938
22
2.0999896233
13
39.9000010938
23
2.0999896233
0
SOLID
8
0
62
2
6
CONTINUOUS
10
39.9000010938
20
2.0999896233
11
40.0009260938
21
2.1224396233
12
39.8739770938
22
2.0925846233
13
39.8739770938
23
2.0925846233
0
SOLID
8
0
62
2
6
CONTINUOUS
10
40.0009260938
20
2.1224396233
11
39.9857140938
21
2.0925846233
12
39.8739770938
22
2.0925846233
13
39.8739770938
23
2.0925846233
0
SOLID
8
0
62
2
6
CONTINUOUS
10
40.1841840938
20
2.2150206233
11
40.1841840938
21
2.3065206233
12
40.2511840938
22
2.3065206233
13
40.2511840938
23
2.3065206233
0
SOLID
8
0
62
2
6
CONTINUOUS
10
40.1841840938
20
2.2150206233
11
40.1060590938
21
2.1480206233
12
40.1060590938
22
2.2150206233
13
40.1060590938
23
2.2150206233
0
SOLID
8
0
62
2
6
CONTINUOUS
10
40.1060590938
20
2.1480206233
11
40.0390590938
21
2.0252706233
12
40.1060590938
22
2.2150206233
13
40.1060590938
23
2.2150206233
0
SOLID
8
0
62
2
6
CONTINUOUS
10
40.1060590938
20
2.2150206233
11
40.0390590938
21
2.0252706233
12
40.1060590938
22
2.3065206233
13
40.1060590938
23
2.3065206233
0
SOLID
8
0
62
2
6
CONTINUOUS
10
40.0390590938
20
2.0252706233
11
40.0390590938
21
2.3065206233
12
40.1060590938
22
2.3065206233
13
40.1060590938
23
2.3065206233
0
SOLID
8
0
62
2
6
CONTINUOUS
10
40.1060590938
20
2.1480206233
11
40.1060590938
21
2.0252706233
12
40.0390590938
22
2.0252706233
13
40.0390590938
23
2.0252706233
0
SOLID
8
0
62
2
6
CONTINUOUS
10
40.1060590938
20
2.1480206233
11
40.1841840938
21
2.2150206233
12
40.1841840938
22
2.1480206233
13
40.1841840938
23
2.1480206233
0
SOLID
8
0
62
2
6
CONTINUOUS
10
40.1841840938
20
2.2150206233
11
40.2511840938
21
2.3065206233
12
40.1841840938
22
2.1480206233
13
40.1841840938
23
2.1480206233
0
SOLID
8
0
62
2
6
CONTINUOUS
10
40.1841840938
20
2.1480206233
11
40.2511840938
21
2.3065206233
12
40.1841840938
22
2.0252706233
13
40.1841840938
23
2.0252706233
0
SOLID
8
0
62
2
6
CONTINUOUS
10
40.2511840938
20
2.3065206233
11
40.2511840938
21
2.0252706233
12
40.1841840938
22
2.0252706233
13
40.1841840938
23
2.0252706233
0
SOLID
8
0
62
2
6
CONTINUOUS
10
40.4386840938
20
2.0922706233
11
40.2824340938
21
2.0252706233
12
40.3494340938
22
2.0922706233
13
40.3494340938
23
2.0922706233
0
SOLID
8
0
62
2
6
CONTINUOUS
10
40.3494340938
20
2.0922706233
11
40.2824340938
21
2.0252706233
12
40.3494340938
22
2.3065206233
13
40.3494340938
23
2.3065206233
0
SOLID
8
0
62
2
6
CONTINUOUS
10
40.2824340938
20
2.0252706233
11
40.2824340938
21
2.3065206233
12
40.3494340938
22
2.3065206233
13
40.3494340938
23
2.3065206233
0
SOLID
8
0
62
2
6
CONTINUOUS
10
40.4386840938
20
2.0922706233
11
40.4386840938
21
2.0252706233
12
40.2824340938
22
2.0252706233
13
40.2824340938
23
2.0252706233
0
SOLID
8
0
62
2
6
CONTINUOUS
10
40.6261840938
20
2.3065206233
11
40.6261840938
21
2.2395206233
12
40.5369340938
22
2.2395206233
13
40.5369340938
23
2.2395206233
0
SOLID
8
0
62
2
6
CONTINUOUS
10
40.6261840938
20
2.1915836233
11
40.6261840938
21
2.1402086233
12
40.5369340938
22
2.1402086233
13
40.5369340938
23
2.1402086233
0
SOLID
8
0
62
2
6
CONTINUOUS
10
40.6261840938
20
2.0922706233
11
40.4699340938
21
2.0252706233
12
40.5369340938
22
2.0922706233
13
40.5369340938
23
2.0922706233
0
SOLID
8
0
62
2
6
CONTINUOUS
10
40.5369340938
20
2.0922706233
11
40.4699340938
21
2.0252706233
12
40.5369340938
22
2.1402086233
13
40.5369340938
23
2.1402086233
0
SOLID
8
0
62
2
6
CONTINUOUS
10
40.6261840938
20
2.1915836233
11
40.5369340938
21
2.1402086233
12
40.5369340938
22
2.1915836233
13
40.5369340938
23
2.1915836233
0
SOLID
8
0
62
2
6
CONTINUOUS
10
40.5369340938
20
2.1402086233
11
40.4699340938
21
2.0252706233
12
40.5369340938
22
2.1915836233
13
40.5369340938
23
2.1915836233
0
SOLID
8
0
62
2
6
CONTINUOUS
10
40.5369340938
20
2.1915836233
11
40.4699340938
21
2.0252706233
12
40.5369340938
22
2.2395206233
13
40.5369340938
23
2.2395206233
0
SOLID
8
0
62
2
6
CONTINUOUS
10
40.6261840938
20
2.3065206233
11
40.5369340938
21
2.2395206233
12
40.4699340938
22
2.3065206233
13
40.4699340938
23
2.3065206233
0
SOLID
8
0
62
2
6
CONTINUOUS
10
40.4699340938
20
2.0252706233
11
40.4699340938
21
2.3065206233
12
40.5369340938
22
2.2395206233
13
40.5369340938
23
2.2395206233
0
SOLID
8
0
62
2
6
CONTINUOUS
10
40.6261840938
20
2.0922706233
11
40.6261840938
21
2.0252706233
12
40.4699340938
22
2.0252706233
13
40.4699340938
23
2.0252706233
0
TEXT
8
0
62
2
6
CONTINUOUS
10
38.9018250938
20
2.9909506233
40
0.0750000000
1
DRAWN
51
0.0000190000
72
5
11
39.2918250938
21
2.9909506233
0
TEXT
8
0
62
2
6
CONTINUOUS
10
43.0775261490
20
0.7915288595
40
0.0750000000
1
SHEET
51
0.0000190000
72
5
11
43.4300261490
21
0.7915288595
0
TEXT
8
0
62
2
6
CONTINUOUS
10
41.9126130938
20
2.4938046233
40
0.1000000000
1
PRO/E
51
0.0000190000
72
5
11
42.3126130938
21
2.4938046233
0
TEXT
8
0
62
2
6
CONTINUOUS
10
42.9378310938
20
2.9691176233
40
0.0750000000
1
DWG
51
0.0000190000
72
5
11
43.1628310938
21
2.9691176233
0
TEXT
8
0
62
2
6
CONTINUOUS
10
39.1056400938
20
2.4939596233
40
0.0900000000
1
DO NOT SCALE DRAWING
51
0.0000190000
72
5
11
41.2656400938
21
2.4939596233
0
TEXT
8
0
62
2
6
CONTINUOUS
10
38.9130820938
20
1.8354526233
40
0.0750000000
1
KOHLER CO. KOHLER, WISCONSIN 53044
51
0.0000190000
72
5
11
41.5140820938
21
1.8354526233
0
TEXT
8
0
62
2
6
CONTINUOUS
10
41.6960010938
20
2.2782146233
40
0.0750000000
1
THIRD ANGLE PROJECTION
51
0.0000190000
72
5
11
43.3460010938
21
2.2782146233
0
TEXT
8
0
62
2
6
CONTINUOUS
10
37.5593130938
20
1.4917496233
40
0.0625000000
1
THIS DRAWING IN DESIGN
51
0.0000190000
72
5
11
38.8311880938
21
1.4917496233
0
TEXT
8
0
62
2
6
CONTINUOUS
10
37.5593130938
20
1.3761246233
40
0.0625000000
1
AND DETAILS IS THE PROP-
51
0.0000190000
72
5
11
38.8343130938
21
1.3761246233
0
TEXT
8
0
62
2
6
CONTINUOUS
10
42.9078000938
20
2.5019606233
40
0.0750000000
1
SIZE
51
0.0000190000
72
5
11
43.2078000938
21
2.5019606233
0
TEXT
8
0
62
2
6
CONTINUOUS
10
37.5593130938
20
1.2611246233
40
0.0625000000
1
ERTY OF KOHLER CO. 
51
0.0000190000
72
5
11
38.7468130938
21
1.2611246233
0
TEXT
8
0
62
2
6
CONTINUOUS
10
37.5593130938
20
0.8011246233
40
0.0625000000
1
ALL RIGHTS OF DESIGN
51
0.0000190000
72
5
11
38.8093130938
21
0.8011246233
0
TEXT
8
0
62
2
6
CONTINUOUS
10
37.5593130938
20
0.6861246233
40
0.0625000000
1
OR INVENTION ARE
51
0.0000190000
72
5
11
38.5593130938
21
0.6861246233
0
TEXT
8
0
62
2
6
CONTINUOUS
10
37.5593130938
20
0.5711246233
40
0.0625000000
1
RESERVED.
51
0.0000190000
72
5
11
38.1218130938
21
0.5711246233
0
TEXT
8
0
62
2
6
CONTINUOUS
10
37.5593130938
20
1.1492496233
40
0.0625000000
1
AND MAY NOT BE USED
51
0.0000190000
72
5
11
38.7468130938
21
1.1492496233
0
TEXT
8
0
62
2
6
CONTINUOUS
10
37.5593130938
20
1.0342496233
40
0.0625000000
1
EXCEPT IN CONNECTION
51
0.0000190000
72
5
11
38.8093130938
21
1.0342496233
0
TEXT
8
0
62
2
6
CONTINUOUS
10
37.5593130938
20
0.9161246233
40
0.0625000000
1
WITH KOHLER CO. WORK.
51
0.0000190000
72
5
11
38.8718130938
21
0.9161246233
0
TEXT
8
0
62
2
6
CONTINUOUS
10
38.9122750938
20
0.7861736233
40
0.0750000000
1
DWG. NO.
51
0.0000190000
72
5
11
39.3922750938
21
0.7861736233
0
TEXT
8
0
62
2
6
CONTINUOUS
10
38.9212160938
20
1.6398676233
40
0.0750000000
1
DESCRIPTION
51
0.0000190000
72
5
11
39.7874660938
21
1.6398676233
0
TEXT
8
0
62
2
6
CONTINUOUS
10
39.9419610938
20
2.9929976233
40
0.0750000000
1
DATE
51
0.0000190000
72
5
11
40.2689610938
21
2.9929976233
0
TEXT
8
0
62
2
6
CONTINUOUS
10
41.0032370938
20
3.0001426233
40
0.0750000000
1
CHECKED
51
0.0000190000
72
5
11
41.5229870938
21
3.0001426233
0
TEXT
8
0
62
2
6
CONTINUOUS
10
41.9881440938
20
2.9933096233
40
0.0750000000
1
DATE
51
0.0000190000
72
5
11
42.3151440938
21
2.9933096233
0
TEXT
8
0
62
2
6
CONTINUOUS
10
38.8974630938
20
3.3375566233
40
0.0750000000
1
APPROVED
51
0.0000190000
72
5
11
39.5394630938
21
3.3375566233
0
TEXT
8
0
62
2
6
CONTINUOUS
10
40.9992040938
20
3.3389096233
40
0.0750000000
1
DATE
51
0.0000190000
72
5
11
41.3262040938
21
3.3389096233
0
TEXT
8
0
62
2
6
CONTINUOUS
10
37.7001250938
20
3.2901876233
40
0.0750000000
1
TOLERANCES
51
0.0000190000
72
5
11
38.6226250938
21
3.2901876233
0
TEXT
8
0
62
2
6
CONTINUOUS
10
42.6980520938
20
3.3375416233
40
0.0750000000
1
SCALE
51
0.0000190000
72
5
11
43.0993000938
21
3.3375416233
0
TEXT
8
0
62
2
6
CONTINUOUS
10
37.9497250938
20
3.1495626233
40
0.0750000000
1
UNLESS
51
0.0000190000
72
5
11
38.4042250938
21
3.1495626233
0
TEXT
8
0
62
2
6
CONTINUOUS
10
37.8177250938
20
3.0089376233
40
0.0750000000
1
OTHERWISE
51
0.0000190000
72
5
11
38.5197250938
21
3.0089376233
0
TEXT
8
0
62
2
6
CONTINUOUS
10
37.8213250938
20
2.8683126233
40
0.0750000000
1
SPECIFIED
51
0.0000190000
72
5
11
38.5165750938
21
2.8683126233
0
TEXT
8
0
62
2
6
CONTINUOUS
10
33.1354690933
20
0.8020953155
40
0.0900000000
1
SHT
51
0.0000190000
72
5
11
33.3892700933
21
0.8020953155
0
TEXT
8
0
62
2
6
CONTINUOUS
10
33.7470951035
20
0.7951450199
40
0.0900000000
1
SYM
51
0.0000190000
72
5
11
34.0170951035
21
0.7951450199
0
TEXT
8
0
62
2
6
CONTINUOUS
10
34.4073731825
20
0.8020953155
40
0.0900000000
1
BY
51
0.0000190000
72
5
11
34.5819741825
21
0.8020953155
0
TEXT
8
0
62
2
6
CONTINUOUS
10
35.2578619021
20
0.8020953155
40
0.0900000000
1
DESCRIPTION
51
0.0000190000
72
5
11
36.2973619021
21
0.8020953155
0
TEXT
8
0
62
2
6
CONTINUOUS
10
36.9954357945
20
0.8090456110
40
0.0900000000
1
DATE
51
0.0000190000
72
5
11
37.3878357945
21
0.8090456110
0
TEXT
8
0
62
2
6
CONTINUOUS
10
34.0139380938
20
0.5795626233
40
0.0900000000
1
DWG REVISION RECORD
51
0.0000190000
72
5
11
36.3737380938
21
0.5795626233
0
TEXT
8
0
62
2
6
CONTINUOUS
10
41.9803760938
20
3.3329866233
40
0.0750000000
1
PLOT DATE
51
0.0000190000
72
5
11
42.6047510938
21
3.3329866233
0
TEXT
8
0
62
2
6
CONTINUOUS
10
41.7181310938
20
1.6528056233
40
0.0750000000
1
PART NAME
51
0.0000190000
72
5
11
42.2581310938
21
1.6528056233
0
TEXT
8
0
62
2
6
CONTINUOUS
10
41.0936250938
20
1.1517496233
40
0.2400000000
1
 
51
0.0000187240
72
5
11
41.2856250938
21
1.1517496233
0
TEXT
8
0
62
2
6
CONTINUOUS
10
42.9142710358
20
2.6658647036
40
0.2400000000
1
E
72
5
11
43.2022710358
21
2.6658647036
0
TEXT
8
0
6
CONTINUOUS
10
43.6500000000
20
2.0000000000
40
0.2500000000
1
A
72
5
11
43.8500000000
21
2.0000000000
0
TEXT
8
0
6
CONTINUOUS
10
43.6500000000
20
6.2500000000
40
0.2500000000
1
B
72
5
11
43.8500000000
21
6.2500000000
0
TEXT
8
0
6
CONTINUOUS
10
43.6500000000
20
10.5000000000
40
0.2500000000
1
C
72
5
11
43.8500000000
21
10.5000000000
0
TEXT
8
0
6
CONTINUOUS
10
43.6500000000
20
14.7500000000
40
0.2500000000
1
D
72
5
11
43.8500000000
21
14.7500000000
0
TEXT
8
0
6
CONTINUOUS
10
43.6500000000
20
19.0000000000
40
0.2500000000
1
E
72
5
11
43.8500000000
21
19.0000000000
0
TEXT
8
0
6
CONTINUOUS
10
43.6500000000
20
23.2500000000
40
0.2500000000
1
F
72
5
11
43.8500000000
21
23.2500000000
0
TEXT
8
0
6
CONTINUOUS
10
43.6500000000
20
27.5000000000
40
0.2500000000
1
G
72
5
11
43.8500000000
21
27.5000000000
0
TEXT
8
0
6
CONTINUOUS
10
43.6500000000
20
31.7500000000
40
0.2500000000
1
H
72
5
11
43.8500000000
21
31.7500000000
0
TEXT
8
0
6
CONTINUOUS
10
2.6500000000
20
0.1250000000
40
0.2500000000
1
8
72
5
11
2.8500000000
21
0.1250000000
0
TEXT
8
0
6
CONTINUOUS
10
8.1500000000
20
0.1250000000
40
0.2500000000
1
7
72
5
11
8.3500000000
21
0.1250000000
0
TEXT
8
0
6
CONTINUOUS
10
13.6500000000
20
0.1250000000
40
0.2500000000
1
6
72
5
11
13.8500000000
21
0.1250000000
0
TEXT
8
0
6
CONTINUOUS
10
19.1500000000
20
0.1250000000
40
0.2500000000
1
5
72
5
11
19.3500000000
21
0.1250000000
0
TEXT
8
0
6
CONTINUOUS
10
24.6500000000
20
0.1250000000
40
0.2500000000
1
4
72
5
11
24.8500000000
21
0.1250000000
0
TEXT
8
0
6
CONTINUOUS
10
30.1500000000
20
0.1250000000
40
0.2500000000
1
3
72
5
11
30.3500000000
21
0.1250000000
0
TEXT
8
0
6
CONTINUOUS
10
35.6500000000
20
0.1250000000
40
0.2500000000
1
2
72
5
11
35.8500000000
21
0.1250000000
0
TEXT
8
0
6
CONTINUOUS
10
41.1500000000
20
0.1250000000
40
0.2500000000
1
1
72
5
11
41.3500000000
21
0.1250000000
0
INSERT
8
DEFAULT_2
62
8
6
HIDDEN
2
C_ARROW_BL0
10
22.0000000000
20
33.6875000000
0
INSERT
8
DEFAULT_2
62
8
6
HIDDEN
2
C_ARROW_BL1
10
0.3120169847
20
17.0000000000
0
INSERT
8
DEFAULT_2
62
8
6
HIDDEN
2
C_ARROW_BL2
10
22.0000000000
20
0.3125000000
0
INSERT
8
DEFAULT_2
62
8
6
HIDDEN
2
C_ARROW_BL3
10
43.6878685885
20
17.0000000000
0
SOLID
8
0
62
2
6
CONTINUOUS
10
25.0423501174
20
14.2267546189
11
25.0423501174
21
14.3483896189
12
25.8980551172
22
14.3483896189
13
25.8980551172
23
14.3483896189
0
SOLID
8
0
62
2
6
CONTINUOUS
10
25.8980551172
20
14.3483896189
11
25.8980551172
21
14.2267546189
12
25.0423501174
22
14.2267546189
13
25.0423501174
23
14.2267546189
0
SOLID
8
0
62
2
6
CONTINUOUS
10
25.0423501174
20
13.9401421160
11
25.0423501174
21
13.9751221235
12
25.8980551172
22
13.9751221235
13
25.8980551172
23
13.9751221235
0
SOLID
8
0
62
2
6
CONTINUOUS
10
25.8980551172
20
13.9751221235
11
25.8980551172
21
13.9401421160
12
25.0423501174
22
13.9401421160
13
25.0423501174
23
13.9401421160
0
SOLID
8
0
62
2
6
CONTINUOUS
10
25.0890001174
20
14.3933896219
11
25.0890001174
21
14.4550396204
12
25.9447051172
22
14.4550396204
13
25.9447051172
23
14.4550396204
0
SOLID
8
0
62
2
6
CONTINUOUS
10
25.9447051172
20
14.4550396204
11
25.9447051172
21
14.3933896219
12
25.0890001174
22
14.3933896219
13
25.0890001174
23
14.3933896219
0
SOLID
8
0
62
2
6
CONTINUOUS
10
25.0890001174
20
14.5200346069
11
25.0890001174
21
14.5816771083
12
25.9447051172
22
14.5816771083
13
25.9447051172
23
14.5816771083
0
SOLID
8
0
62
2
6
CONTINUOUS
10
25.9447051172
20
14.5816771083
11
25.9447051172
21
14.5200346069
12
25.0890001174
22
14.5200346069
13
25.0890001174
23
14.5200346069
0
SOLID
8
0
62
2
6
CONTINUOUS
10
25.0890001174
20
14.6200171233
11
25.0890001174
21
14.6816596248
12
25.9447051172
22
14.6816596248
13
25.9447051172
23
14.6816596248
0
SOLID
8
0
62
2
6
CONTINUOUS
10
25.9447051172
20
14.6816596248
11
25.9447051172
21
14.6200171233
12
25.0890001174
22
14.6200171233
13
25.0890001174
23
14.6200171233
0
SOLID
8
0
62
2
6
CONTINUOUS
10
25.0890001174
20
14.7199921173
11
25.0890001174
21
14.7816421158
12
25.9447051172
22
14.7816421158
13
25.9447051172
23
14.7816421158
0
SOLID
8
0
62
2
6
CONTINUOUS
10
25.9447051172
20
14.7816421158
11
25.9447051172
21
14.7199921173
12
25.0890001174
22
14.7199921173
13
25.0890001174
23
14.7199921173
0
SOLID
8
0
62
2
6
CONTINUOUS
10
25.0890001174
20
14.8199746083
11
25.0890001174
21
14.8816246068
12
25.9447051172
22
14.8816246068
13
25.9447051172
23
14.8816246068
0
SOLID
8
0
62
2
6
CONTINUOUS
10
25.9447051172
20
14.8816246068
11
25.9447051172
21
14.8199746083
12
25.0890001174
22
14.8199746083
13
25.0890001174
23
14.8199746083
0
SOLID
8
0
62
2
6
CONTINUOUS
10
26.6305576170
20
14.2267546189
11
26.6305576170
21
14.3483896189
12
26.9735101169
22
14.3483896189
13
26.9735101169
23
14.3483896189
0
SOLID
8
0
62
2
6
CONTINUOUS
10
26.9735101169
20
14.3483896189
11
26.9735101169
21
14.2267546189
12
26.6305576170
22
14.2267546189
13
26.6305576170
23
14.2267546189
0
DIMENSION
8
0
62
2
6
CONTINUOUS
2
*D0
10
35.3045689723
20
18.3336714317
11
15.0325500144
21
18.1774214317
70
128
13
2.8045689723
23
18.2086714317
14
35.3045689723
24
18.2086714317
0
DIMENSION
8
0
62
2
6
CONTINUOUS
2
*D1
10
19.0933896254
20
7.6280158342
11
19.0933896254
21
22.2834896535
70
128
13
19.2183896254
23
29.1280158342
14
19.2183896254
24
7.6280158342
50
270.000000
0
LINE
8
0
62
2
6
CONTINUOUS
10
43.5000000000
20
0.5000000000
11
37.5000000000
21
0.5000000000
0
LINE
8
0
62
2
6
CONTINUOUS
10
43.5000000000
20
0.5000000000
11
43.5000000000
21
3.7000000000
0
LINE
8
0
62
2
6
CONTINUOUS
10
43.5000000000
20
0.9300000000
11
38.8700000000
21
0.9300000000
0
LINE
8
0
62
2
6
CONTINUOUS
10
43.5000000000
20
1.6300000000
11
41.6500000000
21
1.6300000000
0
LINE
8
0
62
2
6
CONTINUOUS
10
38.8700000000
20
1.6300000000
11
37.5000000000
21
1.6300000000
0
LINE
8
0
62
2
6
CONTINUOUS
10
43.5000000000
20
1.7700000000
11
38.8700000000
21
1.7700000000
0
LINE
8
0
62
2
6
CONTINUOUS
10
43.5000000000
20
2.4300000000
11
38.8700000000
21
2.4300000000
0
LINE
8
0
62
2
6
CONTINUOUS
10
42.6600000000
20
2.6500000000
11
38.8700000000
21
2.6500000000
0
LINE
8
0
62
2
6
CONTINUOUS
10
43.5000000000
20
3.1200000000
11
38.8700000000
21
3.1200000000
0
LINE
8
0
62
2
6
CONTINUOUS
10
43.5000000000
20
3.4500000000
11
37.5000000000
21
3.4500000000
0
LINE
8
0
62
2
6
CONTINUOUS
10
43.5000000000
20
3.7000000000
11
37.5000000000
21
3.7000000000
0
LINE
8
0
62
2
6
CONTINUOUS
10
42.9900000000
20
0.5000000000
11
42.9900000000
21
0.9300000000
0
LINE
8
0
62
2
6
CONTINUOUS
10
42.6600000000
20
2.4300000000
11
42.6600000000
21
3.4500000000
0
LINE
8
0
62
2
6
CONTINUOUS
10
41.9400000000
20
2.6500000000
11
41.9400000000
21
3.4500000000
0
LINE
8
0
62
2
6
CONTINUOUS
10
41.6500000000
20
1.6300000000
11
41.6500000000
21
2.6500000000
0
LINE
8
0
62
2
6
CONTINUOUS
10
40.9700000000
20
2.6500000000
11
40.9700000000
21
3.4500000000
0
LINE
8
0
62
2
6
CONTINUOUS
10
39.8900000000
20
2.6500000000
11
39.8900000000
21
3.1200000000
0
LINE
8
0
62
2
6
CONTINUOUS
10
38.8700000000
20
0.5000000000
11
38.8700000000
21
3.4500000000
0
LINE
8
0
62
2
6
CONTINUOUS
10
37.5000000000
20
0.5000000000
11
37.5000000000
21
3.7000000000
0
TEXT
8
0
62
2
6
CONTINUOUS
10
43.0050000000
20
0.5500000000
40
0.1000000000
1
1
72
5
11
43.0850000000
21
0.5500000000
0
TEXT
8
0
62
2
6
CONTINUOUS
10
43.0850000000
20
0.5500000000
40
0.1000000000
1
 of 
72
5
11
43.4050000000
21
0.5500000000
0
TEXT
8
0
62
2
6
CONTINUOUS
10
43.4050000000
20
0.5500000000
40
0.1000000000
1
1
72
5
11
43.4850000000
21
0.5500000000
0
TEXT
8
0
62
2
6
CONTINUOUS
10
40.0660000000
20
0.5950000000
40
0.2400000000
1
1032929-7
72
5
11
41.7940000000
21
0.5950000000
0
TEXT
8
0
62
2
6
CONTINUOUS
10
39.8410000000
20
1.1600000000
40
0.2400000000
1
TEMPLATE, SINK
72
5
11
42.5290000000
21
1.1600000000
0
TEXT
8
0
62
2
6
CONTINUOUS
10
42.7400000000
20
1.6500000000
40
0.1000000000
1
1032929-7
72
5
11
43.4600000000
21
1.6500000000
0
TEXT
8
0
62
2
6
CONTINUOUS
10
37.5400000000
20
1.8300000000
40
0.1000000000
1
    ANG %%p 
72
5
11
38.3766666667
21
1.8300000000
0
TEXT
8
0
62
2
6
CONTINUOUS
10
38.3766666667
20
1.8300000000
40
0.1000000000
1
3.0
72
5
11
38.6166666667
21
1.8300000000
0
TEXT
8
0
62
2
6
CONTINUOUS
10
37.5400000000
20
2.0500000000
40
0.1000000000
1
     .X %%p
72
5
11
38.2966666667
21
2.0500000000
0
TEXT
8
0
62
2
6
CONTINUOUS
10
38.2966666667
20
2.0500000000
40
0.1000000000
1
 
72
5
11
38.3766666667
21
2.0500000000
0
TEXT
8
0
62
2
6
CONTINUOUS
10
38.3766666667
20
2.0500000000
40
0.1000000000
1
0.1
72
5
11
38.6166666667
21
2.0500000000
0
TEXT
8
0
62
2
6
CONTINUOUS
10
37.5400000000
20
2.2700000000
40
0.1000000000
1
    .XX %%p 
72
5
11
38.3766666667
21
2.2700000000
0
TEXT
8
0
62
2
6
CONTINUOUS
10
38.3766666667
20
2.2700000000
40
0.1000000000
1
0.02
72
5
11
38.6966666667
21
2.2700000000
0
TEXT
8
0
62
2
6
CONTINUOUS
10
37.5400000000
20
2.4900000000
40
0.1000000000
1
   .XXX %%p 
72
5
11
38.3766666667
21
2.4900000000
0
TEXT
8
0
62
2
6
CONTINUOUS
10
38.3766666667
20
2.4900000000
40
0.1000000000
1
0.010
72
5
11
38.7766666667
21
2.4900000000
0
TEXT
8
0
62
2
6
CONTINUOUS
10
42.2600000000
20
2.7000000000
40
0.1000000000
1
-
72
5
11
42.3400000000
21
2.7000000000
0
TEXT
8
0
62
2
6
CONTINUOUS
10
41.4150000000
20
2.7000000000
40
0.1000000000
1
-
72
5
11
41.4950000000
21
2.7000000000
0
TEXT
8
0
62
2
6
CONTINUOUS
10
40.1100000000
20
2.7000000000
40
0.1000000000
1
08.27.03
72
5
11
40.7500000000
21
2.7000000000
0
TEXT
8
0
62
2
6
CONTINUOUS
10
39.2600000000
20
2.7000000000
40
0.1000000000
1
DEL
72
5
11
39.5000000000
21
2.7000000000
0
TEXT
8
0
62
2
6
CONTINUOUS
10
42.8800000000
20
3.1700000000
40
0.1000000000
1
1.000
72
5
11
43.2800000000
21
3.1700000000
0
TEXT
8
0
62
2
6
CONTINUOUS
10
41.9800000000
20
3.1700000000
40
0.1000000000
1
08.27.03
72
5
11
42.6200000000
21
3.1700000000
0
TEXT
8
0
62
2
6
CONTINUOUS
10
41.1350000000
20
3.1700000000
40
0.1000000000
1
08.27.03
72
5
11
41.7750000000
21
3.1700000000
0
TEXT
8
0
62
2
6
CONTINUOUS
10
39.4400000000
20
3.1700000000
40
0.1000000000
1
PAUL LEFEBER
72
5
11
40.4000000000
21
3.1700000000
0
TEXT
8
0
62
2
6
CONTINUOUS
10
38.1725000000
20
3.5250000000
40
0.1000000000
1
DIMENSIONING AND TOLERANCING PER ASME Y14.5M-1994
72
5
11
42.8275000000
21
3.5250000000
0
LINE
8
0
62
2
6
CONTINUOUS
10
37.5000000000
20
0.5000000000
11
33.0000000000
21
0.5000000000
0
LINE
8
0
62
2
6
CONTINUOUS
10
37.5000000000
20
0.5000000000
11
37.5000000000
21
3.7000000000
0
LINE
8
0
62
2
6
CONTINUOUS
10
37.5000000000
20
0.7600000000
11
33.0000000000
21
0.7600000000
0
LINE
8
0
62
2
6
CONTINUOUS
10
37.5000000000
20
1.0200000000
11
33.0000000000
21
1.0200000000
0
LINE
8
0
62
2
6
CONTINUOUS
10
37.5000000000
20
1.2630000000
11
33.0000000000
21
1.2630000000
0
LINE
8
0
62
2
6
CONTINUOUS
10
37.5000000000
20
1.5060000000
11
33.0000000000
21
1.5060000000
0
LINE
8
0
62
2
6
CONTINUOUS
10
37.5000000000
20
1.7490000000
11
33.0000000000
21
1.7490000000
0
LINE
8
0
62
2
6
CONTINUOUS
10
37.5000000000
20
1.9920000000
11
33.0000000000
21
1.9920000000
0
LINE
8
0
62
2
6
CONTINUOUS
10
37.5000000000
20
2.2350000000
11
33.0000000000
21
2.2350000000
0
LINE
8
0
62
2
6
CONTINUOUS
10
37.5000000000
20
2.4780000000
11
33.0000000000
21
2.4780000000
0
LINE
8
0
62
2
6
CONTINUOUS
10
37.5000000000
20
2.7210000000
11
33.0000000000
21
2.7210000000
0
LINE
8
0
62
2
6
CONTINUOUS
10
37.5000000000
20
2.9640000000
11
33.0000000000
21
2.9640000000
0
LINE
8
0
62
2
6
CONTINUOUS
10
37.5000000000
20
3.2070000000
11
33.0000000000
21
3.2070000000
0
LINE
8
0
62
2
6
CONTINUOUS
10
37.5000000000
20
3.4500000000
11
33.0000000000
21
3.4500000000
0
LINE
8
0
62
2
6
CONTINUOUS
10
37.5000000000
20
3.7000000000
11
33.0000000000
21
3.7000000000
0
LINE
8
0
62
2
6
CONTINUOUS
10
36.8500000000
20
0.7600000000
11
36.8500000000
21
3.4500000000
0
LINE
8
0
62
2
6
CONTINUOUS
10
34.7800000000
20
0.7600000000
11
34.7800000000
21
3.4500000000
0
LINE
8
0
62
2
6
CONTINUOUS
10
34.2200000000
20
0.7600000000
11
34.2200000000
21
3.4500000000
0
LINE
8
0
62
2
6
CONTINUOUS
10
33.5900000000
20
0.7600000000
11
33.5900000000
21
3.4500000000
0
LINE
8
0
62
2
6
CONTINUOUS
10
33.0000000000
20
0.5000000000
11
33.0000000000
21
3.7000000000
0
TEXT
8
0
62
2
6
CONTINUOUS
10
36.8550000000
20
1.0915000000
40
0.1000000000
1
08.23.04
72
5
11
37.4950000000
21
1.0915000000
0
TEXT
8
0
62
2
6
CONTINUOUS
10
35.1350000000
20
1.0915000000
40
0.1000000000
1
SEE PCI #P0405425
72
5
11
36.4950000000
21
1.0915000000
0
TEXT
8
0
62
2
6
CONTINUOUS
10
34.4200000000
20
1.0915000000
40
0.1000000000
1
RW
72
5
11
34.5800000000
21
1.0915000000
0
TEXT
8
0
62
2
6
CONTINUOUS
10
33.8650000000
20
1.0915000000
40
0.1000000000
1
A
72
5
11
33.9450000000
21
1.0915000000
0
TEXT
8
0
62
2
6
CONTINUOUS
10
33.2550000000
20
1.0915000000
40
0.1000000000
1
1
72
5
11
33.3350000000
21
1.0915000000
0
TEXT
8
0
62
2
6
CONTINUOUS
10
34.0625000000
20
3.5250000000
40
0.1000000000
1
ALL DIMENSIONS IN: INCHES
72
5
11
36.4375000000
21
3.5250000000
0
TEXT
8
___NOTE
62
2
6
CONTINUOUS
10
6.0162833585
20
25.2547605855
40
0.2083333333
1
WHEN PLOTTING TEMPLATE FULL SIZE: 
72
5
11
11.6829500251
21
25.2547605855
0
TEXT
8
___NOTE
62
2
6
CONTINUOUS
10
6.0162833585
20
24.9422605855
40
0.2083333333
1
Make sure horizontal and vertical dimensions 
72
5
11
13.5162833585
21
24.9422605855
0
TEXT
8
___NOTE
62
2
6
CONTINUOUS
10
6.0162833585
20
24.6297605855
40
0.2083333333
1
match the dimensions labeled on the template.
72
5
11
13.5162833585
21
24.6297605855
0
TEXT
8
___NOTE
62
2
6
CONTINUOUS
10
6.0162833585
20
24.3172605855
40
0.2083333333
1
 
72
5
11
6.1829500251
21
24.3172605855
0
TEXT
8
___NOTE
62
2
6
CONTINUOUS
10
6.0162833585
20
24.0047605855
40
0.2083333333
1
AL TRAZAR LA PLANTILLA A ESCALA,  
72
5
11
11.6829500251
21
24.0047605855
0
TEXT
8
___NOTE
62
2
6
CONTINUOUS
10
6.0162833585
20
23.6922605855
40
0.2083333333
1
asegúrese de que las dimensiones horizontales 
72
5
11
13.6829500251
21
23.6922605855
0
TEXT
8
___NOTE
62
2
6
CONTINUOUS
10
6.0162833585
20
23.3797605855
40
0.2083333333
1
y verticales concuerden con las dimensiones 
72
5
11
13.3496166918
21
23.3797605855
0
TEXT
8
___NOTE
62
2
6
CONTINUOUS
10
6.0162833585
20
23.0672605855
40
0.2083333333
1
marcadas en la plantilla.
72
5
11
10.1829500251
21
23.0672605855
0
TEXT
8
___NOTE
62
2
6
CONTINUOUS
10
6.0162833585
20
22.7547605855
40
0.2083333333
1
 
72
5
11
6.1829500251
21
22.7547605855
0
TEXT
8
___NOTE
62
2
6
CONTINUOUS
10
6.0162833585
20
22.4422605855
40
0.2083333333
1
AU MOMENT DE TRACER LA DÉCOUPE À L'ÉCHELLE,  
72
5
11
13.5162833585
21
22.4422605855
0
TEXT
8
___NOTE
62
2
6
CONTINUOUS
10
6.0162833585
20
22.1297605855
40
0.2083333333
1
Assurez vos que les dimensions horizotales et 
72
5
11
13.6829500251
21
22.1297605855
0
TEXT
8
___NOTE
62
2
6
CONTINUOUS
10
6.0162833585
20
21.8172605855
40
0.2083333333
1
verticales correspondent avec les dimensions 
72
5
11
13.5162833585
21
21.8172605855
0
TEXT
8
___NOTE
62
2
6
CONTINUOUS
10
6.0162833585
20
21.5047605855
40
0.2083333333
1
du plan.
72
5
11
7.3496166918
21
21.5047605855
0
SOLID
8
___NOTE
62
2
6
CONTINUOUS
10
2.8045689723
20
14.5618141758
11
2.8616531893
21
14.7431266262
12
2.9173715939
22
14.7148121531
13
2.9173715939
23
14.7148121531
0
TEXT
8
___NOTE
62
2
6
CONTINUOUS
10
4.2422938931
20
16.7949022931
40
0.2083333333
1
CUT ALONG THIS LINE
72
5
11
7.4089605597
21
16.7949022931
0
TEXT
8
___NOTE
62
2
6
CONTINUOUS
10
4.2422938931
20
16.4824022931
40
0.2083333333
1
CORTE A LO LARGO DE ESTA LÍNEA
72
5
11
9.2422938931
21
16.4824022931
0
TEXT
8
___NOTE
62
2
6
CONTINUOUS
10
4.2422938931
20
16.1699022931
40
0.2083333333
1
DÉCOUPEZ LE LONG DE CETTE LIGNE
72
5
11
9.4089605597
21
16.1699022931
0
SOLID
8
___NOTE
62
2
6
CONTINUOUS
10
2.5545689723
20
10.4311670741
11
2.6192708597
21
10.6099028519
12
2.6737418208
22
10.5792570626
13
2.6737418208
23
10.5792570626
0
TEXT
8
___NOTE
62
2
6
CONTINUOUS
10
4.0603520123
20
12.5590756971
40
0.2083333333
1
RIM OF LAVATORY
72
5
11
6.5603520123
21
12.5590756971
0
TEXT
8
___NOTE
62
2
6
CONTINUOUS
10
4.0603520123
20
12.2465756971
40
0.2083333333
1
REBORDE DEL LAVABO
72
5
11
7.0603520123
21
12.2465756971
0
TEXT
8
___NOTE
62
2
6
CONTINUOUS
10
4.0603520123
20
11.9340756971
40
0.2083333333
1
REBORD DU LAVABO
72
5
11
6.7270186790
21
11.9340756971
0
TEXT
8
___NOTE
62
2
6
CONTINUOUS
10
23.4633718613
20
24.6833508596
40
0.2083333333
1
CUT-OUT TEMPLATE
72
5
11
26.1300385279
21
24.6833508596
0
TEXT
8
___NOTE
62
2
6
CONTINUOUS
10
23.4633718613
20
24.3708508596
40
0.2083333333
1
33 X 22 DOUBLE BOWL SINK
72
5
11
27.4633718613
21
24.3708508596
0
TEXT
8
___NOTE
62
2
6
CONTINUOUS
10
23.4633718613
20
24.0583508596
40
0.2083333333
1
PLANTILLA DE RECORTE
72
5
11
26.7967051946
21
24.0583508596
0
TEXT
8
___NOTE
62
2
6
CONTINUOUS
10
23.4633718613
20
23.7458508596
40
0.2083333333
1
33" X 22" (84 CM X 55 CM) FREGADERO DE DOS PILAS
72
5
11
31.4633718613
21
23.7458508596
0
TEXT
8
___NOTE
62
2
6
CONTINUOUS
10
23.4633718613
20
23.4333508596
40
0.2083333333
1
PLAN DE DÉCOUPE
72
5
11
25.9633718613
21
23.4333508596
0
TEXT
8
___NOTE
62
2
6
CONTINUOUS
10
23.4633718613
20
23.1208508596
40
0.2083333333
1
33" X 22" (84 CM X 55 CM) ÉVIER À DEUX BACS
72
5
11
30.6300385279
21
23.1208508596
0
TEXT
8
___NOTE
62
2
6
CONTINUOUS
10
3.7866330653
20
6.8802930785
40
0.0940000000
1
1032929-7-A
72
5
11
4.6138330653
21
6.8802930785
0
TEXT
8
0
62
2
6
CONTINUOUS
10
3.8168554023
20
7.8020743592
40
0.0940000000
1
1032929-7-A
72
5
11
4.6440554023
21
7.8020743592
0
TEXT
8
0
62
2
6
CONTINUOUS
10
32.6094366397
20
7.9711566489
40
0.0474610000
1
C
72
5
11
32.6568976397
21
7.9711566489
0
TEXT
8
0
62
2
6
CONTINUOUS
10
32.7066771897
20
7.9557207804
40
0.0793120000
1
2004 KOHLER CO.
72
5
11
33.8963571897
21
7.9557207804
0
TEXT
8
___NOTE
62
2
6
CONTINUOUS
10
24.1301461890
20
15.5037130734
40
0.1562506667
1
PACKAGING / UPC LABEL ON BOX
72
5
11
27.7551616556
21
15.5037130734
0
TEXT
8
___NOTE
62
2
6
CONTINUOUS
10
24.1301461890
20
15.2693370734
40
0.1562506667
1
ETIQUETA DE EMBALAJE / UPC EN LA CAJA
72
5
11
28.8801664556
21
15.2693370734
0
TEXT
8
___NOTE
62
2
6
CONTINUOUS
10
24.1301461890
20
15.0349610734
40
0.1562506667
1
ETIQUETTE D'EMBALLAGE / UPC SUR LA BOÎTE
72
5
11
29.2551680556
21
15.0349610734
0
TEXT
8
___NOTE
62
2
6
CONTINUOUS
10
24.1301461890
20
14.8005850734
40
0.1562506667
1

72
5
11
24.2551467223
21
14.8005850734
0
TEXT
8
___NOTE
62
2
6
CONTINUOUS
10
24.1301461890
20
14.5662090734
40
0.1562506667
1
 
72
5
11
24.2551467223
21
14.5662090734
0
TEXT
8
___NOTE
62
2
6
CONTINUOUS
10
24.1301461890
20
14.3318330734
40
0.1562506667
1
 
72
5
11
24.2551467223
21
14.3318330734
0
TEXT
8
___NOTE
62
2
6
CONTINUOUS
10
24.1301461890
20
14.0974570734
40
0.1562506667
1
 
72
5
11
24.2551467223
21
14.0974570734
0
TEXT
8
___NOTE
62
2
6
CONTINUOUS
10
24.1301461890
20
13.8630810734
40
0.1562506667
1
 
72
5
11
24.2551467223
21
13.8630810734
0
TEXT
8
___NOTE
62
2
6
CONTINUOUS
10
24.1301461890
20
13.6287050734
40
0.1562506667
1
The template and the label suffixes circled
72
5
11
29.5051691223
21
13.6287050734
0
TEXT
8
___NOTE
62
2
6
CONTINUOUS
10
24.1301461890
20
13.3943290734
40
0.1562506667
1
must match for proper cut-out.
72
5
11
27.8801621890
21
13.3943290734
0
TEXT
8
___NOTE
62
2
6
CONTINUOUS
10
24.1301461890
20
13.1599530734
40
0.1562506667
1
 
72
5
11
24.2551467223
21
13.1599530734
0
TEXT
8
___NOTE
62
2
6
CONTINUOUS
10
24.1301461890
20
12.9255770734
40
0.1562506667
1
A fin de realizar el corte apropiado, la 
72
5
11
29.2551680556
21
12.9255770734
0
TEXT
8
___NOTE
62
2
6
CONTINUOUS
10
24.1301461890
20
12.6912010734
40
0.1562506667
1
plantilla y los sufijos de la etiqueta 
72
5
11
29.0051669890
21
12.6912010734
0
TEXT
8
___NOTE
62
2
6
CONTINUOUS
10
24.1301461890
20
12.4568250734
40
0.1562506667
1
demarcados deben concordar.}
72
5
11
27.6301611223
21
12.4568250734
0
TEXT
8
___NOTE
62
2
6
CONTINUOUS
10
24.1301461890
20
12.2224490734
40
0.1562506667
1
 
72
5
11
24.2551467223
21
12.2224490734
0
TEXT
8
___NOTE
62
2
6
CONTINUOUS
10
24.1301461890
20
11.9880730734
40
0.1562506667
1
Afin de découper l'ouverture correctement, 
72
5
11
29.5051691223
21
11.9880730734
0
TEXT
8
___NOTE
62
2
6
CONTINUOUS
10
24.1301461890
20
11.7536970734
40
0.1562506667
1
le gabarit et les suffixes encerclés doivent 
72
5
11
29.7551701890
21
11.7536970734
0
TEXT
8
___NOTE
62
2
6
CONTINUOUS
10
24.1301461890
20
11.5193210734
40
0.1562506667
1
correspondre.}
72
5
11
25.8801536556
21
11.5193210734
0
TEXT
8
___NOTE
62
2
6
CONTINUOUS
10
25.1898901174
20
14.0726146190
40
0.0593587500
1
XXXXX-XX-X-XX
72
5
11
25.8272025783
21
14.0726146190
0
TEXT
8
___NOTE
62
2
6
CONTINUOUS
10
26.8238701169
20
13.9434496190
40
0.0445192500
1
xxxxxx-xx
72
5
11
27.0939323015
21
13.9434496190
0
LINE
8
0
62
7
6
CONTINUOUS
10
0.0000000000
20
0.0000000000
11
0.0000000000
21
34.0000000000
0
LINE
8
0
6
CONTINUOUS
10
0.5000000000
20
0.5000000000
11
0.5000000000
21
33.5000000000
0
LINE
8
0
62
2
6
CONTINUOUS
10
40.7602818411
20
2.1907086233
11
40.7756098411
21
2.1948156233
0
LINE
8
0
62
2
6
CONTINUOUS
10
40.7578090938
20
2.1907086233
11
40.7731370938
21
2.1948156233
0
LINE
8
0
62
2
6
CONTINUOUS
10
42.9968130938
20
2.1792496233
11
42.6530630938
21
2.1167496233
0
LINE
8
0
62
2
6
CONTINUOUS
10
39.9106400938
20
2.0321536233
11
39.8671840938
21
2.0252706233
0
LINE
8
0
62
2
6
CONTINUOUS
10
39.8237280938
20
2.2996376233
11
39.8671840938
21
2.3065206233
0
LINE
8
0
62
7
6
CONTINUOUS
10
0.0000000000
20
0.0000000000
11
44.0000000000
21
0.0000000000
0
LINE
8
0
6
CONTINUOUS
10
5.5000000000
20
0.0000000000
11
5.5000000000
21
0.5000000000
0
LINE
8
0
62
2
6
CONTINUOUS
10
39.8739770938
20
2.2392066233
11
39.8470360938
21
2.2367096233
0
LINE
8
0
6
CONTINUOUS
10
0.5000000000
20
0.5000000000
11
43.5000000000
21
0.5000000000
0
LINE
8
0
62
2
6
CONTINUOUS
10
40.8761840938
20
2.0252706233
11
40.7995600938
21
2.0252706233
0
LINE
8
0
62
2
6
CONTINUOUS
10
40.7244340938
20
2.0252706233
11
40.6574340938
21
2.0252706233
0
LINE
8
0
62
2
6
CONTINUOUS
10
40.6261840938
20
2.0252706233
11
40.4699340938
21
2.0252706233
0
LINE
8
0
62
2
6
CONTINUOUS
10
40.4386840938
20
2.0252706233
11
40.2824340938
21
2.0252706233
0
LINE
8
0
62
2
6
CONTINUOUS
10
40.2511840938
20
2.0252706233
11
40.1841840938
21
2.0252706233
0
LINE
8
0
62
2
6
CONTINUOUS
10
40.1060590938
20
2.0252706233
11
40.0390590938
21
2.0252706233
0
LINE
8
0
62
2
6
CONTINUOUS
10
39.7578090938
20
2.0252706233
11
39.6720070938
21
2.0252706233
0
LINE
8
0
62
2
6
CONTINUOUS
10
39.5748090938
20
2.0252706233
11
39.5078090938
21
2.0252706233
0
LINE
8
0
62
2
6
CONTINUOUS
10
41.9913430938
20
2.0386246233
11
42.3190390938
21
2.0386246233
0
LINE
8
0
62
2
6
CONTINUOUS
10
42.3694540938
20
2.0386246233
11
42.4221610938
21
2.0386246233
0
LINE
8
0
62
2
6
CONTINUOUS
10
42.4748670938
20
2.0386246233
11
43.0477630938
21
2.0386246233
0
LINE
8
0
62
2
6
CONTINUOUS
10
40.3494340938
20
2.0922706233
11
40.4386840938
21
2.0922706233
0
LINE
8
0
62
2
6
CONTINUOUS
10
40.5369340938
20
2.0922706233
11
40.6261840938
21
2.0922706233
0
LINE
8
0
62
2
6
CONTINUOUS
10
39.9857140938
20
2.0925846233
11
39.8739770938
21
2.0925846233
0
LINE
8
0
62
2
6
CONTINUOUS
10
40.7388680938
20
2.1346456233
11
40.7244340938
21
2.1346456233
0
LINE
8
0
62
2
6
CONTINUOUS
10
40.6261840938
20
2.1402086233
11
40.5369340938
21
2.1402086233
0
LINE
8
0
62
2
6
CONTINUOUS
10
40.1841840938
20
2.1480206233
11
40.1060590938
21
2.1480206233
0
LINE
8
0
62
2
6
CONTINUOUS
10
40.8407478411
20
2.1907086233
11
40.7244340938
21
2.1907086233
0
LINE
8
0
62
2
6
CONTINUOUS
10
40.5369340938
20
2.1915836233
11
40.6261840938
21
2.1915836233
0
LINE
8
0
62
2
6
CONTINUOUS
10
40.1060590938
20
2.2150206233
11
40.1841840938
21
2.2150206233
0
LINE
8
0
62
2
6
CONTINUOUS
10
39.8739770938
20
2.2392066233
11
39.7486540938
21
2.2392066233
0
LINE
8
0
62
2
6
CONTINUOUS
10
40.6261840938
20
2.2395206233
11
40.5369340938
21
2.2395206233
0
LINE
8
0
62
2
6
CONTINUOUS
10
40.7602818411
20
2.2520206233
11
40.6574340938
21
2.2520206233
0
LINE
8
0
62
2
6
CONTINUOUS
10
39.5078090938
20
2.3065206233
11
39.5748090938
21
2.3065206233
0
LINE
8
0
62
2
6
CONTINUOUS
10
39.6630570938
20
2.3065206233
11
39.7578090938
21
2.3065206233
0
LINE
8
0
62
2
6
CONTINUOUS
10
40.0390590938
20
2.3065206233
11
40.1060590938
21
2.3065206233
0
LINE
8
0
62
2
6
CONTINUOUS
10
40.1841840938
20
2.3065206233
11
40.2511840938
21
2.3065206233
0
LINE
8
0
62
2
6
CONTINUOUS
10
40.2824340938
20
2.3065206233
11
40.3494340938
21
2.3065206233
0
LINE
8
0
62
2
6
CONTINUOUS
10
40.4699340938
20
2.3065206233
11
40.6261840938
21
2.3065206233
0
LINE
8
0
62
2
6
CONTINUOUS
10
40.6574340938
20
2.3065206233
11
40.7614698411
21
2.3065206233
0
LINE
8
0
6
CONTINUOUS
10
43.5000000000
20
4.2500000000
11
44.0000000000
21
4.2500000000
0
LINE
8
0
62
2
6
CONTINUOUS
10
39.8470360938
20
2.0950816233
11
39.8739770938
21
2.0925846233
0
LINE
8
0
6
CONTINUOUS
10
11.0000000000
20
0.0000000000
11
11.0000000000
21
0.5000000000
0
LINE
8
0
62
2
6
CONTINUOUS
10
39.8671840938
20
2.0252706233
11
39.8237280938
21
2.0321536233
0
LINE
8
0
62
2
6
CONTINUOUS
10
39.8671840938
20
2.3065206233
11
39.9106400938
21
2.2996376233
0
LINE
8
0
62
2
6
CONTINUOUS
10
42.6530630938
20
1.9604996233
11
42.9968130938
21
1.8979996233
0
LINE
8
0
62
2
6
CONTINUOUS
10
40.7589970938
20
2.3065206233
11
40.7895600938
21
2.3009016233
0
LINE
8
0
62
2
6
CONTINUOUS
10
40.7614698411
20
2.3065206233
11
40.7920328411
21
2.3009016233
0
LINE
8
0
62
2
6
CONTINUOUS
10
40.7731370938
20
2.2479136233
11
40.7578090938
21
2.2520206233
0
LINE
8
0
62
2
6
CONTINUOUS
10
40.7756098411
20
2.2479136233
11
40.7602818411
21
2.2520206233
0
LINE
8
0
62
2
6
CONTINUOUS
10
39.9000010938
20
2.2318016233
11
39.8739770938
21
2.2392066233
0
LINE
8
0
6
CONTINUOUS
10
43.5000000000
20
8.5000000000
11
44.0000000000
21
8.5000000000
0
POLYLINE
8
0
62
7
6
CONTINUOUS
66
1
70
0
0
VERTEX
8
0
62
7
6
CONTINUOUS
10
25.7925519466
20
25.4217910083
0
VERTEX
8
0
62
7
6
CONTINUOUS
10
25.7984108531
20
25.4244271363
0
VERTEX
8
0
62
7
6
CONTINUOUS
10
25.8035290574
20
25.4270852047
0
VERTEX
8
0
62
7
6
CONTINUOUS
10
25.8079983928
20
25.4297740859
0
VERTEX
8
0
62
7
6
CONTINUOUS
10
25.8118991683
20
25.4325054270
0
VERTEX
8
0
62
7
6
CONTINUOUS
10
25.8153012186
20
25.4352944449
0
VERTEX
8
0
62
7
6
CONTINUOUS
10
25.8182646946
20
25.4381609162
0
VERTEX
8
0
62
7
6
CONTINUOUS
10
25.8208284183
20
25.4411150127
0
VERTEX
8
0
62
7
6
CONTINUOUS
10
25.8230317470
20
25.4441753696
0
VERTEX
8
0
62
7
6
CONTINUOUS
10
25.8249142364
20
25.4473758344
0
VERTEX
8
0
62
7
6
CONTINUOUS
10
25.8265073081
20
25.4507597928
0
VERTEX
8
0
62
7
6
CONTINUOUS
10
25.8278349004
20
25.4543838499
0
VERTEX
8
0
62
7
6
CONTINUOUS
10
25.8289142758
20
25.4583244216
0
VERTEX
8
0
62
7
6
CONTINUOUS
10
25.8297570596
20
25.4626906349
0
VERTEX
8
0
62
7
6
CONTINUOUS
10
25.8303706671
20
25.4676525408
0
VERTEX
8
0
62
7
6
CONTINUOUS
10
25.8307606853
20
25.4735140108
0
VERTEX
8
0
62
7
6
CONTINUOUS
10
25.8309372985
20
25.4809640018
0
VERTEX
8
0
62
7
6
CONTINUOUS
10
25.8309575021
20
25.4878576750
0
VERTEX
8
0
62
7
6
CONTINUOUS
10
25.8309575021
20
25.6954646194
0
VERTEX
8
0
62
7
6
CONTINUOUS
10
25.8309418735
20
25.7018440830
0
VERTEX
8
0
62
7
6
CONTINUOUS
10
25.8307779252
20
25.7094788994
0
VERTEX
8
0
62
7
6
CONTINUOUS
10
25.8304021510
20
25.7154366084
0
VERTEX
8
0
62
7
6
CONTINUOUS
10
25.8298038896
20
25.7204566284
0
VERTEX
8
0
62
7
6
CONTINUOUS
10
25.8289779546
20
25.7248583047
0
VERTEX
8
0
62
7
6
CONTINUOUS
10
25.8279176184
20
25.7288183574
0
VERTEX
8
0
62
7
6
CONTINUOUS
10
25.8266121162
20
25.7324493727
0
VERTEX
8
0
62
7
6
CONTINUOUS
10
25.8250451753
20
25.7358297733
0
VERTEX
8
0
62
7
6
CONTINUOUS
10
25.8231939486
20
25.7390174008
0
VERTEX
8
0
62
7
6
CONTINUOUS
10
25.8210281879
20
25.7420564043
0
VERTEX
8
0
62
7
6
CONTINUOUS
10
25.8185095825
20
25.7449810556
0
VERTEX
8
0
62
7
6
CONTINUOUS
10
25.8155974692
20
25.7478124481
0
VERTEX
8
0
62
7
6
CONTINUOUS
10
25.8122563520
20
25.7505581755
0
VERTEX
8
0
62
7
6
CONTINUOUS
10
25.8084274768
20
25.7532378606
0
VERTEX
8
0
62
7
6
CONTINUOUS
10
25.8040425138
20
25.7558663103
0
VERTEX
8
0
62
7
6
CONTINUOUS
10
25.7990228018
20
25.7584545161
0
VERTEX
8
0
62
7
6
CONTINUOUS
10
25.7932783355
20
25.7610104527
0
SEQEND
0
POLYLINE
8
0
62
7
6
CONTINUOUS
66
1
70
0
0
VERTEX
8
0
62
7
6
CONTINUOUS
10
26.2751505577
20
25.7610104527
0
VERTEX
8
0
62
7
6
CONTINUOUS
10
26.2692932192
20
25.7584013909
0
VERTEX
8
0
62
7
6
CONTINUOUS
10
26.2641889940
20
25.7557584719
0
VERTEX
8
0
62
7
6
CONTINUOUS
10
26.2597425662
20
25.7530731024
0
VERTEX
8
0
62
7
6
CONTINUOUS
10
26.2558708811
20
25.7503333740
0
VERTEX
8
0
62
7
6
CONTINUOUS
10
26.2525020411
20
25.7475231665
0
VERTEX
8
0
62
7
6
CONTINUOUS
10
26.2509855154
20
25.7460841311
0
VERTEX
8
0
62
7
6
CONTINUOUS
10
26.2495744886
20
25.7446210150
0
VERTEX
8
0
62
7
6
CONTINUOUS
10
26.2470537258
20
25.7416213051
0
VERTEX
8
0
62
7
6
CONTINUOUS
10
26.2448946932
20
25.7384980897
0
VERTEX
8
0
62
7
6
CONTINUOUS
10
26.2430579146
20
25.7352135476
0
VERTEX
8
0
62
7
6
CONTINUOUS
10
26.2415125669
20
25.7317186240
0
VERTEX
8
0
62
7
6
CONTINUOUS
10
26.2402357161
20
25.7279483898
0
VERTEX
8
0
62
7
6
CONTINUOUS
10
26.2392113501
20
25.7238134273
0
VERTEX
8
0
62
7
6
CONTINUOUS
10
26.2384291128
20
25.7191822491
0
VERTEX
8
0
62
7
6
CONTINUOUS
10
26.2378824849
20
25.7138405667
0
VERTEX
8
0
62
7
6
CONTINUOUS
10
26.2375653294
20
25.7073758157
0
VERTEX
8
0
62
7
6
CONTINUOUS
10
26.2374594783
20
25.6987003881
0
VERTEX
8
0
62
7
6
CONTINUOUS
10
26.2374575021
20
25.4035743416
0
SEQEND
0
POLYLINE
8
0
62
7
6
CONTINUOUS
66
1
70
0
0
VERTEX
8
0
62
7
6
CONTINUOUS
10
25.7157561133
20
25.7610104527
0
VERTEX
8
0
62
7
6
CONTINUOUS
10
25.7117205381
20
25.7597328954
0
VERTEX
8
0
62
7
6
CONTINUOUS
10
25.7098351474
20
25.7590019830
0
VERTEX
8
0
62
7
6
CONTINUOUS
10
25.7080354091
20
25.7582122025
0
VERTEX
8
0
62
7
6
CONTINUOUS
10
25.7046834140
20
25.7564627538
0
VERTEX
8
0
62
7
6
CONTINUOUS
10
25.7016355657
20
25.7544896974
0
VERTEX
8
0
62
7
6
CONTINUOUS
10
25.6988665437
20
25.7522928456
0
VERTEX
8
0
62
7
6
CONTINUOUS
10
25.6963550442
20
25.7498665724
0
VERTEX
8
0
62
7
6
CONTINUOUS
10
25.6940840659
20
25.7471997904
0
VERTEX
8
0
62
7
6
CONTINUOUS
10
25.6920410830
20
25.7442759577
0
VERTEX
8
0
62
7
6
CONTINUOUS
10
25.6902180625
20
25.7410730182
0
VERTEX
8
0
62
7
6
CONTINUOUS
10
25.6886113009
20
25.7375631055
0
VERTEX
8
0
62
7
6
CONTINUOUS
10
25.6872210701
20
25.7337117218
0
VERTEX
8
0
62
7
6
CONTINUOUS
10
25.6860510675
20
25.7294758594
0
VERTEX
8
0
62
7
6
CONTINUOUS
10
25.6851076544
20
25.7247999336
0
VERTEX
8
0
62
7
6
CONTINUOUS
10
25.6843988122
20
25.7196067585
0
VERTEX
8
0
62
7
6
CONTINUOUS
10
25.6839325929
20
25.7137754981
0
VERTEX
8
0
62
7
6
CONTINUOUS
10
25.6837142442
20
25.7070767524
0
VERTEX
8
0
62
7
6
CONTINUOUS
10
25.6837371130
20
25.6988987022
0
SEQEND
0
POLYLINE
8
0
62
7
6
CONTINUOUS
66
1
70
0
0
VERTEX
8
0
62
7
6
CONTINUOUS
10
24.1013561133
20
25.4217910083
0
VERTEX
8
0
62
7
6
CONTINUOUS
10
24.1052537485
20
25.4230166151
0
VERTEX
8
0
62
7
6
CONTINUOUS
10
24.1070788693
20
25.4237136021
0
VERTEX
8
0
62
7
6
CONTINUOUS
10
24.1088241082
20
25.4244645402
0
VERTEX
8
0
62
7
6
CONTINUOUS
10
24.1120819964
20
25.4261215667
0
VERTEX
8
0
62
7
6
CONTINUOUS
10
24.1150531222
20
25.4279823092
0
VERTEX
8
0
62
7
6
CONTINUOUS
10
24.1177607751
20
25.4300461171
0
VERTEX
8
0
62
7
6
CONTINUOUS
10
24.1202248697
20
25.4323169431
0
VERTEX
8
0
62
7
6
CONTINUOUS
10
24.1224616975
20
25.4348033894
0
VERTEX
8
0
62
7
6
CONTINUOUS
10
24.1244837579
20
25.4375187226
0
VERTEX
8
0
62
7
6
CONTINUOUS
10
24.1262997011
20
25.4404809220
0
VERTEX
8
0
62
7
6
CONTINUOUS
10
24.1279144087
20
25.4437128747
0
VERTEX
8
0
62
7
6
CONTINUOUS
10
24.1293292220
20
25.4472429094
0
VERTEX
8
0
62
7
6
CONTINUOUS
10
24.1305423227
20
25.4511059996
0
VERTEX
8
0
62
7
6
CONTINUOUS
10
24.1315492704
20
25.4553462949
0
VERTEX
8
0
62
7
6
CONTINUOUS
10
24.1323437255
20
25.4600224459
0
VERTEX
8
0
62
7
6
CONTINUOUS
10
24.1329184452
20
25.4652195167
0
VERTEX
8
0
62
7
6
CONTINUOUS
10
24.1332668409
20
25.4710792965
0
VERTEX
8
0
62
7
6
CONTINUOUS
10
24.1333862552
20
25.4778975194
0
VERTEX
8
0
62
7
6
CONTINUOUS
10
24.1332227799
20
25.4930660083
0
SEQEND
0
POLYLINE
8
0
62
7
6
CONTINUOUS
66
1
70
0
0
VERTEX
8
0
62
7
6
CONTINUOUS
10
25.3512811133
20
25.7610104527
0
VERTEX
8
0
62
7
6
CONTINUOUS
10
25.3473687871
20
25.7598044089
0
VERTEX
8
0
62
7
6
CONTINUOUS
10
25.3437871931
20
25.7583802212
0
VERTEX
8
0
62
7
6
CONTINUOUS
10
25.3405185250
20
25.7567499287
0
VERTEX
8
0
62
7
6
CONTINUOUS
10
25.3375395980
20
25.7549203826
0
VERTEX
8
0
62
7
6
CONTINUOUS
10
25.3348267495
20
25.7528928229
0
VERTEX
8
0
62
7
6
CONTINUOUS
10
25.3323596248
20
25.7506639899
0
VERTEX
8
0
62
7
6
CONTINUOUS
10
25.3301214284
20
25.7482260649
0
VERTEX
8
0
62
7
6
CONTINUOUS
10
25.3280991047
20
25.7455666456
0
VERTEX
8
0
62
7
6
CONTINUOUS
10
25.3262834136
20
25.7426686982
0
VERTEX
8
0
62
7
6
CONTINUOUS
10
25.3246688760
20
25.7395103824
0
VERTEX
8
0
62
7
6
CONTINUOUS
10
25.3232535765
20
25.7360645761
0
VERTEX
8
0
62
7
6
CONTINUOUS
10
25.3220388208
20
25.7322977972
0
VERTEX
8
0
62
7
6
CONTINUOUS
10
25.3210286456
20
25.7281679426
0
VERTEX
8
0
62
7
6
CONTINUOUS
10
25.3202291668
20
25.7236195759
0
VERTEX
8
0
62
7
6
CONTINUOUS
10
25.3196477095
20
25.7185735693
0
VERTEX
8
0
62
7
6
CONTINUOUS
10
25.3192915387
20
25.7129015198
0
VERTEX
8
0
62
7
6
CONTINUOUS
10
25.3191655002
20
25.7063478338
0
VERTEX
8
0
62
7
6
CONTINUOUS
10
25.3192636330
20
25.6981726716
0
VERTEX
8
0
62
7
6
CONTINUOUS
10
25.3192924326
20
25.6967861992
0
VERTEX
8
0
62
7
6
CONTINUOUS
10
25.3194005577
20
25.6892062861
0
SEQEND
0
POLYLINE
8
0
62
7
6
CONTINUOUS
66
1
70
0
0
VERTEX
8
0
62
7
6
CONTINUOUS
10
25.5780686133
20
25.4217910083
0
VERTEX
8
0
62
7
6
CONTINUOUS
10
25.5821007101
20
25.4230077233
0
VERTEX
8
0
62
7
6
CONTINUOUS
10
25.5839845169
20
25.4237097430
0
VERTEX
8
0
62
7
6
CONTINUOUS
10
25.5857828035
20
25.4244716354
0
VERTEX
8
0
62
7
6
CONTINUOUS
10
25.5891306585
20
25.4261673118
0
VERTEX
8
0
62
7
6
CONTINUOUS
10
25.5921737161
20
25.4280889437
0
VERTEX
8
0
62
7
6
CONTINUOUS
10
25.5949378186
20
25.4302362374
0
VERTEX
8
0
62
7
6
CONTINUOUS
10
25.5974447359
20
25.4326144854
0
VERTEX
8
0
62
7
6
CONTINUOUS
10
25.5997118627
20
25.4352345895
0
VERTEX
8
0
62
7
6
CONTINUOUS
10
25.6017520311
20
25.4381130429
0
VERTEX
8
0
62
7
6
CONTINUOUS
10
25.6035734826
20
25.4412719710
0
VERTEX
8
0
62
7
6
CONTINUOUS
10
25.6051800277
20
25.4447393989
0
VERTEX
8
0
62
7
6
CONTINUOUS
10
25.6065714022
20
25.4485500332
0
VERTEX
8
0
62
7
6
CONTINUOUS
10
25.6077438231
20
25.4527470858
0
VERTEX
8
0
62
7
6
CONTINUOUS
10
25.6086907591
20
25.4573862481
0
VERTEX
8
0
62
7
6
CONTINUOUS
10
25.6094039819
20
25.4625445224
0
VERTEX
8
0
62
7
6
CONTINUOUS
10
25.6098751127
20
25.4683417582
0
VERTEX
8
0
62
7
6
CONTINUOUS
10
25.6100984559
20
25.4750037177
0
VERTEX
8
0
62
7
6
CONTINUOUS
10
25.6100797474
20
25.4831249883
0
SEQEND
0
POLYLINE
8
0
62
7
6
CONTINUOUS
66
1
70
0
0
VERTEX
8
0
62
7
6
CONTINUOUS
10
24.4078547244
20
25.4217910083
0
VERTEX
8
0
62
7
6
CONTINUOUS
10
24.4119647220
20
25.4230068583
0
VERTEX
8
0
62
7
6
CONTINUOUS
10
24.4138843235
20
25.4237079505
0
VERTEX
8
0
62
7
6
CONTINUOUS
10
24.4157170727
20
25.4244687814
0
VERTEX
8
0
62
7
6
CONTINUOUS
10
24.4191299521
20
25.4261619578
0
VERTEX
8
0
62
7
6
CONTINUOUS
10
24.4222312727
20
25.4280792426
0
VERTEX
8
0
62
7
6
CONTINUOUS
10
24.4250474682
20
25.4302195875
0
VERTEX
8
0
62
7
6
CONTINUOUS
10
24.4276009768
20
25.4325874305
0
VERTEX
8
0
62
7
6
CONTINUOUS
10
24.4299099324
20
25.4351927378
0
VERTEX
8
0
62
7
6
CONTINUOUS
10
24.4319879600
20
25.4380509990
0
VERTEX
8
0
62
7
6
CONTINUOUS
10
24.4338441231
20
25.4411832668
0
VERTEX
8
0
62
7
6
CONTINUOUS
10
24.4354830514
20
25.4446163964
0
VERTEX
8
0
62
7
6
CONTINUOUS
10
24.4369052639
20
25.4483837529
0
VERTEX
8
0
62
7
6
CONTINUOUS
10
24.4381076915
20
25.4525268709
0
VERTEX
8
0
62
7
6
CONTINUOUS
10
24.4390844122
20
25.4570990726
0
VERTEX
8
0
62
7
6
CONTINUOUS
10
24.4398276577
20
25.4621734551
0
VERTEX
8
0
62
7
6
CONTINUOUS
10
24.4403292820
20
25.4678620813
0
VERTEX
8
0
62
7
6
CONTINUOUS
10
24.4405833700
20
25.4743706747
0
VERTEX
8
0
62
7
6
CONTINUOUS
10
24.4405936468
20
25.4822143542
0
SEQEND
0
POLYLINE
8
0
62
7
6
CONTINUOUS
66
1
70
0
0
VERTEX
8
0
62
7
6
CONTINUOUS
10
24.7679755577
20
25.4217910083
0
VERTEX
8
0
62
7
6
CONTINUOUS
10
24.7720707078
20
25.4230028581
0
VERTEX
8
0
62
7
6
CONTINUOUS
10
24.7758021814
20
25.4244583936
0
VERTEX
8
0
62
7
6
CONTINUOUS
10
24.7791910954
20
25.4261436231
0
VERTEX
8
0
62
7
6
CONTINUOUS
10
24.7822639122
20
25.4280503817
0
VERTEX
8
0
62
7
6
CONTINUOUS
10
24.7850479096
20
25.4301775386
0
VERTEX
8
0
62
7
6
CONTINUOUS
10
24.7875662369
20
25.4325295764
0
VERTEX
8
0
62
7
6
CONTINUOUS
10
24.7898375957
20
25.4351166481
0
VERTEX
8
0
62
7
6
CONTINUOUS
10
24.7918760305
20
25.4379545910
0
VERTEX
8
0
62
7
6
CONTINUOUS
10
24.7936908742
20
25.4410649918
0
VERTEX
8
0
62
7
6
CONTINUOUS
10
24.7952868826
20
25.4444754738
0
VERTEX
8
0
62
7
6
CONTINUOUS
10
24.7966645685
20
25.4482204958
0
VERTEX
8
0
62
7
6
CONTINUOUS
10
24.7978207387
20
25.4523431957
0
VERTEX
8
0
62
7
6
CONTINUOUS
10
24.7987492401
20
25.4568993926
0
VERTEX
8
0
62
7
6
CONTINUOUS
10
24.7994419637
20
25.4619664502
0
VERTEX
8
0
62
7
6
CONTINUOUS
10
24.7998902760
20
25.4676647985
0
VERTEX
8
0
62
7
6
CONTINUOUS
10
24.8000875019
20
25.4742206003
0
VERTEX
8
0
62
7
6
CONTINUOUS
10
24.8000361799
20
25.4822246683
0
VERTEX
8
0
62
7
6
CONTINUOUS
10
24.7999795179
20
25.4850807879
0
VERTEX
8
0
62
7
6
CONTINUOUS
10
24.7998630577
20
25.4930660083
0
VERTEX
8
0
62
7
6
CONTINUOUS
10
24.7998630577
20
25.6892062861
0
VERTEX
8
0
62
7
6
CONTINUOUS
10
24.7999795179
20
25.6973291318
0
VERTEX
8
0
62
7
6
CONTINUOUS
10
24.8000265918
20
25.6996947787
0
VERTEX
8
0
62
7
6
CONTINUOUS
10
24.8000910741
20
25.7078792089
0
VERTEX
8
0
62
7
6
CONTINUOUS
10
24.7999082647
20
25.7145139358
0
VERTEX
8
0
62
7
6
CONTINUOUS
10
24.7994746233
20
25.7202583882
0
VERTEX
8
0
62
7
6
CONTINUOUS
10
24.7987963016
20
25.7253581209
0
VERTEX
8
0
62
7
6
CONTINUOUS
10
24.7978814286
20
25.7299416817
0
VERTEX
8
0
62
7
6
CONTINUOUS
10
24.7967376116
20
25.7340904856
0
VERTEX
8
0
62
7
6
CONTINUOUS
10
24.7953705131
20
25.7378625580
0
VERTEX
8
0
62
7
6
CONTINUOUS
10
24.7937828551
20
25.7413022917
0
VERTEX
8
0
62
7
6
CONTINUOUS
10
24.7919736768
20
25.7444448770
0
VERTEX
8
0
62
7
6
CONTINUOUS
10
24.7899378002
20
25.7473183790
0
VERTEX
8
0
62
7
6
CONTINUOUS
10
24.7876654941
20
25.7499446775
0
VERTEX
8
0
62
7
6
CONTINUOUS
10
24.7851423359
20
25.7523398458
0
VERTEX
8
0
62
7
6
CONTINUOUS
10
24.7823492557
20
25.7545142786
0
VERTEX
8
0
62
7
6
CONTINUOUS
10
24.7792627340
20
25.7564727479
0
VERTEX
8
0
62
7
6
CONTINUOUS
10
24.7758551037
20
25.7582144867
0
VERTEX
8
0
62
7
6
CONTINUOUS
10
24.7721000946
20
25.7597314983
0
VERTEX
8
0
62
7
6
CONTINUOUS
10
24.7679755577
20
25.7610104527
0
SEQEND
0
POLYLINE
8
0
62
7
6
CONTINUOUS
66
1
70
0
0
VERTEX
8
0
62
7
6
CONTINUOUS
10
25.2128811133
20
25.4217910083
0
VERTEX
8
0
62
7
6
CONTINUOUS
10
25.2169911397
20
25.4230068661
0
VERTEX
8
0
62
7
6
CONTINUOUS
10
25.2189107607
20
25.4237079641
0
VERTEX
8
0
62
7
6
CONTINUOUS
10
25.2207435310
20
25.4244688016
0
VERTEX
8
0
62
7
6
CONTINUOUS
10
25.2241564570
20
25.4261619934
0
VERTEX
8
0
62
7
6
CONTINUOUS
10
25.2272578331
20
25.4280792987
0
VERTEX
8
0
62
7
6
CONTINUOUS
10
25.2300740912
20
25.4302196692
0
VERTEX
8
0
62
7
6
CONTINUOUS
10
25.2326276683
20
25.4325875430
0
VERTEX
8
0
62
7
6
CONTINUOUS
10
25.2349366970
20
25.4351928857
0
VERTEX
8
0
62
7
6
CONTINUOUS
10
25.2370148018
20
25.4380511864
0
VERTEX
8
0
62
7
6
CONTINUOUS
10
25.2388710453
20
25.4411834966
0
VERTEX
8
0
62
7
6
CONTINUOUS
10
25.2405100571
20
25.4446166702
0
VERTEX
8
0
62
7
6
CONTINUOUS
10
25.2419323562
20
25.4483840700
0
VERTEX
8
0
62
7
6
CONTINUOUS
10
25.2431348735
20
25.4525272274
0
VERTEX
8
0
62
7
6
CONTINUOUS
10
25.2441116876
20
25.4570994599
0
VERTEX
8
0
62
7
6
CONTINUOUS
10
25.2448550307
20
25.4621738561
0
VERTEX
8
0
62
7
6
CONTINUOUS
10
25.2453567576
20
25.4678624628
0
VERTEX
8
0
62
7
6
CONTINUOUS
10
25.2456109543
20
25.4743709645
0
VERTEX
8
0
62
7
6
CONTINUOUS
10
25.2456213475
20
25.4822143404
0
SEQEND
0
LINE
8
0
6
CONTINUOUS
10
16.5000000000
20
0.0000000000
11
16.5000000000
21
0.5000000000
0
LINE
8
0
62
7
6
CONTINUOUS
10
26.4101741688
20
25.1543757305
11
26.3779061133
21
25.1397132305
0
LINE
8
0
62
2
6
CONTINUOUS
10
39.8228150938
20
2.1071416233
11
39.8470360938
21
2.0950816233
0
LINE
8
0
62
2
6
CONTINUOUS
10
39.8237280938
20
2.0321536233
11
39.7845270938
21
2.0521276233
0
LINE
8
0
62
2
6
CONTINUOUS
10
39.9106400938
20
2.2996376233
11
39.9498410938
21
2.2796636233
0
LINE
8
0
6
CONTINUOUS
10
43.5000000000
20
12.7500000000
11
44.0000000000
21
12.7500000000
0
LINE
8
0
62
2
6
CONTINUOUS
10
27.2128501169
20
13.8493021190
11
24.9602851174
21
13.8493021190
0
LINE
8
0
62
2
6
CONTINUOUS
10
27.1786951169
20
13.9167196190
11
24.9936526174
21
13.9167196190
0
LINE
8
0
62
7
6
CONTINUOUS
10
23.9810630577
20
25.7042882305
11
24.0064325021
21
25.7662187861
0
LINE
8
0
62
7
6
CONTINUOUS
10
25.8137380577
20
25.2335576750
11
25.7650588910
21
25.1748423972
0
LINE
8
0
62
7
6
CONTINUOUS
10
26.4118561133
20
25.1563965639
11
26.4101741688
21
25.1543757305
0
LINE
8
0
62
2
6
CONTINUOUS
10
24.9936526174
20
14.9097496188
11
27.1786951169
21
14.9097496188
0
LINE
8
0
62
2
6
CONTINUOUS
10
24.9602851174
20
14.9422096188
11
27.2128501169
21
14.9422096188
0
LINE
8
0
62
2
6
CONTINUOUS
10
40.7895600938
20
2.3009016233
11
40.8161270938
21
2.2847806233
0
LINE
8
0
62
2
6
CONTINUOUS
10
40.7920328411
20
2.3009016233
11
40.8185998411
21
2.2847806233
0
LINE
8
0
62
7
6
CONTINUOUS
10
24.3600297244
20
25.7662187861
11
24.3368505577
21
25.7042882305
0
LINE
8
0
62
7
6
CONTINUOUS
10
24.7426186133
20
25.4883868416
11
24.7100130577
21
25.4202173972
0
LINE
8
0
62
7
6
CONTINUOUS
10
25.5483713910
20
25.4894035083
11
25.5107061133
21
25.4202173972
0
LINE
8
0
62
7
6
CONTINUOUS
10
26.9073658355
20
25.1763618416
11
26.9408672244
21
25.2337479527
0
LINE
8
0
62
7
6
CONTINUOUS
10
26.9323505577
20
25.2337479527
11
26.9033644466
21
25.1847298972
0
LINE
8
0
62
2
6
CONTINUOUS
10
39.9215940938
20
2.2154966233
11
39.9000010938
21
2.2318016233
0
LINE
8
0
62
7
6
CONTINUOUS
10
23.4631519466
20
25.2617021194
11
23.4631519466
21
25.8940396194
0
LINE
8
0
62
7
6
CONTINUOUS
10
23.4652755577
20
25.8984687861
11
23.4652755577
21
25.2842576750
0
LINE
8
0
62
7
6
CONTINUOUS
10
26.6157130577
20
25.2392271194
11
26.5790922244
21
25.1488687861
0
LINE
8
0
62
7
6
CONTINUOUS
10
26.5790922244
20
25.1285229527
11
26.6133533355
21
25.2130507305
0
POLYLINE
8
0
62
7
6
CONTINUOUS
66
1
70
0
0
VERTEX
8
0
62
7
6
CONTINUOUS
10
26.6792713910
20
25.1333521194
0
VERTEX
8
0
62
7
6
CONTINUOUS
10
26.7211547244
20
25.2363660083
0
VERTEX
8
0
62
7
6
CONTINUOUS
10
26.7220088910
20
25.2385215639
0
SEQEND
0
POLYLINE
8
0
62
7
6
CONTINUOUS
66
1
70
0
0
VERTEX
8
0
62
7
6
CONTINUOUS
10
25.5718894466
20
25.1333521194
0
VERTEX
8
0
62
7
6
CONTINUOUS
10
25.6138005577
20
25.2363660083
0
VERTEX
8
0
62
7
6
CONTINUOUS
10
25.6146213910
20
25.2385215639
0
SEQEND
0
LINE
8
0
62
7
6
CONTINUOUS
10
26.7220088910
20
25.2176882305
11
26.7039838910
21
25.1734451750
0
LINE
8
0
62
7
6
CONTINUOUS
10
25.6146213910
20
25.2176340639
11
25.5966088910
21
25.1734451750
0
POLYLINE
8
0
62
7
6
CONTINUOUS
66
1
70
0
0
VERTEX
8
0
62
7
6
CONTINUOUS
10
24.4405936468
20
25.4822143542
0
VERTEX
8
0
62
7
6
CONTINUOUS
10
24.4404602799
20
25.4930660083
0
VERTEX
8
0
62
7
6
CONTINUOUS
10
24.4404602799
20
25.6892062861
0
SEQEND
0
LINE
8
0
62
7
6
CONTINUOUS
10
23.9267283355
20
25.7594437861
11
23.9267283355
21
25.7006673972
0
LINE
8
0
62
7
6
CONTINUOUS
10
24.1013561133
20
25.4202173972
11
24.1013561133
21
25.4217910083
0
LINE
8
0
62
7
6
CONTINUOUS
10
24.1332227799
20
25.4930660083
11
24.1332227799
21
25.7251146194
0
POLYLINE
8
0
62
7
6
CONTINUOUS
66
1
70
0
0
VERTEX
8
0
62
7
6
CONTINUOUS
10
24.2071366688
20
25.7251146194
0
VERTEX
8
0
62
7
6
CONTINUOUS
10
24.2071366688
20
25.4878576750
0
VERTEX
8
0
62
7
6
CONTINUOUS
10
24.2071445549
20
25.4806733823
0
VERTEX
8
0
62
7
6
CONTINUOUS
10
24.2072559496
20
25.4739515457
0
VERTEX
8
0
62
7
6
CONTINUOUS
10
24.2075162907
20
25.4686903958
0
VERTEX
8
0
62
7
6
CONTINUOUS
10
24.2079326679
20
25.4642452621
0
VERTEX
8
0
62
7
6
CONTINUOUS
10
24.2085078415
20
25.4603396471
0
VERTEX
8
0
62
7
6
CONTINUOUS
10
24.2092447671
20
25.4568219369
0
VERTEX
8
0
62
7
6
CONTINUOUS
10
24.2101480468
20
25.4535965041
0
VERTEX
8
0
62
7
6
CONTINUOUS
10
24.2112247153
20
25.4505972772
0
VERTEX
8
0
62
7
6
CONTINUOUS
10
24.2124847979
20
25.4477756439
0
VERTEX
8
0
62
7
6
CONTINUOUS
10
24.2139417555
20
25.4450942382
0
VERTEX
8
0
62
7
6
CONTINUOUS
10
24.2156128514
20
25.4425234744
0
VERTEX
8
0
62
7
6
CONTINUOUS
10
24.2175194638
20
25.4400394792
0
VERTEX
8
0
62
7
6
CONTINUOUS
10
24.2196873633
20
25.4376227758
0
VERTEX
8
0
62
7
6
CONTINUOUS
10
24.2221375490
20
25.4352658390
0
VERTEX
8
0
62
7
6
CONTINUOUS
10
24.2248976265
20
25.4329583411
0
VERTEX
8
0
62
7
6
CONTINUOUS
10
24.2280043482
20
25.4306876555
0
VERTEX
8
0
62
7
6
CONTINUOUS
10
24.2314996365
20
25.4284434354
0
VERTEX
8
0
62
7
6
CONTINUOUS
10
24.2354309799
20
25.4262171471
0
VERTEX
8
0
62
7
6
CONTINUOUS
10
24.2398519390
20
25.4240016790
0
VERTEX
8
0
62
7
6
CONTINUOUS
10
24.2448227799
20
25.4217910083
0
SEQEND
0
LINE
8
0
62
7
6
CONTINUOUS
10
24.2448227799
20
25.4217910083
11
24.2448227799
21
25.4202173972
0
LINE
8
0
62
7
6
CONTINUOUS
10
24.4078547244
20
25.4202173972
11
24.4078547244
21
25.4217910083
0
LINE
8
0
62
7
6
CONTINUOUS
10
24.4078547244
20
25.7610104527
11
24.4078547244
21
25.7625771194
0
LINE
8
0
62
7
6
CONTINUOUS
10
24.5143741688
20
25.7214798972
11
24.5143741688
21
25.6247048972
0
LINE
8
0
62
7
6
CONTINUOUS
10
24.5143741688
20
25.5872298972
11
24.5143741688
21
25.4639187861
0
LINE
8
0
62
7
6
CONTINUOUS
10
24.6346616688
20
25.6278173972
11
24.6346616688
21
25.5726757305
0
LINE
8
0
62
7
6
CONTINUOUS
10
24.6759616688
20
25.7651673972
11
24.6759616688
21
25.7042882305
0
LINE
8
0
62
7
6
CONTINUOUS
10
24.7679755577
20
25.4202173972
11
24.7679755577
21
25.4217910083
0
LINE
8
0
62
7
6
CONTINUOUS
10
24.7679755577
20
25.7610104527
11
24.7679755577
21
25.7625771194
0
POLYLINE
8
0
62
7
6
CONTINUOUS
66
1
70
0
0
VERTEX
8
0
62
7
6
CONTINUOUS
10
24.8737700021
20
25.7261521194
0
VERTEX
8
0
62
7
6
CONTINUOUS
10
24.8737700021
20
25.4930660083
0
VERTEX
8
0
62
7
6
CONTINUOUS
10
24.8736890824
20
25.4857522348
0
VERTEX
8
0
62
7
6
CONTINUOUS
10
24.8736247627
20
25.4808713291
0
VERTEX
8
0
62
7
6
CONTINUOUS
10
24.8736456636
20
25.4742204067
0
VERTEX
8
0
62
7
6
CONTINUOUS
10
24.8738433657
20
25.4686123940
0
VERTEX
8
0
62
7
6
CONTINUOUS
10
24.8742180387
20
25.4636601989
0
VERTEX
8
0
62
7
6
CONTINUOUS
10
24.8747657468
20
25.4591988085
0
VERTEX
8
0
62
7
6
CONTINUOUS
10
24.8754813860
20
25.4551370358
0
VERTEX
8
0
62
7
6
CONTINUOUS
10
24.8763598335
20
25.4514159445
0
VERTEX
8
0
62
7
6
CONTINUOUS
10
24.8773966288
20
25.4479932622
0
VERTEX
8
0
62
7
6
CONTINUOUS
10
24.8785884593
20
25.4448364759
0
VERTEX
8
0
62
7
6
CONTINUOUS
10
24.8799335331
20
25.4419194448
0
VERTEX
8
0
62
7
6
CONTINUOUS
10
24.8814318732
20
25.4392206414
0
VERTEX
8
0
62
7
6
CONTINUOUS
10
24.8830855408
20
25.4367222196
0
VERTEX
8
0
62
7
6
CONTINUOUS
10
24.8848987913
20
25.4344095316
0
VERTEX
8
0
62
7
6
CONTINUOUS
10
24.8868781613
20
25.4322708943
0
VERTEX
8
0
62
7
6
CONTINUOUS
10
24.8890324901
20
25.4302974882
0
VERTEX
8
0
62
7
6
CONTINUOUS
10
24.8913728794
20
25.4284833200
0
VERTEX
8
0
62
7
6
CONTINUOUS
10
24.8939126025
20
25.4268252016
0
VERTEX
8
0
62
7
6
CONTINUOUS
10
24.8966669778
20
25.4253227178
0
VERTEX
8
0
62
7
6
CONTINUOUS
10
24.8996532202
20
25.4239781706
0
VERTEX
8
0
62
7
6
CONTINUOUS
10
24.9028840204
20
25.4227985370
0
VERTEX
8
0
62
7
6
CONTINUOUS
10
24.9063755577
20
25.4217910083
0
SEQEND
0
LINE
8
0
62
7
6
CONTINUOUS
10
24.9063755577
20
25.4217910083
11
24.9063755577
21
25.4202173972
0
LINE
8
0
62
2
6
CONTINUOUS
10
24.9602851174
20
13.8493021190
11
24.9602851174
21
14.9422096188
0
LINE
8
0
62
2
6
CONTINUOUS
10
24.9936526174
20
13.9167196190
11
24.9936526174
21
14.9097496188
0
LINE
8
0
62
7
6
CONTINUOUS
10
25.2128811133
20
25.4202173972
11
25.2128811133
21
25.4217910083
0
LINE
8
0
62
7
6
CONTINUOUS
10
25.2128811133
20
25.7610104527
11
25.2128811133
21
25.7625771194
0
POLYLINE
8
0
62
7
6
CONTINUOUS
66
1
70
0
0
VERTEX
8
0
62
7
6
CONTINUOUS
10
24.4404602799
20
25.6892062861
0
VERTEX
8
0
62
7
6
CONTINUOUS
10
24.4405876055
20
25.6997210051
0
VERTEX
8
0
62
7
6
CONTINUOUS
10
24.4405903080
20
25.7077293143
0
VERTEX
8
0
62
7
6
CONTINUOUS
10
24.4403506536
20
25.7143132476
0
VERTEX
8
0
62
7
6
CONTINUOUS
10
24.4398638094
20
25.7200467941
0
VERTEX
8
0
62
7
6
CONTINUOUS
10
24.4391350966
20
25.7251534602
0
VERTEX
8
0
62
7
6
CONTINUOUS
10
24.4381721192
20
25.7297529801
0
VERTEX
8
0
62
7
6
CONTINUOUS
10
24.4369821214
20
25.7339223422
0
VERTEX
8
0
62
7
6
CONTINUOUS
10
24.4355705204
20
25.7377170072
0
VERTEX
8
0
62
7
6
CONTINUOUS
10
24.4339399041
20
25.7411797312
0
VERTEX
8
0
62
7
6
CONTINUOUS
10
24.4320892984
20
25.7443445913
0
VERTEX
8
0
62
7
6
CONTINUOUS
10
24.4300136457
20
25.7472388701
0
VERTEX
8
0
62
7
6
CONTINUOUS
10
24.4277034806
20
25.7498839004
0
VERTEX
8
0
62
7
6
CONTINUOUS
10
24.4251447966
20
25.7522953939
0
VERTEX
8
0
62
7
6
CONTINUOUS
10
24.4223190901
20
25.7544835428
0
VERTEX
8
0
62
7
6
CONTINUOUS
10
24.4192035524
20
25.7564530570
0
VERTEX
8
0
62
7
6
CONTINUOUS
10
24.4157713631
20
25.7582032315
0
VERTEX
8
0
62
7
6
CONTINUOUS
10
24.4139271546
20
25.7589943888
0
VERTEX
8
0
62
7
6
CONTINUOUS
10
24.4119948309
20
25.7597270939
0
VERTEX
8
0
62
7
6
CONTINUOUS
10
24.4078547244
20
25.7610104527
0
SEQEND
0
POLYLINE
8
0
62
7
6
CONTINUOUS
66
1
70
0
0
VERTEX
8
0
62
7
6
CONTINUOUS
10
25.2454880577
20
25.6892062861
0
VERTEX
8
0
62
7
6
CONTINUOUS
10
25.2456153128
20
25.6997210482
0
VERTEX
8
0
62
7
6
CONTINUOUS
10
25.2456178988
20
25.7077290249
0
VERTEX
8
0
62
7
6
CONTINUOUS
10
25.2453781358
20
25.7143128596
0
VERTEX
8
0
62
7
6
CONTINUOUS
10
25.2448911892
20
25.7200463843
0
VERTEX
8
0
62
7
6
CONTINUOUS
10
25.2441623791
20
25.7251530633
0
VERTEX
8
0
62
7
6
CONTINUOUS
10
25.2431993085
20
25.7297526139
0
VERTEX
8
0
62
7
6
CONTINUOUS
10
25.2420092211
20
25.7339220157
0
VERTEX
8
0
62
7
6
CONTINUOUS
10
25.2405975337
20
25.7377167244
0
VERTEX
8
0
62
7
6
CONTINUOUS
10
25.2389668338
20
25.7411794930
0
VERTEX
8
0
62
7
6
CONTINUOUS
10
25.2371161474
20
25.7443443963
0
VERTEX
8
0
62
7
6
CONTINUOUS
10
25.2350404173
20
25.7472387156
0
VERTEX
8
0
62
7
6
CONTINUOUS
10
25.2327301785
20
25.7498837822
0
VERTEX
8
0
62
7
6
CONTINUOUS
10
25.2301714253
20
25.7522953075
0
VERTEX
8
0
62
7
6
CONTINUOUS
10
25.2273456553
20
25.7544834831
0
VERTEX
8
0
62
7
6
CONTINUOUS
10
25.2242300611
20
25.7564530187
0
VERTEX
8
0
62
7
6
CONTINUOUS
10
25.2207978241
20
25.7582032096
0
VERTEX
8
0
62
7
6
CONTINUOUS
10
25.2189535939
20
25.7589943740
0
VERTEX
8
0
62
7
6
CONTINUOUS
10
25.2170212500
20
25.7597270853
0
VERTEX
8
0
62
7
6
CONTINUOUS
10
25.2128811133
20
25.7610104527
0
SEQEND
0
LINE
8
0
62
7
6
CONTINUOUS
10
26.5285408355
20
25.1333521194
11
26.5449533355
21
25.2130507305
0
LINE
8
0
62
7
6
CONTINUOUS
10
26.5426200021
20
25.2392271194
11
26.5205797244
21
25.1333521194
0
LINE
8
0
62
2
6
CONTINUOUS
10
39.7845270938
20
2.0521276233
11
39.7534160938
21
2.0832386233
0
LINE
8
0
62
2
6
CONTINUOUS
10
39.9498410938
20
2.2796636233
11
39.9809520938
21
2.2485526233
0
LINE
8
0
62
2
6
CONTINUOUS
10
40.7843580938
20
2.2366926233
11
40.7731370938
21
2.2479136233
0
LINE
8
0
62
2
6
CONTINUOUS
10
40.7868308411
20
2.2366926233
11
40.7756098411
21
2.2479136233
0
LINE
8
0
62
2
6
CONTINUOUS
10
39.8045870938
20
2.1271366233
11
39.8228150938
21
2.1071416233
0
POLYLINE
8
0
62
7
6
CONTINUOUS
66
1
70
0
0
VERTEX
8
0
62
7
6
CONTINUOUS
10
25.6100797474
20
25.4831249883
0
VERTEX
8
0
62
7
6
CONTINUOUS
10
25.6099561133
20
25.4930660083
0
VERTEX
8
0
62
7
6
CONTINUOUS
10
25.6099561133
20
25.6892062861
0
VERTEX
8
0
62
7
6
CONTINUOUS
10
25.6100727596
20
25.6973175007
0
VERTEX
8
0
62
7
6
CONTINUOUS
10
25.6101206515
20
25.6997124656
0
VERTEX
8
0
62
7
6
CONTINUOUS
10
25.6101857747
20
25.7078943951
0
VERTEX
8
0
62
7
6
CONTINUOUS
10
25.6100034671
20
25.7145270013
0
VERTEX
8
0
62
7
6
CONTINUOUS
10
25.6095702584
20
25.7202695261
0
VERTEX
8
0
62
7
6
CONTINUOUS
10
25.6088923222
20
25.7253675009
0
VERTEX
8
0
62
7
6
CONTINUOUS
10
25.6079777940
20
25.7299494718
0
VERTEX
8
0
62
7
6
CONTINUOUS
10
25.6068342797
20
25.7340968543
0
VERTEX
8
0
62
7
6
CONTINUOUS
10
25.6054674355
20
25.7378676729
0
VERTEX
8
0
62
7
6
CONTINUOUS
10
25.6038799722
20
25.7413063173
0
VERTEX
8
0
62
7
6
CONTINUOUS
10
25.6020709146
20
25.7444479723
0
VERTEX
8
0
62
7
6
CONTINUOUS
10
25.6000350664
20
25.7473206952
0
VERTEX
8
0
62
7
6
CONTINUOUS
10
25.5977626758
20
25.7499463555
0
VERTEX
8
0
62
7
6
CONTINUOUS
10
25.5952392965
20
25.7523410144
0
VERTEX
8
0
62
7
6
CONTINUOUS
10
25.5924458333
20
25.7545150528
0
VERTEX
8
0
62
7
6
CONTINUOUS
10
25.5893587397
20
25.7564732281
0
VERTEX
8
0
62
7
6
CONTINUOUS
10
25.5859503204
20
25.7582147576
0
VERTEX
8
0
62
7
6
CONTINUOUS
10
25.5821943625
20
25.7597315996
0
VERTEX
8
0
62
7
6
CONTINUOUS
10
25.5780686133
20
25.7610104527
0
SEQEND
0
POLYLINE
8
0
62
7
6
CONTINUOUS
66
1
70
0
0
VERTEX
8
0
62
7
6
CONTINUOUS
10
25.6837371130
20
25.6988987022
0
VERTEX
8
0
62
7
6
CONTINUOUS
10
25.6838561133
20
25.6892062861
0
VERTEX
8
0
62
7
6
CONTINUOUS
10
25.6838561133
20
25.4930660083
0
SEQEND
0
POLYLINE
8
0
62
7
6
CONTINUOUS
66
1
70
0
0
VERTEX
8
0
62
7
6
CONTINUOUS
10
25.2456213475
20
25.4822143404
0
VERTEX
8
0
62
7
6
CONTINUOUS
10
25.2454880577
20
25.4930660083
0
VERTEX
8
0
62
7
6
CONTINUOUS
10
25.2454880577
20
25.6892062861
0
SEQEND
0
POLYLINE
8
0
62
7
6
CONTINUOUS
66
1
70
0
0
VERTEX
8
0
62
7
6
CONTINUOUS
10
26.6888879822
20
25.5345682537
0
VERTEX
8
0
62
7
6
CONTINUOUS
10
26.6888572262
20
25.5399906530
0
VERTEX
8
0
62
7
6
CONTINUOUS
10
26.6887579561
20
25.5443061564
0
VERTEX
8
0
62
7
6
CONTINUOUS
10
26.6885843905
20
25.5480357173
0
VERTEX
8
0
62
7
6
CONTINUOUS
10
26.6883353981
20
25.5513742088
0
VERTEX
8
0
62
7
6
CONTINUOUS
10
26.6880111211
20
25.5544203937
0
VERTEX
8
0
62
7
6
CONTINUOUS
10
26.6876121585
20
25.5572331785
0
VERTEX
8
0
62
7
6
CONTINUOUS
10
26.6871392378
20
25.5598515527
0
VERTEX
8
0
62
7
6
CONTINUOUS
10
26.6865930375
20
25.5623032772
0
VERTEX
8
0
62
7
6
CONTINUOUS
10
26.6859740712
20
25.5646092137
0
VERTEX
8
0
62
7
6
CONTINUOUS
10
26.6852826014
20
25.5667856919
0
VERTEX
8
0
62
7
6
CONTINUOUS
10
26.6845185717
20
25.5688458966
0
VERTEX
8
0
62
7
6
CONTINUOUS
10
26.6836815511
20
25.5708007216
0
VERTEX
8
0
62
7
6
CONTINUOUS
10
26.6827706872
20
25.5726593166
0
VERTEX
8
0
62
7
6
CONTINUOUS
10
26.6817846683
20
25.5744294456
0
VERTEX
8
0
62
7
6
CONTINUOUS
10
26.6807216932
20
25.5761177287
0
VERTEX
8
0
62
7
6
CONTINUOUS
10
26.6795794485
20
25.5777298052
0
VERTEX
8
0
62
7
6
CONTINUOUS
10
26.6783550931
20
25.5792704469
0
VERTEX
8
0
62
7
6
CONTINUOUS
10
26.6770452497
20
25.5807436373
0
VERTEX
8
0
62
7
6
CONTINUOUS
10
26.6756460027
20
25.5821526275
0
VERTEX
8
0
62
7
6
CONTINUOUS
10
26.6741529011
20
25.5834999789
0
VERTEX
8
0
62
7
6
CONTINUOUS
10
26.6725609668
20
25.5847875952
0
VERTEX
8
0
62
7
6
CONTINUOUS
10
26.6708647054
20
25.5860167500
0
VERTEX
8
0
62
7
6
CONTINUOUS
10
26.6690581201
20
25.5871881114
0
VERTEX
8
0
62
7
6
CONTINUOUS
10
26.6681112662
20
25.5877522736
0
VERTEX
8
0
62
7
6
CONTINUOUS
10
26.6671347625
20
25.5883017444
0
VERTEX
8
0
62
7
6
CONTINUOUS
10
26.6650909425
20
25.5893555923
0
VERTEX
8
0
62
7
6
CONTINUOUS
10
26.6629195233
20
25.5903490737
0
VERTEX
8
0
62
7
6
CONTINUOUS
10
26.6606129208
20
25.5912810637
0
VERTEX
8
0
62
7
6
CONTINUOUS
10
26.6581631163
20
25.5921499202
0
VERTEX
8
0
62
7
6
CONTINUOUS
10
26.6555616688
20
25.5929535083
0
SEQEND
0
LINE
8
0
62
7
6
CONTINUOUS
10
25.3194005577
20
25.6892062861
11
25.3194005577
21
25.4623715639
0
LINE
8
0
62
7
6
CONTINUOUS
10
25.3512811133
20
25.7625771194
11
25.3512811133
21
25.7610104527
0
LINE
8
0
62
7
6
CONTINUOUS
10
25.5780686133
20
25.4202173972
11
25.5780686133
21
25.4217910083
0
LINE
8
0
62
7
6
CONTINUOUS
10
25.5780686133
20
25.7610104527
11
25.5780686133
21
25.7625771194
0
POLYLINE
8
0
62
7
6
CONTINUOUS
66
1
70
0
0
VERTEX
8
0
62
7
6
CONTINUOUS
10
25.7044991688
20
25.1102396194
0
VERTEX
8
0
62
7
6
CONTINUOUS
10
25.7044991688
20
25.2336118416
0
VERTEX
8
0
62
7
6
CONTINUOUS
10
25.7382172244
20
25.2336118416
0
VERTEX
8
0
62
7
6
CONTINUOUS
10
25.7382172244
20
25.1966521194
0
VERTEX
8
0
62
7
6
CONTINUOUS
10
25.7379533355
20
25.1966521194
0
VERTEX
8
0
62
7
6
CONTINUOUS
10
25.7700575021
20
25.2335576750
0
VERTEX
8
0
62
7
6
CONTINUOUS
10
25.8137380577
20
25.2335576750
0
SEQEND
0
LINE
8
0
62
7
6
CONTINUOUS
10
25.7157561133
20
25.7625771194
11
25.7157561133
21
25.7610104527
0
LINE
8
0
62
7
6
CONTINUOUS
10
25.7157561133
20
25.4217910083
11
25.7157561133
21
25.4202173972
0
LINE
8
0
62
7
6
CONTINUOUS
10
25.7925519466
20
25.4202173972
11
25.7925519466
21
25.4217910083
0
LINE
8
0
62
7
6
CONTINUOUS
10
25.7932783355
20
25.7610104527
11
25.7932783355
21
25.7625771194
0
POLYLINE
8
0
62
7
6
CONTINUOUS
66
1
70
0
0
VERTEX
8
0
62
7
6
CONTINUOUS
10
25.8831352799
20
25.6892062861
0
VERTEX
8
0
62
7
6
CONTINUOUS
10
25.8831352799
20
25.4878576750
0
VERTEX
8
0
62
7
6
CONTINUOUS
10
25.8831540832
20
25.4792883487
0
VERTEX
8
0
62
7
6
CONTINUOUS
10
25.8832826939
20
25.4732953291
0
VERTEX
8
0
62
7
6
CONTINUOUS
10
25.8835463146
20
25.4684608421
0
VERTEX
8
0
62
7
6
CONTINUOUS
10
25.8839496249
20
25.4643108667
0
VERTEX
8
0
62
7
6
CONTINUOUS
10
25.8844947092
20
25.4606270945
0
VERTEX
8
0
62
7
6
CONTINUOUS
10
25.8851838739
20
25.4572854008
0
VERTEX
8
0
62
7
6
CONTINUOUS
10
25.8860206540
20
25.4542058059
0
VERTEX
8
0
62
7
6
CONTINUOUS
10
25.8870103763
20
25.4513322988
0
VERTEX
8
0
62
7
6
CONTINUOUS
10
25.8881605611
20
25.4486232967
0
VERTEX
8
0
62
7
6
CONTINUOUS
10
25.8894812392
20
25.4460466270
0
VERTEX
8
0
62
7
6
CONTINUOUS
10
25.8909852110
20
25.4435766787
0
VERTEX
8
0
62
7
6
CONTINUOUS
10
25.8926882610
20
25.4411926840
0
VERTEX
8
0
62
7
6
CONTINUOUS
10
25.8946093399
20
25.4388776226
0
VERTEX
8
0
62
7
6
CONTINUOUS
10
25.8956589898
20
25.4377409158
0
VERTEX
8
0
62
7
6
CONTINUOUS
10
25.8967707286
20
25.4366174817
0
VERTEX
8
0
62
7
6
CONTINUOUS
10
25.8991875845
20
25.4344098070
0
VERTEX
8
0
62
7
6
CONTINUOUS
10
25.9018857371
20
25.4322445872
0
VERTEX
8
0
62
7
6
CONTINUOUS
10
25.9048956531
20
25.4301127291
0
VERTEX
8
0
62
7
6
CONTINUOUS
10
25.9082515919
20
25.4280068520
0
VERTEX
8
0
62
7
6
CONTINUOUS
10
25.9119918478
20
25.4259209876
0
VERTEX
8
0
62
7
6
CONTINUOUS
10
25.9161590541
20
25.4238503275
0
VERTEX
8
0
62
7
6
CONTINUOUS
10
25.9208005577
20
25.4217910083
0
SEQEND
0
LINE
8
0
62
7
6
CONTINUOUS
10
25.8990658355
20
25.7625771194
11
25.8990658355
21
25.7620479527
0
LINE
8
0
62
7
6
CONTINUOUS
10
25.9208005577
20
25.4217910083
11
25.9208005577
21
25.4202173972
0
POLYLINE
8
0
62
7
6
CONTINUOUS
66
1
70
0
0
VERTEX
8
0
62
7
6
CONTINUOUS
10
25.9316380577
20
25.1102396194
0
VERTEX
8
0
62
7
6
CONTINUOUS
10
25.9316380577
20
25.2336118416
0
VERTEX
8
0
62
7
6
CONTINUOUS
10
25.9653019466
20
25.2336118416
0
VERTEX
8
0
62
7
6
CONTINUOUS
10
25.9653019466
20
25.1903451750
0
VERTEX
8
0
62
7
6
CONTINUOUS
10
25.9993463910
20
25.1903451750
0
VERTEX
8
0
62
7
6
CONTINUOUS
10
25.9993463910
20
25.2336118416
0
VERTEX
8
0
62
7
6
CONTINUOUS
10
26.0330033355
20
25.2336118416
0
SEQEND
0
POLYLINE
8
0
62
7
6
CONTINUOUS
66
1
70
0
0
VERTEX
8
0
62
7
6
CONTINUOUS
10
26.0330033355
20
25.2336118416
0
VERTEX
8
0
62
7
6
CONTINUOUS
10
26.0330033355
20
25.1102396194
0
VERTEX
8
0
62
7
6
CONTINUOUS
10
25.9993463910
20
25.1102396194
0
VERTEX
8
0
62
7
6
CONTINUOUS
10
25.9993463910
20
25.1561382305
0
VERTEX
8
0
62
7
6
CONTINUOUS
10
25.9653019466
20
25.1561382305
0
VERTEX
8
0
62
7
6
CONTINUOUS
10
25.9653019466
20
25.1102396194
0
VERTEX
8
0
62
7
6
CONTINUOUS
10
25.9316380577
20
25.1102396194
0
SEQEND
0
POLYLINE
8
0
62
7
6
CONTINUOUS
66
1
70
0
0
VERTEX
8
0
62
7
6
CONTINUOUS
10
26.0427686133
20
25.1102396194
0
VERTEX
8
0
62
7
6
CONTINUOUS
10
26.0427686133
20
25.2336118416
0
VERTEX
8
0
62
7
6
CONTINUOUS
10
26.0764880577
20
25.2336118416
0
SEQEND
0
POLYLINE
8
0
62
7
6
CONTINUOUS
66
1
70
0
0
VERTEX
8
0
62
7
6
CONTINUOUS
10
26.0764880577
20
25.2336118416
0
VERTEX
8
0
62
7
6
CONTINUOUS
10
26.0764880577
20
25.1417340639
0
VERTEX
8
0
62
7
6
CONTINUOUS
10
26.1143436133
20
25.1417340639
0
VERTEX
8
0
62
7
6
CONTINUOUS
10
26.1143436133
20
25.1102396194
0
SEQEND
0
LINE
8
0
62
7
6
CONTINUOUS
10
26.1232672244
20
25.1102396194
11
26.1232672244
21
25.2336118416
0
LINE
8
0
62
7
6
CONTINUOUS
10
26.1476144466
20
25.7610104527
11
26.1476144466
21
25.7625771194
0
POLYLINE
8
0
62
7
6
CONTINUOUS
66
1
70
0
0
VERTEX
8
0
62
7
6
CONTINUOUS
10
26.1916950021
20
25.2336118416
0
VERTEX
8
0
62
7
6
CONTINUOUS
10
26.1916950021
20
25.2051701750
0
VERTEX
8
0
62
7
6
CONTINUOUS
10
26.1578269466
20
25.2051160083
0
VERTEX
8
0
62
7
6
CONTINUOUS
10
26.1576783355
20
25.1856521194
0
VERTEX
8
0
62
7
6
CONTINUOUS
10
26.1889825021
20
25.1856521194
0
VERTEX
8
0
62
7
6
CONTINUOUS
10
26.1889825021
20
25.1580104527
0
VERTEX
8
0
62
7
6
CONTINUOUS
10
26.1577727799
20
25.1580104527
0
VERTEX
8
0
62
7
6
CONTINUOUS
10
26.1577727799
20
25.1391840639
0
VERTEX
8
0
62
7
6
CONTINUOUS
10
26.1919533355
20
25.1391840639
0
VERTEX
8
0
62
7
6
CONTINUOUS
10
26.1919533355
20
25.1102396194
0
SEQEND
0
LINE
8
0
62
7
6
CONTINUOUS
10
26.2008644466
20
25.1103215639
11
26.2008644466
21
25.2336118416
0
LINE
8
0
62
7
6
CONTINUOUS
10
26.2337963910
20
25.2050340639
11
26.2337963910
21
25.1812715639
0
LINE
8
0
62
7
6
CONTINUOUS
10
26.2338505577
20
25.1480951750
11
26.2338505577
21
25.1103215639
0
LINE
8
0
62
7
6
CONTINUOUS
10
26.2751505577
20
25.7625771194
11
26.2751505577
21
25.7610104527
0
LINE
8
0
62
7
6
CONTINUOUS
10
26.4118561133
20
25.1538465639
11
26.4118561133
21
25.1563965639
0
LINE
8
0
62
7
6
CONTINUOUS
10
26.4118561133
20
25.2100798972
11
26.4118561133
21
25.2212826750
0
LINE
8
0
62
7
6
CONTINUOUS
10
26.6465158355
20
25.1333521194
11
26.6465158355
21
25.2337479527
0
LINE
8
0
62
7
6
CONTINUOUS
10
26.6546394466
20
25.2260173972
11
26.6546394466
21
25.1878229527
0
LINE
8
0
62
7
6
CONTINUOUS
10
26.6546394466
20
25.1801048972
11
26.6546394466
21
25.1333521194
0
LINE
8
0
62
7
6
CONTINUOUS
10
26.6555616688
20
25.5929535083
11
26.6555616688
21
25.5945062861
0
LINE
8
0
62
7
6
CONTINUOUS
10
26.6888880577
20
25.4592382305
11
26.6888879822
21
25.5345682537
0
LINE
8
0
62
7
6
CONTINUOUS
10
26.7113477799
20
25.7620479527
11
26.7113477799
21
25.7022132305
0
LINE
8
0
62
7
6
CONTINUOUS
10
26.7627936133
20
25.5705798972
11
26.7627936133
21
25.4509173972
0
LINE
8
0
62
7
6
CONTINUOUS
10
26.7664158355
20
25.5945062861
11
26.7664158355
21
25.5929535083
0
LINE
8
0
62
7
6
CONTINUOUS
10
26.7699019466
20
25.2363660083
11
26.7699019466
21
25.1333521194
0
LINE
8
0
62
7
6
CONTINUOUS
10
26.7779991688
20
25.1333521194
11
26.7779991688
21
25.2165771194
0
LINE
8
0
62
7
6
CONTINUOUS
10
26.7930547244
20
25.4255062861
11
26.7930547244
21
25.4536035083
0
LINE
8
0
62
7
6
CONTINUOUS
10
26.7975297244
20
25.4505785083
11
26.7975297244
21
25.4410701750
0
LINE
8
0
62
7
6
CONTINUOUS
10
26.7975297244
20
25.4376048972
11
26.7975297244
21
25.4255062861
0
LINE
8
0
62
7
6
CONTINUOUS
10
26.8068213910
20
25.4395035083
11
26.8068213910
21
25.4392798972
0
POLYLINE
8
0
62
7
6
CONTINUOUS
66
1
70
0
0
VERTEX
8
0
62
7
6
CONTINUOUS
10
26.1852936133
20
25.4982604527
0
VERTEX
8
0
62
7
6
CONTINUOUS
10
26.1852943534
20
25.6976764620
0
VERTEX
8
0
62
7
6
CONTINUOUS
10
26.1852577913
20
25.7054598596
0
VERTEX
8
0
62
7
6
CONTINUOUS
10
26.1851024828
20
25.7110913626
0
VERTEX
8
0
62
7
6
CONTINUOUS
10
26.1848130272
20
25.7157156928
0
VERTEX
8
0
62
7
6
CONTINUOUS
10
26.1843860268
20
25.7197186383
0
VERTEX
8
0
62
7
6
CONTINUOUS
10
26.1838197085
20
25.7232886640
0
VERTEX
8
0
62
7
6
CONTINUOUS
10
26.1831118382
20
25.7265365044
0
VERTEX
8
0
62
7
6
CONTINUOUS
10
26.1822588817
20
25.7295350240
0
VERTEX
8
0
62
7
6
CONTINUOUS
10
26.1812555009
20
25.7323359819
0
VERTEX
8
0
62
7
6
CONTINUOUS
10
26.1800941835
20
25.7349781794
0
VERTEX
8
0
62
7
6
CONTINUOUS
10
26.1787649468
20
25.7374918276
0
VERTEX
8
0
62
7
6
CONTINUOUS
10
26.1772550947
20
25.7399010610
0
VERTEX
8
0
62
7
6
CONTINUOUS
10
26.1755490163
20
25.7422254707
0
VERTEX
8
0
62
7
6
CONTINUOUS
10
26.1736280156
20
25.7444810912
0
VERTEX
8
0
62
7
6
CONTINUOUS
10
26.1725795677
20
25.7455879535
0
VERTEX
8
0
62
7
6
CONTINUOUS
10
26.1714701574
20
25.7466810728
0
VERTEX
8
0
62
7
6
CONTINUOUS
10
26.1690615901
20
25.7488265947
0
VERTEX
8
0
62
7
6
CONTINUOUS
10
26.1663760562
20
25.7509279085
0
VERTEX
8
0
62
7
6
CONTINUOUS
10
26.1633836851
20
25.7529933711
0
VERTEX
8
0
62
7
6
CONTINUOUS
10
26.1600509307
20
25.7550296540
0
VERTEX
8
0
62
7
6
CONTINUOUS
10
26.1563403378
20
25.7570420244
0
VERTEX
8
0
62
7
6
CONTINUOUS
10
26.1522102495
20
25.7590345805
0
VERTEX
8
0
62
7
6
CONTINUOUS
10
26.1476144466
20
25.7610104527
0
SEQEND
0
POLYLINE
8
0
62
7
6
CONTINUOUS
66
1
70
0
0
VERTEX
8
0
62
7
6
CONTINUOUS
10
25.6838561133
20
25.4930660083
0
VERTEX
8
0
62
7
6
CONTINUOUS
10
25.6837424626
20
25.4837771324
0
VERTEX
8
0
62
7
6
CONTINUOUS
10
25.6837106630
20
25.4755602076
0
VERTEX
8
0
62
7
6
CONTINUOUS
10
25.6839189535
20
25.4688709381
0
VERTEX
8
0
62
7
6
CONTINUOUS
10
25.6843749457
20
25.4630613205
0
VERTEX
8
0
62
7
6
CONTINUOUS
10
25.6850737175
20
25.4578929838
0
VERTEX
8
0
62
7
6
CONTINUOUS
10
25.6860074704
20
25.4532416627
0
VERTEX
8
0
62
7
6
CONTINUOUS
10
25.6871684791
20
25.4490285802
0
VERTEX
8
0
62
7
6
CONTINUOUS
10
25.6885506638
20
25.4451973524
0
VERTEX
8
0
62
7
6
CONTINUOUS
10
25.6901506456
20
25.4417045750
0
VERTEX
8
0
62
7
6
CONTINUOUS
10
25.6919685143
20
25.4385155863
0
VERTEX
8
0
62
7
6
CONTINUOUS
10
25.6940083798
20
25.4356025027
0
VERTEX
8
0
62
7
6
CONTINUOUS
10
25.6962787251
20
25.4329433512
0
VERTEX
8
0
62
7
6
CONTINUOUS
10
25.6987925654
20
25.4305217423
0
VERTEX
8
0
62
7
6
CONTINUOUS
10
25.7015674247
20
25.4283267882
0
VERTEX
8
0
62
7
6
CONTINUOUS
10
25.7046251584
20
25.4263530902
0
VERTEX
8
0
62
7
6
CONTINUOUS
10
25.7079916637
20
25.4246006983
0
VERTEX
8
0
62
7
6
CONTINUOUS
10
25.7098007543
20
25.4238085849
0
VERTEX
8
0
62
7
6
CONTINUOUS
10
25.7116965300
20
25.4230749942
0
VERTEX
8
0
62
7
6
CONTINUOUS
10
25.7157561133
20
25.4217910083
0
SEQEND
0
POLYLINE
8
0
62
7
6
CONTINUOUS
66
1
70
0
0
VERTEX
8
0
62
7
6
CONTINUOUS
10
25.7975297244
20
25.1729701750
0
VERTEX
8
0
62
7
6
CONTINUOUS
10
25.7975865515
20
25.1760538637
0
VERTEX
8
0
62
7
6
CONTINUOUS
10
25.7977866041
20
25.1791189500
0
VERTEX
8
0
62
7
6
CONTINUOUS
10
25.7981290901
20
25.1821614240
0
VERTEX
8
0
62
7
6
CONTINUOUS
10
25.7986131181
20
25.1851769741
0
VERTEX
8
0
62
7
6
CONTINUOUS
10
25.7992376525
20
25.1881609845
0
VERTEX
8
0
62
7
6
CONTINUOUS
10
25.8000014671
20
25.1911085398
0
VERTEX
8
0
62
7
6
CONTINUOUS
10
25.8009031003
20
25.1940144375
0
VERTEX
8
0
62
7
6
CONTINUOUS
10
25.8019408116
20
25.1968732097
0
VERTEX
8
0
62
7
6
CONTINUOUS
10
25.8031125423
20
25.1996791539
0
VERTEX
8
0
62
7
6
CONTINUOUS
10
25.8044158819
20
25.2024263716
0
VERTEX
8
0
62
7
6
CONTINUOUS
10
25.8058480414
20
25.2051088171
0
VERTEX
8
0
62
7
6
CONTINUOUS
10
25.8074058363
20
25.2077203523
0
VERTEX
8
0
62
7
6
CONTINUOUS
10
25.8090856794
20
25.2102548076
0
VERTEX
8
0
62
7
6
CONTINUOUS
10
25.8108835851
20
25.2127060480
0
VERTEX
8
0
62
7
6
CONTINUOUS
10
25.8127951856
20
25.2150680390
0
VERTEX
8
0
62
7
6
CONTINUOUS
10
25.8131708769
20
25.2155062610
0
VERTEX
8
0
62
7
6
CONTINUOUS
10
25.8152105979
20
25.2177533708
0
VERTEX
8
0
62
7
6
CONTINUOUS
10
25.8173516963
20
25.2198973814
0
VERTEX
8
0
62
7
6
CONTINUOUS
10
25.8195886780
20
25.2219332654
0
VERTEX
8
0
62
7
6
CONTINUOUS
10
25.8219159033
20
25.2238563687
0
VERTEX
8
0
62
7
6
CONTINUOUS
10
25.8243276508
20
25.2256624361
0
VERTEX
8
0
62
7
6
CONTINUOUS
10
25.8268181824
20
25.2273476249
0
VERTEX
8
0
62
7
6
CONTINUOUS
10
25.8293818061
20
25.2289085056
0
VERTEX
8
0
62
7
6
CONTINUOUS
10
25.8320129337
20
25.2303420520
0
VERTEX
8
0
62
7
6
CONTINUOUS
10
25.8347061331
20
25.2316456209
0
VERTEX
8
0
62
7
6
CONTINUOUS
10
25.8374561731
20
25.2328169218
0
VERTEX
8
0
62
7
6
CONTINUOUS
10
25.8402580596
20
25.2338539808
0
VERTEX
8
0
62
7
6
CONTINUOUS
10
25.8431070630
20
25.2347550983
0
VERTEX
8
0
62
7
6
CONTINUOUS
10
25.8459987377
20
25.2355188034
0
VERTEX
8
0
62
7
6
CONTINUOUS
10
25.8489289323
20
25.2361438061
0
VERTEX
8
0
62
7
6
CONTINUOUS
10
25.8518937927
20
25.2366289500
0
VERTEX
8
0
62
7
6
CONTINUOUS
10
25.8548897574
20
25.2369731656
0
VERTEX
8
0
62
7
6
CONTINUOUS
10
25.8579135481
20
25.2371754259
0
VERTEX
8
0
62
7
6
CONTINUOUS
10
25.8609621536
20
25.2372347060
0
VERTEX
8
0
62
7
6
CONTINUOUS
10
25.8640018045
20
25.2371504387
0
VERTEX
8
0
62
7
6
CONTINUOUS
10
25.8670206525
20
25.2369232162
0
VERTEX
8
0
62
7
6
CONTINUOUS
10
25.8700154974
20
25.2365538578
0
VERTEX
8
0
62
7
6
CONTINUOUS
10
25.8729828390
20
25.2360432057
0
VERTEX
8
0
62
7
6
CONTINUOUS
10
25.8759188622
20
25.2353921710
0
VERTEX
8
0
62
7
6
CONTINUOUS
10
25.8788194280
20
25.2346017830
0
VERTEX
8
0
62
7
6
CONTINUOUS
10
25.8816800710
20
25.2336732405
0
VERTEX
8
0
62
7
6
CONTINUOUS
10
25.8844960055
20
25.2326079640
0
VERTEX
8
0
62
7
6
CONTINUOUS
10
25.8872621398
20
25.2314076462
0
VERTEX
8
0
62
7
6
CONTINUOUS
10
25.8899731009
20
25.2300743008
0
VERTEX
8
0
62
7
6
CONTINUOUS
10
25.8926232676
20
25.2286103057
0
VERTEX
8
0
62
7
6
CONTINUOUS
10
25.8952068145
20
25.2270184400
0
VERTEX
8
0
62
7
6
CONTINUOUS
10
25.8977177637
20
25.2253019119
0
VERTEX
8
0
62
7
6
CONTINUOUS
10
25.9001500457
20
25.2234643761
0
VERTEX
8
0
62
7
6
CONTINUOUS
10
25.9024975649
20
25.2215099394
0
VERTEX
8
0
62
7
6
CONTINUOUS
10
25.9047542707
20
25.2194431532
0
VERTEX
8
0
62
7
6
CONTINUOUS
10
25.9069142291
20
25.2172689923
0
VERTEX
8
0
62
7
6
CONTINUOUS
10
25.9089716938
20
25.2149928209
0
VERTEX
8
0
62
7
6
CONTINUOUS
10
25.9090218632
20
25.2149345489
0
VERTEX
8
0
62
7
6
CONTINUOUS
10
25.9109672737
20
25.2125613970
0
VERTEX
8
0
62
7
6
CONTINUOUS
10
25.9127982743
20
25.2101000157
0
VERTEX
8
0
62
7
6
CONTINUOUS
10
25.9145103724
20
25.2075567213
0
VERTEX
8
0
62
7
6
CONTINUOUS
10
25.9160995024
20
25.2049379140
0
VERTEX
8
0
62
7
6
CONTINUOUS
10
25.9175620395
20
25.2022500042
0
VERTEX
8
0
62
7
6
CONTINUOUS
10
25.9188948014
20
25.1994993423
0
VERTEX
8
0
62
7
6
CONTINUOUS
10
25.9200950375
20
25.1966921537
0
VERTEX
8
0
62
7
6
CONTINUOUS
10
25.9211604062
20
25.1938344805
0
VERTEX
8
0
62
7
6
CONTINUOUS
10
25.9220889438
20
25.1909321326
0
VERTEX
8
0
62
7
6
CONTINUOUS
10
25.9228790251
20
25.1879906478
0
VERTEX
8
0
62
7
6
CONTINUOUS
10
25.9235293181
20
25.1850152626
0
VERTEX
8
0
62
7
6
CONTINUOUS
10
25.9240387357
20
25.1820108919
0
VERTEX
8
0
62
7
6
CONTINUOUS
10
25.9244063849
20
25.1789821188
0
VERTEX
8
0
62
7
6
CONTINUOUS
10
25.9246315164
20
25.1759331933
0
VERTEX
8
0
62
7
6
CONTINUOUS
10
25.9247134755
20
25.1728680377
0
VERTEX
8
0
62
7
6
CONTINUOUS
10
25.9246518594
20
25.1697852893
0
VERTEX
8
0
62
7
6
CONTINUOUS
10
25.9244470501
20
25.1667214069
0
VERTEX
8
0
62
7
6
CONTINUOUS
10
25.9240998457
20
25.1636803664
0
VERTEX
8
0
62
7
6
CONTINUOUS
10
25.9236111410
20
25.1606664451
0
VERTEX
8
0
62
7
6
CONTINUOUS
10
25.9229819725
20
25.1576842244
0
VERTEX
8
0
62
7
6
CONTINUOUS
10
25.9222135646
20
25.1547385859
0
VERTEX
8
0
62
7
6
CONTINUOUS
10
25.9213073747
20
25.1518346993
0
VERTEX
8
0
62
7
6
CONTINUOUS
10
25.9202651369
20
25.1489780016
0
VERTEX
8
0
62
7
6
CONTINUOUS
10
25.9190889018
20
25.1461741669
0
VERTEX
8
0
62
7
6
CONTINUOUS
10
25.9177810706
20
25.1434290678
0
VERTEX
8
0
62
7
6
CONTINUOUS
10
25.9163444224
20
25.1407487279
0
VERTEX
8
0
62
7
6
CONTINUOUS
10
25.9147821316
20
25.1381392674
0
VERTEX
8
0
62
7
6
CONTINUOUS
10
25.9130977762
20
25.1356068418
0
VERTEX
8
0
62
7
6
CONTINUOUS
10
25.9112953340
20
25.1331575774
0
VERTEX
8
0
62
7
6
CONTINUOUS
10
25.9093791675
20
25.1307975039
0
VERTEX
8
0
62
7
6
CONTINUOUS
10
25.9090218325
20
25.1303818040
0
VERTEX
8
0
62
7
6
CONTINUOUS
10
25.9069783634
20
25.1281354140
0
VERTEX
8
0
62
7
6
CONTINUOUS
10
25.9048334269
20
25.1259920376
0
VERTEX
8
0
62
7
6
CONTINUOUS
10
25.9025925251
20
25.1239567173
0
VERTEX
8
0
62
7
6
CONTINUOUS
10
25.9002613113
20
25.1220341243
0
VERTEX
8
0
62
7
6
CONTINUOUS
10
25.8978455254
20
25.1202285328
0
VERTEX
8
0
62
7
6
CONTINUOUS
10
25.8953509288
20
25.1185438052
0
VERTEX
8
0
62
7
6
CONTINUOUS
10
25.8927832418
20
25.1169833900
0
VERTEX
8
0
62
7
6
CONTINUOUS
10
25.8901480844
20
25.1155503312
0
VERTEX
8
0
62
7
6
CONTINUOUS
10
25.8874509241
20
25.1142472880
0
VERTEX
8
0
62
7
6
CONTINUOUS
10
25.8846970302
20
25.1130765639
0
VERTEX
8
0
62
7
6
CONTINUOUS
10
25.8818914370
20
25.1120401426
0
VERTEX
8
0
62
7
6
CONTINUOUS
10
25.8790389151
20
25.1111397298
0
VERTEX
8
0
62
7
6
CONTINUOUS
10
25.8761439518
20
25.1103767985
0
VERTEX
8
0
62
7
6
CONTINUOUS
10
25.8732107402
20
25.1097526369
0
VERTEX
8
0
62
7
6
CONTINUOUS
10
25.8702431753
20
25.1092683954
0
VERTEX
8
0
62
7
6
CONTINUOUS
10
25.8672448579
20
25.1089251337
0
VERTEX
8
0
62
7
6
CONTINUOUS
10
25.8642191047
20
25.1087238652
0
VERTEX
8
0
62
7
6
CONTINUOUS
10
25.8611689625
20
25.1086655978
0
VERTEX
8
0
62
7
6
CONTINUOUS
10
25.8581124148
20
25.1087509555
0
VERTEX
8
0
62
7
6
CONTINUOUS
10
25.8550764551
20
25.1089792964
0
VERTEX
8
0
62
7
6
CONTINUOUS
10
25.8520646037
20
25.1093497915
0
VERTEX
8
0
62
7
6
CONTINUOUS
10
25.8490806812
20
25.1098615569
0
VERTEX
8
0
62
7
6
CONTINUOUS
10
25.8461288190
20
25.1105136082
0
VERTEX
8
0
62
7
6
CONTINUOUS
10
25.8432134623
20
25.1113048122
0
VERTEX
8
0
62
7
6
CONTINUOUS
10
25.8403393668
20
25.1122338382
0
VERTEX
8
0
62
7
6
CONTINUOUS
10
25.8375115864
20
25.1132991092
0
VERTEX
8
0
62
7
6
CONTINUOUS
10
25.8347354518
20
25.1144987560
0
VERTEX
8
0
62
7
6
CONTINUOUS
10
25.8320165404
20
25.1158305743
0
VERTEX
8
0
62
7
6
CONTINUOUS
10
25.8293606361
20
25.1172919885
0
VERTEX
8
0
62
7
6
CONTINUOUS
10
25.8267736814
20
25.1188800231
0
VERTEX
8
0
62
7
6
CONTINUOUS
10
25.8242617206
20
25.1205912834
0
VERTEX
8
0
62
7
6
CONTINUOUS
10
25.8218308375
20
25.1224219472
0
VERTEX
8
0
62
7
6
CONTINUOUS
10
25.8194870880
20
25.1243677686
0
VERTEX
8
0
62
7
6
CONTINUOUS
10
25.8172364314
20
25.1264240947
0
VERTEX
8
0
62
7
6
CONTINUOUS
10
25.8150846615
20
25.1285858945
0
VERTEX
8
0
62
7
6
CONTINUOUS
10
25.8148309092
20
25.1288547596
0
VERTEX
8
0
62
7
6
CONTINUOUS
10
25.8127980866
20
25.1311266844
0
VERTEX
8
0
62
7
6
CONTINUOUS
10
25.8108767257
20
25.1334905545
0
VERTEX
8
0
62
7
6
CONTINUOUS
10
25.8090714176
20
25.1359403627
0
VERTEX
8
0
62
7
6
CONTINUOUS
10
25.8073863455
20
25.1384700088
0
VERTEX
8
0
62
7
6
CONTINUOUS
10
25.8058252689
20
25.1410733693
0
VERTEX
8
0
62
7
6
CONTINUOUS
10
25.8043915202
20
25.1437443641
0
VERTEX
8
0
62
7
6
CONTINUOUS
10
25.8030880136
20
25.1464770196
0
VERTEX
8
0
62
7
6
CONTINUOUS
10
25.8019172650
20
25.1492655244
0
VERTEX
8
0
62
7
6
CONTINUOUS
10
25.8008814211
20
25.1521042776
0
VERTEX
8
0
62
7
6
CONTINUOUS
10
25.7999822960
20
25.1549879282
0
VERTEX
8
0
62
7
6
CONTINUOUS
10
25.7992214145
20
25.1579114053
0
VERTEX
8
0
62
7
6
CONTINUOUS
10
25.7986000579
20
25.1608699385
0
VERTEX
8
0
62
7
6
CONTINUOUS
10
25.7981193133
20
25.1638590696
0
VERTEX
8
0
62
7
6
CONTINUOUS
10
25.7977801222
20
25.1668746565
0
VERTEX
8
0
62
7
6
CONTINUOUS
10
25.7975833285
20
25.1699128682
0
VERTEX
8
0
62
7
6
CONTINUOUS
10
25.7975297244
20
25.1729701750
0
SEQEND
0
LINE
8
0
62
7
6
CONTINUOUS
10
26.4115033355
20
25.1445007305
11
26.4118561133
21
25.1538465639
0
LINE
8
0
62
7
6
CONTINUOUS
10
26.7664158355
20
25.5929535083
11
26.7627936133
21
25.5705798972
0
LINE
8
0
6
CONTINUOUS
10
43.5000000000
20
21.2500000000
11
44.0000000000
21
21.2500000000
0
LINE
8
0
62
2
6
CONTINUOUS
10
39.6720070938
20
2.0252706233
11
39.5748090938
21
2.1467686233
0
LINE
8
0
62
2
6
CONTINUOUS
10
39.6328090938
20
2.1815206233
11
39.7578090938
21
2.0252706233
0
LINE
8
0
62
7
6
CONTINUOUS
10
37.4921410000
20
3.4445370080
11
38.8678727120
21
1.6242090720
0
LINE
8
0
62
7
6
CONTINUOUS
10
23.6448533355
20
25.4275007305
11
23.6238450021
21
25.4925368416
0
POLYLINE
8
0
62
7
6
CONTINUOUS
66
1
70
0
0
VERTEX
8
0
62
7
6
CONTINUOUS
10
26.8270852799
20
25.4401757305
0
VERTEX
8
0
62
7
6
CONTINUOUS
10
26.8270922972
20
25.4383651105
0
VERTEX
8
0
62
7
6
CONTINUOUS
10
26.8270456406
20
25.4366713203
0
VERTEX
8
0
62
7
6
CONTINUOUS
10
26.8269486019
20
25.4350855060
0
VERTEX
8
0
62
7
6
CONTINUOUS
10
26.8268041181
20
25.4335995999
0
VERTEX
8
0
62
7
6
CONTINUOUS
10
26.8266147886
20
25.4322062232
0
VERTEX
8
0
62
7
6
CONTINUOUS
10
26.8263828853
20
25.4308986082
0
VERTEX
8
0
62
7
6
CONTINUOUS
10
26.8261103580
20
25.4296705337
0
VERTEX
8
0
62
7
6
CONTINUOUS
10
26.8257988348
20
25.4285162739
0
VERTEX
8
0
62
7
6
CONTINUOUS
10
26.8254496203
20
25.4274305575
0
VERTEX
8
0
62
7
6
CONTINUOUS
10
26.8250636894
20
25.4264085360
0
VERTEX
8
0
62
7
6
CONTINUOUS
10
26.8246416811
20
25.4254457597
0
VERTEX
8
0
62
7
6
CONTINUOUS
10
26.8241838898
20
25.4245381615
0
VERTEX
8
0
62
7
6
CONTINUOUS
10
26.8236902573
20
25.4236820446
0
VERTEX
8
0
62
7
6
CONTINUOUS
10
26.8231603644
20
25.4228740775
0
VERTEX
8
0
62
7
6
CONTINUOUS
10
26.8225934244
20
25.4221112903
0
VERTEX
8
0
62
7
6
CONTINUOUS
10
26.8219882768
20
25.4213910750
0
VERTEX
8
0
62
7
6
CONTINUOUS
10
26.8213433834
20
25.4207111872
0
VERTEX
8
0
62
7
6
CONTINUOUS
10
26.8206580352
20
25.4200708119
0
VERTEX
8
0
62
7
6
CONTINUOUS
10
26.8199306078
20
25.4194685983
0
VERTEX
8
0
62
7
6
CONTINUOUS
10
26.8191587092
20
25.4189031282
0
VERTEX
8
0
62
7
6
CONTINUOUS
10
26.8183395757
20
25.4183733537
0
VERTEX
8
0
62
7
6
CONTINUOUS
10
26.8174700732
20
25.4178785928
0
VERTEX
8
0
62
7
6
CONTINUOUS
10
26.8165466965
20
25.4174185226
0
VERTEX
8
0
62
7
6
CONTINUOUS
10
26.8155655651
20
25.4169931718
0
VERTEX
8
0
62
7
6
CONTINUOUS
10
26.8145224148
20
25.4166029117
0
VERTEX
8
0
62
7
6
CONTINUOUS
10
26.8134125843
20
25.4162484481
0
VERTEX
8
0
62
7
6
CONTINUOUS
10
26.8122309946
20
25.4159308125
0
VERTEX
8
0
62
7
6
CONTINUOUS
10
26.8109721222
20
25.4156513553
0
VERTEX
8
0
62
7
6
CONTINUOUS
10
26.8096299621
20
25.4154117412
0
VERTEX
8
0
62
7
6
CONTINUOUS
10
26.8081979816
20
25.4152139469
0
VERTEX
8
0
62
7
6
CONTINUOUS
10
26.8066690625
20
25.4150602630
0
VERTEX
8
0
62
7
6
CONTINUOUS
10
26.8050354291
20
25.4149533002
0
VERTEX
8
0
62
7
6
CONTINUOUS
10
26.8032885594
20
25.4148960014
0
VERTEX
8
0
62
7
6
CONTINUOUS
10
26.8022874372
20
25.4148868462
0
VERTEX
8
0
62
7
6
CONTINUOUS
10
26.8004973764
20
25.4149117645
0
VERTEX
8
0
62
7
6
CONTINUOUS
10
26.7988229771
20
25.4149883786
0
VERTEX
8
0
62
7
6
CONTINUOUS
10
26.7972554657
20
25.4151135746
0
VERTEX
8
0
62
7
6
CONTINUOUS
10
26.7957868326
20
25.4152845852
0
VERTEX
8
0
62
7
6
CONTINUOUS
10
26.7944097419
20
25.4154989749
0
VERTEX
8
0
62
7
6
CONTINUOUS
10
26.7931174588
20
25.4157546327
0
VERTEX
8
0
62
7
6
CONTINUOUS
10
26.7919037891
20
25.4160497683
0
VERTEX
8
0
62
7
6
CONTINUOUS
10
26.7907630314
20
25.4163829128
0
VERTEX
8
0
62
7
6
CONTINUOUS
10
26.7896899378
20
25.4167529226
0
VERTEX
8
0
62
7
6
CONTINUOUS
10
26.7886796849
20
25.4171589854
0
VERTEX
8
0
62
7
6
CONTINUOUS
10
26.7877278503
20
25.4176006277
0
VERTEX
8
0
62
7
6
CONTINUOUS
10
26.7868303970
20
25.4180777240
0
VERTEX
8
0
62
7
6
CONTINUOUS
10
26.7859836627
20
25.4185905055
0
VERTEX
8
0
62
7
6
CONTINUOUS
10
26.7851843533
20
25.4191395685
0
VERTEX
8
0
62
7
6
CONTINUOUS
10
26.7844295400
20
25.4197258828
0
VERTEX
8
0
62
7
6
CONTINUOUS
10
26.7837166586
20
25.4203507975
0
VERTEX
8
0
62
7
6
CONTINUOUS
10
26.7830441268
20
25.4210154009
0
VERTEX
8
0
62
7
6
CONTINUOUS
10
26.7824108761
20
25.4217206666
0
VERTEX
8
0
62
7
6
CONTINUOUS
10
26.7818151675
20
25.4224688140
0
VERTEX
8
0
62
7
6
CONTINUOUS
10
26.7812556322
20
25.4232624459
0
VERTEX
8
0
62
7
6
CONTINUOUS
10
26.7807312678
20
25.4241045511
0
VERTEX
8
0
62
7
6
CONTINUOUS
10
26.7802414312
20
25.4249985074
0
VERTEX
8
0
62
7
6
CONTINUOUS
10
26.7797858323
20
25.4259480894
0
VERTEX
8
0
62
7
6
CONTINUOUS
10
26.7793645248
20
25.4269574797
0
VERTEX
8
0
62
7
6
CONTINUOUS
10
26.7789778981
20
25.4280312870
0
VERTEX
8
0
62
7
6
CONTINUOUS
10
26.7786266687
20
25.4291745717
0
VERTEX
8
0
62
7
6
CONTINUOUS
10
26.7783118729
20
25.4303928797
0
VERTEX
8
0
62
7
6
CONTINUOUS
10
26.7780348619
20
25.4316922881
0
VERTEX
8
0
62
7
6
CONTINUOUS
10
26.7777972993
20
25.4330794631
0
VERTEX
8
0
62
7
6
CONTINUOUS
10
26.7776011630
20
25.4345617339
0
VERTEX
8
0
62
7
6
CONTINUOUS
10
26.7774487518
20
25.4361471853
0
VERTEX
8
0
62
7
6
CONTINUOUS
10
26.7773426988
20
25.4378447743
0
VERTEX
8
0
62
7
6
CONTINUOUS
10
26.7772859926
20
25.4396644758
0
VERTEX
8
0
62
7
6
CONTINUOUS
10
26.7772806024
20
25.4400689392
0
VERTEX
8
0
62
7
6
CONTINUOUS
10
26.7772948523
20
25.4414098239
0
VERTEX
8
0
62
7
6
CONTINUOUS
10
26.7773644900
20
25.4427139609
0
VERTEX
8
0
62
7
6
CONTINUOUS
10
26.7774880699
20
25.4439819892
0
VERTEX
8
0
62
7
6
CONTINUOUS
10
26.7776642617
20
25.4452145169
0
VERTEX
8
0
62
7
6
CONTINUOUS
10
26.7778918528
20
25.4464121122
0
VERTEX
8
0
62
7
6
CONTINUOUS
10
26.7781697477
20
25.4475752931
0
VERTEX
8
0
62
7
6
CONTINUOUS
10
26.7784969664
20
25.4487045165
0
VERTEX
8
0
62
7
6
CONTINUOUS
10
26.7788726410
20
25.4498001670
0
VERTEX
8
0
62
7
6
CONTINUOUS
10
26.7792960097
20
25.4508625453
0
VERTEX
8
0
62
7
6
CONTINUOUS
10
26.7797664078
20
25.4518918565
0
VERTEX
8
0
62
7
6
CONTINUOUS
10
26.7802832575
20
25.4528881982
0
VERTEX
8
0
62
7
6
CONTINUOUS
10
26.7808460527
20
25.4538515499
0
VERTEX
8
0
62
7
6
CONTINUOUS
10
26.7814543427
20
25.4547817619
0
VERTEX
8
0
62
7
6
CONTINUOUS
10
26.7821077116
20
25.4556785469
0
VERTEX
8
0
62
7
6
CONTINUOUS
10
26.7828057548
20
25.4565414719
0
VERTEX
8
0
62
7
6
CONTINUOUS
10
26.7835480529
20
25.4573699528
0
VERTEX
8
0
62
7
6
CONTINUOUS
10
26.7843341424
20
25.4581632513
0
VERTEX
8
0
62
7
6
CONTINUOUS
10
26.7851634837
20
25.4589204745
0
VERTEX
8
0
62
7
6
CONTINUOUS
10
26.7860354276
20
25.4596405782
0
VERTEX
8
0
62
7
6
CONTINUOUS
10
26.7869491800
20
25.4603223736
0
VERTEX
8
0
62
7
6
CONTINUOUS
10
26.7879037656
20
25.4609645384
0
VERTEX
8
0
62
7
6
CONTINUOUS
10
26.7888979926
20
25.4615656324
0
VERTEX
8
0
62
7
6
CONTINUOUS
10
26.7899304190
20
25.4621241174
0
VERTEX
8
0
62
7
6
CONTINUOUS
10
26.7909993205
20
25.4626383827
0
VERTEX
8
0
62
7
6
CONTINUOUS
10
26.7921026649
20
25.4631067741
0
VERTEX
8
0
62
7
6
CONTINUOUS
10
26.7932380912
20
25.4635276287
0
VERTEX
8
0
62
7
6
CONTINUOUS
10
26.7944028970
20
25.4638993117
0
VERTEX
8
0
62
7
6
CONTINUOUS
10
26.7955940359
20
25.4642202577
0
VERTEX
8
0
62
7
6
CONTINUOUS
10
26.7968081252
20
25.4644890117
0
VERTEX
8
0
62
7
6
CONTINUOUS
10
26.7980414658
20
25.4647042711
0
VERTEX
8
0
62
7
6
CONTINUOUS
10
26.7992900743
20
25.4648649255
0
VERTEX
8
0
62
7
6
CONTINUOUS
10
26.8005497270
20
25.4649700920
0
VERTEX
8
0
62
7
6
CONTINUOUS
10
26.8018160150
20
25.4650191451
0
VERTEX
8
0
62
7
6
CONTINUOUS
10
26.8026799280
20
25.4650202420
0
VERTEX
8
0
62
7
6
CONTINUOUS
10
26.8039456051
20
25.4649744236
0
VERTEX
8
0
62
7
6
CONTINUOUS
10
26.8052040931
20
25.4648725278
0
VERTEX
8
0
62
7
6
CONTINUOUS
10
26.8064510039
20
25.4647151978
0
VERTEX
8
0
62
7
6
CONTINUOUS
10
26.8076821427
20
25.4645033320
0
VERTEX
8
0
62
7
6
CONTINUOUS
10
26.8088935618
20
25.4642380534
0
VERTEX
8
0
62
7
6
CONTINUOUS
10
26.8100816032
20
25.4639206740
0
VERTEX
8
0
62
7
6
CONTINUOUS
10
26.8112429295
20
25.4635526545
0
VERTEX
8
0
62
7
6
CONTINUOUS
10
26.8123745420
20
25.4631355625
0
VERTEX
8
0
62
7
6
CONTINUOUS
10
26.8134737877
20
25.4626710310
0
VERTEX
8
0
62
7
6
CONTINUOUS
10
26.8145383546
20
25.4621607177
0
VERTEX
8
0
62
7
6
CONTINUOUS
10
26.8155662582
20
25.4616062677
0
VERTEX
8
0
62
7
6
CONTINUOUS
10
26.8165558203
20
25.4610092798
0
VERTEX
8
0
62
7
6
CONTINUOUS
10
26.8175056413
20
25.4603712767
0
VERTEX
8
0
62
7
6
CONTINUOUS
10
26.8184145686
20
25.4596936810
0
VERTEX
8
0
62
7
6
CONTINUOUS
10
26.8192816620
20
25.4589777946
0
VERTEX
8
0
62
7
6
CONTINUOUS
10
26.8201061576
20
25.4582247840
0
VERTEX
8
0
62
7
6
CONTINUOUS
10
26.8208874318
20
25.4574356693
0
VERTEX
8
0
62
7
6
CONTINUOUS
10
26.8216249659
20
25.4566113178
0
VERTEX
8
0
62
7
6
CONTINUOUS
10
26.8223183120
20
25.4557524412
0
VERTEX
8
0
62
7
6
CONTINUOUS
10
26.8229670618
20
25.4548595961
0
VERTEX
8
0
62
7
6
CONTINUOUS
10
26.8235708169
20
25.4539331875
0
VERTEX
8
0
62
7
6
CONTINUOUS
10
26.8241291629
20
25.4529734746
0
VERTEX
8
0
62
7
6
CONTINUOUS
10
26.8246416464
20
25.4519805787
0
VERTEX
8
0
62
7
6
CONTINUOUS
10
26.8251077547
20
25.4509544926
0
VERTEX
8
0
62
7
6
CONTINUOUS
10
26.8255268991
20
25.4498950910
0
VERTEX
8
0
62
7
6
CONTINUOUS
10
26.8258984012
20
25.4488021421
0
VERTEX
8
0
62
7
6
CONTINUOUS
10
26.8262214821
20
25.4476753194
0
VERTEX
8
0
62
7
6
CONTINUOUS
10
26.8264952540
20
25.4465142132
0
VERTEX
8
0
62
7
6
CONTINUOUS
10
26.8267187151
20
25.4453183427
0
VERTEX
8
0
62
7
6
CONTINUOUS
10
26.8268907458
20
25.4440871674
0
VERTEX
8
0
62
7
6
CONTINUOUS
10
26.8270101076
20
25.4428200975
0
VERTEX
8
0
62
7
6
CONTINUOUS
10
26.8270754436
20
25.4415165046
0
VERTEX
8
0
62
7
6
CONTINUOUS
10
26.8270873961
20
25.4408507705
0
VERTEX
8
0
62
7
6
CONTINUOUS
10
26.8270852799
20
25.4401757305
0
SEQEND
0
LINE
8
0
62
7
6
CONTINUOUS
10
26.8526519466
20
25.2337479527
11
26.8526519466
21
25.1490576750
0
LINE
8
0
62
7
6
CONTINUOUS
10
26.8607491688
20
25.1286729527
11
26.8607491688
21
25.2337479527
0
LINE
8
0
62
7
6
CONTINUOUS
10
26.8807144466
20
25.8394465639
11
26.8807144466
21
25.3432715639
0
LINE
8
0
62
7
6
CONTINUOUS
10
26.8874422244
20
25.8461604527
11
26.8874422244
21
25.3365576750
0
LINE
8
0
62
7
6
CONTINUOUS
10
26.9073658355
20
25.1333521194
11
26.9073658355
21
25.1763618416
0
LINE
8
0
62
2
6
CONTINUOUS
10
27.1786951169
20
14.9097496188
11
27.1786951169
21
13.9167196190
0
LINE
8
0
62
2
6
CONTINUOUS
10
27.2128501169
20
14.9422096188
11
27.2128501169
21
13.8493021190
0
LINE
8
0
6
CONTINUOUS
10
27.5000000000
20
0.0000000000
11
27.5000000000
21
0.5000000000
0
LINE
8
0
62
7
6
CONTINUOUS
10
26.8993908355
20
25.1758729527
11
26.8992422244
21
25.1333521194
0
LINE
8
0
62
2
6
CONTINUOUS
10
40.8161270938
20
2.2847806233
11
40.8352240938
21
2.2602656233
0
LINE
8
0
62
2
6
CONTINUOUS
10
40.8185998411
20
2.2847806233
11
40.8376968411
21
2.2602656233
0
POLYLINE
8
0
62
7
6
CONTINUOUS
66
1
70
0
0
VERTEX
8
0
62
7
6
CONTINUOUS
10
24.3346727799
20
25.7042882305
0
VERTEX
8
0
62
7
6
CONTINUOUS
10
24.3336028082
20
25.7061605021
0
VERTEX
8
0
62
7
6
CONTINUOUS
10
24.3323751512
20
25.7079427910
0
VERTEX
8
0
62
7
6
CONTINUOUS
10
24.3309847210
20
25.7096409695
0
VERTEX
8
0
62
7
6
CONTINUOUS
10
24.3294243326
20
25.7112595353
0
VERTEX
8
0
62
7
6
CONTINUOUS
10
24.3276848328
20
25.7128015621
0
VERTEX
8
0
62
7
6
CONTINUOUS
10
24.3257552410
20
25.7142686875
0
VERTEX
8
0
62
7
6
CONTINUOUS
10
24.3236228864
20
25.7156611366
0
VERTEX
8
0
62
7
6
CONTINUOUS
10
24.3212735306
20
25.7169777770
0
VERTEX
8
0
62
7
6
CONTINUOUS
10
24.3186914584
20
25.7182162001
0
VERTEX
8
0
62
7
6
CONTINUOUS
10
24.3158595233
20
25.7193728225
0
VERTEX
8
0
62
7
6
CONTINUOUS
10
24.3127591270
20
25.7204430023
0
VERTEX
8
0
62
7
6
CONTINUOUS
10
24.3093700993
20
25.7214211685
0
VERTEX
8
0
62
7
6
CONTINUOUS
10
24.3056704245
20
25.7223009608
0
VERTEX
8
0
62
7
6
CONTINUOUS
10
24.3016357098
20
25.7230753829
0
VERTEX
8
0
62
7
6
CONTINUOUS
10
24.2972381896
20
25.7237369746
0
VERTEX
8
0
62
7
6
CONTINUOUS
10
24.2924448365
20
25.7242780102
0
VERTEX
8
0
62
7
6
CONTINUOUS
10
24.2872135915
20
25.7246907388
0
VERTEX
8
0
62
7
6
CONTINUOUS
10
24.2814851966
20
25.7249676893
0
VERTEX
8
0
62
7
6
CONTINUOUS
10
24.2751630853
20
25.7251020754
0
VERTEX
8
0
62
7
6
CONTINUOUS
10
24.2723630577
20
25.7251146194
0
VERTEX
8
0
62
7
6
CONTINUOUS
10
24.2071366688
20
25.7251146194
0
SEQEND
0
LINE
8
0
62
7
6
CONTINUOUS
10
26.6377269466
20
25.1333521194
11
26.6157130577
21
25.2392271194
0
LINE
8
0
62
7
6
CONTINUOUS
10
26.6133533355
20
25.2130507305
11
26.6298325021
21
25.1333521194
0
LINE
8
0
62
7
6
CONTINUOUS
10
26.7627936133
20
25.4509173972
11
26.7664158355
21
25.4275007305
0
POLYLINE
8
0
62
7
6
CONTINUOUS
66
1
70
0
0
VERTEX
8
0
62
7
6
CONTINUOUS
10
26.7930547244
20
25.4536035083
0
VERTEX
8
0
62
7
6
CONTINUOUS
10
26.7945229685
20
25.4538148844
0
VERTEX
8
0
62
7
6
CONTINUOUS
10
26.7955243377
20
25.4539451295
0
VERTEX
8
0
62
7
6
CONTINUOUS
10
26.7964383022
20
25.4540477559
0
VERTEX
8
0
62
7
6
CONTINUOUS
10
26.7973203962
20
25.4541292104
0
VERTEX
8
0
62
7
6
CONTINUOUS
10
26.7982003208
20
25.4541920906
0
VERTEX
8
0
62
7
6
CONTINUOUS
10
26.7990976650
20
25.4542373266
0
VERTEX
8
0
62
7
6
CONTINUOUS
10
26.8000273426
20
25.4542649352
0
VERTEX
8
0
62
7
6
CONTINUOUS
10
26.8010019466
20
25.4542743416
0
VERTEX
8
0
62
7
6
CONTINUOUS
10
26.8016701791
20
25.4542668682
0
VERTEX
8
0
62
7
6
CONTINUOUS
10
26.8023948467
20
25.4542408983
0
VERTEX
8
0
62
7
6
CONTINUOUS
10
26.8030870488
20
25.4541971371
0
VERTEX
8
0
62
7
6
CONTINUOUS
10
26.8037474418
20
25.4541364100
0
VERTEX
8
0
62
7
6
CONTINUOUS
10
26.8043766843
20
25.4540595313
0
VERTEX
8
0
62
7
6
CONTINUOUS
10
26.8049754367
20
25.4539673029
0
VERTEX
8
0
62
7
6
CONTINUOUS
10
26.8055443605
20
25.4538605128
0
VERTEX
8
0
62
7
6
CONTINUOUS
10
26.8060841170
20
25.4537399336
0
VERTEX
8
0
62
7
6
CONTINUOUS
10
26.8065953668
20
25.4536063211
0
VERTEX
8
0
62
7
6
CONTINUOUS
10
26.8070787680
20
25.4534604127
0
VERTEX
8
0
62
7
6
CONTINUOUS
10
26.8075349746
20
25.4533029257
0
VERTEX
8
0
62
7
6
CONTINUOUS
10
26.8079646348
20
25.4531345558
0
VERTEX
8
0
62
7
6
CONTINUOUS
10
26.8083683882
20
25.4529559755
0
VERTEX
8
0
62
7
6
CONTINUOUS
10
26.8087468632
20
25.4527678327
0
VERTEX
8
0
62
7
6
CONTINUOUS
10
26.8091006743
20
25.4525707496
0
VERTEX
8
0
62
7
6
CONTINUOUS
10
26.8094304179
20
25.4523653222
0
VERTEX
8
0
62
7
6
CONTINUOUS
10
26.8095864522
20
25.4522596532
0
VERTEX
8
0
62
7
6
CONTINUOUS
10
26.8097366688
20
25.4521521194
0
VERTEX
8
0
62
7
6
CONTINUOUS
10
26.8100113063
20
25.4519381058
0
VERTEX
8
0
62
7
6
CONTINUOUS
10
26.8102693800
20
25.4517127843
0
VERTEX
8
0
62
7
6
CONTINUOUS
10
26.8105114425
20
25.4514759890
0
VERTEX
8
0
62
7
6
CONTINUOUS
10
26.8107379625
20
25.4512274701
0
VERTEX
8
0
62
7
6
CONTINUOUS
10
26.8109493205
20
25.4509668963
0
VERTEX
8
0
62
7
6
CONTINUOUS
10
26.8111458036
20
25.4506938580
0
VERTEX
8
0
62
7
6
CONTINUOUS
10
26.8112385451
20
25.4505524933
0
VERTEX
8
0
62
7
6
CONTINUOUS
10
26.8113275947
20
25.4504078847
0
VERTEX
8
0
62
7
6
CONTINUOUS
10
26.8114945497
20
25.4501088806
0
VERTEX
8
0
62
7
6
CONTINUOUS
10
26.8116467377
20
25.4497962706
0
VERTEX
8
0
62
7
6
CONTINUOUS
10
26.8117841263
20
25.4494694172
0
VERTEX
8
0
62
7
6
CONTINUOUS
10
26.8119065820
20
25.4491276254
0
VERTEX
8
0
62
7
6
CONTINUOUS
10
26.8120138716
20
25.4487701484
0
VERTEX
8
0
62
7
6
CONTINUOUS
10
26.8121056643
20
25.4483961929
0
VERTEX
8
0
62
7
6
CONTINUOUS
10
26.8121815342
20
25.4480049241
0
VERTEX
8
0
62
7
6
CONTINUOUS
10
26.8122409643
20
25.4475954706
0
VERTEX
8
0
62
7
6
CONTINUOUS
10
26.8122833495
20
25.4471669280
0
VERTEX
8
0
62
7
6
CONTINUOUS
10
26.8123080012
20
25.4467183633
0
VERTEX
8
0
62
7
6
CONTINUOUS
10
26.8123144466
20
25.4463326750
0
VERTEX
8
0
62
7
6
CONTINUOUS
10
26.8123048288
20
25.4459369988
0
VERTEX
8
0
62
7
6
CONTINUOUS
10
26.8122763294
20
25.4455526137
0
VERTEX
8
0
62
7
6
CONTINUOUS
10
26.8122294301
20
25.4451791708
0
VERTEX
8
0
62
7
6
CONTINUOUS
10
26.8121645452
20
25.4448163379
0
VERTEX
8
0
62
7
6
CONTINUOUS
10
26.8120820212
20
25.4444638051
0
VERTEX
8
0
62
7
6
CONTINUOUS
10
26.8119821370
20
25.4441212896
0
VERTEX
8
0
62
7
6
CONTINUOUS
10
26.8118651053
20
25.4437885418
0
VERTEX
8
0
62
7
6
CONTINUOUS
10
26.8117310752
20
25.4434653510
0
VERTEX
8
0
62
7
6
CONTINUOUS
10
26.8115801366
20
25.4431515515
0
VERTEX
8
0
62
7
6
CONTINUOUS
10
26.8114123250
20
25.4428470282
0
VERTEX
8
0
62
7
6
CONTINUOUS
10
26.8112276296
20
25.4425517225
0
VERTEX
8
0
62
7
6
CONTINUOUS
10
26.8110260015
20
25.4422656372
0
VERTEX
8
0
62
7
6
CONTINUOUS
10
26.8108073646
20
25.4419888410
0
VERTEX
8
0
62
7
6
CONTINUOUS
10
26.8105716279
20
25.4417214730
0
VERTEX
8
0
62
7
6
CONTINUOUS
10
26.8103186994
20
25.4414637446
0
VERTEX
8
0
62
7
6
CONTINUOUS
10
26.8100485021
20
25.4412159425
0
VERTEX
8
0
62
7
6
CONTINUOUS
10
26.8097609915
20
25.4409784284
0
VERTEX
8
0
62
7
6
CONTINUOUS
10
26.8094561742
20
25.4407516387
0
VERTEX
8
0
62
7
6
CONTINUOUS
10
26.8091341285
20
25.4405360818
0
VERTEX
8
0
62
7
6
CONTINUOUS
10
26.8087950257
20
25.4403323337
0
VERTEX
8
0
62
7
6
CONTINUOUS
10
26.8084391520
20
25.4401410318
0
VERTEX
8
0
62
7
6
CONTINUOUS
10
26.8080669305
20
25.4399628658
0
VERTEX
8
0
62
7
6
CONTINUOUS
10
26.8076789425
20
25.4397985667
0
VERTEX
8
0
62
7
6
CONTINUOUS
10
26.8072759469
20
25.4396488927
0
VERTEX
8
0
62
7
6
CONTINUOUS
10
26.8068588975
20
25.4395146126
0
VERTEX
8
0
62
7
6
CONTINUOUS
10
26.8068213910
20
25.4395035083
0
SEQEND
0
POLYLINE
8
0
62
7
6
CONTINUOUS
66
1
70
0
0
VERTEX
8
0
62
7
6
CONTINUOUS
10
26.7664158355
20
25.4275007305
0
VERTEX
8
0
62
7
6
CONTINUOUS
10
26.7529014757
20
25.4256848887
0
VERTEX
8
0
62
7
6
CONTINUOUS
10
26.7190165740
20
25.4212524900
0
VERTEX
8
0
62
7
6
CONTINUOUS
10
26.6925054338
20
25.4180983854
0
VERTEX
8
0
62
7
6
CONTINUOUS
10
26.6695058750
20
25.4157400768
0
VERTEX
8
0
62
7
6
CONTINUOUS
10
26.6486377329
20
25.4140062078
0
VERTEX
8
0
62
7
6
CONTINUOUS
10
26.6292169545
20
25.4128140737
0
VERTEX
8
0
62
7
6
CONTINUOUS
10
26.6108422287
20
25.4121176577
0
VERTEX
8
0
62
7
6
CONTINUOUS
10
26.5932519466
20
25.4118896194
0
VERTEX
8
0
62
7
6
CONTINUOUS
10
26.5845021826
20
25.4119441944
0
VERTEX
8
0
62
7
6
CONTINUOUS
10
26.5668220381
20
25.4123982495
0
VERTEX
8
0
62
7
6
CONTINUOUS
10
26.5497254161
20
25.4132993698
0
VERTEX
8
0
62
7
6
CONTINUOUS
10
26.5332190210
20
25.4146315147
0
VERTEX
8
0
62
7
6
CONTINUOUS
10
26.5173083168
20
25.4163781800
0
VERTEX
8
0
62
7
6
CONTINUOUS
10
26.5019974586
20
25.4185224739
0
VERTEX
8
0
62
7
6
CONTINUOUS
10
26.4872892366
20
25.4210472049
0
VERTEX
8
0
62
7
6
CONTINUOUS
10
26.4731850364
20
25.4239349802
0
VERTEX
8
0
62
7
6
CONTINUOUS
10
26.4596848165
20
25.4271683132
0
VERTEX
8
0
62
7
6
CONTINUOUS
10
26.4467871052
20
25.4307297399
0
VERTEX
8
0
62
7
6
CONTINUOUS
10
26.4344890190
20
25.4346019420
0
VERTEX
8
0
62
7
6
CONTINUOUS
10
26.4227863019
20
25.4387678756
0
VERTEX
8
0
62
7
6
CONTINUOUS
10
26.4116733891
20
25.4432109025
0
VERTEX
8
0
62
7
6
CONTINUOUS
10
26.4011434916
20
25.4479149235
0
VERTEX
8
0
62
7
6
CONTINUOUS
10
26.3911887055
20
25.4528645100
0
VERTEX
8
0
62
7
6
CONTINUOUS
10
26.3818001422
20
25.4580450318
0
VERTEX
8
0
62
7
6
CONTINUOUS
10
26.3729680799
20
25.4634427795
0
VERTEX
8
0
62
7
6
CONTINUOUS
10
26.3646821350
20
25.4690450774
0
VERTEX
8
0
62
7
6
CONTINUOUS
10
26.3569314497
20
25.4748403855
0
VERTEX
8
0
62
7
6
CONTINUOUS
10
26.3497048964
20
25.4808183871
0
VERTEX
8
0
62
7
6
CONTINUOUS
10
26.3429912921
20
25.4869700600
0
VERTEX
8
0
62
7
6
CONTINUOUS
10
26.3367796229
20
25.4932877288
0
VERTEX
8
0
62
7
6
CONTINUOUS
10
26.3310592727
20
25.4997650958
0
VERTEX
8
0
62
7
6
CONTINUOUS
10
26.3258202522
20
25.5063972486
0
VERTEX
8
0
62
7
6
CONTINUOUS
10
26.3210534248
20
25.5131806440
0
VERTEX
8
0
62
7
6
CONTINUOUS
10
26.3167507222
20
25.5201130653
0
VERTEX
8
0
62
7
6
CONTINUOUS
10
26.3129053467
20
25.5271935558
0
VERTEX
8
0
62
7
6
CONTINUOUS
10
26.3095119545
20
25.5344223270
0
VERTEX
8
0
62
7
6
CONTINUOUS
10
26.3065668145
20
25.5418006435
0
VERTEX
8
0
62
7
6
CONTINUOUS
10
26.3040679394
20
25.5493306896
0
VERTEX
8
0
62
7
6
CONTINUOUS
10
26.3020151857
20
25.5570154177
0
VERTEX
8
0
62
7
6
CONTINUOUS
10
26.3004112334
20
25.5648531357
0
VERTEX
8
0
62
7
6
CONTINUOUS
10
26.2992592276
20
25.5728445312
0
VERTEX
8
0
62
7
6
CONTINUOUS
10
26.2985633545
20
25.5809936864
0
VERTEX
8
0
62
7
6
CONTINUOUS
10
26.2983297244
20
25.5893048972
0
VERTEX
8
0
62
7
6
CONTINUOUS
10
26.2985637830
20
25.5976664046
0
VERTEX
8
0
62
7
6
CONTINUOUS
10
26.2992608937
20
25.6058613376
0
VERTEX
8
0
62
7
6
CONTINUOUS
10
26.3004141478
20
25.6138911865
0
VERTEX
8
0
62
7
6
CONTINUOUS
10
26.3020178571
20
25.6217585216
0
VERTEX
8
0
62
7
6
CONTINUOUS
10
26.3040687091
20
25.6294694836
0
VERTEX
8
0
62
7
6
CONTINUOUS
10
26.3065655120
20
25.6370295529
0
VERTEX
8
0
62
7
6
CONTINUOUS
10
26.3095091328
20
25.6444433844
0
VERTEX
8
0
62
7
6
CONTINUOUS
10
26.3129023987
20
25.6517146474
0
VERTEX
8
0
62
7
6
CONTINUOUS
10
26.3167499616
20
25.6588458779
0
VERTEX
8
0
62
7
6
CONTINUOUS
10
26.3210581294
20
25.6658383451
0
VERTEX
8
0
62
7
6
CONTINUOUS
10
26.3258346641
20
25.6726919382
0
VERTEX
8
0
62
7
6
CONTINUOUS
10
26.3310885528
20
25.6794050737
0
VERTEX
8
0
62
7
6
CONTINUOUS
10
26.3368297545
20
25.6859746271
0
VERTEX
8
0
62
7
6
CONTINUOUS
10
26.3430689262
20
25.6923958894
0
VERTEX
8
0
62
7
6
CONTINUOUS
10
26.3498171344
20
25.6986625492
0
VERTEX
8
0
62
7
6
CONTINUOUS
10
26.3570855559
20
25.7047667004
0
VERTEX
8
0
62
7
6
CONTINUOUS
10
26.3648851719
20
25.7106988749
0
VERTEX
8
0
62
7
6
CONTINUOUS
10
26.3732264605
20
25.7164480999
0
VERTEX
8
0
62
7
6
CONTINUOUS
10
26.3821190927
20
25.7220019789
0
VERTEX
8
0
62
7
6
CONTINUOUS
10
26.3915716362
20
25.7273467940
0
VERTEX
8
0
62
7
6
CONTINUOUS
10
26.4015912708
20
25.7324676304
0
VERTEX
8
0
62
7
6
CONTINUOUS
10
26.4121835233
20
25.7373485185
0
VERTEX
8
0
62
7
6
CONTINUOUS
10
26.4233520230
20
25.7419725945
0
VERTEX
8
0
62
7
6
CONTINUOUS
10
26.4350982873
20
25.7463222747
0
VERTEX
8
0
62
7
6
CONTINUOUS
10
26.4474215377
20
25.7503794431
0
VERTEX
8
0
62
7
6
CONTINUOUS
10
26.4603185549
20
25.7541256468
0
VERTEX
8
0
62
7
6
CONTINUOUS
10
26.4737835737
20
25.7575422978
0
VERTEX
8
0
62
7
6
CONTINUOUS
10
26.4878082223
20
25.7606108763
0
VERTEX
8
0
62
7
6
CONTINUOUS
10
26.5023815076
20
25.7633131312
0
VERTEX
8
0
62
7
6
CONTINUOUS
10
26.5174898471
20
25.7656312747
0
VERTEX
8
0
62
7
6
CONTINUOUS
10
26.5331171463
20
25.7675481658
0
VERTEX
8
0
62
7
6
CONTINUOUS
10
26.5492449199
20
25.7690474787
0
VERTEX
8
0
62
7
6
CONTINUOUS
10
26.5658524534
20
25.7701138548
0
VERTEX
8
0
62
7
6
CONTINUOUS
10
26.5829169988
20
25.7707330314
0
VERTEX
8
0
62
7
6
CONTINUOUS
10
26.5975922244
20
25.7708979527
0
VERTEX
8
0
62
7
6
CONTINUOUS
10
26.6158124003
20
25.7706641011
0
VERTEX
8
0
62
7
6
CONTINUOUS
10
26.6341454006
20
25.7699605934
0
VERTEX
8
0
62
7
6
CONTINUOUS
10
26.6526404831
20
25.7687824080
0
VERTEX
8
0
62
7
6
CONTINUOUS
10
26.6713514240
20
25.7671214939
0
VERTEX
8
0
62
7
6
CONTINUOUS
10
26.6903376817
20
25.7649663905
0
VERTEX
8
0
62
7
6
CONTINUOUS
10
26.7096658998
20
25.7623017190
0
VERTEX
8
0
62
7
6
CONTINUOUS
10
26.7113477799
20
25.7620479527
0
SEQEND
0
POLYLINE
8
0
62
7
6
CONTINUOUS
66
1
70
0
0
VERTEX
8
0
62
7
6
CONTINUOUS
10
24.6324838910
20
25.5726757305
0
VERTEX
8
0
62
7
6
CONTINUOUS
10
24.6312184852
20
25.5741807709
0
VERTEX
8
0
62
7
6
CONTINUOUS
10
24.6297923515
20
25.5756088935
0
VERTEX
8
0
62
7
6
CONTINUOUS
10
24.6281955663
20
25.5769635429
0
VERTEX
8
0
62
7
6
CONTINUOUS
10
24.6264160680
20
25.5782466479
0
VERTEX
8
0
62
7
6
CONTINUOUS
10
24.6244397375
20
25.5794586707
0
VERTEX
8
0
62
7
6
CONTINUOUS
10
24.6222504258
20
25.5805986940
0
VERTEX
8
0
62
7
6
CONTINUOUS
10
24.6198298965
20
25.5816645390
0
VERTEX
8
0
62
7
6
CONTINUOUS
10
24.6171576398
20
25.5826529080
0
VERTEX
8
0
62
7
6
CONTINUOUS
10
24.6142104896
20
25.5835595458
0
VERTEX
8
0
62
7
6
CONTINUOUS
10
24.6109619257
20
25.5843794191
0
VERTEX
8
0
62
7
6
CONTINUOUS
10
24.6073808414
20
25.5851069177
0
VERTEX
8
0
62
7
6
CONTINUOUS
10
24.6034293353
20
25.5857360871
0
VERTEX
8
0
62
7
6
CONTINUOUS
10
24.5990585621
20
25.5862609186
0
VERTEX
8
0
62
7
6
CONTINUOUS
10
24.5942003156
20
25.5866757485
0
VERTEX
8
0
62
7
6
CONTINUOUS
10
24.5887478254
20
25.5869759068
0
VERTEX
8
0
62
7
6
CONTINUOUS
10
24.5825031967
20
25.5871590643
0
VERTEX
8
0
62
7
6
CONTINUOUS
10
24.5749799461
20
25.5872295553
0
VERTEX
8
0
62
7
6
CONTINUOUS
10
24.5143741688
20
25.5872298972
0
SEQEND
0
LINE
8
0
62
2
6
CONTINUOUS
10
39.9358370938
20
2.1924916233
11
39.9215940938
21
2.2154966233
0
POLYLINE
8
0
62
7
6
CONTINUOUS
66
1
70
0
0
VERTEX
8
0
62
7
6
CONTINUOUS
10
25.6146213910
20
25.2385215639
0
VERTEX
8
0
62
7
6
CONTINUOUS
10
25.6571088910
20
25.1333521194
0
VERTEX
8
0
62
7
6
CONTINUOUS
10
25.6488616688
20
25.1333521194
0
VERTEX
8
0
62
7
6
CONTINUOUS
10
25.6361533355
20
25.1657007305
0
SEQEND
0
POLYLINE
8
0
62
7
6
CONTINUOUS
66
1
70
0
0
VERTEX
8
0
62
7
6
CONTINUOUS
10
26.7220088910
20
25.2385215639
0
VERTEX
8
0
62
7
6
CONTINUOUS
10
26.7645033355
20
25.1333521194
0
VERTEX
8
0
62
7
6
CONTINUOUS
10
26.7565547244
20
25.1333521194
0
VERTEX
8
0
62
7
6
CONTINUOUS
10
26.7435213910
20
25.1657007305
0
SEQEND
0
LINE
8
0
62
7
6
CONTINUOUS
10
26.5449533355
20
25.2130507305
11
26.5790922244
21
25.1285229527
0
LINE
8
0
62
7
6
CONTINUOUS
10
26.5790922244
20
25.1488687861
11
26.5426200021
21
25.2392271194
0
LINE
8
0
62
7
6
CONTINUOUS
10
25.6323963910
20
25.1734451750
11
25.6146213910
21
25.2176340639
0
LINE
8
0
62
7
6
CONTINUOUS
10
26.7397769466
20
25.1734451750
11
26.7220088910
21
25.2176882305
0
LINE
8
0
62
7
6
CONTINUOUS
10
26.8086116688
20
25.4255062861
11
26.8067130577
21
25.4326687861
0
POLYLINE
8
0
62
7
6
CONTINUOUS
66
1
70
0
0
VERTEX
8
0
62
7
6
CONTINUOUS
10
24.8911575021
20
25.5981618416
0
VERTEX
8
0
62
7
6
CONTINUOUS
10
24.8993738628
20
25.5991051000
0
VERTEX
8
0
62
7
6
CONTINUOUS
10
24.9072399724
20
25.6001391351
0
VERTEX
8
0
62
7
6
CONTINUOUS
10
24.9144832184
20
25.6012310028
0
VERTEX
8
0
62
7
6
CONTINUOUS
10
24.9212533789
20
25.6023949008
0
VERTEX
8
0
62
7
6
CONTINUOUS
10
24.9276493335
20
25.6036406536
0
VERTEX
8
0
62
7
6
CONTINUOUS
10
24.9337408429
20
25.6049757074
0
VERTEX
8
0
62
7
6
CONTINUOUS
10
24.9395796081
20
25.6064061494
0
VERTEX
8
0
62
7
6
CONTINUOUS
10
24.9452054346
20
25.6079372824
0
VERTEX
8
0
62
7
6
CONTINUOUS
10
24.9506499188
20
25.6095739738
0
VERTEX
8
0
62
7
6
CONTINUOUS
10
24.9559387761
20
25.6113208820
0
VERTEX
8
0
62
7
6
CONTINUOUS
10
24.9610933771
20
25.6131826088
0
VERTEX
8
0
62
7
6
CONTINUOUS
10
24.9661317991
20
25.6151638086
0
VERTEX
8
0
62
7
6
CONTINUOUS
10
24.9710695672
20
25.6172692678
0
VERTEX
8
0
62
7
6
CONTINUOUS
10
24.9714879789
20
25.6174556051
0
VERTEX
8
0
62
7
6
CONTINUOUS
10
24.9755689194
20
25.6193612615
0
VERTEX
8
0
62
7
6
CONTINUOUS
10
24.9794420662
20
25.6213308639
0
VERTEX
8
0
62
7
6
CONTINUOUS
10
24.9831014733
20
25.6233556092
0
VERTEX
8
0
62
7
6
CONTINUOUS
10
24.9865451422
20
25.6254281334
0
VERTEX
8
0
62
7
6
CONTINUOUS
10
24.9897738998
20
25.6275422984
0
VERTEX
8
0
62
7
6
CONTINUOUS
10
24.9927905808
20
25.6296930324
0
VERTEX
8
0
62
7
6
CONTINUOUS
10
24.9955994223
20
25.6318762092
0
VERTEX
8
0
62
7
6
CONTINUOUS
10
24.9982056040
20
25.6340885565
0
VERTEX
8
0
62
7
6
CONTINUOUS
10
25.0006148930
20
25.6363275848
0
VERTEX
8
0
62
7
6
CONTINUOUS
10
25.0028333626
20
25.6385915318
0
VERTEX
8
0
62
7
6
CONTINUOUS
10
25.0048671655
20
25.6408793167
0
VERTEX
8
0
62
7
6
CONTINUOUS
10
25.0067223467
20
25.6431905025
0
VERTEX
8
0
62
7
6
CONTINUOUS
10
25.0084046866
20
25.6455252615
0
VERTEX
8
0
62
7
6
CONTINUOUS
10
25.0099195672
20
25.6478843429
0
VERTEX
8
0
62
7
6
CONTINUOUS
10
25.0112718569
20
25.6502690405
0
VERTEX
8
0
62
7
6
CONTINUOUS
10
25.0124658111
20
25.6526811586
0
VERTEX
8
0
62
7
6
CONTINUOUS
10
25.0135049866
20
25.6551229747
0
VERTEX
8
0
62
7
6
CONTINUOUS
10
25.0143921695
20
25.6575972000
0
VERTEX
8
0
62
7
6
CONTINUOUS
10
25.0151293157
20
25.6601069363
0
VERTEX
8
0
62
7
6
CONTINUOUS
10
25.0157175036
20
25.6626556294
0
VERTEX
8
0
62
7
6
CONTINUOUS
10
25.0161569002
20
25.6652470218
0
VERTEX
8
0
62
7
6
CONTINUOUS
10
25.0164467392
20
25.6678851026
0
VERTEX
8
0
62
7
6
CONTINUOUS
10
25.0165853115
20
25.6705740593
0
VERTEX
8
0
62
7
6
CONTINUOUS
10
25.0165699664
20
25.6733182301
0
VERTEX
8
0
62
7
6
CONTINUOUS
10
25.0163971234
20
25.6761220593
0
VERTEX
8
0
62
7
6
CONTINUOUS
10
25.0160622931
20
25.6789900565
0
VERTEX
8
0
62
7
6
CONTINUOUS
10
25.0156086618
20
25.6816017847
0
VERTEX
8
0
62
7
6
CONTINUOUS
10
25.0150098454
20
25.6841513010
0
VERTEX
8
0
62
7
6
CONTINUOUS
10
25.0142668133
20
25.6866423432
0
VERTEX
8
0
62
7
6
CONTINUOUS
10
25.0133796720
20
25.6890783183
0
VERTEX
8
0
62
7
6
CONTINUOUS
10
25.0123476951
20
25.6914622469
0
VERTEX
8
0
62
7
6
CONTINUOUS
10
25.0111693677
20
25.6937967091
0
VERTEX
8
0
62
7
6
CONTINUOUS
10
25.0098424467
20
25.6960837918
0
VERTEX
8
0
62
7
6
CONTINUOUS
10
25.0083640380
20
25.6983250384
0
VERTEX
8
0
62
7
6
CONTINUOUS
10
25.0067306906
20
25.7005214016
0
VERTEX
8
0
62
7
6
CONTINUOUS
10
25.0049385104
20
25.7026731990
0
VERTEX
8
0
62
7
6
CONTINUOUS
10
25.0029832946
20
25.7047800717
0
VERTEX
8
0
62
7
6
CONTINUOUS
10
25.0008606915
20
25.7068409445
0
VERTEX
8
0
62
7
6
CONTINUOUS
10
24.9985663891
20
25.7088539876
0
VERTEX
8
0
62
7
6
CONTINUOUS
10
24.9960963406
20
25.7108165771
0
VERTEX
8
0
62
7
6
CONTINUOUS
10
24.9934470353
20
25.7127252558
0
VERTEX
8
0
62
7
6
CONTINUOUS
10
24.9906158281
20
25.7145756900
0
VERTEX
8
0
62
7
6
CONTINUOUS
10
24.9876013435
20
25.7163626252
0
VERTEX
8
0
62
7
6
CONTINUOUS
10
24.9844039759
20
25.7180798388
0
VERTEX
8
0
62
7
6
CONTINUOUS
10
24.9810265109
20
25.7197200932
0
VERTEX
8
0
62
7
6
CONTINUOUS
10
24.9774749008
20
25.7212750949
0
VERTEX
8
0
62
7
6
CONTINUOUS
10
24.9737592283
20
25.7227354680
0
VERTEX
8
0
62
7
6
CONTINUOUS
10
24.9698948923
20
25.7240907609
0
VERTEX
8
0
62
7
6
CONTINUOUS
10
24.9659040386
20
25.7253295143
0
VERTEX
8
0
62
7
6
CONTINUOUS
10
24.9618172199
20
25.7264394380
0
VERTEX
8
0
62
7
6
CONTINUOUS
10
24.9576751914
20
25.7274077661
0
VERTEX
8
0
62
7
6
CONTINUOUS
10
24.9559266382
20
25.7277701078
0
VERTEX
8
0
62
7
6
CONTINUOUS
10
24.9513368520
20
25.7286070813
0
VERTEX
8
0
62
7
6
CONTINUOUS
10
24.9466730366
20
25.7293017484
0
VERTEX
8
0
62
7
6
CONTINUOUS
10
24.9419172381
20
25.7298552821
0
VERTEX
8
0
62
7
6
CONTINUOUS
10
24.9370480736
20
25.7302680077
0
VERTEX
8
0
62
7
6
CONTINUOUS
10
24.9320394627
20
25.7305392641
0
VERTEX
8
0
62
7
6
CONTINUOUS
10
24.9268586841
20
25.7306671834
0
VERTEX
8
0
62
7
6
CONTINUOUS
10
24.9214632620
20
25.7306483272
0
VERTEX
8
0
62
7
6
CONTINUOUS
10
24.9157956806
20
25.7304770564
0
VERTEX
8
0
62
7
6
CONTINUOUS
10
24.9097737202
20
25.7301443603
0
VERTEX
8
0
62
7
6
CONTINUOUS
10
24.9032709386
20
25.7296354708
0
VERTEX
8
0
62
7
6
CONTINUOUS
10
24.8960712438
20
25.7289242827
0
VERTEX
8
0
62
7
6
CONTINUOUS
10
24.8877371287
20
25.7279571817
0
VERTEX
8
0
62
7
6
CONTINUOUS
10
24.8770360788
20
25.7265832829
0
VERTEX
8
0
62
7
6
CONTINUOUS
10
24.8737700021
20
25.7261521194
0
SEQEND
0
LINE
8
0
62
7
6
CONTINUOUS
10
24.3245352799
20
25.7625771194
11
24.3578602799
21
25.7662187861
0
LINE
8
0
62
7
6
CONTINUOUS
10
24.6005963910
20
25.6247048972
11
24.6324838910
21
25.6278173972
0
LINE
8
0
62
7
6
CONTINUOUS
10
24.6397338910
20
25.7625771194
11
24.6737852799
21
25.7651673972
0
LINE
8
0
62
7
6
CONTINUOUS
10
24.5882811133
20
25.7251146194
11
24.5143741688
21
25.7214798972
0
POLYLINE
8
0
62
7
6
CONTINUOUS
66
1
70
0
0
VERTEX
8
0
62
7
6
CONTINUOUS
10
26.6655574392
20
25.1878243599
0
VERTEX
8
0
62
7
6
CONTINUOUS
10
26.6680804771
20
25.1878907937
0
VERTEX
8
0
62
7
6
CONTINUOUS
10
26.6702054616
20
25.1880529833
0
VERTEX
8
0
62
7
6
CONTINUOUS
10
26.6720677874
20
25.1883082726
0
VERTEX
8
0
62
7
6
CONTINUOUS
10
26.6737427449
20
25.1886563404
0
VERTEX
8
0
62
7
6
CONTINUOUS
10
26.6752783798
20
25.1890990109
0
VERTEX
8
0
62
7
6
CONTINUOUS
10
26.6767082415
20
25.1896403515
0
VERTEX
8
0
62
7
6
CONTINUOUS
10
26.6780572478
20
25.1902868608
0
VERTEX
8
0
62
7
6
CONTINUOUS
10
26.6793447045
20
25.1910476783
0
VERTEX
8
0
62
7
6
CONTINUOUS
10
26.6805859967
20
25.1919347904
0
VERTEX
8
0
62
7
6
CONTINUOUS
10
26.6811936713
20
25.1924305733
0
VERTEX
8
0
62
7
6
CONTINUOUS
10
26.6817936133
20
25.1929632305
0
VERTEX
8
0
62
7
6
CONTINUOUS
10
26.6828882704
20
25.1940535610
0
VERTEX
8
0
62
7
6
CONTINUOUS
10
26.6839288248
20
25.1952665269
0
VERTEX
8
0
62
7
6
CONTINUOUS
10
26.6848442018
20
25.1965328811
0
VERTEX
8
0
62
7
6
CONTINUOUS
10
26.6856377161
20
25.1978536726
0
VERTEX
8
0
62
7
6
CONTINUOUS
10
26.6863115295
20
25.1992307427
0
VERTEX
8
0
62
7
6
CONTINUOUS
10
26.6868661467
20
25.2006654410
0
VERTEX
8
0
62
7
6
CONTINUOUS
10
26.6873007284
20
25.2021578383
0
VERTEX
8
0
62
7
6
CONTINUOUS
10
26.6876145146
20
25.2037111094
0
VERTEX
8
0
62
7
6
CONTINUOUS
10
26.6878054067
20
25.2053287880
0
VERTEX
8
0
62
7
6
CONTINUOUS
10
26.6878700021
20
25.2070146194
0
VERTEX
8
0
62
7
6
CONTINUOUS
10
26.6878047138
20
25.2086832138
0
VERTEX
8
0
62
7
6
CONTINUOUS
10
26.6876099989
20
25.2103253553
0
VERTEX
8
0
62
7
6
CONTINUOUS
10
26.6872880546
20
25.2119320921
0
VERTEX
8
0
62
7
6
CONTINUOUS
10
26.6868418745
20
25.2134937135
0
VERTEX
8
0
62
7
6
CONTINUOUS
10
26.6862754315
20
25.2149999262
0
VERTEX
8
0
62
7
6
CONTINUOUS
10
26.6855938063
20
25.2164401130
0
VERTEX
8
0
62
7
6
CONTINUOUS
10
26.6848205468
20
25.2177764523
0
VERTEX
8
0
62
7
6
CONTINUOUS
10
26.6839330808
20
25.2190514468
0
VERTEX
8
0
62
7
6
CONTINUOUS
10
26.6829548775
20
25.2202283234
0
VERTEX
8
0
62
7
6
CONTINUOUS
10
26.6818951220
20
25.2212995788
0
VERTEX
8
0
62
7
6
CONTINUOUS
10
26.6807630577
20
25.2222590639
0
VERTEX
8
0
62
7
6
CONTINUOUS
10
26.6796609374
20
25.2230309764
0
VERTEX
8
0
62
7
6
CONTINUOUS
10
26.6784641384
20
25.2237121331
0
VERTEX
8
0
62
7
6
CONTINUOUS
10
26.6771626043
20
25.2243050969
0
VERTEX
8
0
62
7
6
CONTINUOUS
10
26.6757434531
20
25.2248109068
0
VERTEX
8
0
62
7
6
CONTINUOUS
10
26.6741899343
20
25.2252293294
0
VERTEX
8
0
62
7
6
CONTINUOUS
10
26.6724791060
20
25.2255592474
0
VERTEX
8
0
62
7
6
CONTINUOUS
10
26.6705762909
20
25.2257992824
0
VERTEX
8
0
62
7
6
CONTINUOUS
10
26.6684196865
20
25.2259489783
0
VERTEX
8
0
62
7
6
CONTINUOUS
10
26.6658632275
20
25.2260121633
0
VERTEX
8
0
62
7
6
CONTINUOUS
10
26.6640658355
20
25.2260173972
0
VERTEX
8
0
62
7
6
CONTINUOUS
10
26.6546394466
20
25.2260173972
0
SEQEND
0
POLYLINE
8
0
62
7
6
CONTINUOUS
66
1
70
0
0
VERTEX
8
0
62
7
6
CONTINUOUS
10
26.5801908355
20
25.7334285083
0
VERTEX
8
0
62
7
6
CONTINUOUS
10
26.5703256430
20
25.7332924063
0
VERTEX
8
0
62
7
6
CONTINUOUS
10
26.5596058139
20
25.7328287696
0
VERTEX
8
0
62
7
6
CONTINUOUS
10
26.5491061746
20
25.7320432878
0
VERTEX
8
0
62
7
6
CONTINUOUS
10
26.5388452963
20
25.7309441536
0
VERTEX
8
0
62
7
6
CONTINUOUS
10
26.5288407832
20
25.7295404675
0
VERTEX
8
0
62
7
6
CONTINUOUS
10
26.5191090927
20
25.7278421634
0
VERTEX
8
0
62
7
6
CONTINUOUS
10
26.5096653745
20
25.7258599147
0
VERTEX
8
0
62
7
6
CONTINUOUS
10
26.5005233327
20
25.7236050234
0
VERTEX
8
0
62
7
6
CONTINUOUS
10
26.4916951158
20
25.7210892938
0
VERTEX
8
0
62
7
6
CONTINUOUS
10
26.4831912385
20
25.7183248953
0
VERTEX
8
0
62
7
6
CONTINUOUS
10
26.4750205358
20
25.7153242169
0
VERTEX
8
0
62
7
6
CONTINUOUS
10
26.4671901527
20
25.7120997171
0
VERTEX
8
0
62
7
6
CONTINUOUS
10
26.4597055679
20
25.7086637729
0
VERTEX
8
0
62
7
6
CONTINUOUS
10
26.4525706502
20
25.7050285327
0
VERTEX
8
0
62
7
6
CONTINUOUS
10
26.4457877460
20
25.7012057741
0
VERTEX
8
0
62
7
6
CONTINUOUS
10
26.4393577946
20
25.6972067715
0
VERTEX
8
0
62
7
6
CONTINUOUS
10
26.4332804675
20
25.6930421759
0
VERTEX
8
0
62
7
6
CONTINUOUS
10
26.4275543278
20
25.6887219073
0
VERTEX
8
0
62
7
6
CONTINUOUS
10
26.4221770054
20
25.6842550637
0
VERTEX
8
0
62
7
6
CONTINUOUS
10
26.4171453840
20
25.6796498459
0
VERTEX
8
0
62
7
6
CONTINUOUS
10
26.4124557955
20
25.6749135005
0
VERTEX
8
0
62
7
6
CONTINUOUS
10
26.4081042180
20
25.6700522800
0
VERTEX
8
0
62
7
6
CONTINUOUS
10
26.4040864729
20
25.6650714219
0
VERTEX
8
0
62
7
6
CONTINUOUS
10
26.4003984182
20
25.6599751447
0
VERTEX
8
0
62
7
6
CONTINUOUS
10
26.3970361346
20
25.6547666626
0
VERTEX
8
0
62
7
6
CONTINUOUS
10
26.3939961004
20
25.6494482152
0
VERTEX
8
0
62
7
6
CONTINUOUS
10
26.3912753539
20
25.6440211145
0
VERTEX
8
0
62
7
6
CONTINUOUS
10
26.3888716389
20
25.6384858045
0
VERTEX
8
0
62
7
6
CONTINUOUS
10
26.3867835333
20
25.6328419340
0
VERTEX
8
0
62
7
6
CONTINUOUS
10
26.3850105573
20
25.6270884394
0
VERTEX
8
0
62
7
6
CONTINUOUS
10
26.3835532619
20
25.6212236352
0
VERTEX
8
0
62
7
6
CONTINUOUS
10
26.3824132949
20
25.6152453104
0
VERTEX
8
0
62
7
6
CONTINUOUS
10
26.3815934469
20
25.6091508272
0
VERTEX
8
0
62
7
6
CONTINUOUS
10
26.3810976760
20
25.6029372208
0
VERTEX
8
0
62
7
6
CONTINUOUS
10
26.3809728763
20
25.5997847187
0
VERTEX
8
0
62
7
6
CONTINUOUS
10
26.3809311133
20
25.5966021194
0
VERTEX
8
0
62
7
6
CONTINUOUS
10
26.3810976488
20
25.5904719301
0
VERTEX
8
0
62
7
6
CONTINUOUS
10
26.3815956102
20
25.5843956093
0
VERTEX
8
0
62
7
6
CONTINUOUS
10
26.3824232884
20
25.5783727671
0
VERTEX
8
0
62
7
6
CONTINUOUS
10
26.3835799444
20
25.5724034423
0
VERTEX
8
0
62
7
6
CONTINUOUS
10
26.3850657386
20
25.5664882068
0
VERTEX
8
0
62
7
6
CONTINUOUS
10
26.3868816391
20
25.5606282679
0
VERTEX
8
0
62
7
6
CONTINUOUS
10
26.3890293080
20
25.5548255640
0
VERTEX
8
0
62
7
6
CONTINUOUS
10
26.3915109675
20
25.5490828527
0
VERTEX
8
0
62
7
6
CONTINUOUS
10
26.3943292471
20
25.5434037879
0
VERTEX
8
0
62
7
6
CONTINUOUS
10
26.3974870137
20
25.5377929833
0
VERTEX
8
0
62
7
6
CONTINUOUS
10
26.4009871878
20
25.5322560605
0
VERTEX
8
0
62
7
6
CONTINUOUS
10
26.4048325484
20
25.5267996797
0
VERTEX
8
0
62
7
6
CONTINUOUS
10
26.4090255313
20
25.5214315505
0
VERTEX
8
0
62
7
6
CONTINUOUS
10
26.4135680243
20
25.5161604223
0
VERTEX
8
0
62
7
6
CONTINUOUS
10
26.4184611644
20
25.5109960524
0
VERTEX
8
0
62
7
6
CONTINUOUS
10
26.4237051425
20
25.5059491521
0
VERTEX
8
0
62
7
6
CONTINUOUS
10
26.4292990200
20
25.5010313096
0
VERTEX
8
0
62
7
6
CONTINUOUS
10
26.4352405646
20
25.4962548914
0
VERTEX
8
0
62
7
6
CONTINUOUS
10
26.4415261096
20
25.4916329230
0
VERTEX
8
0
62
7
6
CONTINUOUS
10
26.4481504412
20
25.4871789512
0
VERTEX
8
0
62
7
6
CONTINUOUS
10
26.4551067207
20
25.4829068904
0
VERTEX
8
0
62
7
6
CONTINUOUS
10
26.4623864428
20
25.4788308580
0
VERTEX
8
0
62
7
6
CONTINUOUS
10
26.4699794336
20
25.4749650014
0
VERTEX
8
0
62
7
6
CONTINUOUS
10
26.4778738887
20
25.4713233237
0
VERTEX
8
0
62
7
6
CONTINUOUS
10
26.4860564509
20
25.4679195114
0
VERTEX
8
0
62
7
6
CONTINUOUS
10
26.4945123253
20
25.4647667709
0
VERTEX
8
0
62
7
6
CONTINUOUS
10
26.5032254268
20
25.4618776776
0
VERTEX
8
0
62
7
6
CONTINUOUS
10
26.5121785555
20
25.4592640433
0
VERTEX
8
0
62
7
6
CONTINUOUS
10
26.5213535940
20
25.4569368041
0
VERTEX
8
0
62
7
6
CONTINUOUS
10
26.5290200573
20
25.4552511442
0
VERTEX
8
0
62
7
6
CONTINUOUS
10
26.5385417546
20
25.4534711273
0
VERTEX
8
0
62
7
6
CONTINUOUS
10
26.5482234694
20
25.4520034130
0
VERTEX
8
0
62
7
6
CONTINUOUS
10
26.5580457334
20
25.4508542104
0
VERTEX
8
0
62
7
6
CONTINUOUS
10
26.5679893288
20
25.4500286994
0
VERTEX
8
0
62
7
6
CONTINUOUS
10
26.5780354489
20
25.4495310773
0
VERTEX
8
0
62
7
6
CONTINUOUS
10
26.5881658355
20
25.4493646194
0
VERTEX
8
0
62
7
6
CONTINUOUS
10
26.6004205621
20
25.4495047315
0
VERTEX
8
0
62
7
6
CONTINUOUS
10
26.6137519588
20
25.4499750467
0
VERTEX
8
0
62
7
6
CONTINUOUS
10
26.6269685009
20
25.4507711592
0
VERTEX
8
0
62
7
6
CONTINUOUS
10
26.6399905716
20
25.4518840439
0
VERTEX
8
0
62
7
6
CONTINUOUS
10
26.6527483087
20
25.4533018672
0
VERTEX
8
0
62
7
6
CONTINUOUS
10
26.6651819898
20
25.4550106562
0
VERTEX
8
0
62
7
6
CONTINUOUS
10
26.6772419358
20
25.4569949241
0
VERTEX
8
0
62
7
6
CONTINUOUS
10
26.6888880577
20
25.4592382305
0
SEQEND
0
LINE
8
0
62
7
6
CONTINUOUS
10
26.1919533355
20
25.1102396194
11
26.1232672244
21
25.1102396194
0
LINE
8
0
62
7
6
CONTINUOUS
10
26.1143436133
20
25.1102396194
11
26.0427686133
21
25.1102396194
0
LINE
8
0
62
7
6
CONTINUOUS
10
26.2338505577
20
25.1103215639
11
26.2008644466
21
25.1103215639
0
LINE
8
0
62
7
6
CONTINUOUS
10
26.6546394466
20
25.1333521194
11
26.6465158355
21
25.1333521194
0
LINE
8
0
62
7
6
CONTINUOUS
10
26.5205797244
20
25.1333521194
11
26.5285408355
21
25.1333521194
0
LINE
8
0
62
7
6
CONTINUOUS
10
26.6298325021
20
25.1333521194
11
26.6377269466
21
25.1333521194
0
LINE
8
0
62
7
6
CONTINUOUS
10
26.7699019466
20
25.1333521194
11
26.7779991688
21
25.1333521194
0
LINE
8
0
62
7
6
CONTINUOUS
10
26.8992422244
20
25.1333521194
11
26.9073658355
21
25.1333521194
0
LINE
8
0
62
7
6
CONTINUOUS
10
25.5966088910
20
25.1734451750
11
25.6323963910
21
25.1734451750
0
LINE
8
0
62
7
6
CONTINUOUS
10
26.7039838910
20
25.1734451750
11
26.7397769466
21
25.1734451750
0
LINE
8
0
62
7
6
CONTINUOUS
10
26.6648255577
20
25.1801048972
11
26.6546394466
21
25.1801048972
0
POLYLINE
8
0
62
7
6
CONTINUOUS
66
1
70
0
0
VERTEX
8
0
62
7
6
CONTINUOUS
10
26.2337963910
20
25.1812715639
0
VERTEX
8
0
62
7
6
CONTINUOUS
10
26.2433450021
20
25.1812715639
0
VERTEX
8
0
62
7
6
CONTINUOUS
10
26.2445803785
20
25.1813355438
0
VERTEX
8
0
62
7
6
CONTINUOUS
10
26.2457960660
20
25.1815265251
0
VERTEX
8
0
62
7
6
CONTINUOUS
10
26.2469837974
20
25.1818427971
0
VERTEX
8
0
62
7
6
CONTINUOUS
10
26.2481339226
20
25.1822819176
0
VERTEX
8
0
62
7
6
CONTINUOUS
10
26.2492355224
20
25.1828402538
0
VERTEX
8
0
62
7
6
CONTINUOUS
10
26.2502767159
20
25.1835125896
0
VERTEX
8
0
62
7
6
CONTINUOUS
10
26.2512451537
20
25.1842918845
0
VERTEX
8
0
62
7
6
CONTINUOUS
10
26.2512917979
20
25.1843338243
0
VERTEX
8
0
62
7
6
CONTINUOUS
10
26.2521697689
20
25.1852148333
0
VERTEX
8
0
62
7
6
CONTINUOUS
10
26.2529486478
20
25.1861792771
0
VERTEX
8
0
62
7
6
CONTINUOUS
10
26.2536199409
20
25.1872152348
0
VERTEX
8
0
62
7
6
CONTINUOUS
10
26.2541770344
20
25.1883108955
0
VERTEX
8
0
62
7
6
CONTINUOUS
10
26.2546150730
20
25.1894551285
0
VERTEX
8
0
62
7
6
CONTINUOUS
10
26.2549306416
20
25.1906378932
0
VERTEX
8
0
62
7
6
CONTINUOUS
10
26.2551213326
20
25.1918504602
0
VERTEX
8
0
62
7
6
CONTINUOUS
10
26.2551852799
20
25.1930854527
0
VERTEX
8
0
62
7
6
CONTINUOUS
10
26.2551213326
20
25.1943287614
0
VERTEX
8
0
62
7
6
CONTINUOUS
10
26.2549305121
20
25.1955514768
0
VERTEX
8
0
62
7
6
CONTINUOUS
10
26.2546145657
20
25.1967457545
0
VERTEX
8
0
62
7
6
CONTINUOUS
10
26.2541758973
20
25.1979023408
0
VERTEX
8
0
62
7
6
CONTINUOUS
10
26.2536180423
20
25.1990106459
0
VERTEX
8
0
62
7
6
CONTINUOUS
10
26.2529460949
20
25.2000590067
0
VERTEX
8
0
62
7
6
CONTINUOUS
10
26.2521670020
20
25.2010351468
0
VERTEX
8
0
62
7
6
CONTINUOUS
10
26.2520899206
20
25.2011212433
0
VERTEX
8
0
62
7
6
CONTINUOUS
10
26.2512041933
20
25.2020043058
0
VERTEX
8
0
62
7
6
CONTINUOUS
10
26.2502355116
20
25.2027877144
0
VERTEX
8
0
62
7
6
CONTINUOUS
10
26.2491962777
20
25.2034627530
0
VERTEX
8
0
62
7
6
CONTINUOUS
10
26.2480988855
20
25.2040226571
0
VERTEX
8
0
62
7
6
CONTINUOUS
10
26.2469550949
20
25.2044625361
0
VERTEX
8
0
62
7
6
CONTINUOUS
10
26.2457755646
20
25.2047790748
0
VERTEX
8
0
62
7
6
CONTINUOUS
10
26.2445695843
20
25.2049700945
0
VERTEX
8
0
62
7
6
CONTINUOUS
10
26.2433450021
20
25.2050340639
0
VERTEX
8
0
62
7
6
CONTINUOUS
10
26.2337963910
20
25.2050340639
0
SEQEND
0
LINE
8
0
62
7
6
CONTINUOUS
10
26.6546394466
20
25.1878229527
11
26.6655574392
21
25.1878243599
0
LINE
8
0
62
7
6
CONTINUOUS
10
26.1232672244
20
25.2336118416
11
26.1916950021
21
25.2336118416
0
POLYLINE
8
0
62
7
6
CONTINUOUS
66
1
70
0
0
VERTEX
8
0
62
7
6
CONTINUOUS
10
26.2008644466
20
25.2336118416
0
VERTEX
8
0
62
7
6
CONTINUOUS
10
26.2431408355
20
25.2336118416
0
VERTEX
8
0
62
7
6
CONTINUOUS
10
26.2451183026
20
25.2335675301
0
VERTEX
8
0
62
7
6
CONTINUOUS
10
26.2470803571
20
25.2334350073
0
VERTEX
8
0
62
7
6
CONTINUOUS
10
26.2490251162
20
25.2332148876
0
VERTEX
8
0
62
7
6
CONTINUOUS
10
26.2509505077
20
25.2329078012
0
VERTEX
8
0
62
7
6
CONTINUOUS
10
26.2528542585
20
25.2325144225
0
VERTEX
8
0
62
7
6
CONTINUOUS
10
26.2547338871
20
25.2320354998
0
VERTEX
8
0
62
7
6
CONTINUOUS
10
26.2565866988
20
25.2314718884
0
VERTEX
8
0
62
7
6
CONTINUOUS
10
26.2584097862
20
25.2308245831
0
VERTEX
8
0
62
7
6
CONTINUOUS
10
26.2602000353
20
25.2300947522
0
VERTEX
8
0
62
7
6
CONTINUOUS
10
26.2619541365
20
25.2292837703
0
VERTEX
8
0
62
7
6
CONTINUOUS
10
26.2636686031
20
25.2283932488
0
VERTEX
8
0
62
7
6
CONTINUOUS
10
26.2653397956
20
25.2274250635
0
VERTEX
8
0
62
7
6
CONTINUOUS
10
26.2669639527
20
25.2263813768
0
VERTEX
8
0
62
7
6
CONTINUOUS
10
26.2685372295
20
25.2252646545
0
VERTEX
8
0
62
7
6
CONTINUOUS
10
26.2700557402
20
25.2240776743
0
VERTEX
8
0
62
7
6
CONTINUOUS
10
26.2715156055
20
25.2228235263
0
VERTEX
8
0
62
7
6
CONTINUOUS
10
26.2729130039
20
25.2215056033
0
VERTEX
8
0
62
7
6
CONTINUOUS
10
26.2742442225
20
25.2201275828
0
VERTEX
8
0
62
7
6
CONTINUOUS
10
26.2754080185
20
25.2188094141
0
VERTEX
8
0
62
7
6
CONTINUOUS
10
26.2766009336
20
25.2173290494
0
VERTEX
8
0
62
7
6
CONTINUOUS
10
26.2777172002
20
25.2158020597
0
VERTEX
8
0
62
7
6
CONTINUOUS
10
26.2787542238
20
25.2142329297
0
VERTEX
8
0
62
7
6
CONTINUOUS
10
26.2797097351
20
25.2126261669
0
VERTEX
8
0
62
7
6
CONTINUOUS
10
26.2805817977
20
25.2109862471
0
VERTEX
8
0
62
7
6
CONTINUOUS
10
26.2813688062
20
25.2093175614
0
VERTEX
8
0
62
7
6
CONTINUOUS
10
26.2820694742
20
25.2076243681
0
VERTEX
8
0
62
7
6
CONTINUOUS
10
26.2826828140
20
25.2059107515
0
VERTEX
8
0
62
7
6
CONTINUOUS
10
26.2832081080
20
25.2041805868
0
VERTEX
8
0
62
7
6
CONTINUOUS
10
26.2836448753
20
25.2024375140
0
VERTEX
8
0
62
7
6
CONTINUOUS
10
26.2839928332
20
25.2006849195
0
VERTEX
8
0
62
7
6
CONTINUOUS
10
26.2842518564
20
25.1989259260
0
VERTEX
8
0
62
7
6
CONTINUOUS
10
26.2844219357
20
25.1971633897
0
VERTEX
8
0
62
7
6
CONTINUOUS
10
26.2845031361
20
25.1953999048
0
VERTEX
8
0
62
7
6
CONTINUOUS
10
26.2844955571
20
25.1936378137
0
VERTEX
8
0
62
7
6
CONTINUOUS
10
26.2843992960
20
25.1918792220
0
VERTEX
8
0
62
7
6
CONTINUOUS
10
26.2842144133
20
25.1901260182
0
VERTEX
8
0
62
7
6
CONTINUOUS
10
26.2839409035
20
25.1883798959
0
VERTEX
8
0
62
7
6
CONTINUOUS
10
26.2835786686
20
25.1866423779
0
VERTEX
8
0
62
7
6
CONTINUOUS
10
26.2831274974
20
25.1849148422
0
VERTEX
8
0
62
7
6
CONTINUOUS
10
26.2825870477
20
25.1831985474
0
VERTEX
8
0
62
7
6
CONTINUOUS
10
26.2819568341
20
25.1814946586
0
VERTEX
8
0
62
7
6
CONTINUOUS
10
26.2812362188
20
25.1798042722
0
VERTEX
8
0
62
7
6
CONTINUOUS
10
26.2804244065
20
25.1781284394
0
VERTEX
8
0
62
7
6
CONTINUOUS
10
26.2795204423
20
25.1764681874
0
VERTEX
8
0
62
7
6
CONTINUOUS
10
26.2785232126
20
25.1748245398
0
VERTEX
8
0
62
7
6
CONTINUOUS
10
26.2774314486
20
25.1731985342
0
VERTEX
8
0
62
7
6
CONTINUOUS
10
26.2762437317
20
25.1715912373
0
VERTEX
8
0
62
7
6
CONTINUOUS
10
26.2749585001
20
25.1700037583
0
VERTEX
8
0
62
7
6
CONTINUOUS
10
26.2735740573
20
25.1684372604
0
VERTEX
8
0
62
7
6
CONTINUOUS
10
26.2720885809
20
25.1668929694
0
VERTEX
8
0
62
7
6
CONTINUOUS
10
26.2705001324
20
25.1653721808
0
VERTEX
8
0
62
7
6
CONTINUOUS
10
26.2688070040
20
25.1638765515
0
VERTEX
8
0
62
7
6
CONTINUOUS
10
26.2670073580
20
25.1624077048
0
VERTEX
8
0
62
7
6
CONTINUOUS
10
26.2650990185
20
25.1609671016
0
VERTEX
8
0
62
7
6
CONTINUOUS
10
26.2630797244
20
25.1595562861
0
SEQEND
0
LINE
8
0
62
7
6
CONTINUOUS
10
26.9408672244
20
25.2337479527
11
26.9323505577
21
25.2337479527
0
LINE
8
0
62
7
6
CONTINUOUS
10
26.8750311133
20
25.2337479527
11
26.8657533355
21
25.2337479527
0
LINE
8
0
62
7
6
CONTINUOUS
10
26.8607491688
20
25.2337479527
11
26.8526519466
21
25.2337479527
0
LINE
8
0
62
7
6
CONTINUOUS
10
26.6465158355
20
25.2337479527
11
26.6648255577
21
25.2337479527
0
LINE
8
0
62
7
6
CONTINUOUS
10
26.9443533355
20
25.2617021194
11
23.4631519466
21
25.2617021194
0
POLYLINE
8
0
62
7
6
CONTINUOUS
66
1
70
0
0
VERTEX
8
0
62
7
6
CONTINUOUS
10
23.4652755577
20
25.2842576750
0
VERTEX
8
0
62
7
6
CONTINUOUS
10
26.9397422244
20
25.2842576750
0
VERTEX
8
0
62
7
6
CONTINUOUS
10
26.9397422244
20
25.8984687861
0
SEQEND
0
POLYLINE
8
0
62
7
6
CONTINUOUS
66
1
70
0
0
VERTEX
8
0
62
7
6
CONTINUOUS
10
23.4794213910
20
25.3035048972
0
VERTEX
8
0
62
7
6
CONTINUOUS
10
26.9241172244
20
25.3035048972
0
VERTEX
8
0
62
7
6
CONTINUOUS
10
26.9241172244
20
25.8814465639
0
SEQEND
0
POLYLINE
8
0
62
7
6
CONTINUOUS
66
1
70
0
0
VERTEX
8
0
62
7
6
CONTINUOUS
10
26.8874422244
20
25.3365576750
0
VERTEX
8
0
62
7
6
CONTINUOUS
10
23.5176019466
20
25.3365576750
0
VERTEX
8
0
62
7
6
CONTINUOUS
10
23.5176019466
20
25.8461604527
0
SEQEND
0
POLYLINE
8
0
62
7
6
CONTINUOUS
66
1
70
0
0
VERTEX
8
0
62
7
6
CONTINUOUS
10
26.8807144466
20
25.3432715639
0
VERTEX
8
0
62
7
6
CONTINUOUS
10
23.5243158355
20
25.3432715639
0
VERTEX
8
0
62
7
6
CONTINUOUS
10
23.5243158355
20
25.8394465639
0
SEQEND
0
LINE
8
0
62
7
6
CONTINUOUS
10
25.9208005577
20
25.4202173972
11
25.7925519466
21
25.4202173972
0
LINE
8
0
62
7
6
CONTINUOUS
10
25.7157561133
20
25.4202173972
11
25.5780686133
21
25.4202173972
0
LINE
8
0
62
7
6
CONTINUOUS
10
25.5107061133
20
25.4202173972
11
25.2128811133
21
25.4202173972
0
LINE
8
0
62
7
6
CONTINUOUS
10
25.1969505577
20
25.4202173972
11
25.1302797244
21
25.4202173972
0
LINE
8
0
62
7
6
CONTINUOUS
10
24.9063755577
20
25.4202173972
11
24.7679755577
21
25.4202173972
0
LINE
8
0
62
7
6
CONTINUOUS
10
24.7100130577
20
25.4202173972
11
24.4078547244
21
25.4202173972
0
LINE
8
0
62
7
6
CONTINUOUS
10
24.2448227799
20
25.4202173972
11
24.1013561133
21
25.4202173972
0
LINE
8
0
62
7
6
CONTINUOUS
10
26.8133047244
20
25.4255062861
11
26.8086116688
21
25.4255062861
0
LINE
8
0
62
7
6
CONTINUOUS
10
26.7975297244
20
25.4255062861
11
26.7930547244
21
25.4255062861
0
POLYLINE
8
0
62
7
6
CONTINUOUS
66
1
70
0
0
VERTEX
8
0
62
7
6
CONTINUOUS
10
26.7975297244
20
25.4410701750
0
VERTEX
8
0
62
7
6
CONTINUOUS
10
26.8007713910
20
25.4410701750
0
VERTEX
8
0
62
7
6
CONTINUOUS
10
26.8010707697
20
25.4410731425
0
VERTEX
8
0
62
7
6
CONTINUOUS
10
26.8014668053
20
25.4410865052
0
VERTEX
8
0
62
7
6
CONTINUOUS
10
26.8018500767
20
25.4411102822
0
VERTEX
8
0
62
7
6
CONTINUOUS
10
26.8022201137
20
25.4411440830
0
VERTEX
8
0
62
7
6
CONTINUOUS
10
26.8025765752
20
25.4411875003
0
VERTEX
8
0
62
7
6
CONTINUOUS
10
26.8029192376
20
25.4412401183
0
VERTEX
8
0
62
7
6
CONTINUOUS
10
26.8032479821
20
25.4413015201
0
VERTEX
8
0
62
7
6
CONTINUOUS
10
26.8035627825
20
25.4413712936
0
VERTEX
8
0
62
7
6
CONTINUOUS
10
26.8038636933
20
25.4414490377
0
VERTEX
8
0
62
7
6
CONTINUOUS
10
26.8041508379
20
25.4415343670
0
VERTEX
8
0
62
7
6
CONTINUOUS
10
26.8044243981
20
25.4416269161
0
VERTEX
8
0
62
7
6
CONTINUOUS
10
26.8046846032
20
25.4417263439
0
VERTEX
8
0
62
7
6
CONTINUOUS
10
26.8049317205
20
25.4418323361
0
VERTEX
8
0
62
7
6
CONTINUOUS
10
26.8051660463
20
25.4419446089
0
VERTEX
8
0
62
7
6
CONTINUOUS
10
26.8053878976
20
25.4420629109
0
VERTEX
8
0
62
7
6
CONTINUOUS
10
26.8055976036
20
25.4421870252
0
VERTEX
8
0
62
7
6
CONTINUOUS
10
26.8057954988
20
25.4423167713
0
VERTEX
8
0
62
7
6
CONTINUOUS
10
26.8059819162
20
25.4424520059
0
VERTEX
8
0
62
7
6
CONTINUOUS
10
26.8061571805
20
25.4425926245
0
VERTEX
8
0
62
7
6
CONTINUOUS
10
26.8063216020
20
25.4427385612
0
VERTEX
8
0
62
7
6
CONTINUOUS
10
26.8064754716
20
25.4428897894
0
VERTEX
8
0
62
7
6
CONTINUOUS
10
26.8066190551
20
25.4430463213
0
VERTEX
8
0
62
7
6
CONTINUOUS
10
26.8067525884
20
25.4432082074
0
VERTEX
8
0
62
7
6
CONTINUOUS
10
26.8068762739
20
25.4433755352
0
VERTEX
8
0
62
7
6
CONTINUOUS
10
26.8069902759
20
25.4435484281
0
VERTEX
8
0
62
7
6
CONTINUOUS
10
26.8070947178
20
25.4437270432
0
VERTEX
8
0
62
7
6
CONTINUOUS
10
26.8071896796
20
25.4439115698
0
VERTEX
8
0
62
7
6
CONTINUOUS
10
26.8072751950
20
25.4441022265
0
VERTEX
8
0
62
7
6
CONTINUOUS
10
26.8073512508
20
25.4442992591
0
VERTEX
8
0
62
7
6
CONTINUOUS
10
26.8074177852
20
25.4445029375
0
VERTEX
8
0
62
7
6
CONTINUOUS
10
26.8074746879
20
25.4447135535
0
VERTEX
8
0
62
7
6
CONTINUOUS
10
26.8075217638
20
25.4449312280
0
VERTEX
8
0
62
7
6
CONTINUOUS
10
26.8075588251
20
25.4451562213
0
VERTEX
8
0
62
7
6
CONTINUOUS
10
26.8075856533
20
25.4453888666
0
VERTEX
8
0
62
7
6
CONTINUOUS
10
26.8076019826
20
25.4456295101
0
VERTEX
8
0
62
7
6
CONTINUOUS
10
26.8076075021
20
25.4458785083
0
VERTEX
8
0
62
7
6
CONTINUOUS
10
26.8076031256
20
25.4460891115
0
VERTEX
8
0
62
7
6
CONTINUOUS
10
26.8075878933
20
25.4463219832
0
VERTEX
8
0
62
7
6
CONTINUOUS
10
26.8075619174
20
25.4465508073
0
VERTEX
8
0
62
7
6
CONTINUOUS
10
26.8075253823
20
25.4467752325
0
VERTEX
8
0
62
7
6
CONTINUOUS
10
26.8074784708
20
25.4469949722
0
VERTEX
8
0
62
7
6
CONTINUOUS
10
26.8074213570
20
25.4472097969
0
VERTEX
8
0
62
7
6
CONTINUOUS
10
26.8073541990
20
25.4474195264
0
VERTEX
8
0
62
7
6
CONTINUOUS
10
26.8072771344
20
25.4476240211
0
VERTEX
8
0
62
7
6
CONTINUOUS
10
26.8071902759
20
25.4478231750
0
VERTEX
8
0
62
7
6
CONTINUOUS
10
26.8070937076
20
25.4480169073
0
VERTEX
8
0
62
7
6
CONTINUOUS
10
26.8069874828
20
25.4482051561
0
VERTEX
8
0
62
7
6
CONTINUOUS
10
26.8068716228
20
25.4483878713
0
VERTEX
8
0
62
7
6
CONTINUOUS
10
26.8067461156
20
25.4485650086
0
VERTEX
8
0
62
7
6
CONTINUOUS
10
26.8066109156
20
25.4487365245
0
VERTEX
8
0
62
7
6
CONTINUOUS
10
26.8064659447
20
25.4489023712
0
VERTEX
8
0
62
7
6
CONTINUOUS
10
26.8063110923
20
25.4490624923
0
VERTEX
8
0
62
7
6
CONTINUOUS
10
26.8061462171
20
25.4492168198
0
VERTEX
8
0
62
7
6
CONTINUOUS
10
26.8059711484
20
25.4493652704
0
VERTEX
8
0
62
7
6
CONTINUOUS
10
26.8057856879
20
25.4495077435
0
VERTEX
8
0
62
7
6
CONTINUOUS
10
26.8055896118
20
25.4496441192
0
VERTEX
8
0
62
7
6
CONTINUOUS
10
26.8053826728
20
25.4497742572
0
VERTEX
8
0
62
7
6
CONTINUOUS
10
26.8051646021
20
25.4498979952
0
VERTEX
8
0
62
7
6
CONTINUOUS
10
26.8049351114
20
25.4500151489
0
VERTEX
8
0
62
7
6
CONTINUOUS
10
26.8046939639
20
25.4501254817
0
VERTEX
8
0
62
7
6
CONTINUOUS
10
26.8044409221
20
25.4502287423
0
VERTEX
8
0
62
7
6
CONTINUOUS
10
26.8041756584
20
25.4503246970
0
VERTEX
8
0
62
7
6
CONTINUOUS
10
26.8038978323
20
25.4504130897
0
VERTEX
8
0
62
7
6
CONTINUOUS
10
26.8036070920
20
25.4504936427
0
VERTEX
8
0
62
7
6
CONTINUOUS
10
26.8033030757
20
25.4505660572
0
VERTEX
8
0
62
7
6
CONTINUOUS
10
26.8029854134
20
25.4506300146
0
VERTEX
8
0
62
7
6
CONTINUOUS
10
26.8026537279
20
25.4506851767
0
VERTEX
8
0
62
7
6
CONTINUOUS
10
26.8023076362
20
25.4507311873
0
VERTEX
8
0
62
7
6
CONTINUOUS
10
26.8019467502
20
25.4507676730
0
VERTEX
8
0
62
7
6
CONTINUOUS
10
26.8015706779
20
25.4507942442
0
VERTEX
8
0
62
7
6
CONTINUOUS
10
26.8011790241
20
25.4508104957
0
VERTEX
8
0
62
7
6
CONTINUOUS
10
26.8007713910
20
25.4508160083
0
VERTEX
8
0
62
7
6
CONTINUOUS
10
26.8002530601
20
25.4508106449
0
VERTEX
8
0
62
7
6
CONTINUOUS
10
26.7997590931
20
25.4507949290
0
VERTEX
8
0
62
7
6
CONTINUOUS
10
26.7992857736
20
25.4507693299
0
VERTEX
8
0
62
7
6
CONTINUOUS
10
26.7988282176
20
25.4507341314
0
VERTEX
8
0
62
7
6
CONTINUOUS
10
26.7983791833
20
25.4506892742
0
VERTEX
8
0
62
7
6
CONTINUOUS
10
26.7979258054
20
25.4506339243
0
VERTEX
8
0
62
7
6
CONTINUOUS
10
26.7975297244
20
25.4505785083
0
SEQEND
0
LINE
8
0
62
7
6
CONTINUOUS
10
24.7404491688
20
25.4883868416
11
24.7426186133
21
25.4883868416
0
LINE
8
0
62
7
6
CONTINUOUS
10
25.5462005577
20
25.4894035083
11
25.5483713910
21
25.4894035083
0
LINE
8
0
6
CONTINUOUS
10
43.5000000000
20
25.5000000000
11
44.0000000000
21
25.5000000000
0
LINE
8
0
62
7
6
CONTINUOUS
10
24.6346616688
20
25.5726757305
11
24.6324838910
21
25.5726757305
0
LINE
8
0
62
7
6
CONTINUOUS
10
26.6555616688
20
25.5945062861
11
26.7664158355
21
25.5945062861
0
LINE
8
0
62
7
6
CONTINUOUS
10
24.5143741688
20
25.6247048972
11
24.6005963910
21
25.6247048972
0
LINE
8
0
62
7
6
CONTINUOUS
10
24.6324838910
20
25.6278173972
11
24.6346616688
21
25.6278173972
0
LINE
8
0
62
7
6
CONTINUOUS
10
26.7113477799
20
25.7022132305
11
26.7091783355
21
25.7022132305
0
LINE
8
0
62
7
6
CONTINUOUS
10
24.6759616688
20
25.7042882305
11
24.6737852799
21
25.7042882305
0
LINE
8
0
62
7
6
CONTINUOUS
10
24.3368505577
20
25.7042882305
11
24.3346727799
21
25.7042882305
0
LINE
8
0
62
7
6
CONTINUOUS
10
23.9832394466
20
25.7042882305
11
23.9810630577
21
25.7042882305
0
LINE
8
0
62
7
6
CONTINUOUS
10
24.1332227799
20
25.7251146194
11
24.0694616688
21
25.7251146194
0
LINE
8
0
62
7
6
CONTINUOUS
10
24.0361436133
20
25.7625771194
11
24.3245352799
21
25.7625771194
0
LINE
8
0
62
7
6
CONTINUOUS
10
24.4078547244
20
25.7625771194
11
24.6397338910
21
25.7625771194
0
POLYLINE
8
0
62
7
6
CONTINUOUS
66
1
70
0
0
VERTEX
8
0
62
7
6
CONTINUOUS
10
24.7679755577
20
25.7625771194
0
VERTEX
8
0
62
7
6
CONTINUOUS
10
24.9404269466
20
25.7625771194
0
VERTEX
8
0
62
7
6
CONTINUOUS
10
24.9456969870
20
25.7625409113
0
VERTEX
8
0
62
7
6
CONTINUOUS
10
24.9559542070
20
25.7622547444
0
VERTEX
8
0
62
7
6
CONTINUOUS
10
24.9658083534
20
25.7616931550
0
VERTEX
8
0
62
7
6
CONTINUOUS
10
24.9752573634
20
25.7608679245
0
VERTEX
8
0
62
7
6
CONTINUOUS
10
24.9842999533
20
25.7597911244
0
VERTEX
8
0
62
7
6
CONTINUOUS
10
24.9929356743
20
25.7584750642
0
VERTEX
8
0
62
7
6
CONTINUOUS
10
25.0011649602
20
25.7569322304
0
VERTEX
8
0
62
7
6
CONTINUOUS
10
25.0089891637
20
25.7551752155
0
VERTEX
8
0
62
7
6
CONTINUOUS
10
25.0164105805
20
25.7532166369
0
VERTEX
8
0
62
7
6
CONTINUOUS
10
25.0234324572
20
25.7510690473
0
VERTEX
8
0
62
7
6
CONTINUOUS
10
25.0300589824
20
25.7487448377
0
VERTEX
8
0
62
7
6
CONTINUOUS
10
25.0362952578
20
25.7462561334
0
VERTEX
8
0
62
7
6
CONTINUOUS
10
25.0421472492
20
25.7436146862
0
VERTEX
8
0
62
7
6
CONTINUOUS
10
25.0476217150
20
25.7408317639
0
VERTEX
8
0
62
7
6
CONTINUOUS
10
25.0527261122
20
25.7379180404
0
VERTEX
8
0
62
7
6
CONTINUOUS
10
25.0574684810
20
25.7348834892
0
VERTEX
8
0
62
7
6
CONTINUOUS
10
25.0618573062
20
25.7317372825
0
VERTEX
8
0
62
7
6
CONTINUOUS
10
25.0659013595
20
25.7284877011
0
VERTEX
8
0
62
7
6
CONTINUOUS
10
25.0696095228
20
25.7251420571
0
VERTEX
8
0
62
7
6
CONTINUOUS
10
25.0729905975
20
25.7217066332
0
VERTEX
8
0
62
7
6
CONTINUOUS
10
25.0760531015
20
25.7181866434
0
VERTEX
8
0
62
7
6
CONTINUOUS
10
25.0788050606
20
25.7145862168
0
VERTEX
8
0
62
7
6
CONTINUOUS
10
25.0812537990
20
25.7109084078
0
VERTEX
8
0
62
7
6
CONTINUOUS
10
25.0834057354
20
25.7071552349
0
VERTEX
8
0
62
7
6
CONTINUOUS
10
25.0852661922
20
25.7033277492
0
VERTEX
8
0
62
7
6
CONTINUOUS
10
25.0868392249
20
25.6994261304
0
VERTEX
8
0
62
7
6
CONTINUOUS
10
25.0881274780
20
25.6954498105
0
VERTEX
8
0
62
7
6
CONTINUOUS
10
25.0886652912
20
25.6934330234
0
VERTEX
8
0
62
7
6
CONTINUOUS
10
25.0891320744
20
25.6913976204
0
VERTEX
8
0
62
7
6
CONTINUOUS
10
25.0898518337
20
25.6872730726
0
VERTEX
8
0
62
7
6
CONTINUOUS
10
25.0902856776
20
25.6830752020
0
VERTEX
8
0
62
7
6
CONTINUOUS
10
25.0904311133
20
25.6788021194
0
VERTEX
8
0
62
7
6
CONTINUOUS
10
25.0902856493
20
25.6747612498
0
VERTEX
8
0
62
7
6
CONTINUOUS
10
25.0898497925
20
25.6707410722
0
VERTEX
8
0
62
7
6
CONTINUOUS
10
25.0891227119
20
25.6667368912
0
VERTEX
8
0
62
7
6
CONTINUOUS
10
25.0881015021
20
25.6627447031
0
VERTEX
8
0
62
7
6
CONTINUOUS
10
25.0867813639
20
25.6587614131
0
VERTEX
8
0
62
7
6
CONTINUOUS
10
25.0851558437
20
25.6547850446
0
VERTEX
8
0
62
7
6
CONTINUOUS
10
25.0832171304
20
25.6508149379
0
VERTEX
8
0
62
7
6
CONTINUOUS
10
25.0809564091
20
25.6468519331
0
VERTEX
8
0
62
7
6
CONTINUOUS
10
25.0783642687
20
25.6428985354
0
VERTEX
8
0
62
7
6
CONTINUOUS
10
25.0754311619
20
25.6389590597
0
VERTEX
8
0
62
7
6
CONTINUOUS
10
25.0721479154
20
25.6350397517
0
VERTEX
8
0
62
7
6
CONTINUOUS
10
25.0685062875
20
25.6311488816
0
VERTEX
8
0
62
7
6
CONTINUOUS
10
25.0644995675
20
25.6272968052
0
VERTEX
8
0
62
7
6
CONTINUOUS
10
25.0601232083
20
25.6234959835
0
VERTEX
8
0
62
7
6
CONTINUOUS
10
25.0553754787
20
25.6197609538
0
VERTEX
8
0
62
7
6
CONTINUOUS
10
25.0502581151
20
25.6161082384
0
VERTEX
8
0
62
7
6
CONTINUOUS
10
25.0447769437
20
25.6125561809
0
VERTEX
8
0
62
7
6
CONTINUOUS
10
25.0389424370
20
25.6091246994
0
VERTEX
8
0
62
7
6
CONTINUOUS
10
25.0327701616
20
25.6058349474
0
VERTEX
8
0
62
7
6
CONTINUOUS
10
25.0262810674
20
25.6027088824
0
VERTEX
8
0
62
7
6
CONTINUOUS
10
25.0195015728
20
25.5997687462
0
VERTEX
8
0
62
7
6
CONTINUOUS
10
25.0124634050
20
25.5970364750
0
VERTEX
8
0
62
7
6
CONTINUOUS
10
25.0052031701
20
25.5945330656
0
VERTEX
8
0
62
7
6
CONTINUOUS
10
24.9977616518
20
25.5922779351
0
VERTEX
8
0
62
7
6
CONTINUOUS
10
24.9905365181
20
25.5903744490
0
VERTEX
8
0
62
7
6
CONTINUOUS
10
24.9828898755
20
25.5886557480
0
VERTEX
8
0
62
7
6
CONTINUOUS
10
24.9752172244
20
25.5872298972
0
SEQEND
0
LINE
8
0
62
7
6
CONTINUOUS
10
25.2128811133
20
25.7625771194
11
25.3512811133
21
25.7625771194
0
LINE
8
0
62
7
6
CONTINUOUS
10
25.5780686133
20
25.7625771194
11
25.7157561133
21
25.7625771194
0
LINE
8
0
62
7
6
CONTINUOUS
10
25.7932783355
20
25.7625771194
11
25.8990658355
21
25.7625771194
0
LINE
8
0
62
7
6
CONTINUOUS
10
26.1476144466
20
25.7625771194
11
26.2751505577
21
25.7625771194
0
LINE
8
0
62
7
6
CONTINUOUS
10
24.6737852799
20
25.7651673972
11
24.6759616688
21
25.7651673972
0
LINE
8
0
62
7
6
CONTINUOUS
10
24.0064325021
20
25.7662187861
11
24.0085963910
21
25.7662187861
0
LINE
8
0
62
7
6
CONTINUOUS
10
24.3578602799
20
25.7662187861
11
24.3600297244
21
25.7662187861
0
LINE
8
0
62
7
6
CONTINUOUS
10
23.5243158355
20
25.8394465639
11
26.8807144466
21
25.8394465639
0
LINE
8
0
62
7
6
CONTINUOUS
10
23.5176019466
20
25.8461604527
11
26.8874422244
21
25.8461604527
0
POLYLINE
8
0
62
7
6
CONTINUOUS
66
1
70
0
0
VERTEX
8
0
62
7
6
CONTINUOUS
10
26.9241172244
20
25.8814465639
0
VERTEX
8
0
62
7
6
CONTINUOUS
10
23.4794213910
20
25.8814465639
0
VERTEX
8
0
62
7
6
CONTINUOUS
10
23.4794213910
20
25.3035048972
0
SEQEND
0
POLYLINE
8
0
62
7
6
CONTINUOUS
66
1
70
0
0
VERTEX
8
0
62
7
6
CONTINUOUS
10
23.4631519466
20
25.8940396194
0
VERTEX
8
0
62
7
6
CONTINUOUS
10
26.9443533355
20
25.8940396194
0
VERTEX
8
0
62
7
6
CONTINUOUS
10
26.9443533355
20
25.2617021194
0
SEQEND
0
LINE
8
0
62
7
6
CONTINUOUS
10
26.9397422244
20
25.8984687861
11
23.4652755577
21
25.8984687861
0
POLYLINE
8
0
62
7
6
CONTINUOUS
66
1
70
0
0
VERTEX
8
0
62
7
6
CONTINUOUS
10
25.6361533355
20
25.1657007305
0
VERTEX
8
0
62
7
6
CONTINUOUS
10
25.5934755577
20
25.1657548972
0
VERTEX
8
0
62
7
6
CONTINUOUS
10
25.5797158355
20
25.1333521194
0
VERTEX
8
0
62
7
6
CONTINUOUS
10
25.5718894466
20
25.1333521194
0
SEQEND
0
POLYLINE
8
0
62
7
6
CONTINUOUS
66
1
70
0
0
VERTEX
8
0
62
7
6
CONTINUOUS
10
26.7435213910
20
25.1657007305
0
VERTEX
8
0
62
7
6
CONTINUOUS
10
26.7008769466
20
25.1657548972
0
VERTEX
8
0
62
7
6
CONTINUOUS
10
26.6870838910
20
25.1333521194
0
VERTEX
8
0
62
7
6
CONTINUOUS
10
26.6792713910
20
25.1333521194
0
SEQEND
0
LINE
8
0
62
7
6
CONTINUOUS
10
26.2981950021
20
25.1101715639
11
26.2613700021
21
25.1102396194
0
POLYLINE
8
0
62
7
6
CONTINUOUS
66
1
70
0
0
VERTEX
8
0
62
7
6
CONTINUOUS
10
25.3194005577
20
25.4623715639
0
VERTEX
8
0
62
7
6
CONTINUOUS
10
25.3314597767
20
25.4617171609
0
VERTEX
8
0
62
7
6
CONTINUOUS
10
25.3459710401
20
25.4607685221
0
VERTEX
8
0
62
7
6
CONTINUOUS
10
25.3609307249
20
25.4597098165
0
VERTEX
8
0
62
7
6
CONTINUOUS
10
25.3767111641
20
25.4586342545
0
VERTEX
8
0
62
7
6
CONTINUOUS
10
25.3890448538
20
25.4579150257
0
VERTEX
8
0
62
7
6
CONTINUOUS
10
25.3996910719
20
25.4574398379
0
VERTEX
8
0
62
7
6
CONTINUOUS
10
25.4092827134
20
25.4571679642
0
VERTEX
8
0
62
7
6
CONTINUOUS
10
25.4181338063
20
25.4570793150
0
VERTEX
8
0
62
7
6
CONTINUOUS
10
25.4264282488
20
25.4571623709
0
VERTEX
8
0
62
7
6
CONTINUOUS
10
25.4342854178
20
25.4574099794
0
VERTEX
8
0
62
7
6
CONTINUOUS
10
25.4417885012
20
25.4578175477
0
VERTEX
8
0
62
7
6
CONTINUOUS
10
25.4489985741
20
25.4583821534
0
VERTEX
8
0
62
7
6
CONTINUOUS
10
25.4559623177
20
25.4591020652
0
VERTEX
8
0
62
7
6
CONTINUOUS
10
25.4627165776
20
25.4599764672
0
VERTEX
8
0
62
7
6
CONTINUOUS
10
25.4692912126
20
25.4610052916
0
VERTEX
8
0
62
7
6
CONTINUOUS
10
25.4757109599
20
25.4621891154
0
VERTEX
8
0
62
7
6
CONTINUOUS
10
25.4819967004
20
25.4635290933
0
VERTEX
8
0
62
7
6
CONTINUOUS
10
25.4881663470
20
25.4650269144
0
VERTEX
8
0
62
7
6
CONTINUOUS
10
25.4942354813
20
25.4666847738
0
VERTEX
8
0
62
7
6
CONTINUOUS
10
25.5002178237
20
25.4685053535
0
VERTEX
8
0
62
7
6
CONTINUOUS
10
25.5061255843
20
25.4704918103
0
VERTEX
8
0
62
7
6
CONTINUOUS
10
25.5119697309
20
25.4726477670
0
VERTEX
8
0
62
7
6
CONTINUOUS
10
25.5177601971
20
25.4749773068
0
VERTEX
8
0
62
7
6
CONTINUOUS
10
25.5235060446
20
25.4774849697
0
VERTEX
8
0
62
7
6
CONTINUOUS
10
25.5292155928
20
25.4801757499
0
VERTEX
8
0
62
7
6
CONTINUOUS
10
25.5348965230
20
25.4830550934
0
VERTEX
8
0
62
7
6
CONTINUOUS
10
25.5405559631
20
25.4861288974
0
VERTEX
8
0
62
7
6
CONTINUOUS
10
25.5462005577
20
25.4894035083
0
SEQEND
0
POLYLINE
8
0
62
7
6
CONTINUOUS
66
1
70
0
0
VERTEX
8
0
62
7
6
CONTINUOUS
10
26.3779061133
20
25.1397132305
0
VERTEX
8
0
62
7
6
CONTINUOUS
10
26.3757485486
20
25.1398579314
0
VERTEX
8
0
62
7
6
CONTINUOUS
10
26.3736438817
20
25.1400766605
0
VERTEX
8
0
62
7
6
CONTINUOUS
10
26.3715915096
20
25.1403677884
0
VERTEX
8
0
62
7
6
CONTINUOUS
10
26.3695908679
20
25.1407297860
0
VERTEX
8
0
62
7
6
CONTINUOUS
10
26.3676414394
20
25.1411612240
0
VERTEX
8
0
62
7
6
CONTINUOUS
10
26.3657427623
20
25.1416607715
0
VERTEX
8
0
62
7
6
CONTINUOUS
10
26.3638944387
20
25.1422271936
0
VERTEX
8
0
62
7
6
CONTINUOUS
10
26.3620961441
20
25.1428593474
0
VERTEX
8
0
62
7
6
CONTINUOUS
10
26.3603476367
20
25.1435561759
0
VERTEX
8
0
62
7
6
CONTINUOUS
10
26.3586487661
20
25.1443167010
0
VERTEX
8
0
62
7
6
CONTINUOUS
10
26.3569994831
20
25.1451400139
0
VERTEX
8
0
62
7
6
CONTINUOUS
10
26.3553998483
20
25.1460252643
0
VERTEX
8
0
62
7
6
CONTINUOUS
10
26.3538500403
20
25.1469716463
0
VERTEX
8
0
62
7
6
CONTINUOUS
10
26.3523503634
20
25.1479783836
0
VERTEX
8
0
62
7
6
CONTINUOUS
10
26.3509012537
20
25.1490447115
0
VERTEX
8
0
62
7
6
CONTINUOUS
10
26.3495032846
20
25.1501698576
0
VERTEX
8
0
62
7
6
CONTINUOUS
10
26.3481571702
20
25.1513530196
0
VERTEX
8
0
62
7
6
CONTINUOUS
10
26.3468637670
20
25.1525933422
0
VERTEX
8
0
62
7
6
CONTINUOUS
10
26.3456240730
20
25.1538898919
0
VERTEX
8
0
62
7
6
CONTINUOUS
10
26.3444392252
20
25.1552416302
0
VERTEX
8
0
62
7
6
CONTINUOUS
10
26.3433104930
20
25.1566473869
0
VERTEX
8
0
62
7
6
CONTINUOUS
10
26.3422392702
20
25.1581058321
0
VERTEX
8
0
62
7
6
CONTINUOUS
10
26.3412270623
20
25.1596154488
0
VERTEX
8
0
62
7
6
CONTINUOUS
10
26.3402754713
20
25.1611745064
0
VERTEX
8
0
62
7
6
CONTINUOUS
10
26.3393861765
20
25.1627810363
0
VERTEX
8
0
62
7
6
CONTINUOUS
10
26.3385609125
20
25.1644328098
0
VERTEX
8
0
62
7
6
CONTINUOUS
10
26.3378014436
20
25.1661273196
0
VERTEX
8
0
62
7
6
CONTINUOUS
10
26.3371095349
20
25.1678617665
0
VERTEX
8
0
62
7
6
CONTINUOUS
10
26.3364869220
20
25.1696330509
0
VERTEX
8
0
62
7
6
CONTINUOUS
10
26.3359352774
20
25.1714377720
0
VERTEX
8
0
62
7
6
CONTINUOUS
10
26.3354561773
20
25.1732722327
0
VERTEX
8
0
62
7
6
CONTINUOUS
10
26.3350510675
20
25.1751324539
0
VERTEX
8
0
62
7
6
CONTINUOUS
10
26.3347212308
20
25.1770141962
0
VERTEX
8
0
62
7
6
CONTINUOUS
10
26.3344677561
20
25.1789129894
0
VERTEX
8
0
62
7
6
CONTINUOUS
10
26.3342915117
20
25.1808241698
0
VERTEX
8
0
62
7
6
CONTINUOUS
10
26.3341931227
20
25.1827429248
0
VERTEX
8
0
62
7
6
CONTINUOUS
10
26.3341708925
20
25.1840476028
0
VERTEX
8
0
62
7
6
CONTINUOUS
10
26.3342038541
20
25.1859665916
0
VERTEX
8
0
62
7
6
CONTINUOUS
10
26.3343147938
20
25.1878782746
0
VERTEX
8
0
62
7
6
CONTINUOUS
10
26.3345031523
20
25.1897778234
0
VERTEX
8
0
62
7
6
CONTINUOUS
10
26.3347681210
20
25.1916605536
0
VERTEX
8
0
62
7
6
CONTINUOUS
10
26.3351086633
20
25.1935219702
0
VERTEX
8
0
62
7
6
CONTINUOUS
10
26.3355235399
20
25.1953578069
0
VERTEX
8
0
62
7
6
CONTINUOUS
10
26.3360113391
20
25.1971640578
0
VERTEX
8
0
62
7
6
CONTINUOUS
10
26.3365705094
20
25.1989370008
0
VERTEX
8
0
62
7
6
CONTINUOUS
10
26.3371993932
20
25.2006732128
0
VERTEX
8
0
62
7
6
CONTINUOUS
10
26.3378962614
20
25.2023695772
0
VERTEX
8
0
62
7
6
CONTINUOUS
10
26.3386593476
20
25.2040232835
0
VERTEX
8
0
62
7
6
CONTINUOUS
10
26.3394868796
20
25.2056318201
0
VERTEX
8
0
62
7
6
CONTINUOUS
10
26.3403771100
20
25.2071929608
0
VERTEX
8
0
62
7
6
CONTINUOUS
10
26.3413283427
20
25.2087047470
0
VERTEX
8
0
62
7
6
CONTINUOUS
10
26.3423389573
20
25.2101654652
0
VERTEX
8
0
62
7
6
CONTINUOUS
10
26.3434074294
20
25.2115736221
0
VERTEX
8
0
62
7
6
CONTINUOUS
10
26.3445323469
20
25.2129279168
0
VERTEX
8
0
62
7
6
CONTINUOUS
10
26.3457124244
20
25.2142272129
0
VERTEX
8
0
62
7
6
CONTINUOUS
10
26.3469465123
20
25.2154705095
0
VERTEX
8
0
62
7
6
CONTINUOUS
10
26.3482336039
20
25.2166569128
0
VERTEX
8
0
62
7
6
CONTINUOUS
10
26.3495728392
20
25.2177856080
0
VERTEX
8
0
62
7
6
CONTINUOUS
10
26.3509635060
20
25.2188558334
0
VERTEX
8
0
62
7
6
CONTINUOUS
10
26.3524050386
20
25.2198668551
0
VERTEX
8
0
62
7
6
CONTINUOUS
10
26.3538970142
20
25.2208179444
0
VERTEX
8
0
62
7
6
CONTINUOUS
10
26.3554391479
20
25.2217083572
0
VERTEX
8
0
62
7
6
CONTINUOUS
10
26.3570312862
20
25.2225373150
0
VERTEX
8
0
62
7
6
CONTINUOUS
10
26.3586733987
20
25.2233039888
0
VERTEX
8
0
62
7
6
CONTINUOUS
10
26.3603655699
20
25.2240074852
0
VERTEX
8
0
62
7
6
CONTINUOUS
10
26.3621079897
20
25.2246468347
0
VERTEX
8
0
62
7
6
CONTINUOUS
10
26.3639009435
20
25.2252209814
0
VERTEX
8
0
62
7
6
CONTINUOUS
10
26.3657448025
20
25.2257287761
0
VERTEX
8
0
62
7
6
CONTINUOUS
10
26.3676400137
20
25.2261689704
0
VERTEX
8
0
62
7
6
CONTINUOUS
10
26.3695870901
20
25.2265402122
0
VERTEX
8
0
62
7
6
CONTINUOUS
10
26.3715866018
20
25.2268410437
0
VERTEX
8
0
62
7
6
CONTINUOUS
10
26.3736391664
20
25.2270699003
0
VERTEX
8
0
62
7
6
CONTINUOUS
10
26.3757454407
20
25.2272251105
0
VERTEX
8
0
62
7
6
CONTINUOUS
10
26.3779061133
20
25.2273048972
0
SEQEND
0
POLYLINE
8
0
62
7
6
CONTINUOUS
66
1
70
0
0
VERTEX
8
0
62
7
6
CONTINUOUS
10
24.5143741688
20
25.4639187861
0
VERTEX
8
0
62
7
6
CONTINUOUS
10
24.5272715639
20
25.4629664529
0
VERTEX
8
0
62
7
6
CONTINUOUS
10
24.5435318997
20
25.4616123535
0
VERTEX
8
0
62
7
6
CONTINUOUS
10
24.5571873680
20
25.4604401364
0
VERTEX
8
0
62
7
6
CONTINUOUS
10
24.5717730040
20
25.4592596705
0
VERTEX
8
0
62
7
6
CONTINUOUS
10
24.5836213317
20
25.4584312494
0
VERTEX
8
0
62
7
6
CONTINUOUS
10
24.5940003724
20
25.4578544428
0
VERTEX
8
0
62
7
6
CONTINUOUS
10
24.6034238368
20
25.4574884346
0
VERTEX
8
0
62
7
6
CONTINUOUS
10
24.6121614229
20
25.4573119495
0
VERTEX
8
0
62
7
6
CONTINUOUS
10
24.6203764780
20
25.4573123639
0
VERTEX
8
0
62
7
6
CONTINUOUS
10
24.6281774614
20
25.4574816336
0
VERTEX
8
0
62
7
6
CONTINUOUS
10
24.6356411968
20
25.4578144620
0
VERTEX
8
0
62
7
6
CONTINUOUS
10
24.6428247922
20
25.4583073702
0
VERTEX
8
0
62
7
6
CONTINUOUS
10
24.6497723290
20
25.4589581820
0
VERTEX
8
0
62
7
6
CONTINUOUS
10
24.6565188818
20
25.4597657212
0
VERTEX
8
0
62
7
6
CONTINUOUS
10
24.6630930671
20
25.4607296260
0
VERTEX
8
0
62
7
6
CONTINUOUS
10
24.6695187301
20
25.4618502297
0
VERTEX
8
0
62
7
6
CONTINUOUS
10
24.6758161021
20
25.4631284835
0
VERTEX
8
0
62
7
6
CONTINUOUS
10
24.6820026166
20
25.4645659047
0
VERTEX
8
0
62
7
6
CONTINUOUS
10
24.6880935015
20
25.4661645420
0
VERTEX
8
0
62
7
6
CONTINUOUS
10
24.6941022165
20
25.4679269517
0
VERTEX
8
0
62
7
6
CONTINUOUS
10
24.7000407824
20
25.4698561811
0
VERTEX
8
0
62
7
6
CONTINUOUS
10
24.7059200344
20
25.4719557574
0
VERTEX
8
0
62
7
6
CONTINUOUS
10
24.7117498181
20
25.4742296794
0
VERTEX
8
0
62
7
6
CONTINUOUS
10
24.7175391444
20
25.4766824118
0
VERTEX
8
0
62
7
6
CONTINUOUS
10
24.7232963128
20
25.4793188811
0
VERTEX
8
0
62
7
6
CONTINUOUS
10
24.7290290115
20
25.4821444725
0
VERTEX
8
0
62
7
6
CONTINUOUS
10
24.7347443984
20
25.4851650274
0
VERTEX
8
0
62
7
6
CONTINUOUS
10
24.7404491688
20
25.4883868416
0
SEQEND
0
LINE
8
0
62
7
6
CONTINUOUS
10
24.0085963910
20
25.7662187861
11
24.0361436133
21
25.7625771194
0
LINE
8
0
62
7
6
CONTINUOUS
10
26.3779061133
20
25.2273048972
11
26.4118561133
21
25.2100798972
0
POLYLINE
8
0
62
7
6
CONTINUOUS
66
1
70
0
0
VERTEX
8
0
62
7
6
CONTINUOUS
10
23.6238450021
20
25.4925368416
0
VERTEX
8
0
62
7
6
CONTINUOUS
10
23.6322504617
20
25.4878041305
0
VERTEX
8
0
62
7
6
CONTINUOUS
10
23.6412195988
20
25.4831640572
0
VERTEX
8
0
62
7
6
CONTINUOUS
10
23.6506811546
20
25.4786715918
0
VERTEX
8
0
62
7
6
CONTINUOUS
10
23.6539435247
20
25.4772104382
0
VERTEX
8
0
62
7
6
CONTINUOUS
10
23.6638985807
20
25.4730110425
0
VERTEX
8
0
62
7
6
CONTINUOUS
10
23.6741069862
20
25.4690876775
0
VERTEX
8
0
62
7
6
CONTINUOUS
10
23.6844849842
20
25.4654743843
0
VERTEX
8
0
62
7
6
CONTINUOUS
10
23.6949538948
20
25.4621979921
0
VERTEX
8
0
62
7
6
CONTINUOUS
10
23.7054418935
20
25.4592783364
0
VERTEX
8
0
62
7
6
CONTINUOUS
10
23.7158850604
20
25.4567287976
0
VERTEX
8
0
62
7
6
CONTINUOUS
10
23.7262278122
20
25.4545570362
0
VERTEX
8
0
62
7
6
CONTINUOUS
10
23.7364228629
20
25.4527658234
0
VERTEX
8
0
62
7
6
CONTINUOUS
10
23.7464308493
20
25.4513538877
0
VERTEX
8
0
62
7
6
CONTINUOUS
10
23.7562197447
20
25.4503167267
0
VERTEX
8
0
62
7
6
CONTINUOUS
10
23.7657641566
20
25.4496473520
0
VERTEX
8
0
62
7
6
CONTINUOUS
10
23.7750445776
20
25.4493369524
0
VERTEX
8
0
62
7
6
CONTINUOUS
10
23.7840466403
20
25.4493754732
0
VERTEX
8
0
62
7
6
CONTINUOUS
10
23.7927604032
20
25.4497521122
0
VERTEX
8
0
62
7
6
CONTINUOUS
10
23.8011796885
20
25.4504557423
0
VERTEX
8
0
62
7
6
CONTINUOUS
10
23.8093014756
20
25.4514752673
0
VERTEX
8
0
62
7
6
CONTINUOUS
10
23.8171253555
20
25.4527999202
0
VERTEX
8
0
62
7
6
CONTINUOUS
10
23.8246530407
20
25.4544195134
0
VERTEX
8
0
62
7
6
CONTINUOUS
10
23.8318879281
20
25.4563246461
0
VERTEX
8
0
62
7
6
CONTINUOUS
10
23.8388347092
20
25.4585068770
0
VERTEX
8
0
62
7
6
CONTINUOUS
10
23.8454990214
20
25.4609588646
0
VERTEX
8
0
62
7
6
CONTINUOUS
10
23.8518871353
20
25.4636744819
0
VERTEX
8
0
62
7
6
CONTINUOUS
10
23.8571374960
20
25.4662513781
0
VERTEX
8
0
62
7
6
CONTINUOUS
10
23.8618593029
20
25.4689436382
0
VERTEX
8
0
62
7
6
CONTINUOUS
10
23.8660756760
20
25.4717351628
0
VERTEX
8
0
62
7
6
CONTINUOUS
10
23.8698098937
20
25.4746115981
0
VERTEX
8
0
62
7
6
CONTINUOUS
10
23.8730849663
20
25.4775605692
0
VERTEX
8
0
62
7
6
CONTINUOUS
10
23.8759231268
20
25.4805718696
0
VERTEX
8
0
62
7
6
CONTINUOUS
10
23.8783452494
20
25.4836375798
0
VERTEX
8
0
62
7
6
CONTINUOUS
10
23.8803702168
20
25.4867520851
0
VERTEX
8
0
62
7
6
CONTINUOUS
10
23.8820142702
20
25.4899119662
0
VERTEX
8
0
62
7
6
CONTINUOUS
10
23.8832903903
20
25.4931157375
0
VERTEX
8
0
62
7
6
CONTINUOUS
10
23.8842069277
20
25.4963597160
0
VERTEX
8
0
62
7
6
CONTINUOUS
10
23.8847693500
20
25.4996382641
0
VERTEX
8
0
62
7
6
CONTINUOUS
10
23.8849816183
20
25.5029523408
0
VERTEX
8
0
62
7
6
CONTINUOUS
10
23.8848434396
20
25.5063029200
0
VERTEX
8
0
62
7
6
CONTINUOUS
10
23.8843504671
20
25.5096902139
0
VERTEX
8
0
62
7
6
CONTINUOUS
10
23.8834947657
20
25.5131129160
0
VERTEX
8
0
62
7
6
CONTINUOUS
10
23.8822655178
20
25.5165675238
0
VERTEX
8
0
62
7
6
CONTINUOUS
10
23.8806499189
20
25.5200477953
0
VERTEX
8
0
62
7
6
CONTINUOUS
10
23.8786341991
20
25.5235443755
0
VERTEX
8
0
62
7
6
CONTINUOUS
10
23.8762046972
20
25.5270446156
0
VERTEX
8
0
62
7
6
CONTINUOUS
10
23.8733489134
20
25.5305325924
0
VERTEX
8
0
62
7
6
CONTINUOUS
10
23.8700564684
20
25.5339893197
0
VERTEX
8
0
62
7
6
CONTINUOUS
10
23.8663199052
20
25.5373931331
0
VERTEX
8
0
62
7
6
CONTINUOUS
10
23.8621352840
20
25.5407202151
0
VERTEX
8
0
62
7
6
CONTINUOUS
10
23.8575025378
20
25.5439452178
0
VERTEX
8
0
62
7
6
CONTINUOUS
10
23.8524255789
20
25.5470419336
0
VERTEX
8
0
62
7
6
CONTINUOUS
10
23.8476037897
20
25.5496362482
0
VERTEX
8
0
62
7
6
CONTINUOUS
10
23.8392313624
20
25.5536901970
0
VERTEX
8
0
62
7
6
CONTINUOUS
10
23.8302587869
20
25.5576552796
0
VERTEX
8
0
62
7
6
CONTINUOUS
10
23.8205176439
20
25.5615893555
0
VERTEX
8
0
62
7
6
CONTINUOUS
10
23.8097292606
20
25.5655851929
0
VERTEX
8
0
62
7
6
CONTINUOUS
10
23.7973593648
20
25.5698179290
0
VERTEX
8
0
62
7
6
CONTINUOUS
10
23.7820676776
20
25.5747251438
0
VERTEX
8
0
62
7
6
CONTINUOUS
10
23.7632875121
20
25.5805885353
0
VERTEX
8
0
62
7
6
CONTINUOUS
10
23.7481815787
20
25.5854474152
0
VERTEX
8
0
62
7
6
CONTINUOUS
10
23.7358985529
20
25.5896641339
0
VERTEX
8
0
62
7
6
CONTINUOUS
10
23.7269954874
20
25.5928899897
0
VERTEX
8
0
62
7
6
CONTINUOUS
10
23.7165514680
20
25.5968888278
0
VERTEX
8
0
62
7
6
CONTINUOUS
10
23.7072999539
20
25.6007282758
0
VERTEX
8
0
62
7
6
CONTINUOUS
10
23.6989436269
20
25.6045183566
0
VERTEX
8
0
62
7
6
CONTINUOUS
10
23.6913449253
20
25.6083025142
0
VERTEX
8
0
62
7
6
CONTINUOUS
10
23.6844218583
20
25.6121005190
0
VERTEX
8
0
62
7
6
CONTINUOUS
10
23.6781165419
20
25.6159219954
0
VERTEX
8
0
62
7
6
CONTINUOUS
10
23.6723832870
20
25.6197718985
0
VERTEX
8
0
62
7
6
CONTINUOUS
10
23.6671834594
20
25.6236531230
0
VERTEX
8
0
62
7
6
CONTINUOUS
10
23.6624830940
20
25.6275678992
0
VERTEX
8
0
62
7
6
CONTINUOUS
10
23.6582517631
20
25.6315186108
0
VERTEX
8
0
62
7
6
CONTINUOUS
10
23.6544620680
20
25.6355083056
0
VERTEX
8
0
62
7
6
CONTINUOUS
10
23.6510894593
20
25.6395410261
0
VERTEX
8
0
62
7
6
CONTINUOUS
10
23.6481122401
20
25.6436220226
0
VERTEX
8
0
62
7
6
CONTINUOUS
10
23.6455116722
20
25.6477578786
0
VERTEX
8
0
62
7
6
CONTINUOUS
10
23.6432721349
20
25.6519565663
0
VERTEX
8
0
62
7
6
CONTINUOUS
10
23.6413813039
20
25.6562274387
0
VERTEX
8
0
62
7
6
CONTINUOUS
10
23.6395434330
20
25.6613003814
0
VERTEX
8
0
62
7
6
CONTINUOUS
10
23.6381192557
20
25.6662404895
0
VERTEX
8
0
62
7
6
CONTINUOUS
10
23.6370897587
20
25.6710583728
0
VERTEX
8
0
62
7
6
CONTINUOUS
10
23.6364398079
20
25.6757585959
0
VERTEX
8
0
62
7
6
CONTINUOUS
10
23.6361557473
20
25.6803469047
0
VERTEX
8
0
62
7
6
CONTINUOUS
10
23.6362261161
20
25.6848339410
0
VERTEX
8
0
62
7
6
CONTINUOUS
10
23.6366429919
20
25.6892300805
0
VERTEX
8
0
62
7
6
CONTINUOUS
10
23.6374020275
20
25.6935451478
0
VERTEX
8
0
62
7
6
CONTINUOUS
10
23.6385023996
20
25.6977881072
0
VERTEX
8
0
62
7
6
CONTINUOUS
10
23.6399466574
20
25.7019667399
0
VERTEX
8
0
62
7
6
CONTINUOUS
10
23.6417404646
20
25.7060873202
0
VERTEX
8
0
62
7
6
CONTINUOUS
10
23.6438922287
20
25.7101543010
0
VERTEX
8
0
62
7
6
CONTINUOUS
10
23.6464126152
20
25.7141700164
0
VERTEX
8
0
62
7
6
CONTINUOUS
10
23.6493139418
20
25.7181344032
0
VERTEX
8
0
62
7
6
CONTINUOUS
10
23.6526094432
20
25.7220447422
0
VERTEX
8
0
62
7
6
CONTINUOUS
10
23.6563123915
20
25.7258954159
0
VERTEX
8
0
62
7
6
CONTINUOUS
10
23.6604350498
20
25.7296776818
0
VERTEX
8
0
62
7
6
CONTINUOUS
10
23.6649874282
20
25.7333794592
0
VERTEX
8
0
62
7
6
CONTINUOUS
10
23.6699758083
20
25.7369851406
0
VERTEX
8
0
62
7
6
CONTINUOUS
10
23.6754010040
20
25.7404754408
0
VERTEX
8
0
62
7
6
CONTINUOUS
10
23.6812563365
20
25.7438273220
0
VERTEX
8
0
62
7
6
CONTINUOUS
10
23.6875253381
20
25.7470140455
0
VERTEX
8
0
62
7
6
CONTINUOUS
10
23.6924205139
20
25.7492509499
0
VERTEX
8
0
62
7
6
CONTINUOUS
10
23.6998402528
20
25.7522968792
0
VERTEX
8
0
62
7
6
CONTINUOUS
10
23.7077536607
20
25.7551655982
0
VERTEX
8
0
62
7
6
CONTINUOUS
10
23.7161738187
20
25.7578444131
0
VERTEX
8
0
62
7
6
CONTINUOUS
10
23.7251113673
20
25.7603194559
0
VERTEX
8
0
62
7
6
CONTINUOUS
10
23.7345737254
20
25.7625758204
0
VERTEX
8
0
62
7
6
CONTINUOUS
10
23.7445641756
20
25.7645977319
0
VERTEX
8
0
62
7
6
CONTINUOUS
10
23.7550807927
20
25.7663687598
0
VERTEX
8
0
62
7
6
CONTINUOUS
10
23.7661151959
20
25.7678720897
0
VERTEX
8
0
62
7
6
CONTINUOUS
10
23.7776511112
20
25.7690908700
0
VERTEX
8
0
62
7
6
CONTINUOUS
10
23.7896627414
20
25.7700086556
0
VERTEX
8
0
62
7
6
CONTINUOUS
10
23.8021129643
20
25.7706099701
0
VERTEX
8
0
62
7
6
CONTINUOUS
10
23.8149514171
20
25.7708810099
0
VERTEX
8
0
62
7
6
CONTINUOUS
10
23.8281125800
20
25.7708105084
0
VERTEX
8
0
62
7
6
CONTINUOUS
10
23.8415140535
20
25.7703907665
0
VERTEX
8
0
62
7
6
CONTINUOUS
10
23.8550553242
20
25.7696188327
0
VERTEX
8
0
62
7
6
CONTINUOUS
10
23.8686174265
20
25.7684977759
0
VERTEX
8
0
62
7
6
CONTINUOUS
10
23.8820640006
20
25.7670379422
0
VERTEX
8
0
62
7
6
CONTINUOUS
10
23.8952442671
20
25.7652580181
0
VERTEX
8
0
62
7
6
CONTINUOUS
10
23.9027694959
20
25.7640787179
0
VERTEX
8
0
62
7
6
CONTINUOUS
10
23.9151243844
20
25.7618661516
0
VERTEX
8
0
62
7
6
CONTINUOUS
10
23.9267283355
20
25.7594437861
0
SEQEND
0
POLYLINE
8
0
62
7
6
CONTINUOUS
66
1
70
0
0
VERTEX
8
0
62
7
6
CONTINUOUS
10
23.9267283355
20
25.7006673972
0
VERTEX
8
0
62
7
6
CONTINUOUS
10
23.9186839725
20
25.7055370446
0
VERTEX
8
0
62
7
6
CONTINUOUS
10
23.9107523802
20
25.7099274738
0
VERTEX
8
0
62
7
6
CONTINUOUS
10
23.9028892701
20
25.7138755068
0
VERTEX
8
0
62
7
6
CONTINUOUS
10
23.8950522497
20
25.7174118105
0
VERTEX
8
0
62
7
6
CONTINUOUS
10
23.8871998862
20
25.7205615854
0
VERTEX
8
0
62
7
6
CONTINUOUS
10
23.8792908551
20
25.7233450787
0
VERTEX
8
0
62
7
6
CONTINUOUS
10
23.8753024910
20
25.7246043893
0
VERTEX
8
0
62
7
6
CONTINUOUS
10
23.8712886578
20
25.7257764084
0
VERTEX
8
0
62
7
6
CONTINUOUS
10
23.8631702429
20
25.7278628906
0
VERTEX
8
0
62
7
6
CONTINUOUS
10
23.8548915972
20
25.7296148201
0
VERTEX
8
0
62
7
6
CONTINUOUS
10
23.8464063273
20
25.7310383505
0
VERTEX
8
0
62
7
6
CONTINUOUS
10
23.8376647026
20
25.7321355993
0
VERTEX
8
0
62
7
6
CONTINUOUS
10
23.8286125445
20
25.7329046565
0
VERTEX
8
0
62
7
6
CONTINUOUS
10
23.8191898854
20
25.7333394876
0
VERTEX
8
0
62
7
6
CONTINUOUS
10
23.8173340696
20
25.7333839129
0
VERTEX
8
0
62
7
6
CONTINUOUS
10
23.8098250742
20
25.7333913728
0
VERTEX
8
0
62
7
6
CONTINUOUS
10
23.8011515415
20
25.7330792050
0
VERTEX
8
0
62
7
6
CONTINUOUS
10
23.7924887366
20
25.7324416027
0
VERTEX
8
0
62
7
6
CONTINUOUS
10
23.7841440949
20
25.7315032574
0
VERTEX
8
0
62
7
6
CONTINUOUS
10
23.7762789248
20
25.7302937889
0
VERTEX
8
0
62
7
6
CONTINUOUS
10
23.7689730670
20
25.7288430738
0
VERTEX
8
0
62
7
6
CONTINUOUS
10
23.7622590933
20
25.7271793554
0
VERTEX
8
0
62
7
6
CONTINUOUS
10
23.7561412988
20
25.7253284155
0
VERTEX
8
0
62
7
6
CONTINUOUS
10
23.7506068185
20
25.7233131671
0
VERTEX
8
0
62
7
6
CONTINUOUS
10
23.7456324717
20
25.7211534107
0
VERTEX
8
0
62
7
6
CONTINUOUS
10
23.7411891892
20
25.7188656459
0
VERTEX
8
0
62
7
6
CONTINUOUS
10
23.7372450274
20
25.7164628966
0
VERTEX
8
0
62
7
6
CONTINUOUS
10
23.7337673425
20
25.7139545368
0
VERTEX
8
0
62
7
6
CONTINUOUS
10
23.7307244579
20
25.7113461266
0
VERTEX
8
0
62
7
6
CONTINUOUS
10
23.7280870284
20
25.7086392813
0
VERTEX
8
0
62
7
6
CONTINUOUS
10
23.7258292135
20
25.7058316036
0
VERTEX
8
0
62
7
6
CONTINUOUS
10
23.7239297111
20
25.7029167178
0
VERTEX
8
0
62
7
6
CONTINUOUS
10
23.7223726587
20
25.6998844347
0
VERTEX
8
0
62
7
6
CONTINUOUS
10
23.7211483735
20
25.6967210612
0
VERTEX
8
0
62
7
6
CONTINUOUS
10
23.7202538926
20
25.6934098450
0
VERTEX
8
0
62
7
6
CONTINUOUS
10
23.7196932760
20
25.6899315135
0
VERTEX
8
0
62
7
6
CONTINUOUS
10
23.7195085354
20
25.6865992769
0
VERTEX
8
0
62
7
6
CONTINUOUS
10
23.7196848876
20
25.6833424913
0
VERTEX
8
0
62
7
6
CONTINUOUS
10
23.7202159288
20
25.6801415759
0
VERTEX
8
0
62
7
6
CONTINUOUS
10
23.7211036394
20
25.6769778693
0
VERTEX
8
0
62
7
6
CONTINUOUS
10
23.7223581424
20
25.6738342320
0
VERTEX
8
0
62
7
6
CONTINUOUS
10
23.7239972087
20
25.6706955582
0
VERTEX
8
0
62
7
6
CONTINUOUS
10
23.7260455684
20
25.6675491462
0
VERTEX
8
0
62
7
6
CONTINUOUS
10
23.7285341044
20
25.6643849054
0
VERTEX
8
0
62
7
6
CONTINUOUS
10
23.7314989959
20
25.6611954120
0
VERTEX
8
0
62
7
6
CONTINUOUS
10
23.7349808604
20
25.6579758397
0
VERTEX
8
0
62
7
6
CONTINUOUS
10
23.7390239217
20
25.6547237921
0
VERTEX
8
0
62
7
6
CONTINUOUS
10
23.7436752202
20
25.6514390520
0
VERTEX
8
0
62
7
6
CONTINUOUS
10
23.7489839030
20
25.6481232266
0
VERTEX
8
0
62
7
6
CONTINUOUS
10
23.7550007130
20
25.6447792058
0
VERTEX
8
0
62
7
6
CONTINUOUS
10
23.7617780684
20
25.6414101928
0
VERTEX
8
0
62
7
6
CONTINUOUS
10
23.7693719874
20
25.6380176468
0
VERTEX
8
0
62
7
6
CONTINUOUS
10
23.7778502838
20
25.6345960415
0
VERTEX
8
0
62
7
6
CONTINUOUS
10
23.7873259558
20
25.6311160989
0
VERTEX
8
0
62
7
6
CONTINUOUS
10
23.7981341585
20
25.6274455853
0
VERTEX
8
0
62
7
6
CONTINUOUS
10
23.8058440002
20
25.6248832062
0
VERTEX
8
0
62
7
6
CONTINUOUS
10
23.8231228541
20
25.6191509389
0
VERTEX
8
0
62
7
6
CONTINUOUS
10
23.8409001160
20
25.6133858326
0
VERTEX
8
0
62
7
6
CONTINUOUS
10
23.8581207528
20
25.6076713643
0
VERTEX
8
0
62
7
6
CONTINUOUS
10
23.8719592091
20
25.6028110324
0
VERTEX
8
0
62
7
6
CONTINUOUS
10
23.8839985118
20
25.5982700986
0
VERTEX
8
0
62
7
6
CONTINUOUS
10
23.8948565635
20
25.5938392516
0
VERTEX
8
0
62
7
6
CONTINUOUS
10
23.9048521858
20
25.5894091710
0
VERTEX
8
0
62
7
6
CONTINUOUS
10
23.9141766933
20
25.5849125933
0
VERTEX
8
0
62
7
6
CONTINUOUS
10
23.9210785008
20
25.5812423111
0
VERTEX
8
0
62
7
6
CONTINUOUS
10
23.9273860194
20
25.5774932441
0
VERTEX
8
0
62
7
6
CONTINUOUS
10
23.9331264764
20
25.5736754369
0
VERTEX
8
0
62
7
6
CONTINUOUS
10
23.9383264772
20
25.5697976988
0
VERTEX
8
0
62
7
6
CONTINUOUS
10
23.9430117939
20
25.5658675059
0
VERTEX
8
0
62
7
6
CONTINUOUS
10
23.9472071246
20
25.5618909168
0
VERTEX
8
0
62
7
6
CONTINUOUS
10
23.9509358272
20
25.5578725080
0
VERTEX
8
0
62
7
6
CONTINUOUS
10
23.9542196293
20
25.5538153383
0
VERTEX
8
0
62
7
6
CONTINUOUS
10
23.9570783223
20
25.5497209521
0
VERTEX
8
0
62
7
6
CONTINUOUS
10
23.9595294469
20
25.5455894310
0
VERTEX
8
0
62
7
6
CONTINUOUS
10
23.9615879858
20
25.5414195033
0
VERTEX
8
0
62
7
6
CONTINUOUS
10
23.9632640946
20
25.5372143557
0
VERTEX
8
0
62
7
6
CONTINUOUS
10
23.9645672155
20
25.5329749232
0
VERTEX
8
0
62
7
6
CONTINUOUS
10
23.9655055925
20
25.5286978355
0
VERTEX
8
0
62
7
6
CONTINUOUS
10
23.9660842535
20
25.5243792365
0
VERTEX
8
0
62
7
6
CONTINUOUS
10
23.9663049821
20
25.5200151721
0
VERTEX
8
0
62
7
6
CONTINUOUS
10
23.9661663989
20
25.5156020173
0
VERTEX
8
0
62
7
6
CONTINUOUS
10
23.9656641633
20
25.5111369236
0
VERTEX
8
0
62
7
6
CONTINUOUS
10
23.9647912953
20
25.5066182709
0
VERTEX
8
0
62
7
6
CONTINUOUS
10
23.9635386158
20
25.5020461038
0
VERTEX
8
0
62
7
6
CONTINUOUS
10
23.9618952951
20
25.4974225366
0
VERTEX
8
0
62
7
6
CONTINUOUS
10
23.9598494981
20
25.4927521131
0
VERTEX
8
0
62
7
6
CONTINUOUS
10
23.9573891083
20
25.4880421056
0
VERTEX
8
0
62
7
6
CONTINUOUS
10
23.9545025126
20
25.4833027406
0
VERTEX
8
0
62
7
6
CONTINUOUS
10
23.9511794209
20
25.4785473373
0
VERTEX
8
0
62
7
6
CONTINUOUS
10
23.9474116921
20
25.4737923445
0
VERTEX
8
0
62
7
6
CONTINUOUS
10
23.9431941295
20
25.4690572630
0
VERTEX
8
0
62
7
6
CONTINUOUS
10
23.9385252063
20
25.4643644428
0
VERTEX
8
0
62
7
6
CONTINUOUS
10
23.9334076753
20
25.4597387504
0
VERTEX
8
0
62
7
6
CONTINUOUS
10
23.9278490191
20
25.4552071086
0
VERTEX
8
0
62
7
6
CONTINUOUS
10
23.9218617013
20
25.4507979233
0
VERTEX
8
0
62
7
6
CONTINUOUS
10
23.9154631919
20
25.4465404203
0
VERTEX
8
0
62
7
6
CONTINUOUS
10
23.9086757530
20
25.4424639296
0
VERTEX
8
0
62
7
6
CONTINUOUS
10
23.9015259963
20
25.4385971592
0
VERTEX
8
0
62
7
6
CONTINUOUS
10
23.8940442397
20
25.4349675048
0
VERTEX
8
0
62
7
6
CONTINUOUS
10
23.8893827293
20
25.4329027494
0
VERTEX
8
0
62
7
6
CONTINUOUS
10
23.8814557139
20
25.4297118312
0
VERTEX
8
0
62
7
6
CONTINUOUS
10
23.8733034418
20
25.4268229786
0
VERTEX
8
0
62
7
6
CONTINUOUS
10
23.8646387690
20
25.4241435771
0
VERTEX
8
0
62
7
6
CONTINUOUS
10
23.8554743585
20
25.4216881564
0
VERTEX
8
0
62
7
6
CONTINUOUS
10
23.8458059648
20
25.4194719091
0
VERTEX
8
0
62
7
6
CONTINUOUS
10
23.8356335330
20
25.4175107673
0
VERTEX
8
0
62
7
6
CONTINUOUS
10
23.8249621322
20
25.4158211548
0
VERTEX
8
0
62
7
6
CONTINUOUS
10
23.8138029944
20
25.4144196809
0
VERTEX
8
0
62
7
6
CONTINUOUS
10
23.8021746535
20
25.4133227632
0
VERTEX
8
0
62
7
6
CONTINUOUS
10
23.7901041583
20
25.4125461666
0
VERTEX
8
0
62
7
6
CONTINUOUS
10
23.7776283187
20
25.4121044473
0
VERTEX
8
0
62
7
6
CONTINUOUS
10
23.7647949099
20
25.4120102940
0
VERTEX
8
0
62
7
6
CONTINUOUS
10
23.7516637278
20
25.4122737684
0
VERTEX
8
0
62
7
6
CONTINUOUS
10
23.7383073440
20
25.4129014573
0
VERTEX
8
0
62
7
6
CONTINUOUS
10
23.7248113714
20
25.4138955723
0
VERTEX
8
0
62
7
6
CONTINUOUS
10
23.7112740199
20
25.4152530537
0
VERTEX
8
0
62
7
6
CONTINUOUS
10
23.6978047248
20
25.4169647657
0
VERTEX
8
0
62
7
6
CONTINUOUS
10
23.6845216738
20
25.4190148945
0
VERTEX
8
0
62
7
6
CONTINUOUS
10
23.6817634778
20
25.4194870968
0
VERTEX
8
0
62
7
6
CONTINUOUS
10
23.6689076796
20
25.4219082490
0
VERTEX
8
0
62
7
6
CONTINUOUS
10
23.6565683551
20
25.4245928289
0
VERTEX
8
0
62
7
6
CONTINUOUS
10
23.6448533355
20
25.4275007305
0
SEQEND
0
LINE
8
0
62
7
6
CONTINUOUS
10
25.0462213910
20
25.4462312861
11
24.9578283355
21
25.5247979527
0
POLYLINE
8
0
62
7
6
CONTINUOUS
66
1
70
0
0
VERTEX
8
0
62
7
6
CONTINUOUS
10
24.9752172244
20
25.5872298972
0
VERTEX
8
0
62
7
6
CONTINUOUS
10
25.0795602799
20
25.4930660083
0
VERTEX
8
0
62
7
6
CONTINUOUS
10
25.0852427188
20
25.4881583504
0
VERTEX
8
0
62
7
6
CONTINUOUS
10
25.0914582959
20
25.4830827596
0
VERTEX
8
0
62
7
6
CONTINUOUS
10
25.0982132014
20
25.4778523104
0
VERTEX
8
0
62
7
6
CONTINUOUS
10
25.1055063094
20
25.4724846014
0
VERTEX
8
0
62
7
6
CONTINUOUS
10
25.1133275415
20
25.4670023317
0
VERTEX
8
0
62
7
6
CONTINUOUS
10
25.1216561387
20
25.4614338236
0
VERTEX
8
0
62
7
6
CONTINUOUS
10
25.1304589483
20
25.4558134196
0
VERTEX
8
0
62
7
6
CONTINUOUS
10
25.1396888930
20
25.4501816512
0
VERTEX
8
0
62
7
6
CONTINUOUS
10
25.1492838585
20
25.4445850608
0
VERTEX
8
0
62
7
6
CONTINUOUS
10
25.1591662928
20
25.4390755454
0
VERTEX
8
0
62
7
6
CONTINUOUS
10
25.1692438388
20
25.4337091107
0
VERTEX
8
0
62
7
6
CONTINUOUS
10
25.1794112794
20
25.4285439792
0
VERTEX
8
0
62
7
6
CONTINUOUS
10
25.1869681895
20
25.4248653222
0
VERTEX
8
0
62
7
6
CONTINUOUS
10
25.1969505577
20
25.4202173972
0
SEQEND
0
LINE
8
0
62
7
6
CONTINUOUS
10
25.9200825021
20
25.7386368416
11
26.1852936133
21
25.4982604527
0
LINE
8
0
62
7
6
CONTINUOUS
10
26.1316630577
20
25.4628812861
11
25.8831352799
21
25.6892062861
0
LINE
8
0
62
7
6
CONTINUOUS
10
25.9099505577
20
25.7490410083
11
25.9200825021
21
25.7386368416
0
LINE
8
0
62
7
6
CONTINUOUS
10
26.8526519466
20
25.1490576750
11
26.7699019466
21
25.2363660083
0
LINE
8
0
62
7
6
CONTINUOUS
10
26.7779991688
20
25.2165771194
11
26.8607491688
21
25.1286729527
0
LINE
8
0
62
7
6
CONTINUOUS
10
24.9578283355
20
25.5247979527
11
24.8911575021
21
25.5981618416
0
POLYLINE
8
0
62
7
6
CONTINUOUS
66
1
70
0
0
VERTEX
8
0
62
7
6
CONTINUOUS
10
25.7650588910
20
25.1748423972
0
VERTEX
8
0
62
7
6
CONTINUOUS
10
25.8207575021
20
25.1101715639
0
VERTEX
8
0
62
7
6
CONTINUOUS
10
25.7761005577
20
25.1102396194
0
VERTEX
8
0
62
7
6
CONTINUOUS
10
25.7382783355
20
25.1541993416
0
VERTEX
8
0
62
7
6
CONTINUOUS
10
25.7382172244
20
25.1541993416
0
VERTEX
8
0
62
7
6
CONTINUOUS
10
25.7382172244
20
25.1102396194
0
VERTEX
8
0
62
7
6
CONTINUOUS
10
25.7044991688
20
25.1102396194
0
SEQEND
0
LINE
8
0
62
7
6
CONTINUOUS
10
25.8990658355
20
25.7620479527
11
25.9099505577
21
25.7490410083
0
LINE
8
0
62
7
6
CONTINUOUS
10
26.2613700021
20
25.1102396194
11
26.2338505577
21
25.1480951750
0
LINE
8
0
62
7
6
CONTINUOUS
10
26.2630797244
20
25.1595562861
11
26.2981950021
21
25.1101715639
0
LINE
8
0
62
7
6
CONTINUOUS
10
26.8657533355
20
25.2337479527
11
26.8993908355
21
25.1758729527
0
LINE
8
0
62
7
6
CONTINUOUS
10
26.9033644466
20
25.1847298972
11
26.8750311133
21
25.2337479527
0
LINE
8
0
62
2
6
CONTINUOUS
10
40.7995600938
20
2.0252706233
11
40.7388670938
21
2.1346456233
0
LINE
8
0
62
2
6
CONTINUOUS
10
40.7995600938
20
2.0252706233
11
40.7388680938
21
2.1346456233
0
LINE
8
0
62
2
6
CONTINUOUS
10
40.8072600938
20
2.1494786233
11
40.8761840938
21
2.0252706233
0
LINE
8
0
62
2
6
CONTINUOUS
10
40.8072610938
20
2.1494786233
11
40.8761840938
21
2.0252706233
0
LINE
8
0
62
2
6
CONTINUOUS
10
39.7534160938
20
2.0832386233
11
39.7334420938
21
2.1224396233
0
LINE
8
0
62
2
6
CONTINUOUS
10
39.9809520938
20
2.2485526233
11
40.0009260938
21
2.2093516233
0
LINE
8
0
62
7
6
CONTINUOUS
10
26.8068213910
20
25.4392798972
11
26.8133047244
21
25.4255062861
0
LINE
8
0
62
7
6
CONTINUOUS
10
26.8067130577
20
25.4326687861
11
26.7975297244
21
25.4376048972
0
LINE
8
0
6
CONTINUOUS
10
33.0000000000
20
0.0000000000
11
33.0000000000
21
0.5000000000
0
LINE
8
0
62
2
6
CONTINUOUS
10
39.7948130938
20
2.1523666233
11
39.8045870938
21
2.1271366233
0
LINE
8
0
6
CONTINUOUS
10
43.5000000000
20
29.7500000000
11
44.0000000000
21
29.7500000000
0
LINE
8
0
62
2
6
CONTINUOUS
10
40.8352240938
20
2.2602656233
11
40.8443530938
21
2.2305606233
0
LINE
8
0
62
2
6
CONTINUOUS
10
40.8376968411
20
2.2602656233
11
40.8468258411
21
2.2305606233
0
LINE
8
0
62
2
6
CONTINUOUS
10
40.7884650938
20
2.2213646233
11
40.7843580938
21
2.2366926233
0
LINE
8
0
62
2
6
CONTINUOUS
10
40.7909378411
20
2.2213646233
11
40.7868308411
21
2.2366926233
0
LINE
8
0
62
2
6
CONTINUOUS
10
39.9408090938
20
2.1658956233
11
39.9358370938
21
2.1924916233
0
LINE
8
0
62
2
6
CONTINUOUS
10
39.7334420938
20
2.1224396233
11
39.7265590938
21
2.1658956233
0
LINE
8
0
62
2
6
CONTINUOUS
10
40.0009260938
20
2.2093516233
11
40.0078090938
21
2.1658956233
0
LINE
8
0
6
CONTINUOUS
10
38.5000000000
20
0.0000000000
11
38.5000000000
21
0.5000000000
0
LINE
8
0
6
CONTINUOUS
10
0.5000000000
20
33.5000000000
11
43.5000000000
21
33.5000000000
0
LINE
8
0
62
7
6
CONTINUOUS
10
0.0000000000
20
34.0000000000
11
44.0000000000
21
34.0000000000
0
LINE
8
0
62
2
6
CONTINUOUS
10
39.5078090938
20
2.0252706233
11
39.5078090938
21
2.3065206233
0
LINE
8
0
62
2
6
CONTINUOUS
10
39.5748090938
20
2.3065206233
11
39.5748090938
21
2.2182726233
0
LINE
8
0
62
2
6
CONTINUOUS
10
39.5748090938
20
2.1467686233
11
39.5748090938
21
2.0252706233
0
LINE
8
0
62
2
6
CONTINUOUS
10
39.7948130938
20
2.1794246233
11
39.7948130938
21
2.1523666233
0
LINE
8
0
62
2
6
CONTINUOUS
10
40.0390590938
20
2.3065206233
11
40.0390590938
21
2.0252706233
0
LINE
8
0
62
2
6
CONTINUOUS
10
40.1060590938
20
2.3065206233
11
40.1060590938
21
2.2150206233
0
LINE
8
0
62
2
6
CONTINUOUS
10
40.1060590938
20
2.1480206233
11
40.1060590938
21
2.0252706233
0
LINE
8
0
62
2
6
CONTINUOUS
10
40.1841840938
20
2.0252706233
11
40.1841840938
21
2.1480206233
0
LINE
8
0
62
2
6
CONTINUOUS
10
40.1841840938
20
2.2150206233
11
40.1841840938
21
2.3065206233
0
LINE
8
0
62
2
6
CONTINUOUS
10
40.2511840938
20
2.3065206233
11
40.2511840938
21
2.0252706233
0
LINE
8
0
62
2
6
CONTINUOUS
10
40.2824340938
20
2.3065206233
11
40.2824340938
21
2.0252706233
0
LINE
8
0
62
2
6
CONTINUOUS
10
40.3494340938
20
2.3065206233
11
40.3494340938
21
2.0922706233
0
LINE
8
0
62
2
6
CONTINUOUS
10
40.4386840938
20
2.0922706233
11
40.4386840938
21
2.0252706233
0
LINE
8
0
62
2
6
CONTINUOUS
10
40.4699340938
20
2.3065206233
11
40.4699340938
21
2.0252706233
0
LINE
8
0
62
2
6
CONTINUOUS
10
40.5369340938
20
2.2395206233
11
40.5369340938
21
2.1915836233
0
LINE
8
0
62
2
6
CONTINUOUS
10
40.5369340938
20
2.1402086233
11
40.5369340938
21
2.0922706233
0
LINE
8
0
62
2
6
CONTINUOUS
10
40.6261840938
20
2.3065206233
11
40.6261840938
21
2.2395206233
0
LINE
8
0
62
2
6
CONTINUOUS
10
40.6261840938
20
2.1915836233
11
40.6261840938
21
2.1402086233
0
LINE
8
0
62
2
6
CONTINUOUS
10
40.6261840938
20
2.0922706233
11
40.6261840938
21
2.0252706233
0
LINE
8
0
62
2
6
CONTINUOUS
10
40.6574340938
20
2.0252706233
11
40.6574340938
21
2.3065206233
0
LINE
8
0
62
2
6
CONTINUOUS
10
40.6599068411
20
2.2520206233
11
40.6599068411
21
2.3065206233
0
LINE
8
0
62
2
6
CONTINUOUS
10
40.7244340938
20
2.2520206233
11
40.7244340938
21
2.1907086233
0
LINE
8
0
62
2
6
CONTINUOUS
10
40.7244340938
20
2.1346456233
11
40.7244340938
21
2.0252706233
0
LINE
8
0
62
2
6
CONTINUOUS
10
42.1530630938
20
2.1978146233
11
42.1530630938
21
1.8769936233
0
LINE
8
0
62
2
6
CONTINUOUS
10
40.8443530938
20
2.2305606233
11
40.8423210938
21
2.1995516233
0
LINE
8
0
62
2
6
CONTINUOUS
10
40.8468258411
20
2.2305606233
11
40.8447938411
21
2.1995516233
0
LINE
8
0
62
2
6
CONTINUOUS
10
39.7265590938
20
2.1658956233
11
39.7334420938
21
2.2093516233
0
LINE
8
0
62
2
6
CONTINUOUS
10
40.0078090938
20
2.1658956233
11
40.0009260938
21
2.1224396233
0
LINE
8
0
62
2
6
CONTINUOUS
10
39.8739770938
20
2.0925846233
11
39.9000010938
21
2.0999896233
0
LINE
8
0
62
2
6
CONTINUOUS
10
42.6530630938
20
2.1167496233
11
42.6530630938
21
1.9604996233
0
LINE
8
0
62
2
6
CONTINUOUS
10
42.9968130938
20
1.8979996233
11
42.9968130938
21
2.1792496233
0
LINE
8
0
6
CONTINUOUS
10
43.5000000000
20
0.5000000000
11
43.5000000000
21
33.5000000000
0
LINE
8
0
62
7
6
CONTINUOUS
10
44.0000000000
20
0.0000000000
11
44.0000000000
21
34.0000000000
0
LINE
8
0
62
2
6
CONTINUOUS
10
39.9358370938
20
2.1392996233
11
39.9408090938
21
2.1658956233
0
LINE
8
0
62
2
6
CONTINUOUS
10
40.7843580938
20
2.2060366233
11
40.7884650938
21
2.2213646233
0
LINE
8
0
62
2
6
CONTINUOUS
10
40.7868308411
20
2.2060366233
11
40.7909378411
21
2.2213646233
0
LINE
8
0
62
2
6
CONTINUOUS
10
39.8045870938
20
2.2046546233
11
39.7948130938
21
2.1794246233
0
LINE
8
0
62
2
6
CONTINUOUS
10
40.8423210938
20
2.1995516233
11
40.8293930938
21
2.1712926233
0
LINE
8
0
62
2
6
CONTINUOUS
10
40.8447938411
20
2.1995516233
11
40.8407478411
21
2.1907086233
0
LINE
8
0
62
2
6
CONTINUOUS
10
39.7486540938
20
2.2392066233
11
39.7534160938
21
2.2485526233
0
LINE
8
0
62
2
6
CONTINUOUS
10
39.7334420938
20
2.2093516233
11
39.7486540938
21
2.2392066233
0
LINE
8
0
62
2
6
CONTINUOUS
10
39.9857140938
20
2.0925846233
11
39.9809520938
21
2.0832386233
0
LINE
8
0
62
2
6
CONTINUOUS
10
40.0009260938
20
2.1224396233
11
39.9857140938
21
2.0925846233
0
LINE
8
0
62
2
6
CONTINUOUS
10
39.9215940938
20
2.1162946233
11
39.9358370938
21
2.1392996233
0
LINE
8
0
62
7
6
CONTINUOUS
10
38.8678727120
20
3.4445370080
11
37.5005296080
21
1.6242090720
0
LINE
8
0
62
2
6
CONTINUOUS
10
39.8228150938
20
2.2246496233
11
39.8045870938
21
2.2046546233
0
LINE
8
0
62
2
6
CONTINUOUS
10
39.6630570938
20
2.3065206233
11
39.5748090938
21
2.2182726233
0
LINE
8
0
62
2
6
CONTINUOUS
10
39.7578090938
20
2.3065206233
11
39.6328090938
21
2.1815206233
0
LINE
8
0
62
2
6
CONTINUOUS
10
39.7534160938
20
2.2485526233
11
39.7845270938
21
2.2796636233
0
LINE
8
0
62
2
6
CONTINUOUS
10
39.9809520938
20
2.0832386233
11
39.9498410938
21
2.0521276233
0
LINE
8
0
62
2
6
CONTINUOUS
10
40.7731370938
20
2.1948156233
11
40.7843580938
21
2.2060366233
0
LINE
8
0
62
2
6
CONTINUOUS
10
40.7756098411
20
2.1948156233
11
40.7868308411
21
2.2060366233
0
LINE
8
0
62
2
6
CONTINUOUS
10
40.8293930938
20
2.1712926233
11
40.8072610938
21
2.1494786233
0
LINE
8
0
62
2
6
CONTINUOUS
10
39.9000010938
20
2.0999896233
11
39.9215940938
21
2.1162946233
0
LINE
8
0
62
2
6
CONTINUOUS
10
39.7845270938
20
2.2796636233
11
39.8237280938
21
2.2996376233
0
LINE
8
0
62
2
6
CONTINUOUS
10
39.9498410938
20
2.0521276233
11
39.9106400938
21
2.0321536233
0
LINE
8
0
62
2
6
CONTINUOUS
10
39.8470360938
20
2.2367096233
11
39.8228150938
21
2.2246496233
0
LINE
8
_CURVE
62
8
6
HIDDEN
10
2.5545689723
20
8.3780158342
11
2.5545689723
21
28.3780158342
0
LINE
8
_CURVE
62
7
6
CONTINUOUS
10
2.8045689723
20
9.1280158342
11
2.8045689723
21
27.6280158342
0
LINE
8
___NOTE
62
2
6
CONTINUOUS
10
2.8045689723
20
14.5618141758
11
3.9922938931
21
16.8990689597
0
LINE
8
_CURVE
62
8
6
HIDDEN
10
34.5545689723
20
7.3780158342
11
3.5545689723
21
7.3780158342
0
LINE
8
___NOTE
62
2
6
CONTINUOUS
10
2.5545689723
20
10.4311670741
11
3.8103520123
21
12.6632423637
0
LINE
8
_CURVE
62
7
6
CONTINUOUS
10
33.8045689723
20
7.6280158342
11
4.3045689723
21
7.6280158342
0
LINE
8
___NOTE
62
2
6
CONTINUOUS
10
3.8103520123
20
12.6632423637
11
4.0603520123
21
12.6632423637
0
LINE
8
___NOTE
62
2
6
CONTINUOUS
10
3.9922938931
20
16.8990689597
11
4.2422938931
21
16.8990689597
0
LINE
8
_CURVE
62
2
6
DASHED
10
19.0545689723
20
7.6280158342
11
19.0545689723
21
6.6280158342
0
LINE
8
_CURVE
62
2
6
DASHED
10
19.0545689723
20
29.1280158342
11
19.0545689723
21
30.1280158342
0
LINE
8
_CURVE
62
2
6
DASHED
10
2.8045689723
20
18.3780158342
11
1.8045689723
21
18.3780158342
0
LINE
8
_CURVE
62
2
6
DASHED
10
35.3045689723
20
18.3780158342
11
36.3045689723
21
18.3780158342
0
LINE
8
_CURVE
62
7
6
CONTINUOUS
10
4.3045689723
20
29.1280158342
11
33.8045689723
21
29.1280158342
0
LINE
8
_CURVE
62
8
6
HIDDEN
10
3.5545689723
20
29.3780158342
11
34.5545689723
21
29.3780158342
0
LINE
8
_CURVE
62
7
6
CONTINUOUS
10
35.3045689723
20
27.6280158342
11
35.3045689723
21
9.1280158342
0
LINE
8
_CURVE
62
8
6
HIDDEN
10
35.5545689723
20
28.3780158342
11
35.5545689723
21
8.3780158342
0
CIRCLE
8
0
62
2
6
CONTINUOUS
10
39.8671840938
20
2.1658956233
40
0.0736250000
0
CIRCLE
8
0
62
2
6
CONTINUOUS
10
39.8671840938
20
2.1658956233
40
0.1406250000
0
CIRCLE
8
0
62
2
6
CONTINUOUS
10
42.1530630938
20
2.0386246233
40
0.0781250000
0
CIRCLE
8
0
62
2
6
CONTINUOUS
10
42.1530630938
20
2.0386246233
40
0.1406250000
0
ARC
8
0
62
2
6
CONTINUOUS
10
40.7578090938
20
2.2213646233
40
0.0306560000
50
270.0000000000
51
90.0000000000
0
ARC
8
0
62
2
6
CONTINUOUS
10
40.7589960938
20
2.2205836233
40
0.0859379702
50
304.1675166806
51
90.0000000000
0
CIRCLE
8
0
62
2
6
CONTINUOUS
10
32.6314571868
20
7.9950474614
40
0.0369292500
0
CIRCLE
8
0
62
2
6
CONTINUOUS
10
25.7811621261
20
14.1044687564
40
0.0714663288
0
ARC
8
0
62
7
6
CONTINUOUS
10
26.6693241812
20
25.2069264250
40
0.0271961756
50
260.4787245939
51
99.5212754061
0
CIRCLE
8
0
62
7
6
CONTINUOUS
10
26.4697032673
20
25.1835090639
40
0.0437959350
0
CIRCLE
8
0
62
7
6
CONTINUOUS
10
26.4701347054
20
25.1835097583
40
0.0514756023
0
ARC
8
0
62
7
6
CONTINUOUS
10
26.3771809982
20
25.1834349461
40
0.0513304411
50
47.5048873671
51
180.0087362707
0
ARC
8
0
62
7
6
CONTINUOUS
10
26.3777559885
20
25.1839412510
40
0.0519079771
50
180.5675053294
51
310.5520051653
0
CIRCLE
8
0
62
7
6
CONTINUOUS
10
25.8643030743
20
25.1729500361
40
0.0317997452
0
CIRCLE
8
0
62
7
6
CONTINUOUS
10
26.8022908355
20
25.4412088496
40
0.0202280646
0
ARC
8
0
62
7
6
CONTINUOUS
10
26.5942248067
20
25.5093114094
40
0.2245560651
50
59.2085551990
51
93.5831215674
0
ARC
8
0
62
7
6
CONTINUOUS
10
26.2797745503
20
25.6030753913
40
0.2039397004
50
223.4269507726
51
258.0242403069
0
ARC
8
0
62
7
6
CONTINUOUS
10
25.1194243573
20
25.5339558259
40
0.1142552807
50
230.1562195028
51
275.4518816802
0
ARC
8
0
62
7
6
CONTINUOUS
10
24.6026321756
20
25.5980990870
40
0.1278237007
50
56.1755396367
51
96.4463209909
0
ARC
8
0
62
7
6
CONTINUOUS
10
24.0623914922
20
25.5654902739
40
0.1597808471
50
87.4638787987
51
119.6947324667
0
ARC
8
_CURVE
62
8
6
HIDDEN
10
3.5545689723
20
28.3780158342
40
1.0000000000
50
90.0000000000
51
180.0000000000
0
ARC
8
_CURVE
62
8
6
HIDDEN
10
3.5545689723
20
8.3780158342
40
1.0000000000
50
180.0000000000
51
270.0000000000
0
ARC
8
_CURVE
62
8
6
HIDDEN
10
34.5545689723
20
8.3780158342
40
1.0000000000
50
270.0000000000
51
360.0000000000
0
ARC
8
_CURVE
62
8
6
HIDDEN
10
34.5545689723
20
28.3780158342
40
1.0000000000
50
0.0000000000
51
90.0000000000
0
ARC
8
_CURVE
62
7
6
CONTINUOUS
10
33.8045689723
20
27.6280158342
40
1.5000000000
50
0.0000000000
51
90.0000000000
0
ARC
8
_CURVE
62
7
6
CONTINUOUS
10
33.8045689723
20
9.1280158342
40
1.5000000000
50
270.0000000000
51
360.0000000000
0
ARC
8
_CURVE
62
7
6
CONTINUOUS
10
4.3045689723
20
9.1280158342
40
1.5000000000
50
180.0000000000
51
270.0000000000
0
ARC
8
_CURVE
62
7
6
CONTINUOUS
10
4.3045689723
20
27.6280158342
40
1.5000000000
50
90.0000000000
51
180.0000000000
0
ENDSEC
0
EOF
