999
DXF file: 1032928-7.dxf
999
Pro/ENGINEER 2004030 by Parametric Technology Corporation
0
SECTION
2
HEADER
9
$EXTMAX
10
44.0000000000
20
34.0000000000
30
0.0000000000
9
$EXTMIN
10
0.0000000000
20
0.0000000000
30
0.0000000000
9
$LIMMIN
10
0.0000000000
20
0.0000000000
9
$LIMMAX
10
44.0000000000
20
34.0000000000
9
$VIEWCTR
10
22.0000000000
20
17.0000000000
9
$VIEWSIZE
40
34.0000000000
9
$CLAYER
8
0
9
$LTSCALE
40
2.4200000000
9
$CELTYPE
6
BYLAYER
9
$DIMSCALE
40
1
9
$DIMASZ
40
0.1875000000
9
$DIMEXO
40
0.2750000000
9
$DIMDLI
40
1.6720000000
9
$DIMEXE
40
0.7920000000
9
$DIMCEN
40
0.3960000000
9
$DIMLFAC
40
1.0000000000
9
$DIMBLK
1
_FILLED
9
$DIMTXT
40
0.1562500000
9
$PDMODE
70
3
9
$PDSIZE
40
0.3125000000
0
ENDSEC
0
SECTION
2
TABLES
0
TABLE
2
LTYPE
70
6
0
LTYPE
2
BYBLOCK
70
0
3

72
65
73
0
40
0.0
0
LTYPE
2
BYLAYER
70
0
3

72
65
73
0
40
0.0
0
LTYPE
2
CONTINUOUS
70
64
3
Solid line
72
65
73
0
40
0
0
LTYPE
2
CENTER
70
64
3
____ _ ____ _ ____ _ ____ _ ____ _ ____ _ ____
72
65
73
4
40
0.6
49
0.375
49
-0.075
49
0.075
49
-0.075
0
LTYPE
2
HIDDEN
70
64
3
- - - - - - - - - - - - - - - - - - - -
72
65
73
2
40
0.2
49
0.1
49
-0.1
0
LTYPE
2
PHANTOM
70
64
3
_____ _ _ _____ _ _ _____ _ _ _____
72
65
73
6
40
0.8
49
0.45
49
-0.05
49
0.1
49
-0.05
49
0.1
49
-0.05
0
LTYPE
2
DOT
70
64
3
. . . . . . . . . . . . . . . . . . . .
72
65
73
2
40
0.2
49
0.1
49
-0.1
0
LTYPE
2
DASHED
70
64
3
- - - - - - - - - - - - - - - - - - - -
72
65
73
2
40
0.2
49
0.1
49
-0.1
0
ENDTAB
0
TABLE
2
LAYER
70
36
0
LAYER
2
0
70
0
62
7
6
CONTINUOUS
0
LAYER
2
DEFAULT_1
70
0
62
7
6
CENTER
0
LAYER
2
DEFAULT_2
70
0
62
8
6
HIDDEN
0
LAYER
2
DEFAULT_3
70
0
62
7
6
PHANTOM
0
LAYER
2
DATUMS
70
0
62
7
6
CONTINUOUS
0
LAYER
2
DATUM_AXIS
70
0
62
7
6
CONTINUOUS
0
LAYER
2
DATUM_CSYS
70
0
62
7
6
CONTINUOUS
0
LAYER
2
DATUM_PLANE
70
0
62
7
6
CONTINUOUS
0
LAYER
2
DATUM_POINT
70
0
62
7
6
CONTINUOUS
0
LAYER
2
_CURVE
70
0
62
7
6
CONTINUOUS
0
LAYER
2
_SURFACE
70
0
62
7
6
CONTINUOUS
0
LAYER
2
__REF_CURVE
70
0
62
7
6
CONTINUOUS
0
LAYER
2
__REF_SURFACE
70
0
62
7
6
CONTINUOUS
0
LAYER
2
___NOTE
70
0
62
7
6
CONTINUOUS
0
ENDTAB
0
ENDSEC
0
SECTION
2
BLOCKS
0
BLOCK
8
DEFAULT_2
62
8
6
HIDDEN
2
C_ARROW_BL0
70
64
10
22.0000000000
20
33.6875000000
0
LINE
8
DEFAULT_2
62
8
6
HIDDEN
10
22.0000000000
20
33.5000000000
11
22.0937500000
21
33.6875000000
0
LINE
8
DEFAULT_2
62
8
6
HIDDEN
10
22.0000000000
20
33.5000000000
11
21.9062500000
21
33.6875000000
0
LINE
8
DEFAULT_2
62
8
6
HIDDEN
10
21.9765625000
20
33.6875000000
11
21.9062500000
21
33.6875000000
0
LINE
8
DEFAULT_2
62
8
6
HIDDEN
10
21.9765625000
20
33.8750000000
11
21.9765625000
21
33.6875000000
0
LINE
8
DEFAULT_2
62
8
6
HIDDEN
10
21.9765625000
20
33.8750000000
11
22.0234375000
21
33.8750000000
0
LINE
8
DEFAULT_2
62
8
6
HIDDEN
10
22.0234375000
20
33.6875000000
11
22.0234375000
21
33.8750000000
0
LINE
8
DEFAULT_2
62
8
6
HIDDEN
10
22.0937500000
20
33.6875000000
11
22.0234375000
21
33.6875000000
0
POLYLINE
8
DEFAULT_2
62
8
6
HIDDEN
66
1
70
1
0
VERTEX
8
DEFAULT_2
62
8
6
HIDDEN
10
22.0000000000
20
33.5000000000
0
VERTEX
8
DEFAULT_2
62
8
6
HIDDEN
10
21.9062500000
20
33.6875000000
0
VERTEX
8
DEFAULT_2
62
8
6
HIDDEN
10
21.9765625000
20
33.6875000000
0
VERTEX
8
DEFAULT_2
62
8
6
HIDDEN
10
21.9765625000
20
33.8750000000
0
VERTEX
8
DEFAULT_2
62
8
6
HIDDEN
10
22.0234375000
20
33.8750000000
0
VERTEX
8
DEFAULT_2
62
8
6
HIDDEN
10
22.0234375000
20
33.6875000000
0
VERTEX
8
DEFAULT_2
62
8
6
HIDDEN
10
22.0937500000
20
33.6875000000
0
VERTEX
8
DEFAULT_2
62
8
6
HIDDEN
10
22.0000000000
20
33.5000000000
0
SEQEND
0
ENDBLK
8
0
6
BYBLOCK
62
0
0
BLOCK
8
DEFAULT_2
62
8
6
HIDDEN
2
C_ARROW_BL1
70
64
10
0.3120169847
20
17.0000000000
0
LINE
8
DEFAULT_2
62
8
6
HIDDEN
10
0.4995169847
20
17.0000000000
11
0.3120169847
21
17.0937500000
0
LINE
8
DEFAULT_2
62
8
6
HIDDEN
10
0.4995169847
20
17.0000000000
11
0.3120169847
21
16.9062500000
0
LINE
8
DEFAULT_2
62
8
6
HIDDEN
10
0.3120169847
20
16.9765625000
11
0.3120169847
21
16.9062500000
0
LINE
8
DEFAULT_2
62
8
6
HIDDEN
10
0.1245169847
20
16.9765625000
11
0.3120169847
21
16.9765625000
0
LINE
8
DEFAULT_2
62
8
6
HIDDEN
10
0.1245169847
20
16.9765625000
11
0.1245169847
21
17.0234375000
0
LINE
8
DEFAULT_2
62
8
6
HIDDEN
10
0.3120169847
20
17.0234375000
11
0.1245169847
21
17.0234375000
0
LINE
8
DEFAULT_2
62
8
6
HIDDEN
10
0.3120169847
20
17.0937500000
11
0.3120169847
21
17.0234375000
0
POLYLINE
8
DEFAULT_2
62
8
6
HIDDEN
66
1
70
1
0
VERTEX
8
DEFAULT_2
62
8
6
HIDDEN
10
0.4995169847
20
17.0000000000
0
VERTEX
8
DEFAULT_2
62
8
6
HIDDEN
10
0.3120169847
20
16.9062500000
0
VERTEX
8
DEFAULT_2
62
8
6
HIDDEN
10
0.3120169847
20
16.9765625000
0
VERTEX
8
DEFAULT_2
62
8
6
HIDDEN
10
0.1245169847
20
16.9765625000
0
VERTEX
8
DEFAULT_2
62
8
6
HIDDEN
10
0.1245169847
20
17.0234375000
0
VERTEX
8
DEFAULT_2
62
8
6
HIDDEN
10
0.3120169847
20
17.0234375000
0
VERTEX
8
DEFAULT_2
62
8
6
HIDDEN
10
0.3120169847
20
17.0937500000
0
VERTEX
8
DEFAULT_2
62
8
6
HIDDEN
10
0.4995169847
20
17.0000000000
0
SEQEND
0
ENDBLK
8
0
6
BYBLOCK
62
0
0
BLOCK
8
DEFAULT_2
62
8
6
HIDDEN
2
C_ARROW_BL2
70
64
10
22.0000000000
20
0.3125000000
0
LINE
8
DEFAULT_2
62
8
6
HIDDEN
10
22.0000000000
20
0.5000000000
11
21.9062500000
21
0.3125000000
0
LINE
8
DEFAULT_2
62
8
6
HIDDEN
10
22.0000000000
20
0.5000000000
11
22.0937500000
21
0.3125000000
0
LINE
8
DEFAULT_2
62
8
6
HIDDEN
10
22.0234375000
20
0.3125000000
11
22.0937500000
21
0.3125000000
0
LINE
8
DEFAULT_2
62
8
6
HIDDEN
10
22.0234375000
20
0.1250000000
11
22.0234375000
21
0.3125000000
0
LINE
8
DEFAULT_2
62
8
6
HIDDEN
10
22.0234375000
20
0.1250000000
11
21.9765625000
21
0.1250000000
0
LINE
8
DEFAULT_2
62
8
6
HIDDEN
10
21.9765625000
20
0.3125000000
11
21.9765625000
21
0.1250000000
0
LINE
8
DEFAULT_2
62
8
6
HIDDEN
10
21.9062500000
20
0.3125000000
11
21.9765625000
21
0.3125000000
0
POLYLINE
8
DEFAULT_2
62
8
6
HIDDEN
66
1
70
1
0
VERTEX
8
DEFAULT_2
62
8
6
HIDDEN
10
22.0000000000
20
0.5000000000
0
VERTEX
8
DEFAULT_2
62
8
6
HIDDEN
10
22.0937500000
20
0.3125000000
0
VERTEX
8
DEFAULT_2
62
8
6
HIDDEN
10
22.0234375000
20
0.3125000000
0
VERTEX
8
DEFAULT_2
62
8
6
HIDDEN
10
22.0234375000
20
0.1250000000
0
VERTEX
8
DEFAULT_2
62
8
6
HIDDEN
10
21.9765625000
20
0.1250000000
0
VERTEX
8
DEFAULT_2
62
8
6
HIDDEN
10
21.9765625000
20
0.3125000000
0
VERTEX
8
DEFAULT_2
62
8
6
HIDDEN
10
21.9062500000
20
0.3125000000
0
VERTEX
8
DEFAULT_2
62
8
6
HIDDEN
10
22.0000000000
20
0.5000000000
0
SEQEND
0
ENDBLK
8
0
6
BYBLOCK
62
0
0
BLOCK
8
DEFAULT_2
62
8
6
HIDDEN
2
C_ARROW_BL3
70
64
10
43.6878685885
20
17.0000000000
0
LINE
8
DEFAULT_2
62
8
6
HIDDEN
10
43.5003685885
20
17.0000000000
11
43.6878685885
21
16.9062500000
0
LINE
8
DEFAULT_2
62
8
6
HIDDEN
10
43.5003685885
20
17.0000000000
11
43.6878685885
21
17.0937500000
0
LINE
8
DEFAULT_2
62
8
6
HIDDEN
10
43.6878685885
20
17.0234375000
11
43.6878685885
21
17.0937500000
0
LINE
8
DEFAULT_2
62
8
6
HIDDEN
10
43.8753685885
20
17.0234375000
11
43.6878685885
21
17.0234375000
0
LINE
8
DEFAULT_2
62
8
6
HIDDEN
10
43.8753685885
20
17.0234375000
11
43.8753685885
21
16.9765625000
0
LINE
8
DEFAULT_2
62
8
6
HIDDEN
10
43.6878685885
20
16.9765625000
11
43.8753685885
21
16.9765625000
0
LINE
8
DEFAULT_2
62
8
6
HIDDEN
10
43.6878685885
20
16.9062500000
11
43.6878685885
21
16.9765625000
0
POLYLINE
8
DEFAULT_2
62
8
6
HIDDEN
66
1
70
1
0
VERTEX
8
DEFAULT_2
62
8
6
HIDDEN
10
43.5003685885
20
17.0000000000
0
VERTEX
8
DEFAULT_2
62
8
6
HIDDEN
10
43.6878685885
20
17.0937500000
0
VERTEX
8
DEFAULT_2
62
8
6
HIDDEN
10
43.6878685885
20
17.0234375000
0
VERTEX
8
DEFAULT_2
62
8
6
HIDDEN
10
43.8753685885
20
17.0234375000
0
VERTEX
8
DEFAULT_2
62
8
6
HIDDEN
10
43.8753685885
20
16.9765625000
0
VERTEX
8
DEFAULT_2
62
8
6
HIDDEN
10
43.6878685885
20
16.9765625000
0
VERTEX
8
DEFAULT_2
62
8
6
HIDDEN
10
43.6878685885
20
16.9062500000
0
VERTEX
8
DEFAULT_2
62
8
6
HIDDEN
10
43.5003685885
20
17.0000000000
0
SEQEND
0
ENDBLK
8
0
6
BYBLOCK
62
0
0
BLOCK
8
0
62
2
6
CONTINUOUS
2
*D0
70
65
10
0.0000000000
20
0.0000000000
0
TEXT
8
0
62
2
6
CONTINUOUS
10
12.9080331366
20
17.4149566783
40
0.2083333333
1
"
72
5
11
13.0746998033
21
17.4149566783
0
TEXT
8
0
62
2
6
CONTINUOUS
10
11.7413664700
20
17.1024566783
40
0.2083333333
1
(62,2 cm)
72
5
11
13.2413664700
21
17.1024566783
0
TEXT
8
0
62
2
6
CONTINUOUS
10
11.9080331366
20
17.4149566783
40
0.2083333333
1
24-1/2
72
5
11
12.9080331366
21
17.4149566783
0
LINE
8
0
62
2
6
CONTINUOUS
10
29.1572459143
20
17.4662510168
11
29.1572459143
21
17.3941233450
0
LINE
8
0
62
2
6
CONTINUOUS
10
4.6572459143
20
17.4662510168
11
4.6572459143
21
17.3941233450
0
LINE
8
0
62
2
6
CONTINUOUS
10
29.1572459143
20
17.5191233450
11
13.3455331366
21
17.5191233450
0
LINE
8
0
62
2
6
CONTINUOUS
10
4.6572459143
20
17.5191233450
11
11.6371998033
21
17.5191233450
0
INSERT
8
0
62
2
6
CONTINUOUS
2
_FILLED
10
29.1572459143
20
17.5191233450
41
  0.187500
42
  0.187500
43
  0.187500
0
INSERT
8
0
62
2
6
CONTINUOUS
2
_FILLED
10
4.6572459143
20
17.5191233450
41
  0.187500
42
  0.187500
43
  0.187500
50
180.000000
0
ENDBLK
8
0
6
BYBLOCK
62
0
0
BLOCK
8
0
62
2
6
CONTINUOUS
2
*D1
70
65
10
0.0000000000
20
0.0000000000
0
TEXT
8
0
62
2
6
CONTINUOUS
10
17.3383750790
20
23.5217179288
40
0.2083333333
1
"
72
5
11
17.5050417457
21
23.5217179288
0
TEXT
8
0
62
2
6
CONTINUOUS
10
16.1717084124
20
23.2092179288
40
0.2083333333
1
(54,6 cm)
72
5
11
17.6717084124
21
23.2092179288
0
TEXT
8
0
62
2
6
CONTINUOUS
10
16.3383750790
20
23.5217179288
40
0.2083333333
1
21-1/2
72
5
11
17.3383750790
21
23.5217179288
0
LINE
8
0
62
2
6
CONTINUOUS
10
16.9697459143
20
28.2787510168
11
17.0467084124
21
28.2787510168
0
LINE
8
0
62
2
6
CONTINUOUS
10
16.9697459143
20
6.7787510168
11
17.0467084124
21
6.7787510168
0
LINE
8
0
62
2
6
CONTINUOUS
10
16.9217084124
20
28.2787510168
11
16.9217084124
21
23.8342179288
0
LINE
8
0
62
2
6
CONTINUOUS
10
16.9217084124
20
6.7787510168
11
16.9217084124
21
23.1050512621
0
INSERT
8
0
62
2
6
CONTINUOUS
2
_FILLED
10
16.9217084124
20
28.2787510168
41
  0.187500
42
  0.187500
43
  0.187500
50
 90.000000
0
INSERT
8
0
62
2
6
CONTINUOUS
2
_FILLED
10
16.9217084124
20
6.7787510168
41
  0.187500
42
  0.187500
43
  0.187500
50
270.000000
0
ENDBLK
8
0
6
BYBLOCK
62
0
0
BLOCK
8
0
2
_FILLED
70
64
10
0.0000000000
20
0.0000000000
0
SOLID
8
0
6
BYBLOCK
62
0
10
0.0000000000
20
0.0000000000
11
-1.0000000000
21
0.1666666667
12
-1.0000000000
22
-0.1666666667
13
-1.0000000000
23
-0.1666666667
0
ENDBLK
8
0
6
BYBLOCK
62
0
0
ENDSEC
0
SECTION
2
ENTITIES
0
SOLID
8
0
62
2
6
CONTINUOUS
10
40.8072610938
20
2.1494786233
11
40.7244340938
21
2.1346456233
12
40.8293930938
22
2.1712926233
13
40.8293930938
23
2.1712926233
0
SOLID
8
0
62
2
6
CONTINUOUS
10
40.8293930938
20
2.1712926233
11
40.7244340938
21
2.1346456233
12
40.8382750938
22
2.1907086233
13
40.8382750938
23
2.1907086233
0
SOLID
8
0
62
2
6
CONTINUOUS
10
40.8382750938
20
2.1907086233
11
40.7244340938
21
2.1346456233
12
40.7578090938
22
2.1907086233
13
40.7578090938
23
2.1907086233
0
SOLID
8
0
62
2
6
CONTINUOUS
10
40.7244340938
20
2.1346456233
11
40.6574340938
21
2.0252706233
12
40.7578090938
22
2.1907086233
13
40.7578090938
23
2.1907086233
0
SOLID
8
0
62
2
6
CONTINUOUS
10
40.7578090938
20
2.1907086233
11
40.6574340938
21
2.0252706233
12
40.7244340938
22
2.1907086233
13
40.7244340938
23
2.1907086233
0
SOLID
8
0
62
2
6
CONTINUOUS
10
40.7244340938
20
2.1907086233
11
40.6574340938
21
2.0252706233
12
40.7244340938
22
2.2520206233
13
40.7244340938
23
2.2520206233
0
SOLID
8
0
62
2
6
CONTINUOUS
10
40.6574340938
20
2.0252706233
11
40.6574340938
21
2.2520206233
12
40.7244340938
22
2.2520206233
13
40.7244340938
23
2.2520206233
0
SOLID
8
0
62
2
6
CONTINUOUS
10
40.7244340938
20
2.1346456233
11
40.7244340938
21
2.0252706233
12
40.6574340938
22
2.0252706233
13
40.6574340938
23
2.0252706233
0
SOLID
8
0
62
2
6
CONTINUOUS
10
40.7244340938
20
2.1346456233
11
40.8072610938
21
2.1494786233
12
40.7388680938
22
2.1346456233
13
40.7388680938
23
2.1346456233
0
SOLID
8
0
62
2
6
CONTINUOUS
10
40.7388680938
20
2.1346456233
11
40.8072610938
21
2.1494786233
12
40.7995600938
22
2.0252706233
13
40.7995600938
23
2.0252706233
0
SOLID
8
0
62
2
6
CONTINUOUS
10
40.8072610938
20
2.1494786233
11
40.8761840938
21
2.0252706233
12
40.7995600938
22
2.0252706233
13
40.7995600938
23
2.0252706233
0
SOLID
8
0
62
2
6
CONTINUOUS
10
40.8376968411
20
2.2602656233
11
40.6599068411
21
2.2520206233
12
40.8185998411
22
2.2847806233
13
40.8185998411
23
2.2847806233
0
SOLID
8
0
62
2
6
CONTINUOUS
10
40.8185998411
20
2.2847806233
11
40.6599068411
21
2.2520206233
12
40.7920328411
22
2.3009016233
13
40.7920328411
23
2.3009016233
0
SOLID
8
0
62
2
6
CONTINUOUS
10
40.7920328411
20
2.3009016233
11
40.6599068411
21
2.2520206233
12
40.7614698411
22
2.3065206233
13
40.7614698411
23
2.3065206233
0
SOLID
8
0
62
2
6
CONTINUOUS
10
40.6599068411
20
2.2520206233
11
40.6599068411
21
2.3065206233
12
40.7614698411
22
2.3065206233
13
40.7614698411
23
2.3065206233
0
SOLID
8
0
62
2
6
CONTINUOUS
10
40.6599068411
20
2.2520206233
11
40.8376968411
21
2.2602656233
12
40.7269068411
22
2.2520206233
13
40.7269068411
23
2.2520206233
0
SOLID
8
0
62
2
6
CONTINUOUS
10
40.7269068411
20
2.2520206233
11
40.8376968411
21
2.2602656233
12
40.7602818411
22
2.2520206233
13
40.7602818411
23
2.2520206233
0
SOLID
8
0
62
2
6
CONTINUOUS
10
40.7602818411
20
2.2520206233
11
40.8376968411
21
2.2602656233
12
40.7756098411
22
2.2479136233
13
40.7756098411
23
2.2479136233
0
SOLID
8
0
62
2
6
CONTINUOUS
10
40.7756098411
20
2.2479136233
11
40.8376968411
21
2.2602656233
12
40.7868308411
22
2.2366926233
13
40.7868308411
23
2.2366926233
0
SOLID
8
0
62
2
6
CONTINUOUS
10
40.8376968411
20
2.2602656233
11
40.8468258411
21
2.2305606233
12
40.7868308411
22
2.2366926233
13
40.7868308411
23
2.2366926233
0
SOLID
8
0
62
2
6
CONTINUOUS
10
40.7909378411
20
2.2213646233
11
40.7868308411
21
2.2366926233
12
40.8468258411
22
2.2305606233
13
40.8468258411
23
2.2305606233
0
SOLID
8
0
62
2
6
CONTINUOUS
10
40.7909378411
20
2.2213646233
11
40.8468258411
21
2.2305606233
12
40.7868308411
22
2.2060366233
13
40.7868308411
23
2.2060366233
0
SOLID
8
0
62
2
6
CONTINUOUS
10
40.8468258411
20
2.2305606233
11
40.8447938411
21
2.1995516233
12
40.7868308411
22
2.2060366233
13
40.7868308411
23
2.2060366233
0
SOLID
8
0
62
2
6
CONTINUOUS
10
40.7756098411
20
2.1948156233
11
40.7868308411
21
2.2060366233
12
40.8447938411
22
2.1995516233
13
40.8447938411
23
2.1995516233
0
SOLID
8
0
62
2
6
CONTINUOUS
10
40.7756098411
20
2.1948156233
11
40.8447938411
21
2.1995516233
12
40.7602818411
22
2.1907086233
13
40.7602818411
23
2.1907086233
0
SOLID
8
0
62
2
6
CONTINUOUS
10
40.8447938411
20
2.1995516233
11
40.8407478411
21
2.1907086233
12
40.7602818411
22
2.1907086233
13
40.7602818411
23
2.1907086233
0
SOLID
8
0
62
2
6
CONTINUOUS
10
39.5748090938
20
2.2182726233
11
39.6630570938
21
2.3065206233
12
39.7578090938
22
2.3065206233
13
39.7578090938
23
2.3065206233
0
SOLID
8
0
62
2
6
CONTINUOUS
10
39.7578090938
20
2.3065206233
11
39.6328090938
21
2.1815206233
12
39.5748090938
22
2.2182726233
13
39.5748090938
23
2.2182726233
0
SOLID
8
0
62
2
6
CONTINUOUS
10
39.6328090938
20
2.1815206233
11
39.5748090938
21
2.1467686233
12
39.5748090938
22
2.2182726233
13
39.5748090938
23
2.2182726233
0
SOLID
8
0
62
2
6
CONTINUOUS
10
39.5748090938
20
2.1467686233
11
39.5078090938
21
2.0252706233
12
39.5748090938
22
2.2182726233
13
39.5748090938
23
2.2182726233
0
SOLID
8
0
62
2
6
CONTINUOUS
10
39.5748090938
20
2.2182726233
11
39.5078090938
21
2.0252706233
12
39.5748090938
22
2.3065206233
13
39.5748090938
23
2.3065206233
0
SOLID
8
0
62
2
6
CONTINUOUS
10
39.5078090938
20
2.0252706233
11
39.5078090938
21
2.3065206233
12
39.5748090938
22
2.3065206233
13
39.5748090938
23
2.3065206233
0
SOLID
8
0
62
2
6
CONTINUOUS
10
39.5748090938
20
2.1467686233
11
39.5748090938
21
2.0252706233
12
39.5078090938
22
2.0252706233
13
39.5078090938
23
2.0252706233
0
SOLID
8
0
62
2
6
CONTINUOUS
10
39.5748090938
20
2.1467686233
11
39.6328090938
21
2.1815206233
12
39.6720070938
22
2.0252706233
13
39.6720070938
23
2.0252706233
0
SOLID
8
0
62
2
6
CONTINUOUS
10
39.6328090938
20
2.1815206233
11
39.7578090938
21
2.0252706233
12
39.6720070938
22
2.0252706233
13
39.6720070938
23
2.0252706233
0
SOLID
8
0
62
2
6
CONTINUOUS
10
39.8228150938
20
2.2246496233
11
39.7334420938
21
2.2093516233
12
39.8470360938
22
2.2367096233
13
39.8470360938
23
2.2367096233
0
SOLID
8
0
62
2
6
CONTINUOUS
10
39.8739770938
20
2.2392066233
11
39.8470360938
21
2.2367096233
12
39.7486540938
22
2.2392066233
13
39.7486540938
23
2.2392066233
0
SOLID
8
0
62
2
6
CONTINUOUS
10
39.7334420938
20
2.2093516233
11
39.7486540938
21
2.2392066233
12
39.8470360938
22
2.2367096233
13
39.8470360938
23
2.2367096233
0
SOLID
8
0
62
2
6
CONTINUOUS
10
39.8228150938
20
2.2246496233
11
39.8045870938
21
2.2046546233
12
39.7334420938
22
2.2093516233
13
39.7334420938
23
2.2093516233
0
SOLID
8
0
62
2
6
CONTINUOUS
10
39.7948130938
20
2.1794246233
11
39.7265590938
21
2.1658956233
12
39.8045870938
22
2.2046546233
13
39.8045870938
23
2.2046546233
0
SOLID
8
0
62
2
6
CONTINUOUS
10
39.7265590938
20
2.1658956233
11
39.7334420938
21
2.2093516233
12
39.8045870938
22
2.2046546233
13
39.8045870938
23
2.2046546233
0
SOLID
8
0
62
2
6
CONTINUOUS
10
39.7948130938
20
2.1794246233
11
39.7948130938
21
2.1523666233
12
39.7265590938
22
2.1658956233
13
39.7265590938
23
2.1658956233
0
SOLID
8
0
62
2
6
CONTINUOUS
10
39.8045870938
20
2.1271366233
11
39.7334420938
21
2.1224396233
12
39.7948130938
22
2.1523666233
13
39.7948130938
23
2.1523666233
0
SOLID
8
0
62
2
6
CONTINUOUS
10
39.7334420938
20
2.1224396233
11
39.7265590938
21
2.1658956233
12
39.7948130938
22
2.1523666233
13
39.7948130938
23
2.1523666233
0
SOLID
8
0
62
2
6
CONTINUOUS
10
39.8045870938
20
2.1271366233
11
39.8228150938
21
2.1071416233
12
39.7334420938
22
2.1224396233
13
39.7334420938
23
2.1224396233
0
SOLID
8
0
62
2
6
CONTINUOUS
10
39.9857140938
20
2.0925846233
11
39.7534160938
21
2.0832386233
12
39.8739770938
22
2.0925846233
13
39.8739770938
23
2.0925846233
0
SOLID
8
0
62
2
6
CONTINUOUS
10
39.8739770938
20
2.0925846233
11
39.7534160938
21
2.0832386233
12
39.8470360938
22
2.0950816233
13
39.8470360938
23
2.0950816233
0
SOLID
8
0
62
2
6
CONTINUOUS
10
39.8470360938
20
2.0950816233
11
39.7534160938
21
2.0832386233
12
39.8228150938
22
2.1071416233
13
39.8228150938
23
2.1071416233
0
SOLID
8
0
62
2
6
CONTINUOUS
10
39.7534160938
20
2.0832386233
11
39.7334420938
21
2.1224396233
12
39.8228150938
22
2.1071416233
13
39.8228150938
23
2.1071416233
0
SOLID
8
0
62
2
6
CONTINUOUS
10
39.9857140938
20
2.0925846233
11
39.9809520938
21
2.0832386233
12
39.7534160938
22
2.0832386233
13
39.7534160938
23
2.0832386233
0
SOLID
8
0
62
2
6
CONTINUOUS
10
39.7845270938
20
2.0521276233
11
39.7534160938
21
2.0832386233
12
39.9809520938
22
2.0832386233
13
39.9809520938
23
2.0832386233
0
SOLID
8
0
62
2
6
CONTINUOUS
10
39.9809520938
20
2.0832386233
11
39.9498410938
21
2.0521276233
12
39.7845270938
22
2.0521276233
13
39.7845270938
23
2.0521276233
0
SOLID
8
0
62
2
6
CONTINUOUS
10
39.8237280938
20
2.0321536233
11
39.7845270938
21
2.0521276233
12
39.9498410938
22
2.0521276233
13
39.9498410938
23
2.0521276233
0
SOLID
8
0
62
2
6
CONTINUOUS
10
39.9498410938
20
2.0521276233
11
39.9106400938
21
2.0321536233
12
39.8237280938
22
2.0321536233
13
39.8237280938
23
2.0321536233
0
SOLID
8
0
62
2
6
CONTINUOUS
10
39.8671840938
20
2.0252706233
11
39.8237280938
21
2.0321536233
12
39.9106400938
22
2.0321536233
13
39.9106400938
23
2.0321536233
0
SOLID
8
0
62
2
6
CONTINUOUS
10
39.8671840938
20
2.3065206233
11
39.9106400938
21
2.2996376233
12
39.8237280938
22
2.2996376233
13
39.8237280938
23
2.2996376233
0
SOLID
8
0
62
2
6
CONTINUOUS
10
39.7845270938
20
2.2796636233
11
39.8237280938
21
2.2996376233
12
39.9106400938
22
2.2996376233
13
39.9106400938
23
2.2996376233
0
SOLID
8
0
62
2
6
CONTINUOUS
10
39.9106400938
20
2.2996376233
11
39.9498410938
21
2.2796636233
12
39.7845270938
22
2.2796636233
13
39.7845270938
23
2.2796636233
0
SOLID
8
0
62
2
6
CONTINUOUS
10
39.7534160938
20
2.2485526233
11
39.7845270938
21
2.2796636233
12
39.9498410938
22
2.2796636233
13
39.9498410938
23
2.2796636233
0
SOLID
8
0
62
2
6
CONTINUOUS
10
39.9498410938
20
2.2796636233
11
39.9809520938
21
2.2485526233
12
39.7534160938
22
2.2485526233
13
39.7534160938
23
2.2485526233
0
SOLID
8
0
62
2
6
CONTINUOUS
10
39.7486540938
20
2.2392066233
11
39.7534160938
21
2.2485526233
12
39.9809520938
22
2.2485526233
13
39.9809520938
23
2.2485526233
0
SOLID
8
0
62
2
6
CONTINUOUS
10
39.7486540938
20
2.2392066233
11
39.9809520938
21
2.2485526233
12
39.8739770938
22
2.2392066233
13
39.8739770938
23
2.2392066233
0
SOLID
8
0
62
2
6
CONTINUOUS
10
39.8739770938
20
2.2392066233
11
39.9809520938
21
2.2485526233
12
39.9000010938
22
2.2318016233
13
39.9000010938
23
2.2318016233
0
SOLID
8
0
62
2
6
CONTINUOUS
10
39.9000010938
20
2.2318016233
11
39.9809520938
21
2.2485526233
12
39.9215940938
22
2.2154966233
13
39.9215940938
23
2.2154966233
0
SOLID
8
0
62
2
6
CONTINUOUS
10
39.9809520938
20
2.2485526233
11
40.0009260938
21
2.2093516233
12
39.9215940938
22
2.2154966233
13
39.9215940938
23
2.2154966233
0
SOLID
8
0
62
2
6
CONTINUOUS
10
39.9358370938
20
2.1924916233
11
39.9215940938
21
2.2154966233
12
40.0009260938
22
2.2093516233
13
40.0009260938
23
2.2093516233
0
SOLID
8
0
62
2
6
CONTINUOUS
10
39.9358370938
20
2.1924916233
11
40.0009260938
21
2.2093516233
12
39.9408090938
22
2.1658956233
13
39.9408090938
23
2.1658956233
0
SOLID
8
0
62
2
6
CONTINUOUS
10
40.0009260938
20
2.2093516233
11
40.0078090938
21
2.1658956233
12
39.9408090938
22
2.1658956233
13
39.9408090938
23
2.1658956233
0
SOLID
8
0
62
2
6
CONTINUOUS
10
39.9358370938
20
2.1392996233
11
39.9408090938
21
2.1658956233
12
40.0078090938
22
2.1658956233
13
40.0078090938
23
2.1658956233
0
SOLID
8
0
62
2
6
CONTINUOUS
10
40.0078090938
20
2.1658956233
11
40.0009260938
21
2.1224396233
12
39.9358370938
22
2.1392996233
13
39.9358370938
23
2.1392996233
0
SOLID
8
0
62
2
6
CONTINUOUS
10
39.9215940938
20
2.1162946233
11
39.9358370938
21
2.1392996233
12
40.0009260938
22
2.1224396233
13
40.0009260938
23
2.1224396233
0
SOLID
8
0
62
2
6
CONTINUOUS
10
39.9215940938
20
2.1162946233
11
40.0009260938
21
2.1224396233
12
39.9000010938
22
2.0999896233
13
39.9000010938
23
2.0999896233
0
SOLID
8
0
62
2
6
CONTINUOUS
10
39.9000010938
20
2.0999896233
11
40.0009260938
21
2.1224396233
12
39.8739770938
22
2.0925846233
13
39.8739770938
23
2.0925846233
0
SOLID
8
0
62
2
6
CONTINUOUS
10
40.0009260938
20
2.1224396233
11
39.9857140938
21
2.0925846233
12
39.8739770938
22
2.0925846233
13
39.8739770938
23
2.0925846233
0
SOLID
8
0
62
2
6
CONTINUOUS
10
40.1841840938
20
2.2150206233
11
40.1841840938
21
2.3065206233
12
40.2511840938
22
2.3065206233
13
40.2511840938
23
2.3065206233
0
SOLID
8
0
62
2
6
CONTINUOUS
10
40.1841840938
20
2.2150206233
11
40.1060590938
21
2.1480206233
12
40.1060590938
22
2.2150206233
13
40.1060590938
23
2.2150206233
0
SOLID
8
0
62
2
6
CONTINUOUS
10
40.1060590938
20
2.1480206233
11
40.0390590938
21
2.0252706233
12
40.1060590938
22
2.2150206233
13
40.1060590938
23
2.2150206233
0
SOLID
8
0
62
2
6
CONTINUOUS
10
40.1060590938
20
2.2150206233
11
40.0390590938
21
2.0252706233
12
40.1060590938
22
2.3065206233
13
40.1060590938
23
2.3065206233
0
SOLID
8
0
62
2
6
CONTINUOUS
10
40.0390590938
20
2.0252706233
11
40.0390590938
21
2.3065206233
12
40.1060590938
22
2.3065206233
13
40.1060590938
23
2.3065206233
0
SOLID
8
0
62
2
6
CONTINUOUS
10
40.1060590938
20
2.1480206233
11
40.1060590938
21
2.0252706233
12
40.0390590938
22
2.0252706233
13
40.0390590938
23
2.0252706233
0
SOLID
8
0
62
2
6
CONTINUOUS
10
40.1060590938
20
2.1480206233
11
40.1841840938
21
2.2150206233
12
40.1841840938
22
2.1480206233
13
40.1841840938
23
2.1480206233
0
SOLID
8
0
62
2
6
CONTINUOUS
10
40.1841840938
20
2.2150206233
11
40.2511840938
21
2.3065206233
12
40.1841840938
22
2.1480206233
13
40.1841840938
23
2.1480206233
0
SOLID
8
0
62
2
6
CONTINUOUS
10
40.1841840938
20
2.1480206233
11
40.2511840938
21
2.3065206233
12
40.1841840938
22
2.0252706233
13
40.1841840938
23
2.0252706233
0
SOLID
8
0
62
2
6
CONTINUOUS
10
40.2511840938
20
2.3065206233
11
40.2511840938
21
2.0252706233
12
40.1841840938
22
2.0252706233
13
40.1841840938
23
2.0252706233
0
SOLID
8
0
62
2
6
CONTINUOUS
10
40.4386840938
20
2.0922706233
11
40.2824340938
21
2.0252706233
12
40.3494340938
22
2.0922706233
13
40.3494340938
23
2.0922706233
0
SOLID
8
0
62
2
6
CONTINUOUS
10
40.3494340938
20
2.0922706233
11
40.2824340938
21
2.0252706233
12
40.3494340938
22
2.3065206233
13
40.3494340938
23
2.3065206233
0
SOLID
8
0
62
2
6
CONTINUOUS
10
40.2824340938
20
2.0252706233
11
40.2824340938
21
2.3065206233
12
40.3494340938
22
2.3065206233
13
40.3494340938
23
2.3065206233
0
SOLID
8
0
62
2
6
CONTINUOUS
10
40.4386840938
20
2.0922706233
11
40.4386840938
21
2.0252706233
12
40.2824340938
22
2.0252706233
13
40.2824340938
23
2.0252706233
0
SOLID
8
0
62
2
6
CONTINUOUS
10
40.6261840938
20
2.3065206233
11
40.6261840938
21
2.2395206233
12
40.5369340938
22
2.2395206233
13
40.5369340938
23
2.2395206233
0
SOLID
8
0
62
2
6
CONTINUOUS
10
40.6261840938
20
2.1915836233
11
40.6261840938
21
2.1402086233
12
40.5369340938
22
2.1402086233
13
40.5369340938
23
2.1402086233
0
SOLID
8
0
62
2
6
CONTINUOUS
10
40.6261840938
20
2.0922706233
11
40.4699340938
21
2.0252706233
12
40.5369340938
22
2.0922706233
13
40.5369340938
23
2.0922706233
0
SOLID
8
0
62
2
6
CONTINUOUS
10
40.5369340938
20
2.0922706233
11
40.4699340938
21
2.0252706233
12
40.5369340938
22
2.1402086233
13
40.5369340938
23
2.1402086233
0
SOLID
8
0
62
2
6
CONTINUOUS
10
40.6261840938
20
2.1915836233
11
40.5369340938
21
2.1402086233
12
40.5369340938
22
2.1915836233
13
40.5369340938
23
2.1915836233
0
SOLID
8
0
62
2
6
CONTINUOUS
10
40.5369340938
20
2.1402086233
11
40.4699340938
21
2.0252706233
12
40.5369340938
22
2.1915836233
13
40.5369340938
23
2.1915836233
0
SOLID
8
0
62
2
6
CONTINUOUS
10
40.5369340938
20
2.1915836233
11
40.4699340938
21
2.0252706233
12
40.5369340938
22
2.2395206233
13
40.5369340938
23
2.2395206233
0
SOLID
8
0
62
2
6
CONTINUOUS
10
40.6261840938
20
2.3065206233
11
40.5369340938
21
2.2395206233
12
40.4699340938
22
2.3065206233
13
40.4699340938
23
2.3065206233
0
SOLID
8
0
62
2
6
CONTINUOUS
10
40.4699340938
20
2.0252706233
11
40.4699340938
21
2.3065206233
12
40.5369340938
22
2.2395206233
13
40.5369340938
23
2.2395206233
0
SOLID
8
0
62
2
6
CONTINUOUS
10
40.6261840938
20
2.0922706233
11
40.6261840938
21
2.0252706233
12
40.4699340938
22
2.0252706233
13
40.4699340938
23
2.0252706233
0
TEXT
8
0
62
2
6
CONTINUOUS
10
38.9018250938
20
2.9909506233
40
0.0750000000
1
DRAWN
51
0.0000190000
72
5
11
39.2918250938
21
2.9909506233
0
TEXT
8
0
62
2
6
CONTINUOUS
10
43.0775261490
20
0.7915288595
40
0.0750000000
1
SHEET
51
0.0000190000
72
5
11
43.4300261490
21
0.7915288595
0
TEXT
8
0
62
2
6
CONTINUOUS
10
41.9126130938
20
2.4938046233
40
0.1000000000
1
PRO/E
51
0.0000190000
72
5
11
42.3126130938
21
2.4938046233
0
TEXT
8
0
62
2
6
CONTINUOUS
10
42.9378310938
20
2.9691176233
40
0.0750000000
1
DWG
51
0.0000190000
72
5
11
43.1628310938
21
2.9691176233
0
TEXT
8
0
62
2
6
CONTINUOUS
10
39.1056400938
20
2.4939596233
40
0.0900000000
1
DO NOT SCALE DRAWING
51
0.0000190000
72
5
11
41.2656400938
21
2.4939596233
0
TEXT
8
0
62
2
6
CONTINUOUS
10
38.9130820938
20
1.8354526233
40
0.0750000000
1
KOHLER CO. KOHLER, WISCONSIN 53044
51
0.0000190000
72
5
11
41.5140820938
21
1.8354526233
0
TEXT
8
0
62
2
6
CONTINUOUS
10
41.6960010938
20
2.2782146233
40
0.0750000000
1
THIRD ANGLE PROJECTION
51
0.0000190000
72
5
11
43.3460010938
21
2.2782146233
0
TEXT
8
0
62
2
6
CONTINUOUS
10
37.5593130938
20
1.4917496233
40
0.0625000000
1
THIS DRAWING IN DESIGN
51
0.0000190000
72
5
11
38.8311880938
21
1.4917496233
0
TEXT
8
0
62
2
6
CONTINUOUS
10
37.5593130938
20
1.3761246233
40
0.0625000000
1
AND DETAILS IS THE PROP-
51
0.0000190000
72
5
11
38.8343130938
21
1.3761246233
0
TEXT
8
0
62
2
6
CONTINUOUS
10
42.9078000938
20
2.5019606233
40
0.0750000000
1
SIZE
51
0.0000190000
72
5
11
43.2078000938
21
2.5019606233
0
TEXT
8
0
62
2
6
CONTINUOUS
10
37.5593130938
20
1.2611246233
40
0.0625000000
1
ERTY OF KOHLER CO. 
51
0.0000190000
72
5
11
38.7468130938
21
1.2611246233
0
TEXT
8
0
62
2
6
CONTINUOUS
10
37.5593130938
20
0.8011246233
40
0.0625000000
1
ALL RIGHTS OF DESIGN
51
0.0000190000
72
5
11
38.8093130938
21
0.8011246233
0
TEXT
8
0
62
2
6
CONTINUOUS
10
37.5593130938
20
0.6861246233
40
0.0625000000
1
OR INVENTION ARE
51
0.0000190000
72
5
11
38.5593130938
21
0.6861246233
0
TEXT
8
0
62
2
6
CONTINUOUS
10
37.5593130938
20
0.5711246233
40
0.0625000000
1
RESERVED.
51
0.0000190000
72
5
11
38.1218130938
21
0.5711246233
0
TEXT
8
0
62
2
6
CONTINUOUS
10
37.5593130938
20
1.1492496233
40
0.0625000000
1
AND MAY NOT BE USED
51
0.0000190000
72
5
11
38.7468130938
21
1.1492496233
0
TEXT
8
0
62
2
6
CONTINUOUS
10
37.5593130938
20
1.0342496233
40
0.0625000000
1
EXCEPT IN CONNECTION
51
0.0000190000
72
5
11
38.8093130938
21
1.0342496233
0
TEXT
8
0
62
2
6
CONTINUOUS
10
37.5593130938
20
0.9161246233
40
0.0625000000
1
WITH KOHLER CO. WORK.
51
0.0000190000
72
5
11
38.8718130938
21
0.9161246233
0
TEXT
8
0
62
2
6
CONTINUOUS
10
38.9122750938
20
0.7861736233
40
0.0750000000
1
DWG. NO.
51
0.0000190000
72
5
11
39.3922750938
21
0.7861736233
0
TEXT
8
0
62
2
6
CONTINUOUS
10
38.9212160938
20
1.6398676233
40
0.0750000000
1
DESCRIPTION
51
0.0000190000
72
5
11
39.7874660938
21
1.6398676233
0
TEXT
8
0
62
2
6
CONTINUOUS
10
39.9419610938
20
2.9929976233
40
0.0750000000
1
DATE
51
0.0000190000
72
5
11
40.2689610938
21
2.9929976233
0
TEXT
8
0
62
2
6
CONTINUOUS
10
41.0032370938
20
3.0001426233
40
0.0750000000
1
CHECKED
51
0.0000190000
72
5
11
41.5229870938
21
3.0001426233
0
TEXT
8
0
62
2
6
CONTINUOUS
10
41.9881440938
20
2.9933096233
40
0.0750000000
1
DATE
51
0.0000190000
72
5
11
42.3151440938
21
2.9933096233
0
TEXT
8
0
62
2
6
CONTINUOUS
10
38.8974630938
20
3.3375566233
40
0.0750000000
1
APPROVED
51
0.0000190000
72
5
11
39.5394630938
21
3.3375566233
0
TEXT
8
0
62
2
6
CONTINUOUS
10
40.9992040938
20
3.3389096233
40
0.0750000000
1
DATE
51
0.0000190000
72
5
11
41.3262040938
21
3.3389096233
0
TEXT
8
0
62
2
6
CONTINUOUS
10
37.7001250938
20
3.2901876233
40
0.0750000000
1
TOLERANCES
51
0.0000190000
72
5
11
38.6226250938
21
3.2901876233
0
TEXT
8
0
62
2
6
CONTINUOUS
10
42.6980520938
20
3.3375416233
40
0.0750000000
1
SCALE
51
0.0000190000
72
5
11
43.0993000938
21
3.3375416233
0
TEXT
8
0
62
2
6
CONTINUOUS
10
37.9497250938
20
3.1495626233
40
0.0750000000
1
UNLESS
51
0.0000190000
72
5
11
38.4042250938
21
3.1495626233
0
TEXT
8
0
62
2
6
CONTINUOUS
10
37.8177250938
20
3.0089376233
40
0.0750000000
1
OTHERWISE
51
0.0000190000
72
5
11
38.5197250938
21
3.0089376233
0
TEXT
8
0
62
2
6
CONTINUOUS
10
37.8213250938
20
2.8683126233
40
0.0750000000
1
SPECIFIED
51
0.0000190000
72
5
11
38.5165750938
21
2.8683126233
0
TEXT
8
0
62
2
6
CONTINUOUS
10
33.1354690933
20
0.8020953155
40
0.0900000000
1
SHT
51
0.0000190000
72
5
11
33.3892700933
21
0.8020953155
0
TEXT
8
0
62
2
6
CONTINUOUS
10
33.7470951035
20
0.7951450199
40
0.0900000000
1
SYM
51
0.0000190000
72
5
11
34.0170951035
21
0.7951450199
0
TEXT
8
0
62
2
6
CONTINUOUS
10
34.4073731825
20
0.8020953155
40
0.0900000000
1
BY
51
0.0000190000
72
5
11
34.5819741825
21
0.8020953155
0
TEXT
8
0
62
2
6
CONTINUOUS
10
35.2578619021
20
0.8020953155
40
0.0900000000
1
DESCRIPTION
51
0.0000190000
72
5
11
36.2973619021
21
0.8020953155
0
TEXT
8
0
62
2
6
CONTINUOUS
10
36.9954357945
20
0.8090456110
40
0.0900000000
1
DATE
51
0.0000190000
72
5
11
37.3878357945
21
0.8090456110
0
TEXT
8
0
62
2
6
CONTINUOUS
10
34.0139380938
20
0.5795626233
40
0.0900000000
1
DWG REVISION RECORD
51
0.0000190000
72
5
11
36.3737380938
21
0.5795626233
0
TEXT
8
0
62
2
6
CONTINUOUS
10
41.9803760938
20
3.3329866233
40
0.0750000000
1
PLOT DATE
51
0.0000190000
72
5
11
42.6047510938
21
3.3329866233
0
TEXT
8
0
62
2
6
CONTINUOUS
10
41.7181310938
20
1.6528056233
40
0.0750000000
1
PART NAME
51
0.0000190000
72
5
11
42.2581310938
21
1.6528056233
0
TEXT
8
0
62
2
6
CONTINUOUS
10
41.0936250938
20
1.1517496233
40
0.2400000000
1
 
51
0.0000187240
72
5
11
41.2856250938
21
1.1517496233
0
TEXT
8
0
62
2
6
CONTINUOUS
10
42.9142710358
20
2.6658647036
40
0.2400000000
1
E
72
5
11
43.2022710358
21
2.6658647036
0
TEXT
8
0
6
CONTINUOUS
10
43.6500000000
20
2.0000000000
40
0.2500000000
1
A
72
5
11
43.8500000000
21
2.0000000000
0
TEXT
8
0
6
CONTINUOUS
10
43.6500000000
20
6.2500000000
40
0.2500000000
1
B
72
5
11
43.8500000000
21
6.2500000000
0
TEXT
8
0
6
CONTINUOUS
10
43.6500000000
20
10.5000000000
40
0.2500000000
1
C
72
5
11
43.8500000000
21
10.5000000000
0
TEXT
8
0
6
CONTINUOUS
10
43.6500000000
20
14.7500000000
40
0.2500000000
1
D
72
5
11
43.8500000000
21
14.7500000000
0
TEXT
8
0
6
CONTINUOUS
10
43.6500000000
20
19.0000000000
40
0.2500000000
1
E
72
5
11
43.8500000000
21
19.0000000000
0
TEXT
8
0
6
CONTINUOUS
10
43.6500000000
20
23.2500000000
40
0.2500000000
1
F
72
5
11
43.8500000000
21
23.2500000000
0
TEXT
8
0
6
CONTINUOUS
10
43.6500000000
20
27.5000000000
40
0.2500000000
1
G
72
5
11
43.8500000000
21
27.5000000000
0
TEXT
8
0
6
CONTINUOUS
10
43.6500000000
20
31.7500000000
40
0.2500000000
1
H
72
5
11
43.8500000000
21
31.7500000000
0
TEXT
8
0
6
CONTINUOUS
10
2.6500000000
20
0.1250000000
40
0.2500000000
1
8
72
5
11
2.8500000000
21
0.1250000000
0
TEXT
8
0
6
CONTINUOUS
10
8.1500000000
20
0.1250000000
40
0.2500000000
1
7
72
5
11
8.3500000000
21
0.1250000000
0
TEXT
8
0
6
CONTINUOUS
10
13.6500000000
20
0.1250000000
40
0.2500000000
1
6
72
5
11
13.8500000000
21
0.1250000000
0
TEXT
8
0
6
CONTINUOUS
10
19.1500000000
20
0.1250000000
40
0.2500000000
1
5
72
5
11
19.3500000000
21
0.1250000000
0
TEXT
8
0
6
CONTINUOUS
10
24.6500000000
20
0.1250000000
40
0.2500000000
1
4
72
5
11
24.8500000000
21
0.1250000000
0
TEXT
8
0
6
CONTINUOUS
10
30.1500000000
20
0.1250000000
40
0.2500000000
1
3
72
5
11
30.3500000000
21
0.1250000000
0
TEXT
8
0
6
CONTINUOUS
10
35.6500000000
20
0.1250000000
40
0.2500000000
1
2
72
5
11
35.8500000000
21
0.1250000000
0
TEXT
8
0
6
CONTINUOUS
10
41.1500000000
20
0.1250000000
40
0.2500000000
1
1
72
5
11
41.3500000000
21
0.1250000000
0
INSERT
8
DEFAULT_2
62
8
6
HIDDEN
2
C_ARROW_BL0
10
22.0000000000
20
33.6875000000
0
INSERT
8
DEFAULT_2
62
8
6
HIDDEN
2
C_ARROW_BL1
10
0.3120169847
20
17.0000000000
0
INSERT
8
DEFAULT_2
62
8
6
HIDDEN
2
C_ARROW_BL2
10
22.0000000000
20
0.3125000000
0
INSERT
8
DEFAULT_2
62
8
6
HIDDEN
2
C_ARROW_BL3
10
43.6878685885
20
17.0000000000
0
SOLID
8
0
62
2
6
CONTINUOUS
10
21.5115715041
20
13.8681572338
11
21.5115715041
21
13.9897922338
12
22.3672765039
22
13.9897922338
13
22.3672765039
23
13.9897922338
0
SOLID
8
0
62
2
6
CONTINUOUS
10
22.3672765039
20
13.9897922338
11
22.3672765039
21
13.8681572338
12
21.5115715041
22
13.8681572338
13
21.5115715041
23
13.8681572338
0
SOLID
8
0
62
2
6
CONTINUOUS
10
21.5115715041
20
13.5815447309
11
21.5115715041
21
13.6165247384
12
22.3672765039
22
13.6165247384
13
22.3672765039
23
13.6165247384
0
SOLID
8
0
62
2
6
CONTINUOUS
10
22.3672765039
20
13.6165247384
11
22.3672765039
21
13.5815447309
12
21.5115715041
22
13.5815447309
13
21.5115715041
23
13.5815447309
0
SOLID
8
0
62
2
6
CONTINUOUS
10
21.5582215041
20
14.0347922368
11
21.5582215041
21
14.0964422353
12
22.4139265039
22
14.0964422353
13
22.4139265039
23
14.0964422353
0
SOLID
8
0
62
2
6
CONTINUOUS
10
22.4139265039
20
14.0964422353
11
22.4139265039
21
14.0347922368
12
21.5582215041
22
14.0347922368
13
21.5582215041
23
14.0347922368
0
SOLID
8
0
62
2
6
CONTINUOUS
10
21.5582215041
20
14.1614372218
11
21.5582215041
21
14.2230797233
12
22.4139265039
22
14.2230797233
13
22.4139265039
23
14.2230797233
0
SOLID
8
0
62
2
6
CONTINUOUS
10
22.4139265039
20
14.2230797233
11
22.4139265039
21
14.1614372218
12
21.5582215041
22
14.1614372218
13
21.5582215041
23
14.1614372218
0
SOLID
8
0
62
2
6
CONTINUOUS
10
21.5582215041
20
14.2614197382
11
21.5582215041
21
14.3230622397
12
22.4139265039
22
14.3230622397
13
22.4139265039
23
14.3230622397
0
SOLID
8
0
62
2
6
CONTINUOUS
10
22.4139265039
20
14.3230622397
11
22.4139265039
21
14.2614197382
12
21.5582215041
22
14.2614197382
13
21.5582215041
23
14.2614197382
0
SOLID
8
0
62
2
6
CONTINUOUS
10
21.5582215041
20
14.3613947322
11
21.5582215041
21
14.4230447307
12
22.4139265039
22
14.4230447307
13
22.4139265039
23
14.4230447307
0
SOLID
8
0
62
2
6
CONTINUOUS
10
22.4139265039
20
14.4230447307
11
22.4139265039
21
14.3613947322
12
21.5582215041
22
14.3613947322
13
21.5582215041
23
14.3613947322
0
SOLID
8
0
62
2
6
CONTINUOUS
10
21.5582215041
20
14.4613772232
11
21.5582215041
21
14.5230272217
12
22.4139265039
22
14.5230272217
13
22.4139265039
23
14.5230272217
0
SOLID
8
0
62
2
6
CONTINUOUS
10
22.4139265039
20
14.5230272217
11
22.4139265039
21
14.4613772232
12
21.5582215041
22
14.4613772232
13
21.5582215041
23
14.4613772232
0
SOLID
8
0
62
2
6
CONTINUOUS
10
23.0997790037
20
13.8681572338
11
23.0997790037
21
13.9897922338
12
23.4427315036
22
13.9897922338
13
23.4427315036
23
13.9897922338
0
SOLID
8
0
62
2
6
CONTINUOUS
10
23.4427315036
20
13.9897922338
11
23.4427315036
21
13.8681572338
12
23.0997790037
22
13.8681572338
13
23.0997790037
23
13.8681572338
0
DIMENSION
8
0
62
2
6
CONTINUOUS
2
*D0
10
4.6572459143
20
17.5191233450
11
12.4913664700
21
17.3628733450
70
128
13
29.1572459143
23
17.3941233450
14
4.6572459143
24
17.3941233450
50
180.000000
0
DIMENSION
8
0
62
2
6
CONTINUOUS
2
*D1
10
16.9217084124
20
6.7787510168
11
16.9217084124
21
23.4696345955
70
128
13
17.0467084124
23
28.2787510168
14
17.0467084124
24
6.7787510168
50
270.000000
0
LINE
8
0
62
2
6
CONTINUOUS
10
43.5000000000
20
0.5000000000
11
37.5000000000
21
0.5000000000
0
LINE
8
0
62
2
6
CONTINUOUS
10
43.5000000000
20
0.5000000000
11
43.5000000000
21
3.7000000000
0
LINE
8
0
62
2
6
CONTINUOUS
10
43.5000000000
20
0.9300000000
11
38.8700000000
21
0.9300000000
0
LINE
8
0
62
2
6
CONTINUOUS
10
43.5000000000
20
1.6300000000
11
41.6500000000
21
1.6300000000
0
LINE
8
0
62
2
6
CONTINUOUS
10
38.8700000000
20
1.6300000000
11
37.5000000000
21
1.6300000000
0
LINE
8
0
62
2
6
CONTINUOUS
10
43.5000000000
20
1.7700000000
11
38.8700000000
21
1.7700000000
0
LINE
8
0
62
2
6
CONTINUOUS
10
43.5000000000
20
2.4300000000
11
38.8700000000
21
2.4300000000
0
LINE
8
0
62
2
6
CONTINUOUS
10
42.6600000000
20
2.6500000000
11
38.8700000000
21
2.6500000000
0
LINE
8
0
62
2
6
CONTINUOUS
10
43.5000000000
20
3.1200000000
11
38.8700000000
21
3.1200000000
0
LINE
8
0
62
2
6
CONTINUOUS
10
43.5000000000
20
3.4500000000
11
37.5000000000
21
3.4500000000
0
LINE
8
0
62
2
6
CONTINUOUS
10
43.5000000000
20
3.7000000000
11
37.5000000000
21
3.7000000000
0
LINE
8
0
62
2
6
CONTINUOUS
10
42.9900000000
20
0.5000000000
11
42.9900000000
21
0.9300000000
0
LINE
8
0
62
2
6
CONTINUOUS
10
42.6600000000
20
2.4300000000
11
42.6600000000
21
3.4500000000
0
LINE
8
0
62
2
6
CONTINUOUS
10
41.9400000000
20
2.6500000000
11
41.9400000000
21
3.4500000000
0
LINE
8
0
62
2
6
CONTINUOUS
10
41.6500000000
20
1.6300000000
11
41.6500000000
21
2.6500000000
0
LINE
8
0
62
2
6
CONTINUOUS
10
40.9700000000
20
2.6500000000
11
40.9700000000
21
3.4500000000
0
LINE
8
0
62
2
6
CONTINUOUS
10
39.8900000000
20
2.6500000000
11
39.8900000000
21
3.1200000000
0
LINE
8
0
62
2
6
CONTINUOUS
10
38.8700000000
20
0.5000000000
11
38.8700000000
21
3.4500000000
0
LINE
8
0
62
2
6
CONTINUOUS
10
37.5000000000
20
0.5000000000
11
37.5000000000
21
3.7000000000
0
TEXT
8
0
62
2
6
CONTINUOUS
10
43.0050000000
20
0.5500000000
40
0.1000000000
1
1
72
5
11
43.0850000000
21
0.5500000000
0
TEXT
8
0
62
2
6
CONTINUOUS
10
43.0850000000
20
0.5500000000
40
0.1000000000
1
 of 
72
5
11
43.4050000000
21
0.5500000000
0
TEXT
8
0
62
2
6
CONTINUOUS
10
43.4050000000
20
0.5500000000
40
0.1000000000
1
1
72
5
11
43.4850000000
21
0.5500000000
0
TEXT
8
0
62
2
6
CONTINUOUS
10
40.0660000000
20
0.5950000000
40
0.2400000000
1
1032928-7
72
5
11
41.7940000000
21
0.5950000000
0
TEXT
8
0
62
2
6
CONTINUOUS
10
39.5530000000
20
1.1600000000
40
0.2400000000
1
TEMPLATE, CUT-OUT
72
5
11
42.8170000000
21
1.1600000000
0
TEXT
8
0
62
2
6
CONTINUOUS
10
42.7400000000
20
1.6500000000
40
0.1000000000
1
1032928-7
72
5
11
43.4600000000
21
1.6500000000
0
TEXT
8
0
62
2
6
CONTINUOUS
10
37.5400000000
20
1.8300000000
40
0.1000000000
1
    ANG %%p 
72
5
11
38.3766666667
21
1.8300000000
0
TEXT
8
0
62
2
6
CONTINUOUS
10
38.3766666667
20
1.8300000000
40
0.1000000000
1
3.0
72
5
11
38.6166666667
21
1.8300000000
0
TEXT
8
0
62
2
6
CONTINUOUS
10
37.5400000000
20
2.0500000000
40
0.1000000000
1
     .X %%p
72
5
11
38.2966666667
21
2.0500000000
0
TEXT
8
0
62
2
6
CONTINUOUS
10
38.2966666667
20
2.0500000000
40
0.1000000000
1
 
72
5
11
38.3766666667
21
2.0500000000
0
TEXT
8
0
62
2
6
CONTINUOUS
10
38.3766666667
20
2.0500000000
40
0.1000000000
1
0.1
72
5
11
38.6166666667
21
2.0500000000
0
TEXT
8
0
62
2
6
CONTINUOUS
10
37.5400000000
20
2.2700000000
40
0.1000000000
1
    .XX %%p 
72
5
11
38.3766666667
21
2.2700000000
0
TEXT
8
0
62
2
6
CONTINUOUS
10
38.3766666667
20
2.2700000000
40
0.1000000000
1
0.02
72
5
11
38.6966666667
21
2.2700000000
0
TEXT
8
0
62
2
6
CONTINUOUS
10
37.5400000000
20
2.4900000000
40
0.1000000000
1
   .XXX %%p 
72
5
11
38.3766666667
21
2.4900000000
0
TEXT
8
0
62
2
6
CONTINUOUS
10
38.3766666667
20
2.4900000000
40
0.1000000000
1
0.010
72
5
11
38.7766666667
21
2.4900000000
0
TEXT
8
0
62
2
6
CONTINUOUS
10
42.2600000000
20
2.7000000000
40
0.1000000000
1
-
72
5
11
42.3400000000
21
2.7000000000
0
TEXT
8
0
62
2
6
CONTINUOUS
10
41.4150000000
20
2.7000000000
40
0.1000000000
1
-
72
5
11
41.4950000000
21
2.7000000000
0
TEXT
8
0
62
2
6
CONTINUOUS
10
40.1100000000
20
2.7000000000
40
0.1000000000
1
08.28.03
72
5
11
40.7500000000
21
2.7000000000
0
TEXT
8
0
62
2
6
CONTINUOUS
10
39.2600000000
20
2.7000000000
40
0.1000000000
1
DEL
72
5
11
39.5000000000
21
2.7000000000
0
TEXT
8
0
62
2
6
CONTINUOUS
10
42.8800000000
20
3.1700000000
40
0.1000000000
1
1.000
72
5
11
43.2800000000
21
3.1700000000
0
TEXT
8
0
62
2
6
CONTINUOUS
10
41.1350000000
20
3.1700000000
40
0.1000000000
1
08.28.03
72
5
11
41.7750000000
21
3.1700000000
0
TEXT
8
0
62
2
6
CONTINUOUS
10
39.4400000000
20
3.1700000000
40
0.1000000000
1
PAUL LEFEBER
72
5
11
40.4000000000
21
3.1700000000
0
TEXT
8
0
62
2
6
CONTINUOUS
10
38.1725000000
20
3.5250000000
40
0.1000000000
1
DIMENSIONING AND TOLERANCING PER ASME Y14.5M-1994
72
5
11
42.8275000000
21
3.5250000000
0
LINE
8
0
62
2
6
CONTINUOUS
10
37.5000000000
20
0.5000000000
11
33.0000000000
21
0.5000000000
0
LINE
8
0
62
2
6
CONTINUOUS
10
37.5000000000
20
0.5000000000
11
37.5000000000
21
3.7000000000
0
LINE
8
0
62
2
6
CONTINUOUS
10
37.5000000000
20
0.7600000000
11
33.0000000000
21
0.7600000000
0
LINE
8
0
62
2
6
CONTINUOUS
10
37.5000000000
20
1.0200000000
11
33.0000000000
21
1.0200000000
0
LINE
8
0
62
2
6
CONTINUOUS
10
37.5000000000
20
1.2630000000
11
33.0000000000
21
1.2630000000
0
LINE
8
0
62
2
6
CONTINUOUS
10
37.5000000000
20
1.5060000000
11
33.0000000000
21
1.5060000000
0
LINE
8
0
62
2
6
CONTINUOUS
10
37.5000000000
20
1.7490000000
11
33.0000000000
21
1.7490000000
0
LINE
8
0
62
2
6
CONTINUOUS
10
37.5000000000
20
1.9920000000
11
33.0000000000
21
1.9920000000
0
LINE
8
0
62
2
6
CONTINUOUS
10
37.5000000000
20
2.2350000000
11
33.0000000000
21
2.2350000000
0
LINE
8
0
62
2
6
CONTINUOUS
10
37.5000000000
20
2.4780000000
11
33.0000000000
21
2.4780000000
0
LINE
8
0
62
2
6
CONTINUOUS
10
37.5000000000
20
2.7210000000
11
33.0000000000
21
2.7210000000
0
LINE
8
0
62
2
6
CONTINUOUS
10
37.5000000000
20
2.9640000000
11
33.0000000000
21
2.9640000000
0
LINE
8
0
62
2
6
CONTINUOUS
10
37.5000000000
20
3.2070000000
11
33.0000000000
21
3.2070000000
0
LINE
8
0
62
2
6
CONTINUOUS
10
37.5000000000
20
3.4500000000
11
33.0000000000
21
3.4500000000
0
LINE
8
0
62
2
6
CONTINUOUS
10
37.5000000000
20
3.7000000000
11
33.0000000000
21
3.7000000000
0
LINE
8
0
62
2
6
CONTINUOUS
10
36.8500000000
20
0.7600000000
11
36.8500000000
21
3.4500000000
0
LINE
8
0
62
2
6
CONTINUOUS
10
34.7800000000
20
0.7600000000
11
34.7800000000
21
3.4500000000
0
LINE
8
0
62
2
6
CONTINUOUS
10
34.2200000000
20
0.7600000000
11
34.2200000000
21
3.4500000000
0
LINE
8
0
62
2
6
CONTINUOUS
10
33.5900000000
20
0.7600000000
11
33.5900000000
21
3.4500000000
0
LINE
8
0
62
2
6
CONTINUOUS
10
33.0000000000
20
0.5000000000
11
33.0000000000
21
3.7000000000
0
TEXT
8
0
62
2
6
CONTINUOUS
10
36.8550000000
20
1.0915000000
40
0.1000000000
1
08.23.04
72
5
11
37.4950000000
21
1.0915000000
0
TEXT
8
0
62
2
6
CONTINUOUS
10
35.1350000000
20
1.0915000000
40
0.1000000000
1
SEE PCI #P0405425
72
5
11
36.4950000000
21
1.0915000000
0
TEXT
8
0
62
2
6
CONTINUOUS
10
34.4200000000
20
1.0915000000
40
0.1000000000
1
RW
72
5
11
34.5800000000
21
1.0915000000
0
TEXT
8
0
62
2
6
CONTINUOUS
10
33.8650000000
20
1.0915000000
40
0.1000000000
1
A
72
5
11
33.9450000000
21
1.0915000000
0
TEXT
8
0
62
2
6
CONTINUOUS
10
33.2550000000
20
1.0915000000
40
0.1000000000
1
1
72
5
11
33.3350000000
21
1.0915000000
0
TEXT
8
0
62
2
6
CONTINUOUS
10
34.0625000000
20
3.5250000000
40
0.1000000000
1
ALL DIMENSIONS IN: INCHES
72
5
11
36.4375000000
21
3.5250000000
0
TEXT
8
0
62
2
6
CONTINUOUS
10
6.2656080567
20
23.7051963903
40
0.2083333333
1
WHEN PLOTTING TEMPLATE FULL SIZE: 
72
5
11
11.9322747233
21
23.7051963903
0
TEXT
8
0
62
2
6
CONTINUOUS
10
6.2656080567
20
23.3926963903
40
0.2083333333
1
Make sure horizontal and vertical dimensions 
72
5
11
13.7656080567
21
23.3926963903
0
TEXT
8
0
62
2
6
CONTINUOUS
10
6.2656080567
20
23.0801963903
40
0.2083333333
1
match the dimensions labeled on the template.
72
5
11
13.7656080567
21
23.0801963903
0
TEXT
8
0
62
2
6
CONTINUOUS
10
6.2656080567
20
22.7676963903
40
0.2083333333
1
 
72
5
11
6.4322747233
21
22.7676963903
0
TEXT
8
0
62
2
6
CONTINUOUS
10
6.2656080567
20
22.4551963903
40
0.2083333333
1
AL TRAZAR LA PLANTILLA A ESCALA,  
72
5
11
11.9322747233
21
22.4551963903
0
TEXT
8
0
62
2
6
CONTINUOUS
10
6.2656080567
20
22.1426963903
40
0.2083333333
1
asegúrese de que las dimensiones horizontales 
72
5
11
13.9322747233
21
22.1426963903
0
TEXT
8
0
62
2
6
CONTINUOUS
10
6.2656080567
20
21.8301963903
40
0.2083333333
1
y verticales concuerden con las dimensiones 
72
5
11
13.5989413900
21
21.8301963903
0
TEXT
8
0
62
2
6
CONTINUOUS
10
6.2656080567
20
21.5176963903
40
0.2083333333
1
marcadas en la plantilla.
72
5
11
10.4322747233
21
21.5176963903
0
TEXT
8
0
62
2
6
CONTINUOUS
10
6.2656080567
20
21.2051963903
40
0.2083333333
1
 
72
5
11
6.4322747233
21
21.2051963903
0
TEXT
8
0
62
2
6
CONTINUOUS
10
6.2656080567
20
20.8926963903
40
0.2083333333
1
AU MOMENT DE TRACER LA DÉCOUPE À L'ÉCHELLE,  
72
5
11
13.7656080567
21
20.8926963903
0
TEXT
8
0
62
2
6
CONTINUOUS
10
6.2656080567
20
20.5801963903
40
0.2083333333
1
Assurez vos que les dimensions horizotales et 
72
5
11
13.9322747233
21
20.5801963903
0
TEXT
8
0
62
2
6
CONTINUOUS
10
6.2656080567
20
20.2676963903
40
0.2083333333
1
verticales correspondent avec les dimensions 
72
5
11
13.7656080567
21
20.2676963903
0
TEXT
8
0
62
2
6
CONTINUOUS
10
6.2656080567
20
19.9551963903
40
0.2083333333
1
du plan.
72
5
11
7.5989413900
21
19.9551963903
0
SOLID
8
0
62
2
6
CONTINUOUS
10
4.6572459143
20
14.1940435761
11
4.7719535267
21
14.3456185613
12
4.8149125699
22
14.3002228500
13
4.8149125699
23
14.3002228500
0
TEXT
8
0
62
2
6
CONTINUOUS
10
6.0780602191
20
15.1978463802
40
0.2083333333
1
CUT ALONG THIS LINE
72
5
11
9.2447268858
21
15.1978463802
0
TEXT
8
0
62
2
6
CONTINUOUS
10
6.0780602191
20
14.8853463802
40
0.2083333333
1
CORTE A LO LARGO DE ESTA LÍNEA
72
5
11
11.0780602191
21
14.8853463802
0
TEXT
8
0
62
2
6
CONTINUOUS
10
6.0780602191
20
14.5728463802
40
0.2083333333
1
DÉCOUPEZ LE LONG DE CETTE LIGNE
72
5
11
11.2447268858
21
14.5728463802
0
SOLID
8
0
62
2
6
CONTINUOUS
10
4.4072459143
20
11.8770331291
11
4.5147907572
21
12.0337715075
12
4.5598115911
22
11.9904197542
13
4.5598115911
23
11.9904197542
0
TEXT
8
0
62
2
6
CONTINUOUS
10
5.8768228884
20
13.0393982229
40
0.2083333333
1
RIM OF LAVATORY
72
5
11
8.3768228884
21
13.0393982229
0
TEXT
8
0
62
2
6
CONTINUOUS
10
5.8768228884
20
12.7268982229
40
0.2083333333
1
REBORDE DEL LAVABO
72
5
11
8.8768228884
21
12.7268982229
0
TEXT
8
0
62
2
6
CONTINUOUS
10
5.8768228884
20
12.4143982229
40
0.2083333333
1
REBORD DU LAVABO
72
5
11
8.5434895551
21
12.4143982229
0
TEXT
8
0
62
2
6
CONTINUOUS
10
5.5588939990
20
6.1546318684
40
0.0940000000
1
1032928-7-A
72
5
11
6.3860939990
21
6.1546318684
0
TEXT
8
0
62
2
6
CONTINUOUS
10
5.5891163360
20
7.0764131491
40
0.0940000000
1
1032928-7-A
72
5
11
6.4163163360
21
7.0764131491
0
TEXT
8
0
62
2
6
CONTINUOUS
10
26.6751424991
20
7.0219664968
40
0.0474610000
1
C
72
5
11
26.7226034991
21
7.0219664968
0
TEXT
8
0
62
2
6
CONTINUOUS
10
26.7723830491
20
7.0065306283
40
0.0793120000
1
2004 KOHLER CO.
72
5
11
27.9620630491
21
7.0065306283
0
TEXT
8
0
62
2
6
CONTINUOUS
10
19.0482238902
20
23.4101612996
40
0.2500000000
1
CUT-OUT TEMPLATE
72
5
11
22.2482238902
21
23.4101612996
0
TEXT
8
0
62
2
6
CONTINUOUS
10
19.0482238902
20
23.0351612996
40
0.2500000000
1
25 X 22 SINGLE BOWL SINK
72
5
11
23.8482238902
21
23.0351612996
0
TEXT
8
0
62
2
6
CONTINUOUS
10
19.0482238902
20
22.6601612996
40
0.2500000000
1
PLANTILLA DE RECORTE
72
5
11
23.0482238902
21
22.6601612996
0
TEXT
8
0
62
2
6
CONTINUOUS
10
19.0482238902
20
22.2851612996
40
0.2500000000
1
25"X22" (63,5 CM X 55 CM) FREGADERO DE UNA PILA
72
5
11
28.4482238902
21
22.2851612996
0
TEXT
8
0
62
2
6
CONTINUOUS
10
19.0482238902
20
21.9101612996
40
0.2500000000
1
PLAN DE DÉCOUPE
72
5
11
22.0482238902
21
21.9101612996
0
TEXT
8
0
62
2
6
CONTINUOUS
10
19.0482238902
20
21.5351612996
40
0.2500000000
1
25"X22" (63,5 CM X 55 CM) ÉVIER Á UN BAC
72
5
11
27.0482238902
21
21.5351612996
0
TEXT
8
___NOTE
62
2
6
CONTINUOUS
10
20.5993675757
20
15.1451156883
40
0.1562506667
1
PACKAGING / UPC LABEL ON BOX
72
5
11
24.2243830423
21
15.1451156883
0
TEXT
8
___NOTE
62
2
6
CONTINUOUS
10
20.5993675757
20
14.9107396883
40
0.1562506667
1
ETIQUETA DE EMBALAJE / UPC EN LA CAJA
72
5
11
25.3493878423
21
14.9107396883
0
TEXT
8
___NOTE
62
2
6
CONTINUOUS
10
20.5993675757
20
14.6763636883
40
0.1562506667
1
ETIQUETTE D'EMBALLAGE / UPC SUR LA BOÎTE
72
5
11
25.7243894423
21
14.6763636883
0
TEXT
8
___NOTE
62
2
6
CONTINUOUS
10
20.5993675757
20
14.4419876883
40
0.1562506667
1

72
5
11
20.7243681090
21
14.4419876883
0
TEXT
8
___NOTE
62
2
6
CONTINUOUS
10
20.5993675757
20
14.2076116883
40
0.1562506667
1
 
72
5
11
20.7243681090
21
14.2076116883
0
TEXT
8
___NOTE
62
2
6
CONTINUOUS
10
20.5993675757
20
13.9732356883
40
0.1562506667
1
 
72
5
11
20.7243681090
21
13.9732356883
0
TEXT
8
___NOTE
62
2
6
CONTINUOUS
10
20.5993675757
20
13.7388596883
40
0.1562506667
1
 
72
5
11
20.7243681090
21
13.7388596883
0
TEXT
8
___NOTE
62
2
6
CONTINUOUS
10
20.5993675757
20
13.5044836883
40
0.1562506667
1
 
72
5
11
20.7243681090
21
13.5044836883
0
TEXT
8
___NOTE
62
2
6
CONTINUOUS
10
20.5993675757
20
13.2701076883
40
0.1562506667
1
The template and the label suffixes circled
72
5
11
25.9743905090
21
13.2701076883
0
TEXT
8
___NOTE
62
2
6
CONTINUOUS
10
20.5993675757
20
13.0357316883
40
0.1562506667
1
must match for proper cut-out.
72
5
11
24.3493835757
21
13.0357316883
0
TEXT
8
___NOTE
62
2
6
CONTINUOUS
10
20.5993675757
20
12.8013556883
40
0.1562506667
1
 
72
5
11
20.7243681090
21
12.8013556883
0
TEXT
8
___NOTE
62
2
6
CONTINUOUS
10
20.5993675757
20
12.5669796883
40
0.1562506667
1
A fin de realizar el corte apropiado, la 
72
5
11
25.7243894423
21
12.5669796883
0
TEXT
8
___NOTE
62
2
6
CONTINUOUS
10
20.5993675757
20
12.3326036883
40
0.1562506667
1
plantilla y los sufijos de la etiqueta 
72
5
11
25.4743883757
21
12.3326036883
0
TEXT
8
___NOTE
62
2
6
CONTINUOUS
10
20.5993675757
20
12.0982276883
40
0.1562506667
1
demarcados deben concordar.}
72
5
11
24.0993825090
21
12.0982276883
0
TEXT
8
___NOTE
62
2
6
CONTINUOUS
10
20.5993675757
20
11.8638516883
40
0.1562506667
1
 
72
5
11
20.7243681090
21
11.8638516883
0
TEXT
8
___NOTE
62
2
6
CONTINUOUS
10
20.5993675757
20
11.6294756883
40
0.1562506667
1
Afin de découper l'ouverture correctement, 
72
5
11
25.9743905090
21
11.6294756883
0
TEXT
8
___NOTE
62
2
6
CONTINUOUS
10
20.5993675757
20
11.3950996883
40
0.1562506667
1
le gabarit et les suffixes encerclés doivent 
72
5
11
26.2243915757
21
11.3950996883
0
TEXT
8
___NOTE
62
2
6
CONTINUOUS
10
20.5993675757
20
11.1607236883
40
0.1562506667
1
correspondre.}
72
5
11
22.3493750423
21
11.1607236883
0
TEXT
8
___NOTE
62
2
6
CONTINUOUS
10
21.6591115041
20
13.7140172339
40
0.0593587500
1
XXXXX-XX-X-XX
72
5
11
22.2964239651
21
13.7140172339
0
TEXT
8
___NOTE
62
2
6
CONTINUOUS
10
23.2930915037
20
13.5848522339
40
0.0445192500
1
xxxxxx-xx
72
5
11
23.5631536882
21
13.5848522339
0
LINE
8
0
62
7
6
CONTINUOUS
10
0.0000000000
20
0.0000000000
11
0.0000000000
21
34.0000000000
0
LINE
8
0
6
CONTINUOUS
10
0.5000000000
20
0.5000000000
11
0.5000000000
21
33.5000000000
0
LINE
8
0
62
2
6
CONTINUOUS
10
40.7602818411
20
2.1907086233
11
40.7756098411
21
2.1948156233
0
LINE
8
0
62
2
6
CONTINUOUS
10
40.7578090938
20
2.1907086233
11
40.7731370938
21
2.1948156233
0
LINE
8
0
62
2
6
CONTINUOUS
10
42.9968130938
20
2.1792496233
11
42.6530630938
21
2.1167496233
0
LINE
8
0
62
2
6
CONTINUOUS
10
39.9106400938
20
2.0321536233
11
39.8671840938
21
2.0252706233
0
LINE
8
0
62
2
6
CONTINUOUS
10
39.8237280938
20
2.2996376233
11
39.8671840938
21
2.3065206233
0
LINE
8
0
62
7
6
CONTINUOUS
10
0.0000000000
20
0.0000000000
11
44.0000000000
21
0.0000000000
0
LINE
8
0
6
CONTINUOUS
10
5.5000000000
20
0.0000000000
11
5.5000000000
21
0.5000000000
0
LINE
8
0
62
2
6
CONTINUOUS
10
39.8739770938
20
2.2392066233
11
39.8470360938
21
2.2367096233
0
LINE
8
0
6
CONTINUOUS
10
0.5000000000
20
0.5000000000
11
43.5000000000
21
0.5000000000
0
LINE
8
0
62
2
6
CONTINUOUS
10
40.8761840938
20
2.0252706233
11
40.7995600938
21
2.0252706233
0
LINE
8
0
62
2
6
CONTINUOUS
10
40.7244340938
20
2.0252706233
11
40.6574340938
21
2.0252706233
0
LINE
8
0
62
2
6
CONTINUOUS
10
40.6261840938
20
2.0252706233
11
40.4699340938
21
2.0252706233
0
LINE
8
0
62
2
6
CONTINUOUS
10
40.4386840938
20
2.0252706233
11
40.2824340938
21
2.0252706233
0
LINE
8
0
62
2
6
CONTINUOUS
10
40.2511840938
20
2.0252706233
11
40.1841840938
21
2.0252706233
0
LINE
8
0
62
2
6
CONTINUOUS
10
40.1060590938
20
2.0252706233
11
40.0390590938
21
2.0252706233
0
LINE
8
0
62
2
6
CONTINUOUS
10
39.7578090938
20
2.0252706233
11
39.6720070938
21
2.0252706233
0
LINE
8
0
62
2
6
CONTINUOUS
10
39.5748090938
20
2.0252706233
11
39.5078090938
21
2.0252706233
0
LINE
8
0
62
2
6
CONTINUOUS
10
41.9913430938
20
2.0386246233
11
42.3190390938
21
2.0386246233
0
LINE
8
0
62
2
6
CONTINUOUS
10
42.3694540938
20
2.0386246233
11
42.4221610938
21
2.0386246233
0
LINE
8
0
62
2
6
CONTINUOUS
10
42.4748670938
20
2.0386246233
11
43.0477630938
21
2.0386246233
0
LINE
8
0
62
2
6
CONTINUOUS
10
40.3494340938
20
2.0922706233
11
40.4386840938
21
2.0922706233
0
LINE
8
0
62
2
6
CONTINUOUS
10
40.5369340938
20
2.0922706233
11
40.6261840938
21
2.0922706233
0
LINE
8
0
62
2
6
CONTINUOUS
10
39.9857140938
20
2.0925846233
11
39.8739770938
21
2.0925846233
0
LINE
8
0
62
2
6
CONTINUOUS
10
40.7388680938
20
2.1346456233
11
40.7244340938
21
2.1346456233
0
LINE
8
0
62
2
6
CONTINUOUS
10
40.6261840938
20
2.1402086233
11
40.5369340938
21
2.1402086233
0
LINE
8
0
62
2
6
CONTINUOUS
10
40.1841840938
20
2.1480206233
11
40.1060590938
21
2.1480206233
0
LINE
8
0
62
2
6
CONTINUOUS
10
40.8407478411
20
2.1907086233
11
40.7244340938
21
2.1907086233
0
LINE
8
0
62
2
6
CONTINUOUS
10
40.5369340938
20
2.1915836233
11
40.6261840938
21
2.1915836233
0
LINE
8
0
62
2
6
CONTINUOUS
10
40.1060590938
20
2.2150206233
11
40.1841840938
21
2.2150206233
0
LINE
8
0
62
2
6
CONTINUOUS
10
39.8739770938
20
2.2392066233
11
39.7486540938
21
2.2392066233
0
LINE
8
0
62
2
6
CONTINUOUS
10
40.6261840938
20
2.2395206233
11
40.5369340938
21
2.2395206233
0
LINE
8
0
62
2
6
CONTINUOUS
10
40.7602818411
20
2.2520206233
11
40.6574340938
21
2.2520206233
0
LINE
8
0
62
2
6
CONTINUOUS
10
39.5078090938
20
2.3065206233
11
39.5748090938
21
2.3065206233
0
LINE
8
0
62
2
6
CONTINUOUS
10
39.6630570938
20
2.3065206233
11
39.7578090938
21
2.3065206233
0
LINE
8
0
62
2
6
CONTINUOUS
10
40.0390590938
20
2.3065206233
11
40.1060590938
21
2.3065206233
0
LINE
8
0
62
2
6
CONTINUOUS
10
40.1841840938
20
2.3065206233
11
40.2511840938
21
2.3065206233
0
LINE
8
0
62
2
6
CONTINUOUS
10
40.2824340938
20
2.3065206233
11
40.3494340938
21
2.3065206233
0
LINE
8
0
62
2
6
CONTINUOUS
10
40.4699340938
20
2.3065206233
11
40.6261840938
21
2.3065206233
0
LINE
8
0
62
2
6
CONTINUOUS
10
40.6574340938
20
2.3065206233
11
40.7614698411
21
2.3065206233
0
LINE
8
0
6
CONTINUOUS
10
43.5000000000
20
4.2500000000
11
44.0000000000
21
4.2500000000
0
LINE
8
0
62
2
6
CONTINUOUS
10
39.8470360938
20
2.0950816233
11
39.8739770938
21
2.0925846233
0
LINE
8
0
6
CONTINUOUS
10
11.0000000000
20
0.0000000000
11
11.0000000000
21
0.5000000000
0
LINE
8
0
62
2
6
CONTINUOUS
10
39.8671840938
20
2.0252706233
11
39.8237280938
21
2.0321536233
0
LINE
8
0
62
2
6
CONTINUOUS
10
39.8671840938
20
2.3065206233
11
39.9106400938
21
2.2996376233
0
LINE
8
0
62
2
6
CONTINUOUS
10
42.6530630938
20
1.9604996233
11
42.9968130938
21
1.8979996233
0
LINE
8
0
62
2
6
CONTINUOUS
10
40.7589970938
20
2.3065206233
11
40.7895600938
21
2.3009016233
0
LINE
8
0
62
2
6
CONTINUOUS
10
40.7614698411
20
2.3065206233
11
40.7920328411
21
2.3009016233
0
LINE
8
0
62
2
6
CONTINUOUS
10
40.7731370938
20
2.2479136233
11
40.7578090938
21
2.2520206233
0
LINE
8
0
62
2
6
CONTINUOUS
10
40.7756098411
20
2.2479136233
11
40.7602818411
21
2.2520206233
0
LINE
8
0
62
2
6
CONTINUOUS
10
39.9000010938
20
2.2318016233
11
39.8739770938
21
2.2392066233
0
POLYLINE
8
0
62
7
6
CONTINUOUS
66
1
70
0
0
VERTEX
8
0
62
7
6
CONTINUOUS
10
19.6944292637
20
24.1184896393
0
VERTEX
8
0
62
7
6
CONTINUOUS
10
19.6983268989
20
24.1197152461
0
VERTEX
8
0
62
7
6
CONTINUOUS
10
19.7001520197
20
24.1204122331
0
VERTEX
8
0
62
7
6
CONTINUOUS
10
19.7018972586
20
24.1211631712
0
VERTEX
8
0
62
7
6
CONTINUOUS
10
19.7051551468
20
24.1228201977
0
VERTEX
8
0
62
7
6
CONTINUOUS
10
19.7081262726
20
24.1246809402
0
VERTEX
8
0
62
7
6
CONTINUOUS
10
19.7108339255
20
24.1267447481
0
VERTEX
8
0
62
7
6
CONTINUOUS
10
19.7132980201
20
24.1290155741
0
VERTEX
8
0
62
7
6
CONTINUOUS
10
19.7155348479
20
24.1315020204
0
VERTEX
8
0
62
7
6
CONTINUOUS
10
19.7175569083
20
24.1342173536
0
VERTEX
8
0
62
7
6
CONTINUOUS
10
19.7193728515
20
24.1371795529
0
VERTEX
8
0
62
7
6
CONTINUOUS
10
19.7209875591
20
24.1404115057
0
VERTEX
8
0
62
7
6
CONTINUOUS
10
19.7224023724
20
24.1439415404
0
VERTEX
8
0
62
7
6
CONTINUOUS
10
19.7236154731
20
24.1478046305
0
VERTEX
8
0
62
7
6
CONTINUOUS
10
19.7246224208
20
24.1520449259
0
VERTEX
8
0
62
7
6
CONTINUOUS
10
19.7254168759
20
24.1567210769
0
VERTEX
8
0
62
7
6
CONTINUOUS
10
19.7259915956
20
24.1619181477
0
VERTEX
8
0
62
7
6
CONTINUOUS
10
19.7263399914
20
24.1677779275
0
VERTEX
8
0
62
7
6
CONTINUOUS
10
19.7264594056
20
24.1745961504
0
VERTEX
8
0
62
7
6
CONTINUOUS
10
19.7262959303
20
24.1897646393
0
SEQEND
0
LINE
8
0
6
CONTINUOUS
10
43.5000000000
20
8.5000000000
11
44.0000000000
21
8.5000000000
0
LINE
8
0
62
7
6
CONTINUOUS
10
22.0032473192
20
23.8510743615
11
21.9709792637
21
23.8364118615
0
POLYLINE
8
0
62
7
6
CONTINUOUS
66
1
70
0
0
VERTEX
8
0
62
7
6
CONTINUOUS
10
21.3856250970
20
24.1184896393
0
VERTEX
8
0
62
7
6
CONTINUOUS
10
21.3914840035
20
24.1211257672
0
VERTEX
8
0
62
7
6
CONTINUOUS
10
21.3966022078
20
24.1237838357
0
VERTEX
8
0
62
7
6
CONTINUOUS
10
21.4010715432
20
24.1264727169
0
VERTEX
8
0
62
7
6
CONTINUOUS
10
21.4049723187
20
24.1292040580
0
VERTEX
8
0
62
7
6
CONTINUOUS
10
21.4083743690
20
24.1319930759
0
VERTEX
8
0
62
7
6
CONTINUOUS
10
21.4113378450
20
24.1348595472
0
VERTEX
8
0
62
7
6
CONTINUOUS
10
21.4139015687
20
24.1378136436
0
VERTEX
8
0
62
7
6
CONTINUOUS
10
21.4161048974
20
24.1408740006
0
VERTEX
8
0
62
7
6
CONTINUOUS
10
21.4179873869
20
24.1440744654
0
VERTEX
8
0
62
7
6
CONTINUOUS
10
21.4195804585
20
24.1474584237
0
VERTEX
8
0
62
7
6
CONTINUOUS
10
21.4209080508
20
24.1510824809
0
VERTEX
8
0
62
7
6
CONTINUOUS
10
21.4219874262
20
24.1550230526
0
VERTEX
8
0
62
7
6
CONTINUOUS
10
21.4228302100
20
24.1593892659
0
VERTEX
8
0
62
7
6
CONTINUOUS
10
21.4234438175
20
24.1643511718
0
VERTEX
8
0
62
7
6
CONTINUOUS
10
21.4238338357
20
24.1702126418
0
VERTEX
8
0
62
7
6
CONTINUOUS
10
21.4240104490
20
24.1776626328
0
VERTEX
8
0
62
7
6
CONTINUOUS
10
21.4240306526
20
24.1845563060
0
VERTEX
8
0
62
7
6
CONTINUOUS
10
21.4240306526
20
24.3921632504
0
VERTEX
8
0
62
7
6
CONTINUOUS
10
21.4240150239
20
24.3985427140
0
VERTEX
8
0
62
7
6
CONTINUOUS
10
21.4238510756
20
24.4061775304
0
VERTEX
8
0
62
7
6
CONTINUOUS
10
21.4234753014
20
24.4121352394
0
VERTEX
8
0
62
7
6
CONTINUOUS
10
21.4228770400
20
24.4171552594
0
VERTEX
8
0
62
7
6
CONTINUOUS
10
21.4220511050
20
24.4215569357
0
VERTEX
8
0
62
7
6
CONTINUOUS
10
21.4209907688
20
24.4255169884
0
VERTEX
8
0
62
7
6
CONTINUOUS
10
21.4196852666
20
24.4291480037
0
VERTEX
8
0
62
7
6
CONTINUOUS
10
21.4181183257
20
24.4325284043
0
VERTEX
8
0
62
7
6
CONTINUOUS
10
21.4162670990
20
24.4357160318
0
VERTEX
8
0
62
7
6
CONTINUOUS
10
21.4141013383
20
24.4387550353
0
VERTEX
8
0
62
7
6
CONTINUOUS
10
21.4115827329
20
24.4416796865
0
VERTEX
8
0
62
7
6
CONTINUOUS
10
21.4086706196
20
24.4445110791
0
VERTEX
8
0
62
7
6
CONTINUOUS
10
21.4053295024
20
24.4472568065
0
VERTEX
8
0
62
7
6
CONTINUOUS
10
21.4015006272
20
24.4499364916
0
VERTEX
8
0
62
7
6
CONTINUOUS
10
21.3971156643
20
24.4525649413
0
VERTEX
8
0
62
7
6
CONTINUOUS
10
21.3920959522
20
24.4551531471
0
VERTEX
8
0
62
7
6
CONTINUOUS
10
21.3863514859
20
24.4577090837
0
SEQEND
0
POLYLINE
8
0
62
7
6
CONTINUOUS
66
1
70
0
0
VERTEX
8
0
62
7
6
CONTINUOUS
10
21.8682237081
20
24.4577090837
0
VERTEX
8
0
62
7
6
CONTINUOUS
10
21.8623663696
20
24.4551000219
0
VERTEX
8
0
62
7
6
CONTINUOUS
10
21.8572621444
20
24.4524571029
0
VERTEX
8
0
62
7
6
CONTINUOUS
10
21.8528157166
20
24.4497717334
0
VERTEX
8
0
62
7
6
CONTINUOUS
10
21.8489440315
20
24.4470320050
0
VERTEX
8
0
62
7
6
CONTINUOUS
10
21.8455751915
20
24.4442217975
0
VERTEX
8
0
62
7
6
CONTINUOUS
10
21.8440586658
20
24.4427827621
0
VERTEX
8
0
62
7
6
CONTINUOUS
10
21.8426476390
20
24.4413196460
0
VERTEX
8
0
62
7
6
CONTINUOUS
10
21.8401268762
20
24.4383199361
0
VERTEX
8
0
62
7
6
CONTINUOUS
10
21.8379678436
20
24.4351967207
0
VERTEX
8
0
62
7
6
CONTINUOUS
10
21.8361310650
20
24.4319121786
0
VERTEX
8
0
62
7
6
CONTINUOUS
10
21.8345857173
20
24.4284172550
0
VERTEX
8
0
62
7
6
CONTINUOUS
10
21.8333088665
20
24.4246470208
0
VERTEX
8
0
62
7
6
CONTINUOUS
10
21.8322845005
20
24.4205120583
0
VERTEX
8
0
62
7
6
CONTINUOUS
10
21.8315022632
20
24.4158808801
0
VERTEX
8
0
62
7
6
CONTINUOUS
10
21.8309556353
20
24.4105391977
0
VERTEX
8
0
62
7
6
CONTINUOUS
10
21.8306384798
20
24.4040744467
0
VERTEX
8
0
62
7
6
CONTINUOUS
10
21.8305326287
20
24.3953990191
0
VERTEX
8
0
62
7
6
CONTINUOUS
10
21.8305306526
20
24.1002729726
0
SEQEND
0
POLYLINE
8
0
62
7
6
CONTINUOUS
66
1
70
0
0
VERTEX
8
0
62
7
6
CONTINUOUS
10
21.3088292637
20
24.4577090837
0
VERTEX
8
0
62
7
6
CONTINUOUS
10
21.3047936885
20
24.4564315264
0
VERTEX
8
0
62
7
6
CONTINUOUS
10
21.3029082978
20
24.4557006140
0
VERTEX
8
0
62
7
6
CONTINUOUS
10
21.3011085595
20
24.4549108335
0
VERTEX
8
0
62
7
6
CONTINUOUS
10
21.2977565644
20
24.4531613847
0
VERTEX
8
0
62
7
6
CONTINUOUS
10
21.2947087161
20
24.4511883284
0
VERTEX
8
0
62
7
6
CONTINUOUS
10
21.2919396941
20
24.4489914766
0
VERTEX
8
0
62
7
6
CONTINUOUS
10
21.2894281946
20
24.4465652034
0
VERTEX
8
0
62
7
6
CONTINUOUS
10
21.2871572163
20
24.4438984214
0
VERTEX
8
0
62
7
6
CONTINUOUS
10
21.2851142334
20
24.4409745887
0
VERTEX
8
0
62
7
6
CONTINUOUS
10
21.2832912129
20
24.4377716492
0
VERTEX
8
0
62
7
6
CONTINUOUS
10
21.2816844513
20
24.4342617365
0
VERTEX
8
0
62
7
6
CONTINUOUS
10
21.2802942205
20
24.4304103528
0
VERTEX
8
0
62
7
6
CONTINUOUS
10
21.2791242179
20
24.4261744904
0
VERTEX
8
0
62
7
6
CONTINUOUS
10
21.2781808048
20
24.4214985646
0
VERTEX
8
0
62
7
6
CONTINUOUS
10
21.2774719626
20
24.4163053895
0
VERTEX
8
0
62
7
6
CONTINUOUS
10
21.2770057433
20
24.4104741291
0
VERTEX
8
0
62
7
6
CONTINUOUS
10
21.2767873946
20
24.4037753834
0
VERTEX
8
0
62
7
6
CONTINUOUS
10
21.2768102634
20
24.3955973332
0
SEQEND
0
POLYLINE
8
0
62
7
6
CONTINUOUS
66
1
70
0
0
VERTEX
8
0
62
7
6
CONTINUOUS
10
20.9443542637
20
24.4577090837
0
VERTEX
8
0
62
7
6
CONTINUOUS
10
20.9404419375
20
24.4565030399
0
VERTEX
8
0
62
7
6
CONTINUOUS
10
20.9368603435
20
24.4550788522
0
VERTEX
8
0
62
7
6
CONTINUOUS
10
20.9335916754
20
24.4534485597
0
VERTEX
8
0
62
7
6
CONTINUOUS
10
20.9306127485
20
24.4516190136
0
VERTEX
8
0
62
7
6
CONTINUOUS
10
20.9278998999
20
24.4495914539
0
VERTEX
8
0
62
7
6
CONTINUOUS
10
20.9254327752
20
24.4473626208
0
VERTEX
8
0
62
7
6
CONTINUOUS
10
20.9231945788
20
24.4449246959
0
VERTEX
8
0
62
7
6
CONTINUOUS
10
20.9211722552
20
24.4422652766
0
VERTEX
8
0
62
7
6
CONTINUOUS
10
20.9193565640
20
24.4393673292
0
VERTEX
8
0
62
7
6
CONTINUOUS
10
20.9177420264
20
24.4362090134
0
VERTEX
8
0
62
7
6
CONTINUOUS
10
20.9163267269
20
24.4327632071
0
VERTEX
8
0
62
7
6
CONTINUOUS
10
20.9151119712
20
24.4289964282
0
VERTEX
8
0
62
7
6
CONTINUOUS
10
20.9141017960
20
24.4248665736
0
VERTEX
8
0
62
7
6
CONTINUOUS
10
20.9133023172
20
24.4203182069
0
VERTEX
8
0
62
7
6
CONTINUOUS
10
20.9127208599
20
24.4152722003
0
VERTEX
8
0
62
7
6
CONTINUOUS
10
20.9123646891
20
24.4096001508
0
VERTEX
8
0
62
7
6
CONTINUOUS
10
20.9122386506
20
24.4030464648
0
VERTEX
8
0
62
7
6
CONTINUOUS
10
20.9123367834
20
24.3948713025
0
VERTEX
8
0
62
7
6
CONTINUOUS
10
20.9123655830
20
24.3934848302
0
VERTEX
8
0
62
7
6
CONTINUOUS
10
20.9124737081
20
24.3859049171
0
SEQEND
0
POLYLINE
8
0
62
7
6
CONTINUOUS
66
1
70
0
0
VERTEX
8
0
62
7
6
CONTINUOUS
10
21.1711417637
20
24.1184896393
0
VERTEX
8
0
62
7
6
CONTINUOUS
10
21.1751738605
20
24.1197063543
0
VERTEX
8
0
62
7
6
CONTINUOUS
10
21.1770576673
20
24.1204083740
0
VERTEX
8
0
62
7
6
CONTINUOUS
10
21.1788559539
20
24.1211702664
0
VERTEX
8
0
62
7
6
CONTINUOUS
10
21.1822038089
20
24.1228659428
0
VERTEX
8
0
62
7
6
CONTINUOUS
10
21.1852468665
20
24.1247875747
0
VERTEX
8
0
62
7
6
CONTINUOUS
10
21.1880109690
20
24.1269348684
0
VERTEX
8
0
62
7
6
CONTINUOUS
10
21.1905178863
20
24.1293131164
0
VERTEX
8
0
62
7
6
CONTINUOUS
10
21.1927850131
20
24.1319332204
0
VERTEX
8
0
62
7
6
CONTINUOUS
10
21.1948251815
20
24.1348116739
0
VERTEX
8
0
62
7
6
CONTINUOUS
10
21.1966466330
20
24.1379706020
0
VERTEX
8
0
62
7
6
CONTINUOUS
10
21.1982531782
20
24.1414380299
0
VERTEX
8
0
62
7
6
CONTINUOUS
10
21.1996445527
20
24.1452486642
0
VERTEX
8
0
62
7
6
CONTINUOUS
10
21.2008169735
20
24.1494457168
0
VERTEX
8
0
62
7
6
CONTINUOUS
10
21.2017639095
20
24.1540848790
0
VERTEX
8
0
62
7
6
CONTINUOUS
10
21.2024771323
20
24.1592431534
0
VERTEX
8
0
62
7
6
CONTINUOUS
10
21.2029482632
20
24.1650403892
0
VERTEX
8
0
62
7
6
CONTINUOUS
10
21.2031716063
20
24.1717023487
0
VERTEX
8
0
62
7
6
CONTINUOUS
10
21.2031528978
20
24.1798236193
0
SEQEND
0
POLYLINE
8
0
62
7
6
CONTINUOUS
66
1
70
0
0
VERTEX
8
0
62
7
6
CONTINUOUS
10
20.0009278748
20
24.1184896393
0
VERTEX
8
0
62
7
6
CONTINUOUS
10
20.0050378724
20
24.1197054893
0
VERTEX
8
0
62
7
6
CONTINUOUS
10
20.0069574739
20
24.1204065815
0
VERTEX
8
0
62
7
6
CONTINUOUS
10
20.0087902231
20
24.1211674124
0
VERTEX
8
0
62
7
6
CONTINUOUS
10
20.0122031025
20
24.1228605887
0
VERTEX
8
0
62
7
6
CONTINUOUS
10
20.0153044231
20
24.1247778736
0
VERTEX
8
0
62
7
6
CONTINUOUS
10
20.0181206186
20
24.1269182185
0
VERTEX
8
0
62
7
6
CONTINUOUS
10
20.0206741272
20
24.1292860615
0
VERTEX
8
0
62
7
6
CONTINUOUS
10
20.0229830828
20
24.1318913688
0
VERTEX
8
0
62
7
6
CONTINUOUS
10
20.0250611105
20
24.1347496300
0
VERTEX
8
0
62
7
6
CONTINUOUS
10
20.0269172736
20
24.1378818977
0
VERTEX
8
0
62
7
6
CONTINUOUS
10
20.0285562018
20
24.1413150274
0
VERTEX
8
0
62
7
6
CONTINUOUS
10
20.0299784143
20
24.1450823839
0
VERTEX
8
0
62
7
6
CONTINUOUS
10
20.0311808419
20
24.1492255019
0
VERTEX
8
0
62
7
6
CONTINUOUS
10
20.0321575626
20
24.1537977036
0
VERTEX
8
0
62
7
6
CONTINUOUS
10
20.0329008081
20
24.1588720861
0
VERTEX
8
0
62
7
6
CONTINUOUS
10
20.0334024324
20
24.1645607123
0
VERTEX
8
0
62
7
6
CONTINUOUS
10
20.0336565204
20
24.1710693057
0
VERTEX
8
0
62
7
6
CONTINUOUS
10
20.0336667972
20
24.1789129851
0
SEQEND
0
POLYLINE
8
0
62
7
6
CONTINUOUS
66
1
70
0
0
VERTEX
8
0
62
7
6
CONTINUOUS
10
20.3610487081
20
24.1184896393
0
VERTEX
8
0
62
7
6
CONTINUOUS
10
20.3651438582
20
24.1197014891
0
VERTEX
8
0
62
7
6
CONTINUOUS
10
20.3688753318
20
24.1211570246
0
VERTEX
8
0
62
7
6
CONTINUOUS
10
20.3722642458
20
24.1228422541
0
VERTEX
8
0
62
7
6
CONTINUOUS
10
20.3753370626
20
24.1247490127
0
VERTEX
8
0
62
7
6
CONTINUOUS
10
20.3781210600
20
24.1268761696
0
VERTEX
8
0
62
7
6
CONTINUOUS
10
20.3806393873
20
24.1292282073
0
VERTEX
8
0
62
7
6
CONTINUOUS
10
20.3829107461
20
24.1318152791
0
VERTEX
8
0
62
7
6
CONTINUOUS
10
20.3849491809
20
24.1346532220
0
VERTEX
8
0
62
7
6
CONTINUOUS
10
20.3867640246
20
24.1377636228
0
VERTEX
8
0
62
7
6
CONTINUOUS
10
20.3883600330
20
24.1411741048
0
VERTEX
8
0
62
7
6
CONTINUOUS
10
20.3897377189
20
24.1449191267
0
VERTEX
8
0
62
7
6
CONTINUOUS
10
20.3908938891
20
24.1490418267
0
VERTEX
8
0
62
7
6
CONTINUOUS
10
20.3918223905
20
24.1535980236
0
VERTEX
8
0
62
7
6
CONTINUOUS
10
20.3925151141
20
24.1586650812
0
VERTEX
8
0
62
7
6
CONTINUOUS
10
20.3929634264
20
24.1643634295
0
VERTEX
8
0
62
7
6
CONTINUOUS
10
20.3931606523
20
24.1709192313
0
VERTEX
8
0
62
7
6
CONTINUOUS
10
20.3931093303
20
24.1789232993
0
VERTEX
8
0
62
7
6
CONTINUOUS
10
20.3930526683
20
24.1817794189
0
VERTEX
8
0
62
7
6
CONTINUOUS
10
20.3929362081
20
24.1897646393
0
VERTEX
8
0
62
7
6
CONTINUOUS
10
20.3929362081
20
24.3859049171
0
VERTEX
8
0
62
7
6
CONTINUOUS
10
20.3930526683
20
24.3940277628
0
VERTEX
8
0
62
7
6
CONTINUOUS
10
20.3930997422
20
24.3963934097
0
VERTEX
8
0
62
7
6
CONTINUOUS
10
20.3931642245
20
24.4045778399
0
VERTEX
8
0
62
7
6
CONTINUOUS
10
20.3929814151
20
24.4112125668
0
VERTEX
8
0
62
7
6
CONTINUOUS
10
20.3925477737
20
24.4169570191
0
VERTEX
8
0
62
7
6
CONTINUOUS
10
20.3918694520
20
24.4220567519
0
VERTEX
8
0
62
7
6
CONTINUOUS
10
20.3909545790
20
24.4266403127
0
VERTEX
8
0
62
7
6
CONTINUOUS
10
20.3898107620
20
24.4307891166
0
VERTEX
8
0
62
7
6
CONTINUOUS
10
20.3884436635
20
24.4345611890
0
VERTEX
8
0
62
7
6
CONTINUOUS
10
20.3868560055
20
24.4380009227
0
VERTEX
8
0
62
7
6
CONTINUOUS
10
20.3850468272
20
24.4411435080
0
VERTEX
8
0
62
7
6
CONTINUOUS
10
20.3830109506
20
24.4440170100
0
VERTEX
8
0
62
7
6
CONTINUOUS
10
20.3807386445
20
24.4466433085
0
VERTEX
8
0
62
7
6
CONTINUOUS
10
20.3782154863
20
24.4490384768
0
VERTEX
8
0
62
7
6
CONTINUOUS
10
20.3754224061
20
24.4512129096
0
VERTEX
8
0
62
7
6
CONTINUOUS
10
20.3723358844
20
24.4531713789
0
VERTEX
8
0
62
7
6
CONTINUOUS
10
20.3689282542
20
24.4549131177
0
VERTEX
8
0
62
7
6
CONTINUOUS
10
20.3651732450
20
24.4564301293
0
VERTEX
8
0
62
7
6
CONTINUOUS
10
20.3610487081
20
24.4577090837
0
SEQEND
0
POLYLINE
8
0
62
7
6
CONTINUOUS
66
1
70
0
0
VERTEX
8
0
62
7
6
CONTINUOUS
10
20.8059542637
20
24.1184896393
0
VERTEX
8
0
62
7
6
CONTINUOUS
10
20.8100642901
20
24.1197054971
0
VERTEX
8
0
62
7
6
CONTINUOUS
10
20.8119839111
20
24.1204065951
0
VERTEX
8
0
62
7
6
CONTINUOUS
10
20.8138166814
20
24.1211674326
0
VERTEX
8
0
62
7
6
CONTINUOUS
10
20.8172296074
20
24.1228606244
0
VERTEX
8
0
62
7
6
CONTINUOUS
10
20.8203309835
20
24.1247779297
0
VERTEX
8
0
62
7
6
CONTINUOUS
10
20.8231472416
20
24.1269183002
0
VERTEX
8
0
62
7
6
CONTINUOUS
10
20.8257008187
20
24.1292861740
0
VERTEX
8
0
62
7
6
CONTINUOUS
10
20.8280098474
20
24.1318915167
0
VERTEX
8
0
62
7
6
CONTINUOUS
10
20.8300879522
20
24.1347498173
0
VERTEX
8
0
62
7
6
CONTINUOUS
10
20.8319441958
20
24.1378821276
0
VERTEX
8
0
62
7
6
CONTINUOUS
10
20.8335832075
20
24.1413153012
0
VERTEX
8
0
62
7
6
CONTINUOUS
10
20.8350055066
20
24.1450827010
0
VERTEX
8
0
62
7
6
CONTINUOUS
10
20.8362080240
20
24.1492258584
0
VERTEX
8
0
62
7
6
CONTINUOUS
10
20.8371848380
20
24.1537980909
0
VERTEX
8
0
62
7
6
CONTINUOUS
10
20.8379281811
20
24.1588724871
0
VERTEX
8
0
62
7
6
CONTINUOUS
10
20.8384299080
20
24.1645610938
0
VERTEX
8
0
62
7
6
CONTINUOUS
10
20.8386841047
20
24.1710695955
0
VERTEX
8
0
62
7
6
CONTINUOUS
10
20.8386944979
20
24.1789129714
0
SEQEND
0
LINE
8
0
6
CONTINUOUS
10
16.5000000000
20
0.0000000000
11
16.5000000000
21
0.5000000000
0
LINE
8
0
62
7
6
CONTINUOUS
10
19.9531028748
20
24.4629174171
11
19.9299237081
21
24.4009868615
0
LINE
8
0
62
7
6
CONTINUOUS
10
19.5741362081
20
24.4009868615
11
19.5995056526
21
24.4629174171
0
LINE
8
0
62
7
6
CONTINUOUS
10
20.3356917637
20
24.1850854726
11
20.3030862081
21
24.1169160282
0
LINE
8
0
62
7
6
CONTINUOUS
10
21.4068112081
20
23.9302563060
11
21.3581320414
21
23.8715410282
0
LINE
8
0
62
2
6
CONTINUOUS
10
39.8228150938
20
2.1071416233
11
39.8470360938
21
2.0950816233
0
LINE
8
0
62
2
6
CONTINUOUS
10
39.8237280938
20
2.0321536233
11
39.7845270938
21
2.0521276233
0
LINE
8
0
62
2
6
CONTINUOUS
10
39.9106400938
20
2.2996376233
11
39.9498410938
21
2.2796636233
0
LINE
8
0
62
7
6
CONTINUOUS
10
19.0562250970
20
23.9584007504
11
19.0562250970
21
24.5907382504
0
LINE
8
0
62
7
6
CONTINUOUS
10
19.0583487081
20
24.5951674171
11
19.0583487081
21
23.9809563060
0
POLYLINE
8
0
62
7
6
CONTINUOUS
66
1
70
0
0
VERTEX
8
0
62
7
6
CONTINUOUS
10
21.1649625970
20
23.8300507504
0
VERTEX
8
0
62
7
6
CONTINUOUS
10
21.2068737081
20
23.9330646393
0
VERTEX
8
0
62
7
6
CONTINUOUS
10
21.2076945414
20
23.9352201948
0
SEQEND
0
LINE
8
0
62
7
6
CONTINUOUS
10
21.2076945414
20
23.9143326948
11
21.1896820414
21
23.8701438060
0
LINE
8
0
62
7
6
CONTINUOUS
10
21.1414445414
20
24.1861021393
11
21.1037792637
21
24.1169160282
0
LINE
8
0
62
7
6
CONTINUOUS
10
22.5004389859
20
23.8730604726
11
22.5339403748
21
23.9304465837
0
LINE
8
0
62
7
6
CONTINUOUS
10
22.5254237081
20
23.9304465837
11
22.4964375970
21
23.8814285282
0
LINE
8
0
62
7
6
CONTINUOUS
10
22.0049292637
20
23.8530951948
11
22.0032473192
21
23.8510743615
0
LINE
8
0
6
CONTINUOUS
10
43.5000000000
20
12.7500000000
11
44.0000000000
21
12.7500000000
0
LINE
8
0
62
2
6
CONTINUOUS
10
23.6820715036
20
13.4907047339
11
21.4295065041
21
13.4907047339
0
LINE
8
0
62
2
6
CONTINUOUS
10
23.6479165036
20
13.5581222339
11
21.4628740041
21
13.5581222339
0
POLYLINE
8
0
62
7
6
CONTINUOUS
66
1
70
0
0
VERTEX
8
0
62
7
6
CONTINUOUS
10
20.0336667972
20
24.1789129851
0
VERTEX
8
0
62
7
6
CONTINUOUS
10
20.0335334303
20
24.1897646393
0
VERTEX
8
0
62
7
6
CONTINUOUS
10
20.0335334303
20
24.3859049171
0
SEQEND
0
LINE
8
0
62
7
6
CONTINUOUS
10
19.5198014859
20
24.4561424171
11
19.5198014859
21
24.3973660282
0
LINE
8
0
62
7
6
CONTINUOUS
10
19.6944292637
20
24.1169160282
11
19.6944292637
21
24.1184896393
0
LINE
8
0
62
7
6
CONTINUOUS
10
19.7262959303
20
24.1897646393
11
19.7262959303
21
24.4218132504
0
POLYLINE
8
0
62
7
6
CONTINUOUS
66
1
70
0
0
VERTEX
8
0
62
7
6
CONTINUOUS
10
19.8002098192
20
24.4218132504
0
VERTEX
8
0
62
7
6
CONTINUOUS
10
19.8002098192
20
24.1845563060
0
VERTEX
8
0
62
7
6
CONTINUOUS
10
19.8002177053
20
24.1773720133
0
VERTEX
8
0
62
7
6
CONTINUOUS
10
19.8003291000
20
24.1706501767
0
VERTEX
8
0
62
7
6
CONTINUOUS
10
19.8005894411
20
24.1653890268
0
VERTEX
8
0
62
7
6
CONTINUOUS
10
19.8010058183
20
24.1609438931
0
VERTEX
8
0
62
7
6
CONTINUOUS
10
19.8015809919
20
24.1570382781
0
VERTEX
8
0
62
7
6
CONTINUOUS
10
19.8023179175
20
24.1535205679
0
VERTEX
8
0
62
7
6
CONTINUOUS
10
19.8032211972
20
24.1502951351
0
VERTEX
8
0
62
7
6
CONTINUOUS
10
19.8042978657
20
24.1472959082
0
VERTEX
8
0
62
7
6
CONTINUOUS
10
19.8055579484
20
24.1444742749
0
VERTEX
8
0
62
7
6
CONTINUOUS
10
19.8070149059
20
24.1417928692
0
VERTEX
8
0
62
7
6
CONTINUOUS
10
19.8086860018
20
24.1392221054
0
VERTEX
8
0
62
7
6
CONTINUOUS
10
19.8105926142
20
24.1367381102
0
VERTEX
8
0
62
7
6
CONTINUOUS
10
19.8127605137
20
24.1343214068
0
VERTEX
8
0
62
7
6
CONTINUOUS
10
19.8152106994
20
24.1319644700
0
VERTEX
8
0
62
7
6
CONTINUOUS
10
19.8179707769
20
24.1296569721
0
VERTEX
8
0
62
7
6
CONTINUOUS
10
19.8210774987
20
24.1273862865
0
VERTEX
8
0
62
7
6
CONTINUOUS
10
19.8245727870
20
24.1251420664
0
VERTEX
8
0
62
7
6
CONTINUOUS
10
19.8285041304
20
24.1229157781
0
VERTEX
8
0
62
7
6
CONTINUOUS
10
19.8329250894
20
24.1207003100
0
VERTEX
8
0
62
7
6
CONTINUOUS
10
19.8378959303
20
24.1184896393
0
SEQEND
0
LINE
8
0
62
7
6
CONTINUOUS
10
19.8378959303
20
24.1184896393
11
19.8378959303
21
24.1169160282
0
LINE
8
0
62
7
6
CONTINUOUS
10
20.0009278748
20
24.1169160282
11
20.0009278748
21
24.1184896393
0
LINE
8
0
62
7
6
CONTINUOUS
10
20.0009278748
20
24.4577090837
11
20.0009278748
21
24.4592757504
0
LINE
8
0
62
7
6
CONTINUOUS
10
20.1074473192
20
24.4181785282
11
20.1074473192
21
24.3214035282
0
LINE
8
0
62
7
6
CONTINUOUS
10
20.1074473192
20
24.2839285282
11
20.1074473192
21
24.1606174171
0
LINE
8
0
62
7
6
CONTINUOUS
10
20.2277348192
20
24.3245160282
11
20.2277348192
21
24.2693743615
0
LINE
8
0
62
7
6
CONTINUOUS
10
20.2690348192
20
24.4618660282
11
20.2690348192
21
24.4009868615
0
LINE
8
0
62
7
6
CONTINUOUS
10
20.3610487081
20
24.1169160282
11
20.3610487081
21
24.1184896393
0
LINE
8
0
62
7
6
CONTINUOUS
10
20.3610487081
20
24.4577090837
11
20.3610487081
21
24.4592757504
0
POLYLINE
8
0
62
7
6
CONTINUOUS
66
1
70
0
0
VERTEX
8
0
62
7
6
CONTINUOUS
10
20.4668431526
20
24.4228507504
0
VERTEX
8
0
62
7
6
CONTINUOUS
10
20.4668431526
20
24.1897646393
0
VERTEX
8
0
62
7
6
CONTINUOUS
10
20.4667622328
20
24.1824508658
0
VERTEX
8
0
62
7
6
CONTINUOUS
10
20.4666979131
20
24.1775699601
0
VERTEX
8
0
62
7
6
CONTINUOUS
10
20.4667188140
20
24.1709190377
0
VERTEX
8
0
62
7
6
CONTINUOUS
10
20.4669165161
20
24.1653110250
0
VERTEX
8
0
62
7
6
CONTINUOUS
10
20.4672911891
20
24.1603588299
0
VERTEX
8
0
62
7
6
CONTINUOUS
10
20.4678388972
20
24.1558974395
0
VERTEX
8
0
62
7
6
CONTINUOUS
10
20.4685545364
20
24.1518356668
0
VERTEX
8
0
62
7
6
CONTINUOUS
10
20.4694329839
20
24.1481145754
0
VERTEX
8
0
62
7
6
CONTINUOUS
10
20.4704697792
20
24.1446918932
0
VERTEX
8
0
62
7
6
CONTINUOUS
10
20.4716616097
20
24.1415351069
0
VERTEX
8
0
62
7
6
CONTINUOUS
10
20.4730066835
20
24.1386180758
0
VERTEX
8
0
62
7
6
CONTINUOUS
10
20.4745050236
20
24.1359192724
0
VERTEX
8
0
62
7
6
CONTINUOUS
10
20.4761586912
20
24.1334208506
0
VERTEX
8
0
62
7
6
CONTINUOUS
10
20.4779719417
20
24.1311081626
0
VERTEX
8
0
62
7
6
CONTINUOUS
10
20.4799513117
20
24.1289695253
0
VERTEX
8
0
62
7
6
CONTINUOUS
10
20.4821056405
20
24.1269961192
0
VERTEX
8
0
62
7
6
CONTINUOUS
10
20.4844460298
20
24.1251819510
0
VERTEX
8
0
62
7
6
CONTINUOUS
10
20.4869857529
20
24.1235238326
0
VERTEX
8
0
62
7
6
CONTINUOUS
10
20.4897401282
20
24.1220213488
0
VERTEX
8
0
62
7
6
CONTINUOUS
10
20.4927263706
20
24.1206768016
0
VERTEX
8
0
62
7
6
CONTINUOUS
10
20.4959571708
20
24.1194971680
0
VERTEX
8
0
62
7
6
CONTINUOUS
10
20.4994487081
20
24.1184896393
0
SEQEND
0
LINE
8
0
62
7
6
CONTINUOUS
10
20.4994487081
20
24.1184896393
11
20.4994487081
21
24.1169160282
0
POLYLINE
8
0
62
7
6
CONTINUOUS
66
1
70
0
0
VERTEX
8
0
62
7
6
CONTINUOUS
10
20.0335334303
20
24.3859049171
0
VERTEX
8
0
62
7
6
CONTINUOUS
10
20.0336607559
20
24.3964196361
0
VERTEX
8
0
62
7
6
CONTINUOUS
10
20.0336634584
20
24.4044279453
0
VERTEX
8
0
62
7
6
CONTINUOUS
10
20.0334238040
20
24.4110118786
0
VERTEX
8
0
62
7
6
CONTINUOUS
10
20.0329369598
20
24.4167454251
0
VERTEX
8
0
62
7
6
CONTINUOUS
10
20.0322082470
20
24.4218520912
0
VERTEX
8
0
62
7
6
CONTINUOUS
10
20.0312452696
20
24.4264516111
0
VERTEX
8
0
62
7
6
CONTINUOUS
10
20.0300552718
20
24.4306209732
0
VERTEX
8
0
62
7
6
CONTINUOUS
10
20.0286436708
20
24.4344156382
0
VERTEX
8
0
62
7
6
CONTINUOUS
10
20.0270130545
20
24.4378783622
0
VERTEX
8
0
62
7
6
CONTINUOUS
10
20.0251624488
20
24.4410432222
0
VERTEX
8
0
62
7
6
CONTINUOUS
10
20.0230867961
20
24.4439375011
0
VERTEX
8
0
62
7
6
CONTINUOUS
10
20.0207766310
20
24.4465825314
0
VERTEX
8
0
62
7
6
CONTINUOUS
10
20.0182179470
20
24.4489940249
0
VERTEX
8
0
62
7
6
CONTINUOUS
10
20.0153922405
20
24.4511821738
0
VERTEX
8
0
62
7
6
CONTINUOUS
10
20.0122767028
20
24.4531516880
0
VERTEX
8
0
62
7
6
CONTINUOUS
10
20.0088445135
20
24.4549018625
0
VERTEX
8
0
62
7
6
CONTINUOUS
10
20.0070003050
20
24.4556930198
0
VERTEX
8
0
62
7
6
CONTINUOUS
10
20.0050679813
20
24.4564257249
0
VERTEX
8
0
62
7
6
CONTINUOUS
10
20.0009278748
20
24.4577090837
0
SEQEND
0
LINE
8
0
62
7
6
CONTINUOUS
10
22.2087862081
20
23.9359257504
11
22.1721653748
21
23.8455674171
0
LINE
8
0
62
7
6
CONTINUOUS
10
22.1721653748
20
23.8252215837
11
22.2064264859
21
23.9097493615
0
POLYLINE
8
0
62
7
6
CONTINUOUS
66
1
70
0
0
VERTEX
8
0
62
7
6
CONTINUOUS
10
22.2723445414
20
23.8300507504
0
VERTEX
8
0
62
7
6
CONTINUOUS
10
22.3142278748
20
23.9330646393
0
VERTEX
8
0
62
7
6
CONTINUOUS
10
22.3150820414
20
23.9352201948
0
SEQEND
0
LINE
8
0
62
7
6
CONTINUOUS
10
22.3150820414
20
23.9143868615
11
22.2970570414
21
23.8701438060
0
LINE
8
0
62
2
6
CONTINUOUS
10
21.4628740041
20
14.5511522337
11
23.6479165036
21
14.5511522337
0
LINE
8
0
62
2
6
CONTINUOUS
10
21.4295065041
20
14.5836122337
11
23.6820715036
21
14.5836122337
0
LINE
8
0
62
2
6
CONTINUOUS
10
40.7895600938
20
2.3009016233
11
40.8161270938
21
2.2847806233
0
LINE
8
0
62
2
6
CONTINUOUS
10
40.7920328411
20
2.3009016233
11
40.8185998411
21
2.2847806233
0
POLYLINE
8
0
62
7
6
CONTINUOUS
66
1
70
0
0
VERTEX
8
0
62
7
6
CONTINUOUS
10
21.2031528978
20
24.1798236193
0
VERTEX
8
0
62
7
6
CONTINUOUS
10
21.2030292637
20
24.1897646393
0
VERTEX
8
0
62
7
6
CONTINUOUS
10
21.2030292637
20
24.3859049171
0
VERTEX
8
0
62
7
6
CONTINUOUS
10
21.2031459100
20
24.3940161317
0
VERTEX
8
0
62
7
6
CONTINUOUS
10
21.2031938019
20
24.3964110966
0
VERTEX
8
0
62
7
6
CONTINUOUS
10
21.2032589251
20
24.4045930261
0
VERTEX
8
0
62
7
6
CONTINUOUS
10
21.2030766175
20
24.4112256323
0
VERTEX
8
0
62
7
6
CONTINUOUS
10
21.2026434089
20
24.4169681571
0
VERTEX
8
0
62
7
6
CONTINUOUS
10
21.2019654726
20
24.4220661319
0
VERTEX
8
0
62
7
6
CONTINUOUS
10
21.2010509444
20
24.4266481028
0
VERTEX
8
0
62
7
6
CONTINUOUS
10
21.1999074301
20
24.4307954853
0
VERTEX
8
0
62
7
6
CONTINUOUS
10
21.1985405859
20
24.4345663039
0
VERTEX
8
0
62
7
6
CONTINUOUS
10
21.1969531226
20
24.4380049483
0
VERTEX
8
0
62
7
6
CONTINUOUS
10
21.1951440650
20
24.4411466033
0
VERTEX
8
0
62
7
6
CONTINUOUS
10
21.1931082168
20
24.4440193262
0
VERTEX
8
0
62
7
6
CONTINUOUS
10
21.1908358262
20
24.4466449865
0
VERTEX
8
0
62
7
6
CONTINUOUS
10
21.1883124469
20
24.4490396454
0
VERTEX
8
0
62
7
6
CONTINUOUS
10
21.1855189837
20
24.4512136838
0
VERTEX
8
0
62
7
6
CONTINUOUS
10
21.1824318901
20
24.4531718591
0
VERTEX
8
0
62
7
6
CONTINUOUS
10
21.1790234709
20
24.4549133886
0
VERTEX
8
0
62
7
6
CONTINUOUS
10
21.1752675129
20
24.4564302306
0
VERTEX
8
0
62
7
6
CONTINUOUS
10
21.1711417637
20
24.4577090837
0
SEQEND
0
POLYLINE
8
0
62
7
6
CONTINUOUS
66
1
70
0
0
VERTEX
8
0
62
7
6
CONTINUOUS
10
21.2768102634
20
24.3955973332
0
VERTEX
8
0
62
7
6
CONTINUOUS
10
21.2769292637
20
24.3859049171
0
VERTEX
8
0
62
7
6
CONTINUOUS
10
21.2769292637
20
24.1897646393
0
SEQEND
0
POLYLINE
8
0
62
7
6
CONTINUOUS
66
1
70
0
0
VERTEX
8
0
62
7
6
CONTINUOUS
10
20.8386944979
20
24.1789129714
0
VERTEX
8
0
62
7
6
CONTINUOUS
10
20.8385612081
20
24.1897646393
0
VERTEX
8
0
62
7
6
CONTINUOUS
10
20.8385612081
20
24.3859049171
0
SEQEND
0
LINE
8
0
62
7
6
CONTINUOUS
10
20.8059542637
20
24.1169160282
11
20.8059542637
21
24.1184896393
0
LINE
8
0
62
7
6
CONTINUOUS
10
20.8059542637
20
24.4577090837
11
20.8059542637
21
24.4592757504
0
LINE
8
0
62
7
6
CONTINUOUS
10
20.9124737081
20
24.3859049171
11
20.9124737081
21
24.1590701948
0
LINE
8
0
62
7
6
CONTINUOUS
10
20.9443542637
20
24.4592757504
11
20.9443542637
21
24.4577090837
0
LINE
8
0
62
7
6
CONTINUOUS
10
21.1711417637
20
24.1169160282
11
21.1711417637
21
24.1184896393
0
LINE
8
0
62
7
6
CONTINUOUS
10
21.1711417637
20
24.4577090837
11
21.1711417637
21
24.4592757504
0
POLYLINE
8
0
62
7
6
CONTINUOUS
66
1
70
0
0
VERTEX
8
0
62
7
6
CONTINUOUS
10
21.2975723192
20
23.8069382504
0
VERTEX
8
0
62
7
6
CONTINUOUS
10
21.2975723192
20
23.9303104726
0
VERTEX
8
0
62
7
6
CONTINUOUS
10
21.3312903748
20
23.9303104726
0
VERTEX
8
0
62
7
6
CONTINUOUS
10
21.3312903748
20
23.8933507504
0
VERTEX
8
0
62
7
6
CONTINUOUS
10
21.3310264859
20
23.8933507504
0
VERTEX
8
0
62
7
6
CONTINUOUS
10
21.3631306526
20
23.9302563060
0
VERTEX
8
0
62
7
6
CONTINUOUS
10
21.4068112081
20
23.9302563060
0
SEQEND
0
LINE
8
0
62
7
6
CONTINUOUS
10
21.3088292637
20
24.4592757504
11
21.3088292637
21
24.4577090837
0
LINE
8
0
62
7
6
CONTINUOUS
10
21.3088292637
20
24.1184896393
11
21.3088292637
21
24.1169160282
0
LINE
8
0
62
7
6
CONTINUOUS
10
21.3856250970
20
24.1169160282
11
21.3856250970
21
24.1184896393
0
LINE
8
0
62
7
6
CONTINUOUS
10
21.3863514859
20
24.4577090837
11
21.3863514859
21
24.4592757504
0
LINE
8
0
62
2
6
CONTINUOUS
10
21.4295065041
20
13.4907047339
11
21.4295065041
21
14.5836122337
0
LINE
8
0
62
2
6
CONTINUOUS
10
21.4628740041
20
13.5581222339
11
21.4628740041
21
14.5511522337
0
POLYLINE
8
0
62
7
6
CONTINUOUS
66
1
70
0
0
VERTEX
8
0
62
7
6
CONTINUOUS
10
21.4762084303
20
24.3859049171
0
VERTEX
8
0
62
7
6
CONTINUOUS
10
21.4762084303
20
24.1845563060
0
VERTEX
8
0
62
7
6
CONTINUOUS
10
21.4762272336
20
24.1759869797
0
VERTEX
8
0
62
7
6
CONTINUOUS
10
21.4763558443
20
24.1699939600
0
VERTEX
8
0
62
7
6
CONTINUOUS
10
21.4766194650
20
24.1651594731
0
VERTEX
8
0
62
7
6
CONTINUOUS
10
21.4770227753
20
24.1610094977
0
VERTEX
8
0
62
7
6
CONTINUOUS
10
21.4775678596
20
24.1573257254
0
VERTEX
8
0
62
7
6
CONTINUOUS
10
21.4782570243
20
24.1539840318
0
VERTEX
8
0
62
7
6
CONTINUOUS
10
21.4790938044
20
24.1509044369
0
VERTEX
8
0
62
7
6
CONTINUOUS
10
21.4800835267
20
24.1480309298
0
VERTEX
8
0
62
7
6
CONTINUOUS
10
21.4812337116
20
24.1453219276
0
VERTEX
8
0
62
7
6
CONTINUOUS
10
21.4825543896
20
24.1427452579
0
VERTEX
8
0
62
7
6
CONTINUOUS
10
21.4840583614
20
24.1402753097
0
VERTEX
8
0
62
7
6
CONTINUOUS
10
21.4857614114
20
24.1378913150
0
VERTEX
8
0
62
7
6
CONTINUOUS
10
21.4876824903
20
24.1355762536
0
VERTEX
8
0
62
7
6
CONTINUOUS
10
21.4887321402
20
24.1344395467
0
VERTEX
8
0
62
7
6
CONTINUOUS
10
21.4898438791
20
24.1333161127
0
VERTEX
8
0
62
7
6
CONTINUOUS
10
21.4922607349
20
24.1311084380
0
VERTEX
8
0
62
7
6
CONTINUOUS
10
21.4949588875
20
24.1289432181
0
VERTEX
8
0
62
7
6
CONTINUOUS
10
21.4979688035
20
24.1268113601
0
VERTEX
8
0
62
7
6
CONTINUOUS
10
21.5013247423
20
24.1247054830
0
VERTEX
8
0
62
7
6
CONTINUOUS
10
21.5050649982
20
24.1226196186
0
VERTEX
8
0
62
7
6
CONTINUOUS
10
21.5092322045
20
24.1205489585
0
VERTEX
8
0
62
7
6
CONTINUOUS
10
21.5138737081
20
24.1184896393
0
SEQEND
0
LINE
8
0
62
7
6
CONTINUOUS
10
21.4921389859
20
24.4592757504
11
21.4921389859
21
24.4587465837
0
LINE
8
0
62
7
6
CONTINUOUS
10
21.5138737081
20
24.1184896393
11
21.5138737081
21
24.1169160282
0
POLYLINE
8
0
62
7
6
CONTINUOUS
66
1
70
0
0
VERTEX
8
0
62
7
6
CONTINUOUS
10
21.5247112081
20
23.8069382504
0
VERTEX
8
0
62
7
6
CONTINUOUS
10
21.5247112081
20
23.9303104726
0
VERTEX
8
0
62
7
6
CONTINUOUS
10
21.5583750970
20
23.9303104726
0
VERTEX
8
0
62
7
6
CONTINUOUS
10
21.5583750970
20
23.8870438060
0
VERTEX
8
0
62
7
6
CONTINUOUS
10
21.5924195414
20
23.8870438060
0
VERTEX
8
0
62
7
6
CONTINUOUS
10
21.5924195414
20
23.9303104726
0
VERTEX
8
0
62
7
6
CONTINUOUS
10
21.6260764859
20
23.9303104726
0
SEQEND
0
POLYLINE
8
0
62
7
6
CONTINUOUS
66
1
70
0
0
VERTEX
8
0
62
7
6
CONTINUOUS
10
21.6260764859
20
23.9303104726
0
VERTEX
8
0
62
7
6
CONTINUOUS
10
21.6260764859
20
23.8069382504
0
VERTEX
8
0
62
7
6
CONTINUOUS
10
21.5924195414
20
23.8069382504
0
VERTEX
8
0
62
7
6
CONTINUOUS
10
21.5924195414
20
23.8528368615
0
VERTEX
8
0
62
7
6
CONTINUOUS
10
21.5583750970
20
23.8528368615
0
VERTEX
8
0
62
7
6
CONTINUOUS
10
21.5583750970
20
23.8069382504
0
VERTEX
8
0
62
7
6
CONTINUOUS
10
21.5247112081
20
23.8069382504
0
SEQEND
0
POLYLINE
8
0
62
7
6
CONTINUOUS
66
1
70
0
0
VERTEX
8
0
62
7
6
CONTINUOUS
10
21.6358417637
20
23.8069382504
0
VERTEX
8
0
62
7
6
CONTINUOUS
10
21.6358417637
20
23.9303104726
0
VERTEX
8
0
62
7
6
CONTINUOUS
10
21.6695612081
20
23.9303104726
0
SEQEND
0
POLYLINE
8
0
62
7
6
CONTINUOUS
66
1
70
0
0
VERTEX
8
0
62
7
6
CONTINUOUS
10
21.6695612081
20
23.9303104726
0
VERTEX
8
0
62
7
6
CONTINUOUS
10
21.6695612081
20
23.8384326948
0
VERTEX
8
0
62
7
6
CONTINUOUS
10
21.7074167637
20
23.8384326948
0
VERTEX
8
0
62
7
6
CONTINUOUS
10
21.7074167637
20
23.8069382504
0
SEQEND
0
LINE
8
0
62
7
6
CONTINUOUS
10
21.7163403748
20
23.8069382504
11
21.7163403748
21
23.9303104726
0
LINE
8
0
62
7
6
CONTINUOUS
10
21.7406875970
20
24.4577090837
11
21.7406875970
21
24.4592757504
0
POLYLINE
8
0
62
7
6
CONTINUOUS
66
1
70
0
0
VERTEX
8
0
62
7
6
CONTINUOUS
10
21.7847681526
20
23.9303104726
0
VERTEX
8
0
62
7
6
CONTINUOUS
10
21.7847681526
20
23.9018688060
0
VERTEX
8
0
62
7
6
CONTINUOUS
10
21.7509000970
20
23.9018146393
0
VERTEX
8
0
62
7
6
CONTINUOUS
10
21.7507514859
20
23.8823507504
0
VERTEX
8
0
62
7
6
CONTINUOUS
10
21.7820556526
20
23.8823507504
0
VERTEX
8
0
62
7
6
CONTINUOUS
10
21.7820556526
20
23.8547090837
0
VERTEX
8
0
62
7
6
CONTINUOUS
10
21.7508459303
20
23.8547090837
0
VERTEX
8
0
62
7
6
CONTINUOUS
10
21.7508459303
20
23.8358826948
0
VERTEX
8
0
62
7
6
CONTINUOUS
10
21.7850264859
20
23.8358826948
0
VERTEX
8
0
62
7
6
CONTINUOUS
10
21.7850264859
20
23.8069382504
0
SEQEND
0
LINE
8
0
62
7
6
CONTINUOUS
10
21.7939375970
20
23.8070201948
11
21.7939375970
21
23.9303104726
0
LINE
8
0
62
7
6
CONTINUOUS
10
21.8268695414
20
23.9017326948
11
21.8268695414
21
23.8779701948
0
LINE
8
0
62
7
6
CONTINUOUS
10
21.8269237081
20
23.8447938060
11
21.8269237081
21
23.8070201948
0
LINE
8
0
62
7
6
CONTINUOUS
10
21.8682237081
20
24.4592757504
11
21.8682237081
21
24.4577090837
0
LINE
8
0
62
7
6
CONTINUOUS
10
22.0049292637
20
23.8505451948
11
22.0049292637
21
23.8530951948
0
LINE
8
0
62
7
6
CONTINUOUS
10
22.0049292637
20
23.9067785282
11
22.0049292637
21
23.9179813060
0
POLYLINE
8
0
62
7
6
CONTINUOUS
66
1
70
0
0
VERTEX
8
0
62
7
6
CONTINUOUS
10
21.7783667637
20
24.1949590837
0
VERTEX
8
0
62
7
6
CONTINUOUS
10
21.7783675038
20
24.3943750930
0
VERTEX
8
0
62
7
6
CONTINUOUS
10
21.7783309417
20
24.4021584906
0
VERTEX
8
0
62
7
6
CONTINUOUS
10
21.7781756332
20
24.4077899936
0
VERTEX
8
0
62
7
6
CONTINUOUS
10
21.7778861776
20
24.4124143238
0
VERTEX
8
0
62
7
6
CONTINUOUS
10
21.7774591773
20
24.4164172693
0
VERTEX
8
0
62
7
6
CONTINUOUS
10
21.7768928589
20
24.4199872950
0
VERTEX
8
0
62
7
6
CONTINUOUS
10
21.7761849887
20
24.4232351354
0
VERTEX
8
0
62
7
6
CONTINUOUS
10
21.7753320322
20
24.4262336549
0
VERTEX
8
0
62
7
6
CONTINUOUS
10
21.7743286513
20
24.4290346128
0
VERTEX
8
0
62
7
6
CONTINUOUS
10
21.7731673339
20
24.4316768104
0
VERTEX
8
0
62
7
6
CONTINUOUS
10
21.7718380972
20
24.4341904586
0
VERTEX
8
0
62
7
6
CONTINUOUS
10
21.7703282451
20
24.4365996920
0
VERTEX
8
0
62
7
6
CONTINUOUS
10
21.7686221667
20
24.4389241017
0
VERTEX
8
0
62
7
6
CONTINUOUS
10
21.7667011660
20
24.4411797222
0
VERTEX
8
0
62
7
6
CONTINUOUS
10
21.7656527181
20
24.4422865845
0
VERTEX
8
0
62
7
6
CONTINUOUS
10
21.7645433078
20
24.4433797038
0
VERTEX
8
0
62
7
6
CONTINUOUS
10
21.7621347405
20
24.4455252257
0
VERTEX
8
0
62
7
6
CONTINUOUS
10
21.7594492066
20
24.4476265395
0
VERTEX
8
0
62
7
6
CONTINUOUS
10
21.7564568355
20
24.4496920021
0
VERTEX
8
0
62
7
6
CONTINUOUS
10
21.7531240811
20
24.4517282850
0
VERTEX
8
0
62
7
6
CONTINUOUS
10
21.7494134882
20
24.4537406553
0
VERTEX
8
0
62
7
6
CONTINUOUS
10
21.7452833999
20
24.4557332115
0
VERTEX
8
0
62
7
6
CONTINUOUS
10
21.7406875970
20
24.4577090837
0
SEQEND
0
POLYLINE
8
0
62
7
6
CONTINUOUS
66
1
70
0
0
VERTEX
8
0
62
7
6
CONTINUOUS
10
20.8385612081
20
24.3859049171
0
VERTEX
8
0
62
7
6
CONTINUOUS
10
20.8386884632
20
24.3964196792
0
VERTEX
8
0
62
7
6
CONTINUOUS
10
20.8386910492
20
24.4044276559
0
VERTEX
8
0
62
7
6
CONTINUOUS
10
20.8384512862
20
24.4110114906
0
VERTEX
8
0
62
7
6
CONTINUOUS
10
20.8379643396
20
24.4167450153
0
VERTEX
8
0
62
7
6
CONTINUOUS
10
20.8372355295
20
24.4218516943
0
VERTEX
8
0
62
7
6
CONTINUOUS
10
20.8362724589
20
24.4264512449
0
VERTEX
8
0
62
7
6
CONTINUOUS
10
20.8350823715
20
24.4306206467
0
VERTEX
8
0
62
7
6
CONTINUOUS
10
20.8336706841
20
24.4344153554
0
VERTEX
8
0
62
7
6
CONTINUOUS
10
20.8320399842
20
24.4378781240
0
VERTEX
8
0
62
7
6
CONTINUOUS
10
20.8301892978
20
24.4410430273
0
VERTEX
8
0
62
7
6
CONTINUOUS
10
20.8281135677
20
24.4439373466
0
VERTEX
8
0
62
7
6
CONTINUOUS
10
20.8258033289
20
24.4465824132
0
VERTEX
8
0
62
7
6
CONTINUOUS
10
20.8232445757
20
24.4489939385
0
VERTEX
8
0
62
7
6
CONTINUOUS
10
20.8204188057
20
24.4511821141
0
VERTEX
8
0
62
7
6
CONTINUOUS
10
20.8173032115
20
24.4531516497
0
VERTEX
8
0
62
7
6
CONTINUOUS
10
20.8138709745
20
24.4549018406
0
VERTEX
8
0
62
7
6
CONTINUOUS
10
20.8120267443
20
24.4556930050
0
VERTEX
8
0
62
7
6
CONTINUOUS
10
20.8100944004
20
24.4564257163
0
VERTEX
8
0
62
7
6
CONTINUOUS
10
20.8059542637
20
24.4577090837
0
SEQEND
0
POLYLINE
8
0
62
7
6
CONTINUOUS
66
1
70
0
0
VERTEX
8
0
62
7
6
CONTINUOUS
10
21.2769292637
20
24.1897646393
0
VERTEX
8
0
62
7
6
CONTINUOUS
10
21.2768156130
20
24.1804757634
0
VERTEX
8
0
62
7
6
CONTINUOUS
10
21.2767838135
20
24.1722588385
0
VERTEX
8
0
62
7
6
CONTINUOUS
10
21.2769921039
20
24.1655695691
0
VERTEX
8
0
62
7
6
CONTINUOUS
10
21.2774480962
20
24.1597599515
0
VERTEX
8
0
62
7
6
CONTINUOUS
10
21.2781468679
20
24.1545916148
0
VERTEX
8
0
62
7
6
CONTINUOUS
10
21.2790806208
20
24.1499402937
0
VERTEX
8
0
62
7
6
CONTINUOUS
10
21.2802416295
20
24.1457272112
0
VERTEX
8
0
62
7
6
CONTINUOUS
10
21.2816238142
20
24.1418959834
0
VERTEX
8
0
62
7
6
CONTINUOUS
10
21.2832237960
20
24.1384032060
0
VERTEX
8
0
62
7
6
CONTINUOUS
10
21.2850416647
20
24.1352142173
0
VERTEX
8
0
62
7
6
CONTINUOUS
10
21.2870815302
20
24.1323011337
0
VERTEX
8
0
62
7
6
CONTINUOUS
10
21.2893518756
20
24.1296419822
0
VERTEX
8
0
62
7
6
CONTINUOUS
10
21.2918657158
20
24.1272203733
0
VERTEX
8
0
62
7
6
CONTINUOUS
10
21.2946405752
20
24.1250254192
0
VERTEX
8
0
62
7
6
CONTINUOUS
10
21.2976983088
20
24.1230517212
0
VERTEX
8
0
62
7
6
CONTINUOUS
10
21.3010648141
20
24.1212993293
0
VERTEX
8
0
62
7
6
CONTINUOUS
10
21.3028739047
20
24.1205072159
0
VERTEX
8
0
62
7
6
CONTINUOUS
10
21.3047696804
20
24.1197736251
0
VERTEX
8
0
62
7
6
CONTINUOUS
10
21.3088292637
20
24.1184896393
0
SEQEND
0
POLYLINE
8
0
62
7
6
CONTINUOUS
66
1
70
0
0
VERTEX
8
0
62
7
6
CONTINUOUS
10
21.3906028748
20
23.8696688060
0
VERTEX
8
0
62
7
6
CONTINUOUS
10
21.3906597019
20
23.8727524947
0
VERTEX
8
0
62
7
6
CONTINUOUS
10
21.3908597545
20
23.8758175810
0
VERTEX
8
0
62
7
6
CONTINUOUS
10
21.3912022405
20
23.8788600550
0
VERTEX
8
0
62
7
6
CONTINUOUS
10
21.3916862685
20
23.8818756051
0
VERTEX
8
0
62
7
6
CONTINUOUS
10
21.3923108029
20
23.8848596155
0
VERTEX
8
0
62
7
6
CONTINUOUS
10
21.3930746175
20
23.8878071708
0
VERTEX
8
0
62
7
6
CONTINUOUS
10
21.3939762507
20
23.8907130685
0
VERTEX
8
0
62
7
6
CONTINUOUS
10
21.3950139620
20
23.8935718407
0
VERTEX
8
0
62
7
6
CONTINUOUS
10
21.3961856927
20
23.8963777848
0
VERTEX
8
0
62
7
6
CONTINUOUS
10
21.3974890323
20
23.8991250026
0
VERTEX
8
0
62
7
6
CONTINUOUS
10
21.3989211918
20
23.9018074481
0
VERTEX
8
0
62
7
6
CONTINUOUS
10
21.4004789867
20
23.9044189833
0
VERTEX
8
0
62
7
6
CONTINUOUS
10
21.4021588298
20
23.9069534386
0
VERTEX
8
0
62
7
6
CONTINUOUS
10
21.4039567355
20
23.9094046789
0
VERTEX
8
0
62
7
6
CONTINUOUS
10
21.4058683360
20
23.9117666700
0
VERTEX
8
0
62
7
6
CONTINUOUS
10
21.4062440273
20
23.9122048920
0
VERTEX
8
0
62
7
6
CONTINUOUS
10
21.4082837483
20
23.9144520018
0
VERTEX
8
0
62
7
6
CONTINUOUS
10
21.4104248467
20
23.9165960124
0
VERTEX
8
0
62
7
6
CONTINUOUS
10
21.4126618285
20
23.9186318964
0
VERTEX
8
0
62
7
6
CONTINUOUS
10
21.4149890538
20
23.9205549997
0
VERTEX
8
0
62
7
6
CONTINUOUS
10
21.4174008012
20
23.9223610671
0
VERTEX
8
0
62
7
6
CONTINUOUS
10
21.4198913329
20
23.9240462559
0
VERTEX
8
0
62
7
6
CONTINUOUS
10
21.4224549565
20
23.9256071366
0
VERTEX
8
0
62
7
6
CONTINUOUS
10
21.4250860841
20
23.9270406830
0
VERTEX
8
0
62
7
6
CONTINUOUS
10
21.4277792835
20
23.9283442519
0
VERTEX
8
0
62
7
6
CONTINUOUS
10
21.4305293235
20
23.9295155527
0
VERTEX
8
0
62
7
6
CONTINUOUS
10
21.4333312100
20
23.9305526118
0
VERTEX
8
0
62
7
6
CONTINUOUS
10
21.4361802134
20
23.9314537293
0
VERTEX
8
0
62
7
6
CONTINUOUS
10
21.4390718881
20
23.9322174344
0
VERTEX
8
0
62
7
6
CONTINUOUS
10
21.4420020828
20
23.9328424371
0
VERTEX
8
0
62
7
6
CONTINUOUS
10
21.4449669431
20
23.9333275810
0
VERTEX
8
0
62
7
6
CONTINUOUS
10
21.4479629078
20
23.9336717966
0
VERTEX
8
0
62
7
6
CONTINUOUS
10
21.4509866985
20
23.9338740569
0
VERTEX
8
0
62
7
6
CONTINUOUS
10
21.4540353040
20
23.9339333370
0
VERTEX
8
0
62
7
6
CONTINUOUS
10
21.4570749549
20
23.9338490697
0
VERTEX
8
0
62
7
6
CONTINUOUS
10
21.4600938030
20
23.9336218472
0
VERTEX
8
0
62
7
6
CONTINUOUS
10
21.4630886478
20
23.9332524888
0
VERTEX
8
0
62
7
6
CONTINUOUS
10
21.4660559894
20
23.9327418367
0
VERTEX
8
0
62
7
6
CONTINUOUS
10
21.4689920126
20
23.9320908020
0
VERTEX
8
0
62
7
6
CONTINUOUS
10
21.4718925784
20
23.9313004140
0
VERTEX
8
0
62
7
6
CONTINUOUS
10
21.4747532214
20
23.9303718715
0
VERTEX
8
0
62
7
6
CONTINUOUS
10
21.4775691559
20
23.9293065950
0
VERTEX
8
0
62
7
6
CONTINUOUS
10
21.4803352902
20
23.9281062772
0
VERTEX
8
0
62
7
6
CONTINUOUS
10
21.4830462513
20
23.9267729318
0
VERTEX
8
0
62
7
6
CONTINUOUS
10
21.4856964180
20
23.9253089367
0
VERTEX
8
0
62
7
6
CONTINUOUS
10
21.4882799649
20
23.9237170710
0
VERTEX
8
0
62
7
6
CONTINUOUS
10
21.4907909141
20
23.9220005429
0
VERTEX
8
0
62
7
6
CONTINUOUS
10
21.4932231961
20
23.9201630071
0
VERTEX
8
0
62
7
6
CONTINUOUS
10
21.4955707153
20
23.9182085704
0
VERTEX
8
0
62
7
6
CONTINUOUS
10
21.4978274211
20
23.9161417842
0
VERTEX
8
0
62
7
6
CONTINUOUS
10
21.4999873795
20
23.9139676233
0
VERTEX
8
0
62
7
6
CONTINUOUS
10
21.5020448442
20
23.9116914519
0
VERTEX
8
0
62
7
6
CONTINUOUS
10
21.5020950136
20
23.9116331799
0
VERTEX
8
0
62
7
6
CONTINUOUS
10
21.5040404241
20
23.9092600280
0
VERTEX
8
0
62
7
6
CONTINUOUS
10
21.5058714247
20
23.9067986467
0
VERTEX
8
0
62
7
6
CONTINUOUS
10
21.5075835228
20
23.9042553523
0
VERTEX
8
0
62
7
6
CONTINUOUS
10
21.5091726528
20
23.9016365450
0
VERTEX
8
0
62
7
6
CONTINUOUS
10
21.5106351899
20
23.8989486352
0
VERTEX
8
0
62
7
6
CONTINUOUS
10
21.5119679518
20
23.8961979733
0
VERTEX
8
0
62
7
6
CONTINUOUS
10
21.5131681879
20
23.8933907847
0
VERTEX
8
0
62
7
6
CONTINUOUS
10
21.5142335566
20
23.8905331115
0
VERTEX
8
0
62
7
6
CONTINUOUS
10
21.5151620943
20
23.8876307636
0
VERTEX
8
0
62
7
6
CONTINUOUS
10
21.5159521755
20
23.8846892788
0
VERTEX
8
0
62
7
6
CONTINUOUS
10
21.5166024685
20
23.8817138936
0
VERTEX
8
0
62
7
6
CONTINUOUS
10
21.5171118861
20
23.8787095229
0
VERTEX
8
0
62
7
6
CONTINUOUS
10
21.5174795353
20
23.8756807498
0
VERTEX
8
0
62
7
6
CONTINUOUS
10
21.5177046668
20
23.8726318243
0
VERTEX
8
0
62
7
6
CONTINUOUS
10
21.5177866259
20
23.8695666687
0
VERTEX
8
0
62
7
6
CONTINUOUS
10
21.5177250099
20
23.8664839203
0
VERTEX
8
0
62
7
6
CONTINUOUS
10
21.5175202005
20
23.8634200379
0
VERTEX
8
0
62
7
6
CONTINUOUS
10
21.5171729961
20
23.8603789974
0
VERTEX
8
0
62
7
6
CONTINUOUS
10
21.5166842914
20
23.8573650761
0
VERTEX
8
0
62
7
6
CONTINUOUS
10
21.5160551229
20
23.8543828554
0
VERTEX
8
0
62
7
6
CONTINUOUS
10
21.5152867150
20
23.8514372169
0
VERTEX
8
0
62
7
6
CONTINUOUS
10
21.5143805251
20
23.8485333303
0
VERTEX
8
0
62
7
6
CONTINUOUS
10
21.5133382873
20
23.8456766326
0
VERTEX
8
0
62
7
6
CONTINUOUS
10
21.5121620522
20
23.8428727979
0
VERTEX
8
0
62
7
6
CONTINUOUS
10
21.5108542210
20
23.8401276988
0
VERTEX
8
0
62
7
6
CONTINUOUS
10
21.5094175728
20
23.8374473589
0
VERTEX
8
0
62
7
6
CONTINUOUS
10
21.5078552820
20
23.8348378984
0
VERTEX
8
0
62
7
6
CONTINUOUS
10
21.5061709266
20
23.8323054728
0
VERTEX
8
0
62
7
6
CONTINUOUS
10
21.5043684844
20
23.8298562084
0
VERTEX
8
0
62
7
6
CONTINUOUS
10
21.5024523179
20
23.8274961349
0
VERTEX
8
0
62
7
6
CONTINUOUS
10
21.5020949829
20
23.8270804350
0
VERTEX
8
0
62
7
6
CONTINUOUS
10
21.5000515138
20
23.8248340450
0
VERTEX
8
0
62
7
6
CONTINUOUS
10
21.4979065773
20
23.8226906686
0
VERTEX
8
0
62
7
6
CONTINUOUS
10
21.4956656755
20
23.8206553483
0
VERTEX
8
0
62
7
6
CONTINUOUS
10
21.4933344617
20
23.8187327553
0
VERTEX
8
0
62
7
6
CONTINUOUS
10
21.4909186758
20
23.8169271638
0
VERTEX
8
0
62
7
6
CONTINUOUS
10
21.4884240792
20
23.8152424362
0
VERTEX
8
0
62
7
6
CONTINUOUS
10
21.4858563922
20
23.8136820210
0
VERTEX
8
0
62
7
6
CONTINUOUS
10
21.4832212348
20
23.8122489621
0
VERTEX
8
0
62
7
6
CONTINUOUS
10
21.4805240745
20
23.8109459190
0
VERTEX
8
0
62
7
6
CONTINUOUS
10
21.4777701806
20
23.8097751949
0
VERTEX
8
0
62
7
6
CONTINUOUS
10
21.4749645874
20
23.8087387736
0
VERTEX
8
0
62
7
6
CONTINUOUS
10
21.4721120655
20
23.8078383607
0
VERTEX
8
0
62
7
6
CONTINUOUS
10
21.4692171022
20
23.8070754295
0
VERTEX
8
0
62
7
6
CONTINUOUS
10
21.4662838906
20
23.8064512679
0
VERTEX
8
0
62
7
6
CONTINUOUS
10
21.4633163257
20
23.8059670264
0
VERTEX
8
0
62
7
6
CONTINUOUS
10
21.4603180083
20
23.8056237647
0
VERTEX
8
0
62
7
6
CONTINUOUS
10
21.4572922551
20
23.8054224962
0
VERTEX
8
0
62
7
6
CONTINUOUS
10
21.4542421129
20
23.8053642288
0
VERTEX
8
0
62
7
6
CONTINUOUS
10
21.4511855653
20
23.8054495865
0
VERTEX
8
0
62
7
6
CONTINUOUS
10
21.4481496055
20
23.8056779274
0
VERTEX
8
0
62
7
6
CONTINUOUS
10
21.4451377541
20
23.8060484225
0
VERTEX
8
0
62
7
6
CONTINUOUS
10
21.4421538316
20
23.8065601879
0
VERTEX
8
0
62
7
6
CONTINUOUS
10
21.4392019694
20
23.8072122392
0
VERTEX
8
0
62
7
6
CONTINUOUS
10
21.4362866127
20
23.8080034432
0
VERTEX
8
0
62
7
6
CONTINUOUS
10
21.4334125172
20
23.8089324692
0
VERTEX
8
0
62
7
6
CONTINUOUS
10
21.4305847368
20
23.8099977402
0
VERTEX
8
0
62
7
6
CONTINUOUS
10
21.4278086023
20
23.8111973870
0
VERTEX
8
0
62
7
6
CONTINUOUS
10
21.4250896908
20
23.8125292053
0
VERTEX
8
0
62
7
6
CONTINUOUS
10
21.4224337865
20
23.8139906195
0
VERTEX
8
0
62
7
6
CONTINUOUS
10
21.4198468318
20
23.8155786541
0
VERTEX
8
0
62
7
6
CONTINUOUS
10
21.4173348710
20
23.8172899144
0
VERTEX
8
0
62
7
6
CONTINUOUS
10
21.4149039879
20
23.8191205782
0
VERTEX
8
0
62
7
6
CONTINUOUS
10
21.4125602384
20
23.8210663996
0
VERTEX
8
0
62
7
6
CONTINUOUS
10
21.4103095818
20
23.8231227257
0
VERTEX
8
0
62
7
6
CONTINUOUS
10
21.4081578120
20
23.8252845255
0
VERTEX
8
0
62
7
6
CONTINUOUS
10
21.4079040596
20
23.8255533906
0
VERTEX
8
0
62
7
6
CONTINUOUS
10
21.4058712371
20
23.8278253154
0
VERTEX
8
0
62
7
6
CONTINUOUS
10
21.4039498761
20
23.8301891855
0
VERTEX
8
0
62
7
6
CONTINUOUS
10
21.4021445680
20
23.8326389937
0
VERTEX
8
0
62
7
6
CONTINUOUS
10
21.4004594959
20
23.8351686398
0
VERTEX
8
0
62
7
6
CONTINUOUS
10
21.3988984194
20
23.8377720003
0
VERTEX
8
0
62
7
6
CONTINUOUS
10
21.3974646706
20
23.8404429951
0
VERTEX
8
0
62
7
6
CONTINUOUS
10
21.3961611640
20
23.8431756506
0
VERTEX
8
0
62
7
6
CONTINUOUS
10
21.3949904155
20
23.8459641554
0
VERTEX
8
0
62
7
6
CONTINUOUS
10
21.3939545715
20
23.8488029086
0
VERTEX
8
0
62
7
6
CONTINUOUS
10
21.3930554464
20
23.8516865592
0
VERTEX
8
0
62
7
6
CONTINUOUS
10
21.3922945649
20
23.8546100363
0
VERTEX
8
0
62
7
6
CONTINUOUS
10
21.3916732083
20
23.8575685694
0
VERTEX
8
0
62
7
6
CONTINUOUS
10
21.3911924637
20
23.8605577006
0
VERTEX
8
0
62
7
6
CONTINUOUS
10
21.3908532726
20
23.8635732874
0
VERTEX
8
0
62
7
6
CONTINUOUS
10
21.3906564789
20
23.8666114992
0
VERTEX
8
0
62
7
6
CONTINUOUS
10
21.3906028748
20
23.8696688060
0
SEQEND
0
LINE
8
0
62
7
6
CONTINUOUS
10
22.0045764859
20
23.8411993615
11
22.0049292637
21
23.8505451948
0
LINE
8
0
62
7
6
CONTINUOUS
10
22.3594889859
20
24.2896521393
11
22.3558667637
21
24.2672785282
0
LINE
8
0
62
7
6
CONTINUOUS
10
22.1216139859
20
23.8300507504
11
22.1380264859
21
23.9097493615
0
LINE
8
0
62
7
6
CONTINUOUS
10
22.1356931526
20
23.9359257504
11
22.1136528748
21
23.8300507504
0
LINE
8
0
62
2
6
CONTINUOUS
10
39.9215940938
20
2.2154966233
11
39.9000010938
21
2.2318016233
0
LINE
8
0
62
7
6
CONTINUOUS
10
19.2379264859
20
24.1241993615
11
19.2169181526
21
24.1892354726
0
POLYLINE
8
0
62
7
6
CONTINUOUS
66
1
70
0
0
VERTEX
8
0
62
7
6
CONTINUOUS
10
22.2819611326
20
24.2312668847
0
VERTEX
8
0
62
7
6
CONTINUOUS
10
22.2819303767
20
24.2366892840
0
VERTEX
8
0
62
7
6
CONTINUOUS
10
22.2818311065
20
24.2410047874
0
VERTEX
8
0
62
7
6
CONTINUOUS
10
22.2816575409
20
24.2447343483
0
VERTEX
8
0
62
7
6
CONTINUOUS
10
22.2814085485
20
24.2480728398
0
VERTEX
8
0
62
7
6
CONTINUOUS
10
22.2810842715
20
24.2511190247
0
VERTEX
8
0
62
7
6
CONTINUOUS
10
22.2806853089
20
24.2539318095
0
VERTEX
8
0
62
7
6
CONTINUOUS
10
22.2802123882
20
24.2565501836
0
VERTEX
8
0
62
7
6
CONTINUOUS
10
22.2796661880
20
24.2590019082
0
VERTEX
8
0
62
7
6
CONTINUOUS
10
22.2790472216
20
24.2613078447
0
VERTEX
8
0
62
7
6
CONTINUOUS
10
22.2783557518
20
24.2634843229
0
VERTEX
8
0
62
7
6
CONTINUOUS
10
22.2775917221
20
24.2655445276
0
VERTEX
8
0
62
7
6
CONTINUOUS
10
22.2767547015
20
24.2674993526
0
VERTEX
8
0
62
7
6
CONTINUOUS
10
22.2758438376
20
24.2693579475
0
VERTEX
8
0
62
7
6
CONTINUOUS
10
22.2748578187
20
24.2711280766
0
VERTEX
8
0
62
7
6
CONTINUOUS
10
22.2737948436
20
24.2728163597
0
VERTEX
8
0
62
7
6
CONTINUOUS
10
22.2726525989
20
24.2744284362
0
VERTEX
8
0
62
7
6
CONTINUOUS
10
22.2714282435
20
24.2759690779
0
VERTEX
8
0
62
7
6
CONTINUOUS
10
22.2701184001
20
24.2774422683
0
VERTEX
8
0
62
7
6
CONTINUOUS
10
22.2687191531
20
24.2788512585
0
VERTEX
8
0
62
7
6
CONTINUOUS
10
22.2672260515
20
24.2801986099
0
VERTEX
8
0
62
7
6
CONTINUOUS
10
22.2656341172
20
24.2814862262
0
VERTEX
8
0
62
7
6
CONTINUOUS
10
22.2639378558
20
24.2827153810
0
VERTEX
8
0
62
7
6
CONTINUOUS
10
22.2621312705
20
24.2838867423
0
VERTEX
8
0
62
7
6
CONTINUOUS
10
22.2611844166
20
24.2844509045
0
VERTEX
8
0
62
7
6
CONTINUOUS
10
22.2602079129
20
24.2850003754
0
VERTEX
8
0
62
7
6
CONTINUOUS
10
22.2581640929
20
24.2860542233
0
VERTEX
8
0
62
7
6
CONTINUOUS
10
22.2559926737
20
24.2870477047
0
VERTEX
8
0
62
7
6
CONTINUOUS
10
22.2536860712
20
24.2879796947
0
VERTEX
8
0
62
7
6
CONTINUOUS
10
22.2512362667
20
24.2888485512
0
VERTEX
8
0
62
7
6
CONTINUOUS
10
22.2486348192
20
24.2896521393
0
SEQEND
0
POLYLINE
8
0
62
7
6
CONTINUOUS
66
1
70
0
0
VERTEX
8
0
62
7
6
CONTINUOUS
10
22.4201584303
20
24.1368743615
0
VERTEX
8
0
62
7
6
CONTINUOUS
10
22.4201654476
20
24.1350637415
0
VERTEX
8
0
62
7
6
CONTINUOUS
10
22.4201187910
20
24.1333699513
0
VERTEX
8
0
62
7
6
CONTINUOUS
10
22.4200217523
20
24.1317841370
0
VERTEX
8
0
62
7
6
CONTINUOUS
10
22.4198772685
20
24.1302982308
0
VERTEX
8
0
62
7
6
CONTINUOUS
10
22.4196879390
20
24.1289048542
0
VERTEX
8
0
62
7
6
CONTINUOUS
10
22.4194560358
20
24.1275972392
0
VERTEX
8
0
62
7
6
CONTINUOUS
10
22.4191835084
20
24.1263691647
0
VERTEX
8
0
62
7
6
CONTINUOUS
10
22.4188719852
20
24.1252149049
0
VERTEX
8
0
62
7
6
CONTINUOUS
10
22.4185227707
20
24.1241291885
0
VERTEX
8
0
62
7
6
CONTINUOUS
10
22.4181368398
20
24.1231071670
0
VERTEX
8
0
62
7
6
CONTINUOUS
10
22.4177148315
20
24.1221443907
0
VERTEX
8
0
62
7
6
CONTINUOUS
10
22.4172570402
20
24.1212367924
0
VERTEX
8
0
62
7
6
CONTINUOUS
10
22.4167634077
20
24.1203806756
0
VERTEX
8
0
62
7
6
CONTINUOUS
10
22.4162335148
20
24.1195727085
0
VERTEX
8
0
62
7
6
CONTINUOUS
10
22.4156665748
20
24.1188099213
0
VERTEX
8
0
62
7
6
CONTINUOUS
10
22.4150614272
20
24.1180897060
0
VERTEX
8
0
62
7
6
CONTINUOUS
10
22.4144165338
20
24.1174098182
0
VERTEX
8
0
62
7
6
CONTINUOUS
10
22.4137311856
20
24.1167694429
0
VERTEX
8
0
62
7
6
CONTINUOUS
10
22.4130037582
20
24.1161672293
0
VERTEX
8
0
62
7
6
CONTINUOUS
10
22.4122318596
20
24.1156017592
0
VERTEX
8
0
62
7
6
CONTINUOUS
10
22.4114127261
20
24.1150719847
0
VERTEX
8
0
62
7
6
CONTINUOUS
10
22.4105432236
20
24.1145772238
0
VERTEX
8
0
62
7
6
CONTINUOUS
10
22.4096198470
20
24.1141171536
0
VERTEX
8
0
62
7
6
CONTINUOUS
10
22.4086387155
20
24.1136918028
0
VERTEX
8
0
62
7
6
CONTINUOUS
10
22.4075955653
20
24.1133015427
0
VERTEX
8
0
62
7
6
CONTINUOUS
10
22.4064857347
20
24.1129470791
0
VERTEX
8
0
62
7
6
CONTINUOUS
10
22.4053041450
20
24.1126294435
0
VERTEX
8
0
62
7
6
CONTINUOUS
10
22.4040452726
20
24.1123499863
0
VERTEX
8
0
62
7
6
CONTINUOUS
10
22.4027031125
20
24.1121103722
0
VERTEX
8
0
62
7
6
CONTINUOUS
10
22.4012711320
20
24.1119125779
0
VERTEX
8
0
62
7
6
CONTINUOUS
10
22.3997422129
20
24.1117588940
0
VERTEX
8
0
62
7
6
CONTINUOUS
10
22.3981085795
20
24.1116519312
0
VERTEX
8
0
62
7
6
CONTINUOUS
10
22.3963617098
20
24.1115946324
0
VERTEX
8
0
62
7
6
CONTINUOUS
10
22.3953605877
20
24.1115854772
0
VERTEX
8
0
62
7
6
CONTINUOUS
10
22.3935705269
20
24.1116103955
0
VERTEX
8
0
62
7
6
CONTINUOUS
10
22.3918961275
20
24.1116870096
0
VERTEX
8
0
62
7
6
CONTINUOUS
10
22.3903286161
20
24.1118122056
0
VERTEX
8
0
62
7
6
CONTINUOUS
10
22.3888599830
20
24.1119832162
0
VERTEX
8
0
62
7
6
CONTINUOUS
10
22.3874828923
20
24.1121976059
0
VERTEX
8
0
62
7
6
CONTINUOUS
10
22.3861906092
20
24.1124532636
0
VERTEX
8
0
62
7
6
CONTINUOUS
10
22.3849769395
20
24.1127483992
0
VERTEX
8
0
62
7
6
CONTINUOUS
10
22.3838361818
20
24.1130815438
0
VERTEX
8
0
62
7
6
CONTINUOUS
10
22.3827630883
20
24.1134515536
0
VERTEX
8
0
62
7
6
CONTINUOUS
10
22.3817528353
20
24.1138576164
0
VERTEX
8
0
62
7
6
CONTINUOUS
10
22.3808010007
20
24.1142992587
0
VERTEX
8
0
62
7
6
CONTINUOUS
10
22.3799035474
20
24.1147763550
0
VERTEX
8
0
62
7
6
CONTINUOUS
10
22.3790568131
20
24.1152891365
0
VERTEX
8
0
62
7
6
CONTINUOUS
10
22.3782575037
20
24.1158381995
0
VERTEX
8
0
62
7
6
CONTINUOUS
10
22.3775026904
20
24.1164245138
0
VERTEX
8
0
62
7
6
CONTINUOUS
10
22.3767898090
20
24.1170494285
0
VERTEX
8
0
62
7
6
CONTINUOUS
10
22.3761172772
20
24.1177140318
0
VERTEX
8
0
62
7
6
CONTINUOUS
10
22.3754840265
20
24.1184192976
0
VERTEX
8
0
62
7
6
CONTINUOUS
10
22.3748883179
20
24.1191674450
0
VERTEX
8
0
62
7
6
CONTINUOUS
10
22.3743287827
20
24.1199610769
0
VERTEX
8
0
62
7
6
CONTINUOUS
10
22.3738044182
20
24.1208031821
0
VERTEX
8
0
62
7
6
CONTINUOUS
10
22.3733145817
20
24.1216971384
0
VERTEX
8
0
62
7
6
CONTINUOUS
10
22.3728589827
20
24.1226467204
0
VERTEX
8
0
62
7
6
CONTINUOUS
10
22.3724376753
20
24.1236561107
0
VERTEX
8
0
62
7
6
CONTINUOUS
10
22.3720510486
20
24.1247299180
0
VERTEX
8
0
62
7
6
CONTINUOUS
10
22.3716998191
20
24.1258732027
0
VERTEX
8
0
62
7
6
CONTINUOUS
10
22.3713850233
20
24.1270915107
0
VERTEX
8
0
62
7
6
CONTINUOUS
10
22.3711080123
20
24.1283909191
0
VERTEX
8
0
62
7
6
CONTINUOUS
10
22.3708704497
20
24.1297780941
0
VERTEX
8
0
62
7
6
CONTINUOUS
10
22.3706743134
20
24.1312603648
0
VERTEX
8
0
62
7
6
CONTINUOUS
10
22.3705219022
20
24.1328458163
0
VERTEX
8
0
62
7
6
CONTINUOUS
10
22.3704158492
20
24.1345434053
0
VERTEX
8
0
62
7
6
CONTINUOUS
10
22.3703591430
20
24.1363631068
0
VERTEX
8
0
62
7
6
CONTINUOUS
10
22.3703537528
20
24.1367675702
0
VERTEX
8
0
62
7
6
CONTINUOUS
10
22.3703680027
20
24.1381084549
0
VERTEX
8
0
62
7
6
CONTINUOUS
10
22.3704376404
20
24.1394125919
0
VERTEX
8
0
62
7
6
CONTINUOUS
10
22.3705612203
20
24.1406806201
0
VERTEX
8
0
62
7
6
CONTINUOUS
10
22.3707374122
20
24.1419131479
0
VERTEX
8
0
62
7
6
CONTINUOUS
10
22.3709650033
20
24.1431107432
0
VERTEX
8
0
62
7
6
CONTINUOUS
10
22.3712428981
20
24.1442739241
0
VERTEX
8
0
62
7
6
CONTINUOUS
10
22.3715701168
20
24.1454031475
0
VERTEX
8
0
62
7
6
CONTINUOUS
10
22.3719457914
20
24.1464987980
0
VERTEX
8
0
62
7
6
CONTINUOUS
10
22.3723691601
20
24.1475611763
0
VERTEX
8
0
62
7
6
CONTINUOUS
10
22.3728395583
20
24.1485904875
0
VERTEX
8
0
62
7
6
CONTINUOUS
10
22.3733564079
20
24.1495868292
0
VERTEX
8
0
62
7
6
CONTINUOUS
10
22.3739192031
20
24.1505501809
0
VERTEX
8
0
62
7
6
CONTINUOUS
10
22.3745274931
20
24.1514803929
0
VERTEX
8
0
62
7
6
CONTINUOUS
10
22.3751808620
20
24.1523771779
0
VERTEX
8
0
62
7
6
CONTINUOUS
10
22.3758789052
20
24.1532401029
0
VERTEX
8
0
62
7
6
CONTINUOUS
10
22.3766212033
20
24.1540685838
0
VERTEX
8
0
62
7
6
CONTINUOUS
10
22.3774072928
20
24.1548618823
0
VERTEX
8
0
62
7
6
CONTINUOUS
10
22.3782366341
20
24.1556191055
0
VERTEX
8
0
62
7
6
CONTINUOUS
10
22.3791085781
20
24.1563392092
0
VERTEX
8
0
62
7
6
CONTINUOUS
10
22.3800223304
20
24.1570210046
0
VERTEX
8
0
62
7
6
CONTINUOUS
10
22.3809769160
20
24.1576631694
0
VERTEX
8
0
62
7
6
CONTINUOUS
10
22.3819711431
20
24.1582642634
0
VERTEX
8
0
62
7
6
CONTINUOUS
10
22.3830035694
20
24.1588227484
0
VERTEX
8
0
62
7
6
CONTINUOUS
10
22.3840724709
20
24.1593370137
0
VERTEX
8
0
62
7
6
CONTINUOUS
10
22.3851758153
20
24.1598054051
0
VERTEX
8
0
62
7
6
CONTINUOUS
10
22.3863112416
20
24.1602262597
0
VERTEX
8
0
62
7
6
CONTINUOUS
10
22.3874760474
20
24.1605979427
0
VERTEX
8
0
62
7
6
CONTINUOUS
10
22.3886671863
20
24.1609188887
0
VERTEX
8
0
62
7
6
CONTINUOUS
10
22.3898812756
20
24.1611876427
0
VERTEX
8
0
62
7
6
CONTINUOUS
10
22.3911146162
20
24.1614029021
0
VERTEX
8
0
62
7
6
CONTINUOUS
10
22.3923632247
20
24.1615635565
0
VERTEX
8
0
62
7
6
CONTINUOUS
10
22.3936228774
20
24.1616687229
0
VERTEX
8
0
62
7
6
CONTINUOUS
10
22.3948891654
20
24.1617177761
0
VERTEX
8
0
62
7
6
CONTINUOUS
10
22.3957530784
20
24.1617188730
0
VERTEX
8
0
62
7
6
CONTINUOUS
10
22.3970187555
20
24.1616730546
0
VERTEX
8
0
62
7
6
CONTINUOUS
10
22.3982772435
20
24.1615711588
0
VERTEX
8
0
62
7
6
CONTINUOUS
10
22.3995241543
20
24.1614138288
0
VERTEX
8
0
62
7
6
CONTINUOUS
10
22.4007552931
20
24.1612019629
0
VERTEX
8
0
62
7
6
CONTINUOUS
10
22.4019667122
20
24.1609366844
0
VERTEX
8
0
62
7
6
CONTINUOUS
10
22.4031547536
20
24.1606193050
0
VERTEX
8
0
62
7
6
CONTINUOUS
10
22.4043160799
20
24.1602512854
0
VERTEX
8
0
62
7
6
CONTINUOUS
10
22.4054476925
20
24.1598341935
0
VERTEX
8
0
62
7
6
CONTINUOUS
10
22.4065469381
20
24.1593696620
0
VERTEX
8
0
62
7
6
CONTINUOUS
10
22.4076115050
20
24.1588593487
0
VERTEX
8
0
62
7
6
CONTINUOUS
10
22.4086394086
20
24.1583048987
0
VERTEX
8
0
62
7
6
CONTINUOUS
10
22.4096289707
20
24.1577079107
0
VERTEX
8
0
62
7
6
CONTINUOUS
10
22.4105787917
20
24.1570699077
0
VERTEX
8
0
62
7
6
CONTINUOUS
10
22.4114877191
20
24.1563923120
0
VERTEX
8
0
62
7
6
CONTINUOUS
10
22.4123548124
20
24.1556764256
0
VERTEX
8
0
62
7
6
CONTINUOUS
10
22.4131793080
20
24.1549234150
0
VERTEX
8
0
62
7
6
CONTINUOUS
10
22.4139605822
20
24.1541343003
0
VERTEX
8
0
62
7
6
CONTINUOUS
10
22.4146981163
20
24.1533099488
0
VERTEX
8
0
62
7
6
CONTINUOUS
10
22.4153914624
20
24.1524510722
0
VERTEX
8
0
62
7
6
CONTINUOUS
10
22.4160402122
20
24.1515582271
0
VERTEX
8
0
62
7
6
CONTINUOUS
10
22.4166439673
20
24.1506318185
0
VERTEX
8
0
62
7
6
CONTINUOUS
10
22.4172023133
20
24.1496721056
0
VERTEX
8
0
62
7
6
CONTINUOUS
10
22.4177147968
20
24.1486792097
0
VERTEX
8
0
62
7
6
CONTINUOUS
10
22.4181809051
20
24.1476531236
0
VERTEX
8
0
62
7
6
CONTINUOUS
10
22.4186000495
20
24.1465937220
0
VERTEX
8
0
62
7
6
CONTINUOUS
10
22.4189715516
20
24.1455007731
0
VERTEX
8
0
62
7
6
CONTINUOUS
10
22.4192946325
20
24.1443739504
0
VERTEX
8
0
62
7
6
CONTINUOUS
10
22.4195684044
20
24.1432128442
0
VERTEX
8
0
62
7
6
CONTINUOUS
10
22.4197918655
20
24.1420169737
0
VERTEX
8
0
62
7
6
CONTINUOUS
10
22.4199638962
20
24.1407857984
0
VERTEX
8
0
62
7
6
CONTINUOUS
10
22.4200832580
20
24.1395187285
0
VERTEX
8
0
62
7
6
CONTINUOUS
10
22.4201485940
20
24.1382151356
0
VERTEX
8
0
62
7
6
CONTINUOUS
10
22.4201605465
20
24.1375494014
0
VERTEX
8
0
62
7
6
CONTINUOUS
10
22.4201584303
20
24.1368743615
0
SEQEND
0
LINE
8
0
62
7
6
CONTINUOUS
10
22.2395889859
20
23.8300507504
11
22.2395889859
21
23.9304465837
0
LINE
8
0
62
7
6
CONTINUOUS
10
22.2477125970
20
23.9227160282
11
22.2477125970
21
23.8845215837
0
LINE
8
0
62
7
6
CONTINUOUS
10
22.2477125970
20
23.8768035282
11
22.2477125970
21
23.8300507504
0
LINE
8
0
62
7
6
CONTINUOUS
10
22.2486348192
20
24.2896521393
11
22.2486348192
21
24.2912049171
0
LINE
8
0
62
7
6
CONTINUOUS
10
22.2819612081
20
24.1559368615
11
22.2819611326
21
24.2312668847
0
LINE
8
0
62
7
6
CONTINUOUS
10
22.3044209303
20
24.4587465837
11
22.3044209303
21
24.3989118615
0
LINE
8
0
62
7
6
CONTINUOUS
10
22.3558667637
20
24.2672785282
11
22.3558667637
21
24.1476160282
0
LINE
8
0
62
7
6
CONTINUOUS
10
22.3594889859
20
24.2912049171
11
22.3594889859
21
24.2896521393
0
LINE
8
0
62
7
6
CONTINUOUS
10
22.3629750970
20
23.9330646393
11
22.3629750970
21
23.8300507504
0
LINE
8
0
62
7
6
CONTINUOUS
10
22.3710723192
20
23.8300507504
11
22.3710723192
21
23.9132757504
0
LINE
8
0
62
7
6
CONTINUOUS
10
22.3861278748
20
24.1222049171
11
22.3861278748
21
24.1503021393
0
LINE
8
0
62
7
6
CONTINUOUS
10
22.3906028748
20
24.1472771393
11
22.3906028748
21
24.1377688060
0
LINE
8
0
62
7
6
CONTINUOUS
10
22.3906028748
20
24.1343035282
11
22.3906028748
21
24.1222049171
0
LINE
8
0
62
7
6
CONTINUOUS
10
22.3998945414
20
24.1362021393
11
22.3998945414
21
24.1359785282
0
LINE
8
0
62
7
6
CONTINUOUS
10
22.4457250970
20
23.9304465837
11
22.4457250970
21
23.8457563060
0
LINE
8
0
62
7
6
CONTINUOUS
10
22.4538223192
20
23.8253715837
11
22.4538223192
21
23.9304465837
0
LINE
8
0
62
7
6
CONTINUOUS
10
22.4737875970
20
24.5361451948
11
22.4737875970
21
24.0399701948
0
LINE
8
0
62
7
6
CONTINUOUS
10
22.4805153748
20
24.5428590837
11
22.4805153748
21
24.0332563060
0
LINE
8
0
62
7
6
CONTINUOUS
10
22.5004389859
20
23.8300507504
11
22.5004389859
21
23.8730604726
0
LINE
8
0
62
2
6
CONTINUOUS
10
23.6479165036
20
14.5511522337
11
23.6479165036
21
13.5581222339
0
LINE
8
0
62
2
6
CONTINUOUS
10
23.6820715036
20
14.5836122337
11
23.6820715036
21
13.4907047339
0
LINE
8
0
62
7
6
CONTINUOUS
10
22.4924639859
20
23.8725715837
11
22.4923153748
21
23.8300507504
0
LINE
8
0
62
7
6
CONTINUOUS
10
22.2308000970
20
23.8300507504
11
22.2087862081
21
23.9359257504
0
LINE
8
0
62
7
6
CONTINUOUS
10
22.2064264859
20
23.9097493615
11
22.2229056526
21
23.8300507504
0
LINE
8
0
62
7
6
CONTINUOUS
10
22.3558667637
20
24.1476160282
11
22.3594889859
21
24.1241993615
0
LINE
8
0
62
2
6
CONTINUOUS
10
39.7845270938
20
2.0521276233
11
39.7534160938
21
2.0832386233
0
LINE
8
0
62
2
6
CONTINUOUS
10
39.9498410938
20
2.2796636233
11
39.9809520938
21
2.2485526233
0
LINE
8
0
62
2
6
CONTINUOUS
10
40.7843580938
20
2.2366926233
11
40.7731370938
21
2.2479136233
0
LINE
8
0
62
2
6
CONTINUOUS
10
40.7868308411
20
2.2366926233
11
40.7756098411
21
2.2479136233
0
LINE
8
0
62
2
6
CONTINUOUS
10
39.8045870938
20
2.1271366233
11
39.8228150938
21
2.1071416233
0
POLYLINE
8
0
62
7
6
CONTINUOUS
66
1
70
0
0
VERTEX
8
0
62
7
6
CONTINUOUS
10
19.9277459303
20
24.4009868615
0
VERTEX
8
0
62
7
6
CONTINUOUS
10
19.9266759586
20
24.4028591331
0
VERTEX
8
0
62
7
6
CONTINUOUS
10
19.9254483016
20
24.4046414220
0
VERTEX
8
0
62
7
6
CONTINUOUS
10
19.9240578714
20
24.4063396005
0
VERTEX
8
0
62
7
6
CONTINUOUS
10
19.9224974830
20
24.4079581663
0
VERTEX
8
0
62
7
6
CONTINUOUS
10
19.9207579832
20
24.4095001931
0
VERTEX
8
0
62
7
6
CONTINUOUS
10
19.9188283914
20
24.4109673185
0
VERTEX
8
0
62
7
6
CONTINUOUS
10
19.9166960369
20
24.4123597676
0
VERTEX
8
0
62
7
6
CONTINUOUS
10
19.9143466810
20
24.4136764080
0
VERTEX
8
0
62
7
6
CONTINUOUS
10
19.9117646088
20
24.4149148311
0
VERTEX
8
0
62
7
6
CONTINUOUS
10
19.9089326737
20
24.4160714535
0
VERTEX
8
0
62
7
6
CONTINUOUS
10
19.9058322774
20
24.4171416333
0
VERTEX
8
0
62
7
6
CONTINUOUS
10
19.9024432497
20
24.4181197995
0
VERTEX
8
0
62
7
6
CONTINUOUS
10
19.8987435749
20
24.4189995917
0
VERTEX
8
0
62
7
6
CONTINUOUS
10
19.8947088602
20
24.4197740139
0
VERTEX
8
0
62
7
6
CONTINUOUS
10
19.8903113400
20
24.4204356056
0
VERTEX
8
0
62
7
6
CONTINUOUS
10
19.8855179869
20
24.4209766412
0
VERTEX
8
0
62
7
6
CONTINUOUS
10
19.8802867420
20
24.4213893698
0
VERTEX
8
0
62
7
6
CONTINUOUS
10
19.8745583470
20
24.4216663203
0
VERTEX
8
0
62
7
6
CONTINUOUS
10
19.8682362357
20
24.4218007064
0
VERTEX
8
0
62
7
6
CONTINUOUS
10
19.8654362081
20
24.4218132504
0
VERTEX
8
0
62
7
6
CONTINUOUS
10
19.8002098192
20
24.4218132504
0
SEQEND
0
POLYLINE
8
0
62
7
6
CONTINUOUS
66
1
70
0
0
VERTEX
8
0
62
7
6
CONTINUOUS
10
21.2076945414
20
23.9352201948
0
VERTEX
8
0
62
7
6
CONTINUOUS
10
21.2501820414
20
23.8300507504
0
VERTEX
8
0
62
7
6
CONTINUOUS
10
21.2419348192
20
23.8300507504
0
VERTEX
8
0
62
7
6
CONTINUOUS
10
21.2292264859
20
23.8623993615
0
SEQEND
0
POLYLINE
8
0
62
7
6
CONTINUOUS
66
1
70
0
0
VERTEX
8
0
62
7
6
CONTINUOUS
10
22.3150820414
20
23.9352201948
0
VERTEX
8
0
62
7
6
CONTINUOUS
10
22.3575764859
20
23.8300507504
0
VERTEX
8
0
62
7
6
CONTINUOUS
10
22.3496278748
20
23.8300507504
0
VERTEX
8
0
62
7
6
CONTINUOUS
10
22.3365945414
20
23.8623993615
0
SEQEND
0
LINE
8
0
62
7
6
CONTINUOUS
10
22.1380264859
20
23.9097493615
11
22.1721653748
21
23.8252215837
0
LINE
8
0
62
7
6
CONTINUOUS
10
22.1721653748
20
23.8455674171
11
22.1356931526
21
23.9359257504
0
LINE
8
0
62
7
6
CONTINUOUS
10
21.2254695414
20
23.8701438060
11
21.2076945414
21
23.9143326948
0
LINE
8
0
62
7
6
CONTINUOUS
10
22.3328500970
20
23.8701438060
11
22.3150820414
21
23.9143868615
0
LINE
8
0
62
7
6
CONTINUOUS
10
22.4016848192
20
24.1222049171
11
22.3997862081
21
24.1293674171
0
LINE
8
0
6
CONTINUOUS
10
43.5000000000
20
21.2500000000
11
44.0000000000
21
21.2500000000
0
LINE
8
0
62
7
6
CONTINUOUS
10
20.6392945414
20
24.1429299171
11
20.5509014859
21
24.2214965837
0
POLYLINE
8
0
62
7
6
CONTINUOUS
66
1
70
0
0
VERTEX
8
0
62
7
6
CONTINUOUS
10
20.5682903748
20
24.2839285282
0
VERTEX
8
0
62
7
6
CONTINUOUS
10
20.6726334303
20
24.1897646393
0
VERTEX
8
0
62
7
6
CONTINUOUS
10
20.6783158693
20
24.1848569814
0
VERTEX
8
0
62
7
6
CONTINUOUS
10
20.6845314463
20
24.1797813906
0
VERTEX
8
0
62
7
6
CONTINUOUS
10
20.6912863518
20
24.1745509414
0
VERTEX
8
0
62
7
6
CONTINUOUS
10
20.6985794598
20
24.1691832324
0
VERTEX
8
0
62
7
6
CONTINUOUS
10
20.7064006919
20
24.1637009626
0
VERTEX
8
0
62
7
6
CONTINUOUS
10
20.7147292891
20
24.1581324546
0
VERTEX
8
0
62
7
6
CONTINUOUS
10
20.7235320987
20
24.1525120506
0
VERTEX
8
0
62
7
6
CONTINUOUS
10
20.7327620434
20
24.1468802822
0
VERTEX
8
0
62
7
6
CONTINUOUS
10
20.7423570089
20
24.1412836918
0
VERTEX
8
0
62
7
6
CONTINUOUS
10
20.7522394433
20
24.1357741764
0
VERTEX
8
0
62
7
6
CONTINUOUS
10
20.7623169892
20
24.1304077417
0
VERTEX
8
0
62
7
6
CONTINUOUS
10
20.7724844298
20
24.1252426102
0
VERTEX
8
0
62
7
6
CONTINUOUS
10
20.7800413399
20
24.1215639532
0
VERTEX
8
0
62
7
6
CONTINUOUS
10
20.7900237081
20
24.1169160282
0
SEQEND
0
LINE
8
0
62
7
6
CONTINUOUS
10
20.5509014859
20
24.2214965837
11
20.4842306526
21
24.2948604726
0
POLYLINE
8
0
62
7
6
CONTINUOUS
66
1
70
0
0
VERTEX
8
0
62
7
6
CONTINUOUS
10
21.3581320414
20
23.8715410282
0
VERTEX
8
0
62
7
6
CONTINUOUS
10
21.4138306526
20
23.8068701948
0
VERTEX
8
0
62
7
6
CONTINUOUS
10
21.3691737081
20
23.8069382504
0
VERTEX
8
0
62
7
6
CONTINUOUS
10
21.3313514859
20
23.8508979726
0
VERTEX
8
0
62
7
6
CONTINUOUS
10
21.3312903748
20
23.8508979726
0
VERTEX
8
0
62
7
6
CONTINUOUS
10
21.3312903748
20
23.8069382504
0
VERTEX
8
0
62
7
6
CONTINUOUS
10
21.2975723192
20
23.8069382504
0
SEQEND
0
POLYLINE
8
0
62
7
6
CONTINUOUS
66
1
70
0
0
VERTEX
8
0
62
7
6
CONTINUOUS
10
20.2255570414
20
24.2693743615
0
VERTEX
8
0
62
7
6
CONTINUOUS
10
20.2242916356
20
24.2708794019
0
VERTEX
8
0
62
7
6
CONTINUOUS
10
20.2228655020
20
24.2723075245
0
VERTEX
8
0
62
7
6
CONTINUOUS
10
20.2212687167
20
24.2736621739
0
VERTEX
8
0
62
7
6
CONTINUOUS
10
20.2194892184
20
24.2749452789
0
VERTEX
8
0
62
7
6
CONTINUOUS
10
20.2175128879
20
24.2761573017
0
VERTEX
8
0
62
7
6
CONTINUOUS
10
20.2153235762
20
24.2772973250
0
VERTEX
8
0
62
7
6
CONTINUOUS
10
20.2129030469
20
24.2783631700
0
VERTEX
8
0
62
7
6
CONTINUOUS
10
20.2102307902
20
24.2793515390
0
VERTEX
8
0
62
7
6
CONTINUOUS
10
20.2072836400
20
24.2802581768
0
VERTEX
8
0
62
7
6
CONTINUOUS
10
20.2040350761
20
24.2810780501
0
VERTEX
8
0
62
7
6
CONTINUOUS
10
20.2004539919
20
24.2818055487
0
VERTEX
8
0
62
7
6
CONTINUOUS
10
20.1965024858
20
24.2824347181
0
VERTEX
8
0
62
7
6
CONTINUOUS
10
20.1921317125
20
24.2829595496
0
VERTEX
8
0
62
7
6
CONTINUOUS
10
20.1872734660
20
24.2833743794
0
VERTEX
8
0
62
7
6
CONTINUOUS
10
20.1818209759
20
24.2836745378
0
VERTEX
8
0
62
7
6
CONTINUOUS
10
20.1755763471
20
24.2838576953
0
VERTEX
8
0
62
7
6
CONTINUOUS
10
20.1680530966
20
24.2839281863
0
VERTEX
8
0
62
7
6
CONTINUOUS
10
20.1074473192
20
24.2839285282
0
SEQEND
0
LINE
8
0
62
7
6
CONTINUOUS
10
21.4921389859
20
24.4587465837
11
21.5030237081
21
24.4457396393
0
LINE
8
0
62
2
6
CONTINUOUS
10
39.6720070938
20
2.0252706233
11
39.5748090938
21
2.1467686233
0
LINE
8
0
62
2
6
CONTINUOUS
10
39.6328090938
20
2.1815206233
11
39.7578090938
21
2.0252706233
0
LINE
8
0
62
7
6
CONTINUOUS
10
37.4965064892
20
3.4409528234
11
38.8596552892
21
1.6190520234
0
LINE
8
0
62
7
6
CONTINUOUS
10
21.8544431526
20
23.8069382504
11
21.8269237081
21
23.8447938060
0
LINE
8
0
62
7
6
CONTINUOUS
10
21.8561528748
20
23.8562549171
11
21.8912681526
21
23.8068701948
0
LINE
8
0
62
7
6
CONTINUOUS
10
22.4588264859
20
23.9304465837
11
22.4924639859
21
23.8725715837
0
LINE
8
0
62
7
6
CONTINUOUS
10
22.4964375970
20
23.8814285282
11
22.4681042637
21
23.9304465837
0
LINE
8
0
62
7
6
CONTINUOUS
10
22.3998945414
20
24.1359785282
11
22.4063778748
21
24.1222049171
0
LINE
8
0
6
CONTINUOUS
10
27.5000000000
20
0.0000000000
11
27.5000000000
21
0.5000000000
0
LINE
8
0
62
7
6
CONTINUOUS
10
21.9709792637
20
23.9240035282
11
22.0049292637
21
23.9067785282
0
POLYLINE
8
0
62
7
6
CONTINUOUS
66
1
70
0
0
VERTEX
8
0
62
7
6
CONTINUOUS
10
19.2169181526
20
24.1892354726
0
VERTEX
8
0
62
7
6
CONTINUOUS
10
19.2253236121
20
24.1845027615
0
VERTEX
8
0
62
7
6
CONTINUOUS
10
19.2342927492
20
24.1798626882
0
VERTEX
8
0
62
7
6
CONTINUOUS
10
19.2437543050
20
24.1753702228
0
VERTEX
8
0
62
7
6
CONTINUOUS
10
19.2470166751
20
24.1739090692
0
VERTEX
8
0
62
7
6
CONTINUOUS
10
19.2569717311
20
24.1697096735
0
VERTEX
8
0
62
7
6
CONTINUOUS
10
19.2671801367
20
24.1657863085
0
VERTEX
8
0
62
7
6
CONTINUOUS
10
19.2775581347
20
24.1621730153
0
VERTEX
8
0
62
7
6
CONTINUOUS
10
19.2880270452
20
24.1588966231
0
VERTEX
8
0
62
7
6
CONTINUOUS
10
19.2985150440
20
24.1559769674
0
VERTEX
8
0
62
7
6
CONTINUOUS
10
19.3089582108
20
24.1534274286
0
VERTEX
8
0
62
7
6
CONTINUOUS
10
19.3193009626
20
24.1512556672
0
VERTEX
8
0
62
7
6
CONTINUOUS
10
19.3294960133
20
24.1494644544
0
VERTEX
8
0
62
7
6
CONTINUOUS
10
19.3395039997
20
24.1480525187
0
VERTEX
8
0
62
7
6
CONTINUOUS
10
19.3492928951
20
24.1470153577
0
VERTEX
8
0
62
7
6
CONTINUOUS
10
19.3588373070
20
24.1463459830
0
VERTEX
8
0
62
7
6
CONTINUOUS
10
19.3681177281
20
24.1460355834
0
VERTEX
8
0
62
7
6
CONTINUOUS
10
19.3771197907
20
24.1460741042
0
VERTEX
8
0
62
7
6
CONTINUOUS
10
19.3858335536
20
24.1464507432
0
VERTEX
8
0
62
7
6
CONTINUOUS
10
19.3942528389
20
24.1471543733
0
VERTEX
8
0
62
7
6
CONTINUOUS
10
19.4023746260
20
24.1481738983
0
VERTEX
8
0
62
7
6
CONTINUOUS
10
19.4101985059
20
24.1494985512
0
VERTEX
8
0
62
7
6
CONTINUOUS
10
19.4177261911
20
24.1511181444
0
VERTEX
8
0
62
7
6
CONTINUOUS
10
19.4249610785
20
24.1530232771
0
VERTEX
8
0
62
7
6
CONTINUOUS
10
19.4319078596
20
24.1552055080
0
VERTEX
8
0
62
7
6
CONTINUOUS
10
19.4385721718
20
24.1576574956
0
VERTEX
8
0
62
7
6
CONTINUOUS
10
19.4449602857
20
24.1603731128
0
VERTEX
8
0
62
7
6
CONTINUOUS
10
19.4502106464
20
24.1629500091
0
VERTEX
8
0
62
7
6
CONTINUOUS
10
19.4549324533
20
24.1656422692
0
VERTEX
8
0
62
7
6
CONTINUOUS
10
19.4591488264
20
24.1684337938
0
VERTEX
8
0
62
7
6
CONTINUOUS
10
19.4628830441
20
24.1713102291
0
VERTEX
8
0
62
7
6
CONTINUOUS
10
19.4661581167
20
24.1742592002
0
VERTEX
8
0
62
7
6
CONTINUOUS
10
19.4689962772
20
24.1772705006
0
VERTEX
8
0
62
7
6
CONTINUOUS
10
19.4714183998
20
24.1803362108
0
VERTEX
8
0
62
7
6
CONTINUOUS
10
19.4734433672
20
24.1834507161
0
VERTEX
8
0
62
7
6
CONTINUOUS
10
19.4750874206
20
24.1866105972
0
VERTEX
8
0
62
7
6
CONTINUOUS
10
19.4763635407
20
24.1898143685
0
VERTEX
8
0
62
7
6
CONTINUOUS
10
19.4772800781
20
24.1930583470
0
VERTEX
8
0
62
7
6
CONTINUOUS
10
19.4778425004
20
24.1963368951
0
VERTEX
8
0
62
7
6
CONTINUOUS
10
19.4780547687
20
24.1996509718
0
VERTEX
8
0
62
7
6
CONTINUOUS
10
19.4779165900
20
24.2030015510
0
VERTEX
8
0
62
7
6
CONTINUOUS
10
19.4774236175
20
24.2063888449
0
VERTEX
8
0
62
7
6
CONTINUOUS
10
19.4765679161
20
24.2098115470
0
VERTEX
8
0
62
7
6
CONTINUOUS
10
19.4753386682
20
24.2132661548
0
VERTEX
8
0
62
7
6
CONTINUOUS
10
19.4737230693
20
24.2167464263
0
VERTEX
8
0
62
7
6
CONTINUOUS
10
19.4717073495
20
24.2202430064
0
VERTEX
8
0
62
7
6
CONTINUOUS
10
19.4692778476
20
24.2237432466
0
VERTEX
8
0
62
7
6
CONTINUOUS
10
19.4664220638
20
24.2272312234
0
VERTEX
8
0
62
7
6
CONTINUOUS
10
19.4631296188
20
24.2306879507
0
VERTEX
8
0
62
7
6
CONTINUOUS
10
19.4593930556
20
24.2340917641
0
VERTEX
8
0
62
7
6
CONTINUOUS
10
19.4552084345
20
24.2374188461
0
VERTEX
8
0
62
7
6
CONTINUOUS
10
19.4505756882
20
24.2406438488
0
VERTEX
8
0
62
7
6
CONTINUOUS
10
19.4454987294
20
24.2437405645
0
VERTEX
8
0
62
7
6
CONTINUOUS
10
19.4406769401
20
24.2463348792
0
VERTEX
8
0
62
7
6
CONTINUOUS
10
19.4323045128
20
24.2503888280
0
VERTEX
8
0
62
7
6
CONTINUOUS
10
19.4233319373
20
24.2543539106
0
VERTEX
8
0
62
7
6
CONTINUOUS
10
19.4135907943
20
24.2582879865
0
VERTEX
8
0
62
7
6
CONTINUOUS
10
19.4028024110
20
24.2622838239
0
VERTEX
8
0
62
7
6
CONTINUOUS
10
19.3904325152
20
24.2665165600
0
VERTEX
8
0
62
7
6
CONTINUOUS
10
19.3751408280
20
24.2714237748
0
VERTEX
8
0
62
7
6
CONTINUOUS
10
19.3563606625
20
24.2772871663
0
VERTEX
8
0
62
7
6
CONTINUOUS
10
19.3412547291
20
24.2821460462
0
VERTEX
8
0
62
7
6
CONTINUOUS
10
19.3289717033
20
24.2863627649
0
VERTEX
8
0
62
7
6
CONTINUOUS
10
19.3200686378
20
24.2895886207
0
VERTEX
8
0
62
7
6
CONTINUOUS
10
19.3096246184
20
24.2935874588
0
VERTEX
8
0
62
7
6
CONTINUOUS
10
19.3003731044
20
24.2974269068
0
VERTEX
8
0
62
7
6
CONTINUOUS
10
19.2920167774
20
24.3012169876
0
VERTEX
8
0
62
7
6
CONTINUOUS
10
19.2844180757
20
24.3050011451
0
VERTEX
8
0
62
7
6
CONTINUOUS
10
19.2774950087
20
24.3087991500
0
VERTEX
8
0
62
7
6
CONTINUOUS
10
19.2711896923
20
24.3126206264
0
VERTEX
8
0
62
7
6
CONTINUOUS
10
19.2654564374
20
24.3164705295
0
VERTEX
8
0
62
7
6
CONTINUOUS
10
19.2602566098
20
24.3203517540
0
VERTEX
8
0
62
7
6
CONTINUOUS
10
19.2555562444
20
24.3242665302
0
VERTEX
8
0
62
7
6
CONTINUOUS
10
19.2513249135
20
24.3282172418
0
VERTEX
8
0
62
7
6
CONTINUOUS
10
19.2475352184
20
24.3322069366
0
VERTEX
8
0
62
7
6
CONTINUOUS
10
19.2441626097
20
24.3362396571
0
VERTEX
8
0
62
7
6
CONTINUOUS
10
19.2411853905
20
24.3403206536
0
VERTEX
8
0
62
7
6
CONTINUOUS
10
19.2385848226
20
24.3444565096
0
VERTEX
8
0
62
7
6
CONTINUOUS
10
19.2363452854
20
24.3486551973
0
VERTEX
8
0
62
7
6
CONTINUOUS
10
19.2344544543
20
24.3529260697
0
VERTEX
8
0
62
7
6
CONTINUOUS
10
19.2326165834
20
24.3579990124
0
VERTEX
8
0
62
7
6
CONTINUOUS
10
19.2311924062
20
24.3629391205
0
VERTEX
8
0
62
7
6
CONTINUOUS
10
19.2301629092
20
24.3677570038
0
VERTEX
8
0
62
7
6
CONTINUOUS
10
19.2295129584
20
24.3724572269
0
VERTEX
8
0
62
7
6
CONTINUOUS
10
19.2292288977
20
24.3770455356
0
VERTEX
8
0
62
7
6
CONTINUOUS
10
19.2292992665
20
24.3815325720
0
VERTEX
8
0
62
7
6
CONTINUOUS
10
19.2297161423
20
24.3859287115
0
VERTEX
8
0
62
7
6
CONTINUOUS
10
19.2304751779
20
24.3902437788
0
VERTEX
8
0
62
7
6
CONTINUOUS
10
19.2315755500
20
24.3944867382
0
VERTEX
8
0
62
7
6
CONTINUOUS
10
19.2330198078
20
24.3986653709
0
VERTEX
8
0
62
7
6
CONTINUOUS
10
19.2348136150
20
24.4027859512
0
VERTEX
8
0
62
7
6
CONTINUOUS
10
19.2369653791
20
24.4068529320
0
VERTEX
8
0
62
7
6
CONTINUOUS
10
19.2394857656
20
24.4108686474
0
VERTEX
8
0
62
7
6
CONTINUOUS
10
19.2423870922
20
24.4148330342
0
VERTEX
8
0
62
7
6
CONTINUOUS
10
19.2456825936
20
24.4187433731
0
VERTEX
8
0
62
7
6
CONTINUOUS
10
19.2493855419
20
24.4225940469
0
VERTEX
8
0
62
7
6
CONTINUOUS
10
19.2535082002
20
24.4263763127
0
VERTEX
8
0
62
7
6
CONTINUOUS
10
19.2580605786
20
24.4300780902
0
VERTEX
8
0
62
7
6
CONTINUOUS
10
19.2630489587
20
24.4336837715
0
VERTEX
8
0
62
7
6
CONTINUOUS
10
19.2684741544
20
24.4371740718
0
VERTEX
8
0
62
7
6
CONTINUOUS
10
19.2743294869
20
24.4405259530
0
VERTEX
8
0
62
7
6
CONTINUOUS
10
19.2805984886
20
24.4437126764
0
VERTEX
8
0
62
7
6
CONTINUOUS
10
19.2854936643
20
24.4459495809
0
VERTEX
8
0
62
7
6
CONTINUOUS
10
19.2929134032
20
24.4489955102
0
VERTEX
8
0
62
7
6
CONTINUOUS
10
19.3008268112
20
24.4518642292
0
VERTEX
8
0
62
7
6
CONTINUOUS
10
19.3092469692
20
24.4545430441
0
VERTEX
8
0
62
7
6
CONTINUOUS
10
19.3181845177
20
24.4570180868
0
VERTEX
8
0
62
7
6
CONTINUOUS
10
19.3276468758
20
24.4592744514
0
VERTEX
8
0
62
7
6
CONTINUOUS
10
19.3376373260
20
24.4612963629
0
VERTEX
8
0
62
7
6
CONTINUOUS
10
19.3481539431
20
24.4630673908
0
VERTEX
8
0
62
7
6
CONTINUOUS
10
19.3591883463
20
24.4645707207
0
VERTEX
8
0
62
7
6
CONTINUOUS
10
19.3707242616
20
24.4657895009
0
VERTEX
8
0
62
7
6
CONTINUOUS
10
19.3827358918
20
24.4667072866
0
VERTEX
8
0
62
7
6
CONTINUOUS
10
19.3951861148
20
24.4673086011
0
VERTEX
8
0
62
7
6
CONTINUOUS
10
19.4080245675
20
24.4675796409
0
VERTEX
8
0
62
7
6
CONTINUOUS
10
19.4211857304
20
24.4675091394
0
VERTEX
8
0
62
7
6
CONTINUOUS
10
19.4345872039
20
24.4670893975
0
VERTEX
8
0
62
7
6
CONTINUOUS
10
19.4481284746
20
24.4663174637
0
VERTEX
8
0
62
7
6
CONTINUOUS
10
19.4616905769
20
24.4651964069
0
VERTEX
8
0
62
7
6
CONTINUOUS
10
19.4751371510
20
24.4637365731
0
VERTEX
8
0
62
7
6
CONTINUOUS
10
19.4883174175
20
24.4619566491
0
VERTEX
8
0
62
7
6
CONTINUOUS
10
19.4958426463
20
24.4607773489
0
VERTEX
8
0
62
7
6
CONTINUOUS
10
19.5081975348
20
24.4585647826
0
VERTEX
8
0
62
7
6
CONTINUOUS
10
19.5198014859
20
24.4561424171
0
SEQEND
0
POLYLINE
8
0
62
7
6
CONTINUOUS
66
1
70
0
0
VERTEX
8
0
62
7
6
CONTINUOUS
10
19.5198014859
20
24.3973660282
0
VERTEX
8
0
62
7
6
CONTINUOUS
10
19.5117571229
20
24.4022356756
0
VERTEX
8
0
62
7
6
CONTINUOUS
10
19.5038255306
20
24.4066261048
0
VERTEX
8
0
62
7
6
CONTINUOUS
10
19.4959624205
20
24.4105741378
0
VERTEX
8
0
62
7
6
CONTINUOUS
10
19.4881254002
20
24.4141104415
0
VERTEX
8
0
62
7
6
CONTINUOUS
10
19.4802730366
20
24.4172602164
0
VERTEX
8
0
62
7
6
CONTINUOUS
10
19.4723640055
20
24.4200437097
0
VERTEX
8
0
62
7
6
CONTINUOUS
10
19.4683756414
20
24.4213030203
0
VERTEX
8
0
62
7
6
CONTINUOUS
10
19.4643618082
20
24.4224750394
0
VERTEX
8
0
62
7
6
CONTINUOUS
10
19.4562433934
20
24.4245615216
0
VERTEX
8
0
62
7
6
CONTINUOUS
10
19.4479647476
20
24.4263134511
0
VERTEX
8
0
62
7
6
CONTINUOUS
10
19.4394794777
20
24.4277369815
0
VERTEX
8
0
62
7
6
CONTINUOUS
10
19.4307378530
20
24.4288342303
0
VERTEX
8
0
62
7
6
CONTINUOUS
10
19.4216856949
20
24.4296032875
0
VERTEX
8
0
62
7
6
CONTINUOUS
10
19.4122630358
20
24.4300381186
0
VERTEX
8
0
62
7
6
CONTINUOUS
10
19.4104072200
20
24.4300825439
0
VERTEX
8
0
62
7
6
CONTINUOUS
10
19.4028982246
20
24.4300900038
0
VERTEX
8
0
62
7
6
CONTINUOUS
10
19.3942246919
20
24.4297778360
0
VERTEX
8
0
62
7
6
CONTINUOUS
10
19.3855618870
20
24.4291402337
0
VERTEX
8
0
62
7
6
CONTINUOUS
10
19.3772172453
20
24.4282018884
0
VERTEX
8
0
62
7
6
CONTINUOUS
10
19.3693520752
20
24.4269924199
0
VERTEX
8
0
62
7
6
CONTINUOUS
10
19.3620462174
20
24.4255417048
0
VERTEX
8
0
62
7
6
CONTINUOUS
10
19.3553322437
20
24.4238779864
0
VERTEX
8
0
62
7
6
CONTINUOUS
10
19.3492144492
20
24.4220270465
0
VERTEX
8
0
62
7
6
CONTINUOUS
10
19.3436799689
20
24.4200117981
0
VERTEX
8
0
62
7
6
CONTINUOUS
10
19.3387056222
20
24.4178520417
0
VERTEX
8
0
62
7
6
CONTINUOUS
10
19.3342623396
20
24.4155642769
0
VERTEX
8
0
62
7
6
CONTINUOUS
10
19.3303181778
20
24.4131615276
0
VERTEX
8
0
62
7
6
CONTINUOUS
10
19.3268404929
20
24.4106531677
0
VERTEX
8
0
62
7
6
CONTINUOUS
10
19.3237976083
20
24.4080447576
0
VERTEX
8
0
62
7
6
CONTINUOUS
10
19.3211601788
20
24.4053379123
0
VERTEX
8
0
62
7
6
CONTINUOUS
10
19.3189023639
20
24.4025302346
0
VERTEX
8
0
62
7
6
CONTINUOUS
10
19.3170028615
20
24.3996153488
0
VERTEX
8
0
62
7
6
CONTINUOUS
10
19.3154458091
20
24.3965830656
0
VERTEX
8
0
62
7
6
CONTINUOUS
10
19.3142215239
20
24.3934196922
0
VERTEX
8
0
62
7
6
CONTINUOUS
10
19.3133270430
20
24.3901084760
0
VERTEX
8
0
62
7
6
CONTINUOUS
10
19.3127664264
20
24.3866301445
0
VERTEX
8
0
62
7
6
CONTINUOUS
10
19.3125816858
20
24.3832979079
0
VERTEX
8
0
62
7
6
CONTINUOUS
10
19.3127580380
20
24.3800411223
0
VERTEX
8
0
62
7
6
CONTINUOUS
10
19.3132890792
20
24.3768402069
0
VERTEX
8
0
62
7
6
CONTINUOUS
10
19.3141767899
20
24.3736765003
0
VERTEX
8
0
62
7
6
CONTINUOUS
10
19.3154312928
20
24.3705328629
0
VERTEX
8
0
62
7
6
CONTINUOUS
10
19.3170703591
20
24.3673941892
0
VERTEX
8
0
62
7
6
CONTINUOUS
10
19.3191187188
20
24.3642477772
0
VERTEX
8
0
62
7
6
CONTINUOUS
10
19.3216072548
20
24.3610835363
0
VERTEX
8
0
62
7
6
CONTINUOUS
10
19.3245721463
20
24.3578940430
0
VERTEX
8
0
62
7
6
CONTINUOUS
10
19.3280540108
20
24.3546744706
0
VERTEX
8
0
62
7
6
CONTINUOUS
10
19.3320970721
20
24.3514224231
0
VERTEX
8
0
62
7
6
CONTINUOUS
10
19.3367483706
20
24.3481376830
0
VERTEX
8
0
62
7
6
CONTINUOUS
10
19.3420570534
20
24.3448218576
0
VERTEX
8
0
62
7
6
CONTINUOUS
10
19.3480738634
20
24.3414778367
0
VERTEX
8
0
62
7
6
CONTINUOUS
10
19.3548512188
20
24.3381088238
0
VERTEX
8
0
62
7
6
CONTINUOUS
10
19.3624451378
20
24.3347162778
0
VERTEX
8
0
62
7
6
CONTINUOUS
10
19.3709234342
20
24.3312946725
0
VERTEX
8
0
62
7
6
CONTINUOUS
10
19.3803991062
20
24.3278147299
0
VERTEX
8
0
62
7
6
CONTINUOUS
10
19.3912073090
20
24.3241442163
0
VERTEX
8
0
62
7
6
CONTINUOUS
10
19.3989171506
20
24.3215818372
0
VERTEX
8
0
62
7
6
CONTINUOUS
10
19.4161960045
20
24.3158495699
0
VERTEX
8
0
62
7
6
CONTINUOUS
10
19.4339732664
20
24.3100844636
0
VERTEX
8
0
62
7
6
CONTINUOUS
10
19.4511939032
20
24.3043699953
0
VERTEX
8
0
62
7
6
CONTINUOUS
10
19.4650323595
20
24.2995096634
0
VERTEX
8
0
62
7
6
CONTINUOUS
10
19.4770716622
20
24.2949687296
0
VERTEX
8
0
62
7
6
CONTINUOUS
10
19.4879297139
20
24.2905378826
0
VERTEX
8
0
62
7
6
CONTINUOUS
10
19.4979253362
20
24.2861078020
0
VERTEX
8
0
62
7
6
CONTINUOUS
10
19.5072498438
20
24.2816112243
0
VERTEX
8
0
62
7
6
CONTINUOUS
10
19.5141516512
20
24.2779409421
0
VERTEX
8
0
62
7
6
CONTINUOUS
10
19.5204591699
20
24.2741918751
0
VERTEX
8
0
62
7
6
CONTINUOUS
10
19.5261996268
20
24.2703740679
0
VERTEX
8
0
62
7
6
CONTINUOUS
10
19.5313996276
20
24.2664963298
0
VERTEX
8
0
62
7
6
CONTINUOUS
10
19.5360849443
20
24.2625661369
0
VERTEX
8
0
62
7
6
CONTINUOUS
10
19.5402802750
20
24.2585895478
0
VERTEX
8
0
62
7
6
CONTINUOUS
10
19.5440089776
20
24.2545711390
0
VERTEX
8
0
62
7
6
CONTINUOUS
10
19.5472927797
20
24.2505139693
0
VERTEX
8
0
62
7
6
CONTINUOUS
10
19.5501514728
20
24.2464195831
0
VERTEX
8
0
62
7
6
CONTINUOUS
10
19.5526025973
20
24.2422880620
0
VERTEX
8
0
62
7
6
CONTINUOUS
10
19.5546611362
20
24.2381181343
0
VERTEX
8
0
62
7
6
CONTINUOUS
10
19.5563372450
20
24.2339129867
0
VERTEX
8
0
62
7
6
CONTINUOUS
10
19.5576403659
20
24.2296735542
0
VERTEX
8
0
62
7
6
CONTINUOUS
10
19.5585787429
20
24.2253964665
0
VERTEX
8
0
62
7
6
CONTINUOUS
10
19.5591574039
20
24.2210778675
0
VERTEX
8
0
62
7
6
CONTINUOUS
10
19.5593781325
20
24.2167138031
0
VERTEX
8
0
62
7
6
CONTINUOUS
10
19.5592395493
20
24.2123006483
0
VERTEX
8
0
62
7
6
CONTINUOUS
10
19.5587373137
20
24.2078355546
0
VERTEX
8
0
62
7
6
CONTINUOUS
10
19.5578644457
20
24.2033169019
0
VERTEX
8
0
62
7
6
CONTINUOUS
10
19.5566117662
20
24.1987447347
0
VERTEX
8
0
62
7
6
CONTINUOUS
10
19.5549684455
20
24.1941211675
0
VERTEX
8
0
62
7
6
CONTINUOUS
10
19.5529226485
20
24.1894507441
0
VERTEX
8
0
62
7
6
CONTINUOUS
10
19.5504622587
20
24.1847407366
0
VERTEX
8
0
62
7
6
CONTINUOUS
10
19.5475756630
20
24.1800013716
0
VERTEX
8
0
62
7
6
CONTINUOUS
10
19.5442525713
20
24.1752459683
0
VERTEX
8
0
62
7
6
CONTINUOUS
10
19.5404848425
20
24.1704909755
0
VERTEX
8
0
62
7
6
CONTINUOUS
10
19.5362672799
20
24.1657558940
0
VERTEX
8
0
62
7
6
CONTINUOUS
10
19.5315983567
20
24.1610630738
0
VERTEX
8
0
62
7
6
CONTINUOUS
10
19.5264808258
20
24.1564373813
0
VERTEX
8
0
62
7
6
CONTINUOUS
10
19.5209221695
20
24.1519057396
0
VERTEX
8
0
62
7
6
CONTINUOUS
10
19.5149348517
20
24.1474965543
0
VERTEX
8
0
62
7
6
CONTINUOUS
10
19.5085363423
20
24.1432390513
0
VERTEX
8
0
62
7
6
CONTINUOUS
10
19.5017489034
20
24.1391625606
0
VERTEX
8
0
62
7
6
CONTINUOUS
10
19.4945991468
20
24.1352957902
0
VERTEX
8
0
62
7
6
CONTINUOUS
10
19.4871173901
20
24.1316661358
0
VERTEX
8
0
62
7
6
CONTINUOUS
10
19.4824558797
20
24.1296013803
0
VERTEX
8
0
62
7
6
CONTINUOUS
10
19.4745288643
20
24.1264104622
0
VERTEX
8
0
62
7
6
CONTINUOUS
10
19.4663765922
20
24.1235216096
0
VERTEX
8
0
62
7
6
CONTINUOUS
10
19.4577119194
20
24.1208422081
0
VERTEX
8
0
62
7
6
CONTINUOUS
10
19.4485475089
20
24.1183867874
0
VERTEX
8
0
62
7
6
CONTINUOUS
10
19.4388791152
20
24.1161705401
0
VERTEX
8
0
62
7
6
CONTINUOUS
10
19.4287066834
20
24.1142093983
0
VERTEX
8
0
62
7
6
CONTINUOUS
10
19.4180352826
20
24.1125197858
0
VERTEX
8
0
62
7
6
CONTINUOUS
10
19.4068761449
20
24.1111183119
0
VERTEX
8
0
62
7
6
CONTINUOUS
10
19.3952478039
20
24.1100213942
0
VERTEX
8
0
62
7
6
CONTINUOUS
10
19.3831773088
20
24.1092447976
0
VERTEX
8
0
62
7
6
CONTINUOUS
10
19.3707014691
20
24.1088030783
0
VERTEX
8
0
62
7
6
CONTINUOUS
10
19.3578680603
20
24.1087089250
0
VERTEX
8
0
62
7
6
CONTINUOUS
10
19.3447368782
20
24.1089723994
0
VERTEX
8
0
62
7
6
CONTINUOUS
10
19.3313804944
20
24.1096000883
0
VERTEX
8
0
62
7
6
CONTINUOUS
10
19.3178845218
20
24.1105942033
0
VERTEX
8
0
62
7
6
CONTINUOUS
10
19.3043471703
20
24.1119516847
0
VERTEX
8
0
62
7
6
CONTINUOUS
10
19.2908778752
20
24.1136633967
0
VERTEX
8
0
62
7
6
CONTINUOUS
10
19.2775948242
20
24.1157135255
0
VERTEX
8
0
62
7
6
CONTINUOUS
10
19.2748366282
20
24.1161857278
0
VERTEX
8
0
62
7
6
CONTINUOUS
10
19.2619808300
20
24.1186068799
0
VERTEX
8
0
62
7
6
CONTINUOUS
10
19.2496415056
20
24.1212914599
0
VERTEX
8
0
62
7
6
CONTINUOUS
10
19.2379264859
20
24.1241993615
0
SEQEND
0
LINE
8
0
62
7
6
CONTINUOUS
10
21.5131556526
20
24.4353354726
11
21.7783667637
21
24.1949590837
0
LINE
8
0
62
7
6
CONTINUOUS
10
21.7247362081
20
24.1595799171
11
21.4762084303
21
24.3859049171
0
LINE
8
0
62
7
6
CONTINUOUS
10
21.5030237081
20
24.4457396393
11
21.5131556526
21
24.4353354726
0
LINE
8
0
62
7
6
CONTINUOUS
10
22.4457250970
20
23.8457563060
11
22.3629750970
21
23.9330646393
0
LINE
8
0
62
7
6
CONTINUOUS
10
22.3710723192
20
23.9132757504
11
22.4538223192
21
23.8253715837
0
LINE
8
0
62
2
6
CONTINUOUS
10
40.8161270938
20
2.2847806233
11
40.8352240938
21
2.2602656233
0
LINE
8
0
62
2
6
CONTINUOUS
10
40.8185998411
20
2.2847806233
11
40.8376968411
21
2.2602656233
0
POLYLINE
8
0
62
7
6
CONTINUOUS
66
1
70
0
0
VERTEX
8
0
62
7
6
CONTINUOUS
10
22.3861278748
20
24.1503021393
0
VERTEX
8
0
62
7
6
CONTINUOUS
10
22.3875961189
20
24.1505135154
0
VERTEX
8
0
62
7
6
CONTINUOUS
10
22.3885974881
20
24.1506437605
0
VERTEX
8
0
62
7
6
CONTINUOUS
10
22.3895114526
20
24.1507463869
0
VERTEX
8
0
62
7
6
CONTINUOUS
10
22.3903935466
20
24.1508278414
0
VERTEX
8
0
62
7
6
CONTINUOUS
10
22.3912734712
20
24.1508907216
0
VERTEX
8
0
62
7
6
CONTINUOUS
10
22.3921708154
20
24.1509359576
0
VERTEX
8
0
62
7
6
CONTINUOUS
10
22.3931004930
20
24.1509635662
0
VERTEX
8
0
62
7
6
CONTINUOUS
10
22.3940750970
20
24.1509729726
0
VERTEX
8
0
62
7
6
CONTINUOUS
10
22.3947433295
20
24.1509654992
0
VERTEX
8
0
62
7
6
CONTINUOUS
10
22.3954679971
20
24.1509395293
0
VERTEX
8
0
62
7
6
CONTINUOUS
10
22.3961601992
20
24.1508957681
0
VERTEX
8
0
62
7
6
CONTINUOUS
10
22.3968205922
20
24.1508350410
0
VERTEX
8
0
62
7
6
CONTINUOUS
10
22.3974498347
20
24.1507581623
0
VERTEX
8
0
62
7
6
CONTINUOUS
10
22.3980485872
20
24.1506659339
0
VERTEX
8
0
62
7
6
CONTINUOUS
10
22.3986175109
20
24.1505591438
0
VERTEX
8
0
62
7
6
CONTINUOUS
10
22.3991572674
20
24.1504385646
0
VERTEX
8
0
62
7
6
CONTINUOUS
10
22.3996685172
20
24.1503049521
0
VERTEX
8
0
62
7
6
CONTINUOUS
10
22.4001519184
20
24.1501590437
0
VERTEX
8
0
62
7
6
CONTINUOUS
10
22.4006081251
20
24.1500015567
0
VERTEX
8
0
62
7
6
CONTINUOUS
10
22.4010377852
20
24.1498331868
0
VERTEX
8
0
62
7
6
CONTINUOUS
10
22.4014415386
20
24.1496546065
0
VERTEX
8
0
62
7
6
CONTINUOUS
10
22.4018200136
20
24.1494664636
0
VERTEX
8
0
62
7
6
CONTINUOUS
10
22.4021738247
20
24.1492693806
0
VERTEX
8
0
62
7
6
CONTINUOUS
10
22.4025035683
20
24.1490639532
0
VERTEX
8
0
62
7
6
CONTINUOUS
10
22.4026596026
20
24.1489582842
0
VERTEX
8
0
62
7
6
CONTINUOUS
10
22.4028098192
20
24.1488507504
0
VERTEX
8
0
62
7
6
CONTINUOUS
10
22.4030844567
20
24.1486367368
0
VERTEX
8
0
62
7
6
CONTINUOUS
10
22.4033425304
20
24.1484114153
0
VERTEX
8
0
62
7
6
CONTINUOUS
10
22.4035845929
20
24.1481746200
0
VERTEX
8
0
62
7
6
CONTINUOUS
10
22.4038111129
20
24.1479261011
0
VERTEX
8
0
62
7
6
CONTINUOUS
10
22.4040224709
20
24.1476655273
0
VERTEX
8
0
62
7
6
CONTINUOUS
10
22.4042189540
20
24.1473924890
0
VERTEX
8
0
62
7
6
CONTINUOUS
10
22.4043116956
20
24.1472511243
0
VERTEX
8
0
62
7
6
CONTINUOUS
10
22.4044007451
20
24.1471065157
0
VERTEX
8
0
62
7
6
CONTINUOUS
10
22.4045677001
20
24.1468075115
0
VERTEX
8
0
62
7
6
CONTINUOUS
10
22.4047198881
20
24.1464949016
0
VERTEX
8
0
62
7
6
CONTINUOUS
10
22.4048572767
20
24.1461680482
0
VERTEX
8
0
62
7
6
CONTINUOUS
10
22.4049797324
20
24.1458262564
0
VERTEX
8
0
62
7
6
CONTINUOUS
10
22.4050870220
20
24.1454687794
0
VERTEX
8
0
62
7
6
CONTINUOUS
10
22.4051788147
20
24.1450948239
0
VERTEX
8
0
62
7
6
CONTINUOUS
10
22.4052546847
20
24.1447035551
0
VERTEX
8
0
62
7
6
CONTINUOUS
10
22.4053141147
20
24.1442941016
0
VERTEX
8
0
62
7
6
CONTINUOUS
10
22.4053565000
20
24.1438655589
0
VERTEX
8
0
62
7
6
CONTINUOUS
10
22.4053811517
20
24.1434169943
0
VERTEX
8
0
62
7
6
CONTINUOUS
10
22.4053875970
20
24.1430313060
0
VERTEX
8
0
62
7
6
CONTINUOUS
10
22.4053779792
20
24.1426356298
0
VERTEX
8
0
62
7
6
CONTINUOUS
10
22.4053494798
20
24.1422512447
0
VERTEX
8
0
62
7
6
CONTINUOUS
10
22.4053025805
20
24.1418778017
0
VERTEX
8
0
62
7
6
CONTINUOUS
10
22.4052376956
20
24.1415149689
0
VERTEX
8
0
62
7
6
CONTINUOUS
10
22.4051551716
20
24.1411624361
0
VERTEX
8
0
62
7
6
CONTINUOUS
10
22.4050552874
20
24.1408199206
0
VERTEX
8
0
62
7
6
CONTINUOUS
10
22.4049382557
20
24.1404871727
0
VERTEX
8
0
62
7
6
CONTINUOUS
10
22.4048042256
20
24.1401639820
0
VERTEX
8
0
62
7
6
CONTINUOUS
10
22.4046532870
20
24.1398501824
0
VERTEX
8
0
62
7
6
CONTINUOUS
10
22.4044854754
20
24.1395456592
0
VERTEX
8
0
62
7
6
CONTINUOUS
10
22.4043007800
20
24.1392503535
0
VERTEX
8
0
62
7
6
CONTINUOUS
10
22.4040991519
20
24.1389642681
0
VERTEX
8
0
62
7
6
CONTINUOUS
10
22.4038805150
20
24.1386874720
0
VERTEX
8
0
62
7
6
CONTINUOUS
10
22.4036447783
20
24.1384201040
0
VERTEX
8
0
62
7
6
CONTINUOUS
10
22.4033918498
20
24.1381623756
0
VERTEX
8
0
62
7
6
CONTINUOUS
10
22.4031216526
20
24.1379145735
0
VERTEX
8
0
62
7
6
CONTINUOUS
10
22.4028341419
20
24.1376770594
0
VERTEX
8
0
62
7
6
CONTINUOUS
10
22.4025293246
20
24.1374502697
0
VERTEX
8
0
62
7
6
CONTINUOUS
10
22.4022072789
20
24.1372347127
0
VERTEX
8
0
62
7
6
CONTINUOUS
10
22.4018681761
20
24.1370309647
0
VERTEX
8
0
62
7
6
CONTINUOUS
10
22.4015123024
20
24.1368396628
0
VERTEX
8
0
62
7
6
CONTINUOUS
10
22.4011400809
20
24.1366614968
0
VERTEX
8
0
62
7
6
CONTINUOUS
10
22.4007520929
20
24.1364971977
0
VERTEX
8
0
62
7
6
CONTINUOUS
10
22.4003490973
20
24.1363475237
0
VERTEX
8
0
62
7
6
CONTINUOUS
10
22.3999320479
20
24.1362132436
0
VERTEX
8
0
62
7
6
CONTINUOUS
10
22.3998945414
20
24.1362021393
0
SEQEND
0
POLYLINE
8
0
62
7
6
CONTINUOUS
66
1
70
0
0
VERTEX
8
0
62
7
6
CONTINUOUS
10
22.3594889859
20
24.1241993615
0
VERTEX
8
0
62
7
6
CONTINUOUS
10
22.3459746261
20
24.1223835197
0
VERTEX
8
0
62
7
6
CONTINUOUS
10
22.3120897244
20
24.1179511210
0
VERTEX
8
0
62
7
6
CONTINUOUS
10
22.2855785842
20
24.1147970164
0
VERTEX
8
0
62
7
6
CONTINUOUS
10
22.2625790254
20
24.1124387077
0
VERTEX
8
0
62
7
6
CONTINUOUS
10
22.2417108834
20
24.1107048388
0
VERTEX
8
0
62
7
6
CONTINUOUS
10
22.2222901049
20
24.1095127047
0
VERTEX
8
0
62
7
6
CONTINUOUS
10
22.2039153791
20
24.1088162887
0
VERTEX
8
0
62
7
6
CONTINUOUS
10
22.1863250970
20
24.1085882504
0
VERTEX
8
0
62
7
6
CONTINUOUS
10
22.1775753330
20
24.1086428254
0
VERTEX
8
0
62
7
6
CONTINUOUS
10
22.1598951885
20
24.1090968805
0
VERTEX
8
0
62
7
6
CONTINUOUS
10
22.1427985665
20
24.1099980008
0
VERTEX
8
0
62
7
6
CONTINUOUS
10
22.1262921714
20
24.1113301457
0
VERTEX
8
0
62
7
6
CONTINUOUS
10
22.1103814672
20
24.1130768110
0
VERTEX
8
0
62
7
6
CONTINUOUS
10
22.0950706090
20
24.1152211049
0
VERTEX
8
0
62
7
6
CONTINUOUS
10
22.0803623870
20
24.1177458359
0
VERTEX
8
0
62
7
6
CONTINUOUS
10
22.0662581868
20
24.1206336112
0
VERTEX
8
0
62
7
6
CONTINUOUS
10
22.0527579669
20
24.1238669442
0
VERTEX
8
0
62
7
6
CONTINUOUS
10
22.0398602557
20
24.1274283709
0
VERTEX
8
0
62
7
6
CONTINUOUS
10
22.0275621694
20
24.1313005730
0
VERTEX
8
0
62
7
6
CONTINUOUS
10
22.0158594524
20
24.1354665066
0
VERTEX
8
0
62
7
6
CONTINUOUS
10
22.0047465395
20
24.1399095335
0
VERTEX
8
0
62
7
6
CONTINUOUS
10
21.9942166420
20
24.1446135545
0
VERTEX
8
0
62
7
6
CONTINUOUS
10
21.9842618559
20
24.1495631410
0
VERTEX
8
0
62
7
6
CONTINUOUS
10
21.9748732926
20
24.1547436628
0
VERTEX
8
0
62
7
6
CONTINUOUS
10
21.9660412303
20
24.1601414105
0
VERTEX
8
0
62
7
6
CONTINUOUS
10
21.9577552854
20
24.1657437084
0
VERTEX
8
0
62
7
6
CONTINUOUS
10
21.9500046001
20
24.1715390165
0
VERTEX
8
0
62
7
6
CONTINUOUS
10
21.9427780468
20
24.1775170181
0
VERTEX
8
0
62
7
6
CONTINUOUS
10
21.9360644425
20
24.1836686910
0
VERTEX
8
0
62
7
6
CONTINUOUS
10
21.9298527733
20
24.1899863598
0
VERTEX
8
0
62
7
6
CONTINUOUS
10
21.9241324231
20
24.1964637268
0
VERTEX
8
0
62
7
6
CONTINUOUS
10
21.9188934026
20
24.2030958796
0
VERTEX
8
0
62
7
6
CONTINUOUS
10
21.9141265752
20
24.2098792750
0
VERTEX
8
0
62
7
6
CONTINUOUS
10
21.9098238726
20
24.2168116963
0
VERTEX
8
0
62
7
6
CONTINUOUS
10
21.9059784972
20
24.2238921868
0
VERTEX
8
0
62
7
6
CONTINUOUS
10
21.9025851049
20
24.2311209580
0
VERTEX
8
0
62
7
6
CONTINUOUS
10
21.8996399649
20
24.2384992745
0
VERTEX
8
0
62
7
6
CONTINUOUS
10
21.8971410898
20
24.2460293206
0
VERTEX
8
0
62
7
6
CONTINUOUS
10
21.8950883361
20
24.2537140487
0
VERTEX
8
0
62
7
6
CONTINUOUS
10
21.8934843838
20
24.2615517667
0
VERTEX
8
0
62
7
6
CONTINUOUS
10
21.8923323780
20
24.2695431622
0
VERTEX
8
0
62
7
6
CONTINUOUS
10
21.8916365049
20
24.2776923174
0
VERTEX
8
0
62
7
6
CONTINUOUS
10
21.8914028748
20
24.2860035282
0
VERTEX
8
0
62
7
6
CONTINUOUS
10
21.8916369334
20
24.2943650356
0
VERTEX
8
0
62
7
6
CONTINUOUS
10
21.8923340441
20
24.3025599686
0
VERTEX
8
0
62
7
6
CONTINUOUS
10
21.8934872982
20
24.3105898175
0
VERTEX
8
0
62
7
6
CONTINUOUS
10
21.8950910075
20
24.3184571526
0
VERTEX
8
0
62
7
6
CONTINUOUS
10
21.8971418595
20
24.3261681146
0
VERTEX
8
0
62
7
6
CONTINUOUS
10
21.8996386624
20
24.3337281839
0
VERTEX
8
0
62
7
6
CONTINUOUS
10
21.9025822832
20
24.3411420154
0
VERTEX
8
0
62
7
6
CONTINUOUS
10
21.9059755491
20
24.3484132784
0
VERTEX
8
0
62
7
6
CONTINUOUS
10
21.9098231120
20
24.3555445089
0
VERTEX
8
0
62
7
6
CONTINUOUS
10
21.9141312798
20
24.3625369761
0
VERTEX
8
0
62
7
6
CONTINUOUS
10
21.9189078145
20
24.3693905692
0
VERTEX
8
0
62
7
6
CONTINUOUS
10
21.9241617032
20
24.3761037047
0
VERTEX
8
0
62
7
6
CONTINUOUS
10
21.9299029049
20
24.3826732581
0
VERTEX
8
0
62
7
6
CONTINUOUS
10
21.9361420766
20
24.3890945204
0
VERTEX
8
0
62
7
6
CONTINUOUS
10
21.9428902848
20
24.3953611802
0
VERTEX
8
0
62
7
6
CONTINUOUS
10
21.9501587064
20
24.4014653314
0
VERTEX
8
0
62
7
6
CONTINUOUS
10
21.9579583223
20
24.4073975059
0
VERTEX
8
0
62
7
6
CONTINUOUS
10
21.9662996109
20
24.4131467309
0
VERTEX
8
0
62
7
6
CONTINUOUS
10
21.9751922431
20
24.4187006099
0
VERTEX
8
0
62
7
6
CONTINUOUS
10
21.9846447866
20
24.4240454250
0
VERTEX
8
0
62
7
6
CONTINUOUS
10
21.9946644213
20
24.4291662614
0
VERTEX
8
0
62
7
6
CONTINUOUS
10
22.0052566737
20
24.4340471495
0
VERTEX
8
0
62
7
6
CONTINUOUS
10
22.0164251734
20
24.4386712254
0
VERTEX
8
0
62
7
6
CONTINUOUS
10
22.0281714377
20
24.4430209057
0
VERTEX
8
0
62
7
6
CONTINUOUS
10
22.0404946881
20
24.4470780741
0
VERTEX
8
0
62
7
6
CONTINUOUS
10
22.0533917053
20
24.4508242778
0
VERTEX
8
0
62
7
6
CONTINUOUS
10
22.0668567241
20
24.4542409288
0
VERTEX
8
0
62
7
6
CONTINUOUS
10
22.0808813727
20
24.4573095073
0
VERTEX
8
0
62
7
6
CONTINUOUS
10
22.0954546580
20
24.4600117622
0
VERTEX
8
0
62
7
6
CONTINUOUS
10
22.1105629975
20
24.4623299057
0
VERTEX
8
0
62
7
6
CONTINUOUS
10
22.1261902967
20
24.4642467967
0
VERTEX
8
0
62
7
6
CONTINUOUS
10
22.1423180703
20
24.4657461097
0
VERTEX
8
0
62
7
6
CONTINUOUS
10
22.1589256039
20
24.4668124858
0
VERTEX
8
0
62
7
6
CONTINUOUS
10
22.1759901493
20
24.4674316624
0
VERTEX
8
0
62
7
6
CONTINUOUS
10
22.1906653748
20
24.4675965837
0
VERTEX
8
0
62
7
6
CONTINUOUS
10
22.2088855507
20
24.4673627321
0
VERTEX
8
0
62
7
6
CONTINUOUS
10
22.2272185510
20
24.4666592244
0
VERTEX
8
0
62
7
6
CONTINUOUS
10
22.2457136335
20
24.4654810390
0
VERTEX
8
0
62
7
6
CONTINUOUS
10
22.2644245744
20
24.4638201249
0
VERTEX
8
0
62
7
6
CONTINUOUS
10
22.2834108321
20
24.4616650215
0
VERTEX
8
0
62
7
6
CONTINUOUS
10
22.3027390502
20
24.4590003499
0
VERTEX
8
0
62
7
6
CONTINUOUS
10
22.3044209303
20
24.4587465837
0
SEQEND
0
POLYLINE
8
0
62
7
6
CONTINUOUS
66
1
70
0
0
VERTEX
8
0
62
7
6
CONTINUOUS
10
20.4842306526
20
24.2948604726
0
VERTEX
8
0
62
7
6
CONTINUOUS
10
20.4924470132
20
24.2958037310
0
VERTEX
8
0
62
7
6
CONTINUOUS
10
20.5003131228
20
24.2968377661
0
VERTEX
8
0
62
7
6
CONTINUOUS
10
20.5075563688
20
24.2979296338
0
VERTEX
8
0
62
7
6
CONTINUOUS
10
20.5143265293
20
24.2990935317
0
VERTEX
8
0
62
7
6
CONTINUOUS
10
20.5207224839
20
24.3003392845
0
VERTEX
8
0
62
7
6
CONTINUOUS
10
20.5268139933
20
24.3016743384
0
VERTEX
8
0
62
7
6
CONTINUOUS
10
20.5326527585
20
24.3031047804
0
VERTEX
8
0
62
7
6
CONTINUOUS
10
20.5382785850
20
24.3046359134
0
VERTEX
8
0
62
7
6
CONTINUOUS
10
20.5437230692
20
24.3062726048
0
VERTEX
8
0
62
7
6
CONTINUOUS
10
20.5490119265
20
24.3080195129
0
VERTEX
8
0
62
7
6
CONTINUOUS
10
20.5541665275
20
24.3098812398
0
VERTEX
8
0
62
7
6
CONTINUOUS
10
20.5592049495
20
24.3118624396
0
VERTEX
8
0
62
7
6
CONTINUOUS
10
20.5641427176
20
24.3139678988
0
VERTEX
8
0
62
7
6
CONTINUOUS
10
20.5645611293
20
24.3141542361
0
VERTEX
8
0
62
7
6
CONTINUOUS
10
20.5686420698
20
24.3160598925
0
VERTEX
8
0
62
7
6
CONTINUOUS
10
20.5725152166
20
24.3180294949
0
VERTEX
8
0
62
7
6
CONTINUOUS
10
20.5761746237
20
24.3200542401
0
VERTEX
8
0
62
7
6
CONTINUOUS
10
20.5796182927
20
24.3221267644
0
VERTEX
8
0
62
7
6
CONTINUOUS
10
20.5828470502
20
24.3242409294
0
VERTEX
8
0
62
7
6
CONTINUOUS
10
20.5858637313
20
24.3263916634
0
VERTEX
8
0
62
7
6
CONTINUOUS
10
20.5886725727
20
24.3285748402
0
VERTEX
8
0
62
7
6
CONTINUOUS
10
20.5912787544
20
24.3307871875
0
VERTEX
8
0
62
7
6
CONTINUOUS
10
20.5936880434
20
24.3330262158
0
VERTEX
8
0
62
7
6
CONTINUOUS
10
20.5959065130
20
24.3352901628
0
VERTEX
8
0
62
7
6
CONTINUOUS
10
20.5979403159
20
24.3375779477
0
VERTEX
8
0
62
7
6
CONTINUOUS
10
20.5997954971
20
24.3398891335
0
VERTEX
8
0
62
7
6
CONTINUOUS
10
20.6014778370
20
24.3422238924
0
VERTEX
8
0
62
7
6
CONTINUOUS
10
20.6029927177
20
24.3445829739
0
VERTEX
8
0
62
7
6
CONTINUOUS
10
20.6043450074
20
24.3469676715
0
VERTEX
8
0
62
7
6
CONTINUOUS
10
20.6055389615
20
24.3493797896
0
VERTEX
8
0
62
7
6
CONTINUOUS
10
20.6065781370
20
24.3518216057
0
VERTEX
8
0
62
7
6
CONTINUOUS
10
20.6074653199
20
24.3542958310
0
VERTEX
8
0
62
7
6
CONTINUOUS
10
20.6082024661
20
24.3568055673
0
VERTEX
8
0
62
7
6
CONTINUOUS
10
20.6087906540
20
24.3593542604
0
VERTEX
8
0
62
7
6
CONTINUOUS
10
20.6092300506
20
24.3619456528
0
VERTEX
8
0
62
7
6
CONTINUOUS
10
20.6095198896
20
24.3645837336
0
VERTEX
8
0
62
7
6
CONTINUOUS
10
20.6096584620
20
24.3672726903
0
VERTEX
8
0
62
7
6
CONTINUOUS
10
20.6096431168
20
24.3700168611
0
VERTEX
8
0
62
7
6
CONTINUOUS
10
20.6094702738
20
24.3728206903
0
VERTEX
8
0
62
7
6
CONTINUOUS
10
20.6091354435
20
24.3756886875
0
VERTEX
8
0
62
7
6
CONTINUOUS
10
20.6086818122
20
24.3783004157
0
VERTEX
8
0
62
7
6
CONTINUOUS
10
20.6080829958
20
24.3808499320
0
VERTEX
8
0
62
7
6
CONTINUOUS
10
20.6073399637
20
24.3833409742
0
VERTEX
8
0
62
7
6
CONTINUOUS
10
20.6064528225
20
24.3857769493
0
VERTEX
8
0
62
7
6
CONTINUOUS
10
20.6054208455
20
24.3881608778
0
VERTEX
8
0
62
7
6
CONTINUOUS
10
20.6042425181
20
24.3904953401
0
VERTEX
8
0
62
7
6
CONTINUOUS
10
20.6029155971
20
24.3927824228
0
VERTEX
8
0
62
7
6
CONTINUOUS
10
20.6014371884
20
24.3950236694
0
VERTEX
8
0
62
7
6
CONTINUOUS
10
20.5998038410
20
24.3972200326
0
VERTEX
8
0
62
7
6
CONTINUOUS
10
20.5980116608
20
24.3993718300
0
VERTEX
8
0
62
7
6
CONTINUOUS
10
20.5960564450
20
24.4014787027
0
VERTEX
8
0
62
7
6
CONTINUOUS
10
20.5939338419
20
24.4035395755
0
VERTEX
8
0
62
7
6
CONTINUOUS
10
20.5916395395
20
24.4055526185
0
VERTEX
8
0
62
7
6
CONTINUOUS
10
20.5891694910
20
24.4075152081
0
VERTEX
8
0
62
7
6
CONTINUOUS
10
20.5865201857
20
24.4094238868
0
VERTEX
8
0
62
7
6
CONTINUOUS
10
20.5836889785
20
24.4112743210
0
VERTEX
8
0
62
7
6
CONTINUOUS
10
20.5806744939
20
24.4130612562
0
VERTEX
8
0
62
7
6
CONTINUOUS
10
20.5774771263
20
24.4147784698
0
VERTEX
8
0
62
7
6
CONTINUOUS
10
20.5740996613
20
24.4164187242
0
VERTEX
8
0
62
7
6
CONTINUOUS
10
20.5705480512
20
24.4179737259
0
VERTEX
8
0
62
7
6
CONTINUOUS
10
20.5668323787
20
24.4194340990
0
VERTEX
8
0
62
7
6
CONTINUOUS
10
20.5629680427
20
24.4207893919
0
VERTEX
8
0
62
7
6
CONTINUOUS
10
20.5589771890
20
24.4220281453
0
VERTEX
8
0
62
7
6
CONTINUOUS
10
20.5548903703
20
24.4231380690
0
VERTEX
8
0
62
7
6
CONTINUOUS
10
20.5507483418
20
24.4241063971
0
VERTEX
8
0
62
7
6
CONTINUOUS
10
20.5489997886
20
24.4244687387
0
VERTEX
8
0
62
7
6
CONTINUOUS
10
20.5444100024
20
24.4253057123
0
VERTEX
8
0
62
7
6
CONTINUOUS
10
20.5397461870
20
24.4260003794
0
VERTEX
8
0
62
7
6
CONTINUOUS
10
20.5349903885
20
24.4265539131
0
VERTEX
8
0
62
7
6
CONTINUOUS
10
20.5301212240
20
24.4269666387
0
VERTEX
8
0
62
7
6
CONTINUOUS
10
20.5251126131
20
24.4272378951
0
VERTEX
8
0
62
7
6
CONTINUOUS
10
20.5199318345
20
24.4273658144
0
VERTEX
8
0
62
7
6
CONTINUOUS
10
20.5145364124
20
24.4273469582
0
VERTEX
8
0
62
7
6
CONTINUOUS
10
20.5088688310
20
24.4271756873
0
VERTEX
8
0
62
7
6
CONTINUOUS
10
20.5028468706
20
24.4268429913
0
VERTEX
8
0
62
7
6
CONTINUOUS
10
20.4963440890
20
24.4263341018
0
VERTEX
8
0
62
7
6
CONTINUOUS
10
20.4891443943
20
24.4256229137
0
VERTEX
8
0
62
7
6
CONTINUOUS
10
20.4808102791
20
24.4246558126
0
VERTEX
8
0
62
7
6
CONTINUOUS
10
20.4701092292
20
24.4232819139
0
VERTEX
8
0
62
7
6
CONTINUOUS
10
20.4668431526
20
24.4228507504
0
SEQEND
0
LINE
8
0
62
7
6
CONTINUOUS
10
19.9176084303
20
24.4592757504
11
19.9509334303
21
24.4629174171
0
LINE
8
0
62
7
6
CONTINUOUS
10
20.1936695414
20
24.3214035282
11
20.2255570414
21
24.3245160282
0
LINE
8
0
62
7
6
CONTINUOUS
10
20.2328070414
20
24.4592757504
11
20.2668584303
21
24.4618660282
0
LINE
8
0
62
7
6
CONTINUOUS
10
20.1813542637
20
24.4218132504
11
20.1074473192
21
24.4181785282
0
POLYLINE
8
0
62
7
6
CONTINUOUS
66
1
70
0
0
VERTEX
8
0
62
7
6
CONTINUOUS
10
22.2586305896
20
23.8845229909
0
VERTEX
8
0
62
7
6
CONTINUOUS
10
22.2611536275
20
23.8845894247
0
VERTEX
8
0
62
7
6
CONTINUOUS
10
22.2632786120
20
23.8847516143
0
VERTEX
8
0
62
7
6
CONTINUOUS
10
22.2651409378
20
23.8850069036
0
VERTEX
8
0
62
7
6
CONTINUOUS
10
22.2668158953
20
23.8853549713
0
VERTEX
8
0
62
7
6
CONTINUOUS
10
22.2683515302
20
23.8857976419
0
VERTEX
8
0
62
7
6
CONTINUOUS
10
22.2697813919
20
23.8863389825
0
VERTEX
8
0
62
7
6
CONTINUOUS
10
22.2711303982
20
23.8869854918
0
VERTEX
8
0
62
7
6
CONTINUOUS
10
22.2724178549
20
23.8877463093
0
VERTEX
8
0
62
7
6
CONTINUOUS
10
22.2736591471
20
23.8886334214
0
VERTEX
8
0
62
7
6
CONTINUOUS
10
22.2742668217
20
23.8891292043
0
VERTEX
8
0
62
7
6
CONTINUOUS
10
22.2748667637
20
23.8896618615
0
VERTEX
8
0
62
7
6
CONTINUOUS
10
22.2759614208
20
23.8907521920
0
VERTEX
8
0
62
7
6
CONTINUOUS
10
22.2770019752
20
23.8919651579
0
VERTEX
8
0
62
7
6
CONTINUOUS
10
22.2779173522
20
23.8932315121
0
VERTEX
8
0
62
7
6
CONTINUOUS
10
22.2787108665
20
23.8945523036
0
VERTEX
8
0
62
7
6
CONTINUOUS
10
22.2793846799
20
23.8959293737
0
VERTEX
8
0
62
7
6
CONTINUOUS
10
22.2799392971
20
23.8973640720
0
VERTEX
8
0
62
7
6
CONTINUOUS
10
22.2803738788
20
23.8988564692
0
VERTEX
8
0
62
7
6
CONTINUOUS
10
22.2806876650
20
23.9004097404
0
VERTEX
8
0
62
7
6
CONTINUOUS
10
22.2808785571
20
23.9020274190
0
VERTEX
8
0
62
7
6
CONTINUOUS
10
22.2809431526
20
23.9037132504
0
VERTEX
8
0
62
7
6
CONTINUOUS
10
22.2808778643
20
23.9053818448
0
VERTEX
8
0
62
7
6
CONTINUOUS
10
22.2806831493
20
23.9070239863
0
VERTEX
8
0
62
7
6
CONTINUOUS
10
22.2803612050
20
23.9086307231
0
VERTEX
8
0
62
7
6
CONTINUOUS
10
22.2799150249
20
23.9101923444
0
VERTEX
8
0
62
7
6
CONTINUOUS
10
22.2793485819
20
23.9116985572
0
VERTEX
8
0
62
7
6
CONTINUOUS
10
22.2786669567
20
23.9131387440
0
VERTEX
8
0
62
7
6
CONTINUOUS
10
22.2778936973
20
23.9144750833
0
VERTEX
8
0
62
7
6
CONTINUOUS
10
22.2770062312
20
23.9157500778
0
VERTEX
8
0
62
7
6
CONTINUOUS
10
22.2760280279
20
23.9169269544
0
VERTEX
8
0
62
7
6
CONTINUOUS
10
22.2749682724
20
23.9179982098
0
VERTEX
8
0
62
7
6
CONTINUOUS
10
22.2738362081
20
23.9189576948
0
VERTEX
8
0
62
7
6
CONTINUOUS
10
22.2727340878
20
23.9197296074
0
VERTEX
8
0
62
7
6
CONTINUOUS
10
22.2715372888
20
23.9204107640
0
VERTEX
8
0
62
7
6
CONTINUOUS
10
22.2702357547
20
23.9210037279
0
VERTEX
8
0
62
7
6
CONTINUOUS
10
22.2688166035
20
23.9215095378
0
VERTEX
8
0
62
7
6
CONTINUOUS
10
22.2672630847
20
23.9219279604
0
VERTEX
8
0
62
7
6
CONTINUOUS
10
22.2655522564
20
23.9222578784
0
VERTEX
8
0
62
7
6
CONTINUOUS
10
22.2636494413
20
23.9224979134
0
VERTEX
8
0
62
7
6
CONTINUOUS
10
22.2614928369
20
23.9226476093
0
VERTEX
8
0
62
7
6
CONTINUOUS
10
22.2589363780
20
23.9227107943
0
VERTEX
8
0
62
7
6
CONTINUOUS
10
22.2571389859
20
23.9227160282
0
VERTEX
8
0
62
7
6
CONTINUOUS
10
22.2477125970
20
23.9227160282
0
SEQEND
0
POLYLINE
8
0
62
7
6
CONTINUOUS
66
1
70
0
0
VERTEX
8
0
62
7
6
CONTINUOUS
10
22.1732639859
20
24.4301271393
0
VERTEX
8
0
62
7
6
CONTINUOUS
10
22.1633987934
20
24.4299910373
0
VERTEX
8
0
62
7
6
CONTINUOUS
10
22.1526789643
20
24.4295274006
0
VERTEX
8
0
62
7
6
CONTINUOUS
10
22.1421793250
20
24.4287419188
0
VERTEX
8
0
62
7
6
CONTINUOUS
10
22.1319184467
20
24.4276427846
0
VERTEX
8
0
62
7
6
CONTINUOUS
10
22.1219139336
20
24.4262390985
0
VERTEX
8
0
62
7
6
CONTINUOUS
10
22.1121822431
20
24.4245407943
0
VERTEX
8
0
62
7
6
CONTINUOUS
10
22.1027385249
20
24.4225585457
0
VERTEX
8
0
62
7
6
CONTINUOUS
10
22.0935964831
20
24.4203036544
0
VERTEX
8
0
62
7
6
CONTINUOUS
10
22.0847682662
20
24.4177879248
0
VERTEX
8
0
62
7
6
CONTINUOUS
10
22.0762643889
20
24.4150235263
0
VERTEX
8
0
62
7
6
CONTINUOUS
10
22.0680936862
20
24.4120228479
0
VERTEX
8
0
62
7
6
CONTINUOUS
10
22.0602633032
20
24.4087983481
0
VERTEX
8
0
62
7
6
CONTINUOUS
10
22.0527787183
20
24.4053624039
0
VERTEX
8
0
62
7
6
CONTINUOUS
10
22.0456438006
20
24.4017271637
0
VERTEX
8
0
62
7
6
CONTINUOUS
10
22.0388608964
20
24.3979044051
0
VERTEX
8
0
62
7
6
CONTINUOUS
10
22.0324309450
20
24.3939054025
0
VERTEX
8
0
62
7
6
CONTINUOUS
10
22.0263536179
20
24.3897408069
0
VERTEX
8
0
62
7
6
CONTINUOUS
10
22.0206274782
20
24.3854205383
0
VERTEX
8
0
62
7
6
CONTINUOUS
10
22.0152501558
20
24.3809536947
0
VERTEX
8
0
62
7
6
CONTINUOUS
10
22.0102185344
20
24.3763484769
0
VERTEX
8
0
62
7
6
CONTINUOUS
10
22.0055289459
20
24.3716121315
0
VERTEX
8
0
62
7
6
CONTINUOUS
10
22.0011773684
20
24.3667509110
0
VERTEX
8
0
62
7
6
CONTINUOUS
10
21.9971596233
20
24.3617700528
0
VERTEX
8
0
62
7
6
CONTINUOUS
10
21.9934715686
20
24.3566737757
0
VERTEX
8
0
62
7
6
CONTINUOUS
10
21.9901092850
20
24.3514652936
0
VERTEX
8
0
62
7
6
CONTINUOUS
10
21.9870692508
20
24.3461468462
0
VERTEX
8
0
62
7
6
CONTINUOUS
10
21.9843485043
20
24.3407197455
0
VERTEX
8
0
62
7
6
CONTINUOUS
10
21.9819447893
20
24.3351844355
0
VERTEX
8
0
62
7
6
CONTINUOUS
10
21.9798566837
20
24.3295405650
0
VERTEX
8
0
62
7
6
CONTINUOUS
10
21.9780837078
20
24.3237870704
0
VERTEX
8
0
62
7
6
CONTINUOUS
10
21.9766264123
20
24.3179222662
0
VERTEX
8
0
62
7
6
CONTINUOUS
10
21.9754864453
20
24.3119439414
0
VERTEX
8
0
62
7
6
CONTINUOUS
10
21.9746665973
20
24.3058494582
0
VERTEX
8
0
62
7
6
CONTINUOUS
10
21.9741708264
20
24.2996358518
0
VERTEX
8
0
62
7
6
CONTINUOUS
10
21.9740460268
20
24.2964833497
0
VERTEX
8
0
62
7
6
CONTINUOUS
10
21.9740042637
20
24.2933007504
0
VERTEX
8
0
62
7
6
CONTINUOUS
10
21.9741707992
20
24.2871705611
0
VERTEX
8
0
62
7
6
CONTINUOUS
10
21.9746687606
20
24.2810942403
0
VERTEX
8
0
62
7
6
CONTINUOUS
10
21.9754964388
20
24.2750713981
0
VERTEX
8
0
62
7
6
CONTINUOUS
10
21.9766530948
20
24.2691020733
0
VERTEX
8
0
62
7
6
CONTINUOUS
10
21.9781388890
20
24.2631868378
0
VERTEX
8
0
62
7
6
CONTINUOUS
10
21.9799547895
20
24.2573268989
0
VERTEX
8
0
62
7
6
CONTINUOUS
10
21.9821024584
20
24.2515241950
0
VERTEX
8
0
62
7
6
CONTINUOUS
10
21.9845841179
20
24.2457814837
0
VERTEX
8
0
62
7
6
CONTINUOUS
10
21.9874023975
20
24.2401024189
0
VERTEX
8
0
62
7
6
CONTINUOUS
10
21.9905601642
20
24.2344916143
0
VERTEX
8
0
62
7
6
CONTINUOUS
10
21.9940603382
20
24.2289546915
0
VERTEX
8
0
62
7
6
CONTINUOUS
10
21.9979056988
20
24.2234983107
0
VERTEX
8
0
62
7
6
CONTINUOUS
10
22.0020986817
20
24.2181301815
0
VERTEX
8
0
62
7
6
CONTINUOUS
10
22.0066411747
20
24.2128590533
0
VERTEX
8
0
62
7
6
CONTINUOUS
10
22.0115343148
20
24.2076946834
0
VERTEX
8
0
62
7
6
CONTINUOUS
10
22.0167782929
20
24.2026477831
0
VERTEX
8
0
62
7
6
CONTINUOUS
10
22.0223721704
20
24.1977299406
0
VERTEX
8
0
62
7
6
CONTINUOUS
10
22.0283137151
20
24.1929535224
0
VERTEX
8
0
62
7
6
CONTINUOUS
10
22.0345992600
20
24.1883315540
0
VERTEX
8
0
62
7
6
CONTINUOUS
10
22.0412235916
20
24.1838775822
0
VERTEX
8
0
62
7
6
CONTINUOUS
10
22.0481798711
20
24.1796055214
0
VERTEX
8
0
62
7
6
CONTINUOUS
10
22.0554595932
20
24.1755294890
0
VERTEX
8
0
62
7
6
CONTINUOUS
10
22.0630525840
20
24.1716636324
0
VERTEX
8
0
62
7
6
CONTINUOUS
10
22.0709470391
20
24.1680219546
0
VERTEX
8
0
62
7
6
CONTINUOUS
10
22.0791296013
20
24.1646181424
0
VERTEX
8
0
62
7
6
CONTINUOUS
10
22.0875854757
20
24.1614654019
0
VERTEX
8
0
62
7
6
CONTINUOUS
10
22.0962985772
20
24.1585763086
0
VERTEX
8
0
62
7
6
CONTINUOUS
10
22.1052517059
20
24.1559626743
0
VERTEX
8
0
62
7
6
CONTINUOUS
10
22.1144267444
20
24.1536354351
0
VERTEX
8
0
62
7
6
CONTINUOUS
10
22.1220932077
20
24.1519497752
0
VERTEX
8
0
62
7
6
CONTINUOUS
10
22.1316149050
20
24.1501697583
0
VERTEX
8
0
62
7
6
CONTINUOUS
10
22.1412966198
20
24.1487020440
0
VERTEX
8
0
62
7
6
CONTINUOUS
10
22.1511188838
20
24.1475528414
0
VERTEX
8
0
62
7
6
CONTINUOUS
10
22.1610624792
20
24.1467273304
0
VERTEX
8
0
62
7
6
CONTINUOUS
10
22.1711085993
20
24.1462297083
0
VERTEX
8
0
62
7
6
CONTINUOUS
10
22.1812389859
20
24.1460632504
0
VERTEX
8
0
62
7
6
CONTINUOUS
10
22.1934937125
20
24.1462033625
0
VERTEX
8
0
62
7
6
CONTINUOUS
10
22.2068251092
20
24.1466736777
0
VERTEX
8
0
62
7
6
CONTINUOUS
10
22.2200416513
20
24.1474697902
0
VERTEX
8
0
62
7
6
CONTINUOUS
10
22.2330637220
20
24.1485826748
0
VERTEX
8
0
62
7
6
CONTINUOUS
10
22.2458214591
20
24.1500004982
0
VERTEX
8
0
62
7
6
CONTINUOUS
10
22.2582551402
20
24.1517092872
0
VERTEX
8
0
62
7
6
CONTINUOUS
10
22.2703150863
20
24.1536935551
0
VERTEX
8
0
62
7
6
CONTINUOUS
10
22.2819612081
20
24.1559368615
0
SEQEND
0
LINE
8
0
62
7
6
CONTINUOUS
10
21.7850264859
20
23.8069382504
11
21.7163403748
21
23.8069382504
0
LINE
8
0
62
7
6
CONTINUOUS
10
21.7074167637
20
23.8069382504
11
21.6358417637
21
23.8069382504
0
LINE
8
0
62
7
6
CONTINUOUS
10
21.8269237081
20
23.8070201948
11
21.7939375970
21
23.8070201948
0
LINE
8
0
62
7
6
CONTINUOUS
10
22.2477125970
20
23.8300507504
11
22.2395889859
21
23.8300507504
0
LINE
8
0
62
7
6
CONTINUOUS
10
22.1136528748
20
23.8300507504
11
22.1216139859
21
23.8300507504
0
LINE
8
0
62
7
6
CONTINUOUS
10
22.2229056526
20
23.8300507504
11
22.2308000970
21
23.8300507504
0
LINE
8
0
62
7
6
CONTINUOUS
10
22.3629750970
20
23.8300507504
11
22.3710723192
21
23.8300507504
0
LINE
8
0
62
7
6
CONTINUOUS
10
22.4923153748
20
23.8300507504
11
22.5004389859
21
23.8300507504
0
LINE
8
0
62
7
6
CONTINUOUS
10
21.1896820414
20
23.8701438060
11
21.2254695414
21
23.8701438060
0
LINE
8
0
62
7
6
CONTINUOUS
10
22.2970570414
20
23.8701438060
11
22.3328500970
21
23.8701438060
0
LINE
8
0
62
7
6
CONTINUOUS
10
22.2578987081
20
23.8768035282
11
22.2477125970
21
23.8768035282
0
POLYLINE
8
0
62
7
6
CONTINUOUS
66
1
70
0
0
VERTEX
8
0
62
7
6
CONTINUOUS
10
21.8268695414
20
23.8779701948
0
VERTEX
8
0
62
7
6
CONTINUOUS
10
21.8364181526
20
23.8779701948
0
VERTEX
8
0
62
7
6
CONTINUOUS
10
21.8376535289
20
23.8780341748
0
VERTEX
8
0
62
7
6
CONTINUOUS
10
21.8388692164
20
23.8782251561
0
VERTEX
8
0
62
7
6
CONTINUOUS
10
21.8400569479
20
23.8785414281
0
VERTEX
8
0
62
7
6
CONTINUOUS
10
21.8412070730
20
23.8789805486
0
VERTEX
8
0
62
7
6
CONTINUOUS
10
21.8423086728
20
23.8795388848
0
VERTEX
8
0
62
7
6
CONTINUOUS
10
21.8433498663
20
23.8802112206
0
VERTEX
8
0
62
7
6
CONTINUOUS
10
21.8443183041
20
23.8809905155
0
VERTEX
8
0
62
7
6
CONTINUOUS
10
21.8443649483
20
23.8810324553
0
VERTEX
8
0
62
7
6
CONTINUOUS
10
21.8452429193
20
23.8819134643
0
VERTEX
8
0
62
7
6
CONTINUOUS
10
21.8460217982
20
23.8828779081
0
VERTEX
8
0
62
7
6
CONTINUOUS
10
21.8466930913
20
23.8839138658
0
VERTEX
8
0
62
7
6
CONTINUOUS
10
21.8472501848
20
23.8850095265
0
VERTEX
8
0
62
7
6
CONTINUOUS
10
21.8476882234
20
23.8861537595
0
VERTEX
8
0
62
7
6
CONTINUOUS
10
21.8480037920
20
23.8873365242
0
VERTEX
8
0
62
7
6
CONTINUOUS
10
21.8481944830
20
23.8885490912
0
VERTEX
8
0
62
7
6
CONTINUOUS
10
21.8482584303
20
23.8897840837
0
VERTEX
8
0
62
7
6
CONTINUOUS
10
21.8481944830
20
23.8910273924
0
VERTEX
8
0
62
7
6
CONTINUOUS
10
21.8480036625
20
23.8922501078
0
VERTEX
8
0
62
7
6
CONTINUOUS
10
21.8476877161
20
23.8934443855
0
VERTEX
8
0
62
7
6
CONTINUOUS
10
21.8472490477
20
23.8946009718
0
VERTEX
8
0
62
7
6
CONTINUOUS
10
21.8466911927
20
23.8957092769
0
VERTEX
8
0
62
7
6
CONTINUOUS
10
21.8460192453
20
23.8967576377
0
VERTEX
8
0
62
7
6
CONTINUOUS
10
21.8452401524
20
23.8977337778
0
VERTEX
8
0
62
7
6
CONTINUOUS
10
21.8451630710
20
23.8978198743
0
VERTEX
8
0
62
7
6
CONTINUOUS
10
21.8442773437
20
23.8987029368
0
VERTEX
8
0
62
7
6
CONTINUOUS
10
21.8433086620
20
23.8994863454
0
VERTEX
8
0
62
7
6
CONTINUOUS
10
21.8422694281
20
23.9001613840
0
VERTEX
8
0
62
7
6
CONTINUOUS
10
21.8411720359
20
23.9007212881
0
VERTEX
8
0
62
7
6
CONTINUOUS
10
21.8400282453
20
23.9011611671
0
VERTEX
8
0
62
7
6
CONTINUOUS
10
21.8388487151
20
23.9014777058
0
VERTEX
8
0
62
7
6
CONTINUOUS
10
21.8376427347
20
23.9016687255
0
VERTEX
8
0
62
7
6
CONTINUOUS
10
21.8364181526
20
23.9017326948
0
VERTEX
8
0
62
7
6
CONTINUOUS
10
21.8268695414
20
23.9017326948
0
SEQEND
0
LINE
8
0
62
7
6
CONTINUOUS
10
22.2477125970
20
23.8845215837
11
22.2586305896
21
23.8845229909
0
LINE
8
0
62
7
6
CONTINUOUS
10
21.7163403748
20
23.9303104726
11
21.7847681526
21
23.9303104726
0
POLYLINE
8
0
62
7
6
CONTINUOUS
66
1
70
0
0
VERTEX
8
0
62
7
6
CONTINUOUS
10
21.7939375970
20
23.9303104726
0
VERTEX
8
0
62
7
6
CONTINUOUS
10
21.8362139859
20
23.9303104726
0
VERTEX
8
0
62
7
6
CONTINUOUS
10
21.8381914530
20
23.9302661611
0
VERTEX
8
0
62
7
6
CONTINUOUS
10
21.8401535075
20
23.9301336383
0
VERTEX
8
0
62
7
6
CONTINUOUS
10
21.8420982666
20
23.9299135186
0
VERTEX
8
0
62
7
6
CONTINUOUS
10
21.8440236581
20
23.9296064322
0
VERTEX
8
0
62
7
6
CONTINUOUS
10
21.8459274090
20
23.9292130534
0
VERTEX
8
0
62
7
6
CONTINUOUS
10
21.8478070375
20
23.9287341308
0
VERTEX
8
0
62
7
6
CONTINUOUS
10
21.8496598492
20
23.9281705194
0
VERTEX
8
0
62
7
6
CONTINUOUS
10
21.8514829366
20
23.9275232141
0
VERTEX
8
0
62
7
6
CONTINUOUS
10
21.8532731857
20
23.9267933832
0
VERTEX
8
0
62
7
6
CONTINUOUS
10
21.8550272869
20
23.9259824013
0
VERTEX
8
0
62
7
6
CONTINUOUS
10
21.8567417536
20
23.9250918798
0
VERTEX
8
0
62
7
6
CONTINUOUS
10
21.8584129460
20
23.9241236945
0
VERTEX
8
0
62
7
6
CONTINUOUS
10
21.8600371031
20
23.9230800078
0
VERTEX
8
0
62
7
6
CONTINUOUS
10
21.8616103799
20
23.9219632855
0
VERTEX
8
0
62
7
6
CONTINUOUS
10
21.8631288906
20
23.9207763053
0
VERTEX
8
0
62
7
6
CONTINUOUS
10
21.8645887560
20
23.9195221573
0
VERTEX
8
0
62
7
6
CONTINUOUS
10
21.8659861543
20
23.9182042343
0
VERTEX
8
0
62
7
6
CONTINUOUS
10
21.8673173729
20
23.9168262138
0
VERTEX
8
0
62
7
6
CONTINUOUS
10
21.8684811689
20
23.9155080451
0
VERTEX
8
0
62
7
6
CONTINUOUS
10
21.8696740840
20
23.9140276804
0
VERTEX
8
0
62
7
6
CONTINUOUS
10
21.8707903506
20
23.9125006907
0
VERTEX
8
0
62
7
6
CONTINUOUS
10
21.8718273743
20
23.9109315607
0
VERTEX
8
0
62
7
6
CONTINUOUS
10
21.8727828855
20
23.9093247979
0
VERTEX
8
0
62
7
6
CONTINUOUS
10
21.8736549481
20
23.9076848781
0
VERTEX
8
0
62
7
6
CONTINUOUS
10
21.8744419566
20
23.9060161924
0
VERTEX
8
0
62
7
6
CONTINUOUS
10
21.8751426246
20
23.9043229991
0
VERTEX
8
0
62
7
6
CONTINUOUS
10
21.8757559644
20
23.9026093825
0
VERTEX
8
0
62
7
6
CONTINUOUS
10
21.8762812584
20
23.9008792178
0
VERTEX
8
0
62
7
6
CONTINUOUS
10
21.8767180257
20
23.8991361450
0
VERTEX
8
0
62
7
6
CONTINUOUS
10
21.8770659836
20
23.8973835505
0
VERTEX
8
0
62
7
6
CONTINUOUS
10
21.8773250068
20
23.8956245570
0
VERTEX
8
0
62
7
6
CONTINUOUS
10
21.8774950861
20
23.8938620207
0
VERTEX
8
0
62
7
6
CONTINUOUS
10
21.8775762865
20
23.8920985358
0
VERTEX
8
0
62
7
6
CONTINUOUS
10
21.8775687075
20
23.8903364446
0
VERTEX
8
0
62
7
6
CONTINUOUS
10
21.8774724464
20
23.8885778529
0
VERTEX
8
0
62
7
6
CONTINUOUS
10
21.8772875637
20
23.8868246492
0
VERTEX
8
0
62
7
6
CONTINUOUS
10
21.8770140539
20
23.8850785269
0
VERTEX
8
0
62
7
6
CONTINUOUS
10
21.8766518190
20
23.8833410089
0
VERTEX
8
0
62
7
6
CONTINUOUS
10
21.8762006478
20
23.8816134732
0
VERTEX
8
0
62
7
6
CONTINUOUS
10
21.8756601981
20
23.8798971784
0
VERTEX
8
0
62
7
6
CONTINUOUS
10
21.8750299845
20
23.8781932896
0
VERTEX
8
0
62
7
6
CONTINUOUS
10
21.8743093692
20
23.8765029032
0
VERTEX
8
0
62
7
6
CONTINUOUS
10
21.8734975569
20
23.8748270704
0
VERTEX
8
0
62
7
6
CONTINUOUS
10
21.8725935927
20
23.8731668184
0
VERTEX
8
0
62
7
6
CONTINUOUS
10
21.8715963630
20
23.8715231708
0
VERTEX
8
0
62
7
6
CONTINUOUS
10
21.8705045990
20
23.8698971652
0
VERTEX
8
0
62
7
6
CONTINUOUS
10
21.8693168821
20
23.8682898683
0
VERTEX
8
0
62
7
6
CONTINUOUS
10
21.8680316505
20
23.8667023893
0
VERTEX
8
0
62
7
6
CONTINUOUS
10
21.8666472077
20
23.8651358914
0
VERTEX
8
0
62
7
6
CONTINUOUS
10
21.8651617313
20
23.8635916004
0
VERTEX
8
0
62
7
6
CONTINUOUS
10
21.8635732828
20
23.8620708118
0
VERTEX
8
0
62
7
6
CONTINUOUS
10
21.8618801544
20
23.8605751825
0
VERTEX
8
0
62
7
6
CONTINUOUS
10
21.8600805084
20
23.8591063358
0
VERTEX
8
0
62
7
6
CONTINUOUS
10
21.8581721689
20
23.8576657326
0
VERTEX
8
0
62
7
6
CONTINUOUS
10
21.8561528748
20
23.8562549171
0
SEQEND
0
LINE
8
0
62
7
6
CONTINUOUS
10
22.5339403748
20
23.9304465837
11
22.5254237081
21
23.9304465837
0
LINE
8
0
62
7
6
CONTINUOUS
10
22.4681042637
20
23.9304465837
11
22.4588264859
21
23.9304465837
0
LINE
8
0
62
7
6
CONTINUOUS
10
22.4538223192
20
23.9304465837
11
22.4457250970
21
23.9304465837
0
LINE
8
0
62
7
6
CONTINUOUS
10
22.2395889859
20
23.9304465837
11
22.2578987081
21
23.9304465837
0
LINE
8
0
62
7
6
CONTINUOUS
10
22.5374264859
20
23.9584007504
11
19.0562250970
21
23.9584007504
0
POLYLINE
8
0
62
7
6
CONTINUOUS
66
1
70
0
0
VERTEX
8
0
62
7
6
CONTINUOUS
10
19.0583487081
20
23.9809563060
0
VERTEX
8
0
62
7
6
CONTINUOUS
10
22.5328153748
20
23.9809563060
0
VERTEX
8
0
62
7
6
CONTINUOUS
10
22.5328153748
20
24.5951674171
0
SEQEND
0
POLYLINE
8
0
62
7
6
CONTINUOUS
66
1
70
0
0
VERTEX
8
0
62
7
6
CONTINUOUS
10
19.0724945414
20
24.0002035282
0
VERTEX
8
0
62
7
6
CONTINUOUS
10
22.5171903748
20
24.0002035282
0
VERTEX
8
0
62
7
6
CONTINUOUS
10
22.5171903748
20
24.5781451948
0
SEQEND
0
POLYLINE
8
0
62
7
6
CONTINUOUS
66
1
70
0
0
VERTEX
8
0
62
7
6
CONTINUOUS
10
22.4805153748
20
24.0332563060
0
VERTEX
8
0
62
7
6
CONTINUOUS
10
19.1106750970
20
24.0332563060
0
VERTEX
8
0
62
7
6
CONTINUOUS
10
19.1106750970
20
24.5428590837
0
SEQEND
0
POLYLINE
8
0
62
7
6
CONTINUOUS
66
1
70
0
0
VERTEX
8
0
62
7
6
CONTINUOUS
10
22.4737875970
20
24.0399701948
0
VERTEX
8
0
62
7
6
CONTINUOUS
10
19.1173889859
20
24.0399701948
0
VERTEX
8
0
62
7
6
CONTINUOUS
10
19.1173889859
20
24.5361451948
0
SEQEND
0
LINE
8
0
62
7
6
CONTINUOUS
10
21.5138737081
20
24.1169160282
11
21.3856250970
21
24.1169160282
0
LINE
8
0
62
7
6
CONTINUOUS
10
21.3088292637
20
24.1169160282
11
21.1711417637
21
24.1169160282
0
LINE
8
0
62
7
6
CONTINUOUS
10
21.1037792637
20
24.1169160282
11
20.8059542637
21
24.1169160282
0
LINE
8
0
62
7
6
CONTINUOUS
10
20.7900237081
20
24.1169160282
11
20.7233528748
21
24.1169160282
0
LINE
8
0
62
7
6
CONTINUOUS
10
20.4994487081
20
24.1169160282
11
20.3610487081
21
24.1169160282
0
LINE
8
0
62
7
6
CONTINUOUS
10
20.3030862081
20
24.1169160282
11
20.0009278748
21
24.1169160282
0
LINE
8
0
62
7
6
CONTINUOUS
10
19.8378959303
20
24.1169160282
11
19.6944292637
21
24.1169160282
0
LINE
8
0
62
7
6
CONTINUOUS
10
22.4063778748
20
24.1222049171
11
22.4016848192
21
24.1222049171
0
LINE
8
0
62
7
6
CONTINUOUS
10
22.3906028748
20
24.1222049171
11
22.3861278748
21
24.1222049171
0
POLYLINE
8
0
62
7
6
CONTINUOUS
66
1
70
0
0
VERTEX
8
0
62
7
6
CONTINUOUS
10
22.3906028748
20
24.1377688060
0
VERTEX
8
0
62
7
6
CONTINUOUS
10
22.3938445414
20
24.1377688060
0
VERTEX
8
0
62
7
6
CONTINUOUS
10
22.3941439201
20
24.1377717735
0
VERTEX
8
0
62
7
6
CONTINUOUS
10
22.3945399557
20
24.1377851362
0
VERTEX
8
0
62
7
6
CONTINUOUS
10
22.3949232271
20
24.1378089132
0
VERTEX
8
0
62
7
6
CONTINUOUS
10
22.3952932641
20
24.1378427140
0
VERTEX
8
0
62
7
6
CONTINUOUS
10
22.3956497256
20
24.1378861312
0
VERTEX
8
0
62
7
6
CONTINUOUS
10
22.3959923880
20
24.1379387493
0
VERTEX
8
0
62
7
6
CONTINUOUS
10
22.3963211325
20
24.1380001511
0
VERTEX
8
0
62
7
6
CONTINUOUS
10
22.3966359329
20
24.1380699246
0
VERTEX
8
0
62
7
6
CONTINUOUS
10
22.3969368437
20
24.1381476687
0
VERTEX
8
0
62
7
6
CONTINUOUS
10
22.3972239884
20
24.1382329980
0
VERTEX
8
0
62
7
6
CONTINUOUS
10
22.3974975485
20
24.1383255471
0
VERTEX
8
0
62
7
6
CONTINUOUS
10
22.3977577536
20
24.1384249748
0
VERTEX
8
0
62
7
6
CONTINUOUS
10
22.3980048709
20
24.1385309671
0
VERTEX
8
0
62
7
6
CONTINUOUS
10
22.3982391967
20
24.1386432399
0
VERTEX
8
0
62
7
6
CONTINUOUS
10
22.3984610480
20
24.1387615419
0
VERTEX
8
0
62
7
6
CONTINUOUS
10
22.3986707540
20
24.1388856562
0
VERTEX
8
0
62
7
6
CONTINUOUS
10
22.3988686492
20
24.1390154023
0
VERTEX
8
0
62
7
6
CONTINUOUS
10
22.3990550667
20
24.1391506369
0
VERTEX
8
0
62
7
6
CONTINUOUS
10
22.3992303309
20
24.1392912554
0
VERTEX
8
0
62
7
6
CONTINUOUS
10
22.3993947524
20
24.1394371922
0
VERTEX
8
0
62
7
6
CONTINUOUS
10
22.3995486220
20
24.1395884204
0
VERTEX
8
0
62
7
6
CONTINUOUS
10
22.3996922055
20
24.1397449523
0
VERTEX
8
0
62
7
6
CONTINUOUS
10
22.3998257388
20
24.1399068384
0
VERTEX
8
0
62
7
6
CONTINUOUS
10
22.3999494243
20
24.1400741662
0
VERTEX
8
0
62
7
6
CONTINUOUS
10
22.4000634263
20
24.1402470591
0
VERTEX
8
0
62
7
6
CONTINUOUS
10
22.4001678683
20
24.1404256742
0
VERTEX
8
0
62
7
6
CONTINUOUS
10
22.4002628300
20
24.1406102008
0
VERTEX
8
0
62
7
6
CONTINUOUS
10
22.4003483454
20
24.1408008575
0
VERTEX
8
0
62
7
6
CONTINUOUS
10
22.4004244012
20
24.1409978901
0
VERTEX
8
0
62
7
6
CONTINUOUS
10
22.4004909357
20
24.1412015685
0
VERTEX
8
0
62
7
6
CONTINUOUS
10
22.4005478384
20
24.1414121845
0
VERTEX
8
0
62
7
6
CONTINUOUS
10
22.4005949142
20
24.1416298590
0
VERTEX
8
0
62
7
6
CONTINUOUS
10
22.4006319755
20
24.1418548523
0
VERTEX
8
0
62
7
6
CONTINUOUS
10
22.4006588037
20
24.1420874976
0
VERTEX
8
0
62
7
6
CONTINUOUS
10
22.4006751330
20
24.1423281410
0
VERTEX
8
0
62
7
6
CONTINUOUS
10
22.4006806526
20
24.1425771393
0
VERTEX
8
0
62
7
6
CONTINUOUS
10
22.4006762760
20
24.1427877425
0
VERTEX
8
0
62
7
6
CONTINUOUS
10
22.4006610437
20
24.1430206142
0
VERTEX
8
0
62
7
6
CONTINUOUS
10
22.4006350678
20
24.1432494383
0
VERTEX
8
0
62
7
6
CONTINUOUS
10
22.4005985327
20
24.1434738635
0
VERTEX
8
0
62
7
6
CONTINUOUS
10
22.4005516213
20
24.1436936032
0
VERTEX
8
0
62
7
6
CONTINUOUS
10
22.4004945074
20
24.1439084279
0
VERTEX
8
0
62
7
6
CONTINUOUS
10
22.4004273494
20
24.1441181574
0
VERTEX
8
0
62
7
6
CONTINUOUS
10
22.4003502849
20
24.1443226521
0
VERTEX
8
0
62
7
6
CONTINUOUS
10
22.4002634263
20
24.1445218060
0
VERTEX
8
0
62
7
6
CONTINUOUS
10
22.4001668580
20
24.1447155383
0
VERTEX
8
0
62
7
6
CONTINUOUS
10
22.4000606332
20
24.1449037871
0
VERTEX
8
0
62
7
6
CONTINUOUS
10
22.3999447732
20
24.1450865023
0
VERTEX
8
0
62
7
6
CONTINUOUS
10
22.3998192660
20
24.1452636396
0
VERTEX
8
0
62
7
6
CONTINUOUS
10
22.3996840661
20
24.1454351555
0
VERTEX
8
0
62
7
6
CONTINUOUS
10
22.3995390951
20
24.1456010022
0
VERTEX
8
0
62
7
6
CONTINUOUS
10
22.3993842427
20
24.1457611233
0
VERTEX
8
0
62
7
6
CONTINUOUS
10
22.3992193675
20
24.1459154508
0
VERTEX
8
0
62
7
6
CONTINUOUS
10
22.3990442988
20
24.1460639014
0
VERTEX
8
0
62
7
6
CONTINUOUS
10
22.3988588383
20
24.1462063745
0
VERTEX
8
0
62
7
6
CONTINUOUS
10
22.3986627622
20
24.1463427502
0
VERTEX
8
0
62
7
6
CONTINUOUS
10
22.3984558232
20
24.1464728882
0
VERTEX
8
0
62
7
6
CONTINUOUS
10
22.3982377525
20
24.1465966262
0
VERTEX
8
0
62
7
6
CONTINUOUS
10
22.3980082618
20
24.1467137799
0
VERTEX
8
0
62
7
6
CONTINUOUS
10
22.3977671143
20
24.1468241127
0
VERTEX
8
0
62
7
6
CONTINUOUS
10
22.3975140725
20
24.1469273733
0
VERTEX
8
0
62
7
6
CONTINUOUS
10
22.3972488088
20
24.1470233280
0
VERTEX
8
0
62
7
6
CONTINUOUS
10
22.3969709827
20
24.1471117207
0
VERTEX
8
0
62
7
6
CONTINUOUS
10
22.3966802424
20
24.1471922737
0
VERTEX
8
0
62
7
6
CONTINUOUS
10
22.3963762261
20
24.1472646882
0
VERTEX
8
0
62
7
6
CONTINUOUS
10
22.3960585638
20
24.1473286456
0
VERTEX
8
0
62
7
6
CONTINUOUS
10
22.3957268784
20
24.1473838076
0
VERTEX
8
0
62
7
6
CONTINUOUS
10
22.3953807866
20
24.1474298183
0
VERTEX
8
0
62
7
6
CONTINUOUS
10
22.3950199006
20
24.1474663040
0
VERTEX
8
0
62
7
6
CONTINUOUS
10
22.3946438283
20
24.1474928752
0
VERTEX
8
0
62
7
6
CONTINUOUS
10
22.3942521745
20
24.1475091267
0
VERTEX
8
0
62
7
6
CONTINUOUS
10
22.3938445414
20
24.1475146393
0
VERTEX
8
0
62
7
6
CONTINUOUS
10
22.3933262105
20
24.1475092758
0
VERTEX
8
0
62
7
6
CONTINUOUS
10
22.3928322435
20
24.1474935600
0
VERTEX
8
0
62
7
6
CONTINUOUS
10
22.3923589241
20
24.1474679608
0
VERTEX
8
0
62
7
6
CONTINUOUS
10
22.3919013680
20
24.1474327624
0
VERTEX
8
0
62
7
6
CONTINUOUS
10
22.3914523337
20
24.1473879052
0
VERTEX
8
0
62
7
6
CONTINUOUS
10
22.3909989558
20
24.1473325553
0
VERTEX
8
0
62
7
6
CONTINUOUS
10
22.3906028748
20
24.1472771393
0
SEQEND
0
LINE
8
0
62
7
6
CONTINUOUS
10
20.3335223192
20
24.1850854726
11
20.3356917637
21
24.1850854726
0
LINE
8
0
62
7
6
CONTINUOUS
10
21.1392737081
20
24.1861021393
11
21.1414445414
21
24.1861021393
0
LINE
8
0
62
7
6
CONTINUOUS
10
20.2277348192
20
24.2693743615
11
20.2255570414
21
24.2693743615
0
LINE
8
0
62
7
6
CONTINUOUS
10
22.2486348192
20
24.2912049171
11
22.3594889859
21
24.2912049171
0
LINE
8
0
62
7
6
CONTINUOUS
10
20.1074473192
20
24.3214035282
11
20.1936695414
21
24.3214035282
0
LINE
8
0
62
7
6
CONTINUOUS
10
20.2255570414
20
24.3245160282
11
20.2277348192
21
24.3245160282
0
LINE
8
0
62
7
6
CONTINUOUS
10
22.3044209303
20
24.3989118615
11
22.3022514859
21
24.3989118615
0
LINE
8
0
62
7
6
CONTINUOUS
10
20.2690348192
20
24.4009868615
11
20.2668584303
21
24.4009868615
0
LINE
8
0
62
7
6
CONTINUOUS
10
19.9299237081
20
24.4009868615
11
19.9277459303
21
24.4009868615
0
LINE
8
0
62
7
6
CONTINUOUS
10
19.5763125970
20
24.4009868615
11
19.5741362081
21
24.4009868615
0
LINE
8
0
62
7
6
CONTINUOUS
10
19.7262959303
20
24.4218132504
11
19.6625348192
21
24.4218132504
0
LINE
8
0
62
7
6
CONTINUOUS
10
19.6292167637
20
24.4592757504
11
19.9176084303
21
24.4592757504
0
LINE
8
0
62
7
6
CONTINUOUS
10
20.0009278748
20
24.4592757504
11
20.2328070414
21
24.4592757504
0
POLYLINE
8
0
62
7
6
CONTINUOUS
66
1
70
0
0
VERTEX
8
0
62
7
6
CONTINUOUS
10
20.3610487081
20
24.4592757504
0
VERTEX
8
0
62
7
6
CONTINUOUS
10
20.5335000970
20
24.4592757504
0
VERTEX
8
0
62
7
6
CONTINUOUS
10
20.5387701374
20
24.4592395423
0
VERTEX
8
0
62
7
6
CONTINUOUS
10
20.5490273574
20
24.4589533754
0
VERTEX
8
0
62
7
6
CONTINUOUS
10
20.5588815038
20
24.4583917859
0
VERTEX
8
0
62
7
6
CONTINUOUS
10
20.5683305138
20
24.4575665555
0
VERTEX
8
0
62
7
6
CONTINUOUS
10
20.5773731037
20
24.4564897554
0
VERTEX
8
0
62
7
6
CONTINUOUS
10
20.5860088247
20
24.4551736952
0
VERTEX
8
0
62
7
6
CONTINUOUS
10
20.5942381106
20
24.4536308614
0
VERTEX
8
0
62
7
6
CONTINUOUS
10
20.6020623141
20
24.4518738465
0
VERTEX
8
0
62
7
6
CONTINUOUS
10
20.6094837309
20
24.4499152678
0
VERTEX
8
0
62
7
6
CONTINUOUS
10
20.6165056076
20
24.4477676783
0
VERTEX
8
0
62
7
6
CONTINUOUS
10
20.6231321328
20
24.4454434687
0
VERTEX
8
0
62
7
6
CONTINUOUS
10
20.6293684083
20
24.4429547644
0
VERTEX
8
0
62
7
6
CONTINUOUS
10
20.6352203997
20
24.4403133172
0
VERTEX
8
0
62
7
6
CONTINUOUS
10
20.6406948654
20
24.4375303949
0
VERTEX
8
0
62
7
6
CONTINUOUS
10
20.6457992627
20
24.4346166714
0
VERTEX
8
0
62
7
6
CONTINUOUS
10
20.6505416315
20
24.4315821202
0
VERTEX
8
0
62
7
6
CONTINUOUS
10
20.6549304567
20
24.4284359135
0
VERTEX
8
0
62
7
6
CONTINUOUS
10
20.6589745099
20
24.4251863321
0
VERTEX
8
0
62
7
6
CONTINUOUS
10
20.6626826732
20
24.4218406881
0
VERTEX
8
0
62
7
6
CONTINUOUS
10
20.6660637479
20
24.4184052642
0
VERTEX
8
0
62
7
6
CONTINUOUS
10
20.6691262519
20
24.4148852744
0
VERTEX
8
0
62
7
6
CONTINUOUS
10
20.6718782110
20
24.4112848478
0
VERTEX
8
0
62
7
6
CONTINUOUS
10
20.6743269494
20
24.4076070387
0
VERTEX
8
0
62
7
6
CONTINUOUS
10
20.6764788858
20
24.4038538659
0
VERTEX
8
0
62
7
6
CONTINUOUS
10
20.6783393426
20
24.4000263802
0
VERTEX
8
0
62
7
6
CONTINUOUS
10
20.6799123753
20
24.3961247613
0
VERTEX
8
0
62
7
6
CONTINUOUS
10
20.6812006284
20
24.3921484415
0
VERTEX
8
0
62
7
6
CONTINUOUS
10
20.6817384417
20
24.3901316544
0
VERTEX
8
0
62
7
6
CONTINUOUS
10
20.6822052249
20
24.3880962514
0
VERTEX
8
0
62
7
6
CONTINUOUS
10
20.6829249841
20
24.3839717036
0
VERTEX
8
0
62
7
6
CONTINUOUS
10
20.6833588280
20
24.3797738330
0
VERTEX
8
0
62
7
6
CONTINUOUS
10
20.6835042637
20
24.3755007504
0
VERTEX
8
0
62
7
6
CONTINUOUS
10
20.6833587997
20
24.3714598808
0
VERTEX
8
0
62
7
6
CONTINUOUS
10
20.6829229430
20
24.3674397032
0
VERTEX
8
0
62
7
6
CONTINUOUS
10
20.6821958623
20
24.3634355222
0
VERTEX
8
0
62
7
6
CONTINUOUS
10
20.6811746525
20
24.3594433341
0
VERTEX
8
0
62
7
6
CONTINUOUS
10
20.6798545143
20
24.3554600441
0
VERTEX
8
0
62
7
6
CONTINUOUS
10
20.6782289941
20
24.3514836756
0
VERTEX
8
0
62
7
6
CONTINUOUS
10
20.6762902808
20
24.3475135689
0
VERTEX
8
0
62
7
6
CONTINUOUS
10
20.6740295595
20
24.3435505641
0
VERTEX
8
0
62
7
6
CONTINUOUS
10
20.6714374191
20
24.3395971664
0
VERTEX
8
0
62
7
6
CONTINUOUS
10
20.6685043123
20
24.3356576907
0
VERTEX
8
0
62
7
6
CONTINUOUS
10
20.6652210658
20
24.3317383827
0
VERTEX
8
0
62
7
6
CONTINUOUS
10
20.6615794379
20
24.3278475126
0
VERTEX
8
0
62
7
6
CONTINUOUS
10
20.6575727179
20
24.3239954362
0
VERTEX
8
0
62
7
6
CONTINUOUS
10
20.6531963587
20
24.3201946145
0
VERTEX
8
0
62
7
6
CONTINUOUS
10
20.6484486291
20
24.3164595848
0
VERTEX
8
0
62
7
6
CONTINUOUS
10
20.6433312655
20
24.3128068694
0
VERTEX
8
0
62
7
6
CONTINUOUS
10
20.6378500941
20
24.3092548119
0
VERTEX
8
0
62
7
6
CONTINUOUS
10
20.6320155875
20
24.3058233304
0
VERTEX
8
0
62
7
6
CONTINUOUS
10
20.6258433120
20
24.3025335784
0
VERTEX
8
0
62
7
6
CONTINUOUS
10
20.6193542178
20
24.2994075134
0
VERTEX
8
0
62
7
6
CONTINUOUS
10
20.6125747232
20
24.2964673772
0
VERTEX
8
0
62
7
6
CONTINUOUS
10
20.6055365554
20
24.2937351060
0
VERTEX
8
0
62
7
6
CONTINUOUS
10
20.5982763205
20
24.2912316966
0
VERTEX
8
0
62
7
6
CONTINUOUS
10
20.5908348022
20
24.2889765661
0
VERTEX
8
0
62
7
6
CONTINUOUS
10
20.5836096685
20
24.2870730800
0
VERTEX
8
0
62
7
6
CONTINUOUS
10
20.5759630259
20
24.2853543790
0
VERTEX
8
0
62
7
6
CONTINUOUS
10
20.5682903748
20
24.2839285282
0
SEQEND
0
LINE
8
0
62
7
6
CONTINUOUS
10
20.8059542637
20
24.4592757504
11
20.9443542637
21
24.4592757504
0
LINE
8
0
62
7
6
CONTINUOUS
10
21.1711417637
20
24.4592757504
11
21.3088292637
21
24.4592757504
0
LINE
8
0
62
7
6
CONTINUOUS
10
21.3863514859
20
24.4592757504
11
21.4921389859
21
24.4592757504
0
LINE
8
0
62
7
6
CONTINUOUS
10
21.7406875970
20
24.4592757504
11
21.8682237081
21
24.4592757504
0
LINE
8
0
62
7
6
CONTINUOUS
10
20.2668584303
20
24.4618660282
11
20.2690348192
21
24.4618660282
0
LINE
8
0
62
7
6
CONTINUOUS
10
19.5995056526
20
24.4629174171
11
19.6016695414
21
24.4629174171
0
LINE
8
0
62
7
6
CONTINUOUS
10
19.9509334303
20
24.4629174171
11
19.9531028748
21
24.4629174171
0
LINE
8
0
62
7
6
CONTINUOUS
10
19.1173889859
20
24.5361451948
11
22.4737875970
21
24.5361451948
0
LINE
8
0
62
7
6
CONTINUOUS
10
19.1106750970
20
24.5428590837
11
22.4805153748
21
24.5428590837
0
POLYLINE
8
0
62
7
6
CONTINUOUS
66
1
70
0
0
VERTEX
8
0
62
7
6
CONTINUOUS
10
22.5171903748
20
24.5781451948
0
VERTEX
8
0
62
7
6
CONTINUOUS
10
19.0724945414
20
24.5781451948
0
VERTEX
8
0
62
7
6
CONTINUOUS
10
19.0724945414
20
24.0002035282
0
SEQEND
0
POLYLINE
8
0
62
7
6
CONTINUOUS
66
1
70
0
0
VERTEX
8
0
62
7
6
CONTINUOUS
10
19.0562250970
20
24.5907382504
0
VERTEX
8
0
62
7
6
CONTINUOUS
10
22.5374264859
20
24.5907382504
0
VERTEX
8
0
62
7
6
CONTINUOUS
10
22.5374264859
20
23.9584007504
0
SEQEND
0
LINE
8
0
62
7
6
CONTINUOUS
10
22.5328153748
20
24.5951674171
11
19.0583487081
21
24.5951674171
0
POLYLINE
8
0
62
7
6
CONTINUOUS
66
1
70
0
0
VERTEX
8
0
62
7
6
CONTINUOUS
10
21.2292264859
20
23.8623993615
0
VERTEX
8
0
62
7
6
CONTINUOUS
10
21.1865487081
20
23.8624535282
0
VERTEX
8
0
62
7
6
CONTINUOUS
10
21.1727889859
20
23.8300507504
0
VERTEX
8
0
62
7
6
CONTINUOUS
10
21.1649625970
20
23.8300507504
0
SEQEND
0
POLYLINE
8
0
62
7
6
CONTINUOUS
66
1
70
0
0
VERTEX
8
0
62
7
6
CONTINUOUS
10
22.3365945414
20
23.8623993615
0
VERTEX
8
0
62
7
6
CONTINUOUS
10
22.2939500970
20
23.8624535282
0
VERTEX
8
0
62
7
6
CONTINUOUS
10
22.2801570414
20
23.8300507504
0
VERTEX
8
0
62
7
6
CONTINUOUS
10
22.2723445414
20
23.8300507504
0
SEQEND
0
LINE
8
0
62
7
6
CONTINUOUS
10
21.8912681526
20
23.8068701948
11
21.8544431526
21
23.8069382504
0
POLYLINE
8
0
62
7
6
CONTINUOUS
66
1
70
0
0
VERTEX
8
0
62
7
6
CONTINUOUS
10
20.9124737081
20
24.1590701948
0
VERTEX
8
0
62
7
6
CONTINUOUS
10
20.9245329271
20
24.1584157919
0
VERTEX
8
0
62
7
6
CONTINUOUS
10
20.9390441906
20
24.1574671531
0
VERTEX
8
0
62
7
6
CONTINUOUS
10
20.9540038754
20
24.1564084475
0
VERTEX
8
0
62
7
6
CONTINUOUS
10
20.9697843145
20
24.1553328855
0
VERTEX
8
0
62
7
6
CONTINUOUS
10
20.9821180042
20
24.1546136567
0
VERTEX
8
0
62
7
6
CONTINUOUS
10
20.9927642223
20
24.1541384689
0
VERTEX
8
0
62
7
6
CONTINUOUS
10
21.0023558639
20
24.1538665952
0
VERTEX
8
0
62
7
6
CONTINUOUS
10
21.0112069567
20
24.1537779460
0
VERTEX
8
0
62
7
6
CONTINUOUS
10
21.0195013992
20
24.1538610019
0
VERTEX
8
0
62
7
6
CONTINUOUS
10
21.0273585682
20
24.1541086104
0
VERTEX
8
0
62
7
6
CONTINUOUS
10
21.0348616517
20
24.1545161787
0
VERTEX
8
0
62
7
6
CONTINUOUS
10
21.0420717245
20
24.1550807844
0
VERTEX
8
0
62
7
6
CONTINUOUS
10
21.0490354681
20
24.1558006962
0
VERTEX
8
0
62
7
6
CONTINUOUS
10
21.0557897280
20
24.1566750982
0
VERTEX
8
0
62
7
6
CONTINUOUS
10
21.0623643631
20
24.1577039226
0
VERTEX
8
0
62
7
6
CONTINUOUS
10
21.0687841103
20
24.1588877464
0
VERTEX
8
0
62
7
6
CONTINUOUS
10
21.0750698509
20
24.1602277243
0
VERTEX
8
0
62
7
6
CONTINUOUS
10
21.0812394974
20
24.1617255454
0
VERTEX
8
0
62
7
6
CONTINUOUS
10
21.0873086317
20
24.1633834048
0
VERTEX
8
0
62
7
6
CONTINUOUS
10
21.0932909742
20
24.1652039845
0
VERTEX
8
0
62
7
6
CONTINUOUS
10
21.0991987347
20
24.1671904413
0
VERTEX
8
0
62
7
6
CONTINUOUS
10
21.1050428813
20
24.1693463980
0
VERTEX
8
0
62
7
6
CONTINUOUS
10
21.1108333475
20
24.1716759378
0
VERTEX
8
0
62
7
6
CONTINUOUS
10
21.1165791950
20
24.1741836007
0
VERTEX
8
0
62
7
6
CONTINUOUS
10
21.1222887432
20
24.1768743809
0
VERTEX
8
0
62
7
6
CONTINUOUS
10
21.1279696734
20
24.1797537244
0
VERTEX
8
0
62
7
6
CONTINUOUS
10
21.1336291136
20
24.1828275284
0
VERTEX
8
0
62
7
6
CONTINUOUS
10
21.1392737081
20
24.1861021393
0
SEQEND
0
POLYLINE
8
0
62
7
6
CONTINUOUS
66
1
70
0
0
VERTEX
8
0
62
7
6
CONTINUOUS
10
21.9709792637
20
23.8364118615
0
VERTEX
8
0
62
7
6
CONTINUOUS
10
21.9688216990
20
23.8365565624
0
VERTEX
8
0
62
7
6
CONTINUOUS
10
21.9667170321
20
23.8367752915
0
VERTEX
8
0
62
7
6
CONTINUOUS
10
21.9646646600
20
23.8370664194
0
VERTEX
8
0
62
7
6
CONTINUOUS
10
21.9626640183
20
23.8374284170
0
VERTEX
8
0
62
7
6
CONTINUOUS
10
21.9607145898
20
23.8378598550
0
VERTEX
8
0
62
7
6
CONTINUOUS
10
21.9588159127
20
23.8383594024
0
VERTEX
8
0
62
7
6
CONTINUOUS
10
21.9569675891
20
23.8389258246
0
VERTEX
8
0
62
7
6
CONTINUOUS
10
21.9551692945
20
23.8395579784
0
VERTEX
8
0
62
7
6
CONTINUOUS
10
21.9534207871
20
23.8402548069
0
VERTEX
8
0
62
7
6
CONTINUOUS
10
21.9517219165
20
23.8410153320
0
VERTEX
8
0
62
7
6
CONTINUOUS
10
21.9500726335
20
23.8418386449
0
VERTEX
8
0
62
7
6
CONTINUOUS
10
21.9484729987
20
23.8427238953
0
VERTEX
8
0
62
7
6
CONTINUOUS
10
21.9469231907
20
23.8436702773
0
VERTEX
8
0
62
7
6
CONTINUOUS
10
21.9454235138
20
23.8446770145
0
VERTEX
8
0
62
7
6
CONTINUOUS
10
21.9439744041
20
23.8457433425
0
VERTEX
8
0
62
7
6
CONTINUOUS
10
21.9425764350
20
23.8468684886
0
VERTEX
8
0
62
7
6
CONTINUOUS
10
21.9412303207
20
23.8480516506
0
VERTEX
8
0
62
7
6
CONTINUOUS
10
21.9399369174
20
23.8492919732
0
VERTEX
8
0
62
7
6
CONTINUOUS
10
21.9386972235
20
23.8505885229
0
VERTEX
8
0
62
7
6
CONTINUOUS
10
21.9375123756
20
23.8519402612
0
VERTEX
8
0
62
7
6
CONTINUOUS
10
21.9363836434
20
23.8533460179
0
VERTEX
8
0
62
7
6
CONTINUOUS
10
21.9353124206
20
23.8548044631
0
VERTEX
8
0
62
7
6
CONTINUOUS
10
21.9343002128
20
23.8563140798
0
VERTEX
8
0
62
7
6
CONTINUOUS
10
21.9333486217
20
23.8578731374
0
VERTEX
8
0
62
7
6
CONTINUOUS
10
21.9324593269
20
23.8594796673
0
VERTEX
8
0
62
7
6
CONTINUOUS
10
21.9316340629
20
23.8611314408
0
VERTEX
8
0
62
7
6
CONTINUOUS
10
21.9308745940
20
23.8628259506
0
VERTEX
8
0
62
7
6
CONTINUOUS
10
21.9301826853
20
23.8645603975
0
VERTEX
8
0
62
7
6
CONTINUOUS
10
21.9295600724
20
23.8663316819
0
VERTEX
8
0
62
7
6
CONTINUOUS
10
21.9290084278
20
23.8681364030
0
VERTEX
8
0
62
7
6
CONTINUOUS
10
21.9285293277
20
23.8699708636
0
VERTEX
8
0
62
7
6
CONTINUOUS
10
21.9281242179
20
23.8718310849
0
VERTEX
8
0
62
7
6
CONTINUOUS
10
21.9277943812
20
23.8737128272
0
VERTEX
8
0
62
7
6
CONTINUOUS
10
21.9275409065
20
23.8756116203
0
VERTEX
8
0
62
7
6
CONTINUOUS
10
21.9273646621
20
23.8775228008
0
VERTEX
8
0
62
7
6
CONTINUOUS
10
21.9272662731
20
23.8794415558
0
VERTEX
8
0
62
7
6
CONTINUOUS
10
21.9272440429
20
23.8807462338
0
VERTEX
8
0
62
7
6
CONTINUOUS
10
21.9272770045
20
23.8826652225
0
VERTEX
8
0
62
7
6
CONTINUOUS
10
21.9273879442
20
23.8845769056
0
VERTEX
8
0
62
7
6
CONTINUOUS
10
21.9275763027
20
23.8864764544
0
VERTEX
8
0
62
7
6
CONTINUOUS
10
21.9278412714
20
23.8883591846
0
VERTEX
8
0
62
7
6
CONTINUOUS
10
21.9281818137
20
23.8902206012
0
VERTEX
8
0
62
7
6
CONTINUOUS
10
21.9285966903
20
23.8920564379
0
VERTEX
8
0
62
7
6
CONTINUOUS
10
21.9290844895
20
23.8938626888
0
VERTEX
8
0
62
7
6
CONTINUOUS
10
21.9296436598
20
23.8956356318
0
VERTEX
8
0
62
7
6
CONTINUOUS
10
21.9302725436
20
23.8973718437
0
VERTEX
8
0
62
7
6
CONTINUOUS
10
21.9309694118
20
23.8990682082
0
VERTEX
8
0
62
7
6
CONTINUOUS
10
21.9317324980
20
23.9007219145
0
VERTEX
8
0
62
7
6
CONTINUOUS
10
21.9325600300
20
23.9023304510
0
VERTEX
8
0
62
7
6
CONTINUOUS
10
21.9334502604
20
23.9038915918
0
VERTEX
8
0
62
7
6
CONTINUOUS
10
21.9344014931
20
23.9054033780
0
VERTEX
8
0
62
7
6
CONTINUOUS
10
21.9354121078
20
23.9068640962
0
VERTEX
8
0
62
7
6
CONTINUOUS
10
21.9364805798
20
23.9082722531
0
VERTEX
8
0
62
7
6
CONTINUOUS
10
21.9376054973
20
23.9096265477
0
VERTEX
8
0
62
7
6
CONTINUOUS
10
21.9387855748
20
23.9109258438
0
VERTEX
8
0
62
7
6
CONTINUOUS
10
21.9400196627
20
23.9121691405
0
VERTEX
8
0
62
7
6
CONTINUOUS
10
21.9413067543
20
23.9133555438
0
VERTEX
8
0
62
7
6
CONTINUOUS
10
21.9426459896
20
23.9144842390
0
VERTEX
8
0
62
7
6
CONTINUOUS
10
21.9440366564
20
23.9155544644
0
VERTEX
8
0
62
7
6
CONTINUOUS
10
21.9454781890
20
23.9165654860
0
VERTEX
8
0
62
7
6
CONTINUOUS
10
21.9469701646
20
23.9175165754
0
VERTEX
8
0
62
7
6
CONTINUOUS
10
21.9485122984
20
23.9184069882
0
VERTEX
8
0
62
7
6
CONTINUOUS
10
21.9501044366
20
23.9192359459
0
VERTEX
8
0
62
7
6
CONTINUOUS
10
21.9517465491
20
23.9200026198
0
VERTEX
8
0
62
7
6
CONTINUOUS
10
21.9534387204
20
23.9207061162
0
VERTEX
8
0
62
7
6
CONTINUOUS
10
21.9551811402
20
23.9213454656
0
VERTEX
8
0
62
7
6
CONTINUOUS
10
21.9569740940
20
23.9219196124
0
VERTEX
8
0
62
7
6
CONTINUOUS
10
21.9588179529
20
23.9224274071
0
VERTEX
8
0
62
7
6
CONTINUOUS
10
21.9607131641
20
23.9228676014
0
VERTEX
8
0
62
7
6
CONTINUOUS
10
21.9626602406
20
23.9232388432
0
VERTEX
8
0
62
7
6
CONTINUOUS
10
21.9646597522
20
23.9235396747
0
VERTEX
8
0
62
7
6
CONTINUOUS
10
21.9667123168
20
23.9237685313
0
VERTEX
8
0
62
7
6
CONTINUOUS
10
21.9688185911
20
23.9239237415
0
VERTEX
8
0
62
7
6
CONTINUOUS
10
21.9709792637
20
23.9240035282
0
SEQEND
0
POLYLINE
8
0
62
7
6
CONTINUOUS
66
1
70
0
0
VERTEX
8
0
62
7
6
CONTINUOUS
10
20.1074473192
20
24.1606174171
0
VERTEX
8
0
62
7
6
CONTINUOUS
10
20.1203447144
20
24.1596650839
0
VERTEX
8
0
62
7
6
CONTINUOUS
10
20.1366050501
20
24.1583109845
0
VERTEX
8
0
62
7
6
CONTINUOUS
10
20.1502605184
20
24.1571387674
0
VERTEX
8
0
62
7
6
CONTINUOUS
10
20.1648461544
20
24.1559583015
0
VERTEX
8
0
62
7
6
CONTINUOUS
10
20.1766944821
20
24.1551298804
0
VERTEX
8
0
62
7
6
CONTINUOUS
10
20.1870735229
20
24.1545530738
0
VERTEX
8
0
62
7
6
CONTINUOUS
10
20.1964969872
20
24.1541870655
0
VERTEX
8
0
62
7
6
CONTINUOUS
10
20.2052345733
20
24.1540105805
0
VERTEX
8
0
62
7
6
CONTINUOUS
10
20.2134496284
20
24.1540109949
0
VERTEX
8
0
62
7
6
CONTINUOUS
10
20.2212506118
20
24.1541802645
0
VERTEX
8
0
62
7
6
CONTINUOUS
10
20.2287143472
20
24.1545130930
0
VERTEX
8
0
62
7
6
CONTINUOUS
10
20.2358979426
20
24.1550060012
0
VERTEX
8
0
62
7
6
CONTINUOUS
10
20.2428454795
20
24.1556568129
0
VERTEX
8
0
62
7
6
CONTINUOUS
10
20.2495920323
20
24.1564643522
0
VERTEX
8
0
62
7
6
CONTINUOUS
10
20.2561662175
20
24.1574282570
0
VERTEX
8
0
62
7
6
CONTINUOUS
10
20.2625918806
20
24.1585488607
0
VERTEX
8
0
62
7
6
CONTINUOUS
10
20.2688892525
20
24.1598271145
0
VERTEX
8
0
62
7
6
CONTINUOUS
10
20.2750757670
20
24.1612645357
0
VERTEX
8
0
62
7
6
CONTINUOUS
10
20.2811666520
20
24.1628631730
0
VERTEX
8
0
62
7
6
CONTINUOUS
10
20.2871753669
20
24.1646255826
0
VERTEX
8
0
62
7
6
CONTINUOUS
10
20.2931139328
20
24.1665548121
0
VERTEX
8
0
62
7
6
CONTINUOUS
10
20.2989931848
20
24.1686543884
0
VERTEX
8
0
62
7
6
CONTINUOUS
10
20.3048229685
20
24.1709283104
0
VERTEX
8
0
62
7
6
CONTINUOUS
10
20.3106122948
20
24.1733810428
0
VERTEX
8
0
62
7
6
CONTINUOUS
10
20.3163694632
20
24.1760175121
0
VERTEX
8
0
62
7
6
CONTINUOUS
10
20.3221021619
20
24.1788431035
0
VERTEX
8
0
62
7
6
CONTINUOUS
10
20.3278175488
20
24.1818636584
0
VERTEX
8
0
62
7
6
CONTINUOUS
10
20.3335223192
20
24.1850854726
0
SEQEND
0
LINE
8
0
62
7
6
CONTINUOUS
10
19.6016695414
20
24.4629174171
11
19.6292167637
21
24.4592757504
0
LINE
8
0
62
7
6
CONTINUOUS
10
22.3997862081
20
24.1293674171
11
22.3906028748
21
24.1343035282
0
LINE
8
0
62
2
6
CONTINUOUS
10
39.9358370938
20
2.1924916233
11
39.9215940938
21
2.2154966233
0
LINE
8
0
6
CONTINUOUS
10
43.5000000000
20
25.5000000000
11
44.0000000000
21
25.5000000000
0
LINE
8
0
62
2
6
CONTINUOUS
10
40.7995600938
20
2.0252706233
11
40.7388670938
21
2.1346456233
0
LINE
8
0
62
2
6
CONTINUOUS
10
40.7995600938
20
2.0252706233
11
40.7388680938
21
2.1346456233
0
LINE
8
0
62
2
6
CONTINUOUS
10
40.8072600938
20
2.1494786233
11
40.8761840938
21
2.0252706233
0
LINE
8
0
62
2
6
CONTINUOUS
10
40.8072610938
20
2.1494786233
11
40.8761840938
21
2.0252706233
0
LINE
8
0
62
2
6
CONTINUOUS
10
39.7534160938
20
2.0832386233
11
39.7334420938
21
2.1224396233
0
LINE
8
0
62
2
6
CONTINUOUS
10
39.9809520938
20
2.2485526233
11
40.0009260938
21
2.2093516233
0
LINE
8
0
6
CONTINUOUS
10
33.0000000000
20
0.0000000000
11
33.0000000000
21
0.5000000000
0
LINE
8
0
62
2
6
CONTINUOUS
10
39.7948130938
20
2.1523666233
11
39.8045870938
21
2.1271366233
0
LINE
8
0
6
CONTINUOUS
10
43.5000000000
20
29.7500000000
11
44.0000000000
21
29.7500000000
0
LINE
8
0
62
2
6
CONTINUOUS
10
40.8352240938
20
2.2602656233
11
40.8443530938
21
2.2305606233
0
LINE
8
0
62
2
6
CONTINUOUS
10
40.8376968411
20
2.2602656233
11
40.8468258411
21
2.2305606233
0
LINE
8
0
62
2
6
CONTINUOUS
10
40.7884650938
20
2.2213646233
11
40.7843580938
21
2.2366926233
0
LINE
8
0
62
2
6
CONTINUOUS
10
40.7909378411
20
2.2213646233
11
40.7868308411
21
2.2366926233
0
LINE
8
0
62
2
6
CONTINUOUS
10
39.9408090938
20
2.1658956233
11
39.9358370938
21
2.1924916233
0
LINE
8
0
62
2
6
CONTINUOUS
10
39.7334420938
20
2.1224396233
11
39.7265590938
21
2.1658956233
0
LINE
8
0
62
2
6
CONTINUOUS
10
40.0009260938
20
2.2093516233
11
40.0078090938
21
2.1658956233
0
LINE
8
0
6
CONTINUOUS
10
38.5000000000
20
0.0000000000
11
38.5000000000
21
0.5000000000
0
LINE
8
0
6
CONTINUOUS
10
0.5000000000
20
33.5000000000
11
43.5000000000
21
33.5000000000
0
LINE
8
0
62
7
6
CONTINUOUS
10
0.0000000000
20
34.0000000000
11
44.0000000000
21
34.0000000000
0
LINE
8
0
62
2
6
CONTINUOUS
10
39.5078090938
20
2.0252706233
11
39.5078090938
21
2.3065206233
0
LINE
8
0
62
2
6
CONTINUOUS
10
39.5748090938
20
2.3065206233
11
39.5748090938
21
2.2182726233
0
LINE
8
0
62
2
6
CONTINUOUS
10
39.5748090938
20
2.1467686233
11
39.5748090938
21
2.0252706233
0
LINE
8
0
62
2
6
CONTINUOUS
10
39.7948130938
20
2.1794246233
11
39.7948130938
21
2.1523666233
0
LINE
8
0
62
2
6
CONTINUOUS
10
40.0390590938
20
2.3065206233
11
40.0390590938
21
2.0252706233
0
LINE
8
0
62
2
6
CONTINUOUS
10
40.1060590938
20
2.3065206233
11
40.1060590938
21
2.2150206233
0
LINE
8
0
62
2
6
CONTINUOUS
10
40.1060590938
20
2.1480206233
11
40.1060590938
21
2.0252706233
0
LINE
8
0
62
2
6
CONTINUOUS
10
40.1841840938
20
2.0252706233
11
40.1841840938
21
2.1480206233
0
LINE
8
0
62
2
6
CONTINUOUS
10
40.1841840938
20
2.2150206233
11
40.1841840938
21
2.3065206233
0
LINE
8
0
62
2
6
CONTINUOUS
10
40.2511840938
20
2.3065206233
11
40.2511840938
21
2.0252706233
0
LINE
8
0
62
2
6
CONTINUOUS
10
40.2824340938
20
2.3065206233
11
40.2824340938
21
2.0252706233
0
LINE
8
0
62
2
6
CONTINUOUS
10
40.3494340938
20
2.3065206233
11
40.3494340938
21
2.0922706233
0
LINE
8
0
62
2
6
CONTINUOUS
10
40.4386840938
20
2.0922706233
11
40.4386840938
21
2.0252706233
0
LINE
8
0
62
2
6
CONTINUOUS
10
40.4699340938
20
2.3065206233
11
40.4699340938
21
2.0252706233
0
LINE
8
0
62
2
6
CONTINUOUS
10
40.5369340938
20
2.2395206233
11
40.5369340938
21
2.1915836233
0
LINE
8
0
62
2
6
CONTINUOUS
10
40.5369340938
20
2.1402086233
11
40.5369340938
21
2.0922706233
0
LINE
8
0
62
2
6
CONTINUOUS
10
40.6261840938
20
2.3065206233
11
40.6261840938
21
2.2395206233
0
LINE
8
0
62
2
6
CONTINUOUS
10
40.6261840938
20
2.1915836233
11
40.6261840938
21
2.1402086233
0
LINE
8
0
62
2
6
CONTINUOUS
10
40.6261840938
20
2.0922706233
11
40.6261840938
21
2.0252706233
0
LINE
8
0
62
2
6
CONTINUOUS
10
40.6574340938
20
2.0252706233
11
40.6574340938
21
2.3065206233
0
LINE
8
0
62
2
6
CONTINUOUS
10
40.6599068411
20
2.2520206233
11
40.6599068411
21
2.3065206233
0
LINE
8
0
62
2
6
CONTINUOUS
10
40.7244340938
20
2.2520206233
11
40.7244340938
21
2.1907086233
0
LINE
8
0
62
2
6
CONTINUOUS
10
40.7244340938
20
2.1346456233
11
40.7244340938
21
2.0252706233
0
LINE
8
0
62
2
6
CONTINUOUS
10
42.1530630938
20
2.1978146233
11
42.1530630938
21
1.8769936233
0
LINE
8
0
62
2
6
CONTINUOUS
10
40.8443530938
20
2.2305606233
11
40.8423210938
21
2.1995516233
0
LINE
8
0
62
2
6
CONTINUOUS
10
40.8468258411
20
2.2305606233
11
40.8447938411
21
2.1995516233
0
LINE
8
0
62
2
6
CONTINUOUS
10
39.7265590938
20
2.1658956233
11
39.7334420938
21
2.2093516233
0
LINE
8
0
62
2
6
CONTINUOUS
10
40.0078090938
20
2.1658956233
11
40.0009260938
21
2.1224396233
0
LINE
8
0
62
2
6
CONTINUOUS
10
39.8739770938
20
2.0925846233
11
39.9000010938
21
2.0999896233
0
LINE
8
0
62
2
6
CONTINUOUS
10
42.6530630938
20
2.1167496233
11
42.6530630938
21
1.9604996233
0
LINE
8
0
62
2
6
CONTINUOUS
10
42.9968130938
20
1.8979996233
11
42.9968130938
21
2.1792496233
0
LINE
8
0
6
CONTINUOUS
10
43.5000000000
20
0.5000000000
11
43.5000000000
21
33.5000000000
0
LINE
8
0
62
7
6
CONTINUOUS
10
44.0000000000
20
0.0000000000
11
44.0000000000
21
34.0000000000
0
LINE
8
0
62
2
6
CONTINUOUS
10
39.9358370938
20
2.1392996233
11
39.9408090938
21
2.1658956233
0
LINE
8
0
62
2
6
CONTINUOUS
10
40.7843580938
20
2.2060366233
11
40.7884650938
21
2.2213646233
0
LINE
8
0
62
2
6
CONTINUOUS
10
40.7868308411
20
2.2060366233
11
40.7909378411
21
2.2213646233
0
LINE
8
0
62
2
6
CONTINUOUS
10
39.8045870938
20
2.2046546233
11
39.7948130938
21
2.1794246233
0
LINE
8
0
62
2
6
CONTINUOUS
10
40.8423210938
20
2.1995516233
11
40.8293930938
21
2.1712926233
0
LINE
8
0
62
2
6
CONTINUOUS
10
40.8447938411
20
2.1995516233
11
40.8407478411
21
2.1907086233
0
LINE
8
0
62
2
6
CONTINUOUS
10
39.7486540938
20
2.2392066233
11
39.7534160938
21
2.2485526233
0
LINE
8
0
62
2
6
CONTINUOUS
10
39.7334420938
20
2.2093516233
11
39.7486540938
21
2.2392066233
0
LINE
8
0
62
2
6
CONTINUOUS
10
39.9857140938
20
2.0925846233
11
39.9809520938
21
2.0832386233
0
LINE
8
0
62
2
6
CONTINUOUS
10
40.0009260938
20
2.1224396233
11
39.9857140938
21
2.0925846233
0
LINE
8
0
62
2
6
CONTINUOUS
10
39.9215940938
20
2.1162946233
11
39.9358370938
21
2.1392996233
0
LINE
8
0
62
7
6
CONTINUOUS
10
38.8596552892
20
3.4409528234
11
37.4965064892
21
1.6190520234
0
LINE
8
0
62
2
6
CONTINUOUS
10
39.8228150938
20
2.2246496233
11
39.8045870938
21
2.2046546233
0
LINE
8
0
62
2
6
CONTINUOUS
10
39.6630570938
20
2.3065206233
11
39.5748090938
21
2.2182726233
0
LINE
8
0
62
2
6
CONTINUOUS
10
39.7578090938
20
2.3065206233
11
39.6328090938
21
2.1815206233
0
LINE
8
0
62
2
6
CONTINUOUS
10
39.7534160938
20
2.2485526233
11
39.7845270938
21
2.2796636233
0
LINE
8
0
62
2
6
CONTINUOUS
10
39.9809520938
20
2.0832386233
11
39.9498410938
21
2.0521276233
0
LINE
8
0
62
2
6
CONTINUOUS
10
40.7731370938
20
2.1948156233
11
40.7843580938
21
2.2060366233
0
LINE
8
0
62
2
6
CONTINUOUS
10
40.7756098411
20
2.1948156233
11
40.7868308411
21
2.2060366233
0
LINE
8
0
62
2
6
CONTINUOUS
10
40.8293930938
20
2.1712926233
11
40.8072610938
21
2.1494786233
0
LINE
8
0
62
2
6
CONTINUOUS
10
39.9000010938
20
2.0999896233
11
39.9215940938
21
2.1162946233
0
LINE
8
0
62
2
6
CONTINUOUS
10
39.7845270938
20
2.2796636233
11
39.8237280938
21
2.2996376233
0
LINE
8
0
62
2
6
CONTINUOUS
10
39.9498410938
20
2.0521276233
11
39.9106400938
21
2.0321536233
0
LINE
8
0
62
2
6
CONTINUOUS
10
39.8470360938
20
2.2367096233
11
39.8228150938
21
2.2246496233
0
LINE
8
_CURVE
62
8
6
HIDDEN
10
4.4072459143
20
27.0912510168
11
4.4072459143
21
7.9662510168
0
LINE
8
_CURVE
62
7
6
CONTINUOUS
10
4.6572459143
20
8.2787510168
11
4.6572459143
21
26.7787510168
0
LINE
8
_CURVE
62
8
6
HIDDEN
10
5.8447459143
20
6.5287510168
11
27.9697459143
21
6.5287510168
0
LINE
8
_CURVE
62
7
6
CONTINUOUS
10
27.6572459143
20
6.7787510168
11
6.1572459143
21
6.7787510168
0
LINE
8
0
62
2
6
CONTINUOUS
10
4.6572459143
20
14.1940435761
11
5.8280602191
21
15.3020130468
0
LINE
8
0
62
2
6
CONTINUOUS
10
4.4072459143
20
11.8770331291
11
5.6268228884
21
13.1435648896
0
LINE
8
0
62
2
6
CONTINUOUS
10
5.6268228884
20
13.1435648896
11
5.8768228884
21
13.1435648896
0
LINE
8
0
62
2
6
CONTINUOUS
10
5.8280602191
20
15.3020130468
11
6.0780602191
21
15.3020130468
0
LINE
8
_CURVE
62
2
6
DASHED
10
16.9072459143
20
6.7787510168
11
16.9072459143
21
5.7787510168
0
LINE
8
_CURVE
62
2
6
DASHED
10
16.9072459143
20
28.2787510168
11
16.9072459143
21
29.2787510168
0
LINE
8
_CURVE
62
2
6
DASHED
10
4.6572459143
20
17.5287510168
11
3.6572459143
21
17.5287510168
0
LINE
8
_CURVE
62
2
6
DASHED
10
29.1572459143
20
17.5287510168
11
30.1572459143
21
17.5287510168
0
LINE
8
_CURVE
62
7
6
CONTINUOUS
10
6.1572459143
20
28.2787510168
11
27.6572459143
21
28.2787510168
0
LINE
8
_CURVE
62
8
6
HIDDEN
10
27.9697459143
20
28.5287510168
11
5.8447459143
21
28.5287510168
0
LINE
8
_CURVE
62
7
6
CONTINUOUS
10
29.1572459143
20
26.7787510168
11
29.1572459143
21
8.2787510168
0
LINE
8
_CURVE
62
8
6
HIDDEN
10
29.4072459143
20
7.9662510168
11
29.4072459143
21
27.0912510168
0
CIRCLE
8
0
62
2
6
CONTINUOUS
10
39.8671840938
20
2.1658956233
40
0.0736250000
0
CIRCLE
8
0
62
2
6
CONTINUOUS
10
39.8671840938
20
2.1658956233
40
0.1406250000
0
CIRCLE
8
0
62
2
6
CONTINUOUS
10
42.1530630938
20
2.0386246233
40
0.0781250000
0
CIRCLE
8
0
62
2
6
CONTINUOUS
10
42.1530630938
20
2.0386246233
40
0.1406250000
0
ARC
8
0
62
2
6
CONTINUOUS
10
40.7578090938
20
2.2213646233
40
0.0306560000
50
270.0000000000
51
90.0000000000
0
ARC
8
0
62
2
6
CONTINUOUS
10
40.7589960938
20
2.2205836233
40
0.0859379702
50
304.1675166806
51
90.0000000000
0
CIRCLE
8
0
62
2
6
CONTINUOUS
10
26.6971630462
20
7.0458573093
40
0.0369292500
0
CIRCLE
8
0
62
2
6
CONTINUOUS
10
22.2503835129
20
13.7458713713
40
0.0714663288
0
ARC
8
0
62
7
6
CONTINUOUS
10
22.2623973316
20
23.9036250560
40
0.0271961756
50
260.4787245939
51
99.5212754061
0
CIRCLE
8
0
62
7
6
CONTINUOUS
10
22.0627764177
20
23.8802076948
40
0.0437959350
0
CIRCLE
8
0
62
7
6
CONTINUOUS
10
22.0632078558
20
23.8802083893
40
0.0514756023
0
ARC
8
0
62
7
6
CONTINUOUS
10
21.9702541486
20
23.8801335771
40
0.0513304411
50
47.5048873671
51
180.0087362707
0
ARC
8
0
62
7
6
CONTINUOUS
10
21.9708291390
20
23.8806398820
40
0.0519079771
50
180.5675053294
51
310.5520051653
0
CIRCLE
8
0
62
7
6
CONTINUOUS
10
21.4573762248
20
23.8696486671
40
0.0317997452
0
CIRCLE
8
0
62
7
6
CONTINUOUS
10
22.3953639859
20
24.1379074805
40
0.0202280646
0
ARC
8
0
62
7
6
CONTINUOUS
10
22.1872979571
20
24.2060100404
40
0.2245560651
50
59.2085551990
51
93.5831215674
0
ARC
8
0
62
7
6
CONTINUOUS
10
21.8728477007
20
24.2997740223
40
0.2039397004
50
223.4269507726
51
258.0242403069
0
ARC
8
0
62
7
6
CONTINUOUS
10
20.7124975077
20
24.2306544569
40
0.1142552807
50
230.1562195028
51
275.4518816802
0
ARC
8
0
62
7
6
CONTINUOUS
10
20.1957053260
20
24.2947977180
40
0.1278237007
50
56.1755396366
51
96.4463209909
0
ARC
8
0
62
7
6
CONTINUOUS
10
19.6554646426
20
24.2621889049
40
0.1597808471
50
87.4638787987
51
119.6947324667
0
ARC
8
_CURVE
62
8
6
HIDDEN
10
27.9697459143
20
7.9662510168
40
1.4375000000
50
270.0000000000
51
360.0000000000
0
ARC
8
_CURVE
62
8
6
HIDDEN
10
27.9697459143
20
27.0912510168
40
1.4375000000
50
0.0000000000
51
90.0000000000
0
ARC
8
_CURVE
62
8
6
HIDDEN
10
5.8447459143
20
27.0912510168
40
1.4375000000
50
90.0000000000
51
180.0000000000
0
ARC
8
_CURVE
62
8
6
HIDDEN
10
5.8447459143
20
7.9662510168
40
1.4375000000
50
180.0000000000
51
270.0000000000
0
ARC
8
_CURVE
62
7
6
CONTINUOUS
10
27.6572459143
20
26.7787510168
40
1.5000000000
50
0.0000000000
51
90.0000000000
0
ARC
8
_CURVE
62
7
6
CONTINUOUS
10
27.6572459143
20
8.2787510168
40
1.5000000000
50
270.0000000000
51
360.0000000000
0
ARC
8
_CURVE
62
7
6
CONTINUOUS
10
6.1572459143
20
8.2787510168
40
1.5000000000
50
180.0000000000
51
270.0000000000
0
ARC
8
_CURVE
62
7
6
CONTINUOUS
10
6.1572459143
20
26.7787510168
40
1.5000000000
50
90.0000000000
51
180.0000000000
0
ENDSEC
0
EOF
