999
DXF file: 1003767_7_f.dxf
999
Pro/ENGINEER 2017300 by Parametric Technology Corporation
  0
SECTION
  2
HEADER
  9
$ACADVER
  1
AC1014
  9
$DWGCODEPAGE
  3
ANSI_1252
  9
$EXTMAX
 10
44.0
 20
34.0
 30
0.0
  9
$EXTMIN
 10
0.0
 20
0.0
 30
0.0
  9
$LIMMIN
 10
0.0
 20
0.0
  9
$LIMMAX
 10
44.0
 20
34.0
  9
$VIEWCTR
 10
22.0
 20
17.0
  9
$VIEWSIZE
 40
34.0
  9
$CLAYER
  8
0
  9
$LTSCALE
 40
2.42
  9
$CELTYPE
  6
BYLAYER
  9
$DIMSCALE
 40
1.0
  9
$DIMASZ
 40
0.1875
  9
$DIMEXO
 40
0.0625
  9
$DIMDLI
 40
1.672
  9
$DIMEXE
 40
0.125
  9
$DIMCEN
 40
0.396
  9
$DIMLFAC
 40
1.0
  9
$DIMBLK
  1
_ARROW_FILLED
  9
$DIMALT
 70
0
  9
$DIMALTF
 40
25.4
  9
$DIMTXT
 40
0.15625
  9
$DIMTOL
 70
1
  9
$DIMLIM
 70
0
  9
$DIMTFAC
 40
1.0
  9
$DIMTP
 40
0.01
  9
$DIMTM
 40
0.01
  9
$DIMGAP
 40
0.09
  9
$AUNITS
 70
0
  9
$PDMODE
 70
3
  9
$PDSIZE
 40
0.3125
  9
$HANDSEED
  5
397
  9
$TILEMODE
 70
1
  9
$MEASUREMENT
 70
0
  0
ENDSEC
  0
SECTION
  2
CLASSES
  0
ENDSEC
  0
SECTION
  2
TABLES
  0
TABLE
  2
VPORT
  5
8
100
AcDbSymbolTable
 70
2
  0
VPORT
  5
1F4
100
AcDbSymbolTableRecord
100
AcDbViewportTableRecord
  2
*ACTIVE
 70
0
 10
0.0
 20
0.0
 11
1.0
 21
1.0
 12
22.0
 22
17.0
 13
0.0
 23
0.0
 14
1.0
 24
1.0
 15
0.0
 25
0.0
 16
0.0
 26
0.0
 36
1.0
 17
0.0
 27
0.0
 37
0.0
 40
34.0
 41
1.2941176471
 42
50.0
 43
0.0
 44
0.0
 50
0.0
 51
0.0
 71
0
 72
100
 73
1
 74
1
 75
0
 76
0
 77
0
 78
0
  0
ENDTAB
  0
TABLE
  2
LTYPE
  5
5
100
AcDbSymbolTable
 70
6
  0
LTYPE
  5
14
100
AcDbSymbolTableRecord
100
AcDbLinetypeTableRecord
  2
BYBLOCK
 70
0
  3

 72
65
 73
0
 40
0.0
  0
LTYPE
  5
15
100
AcDbSymbolTableRecord
100
AcDbLinetypeTableRecord
  2
BYLAYER
 70
0
  3

 72
65
 73
0
 40
0.0
  0
LTYPE
  5
16
100
AcDbSymbolTableRecord
100
AcDbLinetypeTableRecord
  2
CONTINUOUS
 70
64
  3
Solid line
 72
65
 73
0
 40
0.0
  0
LTYPE
  5
1F5
100
AcDbSymbolTableRecord
100
AcDbLinetypeTableRecord
  2
CENTER
 70
64
  3
____ _ ____ _ ____ _ ____ _ ____ _ ____ _ ____
 72
65
 73
4
 40
0.6
 49
0.375
 74
0
 49
-0.075
 74
0
 49
0.075
 74
0
 49
-0.075
 74
0
  0
LTYPE
  5
1F6
100
AcDbSymbolTableRecord
100
AcDbLinetypeTableRecord
  2
HIDDEN
 70
64
  3
- - - - - - - - - - - - - - - - - - - -
 72
65
 73
2
 40
0.2
 49
0.1
 74
0
 49
-0.1
 74
0
  0
LTYPE
  5
1F7
100
AcDbSymbolTableRecord
100
AcDbLinetypeTableRecord
  2
PHANTOM
 70
64
  3
_____ _ _ _____ _ _ _____ _ _ _____
 72
65
 73
6
 40
0.8
 49
0.45
 74
0
 49
-0.05
 74
0
 49
0.1
 74
0
 49
-0.05
 74
0
 49
0.1
 74
0
 49
-0.05
 74
0
  0
LTYPE
  5
1F8
100
AcDbSymbolTableRecord
100
AcDbLinetypeTableRecord
  2
DOT
 70
64
  3
. . . . . . . . . . . . . . . . . . . .
 72
65
 73
2
 40
0.2
 49
0.1
 74
0
 49
-0.1
 74
0
  0
LTYPE
  5
1F9
100
AcDbSymbolTableRecord
100
AcDbLinetypeTableRecord
  2
DASHED
 70
64
  3
- - - - - - - - - - - - - - - - - - - -
 72
65
 73
2
 40
0.2
 49
0.1
 74
0
 49
-0.1
 74
0
  0
ENDTAB
  0
TABLE
  2
LAYER
  5
2
100
AcDbSymbolTable
 70
36
  0
LAYER
  5
10
100
AcDbSymbolTableRecord
100
AcDbLayerTableRecord
  2
0
 70
0
 62
7
  6
CONTINUOUS
  0
LAYER
  5
1FA
100
AcDbSymbolTableRecord
100
AcDbLayerTableRecord
  2
DEFAULT_1
 70
0
 62
7
  6
CENTER
  0
LAYER
  5
1FB
100
AcDbSymbolTableRecord
100
AcDbLayerTableRecord
  2
DEFAULT_2
 70
0
 62
8
  6
HIDDEN
  0
LAYER
  5
1FC
100
AcDbSymbolTableRecord
100
AcDbLayerTableRecord
  2
DEFAULT_3
 70
0
 62
7
  6
PHANTOM
  0
LAYER
  5
1FD
100
AcDbSymbolTableRecord
100
AcDbLayerTableRecord
  2
INTF_1
 70
0
 62
7
  6
CONTINUOUS
  0
LAYER
  5
1FE
100
AcDbSymbolTableRecord
100
AcDbLayerTableRecord
  2
LAYER_1
 70
0
 62
7
  6
CONTINUOUS
  0
LAYER
  5
1FF
100
AcDbSymbolTableRecord
100
AcDbLayerTableRecord
  2
___NOTE
 70
0
 62
7
  6
CONTINUOUS
  0
LAYER
  5
200
100
AcDbSymbolTableRecord
100
AcDbLayerTableRecord
  2
___SYMBOL
 70
0
 62
7
  6
CONTINUOUS
  0
ENDTAB
  0
TABLE
  2
STYLE
  5
3
100
AcDbSymbolTable
 70
1
  0
STYLE
  5
11
100
AcDbSymbolTableRecord
100
AcDbTextStyleTableRecord
  2
STANDARD
 70
0
 40
0.0
 41
0.8
 50
0.0
 71
0
 42
0.2
  3
txt
  4

  0
STYLE
  5
201
100
AcDbSymbolTableRecord
100
AcDbTextStyleTableRecord
  2
TEXTSTYLE_1
 70
0
 40
0.0
 41
0.8
 50
0.0
 71
0
 42
0.2
  3
gdt
  4

  0
STYLE
  5
202
100
AcDbSymbolTableRecord
100
AcDbTextStyleTableRecord
  2
TEXTSTYLE_2
 70
0
 40
0.0
 41
1.0
 50
0.0
 71
0
 42
0.2
  3
txt
  4

  0
STYLE
  5
203
100
AcDbSymbolTableRecord
100
AcDbTextStyleTableRecord
  2
TEXTSTYLE_3
 70
0
 40
0.0
 41
0.95
 50
0.0
 71
0
 42
0.2
  3
txt
  4

  0
STYLE
  5
204
100
AcDbSymbolTableRecord
100
AcDbTextStyleTableRecord
  2
TEXTSTYLE_4
 70
0
 40
0.0
 41
0.8258950223
 50
0.0
 71
0
 42
0.2
  3
txt
  4

  0
STYLE
  5
205
100
AcDbSymbolTableRecord
100
AcDbTextStyleTableRecord
  2
TEXTSTYLE_5
 70
0
 40
0.0
 41
0.6740211631
 50
0.0
 71
0
 42
0.2
  3
txt
  4

  0
ENDTAB
  0
TABLE
  2
VIEW
  5
6
100
AcDbSymbolTable
 70
0
  0
ENDTAB
  0
TABLE
  2
UCS
  5
7
100
AcDbSymbolTable
 70
0
  0
ENDTAB
  0
TABLE
  2
APPID
  5
9
100
AcDbSymbolTable
 70
1
  0
APPID
  5
206
100
AcDbSymbolTableRecord
100
AcDbRegAppTableRecord
  2
ACAD
 70
0
  0
ENDTAB
  0
TABLE
  2
BLOCK_RECORD
  5
1
100
AcDbSymbolTable
 70
0
  0
BLOCK_RECORD
  5
1F
100
AcDbSymbolTableRecord
100
AcDbBlockTableRecord
  2
*MODEL_SPACE
  0
BLOCK_RECORD
  5
1B
100
AcDbSymbolTableRecord
100
AcDbBlockTableRecord
  2
*PAPER_SPACE
  0
BLOCK_RECORD
  5
207
100
AcDbSymbolTableRecord
100
AcDbBlockTableRecord
  2
_ARROW_FILLED
  0
BLOCK_RECORD
  5
208
100
AcDbSymbolTableRecord
100
AcDbBlockTableRecord
  2
*D0
  0
BLOCK_RECORD
  5
209
100
AcDbSymbolTableRecord
100
AcDbBlockTableRecord
  2
*D1
  0
BLOCK_RECORD
  5
20A
100
AcDbSymbolTableRecord
100
AcDbBlockTableRecord
  2
*D2
  0
BLOCK_RECORD
  5
20B
100
AcDbSymbolTableRecord
100
AcDbBlockTableRecord
  2
*D3
  0
BLOCK_RECORD
  5
20C
100
AcDbSymbolTableRecord
100
AcDbBlockTableRecord
  2
PACKAGING_UPC_NOTE_BL4
  0
BLOCK_RECORD
  5
20D
100
AcDbSymbolTableRecord
100
AcDbBlockTableRecord
  2
PLOTTING_TEMPLATE_NOTE_BL3
  0
BLOCK_RECORD
  5
20E
100
AcDbSymbolTableRecord
100
AcDbBlockTableRecord
  2
TEMPLATE_NUMBER_BL2
  0
BLOCK_RECORD
  5
20F
100
AcDbSymbolTableRecord
100
AcDbBlockTableRecord
  2
TEMPLATE_NUMBER_BL1
  0
BLOCK_RECORD
  5
210
100
AcDbSymbolTableRecord
100
AcDbBlockTableRecord
  2
COPYRIGHT_YEAR_BL0
  0
ENDTAB
  0
TABLE
  2
DIMSTYLE
  5
A
100
AcDbSymbolTable
 70
1
  0
DIMSTYLE
105
211
100
AcDbSymbolTableRecord
100
AcDbDimStyleTableRecord
  2
STANDARD
 70
0
  3

  4

  5
_ARROW_FILLED
  6
_ARROW_FILLED
  7
_ARROW_FILLED
 40
1.0
 41
0.1875
 42
0.0625
 43
0.38
 44
0.125
 45
0.0
 46
0.0
 47
0.01
 48
0.01
140
0.15625
141
0.09
142
0.0
143
25.4
144
1.0
145
0.0
146
1.0
147
0.09
 71
1.0
 72
0.0
 73
1
 74
1
 75
0
 76
0
 77
0
 78
4
 79
1
170
0
171
2
172
0
173
0
174
0
175
0
176
0
177
0
178
0
270
2
179
3
271
3
272
3
273
2
274
2
275
0
280
0
281
0
282
0
283
1
284
4
285
0
286
0
287
3
288
0
340
11
  0
DIMSTYLE
105
212
100
AcDbSymbolTableRecord
100
AcDbDimStyleTableRecord
  2
DIMSTYLE_1
 70
0
  3

  4

  5
_ARROW_FILLED
  6
_ARROW_FILLED
  7
_ARROW_FILLED
 40
1.0
 41
0.1875
 42
0.0625
 43
0.38
 44
0.125
 45
0.0
 46
0.0
 47
0.03125
 48
0.03125
140
0.156210271
141
0.09
142
0.0
143
25.4
144
1.0
145
0.0
146
1.0
147
0.0781051355
 71
0.0
 72
0.0
 73
1
 74
1
 75
0
 76
0
 77
0
 78
4
 79
1
170
0
171
2
172
0
173
0
174
0
175
0
176
0
177
0
178
0
270
2
179
5
271
5
272
2
273
2
274
2
275
0
280
0
281
0
282
0
283
1
284
4
285
0
286
0
287
3
288
0
340
11
  0
DIMSTYLE
105
213
100
AcDbSymbolTableRecord
100
AcDbDimStyleTableRecord
  2
DIMSTYLE_2
 70
0
  3

  4

  5
_ARROW_FILLED
  6
_ARROW_FILLED
  7
_ARROW_FILLED
 40
1.0
 41
0.1875
 42
0.0625
 43
0.38
 44
0.125
 45
0.0
 46
0.0
 47
0.03125
 48
0.03125
140
0.1562109375
141
0.09
142
0.0
143
25.4
144
1.0
145
0.0
146
1.0
147
0.0781054687
 71
0.0
 72
0.0
 73
1
 74
1
 75
0
 76
0
 77
0
 78
4
 79
1
170
0
171
2
172
0
173
0
174
0
175
0
176
0
177
0
178
0
270
2
179
5
271
5
272
3
273
2
274
2
275
0
280
0
281
0
282
0
283
1
284
4
285
0
286
0
287
3
288
0
340
11
  0
DIMSTYLE
105
214
100
AcDbSymbolTableRecord
100
AcDbDimStyleTableRecord
  2
DIMSTYLE_3
 70
0
  3

  4

  5
_ARROW_FILLED
  6
_ARROW_FILLED
  7
_ARROW_FILLED
 40
1.0
 41
0.1875
 42
0.0625
 43
0.38
 44
0.125
 45
0.0
 46
0.0
 47
0.0
 48
0.0
140
0.157050061
141
0.09
142
0.0
143
25.4
144
1.0
145
0.0
146
1.0
147
0.0785250305
 71
0.0
 72
0.0
 73
1
 74
1
 75
0
 76
0
 77
0
 78
4
 79
1
170
0
171
2
172
0
173
0
174
0
175
0
176
0
177
0
178
0
270
2
179
5
271
5
272
3
273
2
274
2
275
0
280
0
281
0
282
0
283
1
284
4
285
0
286
0
287
3
288
0
340
11
  0
ENDTAB
  0
ENDSEC
  0
SECTION
  2
BLOCKS
  0
BLOCK
  5
20
100
AcDbEntity
  8
0
100
AcDbBlockBegin
  2
*MODEL_SPACE
 70
0
 10
0.0
 20
0.0
 30
0.0
  3
*MODEL_SPACE
  1

  0
ENDBLK
  5
21
100
AcDbEntity
  8
0
100
AcDbBlockEnd
  0
BLOCK
  5
1C
100
AcDbEntity
  8
0
100
AcDbBlockBegin
  2
*PAPER_SPACE
 70
0
 10
0.0
 20
0.0
 30
0.0
  3
*PAPER_SPACE
  1

  0
ENDBLK
  5
1D
100
AcDbEntity
  8
0
100
AcDbBlockEnd
  0
BLOCK
  5
215
100
AcDbEntity
  8
___SYMBOL
100
AcDbBlockBegin
 62
2
  6
CONTINUOUS
  2
PACKAGING_UPC_NOTE_BL4
 70
64
 10
24.8770764883
 20
14.2389417279
  3
PACKAGING_UPC_NOTE_BL4
  1

  0
TEXT
  5
216
100
AcDbEntity
  8
___SYMBOL
100
AcDbText
 62
7
  6
CONTINUOUS
 10
23.0305756928
 20
14.7659450199
  7
TEXTSTYLE_4
 40
0.0593587493
  1
XXXXX-XX-X-XX
 41
0.8258950223
 72
0
100
AcDbText
  0
TEXT
  5
217
100
AcDbEntity
  8
___SYMBOL
100
AcDbText
 62
7
  6
CONTINUOUS
 10
24.6645556737
 20
14.6367800214
  7
TEXTSTYLE_5
 40
0.0445192495
  1
xxxxxx-xx
 41
0.6740211631
 72
0
100
AcDbText
  0
TEXT
  5
218
100
AcDbEntity
  8
___SYMBOL
100
AcDbText
 62
2
  6
CONTINUOUS
 10
21.9002313974
 20
16.3095736817
  7
STANDARD
 40
0.1562500052
  1
PACKAGING/UPC LABEL ON BOX
 41
0.8
 72
0
100
AcDbText
  0
TEXT
  5
219
100
AcDbEntity
  8
___SYMBOL
100
AcDbText
 62
2
  6
CONTINUOUS
 10
21.9002313974
 20
16.0751986739
  7
STANDARD
 40
0.1562500052
  1
EMBALLAGE/ÉTIQUETTE UPC SUR BOÎTE
 41
0.8
 72
0
100
AcDbText
  0
TEXT
  5
21A
100
AcDbEntity
  8
___SYMBOL
100
AcDbText
 62
2
  6
CONTINUOUS
 10
21.9002313974
 20
15.8408236661
  7
STANDARD
 40
0.1562500052
  1
ETIQUETA DE EMBALAJE/UPC EN LA CAJA
 41
0.8
 72
0
100
AcDbText
  0
TEXT
  5
21B
100
AcDbEntity
  8
___SYMBOL
100
AcDbText
 62
2
  6
CONTINUOUS
 10
21.8770764883
 20
14.1214347688
  7
STANDARD
 40
0.15625
  1
The template and the label suffixes circled
 41
0.8
 72
0
100
AcDbText
  0
TEXT
  5
21C
100
AcDbEntity
  8
___SYMBOL
100
AcDbText
 62
2
  6
CONTINUOUS
 10
21.8770764883
 20
13.8870597688
  7
STANDARD
 40
0.15625
  1
must match for proper cut-out.
 41
0.8
 72
0
100
AcDbText
  0
TEXT
  5
21D
100
AcDbEntity
  8
___SYMBOL
100
AcDbText
 62
2
  6
CONTINUOUS
 10
21.8770764883
 20
13.6526847688
  7
STANDARD
 40
0.15625
  1
 
 41
0.8
 72
0
100
AcDbText
  0
TEXT
  5
21E
100
AcDbEntity
  8
___SYMBOL
100
AcDbText
 62
2
  6
CONTINUOUS
 10
21.8770764883
 20
13.4183097688
  7
STANDARD
 40
0.15625
  1
Les suffixes du gabarit et de l'étiquette
 41
0.8
 72
0
100
AcDbText
  0
TEXT
  5
21F
100
AcDbEntity
  8
___SYMBOL
100
AcDbText
 62
2
  6
CONTINUOUS
 10
21.8770764883
 20
13.1839347688
  7
STANDARD
 40
0.15625
  1
encerclés doivent correspondre pour une
 41
0.8
 72
0
100
AcDbText
  0
TEXT
  5
220
100
AcDbEntity
  8
___SYMBOL
100
AcDbText
 62
2
  6
CONTINUOUS
 10
21.8770764883
 20
12.9495597688
  7
STANDARD
 40
0.15625
  1
propre découpe.
 41
0.8
 72
0
100
AcDbText
  0
TEXT
  5
221
100
AcDbEntity
  8
___SYMBOL
100
AcDbText
 62
2
  6
CONTINUOUS
 10
21.8770764883
 20
12.7151847688
  7
STANDARD
 40
0.15625
  1
 
 41
0.8
 72
0
100
AcDbText
  0
TEXT
  5
222
100
AcDbEntity
  8
___SYMBOL
100
AcDbText
 62
2
  6
CONTINUOUS
 10
21.8770764883
 20
12.4808097688
  7
STANDARD
 40
0.15625
  1
A fin de realizar el corte correcto, los sufijos
 41
0.8
 72
0
100
AcDbText
  0
TEXT
  5
223
100
AcDbEntity
  8
___SYMBOL
100
AcDbText
 62
2
  6
CONTINUOUS
 10
21.8770764883
 20
12.2464347688
  7
STANDARD
 40
0.15625
  1
de la plantilla y de la etiqueta encerrados
 41
0.8
 72
0
100
AcDbText
  0
TEXT
  5
224
100
AcDbEntity
  8
___SYMBOL
100
AcDbText
 62
2
  6
CONTINUOUS
 10
21.8770764883
 20
12.0120597688
  7
STANDARD
 40
0.15625
  1
en un círculo deben ser iguales.
 41
0.8
 72
0
100
AcDbText
  0
LINE
  5
225
100
AcDbEntity
  8
___SYMBOL
100
AcDbLine
 62
7
  6
CONTINUOUS
 10
25.0193806695
 20
14.6100500217
 11
22.8343381951
 21
14.6100500217
  0
LINE
  5
226
100
AcDbEntity
  8
___SYMBOL
100
AcDbLine
 62
7
  6
CONTINUOUS
 10
22.8343381951
 20
14.6100500217
 11
22.8343381951
 21
15.6030800101
  0
LINE
  5
227
100
AcDbEntity
  8
___SYMBOL
100
AcDbLine
 62
7
  6
CONTINUOUS
 10
22.8343381951
 20
15.6030800101
 11
25.0193806695
 21
15.6030800101
  0
LINE
  5
228
100
AcDbEntity
  8
___SYMBOL
100
AcDbLine
 62
7
  6
CONTINUOUS
 10
25.0193806695
 20
15.6030800101
 11
25.0193806695
 21
14.6100500217
  0
LINE
  5
229
100
AcDbEntity
  8
___SYMBOL
100
AcDbLine
 62
7
  6
CONTINUOUS
 10
22.8009706955
 20
15.6355400098
 11
25.0535356691
 21
15.6355400098
  0
LINE
  5
22A
100
AcDbEntity
  8
___SYMBOL
100
AcDbLine
 62
7
  6
CONTINUOUS
 10
25.0535356691
 20
15.6355400098
 11
25.0535356691
 21
14.5426325225
  0
LINE
  5
22B
100
AcDbEntity
  8
___SYMBOL
100
AcDbLine
 62
7
  6
CONTINUOUS
 10
25.0535356691
 20
14.5426325225
 11
22.8009706955
 21
14.5426325225
  0
LINE
  5
22C
100
AcDbEntity
  8
___SYMBOL
100
AcDbLine
 62
7
  6
CONTINUOUS
 10
22.8009706955
 20
14.5426325225
 11
22.8009706955
 21
15.6355400098
  0
LINE
  5
22D
100
AcDbEntity
  8
___SYMBOL
100
AcDbLine
 62
7
  6
CONTINUOUS
 10
24.8141956719
 20
15.0417200167
 11
24.8141956719
 21
14.9200850181
  0
LINE
  5
22E
100
AcDbEntity
  8
___SYMBOL
100
AcDbLine
 62
7
  6
CONTINUOUS
 10
24.8141956719
 20
14.9200850181
 11
24.4712431759
 21
14.9200850181
  0
LINE
  5
22F
100
AcDbEntity
  8
___SYMBOL
100
AcDbLine
 62
7
  6
CONTINUOUS
 10
24.4712431759
 20
14.9200850181
 11
24.4712431759
 21
15.0417200167
  0
LINE
  5
230
100
AcDbEntity
  8
___SYMBOL
100
AcDbLine
 62
7
  6
CONTINUOUS
 10
24.4712431759
 20
15.0417200167
 11
24.8141956719
 21
15.0417200167
  0
SOLID
  5
231
100
AcDbEntity
  8
___SYMBOL
100
AcDbTrace
 62
7
  6
CONTINUOUS
 10
24.4712431759
 20
14.920085009
 11
24.4712431759
 21
15.041720009
 12
24.8141956719
 22
15.041720009
 13
24.8141956719
 23
15.041720009
  0
SOLID
  5
232
100
AcDbEntity
  8
___SYMBOL
100
AcDbTrace
 62
7
  6
CONTINUOUS
 10
24.8141956719
 20
15.041720009
 11
24.8141956719
 21
14.920085009
 12
24.4712431759
 22
14.920085009
 13
24.4712431759
 23
14.920085009
  0
LINE
  5
233
100
AcDbEntity
  8
___SYMBOL
100
AcDbLine
 62
7
  6
CONTINUOUS
 10
23.7387406845
 20
15.0417200167
 11
23.7387406845
 21
14.9200850181
  0
LINE
  5
234
100
AcDbEntity
  8
___SYMBOL
100
AcDbLine
 62
7
  6
CONTINUOUS
 10
23.7387406845
 20
14.9200850181
 11
22.8830356945
 21
14.9200850181
  0
LINE
  5
235
100
AcDbEntity
  8
___SYMBOL
100
AcDbLine
 62
7
  6
CONTINUOUS
 10
22.8830356945
 20
14.9200850181
 11
22.8830356945
 21
15.0417200167
  0
LINE
  5
236
100
AcDbEntity
  8
___SYMBOL
100
AcDbLine
 62
7
  6
CONTINUOUS
 10
22.8830356945
 20
15.0417200167
 11
23.7387406845
 21
15.0417200167
  0
SOLID
  5
237
100
AcDbEntity
  8
___SYMBOL
100
AcDbTrace
 62
7
  6
CONTINUOUS
 10
22.8830356945
 20
14.920085009
 11
22.8830356945
 21
15.041720009
 12
23.7387406845
 22
15.041720009
 13
23.7387406845
 23
15.041720009
  0
SOLID
  5
238
100
AcDbEntity
  8
___SYMBOL
100
AcDbTrace
 62
7
  6
CONTINUOUS
 10
23.7387406845
 20
15.041720009
 11
23.7387406845
 21
14.920085009
 12
22.8830356945
 22
14.920085009
 13
22.8830356945
 23
14.920085009
  0
LINE
  5
239
100
AcDbEntity
  8
___SYMBOL
100
AcDbLine
 62
7
  6
CONTINUOUS
 10
23.7387406845
 20
14.6684525211
 11
23.7387406845
 21
14.6334725215
  0
LINE
  5
23A
100
AcDbEntity
  8
___SYMBOL
100
AcDbLine
 62
7
  6
CONTINUOUS
 10
23.7387406845
 20
14.6334725215
 11
22.8830356945
 21
14.6334725215
  0
LINE
  5
23B
100
AcDbEntity
  8
___SYMBOL
100
AcDbLine
 62
7
  6
CONTINUOUS
 10
22.8830356945
 20
14.6334725215
 11
22.8830356945
 21
14.6684525211
  0
LINE
  5
23C
100
AcDbEntity
  8
___SYMBOL
100
AcDbLine
 62
7
  6
CONTINUOUS
 10
22.8830356945
 20
14.6684525211
 11
23.7387406845
 21
14.6684525211
  0
SOLID
  5
23D
100
AcDbEntity
  8
___SYMBOL
100
AcDbTrace
 62
7
  6
CONTINUOUS
 10
22.8830356945
 20
14.633472523
 11
22.8830356945
 21
14.668452505
 12
23.7387406845
 22
14.668452505
 13
23.7387406845
 23
14.668452505
  0
SOLID
  5
23E
100
AcDbEntity
  8
___SYMBOL
100
AcDbTrace
 62
7
  6
CONTINUOUS
 10
23.7387406845
 20
14.668452505
 11
23.7387406845
 21
14.633472523
 12
22.8830356945
 22
14.633472523
 13
22.8830356945
 23
14.633472523
  0
ELLIPSE
  5
23F
100
AcDbEntity
  8
___SYMBOL
100
AcDbEllipse
 62
7
  6
CONTINUOUS
 10
23.6235894359
 20
14.8001255195
 30
0.0
 11
0.0665781627
 21
0.048368357
 31
0.0
 40
0.999973
 41
1.1735611666
 42
7.4430683942
  0
LINE
  5
240
100
AcDbEntity
  8
___SYMBOL
100
AcDbLine
 62
7
  6
CONTINUOUS
 10
23.785390684
 20
15.5749550105
 11
23.785390684
 21
15.5133050112
  0
LINE
  5
241
100
AcDbEntity
  8
___SYMBOL
100
AcDbLine
 62
7
  6
CONTINUOUS
 10
23.785390684
 20
15.5133050112
 11
22.929685694
 21
15.5133050112
  0
LINE
  5
242
100
AcDbEntity
  8
___SYMBOL
100
AcDbLine
 62
7
  6
CONTINUOUS
 10
22.929685694
 20
15.5133050112
 11
22.929685694
 21
15.5749550105
  0
LINE
  5
243
100
AcDbEntity
  8
___SYMBOL
100
AcDbLine
 62
7
  6
CONTINUOUS
 10
22.929685694
 20
15.5749550105
 11
23.785390684
 21
15.5749550105
  0
SOLID
  5
244
100
AcDbEntity
  8
___SYMBOL
100
AcDbTrace
 62
7
  6
CONTINUOUS
 10
22.929685694
 20
15.513305007
 11
22.929685694
 21
15.574954997
 12
23.785390684
 22
15.574954997
 13
23.785390684
 23
15.574954997
  0
SOLID
  5
245
100
AcDbEntity
  8
___SYMBOL
100
AcDbTrace
 62
7
  6
CONTINUOUS
 10
23.785390684
 20
15.574954997
 11
23.785390684
 21
15.513305007
 12
22.929685694
 22
15.513305007
 13
22.929685694
 23
15.513305007
  0
LINE
  5
246
100
AcDbEntity
  8
___SYMBOL
100
AcDbLine
 62
7
  6
CONTINUOUS
 10
23.785390684
 20
15.4749725116
 11
23.785390684
 21
15.4133225123
  0
LINE
  5
247
100
AcDbEntity
  8
___SYMBOL
100
AcDbLine
 62
7
  6
CONTINUOUS
 10
23.785390684
 20
15.4133225123
 11
22.929685694
 21
15.4133225123
  0
LINE
  5
248
100
AcDbEntity
  8
___SYMBOL
100
AcDbLine
 62
7
  6
CONTINUOUS
 10
22.929685694
 20
15.4133225123
 11
22.929685694
 21
15.4749725116
  0
LINE
  5
249
100
AcDbEntity
  8
___SYMBOL
100
AcDbLine
 62
7
  6
CONTINUOUS
 10
22.929685694
 20
15.4749725116
 11
23.785390684
 21
15.4749725116
  0
SOLID
  5
24A
100
AcDbEntity
  8
___SYMBOL
100
AcDbTrace
 62
7
  6
CONTINUOUS
 10
22.929685694
 20
15.413322499
 11
22.929685694
 21
15.474972523
 12
23.785390684
 22
15.474972523
 13
23.785390684
 23
15.474972523
  0
SOLID
  5
24B
100
AcDbEntity
  8
___SYMBOL
100
AcDbTrace
 62
7
  6
CONTINUOUS
 10
23.785390684
 20
15.474972523
 11
23.785390684
 21
15.413322499
 12
22.929685694
 22
15.413322499
 13
22.929685694
 23
15.413322499
  0
LINE
  5
24C
100
AcDbEntity
  8
___SYMBOL
100
AcDbLine
 62
7
  6
CONTINUOUS
 10
23.785390684
 20
15.3749900128
 11
23.785390684
 21
15.3133475135
  0
LINE
  5
24D
100
AcDbEntity
  8
___SYMBOL
100
AcDbLine
 62
7
  6
CONTINUOUS
 10
23.785390684
 20
15.3133475135
 11
22.929685694
 21
15.3133475135
  0
LINE
  5
24E
100
AcDbEntity
  8
___SYMBOL
100
AcDbLine
 62
7
  6
CONTINUOUS
 10
22.929685694
 20
15.3133475135
 11
22.929685694
 21
15.3749900128
  0
LINE
  5
24F
100
AcDbEntity
  8
___SYMBOL
100
AcDbLine
 62
7
  6
CONTINUOUS
 10
22.929685694
 20
15.3749900128
 11
23.785390684
 21
15.3749900128
  0
SOLID
  5
250
100
AcDbEntity
  8
___SYMBOL
100
AcDbTrace
 62
7
  6
CONTINUOUS
 10
22.929685694
 20
15.313347505
 11
22.929685694
 21
15.374990015
 12
23.785390684
 22
15.374990015
 13
23.785390684
 23
15.374990015
  0
SOLID
  5
251
100
AcDbEntity
  8
___SYMBOL
100
AcDbTrace
 62
7
  6
CONTINUOUS
 10
23.785390684
 20
15.374990015
 11
23.785390684
 21
15.313347505
 12
22.929685694
 22
15.313347505
 13
22.929685694
 23
15.313347505
  0
LINE
  5
252
100
AcDbEntity
  8
___SYMBOL
100
AcDbLine
 62
7
  6
CONTINUOUS
 10
23.785390684
 20
15.275007514
 11
23.785390684
 21
15.2133650147
  0
LINE
  5
253
100
AcDbEntity
  8
___SYMBOL
100
AcDbLine
 62
7
  6
CONTINUOUS
 10
23.785390684
 20
15.2133650147
 11
22.929685694
 21
15.2133650147
  0
LINE
  5
254
100
AcDbEntity
  8
___SYMBOL
100
AcDbLine
 62
7
  6
CONTINUOUS
 10
22.929685694
 20
15.2133650147
 11
22.929685694
 21
15.275007514
  0
LINE
  5
255
100
AcDbEntity
  8
___SYMBOL
100
AcDbLine
 62
7
  6
CONTINUOUS
 10
22.929685694
 20
15.275007514
 11
23.785390684
 21
15.275007514
  0
SOLID
  5
256
100
AcDbEntity
  8
___SYMBOL
100
AcDbTrace
 62
7
  6
CONTINUOUS
 10
22.929685694
 20
15.213365031
 11
22.929685694
 21
15.275007507
 12
23.785390684
 22
15.275007507
 13
23.785390684
 23
15.275007507
  0
SOLID
  5
257
100
AcDbEntity
  8
___SYMBOL
100
AcDbTrace
 62
7
  6
CONTINUOUS
 10
23.785390684
 20
15.275007507
 11
23.785390684
 21
15.213365031
 12
22.929685694
 22
15.213365031
 13
22.929685694
 23
15.213365031
  0
LINE
  5
258
100
AcDbEntity
  8
___SYMBOL
100
AcDbLine
 62
7
  6
CONTINUOUS
 10
23.785390684
 20
15.1483700154
 11
23.785390684
 21
15.0867200162
  0
LINE
  5
259
100
AcDbEntity
  8
___SYMBOL
100
AcDbLine
 62
7
  6
CONTINUOUS
 10
23.785390684
 20
15.0867200162
 11
22.929685694
 21
15.0867200162
  0
LINE
  5
25A
100
AcDbEntity
  8
___SYMBOL
100
AcDbLine
 62
7
  6
CONTINUOUS
 10
22.929685694
 20
15.0867200162
 11
22.929685694
 21
15.1483700154
  0
LINE
  5
25B
100
AcDbEntity
  8
___SYMBOL
100
AcDbLine
 62
7
  6
CONTINUOUS
 10
22.929685694
 20
15.1483700154
 11
23.785390684
 21
15.1483700154
  0
SOLID
  5
25C
100
AcDbEntity
  8
___SYMBOL
100
AcDbTrace
 62
7
  6
CONTINUOUS
 10
22.929685694
 20
15.086720029
 11
22.929685694
 21
15.148370019
 12
23.785390684
 22
15.148370019
 13
23.785390684
 23
15.148370019
  0
SOLID
  5
25D
100
AcDbEntity
  8
___SYMBOL
100
AcDbTrace
 62
7
  6
CONTINUOUS
 10
23.785390684
 20
15.148370019
 11
23.785390684
 21
15.086720029
 12
22.929685694
 22
15.086720029
 13
22.929685694
 23
15.086720029
  0
ENDBLK
  5
25E
100
AcDbEntity
  8
0
  6
BYBLOCK
 62
0
100
AcDbBlockEnd
  0
BLOCK
  5
25F
100
AcDbEntity
  8
___SYMBOL
100
AcDbBlockBegin
 62
2
  6
CONTINUOUS
  2
PLOTTING_TEMPLATE_NOTE_BL3
 70
64
 10
16.2227356973
 20
19.5438935979
  3
PLOTTING_TEMPLATE_NOTE_BL3
  1

  0
TEXT
  5
260
100
AcDbEntity
  8
___SYMBOL
100
AcDbText
 62
2
  6
CONTINUOUS
 10
13.3477356973
 20
20.8720185979
  7
STANDARD
 40
0.15625
  1
WHEN PLOTTING TEMPLATE FULL SIZE:
 41
0.8
 72
0
100
AcDbText
  0
TEXT
  5
261
100
AcDbEntity
  8
___SYMBOL
100
AcDbText
 62
2
  6
CONTINUOUS
 10
13.3477356973
 20
20.6376435979
  7
STANDARD
 40
0.15625
  1
Make sure horizontal and vertical dimensions
 41
0.8
 72
0
100
AcDbText
  0
TEXT
  5
262
100
AcDbEntity
  8
___SYMBOL
100
AcDbText
 62
2
  6
CONTINUOUS
 10
13.3477356973
 20
20.4032685979
  7
STANDARD
 40
0.15625
  1
match the dimensions labeled on the template.
 41
0.8
 72
0
100
AcDbText
  0
TEXT
  5
263
100
AcDbEntity
  8
___SYMBOL
100
AcDbText
 62
2
  6
CONTINUOUS
 10
13.3477356973
 20
20.1688935979
  7
STANDARD
 40
0.15625
  1
 
 41
0.8
 72
0
100
AcDbText
  0
TEXT
  5
264
100
AcDbEntity
  8
___SYMBOL
100
AcDbText
 62
2
  6
CONTINUOUS
 10
13.3477356973
 20
19.9345185979
  7
STANDARD
 40
0.15625
  1
LORS DU TRACÉ DU GABARIT À L'ÉCHELLE: 
 41
0.8
 72
0
100
AcDbText
  0
TEXT
  5
265
100
AcDbEntity
  8
___SYMBOL
100
AcDbText
 62
2
  6
CONTINUOUS
 10
13.3477356973
 20
19.7001435979
  7
STANDARD
 40
0.15625
  1
s'assurer que les dimensions horizontales et
 41
0.8
 72
0
100
AcDbText
  0
TEXT
  5
266
100
AcDbEntity
  8
___SYMBOL
100
AcDbText
 62
2
  6
CONTINUOUS
 10
13.3477356973
 20
19.4657685979
  7
STANDARD
 40
0.15625
  1
verticales correspondent à celles marquées sur
 41
0.8
 72
0
100
AcDbText
  0
TEXT
  5
267
100
AcDbEntity
  8
___SYMBOL
100
AcDbText
 62
2
  6
CONTINUOUS
 10
13.3477356973
 20
19.2313935979
  7
STANDARD
 40
0.15625
  1
le gabarit.
 41
0.8
 72
0
100
AcDbText
  0
TEXT
  5
268
100
AcDbEntity
  8
___SYMBOL
100
AcDbText
 62
2
  6
CONTINUOUS
 10
13.3477356973
 20
18.9970185979
  7
STANDARD
 40
0.15625
  1
 
 41
0.8
 72
0
100
AcDbText
  0
TEXT
  5
269
100
AcDbEntity
  8
___SYMBOL
100
AcDbText
 62
2
  6
CONTINUOUS
 10
13.3477356973
 20
18.7626435979
  7
STANDARD
 40
0.15625
  1
AL TRAZAR LA PLANTILLA A ESCALA COMPLETA:
 41
0.8
 72
0
100
AcDbText
  0
TEXT
  5
26A
100
AcDbEntity
  8
___SYMBOL
100
AcDbText
 62
2
  6
CONTINUOUS
 10
13.3477356973
 20
18.5282685979
  7
STANDARD
 40
0.15625
  1
asegúrese de que la dimensión horizontal y
 41
0.8
 72
0
100
AcDbText
  0
TEXT
  5
26B
100
AcDbEntity
  8
___SYMBOL
100
AcDbText
 62
2
  6
CONTINUOUS
 10
13.3477356973
 20
18.2938935979
  7
STANDARD
 40
0.15625
  1
la dimensión vertical sean iguales a las
 41
0.8
 72
0
100
AcDbText
  0
TEXT
  5
26C
100
AcDbEntity
  8
___SYMBOL
100
AcDbText
 62
2
  6
CONTINUOUS
 10
13.3477356973
 20
18.0595185979
  7
STANDARD
 40
0.15625
  1
dimensiones indicadas en la plantilla.
 41
0.8
 72
0
100
AcDbText
  0
ENDBLK
  5
26D
100
AcDbEntity
  8
0
  6
BYBLOCK
 62
0
100
AcDbBlockEnd
  0
BLOCK
  5
26E
100
AcDbEntity
  8
___SYMBOL
100
AcDbBlockBegin
 62
2
  6
CONTINUOUS
  2
TEMPLATE_NUMBER_BL2
 70
64
 10
18.0692946076
 20
8.4411214643
  3
TEMPLATE_NUMBER_BL2
  1

  0
TEXT
  5
26F
100
AcDbEntity
  8
___SYMBOL
100
AcDbText
 62
2
  6
CONTINUOUS
 10
17.7590946076
 20
8.4058714643
  7
STANDARD
 40
0.0705
  1
1003767-7-F
 41
0.8
 72
0
100
AcDbText
  0
ENDBLK
  5
270
100
AcDbEntity
  8
0
  6
BYBLOCK
 62
0
100
AcDbBlockEnd
  0
BLOCK
  5
271
100
AcDbEntity
  8
___SYMBOL
100
AcDbBlockBegin
 62
2
  6
CONTINUOUS
  2
TEMPLATE_NUMBER_BL1
 70
64
 10
18.0620359923
 20
10.0929439527
  3
TEMPLATE_NUMBER_BL1
  1

  0
TEXT
  5
272
100
AcDbEntity
  8
___SYMBOL
100
AcDbText
 62
2
  6
CONTINUOUS
 10
17.7518359923
 20
10.0576939527
  7
STANDARD
 40
0.0705
  1
1003767-7-F
 41
0.8
 72
0
100
AcDbText
  0
ENDBLK
  5
273
100
AcDbEntity
  8
0
  6
BYBLOCK
 62
0
100
AcDbBlockEnd
  0
BLOCK
  5
274
100
AcDbEntity
  8
___SYMBOL
100
AcDbBlockBegin
 62
2
  6
CONTINUOUS
  2
COPYRIGHT_YEAR_BL0
 70
64
 10
22.4179837722
 20
10.1882707087
  3
COPYRIGHT_YEAR_BL0
  1

  0
TEXT
  5
275
100
AcDbEntity
  8
___SYMBOL
100
AcDbText
 62
2
  6
CONTINUOUS
 10
22.0442921466
 20
10.1529970839
  7
STANDARD
 40
0.0705
  1
2003 KOHLER CO.
 41
0.8
 72
0
100
AcDbText
  0
TEXT
  5
276
100
AcDbEntity
  8
___SYMBOL
100
AcDbText
 62
7
  6
CONTINUOUS
 10
21.9642663976
 20
10.1694820841
  7
TEXTSTYLE_2
 40
0.0421874995
  1
C
 41
1.0
 72
0
100
AcDbText
  0
CIRCLE
  5
277
100
AcDbEntity
  8
___SYMBOL
100
AcDbCircle
 62
7
  6
CONTINUOUS
 10
21.9785013974
 20
10.1907183339
 40
0.0328259996
  0
ENDBLK
  5
278
100
AcDbEntity
  8
0
  6
BYBLOCK
 62
0
100
AcDbBlockEnd
  0
BLOCK
  5
279
100
AcDbEntity
  8
0
100
AcDbBlockBegin
  2
_ARROW_FILLED
 70
64
 10
0.0
 20
0.0
  3
_ARROW_FILLED
  1

  0
SOLID
  5
27A
100
AcDbEntity
  8
0
  6
BYBLOCK
 62
0
100
AcDbTrace
 10
0.0
 20
0.0
 11
-1.0
 21
0.1666666667
 12
-1.0
 22
-0.1666666667
 13
-1.0
 23
-0.1666666667
  0
ENDBLK
  5
27B
100
AcDbEntity
  8
0
  6
BYBLOCK
 62
0
100
AcDbBlockEnd
  0
BLOCK
  5
27C
100
AcDbEntity
  8
0
100
AcDbBlockBegin
 62
2
  6
CONTINUOUS
  2
*D0
 70
65
 10
0.0
 20
0.0
  3
*D0
  1

  0
MTEXT
  5
27D
100
AcDbEntity
  8
0
100
AcDbMText
 62
2
  6
CONTINUOUS
  7
STANDARD
 71
2
 72
1
 10
18.6079062866
 20
17.2791552175
 30
0.0
 11
1.0
 21
0.0
 31
0.0
  1
18-9/16"\P(47.1 cm)
 40
0.156210271
 41
1.1247139512
  0
LINE
  5
27E
100
AcDbEntity
  8
0
100
AcDbLine
 62
2
  6
CONTINUOUS
 10
11.4001530609
 20
17.1392473122
 11
11.4001530609
 21
17.076050082
  0
LINE
  5
27F
100
AcDbEntity
  8
0
100
AcDbLine
 62
2
  6
CONTINUOUS
 10
29.9605118063
 20
17.1392473122
 11
29.9605118063
 21
17.076050082
  0
LINE
  5
280
100
AcDbEntity
  8
0
100
AcDbLine
 62
2
  6
CONTINUOUS
 10
11.4001530609
 20
17.201050082
 11
17.9674441755
 21
17.201050082
  0
LINE
  5
281
100
AcDbEntity
  8
0
100
AcDbLine
 62
2
  6
CONTINUOUS
 10
29.9605118063
 20
17.201050082
 11
19.2483683977
 21
17.201050082
  0
INSERT
  5
282
100
AcDbEntity
  8
0
100
AcDbBlockReference
 62
2
  6
CONTINUOUS
  2
_ARROW_FILLED
 10
11.4001530609
 20
17.201050082
 41
0.1875
 42
0.1875
 43
0.1875
 50
180.0
  0
INSERT
  5
283
100
AcDbEntity
  8
0
100
AcDbBlockReference
 62
2
  6
CONTINUOUS
  2
_ARROW_FILLED
 10
29.9605118063
 20
17.201050082
 41
0.1875
 42
0.1875
 43
0.1875
  0
ENDBLK
  5
284
100
AcDbEntity
  8
0
  6
BYBLOCK
 62
0
100
AcDbBlockEnd
  0
BLOCK
  5
285
100
AcDbEntity
  8
0
100
AcDbBlockBegin
 62
2
  6
CONTINUOUS
  2
*D1
 70
65
 10
0.0
 20
0.0
  3
*D1
  1

  0
MTEXT
  5
286
100
AcDbEntity
  8
0
100
AcDbMText
 62
2
  6
CONTINUOUS
  7
STANDARD
 71
2
 72
1
 10
10.6402742639
 20
26.2749331331
 30
0.0
 11
1.0
 21
0.0
 31
0.0
  1
2-1/2"\P(6.4 cm)
 40
0.1562109375
 41
0.9997499998
  0
LINE
  5
287
100
AcDbEntity
  8
0
100
AcDbLine
 62
2
  6
CONTINUOUS
 10
10.5363078586
 20
27.4817016783
 11
10.7652742639
 21
27.4817016783
  0
LINE
  5
288
100
AcDbEntity
  8
0
100
AcDbLine
 62
2
  6
CONTINUOUS
 10
20.6178324336
 20
24.9823266789
 11
10.5152742639
 21
24.9823266789
  0
LINE
  5
289
100
AcDbEntity
  8
0
100
AcDbLine
 62
2
  6
CONTINUOUS
 10
10.6402742639
 20
27.4817016783
 11
10.6402742639
 21
26.3530386018
  0
LINE
  5
28A
100
AcDbEntity
  8
0
100
AcDbLine
 62
2
  6
CONTINUOUS
 10
10.6402742639
 20
24.9823266789
 11
10.6402742639
 21
25.8063003207
  0
INSERT
  5
28B
100
AcDbEntity
  8
0
100
AcDbBlockReference
 62
2
  6
CONTINUOUS
  2
_ARROW_FILLED
 10
10.6402742639
 20
27.4817016783
 41
0.1875
 42
0.1875
 43
0.1875
 50
90.0
  0
INSERT
  5
28C
100
AcDbEntity
  8
0
100
AcDbBlockReference
 62
2
  6
CONTINUOUS
  2
_ARROW_FILLED
 10
10.6402742639
 20
24.9823266789
 41
0.1875
 42
0.1875
 43
0.1875
 50
270.0
  0
ENDBLK
  5
28D
100
AcDbEntity
  8
0
  6
BYBLOCK
 62
0
100
AcDbBlockEnd
  0
BLOCK
  5
28E
100
AcDbEntity
  8
0
100
AcDbBlockBegin
 62
2
  6
CONTINUOUS
  2
*D2
 70
65
 10
0.0
 20
0.0
  3
*D2
  1

  0
MTEXT
  5
28F
100
AcDbEntity
  8
0
100
AcDbMText
 62
2
  6
CONTINUOUS
  7
STANDARD
 71
2
 72
1
 10
10.6402742639
 20
28.7449127407
 30
0.0
 11
1.0
 21
0.0
 31
0.0
  1
2" (5.1 cm) MINIMUM\P2 po (5,1 cm) MINIMUM\P2" (5,1 cm) MINIMO
 40
0.156211
 41
2.6243448
  0
LINE
  5
290
100
AcDbEntity
  8
0
100
AcDbLine
 62
2
  6
CONTINUOUS
 10
10.5293732118
 20
29.4812016778
 11
10.7652742639
 21
29.4812016778
  0
LINE
  5
291
100
AcDbEntity
  8
0
100
AcDbLine
 62
2
  6
CONTINUOUS
 10
10.1171709227
 20
27.4817016783
 11
10.7652742639
 21
27.4817016783
  0
LINE
  5
292
100
AcDbEntity
  8
0
100
AcDbLine
 62
2
  6
CONTINUOUS
 10
10.6402742639
 20
29.4812016778
 11
10.6402742639
 21
28.8230182407
  0
LINE
  5
293
100
AcDbEntity
  8
0
100
AcDbLine
 62
2
  6
CONTINUOUS
 10
10.6402742639
 20
27.4817016783
 11
10.6402742639
 21
28.0419632407
  0
INSERT
  5
294
100
AcDbEntity
  8
0
100
AcDbBlockReference
 62
2
  6
CONTINUOUS
  2
_ARROW_FILLED
 10
10.6402742639
 20
29.4812016778
 41
0.1875
 42
0.1875
 43
0.1875
 50
90.0
  0
INSERT
  5
295
100
AcDbEntity
  8
0
100
AcDbBlockReference
 62
2
  6
CONTINUOUS
  2
_ARROW_FILLED
 10
10.6402742639
 20
27.4817016783
 41
0.1875
 42
0.1875
 43
0.1875
 50
270.0
  0
ENDBLK
  5
296
100
AcDbEntity
  8
0
  6
BYBLOCK
 62
0
100
AcDbBlockEnd
  0
BLOCK
  5
297
100
AcDbEntity
  8
0
100
AcDbBlockBegin
 62
2
  6
CONTINUOUS
  2
*D3
 70
65
 10
0.0
 20
0.0
  3
*D3
  1

  0
MTEXT
  5
298
100
AcDbEntity
  8
0
100
AcDbMText
 62
2
  6
CONTINUOUS
  7
STANDARD
 71
2
 72
1
 10
20.6779591063
 20
21.0555503848
 30
0.0
 11
1.0
 21
0.0
 31
0.0
  1
15-15/16"\P(40,5 cm)
 40
0.157050061
 41
1.1307604392
  0
LINE
  5
299
100
AcDbEntity
  8
0
100
AcDbLine
 62
2
  6
CONTINUOUS
 10
20.6178324336
 20
9.086649596
 11
20.5529591063
 21
9.086649596
  0
LINE
  5
29A
100
AcDbEntity
  8
0
100
AcDbLine
 62
2
  6
CONTINUOUS
 10
20.6178324336
 20
24.9823266789
 11
20.5529591063
 21
24.9823266789
  0
LINE
  5
29B
100
AcDbEntity
  8
0
100
AcDbLine
 62
2
  6
CONTINUOUS
 10
20.6779591063
 20
9.086649596
 11
20.6779591063
 21
20.5844002018
  0
LINE
  5
29C
100
AcDbEntity
  8
0
100
AcDbLine
 62
2
  6
CONTINUOUS
 10
20.6779591063
 20
24.9823266789
 11
20.6779591063
 21
21.1340754153
  0
INSERT
  5
29D
100
AcDbEntity
  8
0
100
AcDbBlockReference
 62
2
  6
CONTINUOUS
  2
_ARROW_FILLED
 10
20.6779591063
 20
9.086649596
 41
0.1875
 42
0.1875
 43
0.1875
 50
270.0
  0
INSERT
  5
29E
100
AcDbEntity
  8
0
100
AcDbBlockReference
 62
2
  6
CONTINUOUS
  2
_ARROW_FILLED
 10
20.6779591063
 20
24.9823266789
 41
0.1875
 42
0.1875
 43
0.1875
 50
90.0
  0
ENDBLK
  5
29F
100
AcDbEntity
  8
0
  6
BYBLOCK
 62
0
100
AcDbBlockEnd
  0
ENDSEC
  0
SECTION
  2
ENTITIES
  0
SPLINE
  5
2A0
100
AcDbEntity
  8
INTF_1
100
AcDbSpline
 62
7
  6
CONTINUOUS
 70
0
 71
1
 72
7
 73
5
 74
0
 42
0.0000001
 43
0.0000001
 44
0.0000000001
 40
0.0
 40
0.0
 40
0.6323375
 40
4.1135388889
 40
4.7458763889
 40
8.2270777778
 40
8.2270777778
 10
21.668223384
 20
21.8858216735
 30
0.0
 10
21.668223384
 20
22.728727561
 30
0.0
 10
26.3086648354
 20
22.728727561
 30
0.0
 10
26.3086648354
 20
21.8858216735
 30
0.0
 10
21.668223384
 20
21.8858216735
 30
0.0
  0
SPLINE
  5
2A1
100
AcDbEntity
  8
INTF_1
100
AcDbSpline
 62
7
  6
CONTINUOUS
 70
0
 71
1
 72
11
 73
9
 74
0
 42
0.0000001
 43
0.0000001
 44
0.0000000001
 40
0.0
 40
0.0
 40
0.1134275086
 40
0.1216747308
 40
0.1564300811
 40
0.1991078933
 40
0.2343111597
 40
0.2421375485
 40
0.3533508685
 40
0.3556574216
 40
0.3556574216
 10
24.5361321534
 20
21.8549219929
 30
0.0
 10
24.5927679909
 20
21.7147311235
 30
0.0
 10
24.5817744437
 20
21.7147311235
 30
0.0
 10
24.5648342354
 20
21.7578518221
 30
0.0
 10
24.5079447576
 20
21.7579240263
 30
0.0
 10
24.4896030479
 20
21.7147311235
 30
0.0
 10
24.4791704715
 20
21.7147311235
 30
0.0
 10
24.5350379826
 20
21.8520486374
 30
0.0
 10
24.5361321534
 20
21.8549219929
 30
0.0
  0
SPLINE
  5
2A2
100
AcDbEntity
  8
INTF_1
100
AcDbSpline
 62
7
  6
CONTINUOUS
 70
0
 71
1
 72
11
 73
9
 74
0
 42
0.0000001
 43
0.0000001
 44
0.0000000001
 40
0.0
 40
0.0
 40
0.11343011
 40
0.1213787211
 40
0.1562542199
 40
0.1988986988
 40
0.2341150074
 40
0.2419275074
 40
0.3531303621
 40
0.3554489868
 40
0.3554489868
 10
26.0122796909
 20
21.8549219929
 30
0.0
 10
26.0689247854
 20
21.7147311235
 30
0.0
 10
26.0583292868
 20
21.7147311235
 30
0.0
 10
26.0409558534
 20
21.7578518221
 30
0.0
 10
25.984110809
 20
21.7579240263
 30
0.0
 10
25.9657246659
 20
21.7147311235
 30
0.0
 10
25.9553106034
 20
21.7147311235
 30
0.0
 10
26.0111410868
 20
21.8520486374
 30
0.0
 10
26.0122796909
 20
21.8549219929
 30
0.0
  0
SPLINE
  5
2A3
100
AcDbEntity
  8
INTF_1
100
AcDbSpline
 62
7
  6
CONTINUOUS
 70
0
 71
3
 72
23
 73
19
 74
0
 42
0.0000001
 43
0.0000001
 44
0.0000000001
 40
0.0381944444
 40
0.0381944444
 40
0.0381944444
 40
0.0381944444
 40
0.0486388889
 40
0.0486388889
 40
0.0486388889
 40
1.0486388889
 40
1.0486388889
 40
1.0486388889
 40
2.0486388889
 40
2.0486388889
 40
2.0486388889
 40
3.0486388889
 40
3.0486388889
 40
3.0486388889
 40
4.0486388889
 40
4.0486388889
 40
4.0486388889
 40
4.0580652778
 40
4.0580652778
 40
4.0580652778
 40
4.0580652778
 10
25.9224762215
 20
21.7873407443
 30
0.0
 10
25.9271170363
 20
21.7873407443
 30
0.0
 10
25.9317578511
 20
21.7873407443
 30
0.0
 10
25.9363986659
 20
21.7873407443
 30
0.0
 10
25.9452223854
 20
21.7873407443
 30
0.0
 10
25.9524124251
 20
21.7884012479
 30
0.0
 10
25.9586727257
 20
21.7941927346
 30
0.0
 10
25.9639880632
 20
21.7991100235
 30
0.0
 10
25.966772552
 20
21.8054380707
 30
0.0
 10
25.966772552
 20
21.812923236
 30
0.0
 10
25.966772552
 20
21.8213303929
 30
0.0
 10
25.9630748582
 20
21.8287734038
 30
0.0
 10
25.9572989951
 20
21.8332440804
 30
0.0
 10
25.9508265395
 20
21.8382539388
 30
0.0
 10
25.9420028201
 20
21.8382539388
 30
0.0
 10
25.9350415979
 20
21.8382539388
 30
0.0
 10
25.9308531391
 20
21.8382539388
 30
0.0
 10
25.9266646803
 20
21.8382539388
 30
0.0
 10
25.9224762215
 20
21.8382539388
 30
0.0
  0
SPLINE
  5
2A4
100
AcDbEntity
  8
INTF_1
100
AcDbSpline
 62
7
  6
CONTINUOUS
 70
0
 71
3
 72
17
 73
13
 74
0
 42
0.0000001
 43
0.0000001
 44
0.0000000001
 40
0.0237625
 40
0.0237625
 40
0.0237625
 40
0.0237625
 40
0.0333111111
 40
0.0333111111
 40
0.0333111111
 40
1.0333111111
 40
1.0333111111
 40
1.0333111111
 40
2.0333111111
 40
2.0333111111
 40
2.0333111111
 40
2.0428597222
 40
2.0428597222
 40
2.0428597222
 40
2.0428597222
 10
25.3614924284
 20
21.7786077429
 30
0.0
 10
25.3657351946
 20
21.7786077429
 30
0.0
 10
25.3699779608
 20
21.7786077429
 30
0.0
 10
25.374220727
 20
21.7786077429
 30
0.0
 10
25.3828796729
 20
21.7786077429
 30
0.0
 10
25.3900038173
 20
21.7856226554
 30
0.0
 10
25.3900038173
 20
21.7943556568
 30
0.0
 10
25.3900038173
 20
21.8031423485
 30
0.0
 10
25.3828796729
 20
21.8102831554
 30
0.0
 10
25.374220727
 20
21.8102831554
 30
0.0
 10
25.3699779608
 20
21.8102831554
 30
0.0
 10
25.3657351946
 20
21.8102831554
 30
0.0
 10
25.3614924284
 20
21.8102831554
 30
0.0
  0
SPLINE
  5
2A5
100
AcDbEntity
  8
INTF_1
100
AcDbSpline
 62
7
  6
CONTINUOUS
 70
0
 71
3
 72
11
 73
7
 74
0
 42
0.0000001
 43
0.0000001
 44
0.0000000001
 40
0.3382728571
 40
0.3382728571
 40
0.3382728571
 40
0.3382728571
 40
0.380549246
 40
0.380549246
 40
0.380549246
 40
1.380549246
 40
1.380549246
 40
1.380549246
 40
1.380549246
 10
25.3175941465
 20
21.8483773332
 30
0.0
 10
25.3363789553
 20
21.8483773332
 30
0.0
 10
25.3551637641
 20
21.8483773332
 30
0.0
 10
25.3739485729
 20
21.8483773332
 30
0.0
 10
25.4234158326
 20
21.8483773332
 30
0.0
 10
25.4549838645
 20
21.7862724929
 30
0.0
 10
25.4005271118
 20
21.7496612777
 30
0.0
  0
SPLINE
  5
2A6
100
AcDbEntity
  8
INTF_1
100
AcDbSpline
 62
7
  6
CONTINUOUS
 70
0
 71
1
 72
15
 73
13
 74
0
 42
0.0000001
 43
0.0000001
 44
0.0000000001
 40
0.0
 40
0.0
 40
0.0284416667
 40
0.0623097655
 40
0.0817742218
 40
0.1130783884
 40
0.1407200551
 40
0.1719297773
 40
0.1907561662
 40
0.2249367218
 40
0.2538811662
 40
0.3225672773
 40
0.4459394995
 40
0.5143672773
 40
0.5143672773
 10
25.305371277
 20
21.8483773332
 30
0.0
 10
25.305371277
 20
21.8104645915
 30
0.0
 10
25.260225159
 20
21.8103923874
 30
0.0
 10
25.2600270604
 20
21.7844470235
 30
0.0
 10
25.3017555145
 20
21.7844470235
 30
0.0
 10
25.3017555145
 20
21.7476006818
 30
0.0
 10
25.2601529548
 20
21.7476006818
 30
0.0
 10
25.2601529548
 20
21.7225051054
 30
0.0
 10
25.3057156354
 20
21.7225051054
 30
0.0
 10
25.3057156354
 20
21.683922161
 30
0.0
 10
25.2141570493
 20
21.683922161
 30
0.0
 10
25.2141570493
 20
21.8483773332
 30
0.0
 10
25.305371277
 20
21.8483773332
 30
0.0
  0
SPLINE
  5
2A7
100
AcDbEntity
  8
INTF_1
100
AcDbSpline
 62
7
  6
CONTINUOUS
 70
0
 71
1
 72
16
 73
14
 74
0
 42
0.0000001
 43
0.0000001
 44
0.0000000001
 40
0.0
 40
0.0
 40
0.0762702112
 40
0.1616203838
 40
0.2062773801
 40
0.2642685662
 40
0.2643296773
 40
0.3082893996
 40
0.3420074551
 40
0.4653796773
 40
0.4990977329
 40
0.5360574551
 40
0.536321344
 40
0.5852365517
 40
0.6289171073
 40
0.6289171073
 10
24.8015546701
 20
21.848305129
 30
0.0
 10
24.7366653409
 20
21.7700376638
 30
0.0
 10
24.8109115895
 20
21.6838314429
 30
0.0
 10
24.7513838826
 20
21.683922161
 30
0.0
 10
24.7009668604
 20
21.7425204707
 30
0.0
 10
24.7008853993
 20
21.7425204707
 30
0.0
 10
24.7008853993
 20
21.683922161
 30
0.0
 10
24.6559392312
 20
21.683922161
 30
0.0
 10
24.6559392312
 20
21.8483773332
 30
0.0
 10
24.7008853993
 20
21.8483773332
 30
0.0
 10
24.7008853993
 20
21.7991100235
 30
0.0
 10
24.7005336354
 20
21.7991100235
 30
0.0
 10
24.7433284895
 20
21.848305129
 30
0.0
 10
24.8015546701
 20
21.848305129
 30
0.0
  0
SPLINE
  5
2A8
100
AcDbEntity
  8
INTF_1
100
AcDbSpline
 62
7
  6
CONTINUOUS
 70
0
 71
1
 72
15
 73
13
 74
0
 42
0.0000001
 43
0.0000001
 44
0.0000000001
 40
0.0
 40
0.0
 40
0.1233722222
 40
0.1570361111
 40
0.2003027778
 40
0.2343472222
 40
0.2776138889
 40
0.3112708333
 40
0.4346430556
 40
0.4683
 40
0.5141986111
 40
0.5482430556
 40
0.5941416667
 40
0.6278055556
 40
0.6278055556
 10
24.9587153701
 20
21.683922161
 30
0.0
 10
24.9587153701
 20
21.8483773332
 30
0.0
 10
25.003589334
 20
21.8483773332
 30
0.0
 10
25.003589334
 20
21.7907028665
 30
0.0
 10
25.0489705784
 20
21.7907028665
 30
0.0
 10
25.0489705784
 20
21.8483773332
 30
0.0
 10
25.0938352854
 20
21.8483773332
 30
0.0
 10
25.0938352854
 20
21.683922161
 30
0.0
 10
25.0489705784
 20
21.683922161
 30
0.0
 10
25.0489705784
 20
21.7451050096
 30
0.0
 10
25.003589334
 20
21.7451050096
 30
0.0
 10
25.003589334
 20
21.683922161
 30
0.0
 10
24.9587153701
 20
21.683922161
 30
0.0
  0
SPLINE
  5
2A9
100
AcDbEntity
  8
INTF_1
100
AcDbSpline
 62
7
  6
CONTINUOUS
 70
0
 71
1
 72
9
 73
7
 74
0
 42
0.0000001
 43
0.0000001
 44
0.0000000001
 40
0.0
 40
0.0
 40
0.1233722222
 40
0.1570916667
 40
0.2489694444
 40
0.286825
 40
0.3183194444
 40
0.3898944444
 40
0.3898944444
 10
25.1068524007
 20
21.683922161
 30
0.0
 10
25.1068524007
 20
21.8483773332
 30
0.0
 10
25.1518004201
 20
21.8483773332
 30
0.0
 10
25.1518004201
 20
21.7259042554
 30
0.0
 10
25.2022618757
 20
21.7259042554
 30
0.0
 10
25.2022618757
 20
21.683922161
 30
0.0
 10
25.1068524007
 20
21.683922161
 30
0.0
  0
SPLINE
  5
2AA
100
AcDbEntity
  8
INTF_1
100
AcDbSpline
 62
7
  6
CONTINUOUS
 70
0
 71
3
 72
8
 73
4
 74
0
 42
0.0000001
 43
0.0000001
 44
0.0000000001
 40
0.0506940081
 40
0.0506940081
 40
0.0506940081
 40
0.0506940081
 40
0.1856215675
 40
0.1856215675
 40
0.1856215675
 40
0.1856215675
 10
25.5535906882
 20
21.7232104846
 30
0.0
 10
25.4759376031
 20
21.7270187544
 30
0.0
 10
25.4757788241
 20
21.838495926
 30
0.0
 10
25.5535906882
 20
21.8399701763
 30
0.0
  0
SPLINE
  5
2AB
100
AcDbEntity
  8
INTF_1
100
AcDbSpline
 62
7
  6
CONTINUOUS
 70
0
 71
3
 72
14
 73
10
 74
0
 42
0.0000001
 43
0.0000001
 44
0.0000000001
 40
0.0
 40
0.0
 40
0.0
 40
0.0
 40
0.0987956343
 40
0.0987956343
 40
0.1968605605
 40
0.1968605605
 40
0.2954509101
 40
0.2954509101
 40
0.3933711843
 40
0.3933711843
 40
0.3933711843
 40
0.3933711843
 10
24.7799489618
 20
21.7675419915
 30
0.0
 10
24.7797201095
 20
21.8146070833
 30
0.0
 10
24.8170536214
 20
21.8534013546
 30
0.0
 10
24.9116042051
 20
21.8530133087
 30
0.0
 10
24.9493299133
 20
21.8142292453
 30
0.0
 10
24.949640721
 20
21.7203315642
 30
0.0
 10
24.9122131013
 20
21.6816136503
 30
0.0
 10
24.8176694126
 20
21.6820329005
 30
0.0
 10
24.7796685187
 20
21.72043212
 30
0.0
 10
24.7799489618
 20
21.7675419915
 30
0.0
  0
SPLINE
  5
2AC
100
AcDbEntity
  8
INTF_1
100
AcDbSpline
 62
7
  6
CONTINUOUS
 70
0
 71
3
 72
17
 73
13
 74
0
 42
0.0000001
 43
0.0000001
 44
0.0000000001
 40
0.0
 40
0.0
 40
0.0
 40
0.0
 40
0.0032416667
 40
0.0032416667
 40
0.0032416667
 40
1.0032416667
 40
1.0032416667
 40
1.0032416667
 40
2.0032416667
 40
2.0032416667
 40
2.0032416667
 40
3.0032416667
 40
3.0032416667
 40
3.0032416667
 40
3.0032416667
 10
26.1129489618
 20
22.1249192915
 30
0.0
 10
26.1143893423
 20
22.1249192915
 30
0.0
 10
26.1158297229
 20
22.1249192915
 30
0.0
 10
26.1172701034
 20
22.1249192915
 30
0.0
 10
26.1222059062
 20
22.1249192915
 30
0.0
 10
26.1263826395
 20
22.1267095846
 30
0.0
 10
26.1263826395
 20
22.1313287999
 30
0.0
 10
26.1263826395
 20
22.1346205693
 30
0.0
 10
26.1239961993
 20
22.1379104874
 30
0.0
 10
26.1172701034
 20
22.1379104874
 30
0.0
 10
26.115335402
 20
22.1379104874
 30
0.0
 10
26.1139986993
 20
22.1377475652
 30
0.0
 10
26.1129489618
 20
22.1375938999
 30
0.0
  0
SPLINE
  5
2AD
100
AcDbEntity
  8
INTF_1
100
AcDbSpline
 62
7
  6
CONTINUOUS
 70
0
 71
3
 72
17
 73
13
 74
0
 42
0.0000001
 43
0.0000001
 44
0.0000000001
 40
0.0325722222
 40
0.0325722222
 40
0.0325722222
 40
0.0325722222
 40
1.0325722222
 40
1.0325722222
 40
1.0325722222
 40
2.0325722222
 40
2.0325722222
 40
2.0325722222
 40
3.0325722222
 40
3.0325722222
 40
3.0325722222
 40
4.0325722222
 40
4.0325722222
 40
4.0325722222
 40
4.0325722222
 10
26.1069837868
 20
22.1416262249
 30
0.0
 10
26.1101107826
 20
22.1420872207
 30
0.0
 10
26.1130933701
 20
22.1425204457
 30
0.0
 10
26.117577434
 20
22.1425204457
 30
0.0
 10
26.1232556437
 20
22.1425204457
 30
0.0
 10
26.126985275
 20
22.1413370028
 30
0.0
 10
26.1292208187
 20
22.1396915235
 30
0.0
 10
26.1314443368
 20
22.1380548957
 30
0.0
 10
26.1326569965
 20
22.1355055332
 30
0.0
 10
26.1326569965
 20
22.131934204
 30
0.0
 10
26.1326569965
 20
22.1270076582
 30
0.0
 10
26.129365227
 20
22.1240158138
 30
0.0
 10
26.1253347534
 20
22.1228309249
 30
0.0
  0
SPLINE
  5
2AE
100
AcDbEntity
  8
INTF_1
100
AcDbSpline
 62
7
  6
CONTINUOUS
 70
0
 71
3
 72
12
 73
8
 74
0
 42
0.0000001
 43
0.0000001
 44
0.0000000001
 40
0.039009476
 40
0.039009476
 40
0.039009476
 40
0.039009476
 40
0.0793449376
 40
0.0793449376
 40
0.1196515026
 40
0.1196515026
 40
0.1957701011
 40
0.1957701011
 40
0.1957701011
 40
0.1957701011
 10
26.1523465173
 20
22.1237269971
 30
0.0
 10
26.1527909384
 20
22.0999845579
 30
0.0
 10
26.1430340998
 20
22.0900433107
 30
0.0
 10
26.095564896
 20
22.0899905368
 30
0.0
 10
26.0861974373
 20
22.1001492563
 30
0.0
 10
26.0855025961
 20
22.1678421713
 30
0.0
 10
26.1529465374
 20
22.1679827882
 30
0.0
 10
26.1523465173
 20
22.1237269971
 30
0.0
  0
SPLINE
  5
2AF
100
AcDbEntity
  8
INTF_1
100
AcDbSpline
 62
7
  6
CONTINUOUS
 70
0
 71
1
 72
7
 73
5
 74
0
 42
0.0000001
 43
0.0000001
 44
0.0000000001
 40
0.0
 40
0.0
 40
0.5096027778
 40
3.8794430556
 40
4.3890458333
 40
7.7588861111
 40
7.7588861111
 10
26.2328023243
 20
22.6649046318
 30
0.0
 10
26.2328023243
 20
21.985604129
 30
0.0
 10
21.740805234
 20
21.985604129
 30
0.0
 10
21.740805234
 20
22.6649046318
 30
0.0
 10
26.2328023243
 20
22.6649046318
 30
0.0
  0
SPLINE
  5
2B0
100
AcDbEntity
  8
INTF_1
100
AcDbSpline
 62
7
  6
CONTINUOUS
 70
0
 71
1
 72
7
 73
5
 74
0
 42
0.0000001
 43
0.0000001
 44
0.0000000001
 40
0.0
 40
0.0
 40
0.496175
 40
3.8525736111
 40
4.3487486111
 40
7.7051472222
 40
7.7051472222
 10
26.2238341965
 20
22.6559550179
 30
0.0
 10
26.2238341965
 20
21.9945537429
 30
0.0
 10
21.7497548479
 20
21.9945537429
 30
0.0
 10
21.7497548479
 20
22.6559550179
 30
0.0
 10
26.2238341965
 20
22.6559550179
 30
0.0
  0
SPLINE
  5
2B1
100
AcDbEntity
  8
INTF_1
100
AcDbSpline
 62
7
  6
CONTINUOUS
 70
0
 71
1
 72
7
 73
5
 74
0
 42
0.0000001
 43
0.0000001
 44
0.0000000001
 40
0.0
 40
0.0
 40
0.6142111111
 40
4.0886777778
 40
4.7028888889
 40
8.1773555556
 40
8.1773555556
 10
21.6710541576
 20
22.7346316402
 30
0.0
 10
21.6710541576
 20
21.915888229
 30
0.0
 10
26.3025182243
 20
21.915888229
 30
0.0
 10
26.3025182243
 20
22.7346316402
 30
0.0
 10
21.6710541576
 20
22.7346316402
 30
0.0
  0
SPLINE
  5
2B2
100
AcDbEntity
  8
INTF_1
100
AcDbSpline
 62
7
  6
CONTINUOUS
 70
0
 71
3
 72
14
 73
10
 74
0
 42
0.0000001
 43
0.0000001
 44
0.0000000001
 40
0.1363871571
 40
0.1363871571
 40
0.1363871571
 40
0.1363871571
 40
1.1363871571
 40
1.1363871571
 40
1.1363871571
 40
2.1363871571
 40
2.1363871571
 40
2.1363871571
 40
3.1363871571
 40
3.1363871571
 40
3.1363871571
 40
3.1363871571
 10
25.8232362229
 20
22.5146329499
 30
0.0
 10
25.6725572354
 20
22.5146329499
 30
0.0
 10
25.5576230132
 20
22.4438950832
 30
0.0
 10
25.5576230132
 20
22.3322433735
 30
0.0
 10
25.5576230132
 20
22.2205805554
 30
0.0
 10
25.681253209
 20
22.135975786
 30
0.0
 10
25.8338668979
 20
22.135975786
 30
0.0
 10
25.8783076368
 20
22.135975786
 30
0.0
 10
25.9246645632
 20
22.1401340054
 30
0.0
 10
25.9681296201
 20
22.1491373096
 30
0.0
  0
SPLINE
  5
2B3
100
AcDbEntity
  8
INTF_1
100
AcDbSpline
 62
7
  6
CONTINUOUS
 70
0
 71
3
 72
11
 73
7
 74
0
 42
0.0000001
 43
0.0000001
 44
0.0000000001
 40
3.1363871571
 40
3.1363871571
 40
3.1363871571
 40
3.1363871571
 40
3.2113121571
 40
3.2113121571
 40
3.2113121571
 40
4.2113121571
 40
4.2113121571
 40
4.2113121571
 40
4.2113121571
 10
25.9681296201
 20
22.1491373096
 30
0.0
 10
25.9681296201
 20
22.1824289846
 30
0.0
 10
25.9681296201
 20
22.2157206596
 30
0.0
 10
25.9681296201
 20
22.2490123346
 30
0.0
 10
25.9681296201
 20
22.2809228735
 30
0.0
 10
25.9671520868
 20
22.3148958596
 30
0.0
 10
25.9237055437
 20
22.3273797749
 30
0.0
  0
SPLINE
  5
2B4
100
AcDbEntity
  8
INTF_1
100
AcDbSpline
 62
7
  6
CONTINUOUS
 70
0
 71
3
 72
17
 73
13
 74
0
 42
0.0000001
 43
0.0000001
 44
0.0000000001
 40
4.4917022773
 40
4.4917022773
 40
4.4917022773
 40
4.4917022773
 40
5.4917022773
 40
5.4917022773
 40
5.4917022773
 40
6.4917022773
 40
6.4917022773
 40
6.4917022773
 40
7.4917022773
 40
7.4917022773
 40
7.4917022773
 40
8.4917022773
 40
8.4917022773
 40
8.4917022773
 40
8.4917022773
 10
26.0714741479
 20
22.1068312221
 30
0.0
 10
25.9942175409
 20
22.096452336
 30
0.0
 10
25.9188789729
 20
22.086021611
 30
0.0
 10
25.840646684
 20
22.086021611
 30
0.0
 10
25.5933677784
 20
22.086021611
 30
0.0
 10
25.4475153618
 20
22.1831380665
 30
0.0
 10
25.4475153618
 20
22.3225161763
 30
0.0
 10
25.4475153618
 20
22.4716307402
 30
0.0
 10
25.6126759132
 20
22.5645797193
 30
0.0
 10
25.8464322743
 20
22.5645797193
 30
0.0
 10
25.8976176229
 20
22.5645797193
 30
0.0
 10
25.947843952
 20
22.5604122429
 30
0.0
 10
25.9980684298
 20
22.5527826693
 30
0.0
  0
SPLINE
  5
2B5
100
AcDbEntity
  8
INTF_1
100
AcDbSpline
 62
7
  6
CONTINUOUS
 70
0
 71
3
 72
14
 73
10
 74
0
 42
0.0000001
 43
0.0000001
 44
0.0000000001
 40
0.1313958333
 40
0.1313958333
 40
0.1313958333
 40
0.1313958333
 40
1.1313958333
 40
1.1313958333
 40
1.1313958333
 40
1.3390027778
 40
1.3390027778
 40
1.3390027778
 40
2.3390027778
 40
2.3390027778
 40
2.3390027778
 40
2.3390027778
 10
24.773313584
 20
22.0992201624
 30
0.0
 10
24.8245081895
 20
22.1206981249
 30
0.0
 10
24.8245081895
 20
22.1484597013
 30
0.0
 10
24.8245081895
 20
22.187287029
 30
0.0
 10
24.8245081895
 20
22.2795337147
 30
0.0
 10
24.8245081895
 20
22.3717804003
 30
0.0
 10
24.8245081895
 20
22.464027086
 30
0.0
 10
24.8245081895
 20
22.5028544138
 30
0.0
 10
24.8245081895
 20
22.5306067332
 30
0.0
 10
24.7742818604
 20
22.5513996818
 30
0.0
  0
SPLINE
  5
2B6
100
AcDbEntity
  8
INTF_1
100
AcDbSpline
 62
7
  6
CONTINUOUS
 70
0
 71
3
 72
11
 73
7
 74
0
 42
0.0000001
 43
0.0000001
 44
0.0000000001
 40
3.819343998
 40
3.819343998
 40
3.819343998
 40
3.819343998
 40
4.0165481647
 40
4.0165481647
 40
4.0165481647
 40
5.0165481647
 40
5.0165481647
 40
5.0165481647
 40
5.0165481647
 10
25.2968382257
 20
22.2011539318
 30
0.0
 10
25.2968382257
 20
22.2887783165
 30
0.0
 10
25.2968382257
 20
22.3764027013
 30
0.0
 10
25.2968382257
 20
22.464027086
 30
0.0
 10
25.2968382257
 20
22.5028544138
 30
0.0
 10
25.2977953937
 20
22.5306067332
 30
0.0
 10
25.2466118965
 20
22.5513996818
 30
0.0
  0
SPLINE
  5
2B7
100
AcDbEntity
  8
INTF_1
100
AcDbSpline
 62
7
  6
CONTINUOUS
 70
0
 71
3
 72
11
 73
7
 74
0
 42
0.0000001
 43
0.0000001
 44
0.0000000001
 40
5.1472176091
 40
5.1472176091
 40
5.1472176091
 40
5.1472176091
 40
6.1472176091
 40
6.1472176091
 40
6.1472176091
 40
6.4391078869
 40
6.4391078869
 40
6.4391078869
 40
6.4391078869
 10
25.4166175326
 20
22.5513996818
 30
0.0
 10
25.3663726895
 20
22.5306067332
 30
0.0
 10
25.3663726895
 20
22.5028544138
 30
0.0
 10
25.3663726895
 20
22.464027086
 30
0.0
 10
25.3663726895
 20
22.3343305059
 30
0.0
 10
25.3663726895
 20
22.2046339258
 30
0.0
 10
25.3663726895
 20
22.0749373457
 30
0.0
  0
SPLINE
  5
2B8
100
AcDbEntity
  8
INTF_1
100
AcDbSpline
 62
7
  6
CONTINUOUS
 70
0
 71
3
 72
11
 73
7
 74
0
 42
0.0000001
 43
0.0000001
 44
0.0000000001
 40
6.8979254112
 40
6.8979254112
 40
6.8979254112
 40
6.8979254112
 40
7.0992740223
 40
7.0992740223
 40
7.0992740223
 40
8.0992740223
 40
8.0992740223
 40
8.0992740223
 40
8.0992740223
 10
24.8940611673
 20
22.4556847277
 30
0.0
 10
24.8940611673
 20
22.3662188281
 30
0.0
 10
24.8940611673
 20
22.2767529286
 30
0.0
 10
24.8940611673
 20
22.187287029
 30
0.0
 10
24.8940611673
 20
22.1484597013
 30
0.0
 10
24.8930947423
 20
22.1206981249
 30
0.0
 10
24.9442689826
 20
22.0992201624
 30
0.0
  0
SPLINE
  5
2B9
100
AcDbEntity
  8
INTF_1
100
AcDbSpline
 62
7
  6
CONTINUOUS
 70
0
 71
3
 72
14
 73
10
 74
0
 42
0.0000001
 43
0.0000001
 44
0.0000000001
 40
0.1408208333
 40
0.1408208333
 40
0.1408208333
 40
0.1408208333
 40
1.1408208333
 40
1.1408208333
 40
1.1408208333
 40
1.3369611111
 40
1.3369611111
 40
1.3369611111
 40
2.3369611111
 40
2.3369611111
 40
2.3369611111
 40
2.3369611111
 10
24.6709447382
 20
22.5513996818
 30
0.0
 10
24.6226623673
 20
22.5382196443
 30
0.0
 10
24.6284220382
 20
22.4868991443
 30
0.0
 10
24.6284220382
 20
22.4556847277
 30
0.0
 10
24.6284220382
 20
22.3685330642
 30
0.0
 10
24.6284220382
 20
22.2813814008
 30
0.0
 10
24.6284220382
 20
22.1942297374
 30
0.0
 10
24.6284220382
 20
22.1630319832
 30
0.0
 10
24.6226623673
 20
22.1124001999
 30
0.0
 10
24.6709447382
 20
22.0992201624
 30
0.0
  0
SPLINE
  5
2BA
100
AcDbEntity
  8
INTF_1
100
AcDbSpline
 62
7
  6
CONTINUOUS
 70
0
 71
3
 72
14
 73
10
 74
0
 42
0.0000001
 43
0.0000001
 44
0.0000000001
 40
2.4777958333
 40
2.4777958333
 40
2.4777958333
 40
2.4777958333
 40
3.4777958333
 40
3.4777958333
 40
3.4777958333
 40
3.6739361111
 40
3.6739361111
 40
3.6739361111
 40
4.6739361111
 40
4.6739361111
 40
4.6739361111
 40
4.6739361111
 10
24.4874073007
 20
22.0992201624
 30
0.0
 10
24.535706334
 20
22.1116948207
 30
0.0
 10
24.5299133382
 20
22.1630319832
 30
0.0
 10
24.5299133382
 20
22.1942297374
 30
0.0
 10
24.5299133382
 20
22.2813814008
 30
0.0
 10
24.5299133382
 20
22.3685330642
 30
0.0
 10
24.5299133382
 20
22.4556847277
 30
0.0
 10
24.5299133382
 20
22.4875952665
 30
0.0
 10
24.5366838673
 20
22.5382196443
 30
0.0
 10
24.4874073007
 20
22.5513996818
 30
0.0
  0
SPLINE
  5
2BB
100
AcDbEntity
  8
INTF_1
100
AcDbSpline
 62
7
  6
CONTINUOUS
 70
0
 71
3
 72
14
 73
10
 74
0
 42
0.0000001
 43
0.0000001
 44
0.0000000001
 40
0.3803437494
 40
0.3803437494
 40
0.3803437494
 40
0.3803437494
 40
1.3803437494
 40
1.3803437494
 40
1.3803437494
 40
1.5764840272
 40
1.5764840272
 40
1.5764840272
 40
2.5764840272
 40
2.5764840272
 40
2.5764840272
 40
2.5764840272
 10
24.0006123632
 20
22.0992201624
 30
0.0
 10
24.0498704159
 20
22.1116948207
 30
0.0
 10
24.0440774201
 20
22.1630319832
 30
0.0
 10
24.0440774201
 20
22.1942297374
 30
0.0
 10
24.0440774201
 20
22.2813814008
 30
0.0
 10
24.0440774201
 20
22.3685330642
 30
0.0
 10
24.0440774201
 20
22.4556847277
 30
0.0
 10
24.0440774201
 20
22.4875952665
 30
0.0
 10
24.0498704159
 20
22.5382196443
 30
0.0
 10
24.0006123632
 20
22.5513996818
 30
0.0
  0
SPLINE
  5
2BC
100
AcDbEntity
  8
INTF_1
100
AcDbSpline
 62
7
  6
CONTINUOUS
 70
0
 71
3
 72
11
 73
7
 74
0
 42
0.0000001
 43
0.0000001
 44
0.0000000001
 40
2.7180173605
 40
2.7180173605
 40
2.7180173605
 40
2.7180173605
 40
3.7180173605
 40
3.7180173605
 40
3.7180173605
 40
3.9448520827
 40
3.9448520827
 40
3.9448520827
 40
3.9448520827
 10
24.1850995632
 20
22.5513996818
 30
0.0
 10
24.1358415104
 20
22.5382196443
 30
0.0
 10
24.1426027826
 20
22.4868991443
 30
0.0
 10
24.1426027826
 20
22.4556847277
 30
0.0
 10
24.1426027826
 20
22.3548944994
 30
0.0
 10
24.1426027826
 20
22.2541042712
 30
0.0
 10
24.1426027826
 20
22.1533140429
 30
0.0
  0
SPLINE
  5
2BD
100
AcDbEntity
  8
INTF_1
100
AcDbSpline
 62
7
  6
CONTINUOUS
 70
0
 71
3
 72
8
 73
4
 74
0
 42
0.0000001
 43
0.0000001
 44
0.0000000001
 40
3.9448520827
 40
3.9448520827
 40
3.9448520827
 40
3.9448520827
 40
4.1770975516
 40
4.1770975516
 40
4.1770975516
 40
4.1770975516
 10
24.1426027826
 20
22.1533140429
 30
0.0
 10
24.2467470462
 20
22.1483689811
 30
0.0
 10
24.3433194348
 20
22.1284969281
 30
0.0
 10
24.4449271826
 20
22.1893476249
 30
0.0
  0
SPLINE
  5
2BE
100
AcDbEntity
  8
INTF_1
100
AcDbSpline
 62
7
  6
CONTINUOUS
 70
0
 71
3
 72
11
 73
7
 74
0
 42
0.0000001
 43
0.0000001
 44
0.0000000001
 40
0.0
 40
0.0
 40
0.0
 40
0.0
 40
0.140550031
 40
0.140550031
 40
0.140550031
 40
1.140550031
 40
1.140550031
 40
1.140550031
 40
1.140550031
 10
23.6838063993
 20
22.3197502013
 30
0.0
 10
23.730169497
 20
22.2779100466
 30
0.0
 10
23.7765325946
 20
22.236069892
 30
0.0
 10
23.8228956923
 20
22.1942297374
 30
0.0
 10
23.8634577715
 20
22.1581517221
 30
0.0
 10
23.9243055187
 20
22.1220903693
 30
0.0
 10
23.9793769326
 20
22.0971225388
 30
0.0
  0
SPLINE
  5
2BF
100
AcDbEntity
  8
INTF_1
100
AcDbSpline
 62
7
  6
CONTINUOUS
 70
0
 71
3
 72
14
 73
10
 74
0
 42
0.0000001
 43
0.0000001
 44
0.0000000001
 40
1.5143546326
 40
1.5143546326
 40
1.5143546326
 40
1.5143546326
 40
2.0459541232
 40
2.0459541232
 40
2.5487056352
 40
2.5487056352
 40
3.0207171483
 40
3.0207171483
 40
3.5638184132
 40
3.5638184132
 40
3.5638184132
 40
3.5638184132
 10
23.5717547895
 20
22.3343224832
 30
0.0
 10
23.6086404883
 20
22.3382921653
 30
0.0
 10
23.6438016815
 20
22.3445055306
 30
0.0
 10
23.7108825814
 20
22.3742502556
 30
0.0
 10
23.7442982659
 20
22.4000557687
 30
0.0
 10
23.7325771222
 20
22.4815085347
 30
0.0
 10
23.6906480555
 20
22.5005998547
 30
0.0
 10
23.6206327732
 20
22.5145582768
 30
0.0
 10
23.5852240665
 20
22.5097737119
 30
0.0
 10
23.548577252
 20
22.5049335235
 30
0.0
  0
SPLINE
  5
2C0
100
AcDbEntity
  8
INTF_1
100
AcDbSpline
 62
7
  6
CONTINUOUS
 70
0
 71
3
 72
11
 73
7
 74
0
 42
0.0000001
 43
0.0000001
 44
0.0000000001
 40
3.5638184132
 40
3.5638184132
 40
3.5638184132
 40
3.5638184132
 40
3.7969045243
 40
3.7969045243
 40
3.7969045243
 40
4.7969045243
 40
4.7969045243
 40
4.7969045243
 40
4.7969045243
 10
23.548577252
 20
22.5049335235
 30
0.0
 10
23.548577252
 20
22.4013655948
 30
0.0
 10
23.548577252
 20
22.2977976661
 30
0.0
 10
23.548577252
 20
22.1942297374
 30
0.0
 10
23.548577252
 20
22.1623284554
 30
0.0
 10
23.5427824048
 20
22.1116948207
 30
0.0
 10
23.5920404576
 20
22.0992201624
 30
0.0
  0
SPLINE
  5
2C1
100
AcDbEntity
  8
INTF_1
100
AcDbSpline
 62
7
  6
CONTINUOUS
 70
0
 71
3
 72
14
 73
10
 74
0
 42
0.0000001
 43
0.0000001
 44
0.0000000001
 40
4.9384517465
 40
4.9384517465
 40
4.9384517465
 40
4.9384517465
 40
5.9384517465
 40
5.9384517465
 40
5.9384517465
 40
6.1345920243
 40
6.1345920243
 40
6.1345920243
 40
7.1345920243
 40
7.1345920243
 40
7.1345920243
 40
7.1345920243
 10
23.4075532576
 20
22.0992201624
 30
0.0
 10
23.4568113104
 20
22.1116948207
 30
0.0
 10
23.4500592951
 20
22.1630319832
 30
0.0
 10
23.4500592951
 20
22.1942297374
 30
0.0
 10
23.4500592951
 20
22.2813814008
 30
0.0
 10
23.4500592951
 20
22.3685330642
 30
0.0
 10
23.4500592951
 20
22.4556847277
 30
0.0
 10
23.4500592951
 20
22.4875952665
 30
0.0
 10
23.4568113104
 20
22.5382196443
 30
0.0
 10
23.4075532576
 20
22.5513996818
 30
0.0
  0
SPLINE
  5
2C2
100
AcDbEntity
  8
INTF_1
100
AcDbSpline
 62
7
  6
CONTINUOUS
 70
0
 71
3
 72
14
 73
10
 74
0
 42
0.0000001
 43
0.0000001
 44
0.0000000001
 40
7.136158691
 40
7.136158691
 40
7.136158691
 40
7.136158691
 40
7.3086100798
 40
7.3086100798
 40
7.3086100798
 40
8.3086100798
 40
8.3086100798
 40
8.3086100798
 40
9.3086100798
 40
9.3086100798
 40
9.3086100798
 40
9.3086100798
 10
23.4075532576
 20
22.5534880485
 30
0.0
 10
23.4841791581
 20
22.5534880485
 30
0.0
 10
23.5608050585
 20
22.5534880485
 30
0.0
 10
23.637430959
 20
22.5534880485
 30
0.0
 10
23.7668745159
 20
22.5534880485
 30
0.0
 10
23.8373865132
 20
22.5049335235
 30
0.0
 10
23.8373865132
 20
22.4418159735
 30
0.0
 10
23.8373865132
 20
22.3807960471
 30
0.0
 10
23.7630143701
 20
22.3329394957
 30
0.0
 10
23.6838063993
 20
22.3197502013
 30
0.0
  0
SPLINE
  5
2C3
100
AcDbEntity
  8
INTF_1
100
AcDbSpline
 62
7
  6
CONTINUOUS
 70
0
 71
3
 72
8
 73
4
 74
0
 42
0.0000001
 43
0.0000001
 44
0.0000000001
 40
0.0
 40
0.0
 40
0.0
 40
0.0
 40
0.2313461135
 40
0.2313461135
 40
0.2313461135
 40
0.2313461135
 10
23.0695026062
 20
22.1553764902
 30
0.0
 10
23.1733800714
 20
22.1483478481
 30
0.0
 10
23.2690575505
 20
22.1286300097
 30
0.0
 10
23.3708605812
 20
22.1879924082
 30
0.0
  0
SPLINE
  5
2C4
100
AcDbEntity
  8
INTF_1
100
AcDbSpline
 62
7
  6
CONTINUOUS
 70
0
 71
3
 72
14
 73
10
 74
0
 42
0.0000001
 43
0.0000001
 44
0.0000000001
 40
0.6128133373
 40
0.6128133373
 40
0.6128133373
 40
0.6128133373
 40
1.6128133373
 40
1.6128133373
 40
1.6128133373
 40
1.8089536151
 40
1.8089536151
 40
1.8089536151
 40
2.8089536151
 40
2.8089536151
 40
2.8089536151
 40
2.8089536151
 10
22.9275121868
 20
22.0992201624
 30
0.0
 10
22.9767702395
 20
22.1116948207
 30
0.0
 10
22.9709753923
 20
22.1630319832
 30
0.0
 10
22.9709753923
 20
22.1942297374
 30
0.0
 10
22.9709753923
 20
22.2813814008
 30
0.0
 10
22.9709753923
 20
22.3685330642
 30
0.0
 10
22.9709753923
 20
22.4556847277
 30
0.0
 10
22.9709753923
 20
22.4875952665
 30
0.0
 10
22.9767702395
 20
22.5382196443
 30
0.0
 10
22.9275121868
 20
22.5513996818
 30
0.0
  0
SPLINE
  5
2C5
100
AcDbEntity
  8
INTF_1
100
AcDbSpline
 62
7
  6
CONTINUOUS
 70
0
 71
3
 72
11
 73
7
 74
0
 42
0.0000001
 43
0.0000001
 44
0.0000000001
 40
3.5799535043
 40
3.5799535043
 40
3.5799535043
 40
3.5799535043
 40
4.5799535043
 40
4.5799535043
 40
4.5799535043
 40
4.6335771155
 40
4.6335771155
 40
4.6335771155
 40
4.6335771155
 10
23.2269428659
 20
22.3003494971
 30
0.0
 10
23.2114856201
 20
22.3204555804
 30
0.0
 10
23.1709216895
 20
22.3197502013
 30
0.0
 10
23.1409828798
 20
22.3197502013
 30
0.0
 10
23.117156122
 20
22.3197502013
 30
0.0
 10
23.0933293641
 20
22.3197502013
 30
0.0
 10
23.0695026062
 20
22.3197502013
 30
0.0
  0
SPLINE
  5
2C6
100
AcDbEntity
  8
INTF_1
100
AcDbSpline
 62
7
  6
CONTINUOUS
 70
0
 71
3
 72
11
 73
7
 74
0
 42
0.0000001
 43
0.0000001
 44
0.0000000001
 40
0.1466138889
 40
0.1466138889
 40
0.1466138889
 40
0.1466138889
 40
1.1466138889
 40
1.1466138889
 40
1.1466138889
 40
1.3786625
 40
1.3786625
 40
1.3786625
 40
1.3786625
 10
22.5189495382
 20
22.0992201624
 30
0.0
 10
22.567231909
 20
22.1124001999
 30
0.0
 10
22.5614278048
 20
22.1630319832
 30
0.0
 10
22.5614278048
 20
22.1942297374
 30
0.0
 10
22.5614278048
 20
22.2973366703
 30
0.0
 10
22.5614278048
 20
22.4004436031
 30
0.0
 10
22.5614278048
 20
22.503550536
 30
0.0
  0
SPLINE
  5
2C7
100
AcDbEntity
  8
INTF_1
100
AcDbSpline
 62
7
  6
CONTINUOUS
 70
0
 71
3
 72
11
 73
7
 74
0
 42
0.0000001
 43
0.0000001
 44
0.0000000001
 40
2.0235770463
 40
2.0235770463
 40
2.0235770463
 40
2.0235770463
 40
3.0235770463
 40
3.0235770463
 40
3.0235770463
 40
3.0888034352
 40
3.0888034352
 40
3.0888034352
 40
3.0888034352
 10
22.8299606548
 20
22.4757889596
 30
0.0
 10
22.8174137923
 20
22.5000606679
 30
0.0
 10
22.7787679007
 20
22.503550536
 30
0.0
 10
22.7469017951
 20
22.503550536
 30
0.0
 10
22.7179195363
 20
22.503550536
 30
0.0
 10
22.6889372775
 20
22.503550536
 30
0.0
 10
22.6599550187
 20
22.503550536
 30
0.0
  0
SPLINE
  5
2C8
100
AcDbEntity
  8
INTF_1
100
AcDbSpline
 62
7
  6
CONTINUOUS
 70
0
 71
3
 72
11
 73
7
 74
0
 42
0.0000001
 43
0.0000001
 44
0.0000000001
 40
3.0888034352
 40
3.0888034352
 40
3.0888034352
 40
3.0888034352
 40
3.3260603796
 40
3.3260603796
 40
3.3260603796
 40
4.3260603796
 40
4.3260603796
 40
4.3260603796
 40
4.3260603796
 10
22.6599550187
 20
22.503550536
 30
0.0
 10
22.6599550187
 20
22.398129367
 30
0.0
 10
22.6599550187
 20
22.292708198
 30
0.0
 10
22.6599550187
 20
22.187287029
 30
0.0
 10
22.6599550187
 20
22.1477543221
 30
0.0
 10
22.6589978507
 20
22.1206981249
 30
0.0
 10
22.7101906048
 20
22.0992201624
 30
0.0
  0
SPLINE
  5
2C9
100
AcDbEntity
  8
INTF_1
100
AcDbSpline
 62
7
  6
CONTINUOUS
 70
0
 71
3
 72
18
 73
14
 74
0
 42
0.0000001
 43
0.0000001
 44
0.0000000001
 40
0.0
 40
0.0
 40
0.0
 40
0.0
 40
0.5032108973
 40
0.5032108973
 40
0.8324923635
 40
0.8324923635
 40
1.151976252
 40
1.151976252
 40
1.6605310342
 40
1.6605310342
 40
3.0490484198
 40
3.0490484198
 40
4.1196841171
 40
4.1196841171
 40
4.1196841171
 40
4.1196841171
 10
22.2861707104
 20
22.4709623888
 30
0.0
 10
22.2401614193
 20
22.5000051643
 30
0.0
 10
22.194686076
 20
22.5134640716
 30
0.0
 10
22.1047915498
 20
22.5152994735
 30
0.0
 10
22.0159153693
 20
22.5089416333
 30
0.0
 10
22.0046408492
 20
22.4059171421
 30
0.0
 10
22.0944992484
 20
22.380335761
 30
0.0
 10
22.1736337839
 20
22.3533973616
 30
0.0
 10
22.2230272494
 20
22.3400165552
 30
0.0
 10
22.3961593247
 20
22.2528937334
 30
0.0
 10
22.3324840602
 20
22.1448366963
 30
0.0
 10
22.1243331582
 20
22.0759265154
 30
0.0
 10
21.9996426185
 20
22.0832521119
 30
0.0
 10
21.9104313354
 20
22.1068312221
 30
0.0
  0
SPLINE
  5
2CA
100
AcDbEntity
  8
INTF_1
100
AcDbSpline
 62
7
  6
CONTINUOUS
 70
0
 71
3
 72
18
 73
14
 74
0
 42
0.0000001
 43
0.0000001
 44
0.0000000001
 40
4.1880291668
 40
4.1880291668
 40
4.1880291668
 40
4.1880291668
 40
5.1629619988
 40
5.1629619988
 40
5.8465018609
 40
5.8465018609
 40
6.3921468543
 40
6.3921468543
 40
6.8466935936
 40
6.8466935936
 40
7.3975710712
 40
7.3975710712
 40
8.3539434147
 40
8.3539434147
 40
8.3539434147
 40
8.3539434147
 10
21.882427227
 20
22.1935243582
 30
0.0
 10
21.9618261401
 20
22.1468764358
 30
0.0
 10
22.0938560297
 20
22.1129257796
 30
0.0
 10
22.2512965216
 20
22.1845853318
 30
0.0
 10
22.2405266107
 20
22.2393073804
 30
0.0
 10
22.1329384418
 20
22.2938495909
 30
0.0
 10
22.0814519375
 20
22.3052732792
 30
0.0
 10
21.9904278304
 20
22.337758059
 30
0.0
 10
21.9255209841
 20
22.3623019807
 30
0.0
 10
21.8819065018
 20
22.4716197128
 30
0.0
 10
21.9229455711
 20
22.5135270152
 30
0.0
 10
22.0621928384
 20
22.5742606656
 30
0.0
 10
22.197203777
 20
22.5692799308
 30
0.0
 10
22.2861707104
 20
22.5493113152
 30
0.0
  0
SPLINE
  5
2CB
100
AcDbEntity
  8
INTF_1
100
AcDbSpline
 62
7
  6
CONTINUOUS
 70
0
 71
1
 72
7
 73
5
 74
0
 42
0.0000001
 43
0.0000001
 44
0.0000000001
 40
0.0
 40
0.0
 40
3.4446958333
 40
4.0226375
 40
7.4673333333
 40
8.045275
 40
8.045275
 10
21.6899105534
 20
21.9415447763
 30
0.0
 10
26.2816900993
 20
21.9415447763
 30
0.0
 10
26.2816900993
 20
22.7119410179
 30
0.0
 10
21.6899105534
 20
22.7119410179
 30
0.0
 10
21.6899105534
 20
21.9415447763
 30
0.0
  0
DIMENSION
  5
2CC
100
AcDbEntity
  8
0
100
AcDbDimension
 62
2
  6
CONTINUOUS
  2
*D0
 10
29.9605118063
 20
17.201050082
 11
18.6079062866
 21
17.0838923788
 70
160
  1
<>"\P(47.1 cm)
  3
DIMSTYLE_1
100
AcDbAlignedDimension
 13
11.4001530609
 23
17.013550082
 14
29.9605118063
 24
17.013550082
100
AcDbRotatedDimension
  0
DIMENSION
  5
2CD
100
AcDbEntity
  8
0
100
AcDbDimension
 62
2
  6
CONTINUOUS
  2
*D1
 10
10.6402742639
 20
24.9823266789
 11
10.6402742639
 21
26.0796694613
 70
160
  1
<>"\P(6.4 cm)
  3
DIMSTYLE_2
100
AcDbAlignedDimension
 13
10.8277742639
 23
27.4817016783
 14
20.6803324336
 24
24.9823266789
 50
270.0
100
AcDbRotatedDimension
  0
DIMENSION
  5
2CE
100
AcDbEntity
  8
0
100
AcDbDimension
 62
2
  6
CONTINUOUS
  2
*D2
 10
10.6402742639
 20
27.4817016783
 11
10.6402742639
 21
28.4324907407
 70
160
  1
<>" (5.1 cm) MINIMUM\P2 po (5,1 cm) MINIMUM\P2" (5,1 cm) MINIMO
  3
DIMSTYLE_2
100
AcDbAlignedDimension
 13
10.8277742639
 23
29.4812016778
 14
10.0546709227
 24
27.4817016783
 50
270.0
100
AcDbRotatedDimension
  0
DIMENSION
  5
2CF
100
AcDbEntity
  8
0
100
AcDbDimension
 62
2
  6
CONTINUOUS
  2
*D3
 10
20.6779591063
 20
24.9823266789
 11
20.6779591063
 21
20.8592378086
 70
160
  1
<>"\P(40,5 cm)
  3
DIMSTYLE_3
100
AcDbAlignedDimension
 13
20.4904591063
 23
9.086649596
 14
20.4904591063
 24
24.9823266789
 50
90.0
100
AcDbRotatedDimension
  0
MTEXT
  5
2D0
100
AcDbEntity
  8
0
100
AcDbMText
 62
7
  6
CONTINUOUS
  7
TEXTSTYLE_2
 71
1
 72
1
 10
22.92619311
 20
19.4761021363
 30
0.0
 11
1.0
 21
0.0
 31
0.0
  1
TM
 40
0.070482375
 41
0.14096475
  0
MTEXT
  5
2D1
100
AcDbEntity
  8
0
100
AcDbMText
 62
7
  6
CONTINUOUS
  7
TEXTSTYLE_3
 71
1
 72
1
 10
21.6742464882
 20
21.4719175323
 30
0.0
 11
1.0
 21
0.0
 31
0.0
  1
CUT-OUT TEMPLATE\PSELF-RIMMING LAVATORY\PGABARIT\PLAVABO À REBORD INTÉGRÉ\PPLANTILLA DE RECORTE\PLAVABO CON BORDE TERMINADO \P \PSANIBEL  442004-**-AB\P \PSANIBEL  442008-**-AB\P \PSANIBEL  442001-**-AB
 40
0.187453125
 41
4.808172655
  0
MTEXT
  5
2D2
100
AcDbEntity
  8
0
100
AcDbMText
 62
7
  6
CONTINUOUS
  7
TEXTSTYLE_2
 71
1
 72
1
 10
22.9347862398
 20
18.961972259
 30
0.0
 11
1.0
 21
0.0
 31
0.0
  1
TM
 40
0.070482375
 41
0.14096475
  0
MTEXT
  5
2D3
100
AcDbEntity
  8
___NOTE
100
AcDbMText
 62
2
  6
CONTINUOUS
  7
STANDARD
 71
1
 72
1
 10
27.497768424
 20
28.2593744876
 30
0.0
 11
1.0
 21
0.0
 31
0.0
  1
CENTERLINE OF FITTING\PAXE DU ROBINET\PLÍNEA CENTRAL DEL GRIFO
 40
0.156211
 41
2.8742824
  0
MTEXT
  5
2D4
100
AcDbEntity
  8
___NOTE
100
AcDbMText
 62
2
  6
CONTINUOUS
  7
STANDARD
 71
1
 72
1
 10
27.5010956784
 20
30.2725370915
 30
0.0
 11
1.0
 21
0.0
 31
0.0
  1
FINISHED WALL / BACKSPLASH\PMUR FINI / DOSSERET\PPARED ACABADA / PARED POSTERIOR
 40
0.156211
 41
3.8740328
  0
MTEXT
  5
2D5
100
AcDbEntity
  8
___NOTE
100
AcDbMText
 62
2
  6
CONTINUOUS
  7
STANDARD
 71
1
 72
1
 10
25.1685483179
 20
26.7825946435
 30
0.0
 11
1.0
 21
0.0
 31
0.0
  1
NOTES: BEFORE CUTTING COUNTERTOP ALLOW FOR HANDLE CLEARANCE\P \PREMARQUE : AVANT DE COUPER L'OUVERTURE, PRÉVOIR LE DÉGAGEMENT\PPOUR LES POIGNÉES\P \PNOTA: ANTES DE CORTAR EL MOSTRADOR, DEJE ESPACIO LIBRE PARA LAS LLAVES
 40
0.1562109375
 41
8.7478124978
  0
MTEXT
  5
2D6
100
AcDbEntity
  8
___NOTE
100
AcDbMText
 62
7
  6
CONTINUOUS
  7
TEXTSTYLE_2
 71
1
 72
1
 10
22.9234646234
 20
18.4086216241
 30
0.0
 11
1.0
 21
0.0
 31
0.0
  1
TM
 40
0.070482375
 41
0.14096475
  0
LEADER
  5
2D7
100
AcDbEntity
  8
___NOTE
100
AcDbLeader
 62
2
  6
CONTINUOUS
  3
STANDARD
 71
1
 72
0
 73
0
 75
0
 40
0.15625
 41
2.5
 76
3
 10
11.7572491599
 20
15.1349054165
 30
0.0
 10
12.8510625239
 20
15.8102317557
 30
0.0
 10
13.1010625239
 20
15.8102317557
 30
0.0
340
2D8
1001
ACAD
1000
DSTYLE
1002
{
1070
77
1070
0
1002
}
  0
MTEXT
  5
2D8
102
{ACAD_REACTORS
330
2D7
102
}
100
AcDbEntity
  8
___NOTE
100
AcDbMText
 62
2
  6
CONTINUOUS
  7
STANDARD
 71
1
 72
1
 10
13.1010625239
 20
15.8883567557
 30
0.0
 11
1.0
 21
0.0
 31
0.0
  1
CUT ALONG THIS LINE \PDÉCOUPER AU LONG DE CETTE LIGNE \PCORTE A LO LARGO DE ESTA LÍNEA 
 40
0.15625
 41
4.0
  0
LEADER
  5
2D9
100
AcDbEntity
  8
___NOTE
100
AcDbLeader
 62
2
  6
CONTINUOUS
  3
STANDARD
 71
1
 72
0
 73
0
 75
0
 40
0.15625
 41
1.875
 76
3
 10
11.9057728114
 20
12.9381651198
 30
0.0
 10
13.1137540612
 20
14.0940116516
 30
0.0
 10
13.3637540612
 20
14.0940116516
 30
0.0
340
2DA
1001
ACAD
1000
DSTYLE
1002
{
1070
77
1070
0
1002
}
  0
MTEXT
  5
2DA
102
{ACAD_REACTORS
330
2D9
102
}
100
AcDbEntity
  8
___NOTE
100
AcDbMText
 62
2
  6
CONTINUOUS
  7
STANDARD
 71
1
 72
1
 10
13.3637540612
 20
14.1721366516
 30
0.0
 11
1.0
 21
0.0
 31
0.0
  1
RIM OF LAVATORY\PREBORD DE LAVABO\PBORDE DEL LAVABO
 40
0.15625
 41
2.0
  0
INSERT
  5
2DB
100
AcDbEntity
  8
___SYMBOL
100
AcDbBlockReference
 62
2
  6
CONTINUOUS
  2
COPYRIGHT_YEAR_BL0
 10
22.4179837722
 20
10.1882707087
  0
INSERT
  5
2DC
100
AcDbEntity
  8
___SYMBOL
100
AcDbBlockReference
 62
2
  6
CONTINUOUS
  2
TEMPLATE_NUMBER_BL1
 10
18.0620359923
 20
10.0929439527
  0
INSERT
  5
2DD
100
AcDbEntity
  8
___SYMBOL
100
AcDbBlockReference
 62
2
  6
CONTINUOUS
  2
TEMPLATE_NUMBER_BL2
 10
18.0692946076
 20
8.4411214643
  0
INSERT
  5
2DE
100
AcDbEntity
  8
___SYMBOL
100
AcDbBlockReference
 62
2
  6
CONTINUOUS
  2
PLOTTING_TEMPLATE_NOTE_BL3
 10
16.2227356973
 20
19.5438935979
  0
INSERT
  5
2DF
100
AcDbEntity
  8
___SYMBOL
100
AcDbBlockReference
 62
2
  6
CONTINUOUS
  2
PACKAGING_UPC_NOTE_BL4
 10
24.8770764883
 20
14.2389417279
  0
LINE
  5
2E0
100
AcDbEntity
  8
INTF_1
100
AcDbLine
 62
7
  6
CONTINUOUS
 10
22.3585988951
 20
22.4757889596
 11
22.3924163645
 21
22.5583423902
  0
LINE
  5
2E1
100
AcDbEntity
  8
INTF_1
100
AcDbLine
 62
7
  6
CONTINUOUS
 10
25.5966040062
 20
21.7427555971
 11
25.5535906882
 21
21.7232104846
  0
LINE
  5
2E2
100
AcDbEntity
  8
DEFAULT_1
100
AcDbLine
 62
2
  6
CENTER
 10
20.6803324336
 20
9.086649596
 11
20.6803324336
 21
7.8461158376
  0
LINE
  5
2E3
100
AcDbEntity
  8
DEFAULT_1
100
AcDbLine
 62
2
  6
CENTER
 10
20.6803324336
 20
24.9823266789
 11
20.6803324336
 21
26.5573787869
  0
LINE
  5
2E4
100
AcDbEntity
  8
INTF_1
100
AcDbLine
 62
7
  6
CONTINUOUS
 10
22.8637614618
 20
22.5583423902
 11
22.8328636326
 21
22.4757889596
  0
LINE
  5
2E5
100
AcDbEntity
  8
INTF_1
100
AcDbLine
 62
7
  6
CONTINUOUS
 10
23.3737524507
 20
22.1879924082
 11
23.3302892451
 21
22.0971225388
  0
LINE
  5
2E6
100
AcDbEntity
  8
INTF_1
100
AcDbLine
 62
7
  6
CONTINUOUS
 10
24.4478209034
 20
22.1893476249
 11
24.3976130882
 21
22.0971225388
  0
LINE
  5
2E7
100
AcDbEntity
  8
INTF_1
100
AcDbLine
 62
7
  6
CONTINUOUS
 10
25.5988460382
 20
21.7454493679
 11
25.5966040062
 21
21.7427555971
  0
LINE
  5
2E8
100
AcDbEntity
  8
DEFAULT_1
100
AcDbLine
 62
2
  6
CENTER
 10
31.452789623
 20
17.2017473122
 11
29.9605118063
 21
17.2017473122
  0
LINE
  5
2E9
100
AcDbEntity
  8
DEFAULT_1
100
AcDbLine
 62
2
  6
CENTER
 10
11.4001530609
 20
17.2017473122
 11
9.8552581968
 21
17.2017473122
  0
LINE
  5
2EA
100
AcDbEntity
  8
INTF_1
100
AcDbLine
 62
7
  6
CONTINUOUS
 10
22.2861707104
 20
22.5493113152
 11
22.2861707104
 21
22.4709623888
  0
LINE
  5
2EB
100
AcDbEntity
  8
INTF_1
100
AcDbLine
 62
7
  6
CONTINUOUS
 10
22.5189495382
 20
22.0971225388
 11
22.5189495382
 21
22.0992201624
  0
LINE
  5
2EC
100
AcDbEntity
  8
INTF_1
100
AcDbLine
 62
7
  6
CONTINUOUS
 10
22.7101906048
 20
22.0992201624
 11
22.7101906048
 21
22.0971225388
  0
LINE
  5
2ED
100
AcDbEntity
  8
INTF_1
100
AcDbLine
 62
7
  6
CONTINUOUS
 10
22.9275121868
 20
22.0971225388
 11
22.9275121868
 21
22.0992201624
  0
LINE
  5
2EE
100
AcDbEntity
  8
INTF_1
100
AcDbLine
 62
7
  6
CONTINUOUS
 10
22.9275121868
 20
22.5513996818
 11
22.9275121868
 21
22.5534880485
  0
LINE
  5
2EF
100
AcDbEntity
  8
INTF_1
100
AcDbLine
 62
7
  6
CONTINUOUS
 10
23.0695026062
 20
22.4987054513
 11
23.0695026062
 21
22.3697043763
  0
LINE
  5
2F0
100
AcDbEntity
  8
INTF_1
100
AcDbLine
 62
7
  6
CONTINUOUS
 10
23.0695026062
 20
22.3197502013
 11
23.0695026062
 21
22.1553764902
  0
LINE
  5
2F1
100
AcDbEntity
  8
INTF_1
100
AcDbLine
 62
7
  6
CONTINUOUS
 10
23.2298458437
 20
22.3738533388
 11
23.2298458437
 21
22.3003494971
  0
LINE
  5
2F2
100
AcDbEntity
  8
INTF_1
100
AcDbLine
 62
7
  6
CONTINUOUS
 10
23.2848987437
 20
22.5569408888
 11
23.2848987437
 21
22.4757889596
  0
LINE
  5
2F3
100
AcDbEntity
  8
INTF_1
100
AcDbLine
 62
7
  6
CONTINUOUS
 10
23.4075532576
 20
22.0971225388
 11
23.4075532576
 21
22.0992201624
  0
LINE
  5
2F4
100
AcDbEntity
  8
INTF_1
100
AcDbLine
 62
7
  6
CONTINUOUS
 10
23.4075532576
 20
22.5513996818
 11
23.4075532576
 21
22.5534880485
  0
LINE
  5
2F5
100
AcDbEntity
  8
INTF_1
100
AcDbLine
 62
7
  6
CONTINUOUS
 10
23.5920404576
 20
22.0992201624
 11
23.5920404576
 21
22.0971225388
  0
LINE
  5
2F6
100
AcDbEntity
  8
INTF_1
100
AcDbLine
 62
7
  6
CONTINUOUS
 10
24.5361321534
 20
21.8270789554
 11
24.5121214909
 21
21.7681751665
  0
LINE
  5
2F7
100
AcDbEntity
  8
INTF_1
100
AcDbLine
 62
7
  6
CONTINUOUS
 10
26.2593604979
 20
21.7720630832
 11
26.3040178493
 21
21.8485587693
  0
LINE
  5
2F8
100
AcDbEntity
  8
INTF_1
100
AcDbLine
 62
7
  6
CONTINUOUS
 10
26.2926651326
 20
21.8485587693
 11
26.2540266465
 21
21.7832177013
  0
LINE
  5
2F9
100
AcDbEntity
  8
INTF_1
100
AcDbLine
 62
7
  6
CONTINUOUS
 10
21.9104313354
 20
22.1068312221
 11
21.882427227
 21
22.1935243582
  0
LINE
  5
2FA
100
AcDbEntity
  8
INTF_1
100
AcDbLine
 62
7
  6
CONTINUOUS
 10
24.0006123632
 20
22.0971225388
 11
24.0006123632
 21
22.0992201624
  0
LINE
  5
2FB
100
AcDbEntity
  8
INTF_1
100
AcDbLine
 62
7
  6
CONTINUOUS
 10
24.0006123632
 20
22.5513996818
 11
24.0006123632
 21
22.5534880485
  0
LINE
  5
2FC
100
AcDbEntity
  8
INTF_1
100
AcDbLine
 62
7
  6
CONTINUOUS
 10
24.1850995632
 20
22.5534880485
 11
24.1850995632
 21
22.5513996818
  0
LINE
  5
2FD
100
AcDbEntity
  8
INTF_1
100
AcDbLine
 62
7
  6
CONTINUOUS
 10
24.4874073007
 20
22.0971225388
 11
24.4874073007
 21
22.0992201624
  0
LINE
  5
2FE
100
AcDbEntity
  8
INTF_1
100
AcDbLine
 62
7
  6
CONTINUOUS
 10
24.4874073007
 20
22.5513996818
 11
24.4874073007
 21
22.5534880485
  0
LINE
  5
2FF
100
AcDbEntity
  8
INTF_1
100
AcDbLine
 62
7
  6
CONTINUOUS
 10
24.6709447382
 20
22.5534880485
 11
24.6709447382
 21
22.5513996818
  0
LINE
  5
300
100
AcDbEntity
  8
INTF_1
100
AcDbLine
 62
7
  6
CONTINUOUS
 10
24.6709447382
 20
22.0992201624
 11
24.6709447382
 21
22.0971225388
  0
LINE
  5
301
100
AcDbEntity
  8
INTF_1
100
AcDbLine
 62
7
  6
CONTINUOUS
 10
24.773313584
 20
22.0971225388
 11
24.773313584
 21
22.0992201624
  0
LINE
  5
302
100
AcDbEntity
  8
INTF_1
100
AcDbLine
 62
7
  6
CONTINUOUS
 10
24.7742818604
 20
22.5513996818
 11
24.7742818604
 21
22.5534880485
  0
LINE
  5
303
100
AcDbEntity
  8
INTF_1
100
AcDbLine
 62
7
  6
CONTINUOUS
 10
24.9152965979
 20
22.5534880485
 11
24.9152965979
 21
22.5527826693
  0
LINE
  5
304
100
AcDbEntity
  8
INTF_1
100
AcDbLine
 62
7
  6
CONTINUOUS
 10
24.9442689826
 20
22.0992201624
 11
24.9442689826
 21
22.0971225388
  0
LINE
  5
305
100
AcDbEntity
  8
INTF_1
100
AcDbLine
 62
7
  6
CONTINUOUS
 10
25.2466118965
 20
22.5513996818
 11
25.2466118965
 21
22.5534880485
  0
LINE
  5
306
100
AcDbEntity
  8
INTF_1
100
AcDbLine
 62
7
  6
CONTINUOUS
 10
26.0714741479
 20
22.3273797749
 11
26.0666457257
 21
22.2975557513
  0
LINE
  5
307
100
AcDbEntity
  8
INTF_1
100
AcDbLine
 62
7
  6
CONTINUOUS
 10
25.7543867729
 20
21.7147311235
 11
25.7762646354
 21
21.8209693721
  0
LINE
  5
308
100
AcDbEntity
  8
INTF_1
100
AcDbLine
 62
7
  6
CONTINUOUS
 10
25.773154302
 20
21.8558624985
 11
25.7437746118
 21
21.7147311235
  0
LINE
  5
309
100
AcDbEntity
  8
INTF_1
100
AcDbLine
 62
7
  6
CONTINUOUS
 10
25.8705873451
 20
21.8558624985
 11
25.8217717743
 21
21.7354148402
  0
LINE
  5
30A
100
AcDbEntity
  8
INTF_1
100
AcDbLine
 62
7
  6
CONTINUOUS
 10
25.8217717743
 20
21.7082938443
 11
25.8674418354
 21
21.8209693721
  0
LINE
  5
30B
100
AcDbEntity
  8
INTF_1
100
AcDbLine
 62
7
  6
CONTINUOUS
 10
26.0122796909
 20
21.8271511596
 11
25.9882523659
 21
21.7681751665
  0
LINE
  5
30C
100
AcDbEntity
  8
INTF_1
100
AcDbLine
 62
7
  6
CONTINUOUS
 10
25.3175941465
 20
21.6840313929
 11
25.3175941465
 21
21.8483773332
  0
LINE
  5
30D
100
AcDbEntity
  8
INTF_1
100
AcDbLine
 62
7
  6
CONTINUOUS
 10
25.3614924284
 20
21.8102831554
 11
25.3614924284
 21
21.7786077429
  0
LINE
  5
30E
100
AcDbEntity
  8
INTF_1
100
AcDbLine
 62
7
  6
CONTINUOUS
 10
25.3615646326
 20
21.7343836165
 11
25.3615646326
 21
21.6840313929
  0
LINE
  5
30F
100
AcDbEntity
  8
INTF_1
100
AcDbLine
 62
7
  6
CONTINUOUS
 10
25.4166175326
 20
22.5534880485
 11
25.4166175326
 21
22.5513996818
  0
LINE
  5
310
100
AcDbEntity
  8
INTF_1
100
AcDbLine
 62
7
  6
CONTINUOUS
 10
25.5988460382
 20
21.7420502179
 11
25.5988460382
 21
21.7454493679
  0
LINE
  5
311
100
AcDbEntity
  8
INTF_1
100
AcDbLine
 62
7
  6
CONTINUOUS
 10
25.5988460382
 20
21.8170092513
 11
25.5988460382
 21
21.831942554
  0
LINE
  5
312
100
AcDbEntity
  8
INTF_1
100
AcDbLine
 62
7
  6
CONTINUOUS
 10
25.9116474479
 20
21.7147311235
 11
25.9116474479
 21
21.8485587693
  0
LINE
  5
313
100
AcDbEntity
  8
INTF_1
100
AcDbLine
 62
7
  6
CONTINUOUS
 10
25.9224762215
 20
21.8382539388
 11
25.9224762215
 21
21.7873407443
  0
LINE
  5
314
100
AcDbEntity
  8
INTF_1
100
AcDbLine
 62
7
  6
CONTINUOUS
 10
25.9224762215
 20
21.7770525763
 11
25.9224762215
 21
21.7147311235
  0
LINE
  5
315
100
AcDbEntity
  8
INTF_1
100
AcDbLine
 62
7
  6
CONTINUOUS
 10
25.9237055437
 20
22.3273797749
 11
25.9237055437
 21
22.3294496277
  0
LINE
  5
316
100
AcDbEntity
  8
INTF_1
100
AcDbLine
 62
7
  6
CONTINUOUS
 10
25.9980684298
 20
22.5527826693
 11
25.9980684298
 21
22.4730229846
  0
LINE
  5
317
100
AcDbEntity
  8
INTF_1
100
AcDbLine
 62
7
  6
CONTINUOUS
 10
26.0666457257
 20
22.2975557513
 11
26.0666457257
 21
22.1380456388
  0
LINE
  5
318
100
AcDbEntity
  8
INTF_1
100
AcDbLine
 62
7
  6
CONTINUOUS
 10
26.0714741479
 20
22.3294496277
 11
26.0714741479
 21
22.3273797749
  0
LINE
  5
319
100
AcDbEntity
  8
INTF_1
100
AcDbLine
 62
7
  6
CONTINUOUS
 10
26.076121134
 20
21.8520486374
 11
26.076121134
 21
21.7147311235
  0
LINE
  5
31A
100
AcDbEntity
  8
INTF_1
100
AcDbLine
 62
7
  6
CONTINUOUS
 10
26.0869147312
 20
21.7147311235
 11
26.0869147312
 21
21.8256700485
  0
LINE
  5
31B
100
AcDbEntity
  8
INTF_1
100
AcDbLine
 62
7
  6
CONTINUOUS
 10
26.1069837868
 20
22.1041726277
 11
26.1069837868
 21
22.1416262249
  0
LINE
  5
31C
100
AcDbEntity
  8
INTF_1
100
AcDbLine
 62
7
  6
CONTINUOUS
 10
26.1129489618
 20
22.1375938999
 11
26.1129489618
 21
22.1249192915
  0
LINE
  5
31D
100
AcDbEntity
  8
INTF_1
100
AcDbLine
 62
7
  6
CONTINUOUS
 10
26.1129489618
 20
22.1203000763
 11
26.1129489618
 21
22.1041726277
  0
LINE
  5
31E
100
AcDbEntity
  8
INTF_1
100
AcDbLine
 62
7
  6
CONTINUOUS
 10
26.1253347534
 20
22.1228309249
 11
26.1253347534
 21
22.1225328513
  0
LINE
  5
31F
100
AcDbEntity
  8
INTF_1
100
AcDbLine
 62
7
  6
CONTINUOUS
 10
26.186426884
 20
21.8485587693
 11
26.186426884
 21
21.735666629
  0
LINE
  5
320
100
AcDbEntity
  8
INTF_1
100
AcDbLine
 62
7
  6
CONTINUOUS
 10
26.1972204812
 20
21.7084937943
 11
26.1972204812
 21
21.8485587693
  0
LINE
  5
321
100
AcDbEntity
  8
INTF_1
100
AcDbLine
 62
7
  6
CONTINUOUS
 10
26.2593604979
 20
21.7147311235
 11
26.2593604979
 21
21.7720630832
  0
LINE
  5
322
100
AcDbEntity
  8
INTF_1
100
AcDbLine
 62
7
  6
CONTINUOUS
 10
26.2487298229
 20
21.7714113943
 11
26.2485317243
 21
21.7147311235
  0
LINE
  5
323
100
AcDbEntity
  8
INTF_1
100
AcDbLine
 62
7
  6
CONTINUOUS
 10
25.5983757854
 20
21.7295922221
 11
25.5988460382
 21
21.7420502179
  0
LINE
  5
324
100
AcDbEntity
  8
INTF_1
100
AcDbLine
 62
7
  6
CONTINUOUS
 10
25.3615646326
 20
21.6840313929
 11
25.3175941465
 21
21.6840313929
  0
LINE
  5
325
100
AcDbEntity
  8
INTF_1
100
AcDbLine
 62
7
  6
CONTINUOUS
 10
25.9224762215
 20
21.7147311235
 11
25.9116474479
 21
21.7147311235
  0
LINE
  5
326
100
AcDbEntity
  8
INTF_1
100
AcDbLine
 62
7
  6
CONTINUOUS
 10
25.7437746118
 20
21.7147311235
 11
25.7543867729
 21
21.7147311235
  0
LINE
  5
327
100
AcDbEntity
  8
INTF_1
100
AcDbLine
 62
7
  6
CONTINUOUS
 10
25.8894085645
 20
21.7147311235
 11
25.899931859
 21
21.7147311235
  0
LINE
  5
328
100
AcDbEntity
  8
INTF_1
100
AcDbLine
 62
7
  6
CONTINUOUS
 10
26.076121134
 20
21.7147311235
 11
26.0869147312
 21
21.7147311235
  0
LINE
  5
329
100
AcDbEntity
  8
INTF_1
100
AcDbLine
 62
7
  6
CONTINUOUS
 10
26.2485317243
 20
21.7147311235
 11
26.2593604979
 21
21.7147311235
  0
LINE
  5
32A
100
AcDbEntity
  8
INTF_1
100
AcDbLine
 62
7
  6
CONTINUOUS
 10
24.5121214909
 20
21.7681751665
 11
24.5598262284
 21
21.7681751665
  0
LINE
  5
32B
100
AcDbEntity
  8
INTF_1
100
AcDbLine
 62
7
  6
CONTINUOUS
 10
25.9882523659
 20
21.7681751665
 11
26.035964509
 21
21.7681751665
  0
LINE
  5
32C
100
AcDbEntity
  8
INTF_1
100
AcDbLine
 62
7
  6
CONTINUOUS
 10
25.9360543076
 20
21.7770525763
 11
25.9224762215
 21
21.7770525763
  0
LINE
  5
32D
100
AcDbEntity
  8
INTF_1
100
AcDbLine
 62
7
  6
CONTINUOUS
 10
25.447335777
 20
21.6838314429
 11
25.398248052
 21
21.683922161
  0
LINE
  5
32E
100
AcDbEntity
  8
INTF_1
100
AcDbLine
 62
7
  6
CONTINUOUS
 10
23.6606270104
 20
22.2365284193
 11
23.5717547895
 21
22.3343224832
  0
LINE
  5
32F
100
AcDbEntity
  8
INTF_1
100
AcDbLine
 62
7
  6
CONTINUOUS
 10
24.5598262284
 20
21.7681751665
 11
24.5361321534
 21
21.8270789554
  0
LINE
  5
330
100
AcDbEntity
  8
INTF_1
100
AcDbLine
 62
7
  6
CONTINUOUS
 10
25.899931859
 20
21.7147311235
 11
25.8705873451
 21
21.8558624985
  0
LINE
  5
331
100
AcDbEntity
  8
INTF_1
100
AcDbLine
 62
7
  6
CONTINUOUS
 10
25.8674418354
 20
21.8209693721
 11
25.8894085645
 21
21.7147311235
  0
LINE
  5
332
100
AcDbEntity
  8
INTF_1
100
AcDbLine
 62
7
  6
CONTINUOUS
 10
26.0666457257
 20
22.1380456388
 11
26.0714741479
 21
22.1068312221
  0
LINE
  5
333
100
AcDbEntity
  8
INTF_1
100
AcDbLine
 62
7
  6
CONTINUOUS
 10
22.8164473673
 20
22.5534880485
 11
22.8608695923
 21
22.5583423902
  0
LINE
  5
334
100
AcDbEntity
  8
INTF_1
100
AcDbLine
 62
7
  6
CONTINUOUS
 10
23.1844368284
 20
22.3697043763
 11
23.2269428659
 21
22.3738533388
  0
LINE
  5
335
100
AcDbEntity
  8
INTF_1
100
AcDbLine
 62
7
  6
CONTINUOUS
 10
23.2366071159
 20
22.5534880485
 11
23.2819976173
 21
22.5569408888
  0
LINE
  5
336
100
AcDbEntity
  8
INTF_1
100
AcDbLine
 62
7
  6
CONTINUOUS
 10
23.1680205632
 20
22.503550536
 11
23.0695026062
 21
22.4987054513
  0
LINE
  5
337
100
AcDbEntity
  8
INTF_1
100
AcDbLine
 62
7
  6
CONTINUOUS
 10
26.3040178493
 20
21.8485587693
 11
26.2926651326
 21
21.8485587693
  0
LINE
  5
338
100
AcDbEntity
  8
INTF_1
100
AcDbLine
 62
7
  6
CONTINUOUS
 10
26.2162583132
 20
21.8485587693
 11
26.2038910354
 21
21.8485587693
  0
LINE
  5
339
100
AcDbEntity
  8
INTF_1
100
AcDbLine
 62
7
  6
CONTINUOUS
 10
26.1972204812
 20
21.8485587693
 11
26.186426884
 21
21.8485587693
  0
LINE
  5
33A
100
AcDbEntity
  8
INTF_1
100
AcDbLine
 62
7
  6
CONTINUOUS
 10
25.9116474479
 20
21.8485587693
 11
25.9360543076
 21
21.8485587693
  0
LINE
  5
33B
100
AcDbEntity
  8
INTF_1
100
AcDbLine
 62
7
  6
CONTINUOUS
 10
24.9442689826
 20
22.0971225388
 11
24.773313584
 21
22.0971225388
  0
LINE
  5
33C
100
AcDbEntity
  8
INTF_1
100
AcDbLine
 62
7
  6
CONTINUOUS
 10
24.6709447382
 20
22.0971225388
 11
24.4874073007
 21
22.0971225388
  0
LINE
  5
33D
100
AcDbEntity
  8
INTF_1
100
AcDbLine
 62
7
  6
CONTINUOUS
 10
24.3976130882
 20
22.0971225388
 11
24.0006123632
 21
22.0971225388
  0
LINE
  5
33E
100
AcDbEntity
  8
INTF_1
100
AcDbLine
 62
7
  6
CONTINUOUS
 10
23.9793769326
 20
22.0971225388
 11
23.8905047118
 21
22.0971225388
  0
LINE
  5
33F
100
AcDbEntity
  8
INTF_1
100
AcDbLine
 62
7
  6
CONTINUOUS
 10
23.5920404576
 20
22.0971225388
 11
23.4075532576
 21
22.0971225388
  0
LINE
  5
340
100
AcDbEntity
  8
INTF_1
100
AcDbLine
 62
7
  6
CONTINUOUS
 10
23.3302892451
 20
22.0971225388
 11
22.9275121868
 21
22.0971225388
  0
LINE
  5
341
100
AcDbEntity
  8
INTF_1
100
AcDbLine
 62
7
  6
CONTINUOUS
 10
22.7101906048
 20
22.0971225388
 11
22.5189495382
 21
22.0971225388
  0
LINE
  5
342
100
AcDbEntity
  8
INTF_1
100
AcDbLine
 62
7
  6
CONTINUOUS
 10
26.1129489618
 20
22.1041726277
 11
26.1069837868
 21
22.1041726277
  0
LINE
  5
343
100
AcDbEntity
  8
INTF_1
100
AcDbLine
 62
7
  6
CONTINUOUS
 10
26.1339770368
 20
22.1041726277
 11
26.1277211937
 21
22.1041726277
  0
LINE
  5
344
100
AcDbEntity
  8
INTF_1
100
AcDbLine
 62
7
  6
CONTINUOUS
 10
23.3708605812
 20
22.1879924082
 11
23.3737524507
 21
22.1879924082
  0
LINE
  5
345
100
AcDbEntity
  8
INTF_1
100
AcDbLine
 62
7
  6
CONTINUOUS
 10
24.4449271826
 20
22.1893476249
 11
24.4478209034
 21
22.1893476249
  0
LINE
  5
346
100
AcDbEntity
  8
INTF_1
100
AcDbLine
 62
7
  6
CONTINUOUS
 10
23.2298458437
 20
22.3003494971
 11
23.2269428659
 21
22.3003494971
  0
LINE
  5
347
100
AcDbEntity
  8
INTF_1
100
AcDbLine
 62
7
  6
CONTINUOUS
 10
25.9237055437
 20
22.3294496277
 11
26.0714741479
 21
22.3294496277
  0
LINE
  5
348
100
AcDbEntity
  8
INTF_1
100
AcDbLine
 62
7
  6
CONTINUOUS
 10
23.0695026062
 20
22.3697043763
 11
23.1844368284
 21
22.3697043763
  0
LINE
  5
349
100
AcDbEntity
  8
INTF_1
100
AcDbLine
 62
7
  6
CONTINUOUS
 10
23.2269428659
 20
22.3738533388
 11
23.2298458437
 21
22.3738533388
  0
LINE
  5
34A
100
AcDbEntity
  8
INTF_1
100
AcDbLine
 62
7
  6
CONTINUOUS
 10
25.9980684298
 20
22.4730229846
 11
25.9951765604
 21
22.4730229846
  0
LINE
  5
34B
100
AcDbEntity
  8
INTF_1
100
AcDbLine
 62
7
  6
CONTINUOUS
 10
23.2848987437
 20
22.4757889596
 11
23.2819976173
 21
22.4757889596
  0
LINE
  5
34C
100
AcDbEntity
  8
INTF_1
100
AcDbLine
 62
7
  6
CONTINUOUS
 10
22.8328636326
 20
22.4757889596
 11
22.8299606548
 21
22.4757889596
  0
LINE
  5
34D
100
AcDbEntity
  8
INTF_1
100
AcDbLine
 62
7
  6
CONTINUOUS
 10
22.3615000215
 20
22.4757889596
 11
22.3585988951
 21
22.4757889596
  0
LINE
  5
34E
100
AcDbEntity
  8
INTF_1
100
AcDbLine
 62
7
  6
CONTINUOUS
 10
22.5614278048
 20
22.503550536
 11
22.4764342437
 21
22.503550536
  0
LINE
  5
34F
100
AcDbEntity
  8
INTF_1
100
AcDbLine
 62
7
  6
CONTINUOUS
 10
22.4320212757
 20
22.5534880485
 11
22.8164473673
 21
22.5534880485
  0
LINE
  5
350
100
AcDbEntity
  8
INTF_1
100
AcDbLine
 62
7
  6
CONTINUOUS
 10
22.9275121868
 20
22.5534880485
 11
23.2366071159
 21
22.5534880485
  0
LINE
  5
351
100
AcDbEntity
  8
INTF_1
100
AcDbLine
 62
7
  6
CONTINUOUS
 10
24.0006123632
 20
22.5534880485
 11
24.1850995632
 21
22.5534880485
  0
LINE
  5
352
100
AcDbEntity
  8
INTF_1
100
AcDbLine
 62
7
  6
CONTINUOUS
 10
24.4874073007
 20
22.5534880485
 11
24.6709447382
 21
22.5534880485
  0
LINE
  5
353
100
AcDbEntity
  8
INTF_1
100
AcDbLine
 62
7
  6
CONTINUOUS
 10
24.7742818604
 20
22.5534880485
 11
24.9152965979
 21
22.5534880485
  0
LINE
  5
354
100
AcDbEntity
  8
INTF_1
100
AcDbLine
 62
7
  6
CONTINUOUS
 10
25.2466118965
 20
22.5534880485
 11
25.4166175326
 21
22.5534880485
  0
LINE
  5
355
100
AcDbEntity
  8
INTF_1
100
AcDbLine
 62
7
  6
CONTINUOUS
 10
23.2819976173
 20
22.5569408888
 11
23.2848987437
 21
22.5569408888
  0
LINE
  5
356
100
AcDbEntity
  8
INTF_1
100
AcDbLine
 62
7
  6
CONTINUOUS
 10
22.3924163645
 20
22.5583423902
 11
22.3953008284
 21
22.5583423902
  0
LINE
  5
357
100
AcDbEntity
  8
INTF_1
100
AcDbLine
 62
7
  6
CONTINUOUS
 10
22.8608695923
 20
22.5583423902
 11
22.8637614618
 21
22.5583423902
  0
LINE
  5
358
100
AcDbEntity
  8
INTF_1
100
AcDbLine
 62
7
  6
CONTINUOUS
 10
22.3953008284
 20
22.5583423902
 11
22.4320212757
 21
22.5534880485
  0
LINE
  5
359
100
AcDbEntity
  8
INTF_1
100
AcDbLine
 62
7
  6
CONTINUOUS
 10
25.5535906882
 20
21.8399701763
 11
25.5988460382
 21
21.8170092513
  0
LINE
  5
35A
100
AcDbEntity
  8
INTF_1
100
AcDbLine
 62
7
  6
CONTINUOUS
 10
23.7784549534
 20
22.1317990527
 11
23.6606270104
 21
22.2365284193
  0
LINE
  5
35B
100
AcDbEntity
  8
INTF_1
100
AcDbLine
 62
7
  6
CONTINUOUS
 10
24.9433118145
 20
22.5215756582
 11
25.2968382257
 21
22.2011539318
  0
LINE
  5
35C
100
AcDbEntity
  8
INTF_1
100
AcDbLine
 62
7
  6
CONTINUOUS
 10
25.2253486951
 20
22.1539935027
 11
24.8940611673
 21
22.4556847277
  0
LINE
  5
35D
100
AcDbEntity
  8
INTF_1
100
AcDbLine
 62
7
  6
CONTINUOUS
 10
24.9298059326
 20
22.5354444124
 11
24.9433118145
 21
22.5215756582
  0
LINE
  5
35E
100
AcDbEntity
  8
INTF_1
100
AcDbLine
 62
7
  6
CONTINUOUS
 10
26.186426884
 20
21.735666629
 11
26.076121134
 21
21.8520486374
  0
LINE
  5
35F
100
AcDbEntity
  8
INTF_1
100
AcDbLine
 62
7
  6
CONTINUOUS
 10
26.0869147312
 20
21.8256700485
 11
26.1972204812
 21
21.7084937943
  0
LINE
  5
360
100
AcDbEntity
  8
INTF_1
100
AcDbLine
 62
7
  6
CONTINUOUS
 10
24.9152965979
 20
22.5527826693
 11
24.9298059326
 21
22.5354444124
  0
LINE
  5
361
100
AcDbEntity
  8
INTF_1
100
AcDbLine
 62
7
  6
CONTINUOUS
 10
25.398248052
 20
21.683922161
 11
25.3615646326
 21
21.7343836165
  0
LINE
  5
362
100
AcDbEntity
  8
INTF_1
100
AcDbLine
 62
7
  6
CONTINUOUS
 10
25.4005271118
 20
21.7496612777
 11
25.447335777
 21
21.6838314429
  0
LINE
  5
363
100
AcDbEntity
  8
INTF_1
100
AcDbLine
 62
7
  6
CONTINUOUS
 10
26.2038910354
 20
21.8485587693
 11
26.2487298229
 21
21.7714113943
  0
LINE
  5
364
100
AcDbEntity
  8
INTF_1
100
AcDbLine
 62
7
  6
CONTINUOUS
 10
26.2540266465
 20
21.7832177013
 11
26.2162583132
 21
21.8485587693
  0
LINE
  5
365
100
AcDbEntity
  8
INTF_1
100
AcDbLine
 62
7
  6
CONTINUOUS
 10
26.1253347534
 20
22.1225328513
 11
26.1339770368
 21
22.1041726277
  0
LINE
  5
366
100
AcDbEntity
  8
INTF_1
100
AcDbLine
 62
7
  6
CONTINUOUS
 10
25.7762646354
 20
21.8209693721
 11
25.8217717743
 21
21.7082938443
  0
LINE
  5
367
100
AcDbEntity
  8
INTF_1
100
AcDbLine
 62
7
  6
CONTINUOUS
 10
25.8217717743
 20
21.7354148402
 11
25.773154302
 21
21.8558624985
  0
LINE
  5
368
100
AcDbEntity
  8
INTF_1
100
AcDbLine
 62
7
  6
CONTINUOUS
 10
26.035964509
 20
21.7681751665
 11
26.0122796909
 21
21.8271511596
  0
LINE
  5
369
100
AcDbEntity
  8
INTF_1
100
AcDbLine
 62
7
  6
CONTINUOUS
 10
26.1277211937
 20
22.1041726277
 11
26.1251903451
 21
22.1137202402
  0
LINE
  5
36A
100
AcDbEntity
  8
INTF_1
100
AcDbLine
 62
7
  6
CONTINUOUS
 10
26.1251903451
 20
22.1137202402
 11
26.1129489618
 21
22.1203000763
  0
LINE
  5
36B
100
AcDbEntity
  8
DEFAULT_1
100
AcDbLine
 62
2
  6
CENTER
 10
31.5967176289
 20
27.4817016783
 11
10.0546709227
 21
27.4817016783
  0
LINE
  5
36C
100
AcDbEntity
  8
DEFAULT_1
100
AcDbLine
 62
2
  6
CENTER
 10
31.5967176289
 20
29.4812016778
 11
10.0546709227
 21
29.4812016778
  0
ARC
  5
36D
100
AcDbEntity
  8
DEFAULT_2
100
AcDbCircle
 62
8
  6
HIDDEN
 10
20.6803324336
 20
13.8275910631
 40
11.996999997
100
AcDbArc
 50
65.801352
 51
114.198157
  0
ARC
  5
36E
100
AcDbEntity
  8
0
100
AcDbCircle
 62
7
  6
CONTINUOUS
 10
20.6802764476
 20
13.8276160568
 40
11.1547106222
100
AcDbArc
 50
65.801231
 51
89.9997124299
  0
ARC
  5
36F
100
AcDbEntity
  8
0
100
AcDbCircle
 62
7
  6
CONTINUOUS
 10
20.6803884196
 20
13.8276160568
 40
11.1547106222
100
AcDbArc
 50
90.0002941612
 51
114.198769
  0
ARC
  5
370
100
AcDbEntity
  8
0
100
AcDbCircle
 62
7
  6
CONTINUOUS
 10
19.4061460601
 20
9.6555913249
 40
0.4948762499
100
AcDbArc
 50
205.1622230837
 51
263.346534
  0
ARC
  5
371
100
AcDbEntity
  8
0
100
AcDbCircle
 62
7
  6
CONTINUOUS
 10
18.7320094864
 20
9.3389094574
 40
0.2499374999
100
AcDbArc
 50
25.1622247193
 51
80.1635783405
  0
ARC
  5
372
100
AcDbEntity
  8
DEFAULT_2
100
AcDbCircle
 62
8
  6
HIDDEN
 10
20.6803324336
 20
20.5759035614
 40
11.996999997
100
AcDbArc
 50
245.801794
 51
294.198808
  0
ARC
  5
373
100
AcDbEntity
  8
0
100
AcDbCircle
 62
7
  6
CONTINUOUS
 10
20.6803324336
 20
20.5787758431
 40
11.4921262471
100
AcDbArc
 50
263.346534
 51
276.653466
  0
ARC
  5
374
100
AcDbEntity
  8
0
100
AcDbCircle
 62
7
  6
CONTINUOUS
 10
20.6803324336
 20
20.5759035614
 40
11.1547106222
100
AcDbArc
 50
279.8364218128
 51
294.198444
  0
ARC
  5
375
100
AcDbEntity
  8
0
100
AcDbCircle
 62
7
  6
CONTINUOUS
 10
20.6803324336
 20
20.5759035614
 40
11.1547106222
100
AcDbArc
 50
245.801556
 51
260.1635781872
  0
ARC
  5
376
100
AcDbEntity
  8
DEFAULT_2
100
AcDbCircle
 62
8
  6
HIDDEN
 10
19.4509448576
 20
16.5633009639
 40
8.9977499978
100
AcDbArc
 50
114.198798
 51
161.379215
  0
ARC
  5
377
100
AcDbEntity
  8
DEFAULT_2
100
AcDbCircle
 62
8
  6
HIDDEN
 10
19.4509448576
 20
17.8401936606
 40
8.9977499978
100
AcDbArc
 50
198.620785
 51
245.801202
  0
ARC
  5
378
100
AcDbEntity
  8
0
100
AcDbCircle
 62
7
  6
CONTINUOUS
 10
19.4509448576
 20
16.5633009639
 40
8.155460623
100
AcDbArc
 50
114.198441
 51
161.379383
  0
ARC
  5
379
100
AcDbEntity
  8
0
100
AcDbCircle
 62
7
  6
CONTINUOUS
 10
19.4509448576
 20
17.8401936606
 40
8.155460623
100
AcDbArc
 50
198.620785
 51
245.801559
  0
ARC
  5
37A
100
AcDbEntity
  8
DEFAULT_2
100
AcDbCircle
 62
8
  6
HIDDEN
 10
17.5561136844
 20
17.2017473122
 40
6.9982499983
100
AcDbArc
 50
161.379215
 51
198.620785
  0
ARC
  5
37B
100
AcDbEntity
  8
0
100
AcDbCircle
 62
7
  6
CONTINUOUS
 10
17.5561136844
 20
17.2017473122
 40
6.1559606235
100
AcDbArc
 50
161.3792182573
 51
198.620785
  0
ARC
  5
37C
100
AcDbEntity
  8
0
100
AcDbCircle
 62
7
  6
CONTINUOUS
 10
21.954518807
 20
9.6555913249
 40
0.4948762499
100
AcDbArc
 50
276.653466
 51
334.8377745966
  0
ARC
  5
37D
100
AcDbEntity
  8
0
100
AcDbCircle
 62
7
  6
CONTINUOUS
 10
22.6286554103
 20
9.338909463
 40
0.2499374999
100
AcDbArc
 50
99.8364218007
 51
154.8377839149
  0
ARC
  5
37E
100
AcDbEntity
  8
DEFAULT_2
100
AcDbCircle
 62
8
  6
HIDDEN
 10
21.9097200095
 20
16.5633009639
 40
8.9977499978
100
AcDbArc
 50
18.620785
 51
65.801202
  0
ARC
  5
37F
100
AcDbEntity
  8
DEFAULT_2
100
AcDbCircle
 62
8
  6
HIDDEN
 10
21.9097200095
 20
17.8401936606
 40
8.9977499978
100
AcDbArc
 50
294.198798
 51
341.379215
  0
ARC
  5
380
100
AcDbEntity
  8
0
100
AcDbCircle
 62
7
  6
CONTINUOUS
 10
21.9097200095
 20
16.5633009639
 40
8.155460623
100
AcDbArc
 50
18.620617
 51
65.801559
  0
ARC
  5
381
100
AcDbEntity
  8
0
100
AcDbCircle
 62
7
  6
CONTINUOUS
 10
21.9097200095
 20
17.8401936606
 40
8.155460623
100
AcDbArc
 50
294.198441
 51
341.379215
  0
ARC
  5
382
100
AcDbEntity
  8
DEFAULT_2
100
AcDbCircle
 62
8
  6
HIDDEN
 10
23.8045511828
 20
17.2017473122
 40
6.9982499983
100
AcDbArc
 50
341.379215
 51
18.620785
  0
ARC
  5
383
100
AcDbEntity
  8
0
100
AcDbCircle
 62
7
  6
CONTINUOUS
 10
23.8045511828
 20
17.2017473122
 40
6.1559606235
100
AcDbArc
 50
341.379215
 51
18.6207817427
  0
ARC
  5
384
100
AcDbEntity
  8
INTF_1
100
AcDbCircle
 62
7
  6
CONTINUOUS
 10
25.8419435065
 20
22.2158848571
 40
0.2993332347
100
AcDbArc
 50
59.208555199
 51
93.5831215674
  0
ARC
  5
385
100
AcDbEntity
  8
INTF_1
100
AcDbCircle
 62
7
  6
CONTINUOUS
 10
25.4227813148
 20
22.3408722449
 40
0.2718516206
100
AcDbArc
 50
223.4269507726
 51
258.0242403069
  0
ARC
  5
386
100
AcDbEntity
  8
INTF_1
100
AcDbCircle
 62
7
  6
CONTINUOUS
 10
22.4670096982
 20
22.2907712834
 40
0.2129878691
100
AcDbArc
 50
87.4638787987
 51
119.6947324667
  0
CIRCLE
  5
387
100
AcDbEntity
  8
0
100
AcDbCircle
 62
2
  6
CONTINUOUS
 10
25.2325195818
 20
19.4254376194
 40
0.1943281367
  0
CIRCLE
  5
388
100
AcDbEntity
  8
0
100
AcDbCircle
 62
2
  6
CONTINUOUS
 10
25.2325195818
 20
18.8350071166
 40
0.1943281367
  0
CIRCLE
  5
389
100
AcDbEntity
  8
0
100
AcDbCircle
 62
2
  6
CONTINUOUS
 10
25.240285244
 20
18.2801225315
 40
0.1943281367
  0
ARC
  5
38A
100
AcDbEntity
  8
INTF_1
100
AcDbCircle
 62
7
  6
CONTINUOUS
 10
23.1871505292
 20
22.3342388313
 40
0.1703889931
100
AcDbArc
 50
56.1755396367
 51
96.4463209909
  0
ARC
  5
38B
100
AcDbEntity
  8
INTF_1
100
AcDbCircle
 62
7
  6
CONTINUOUS
 10
23.8760345075
 20
22.2487358643
 40
0.1523022892
100
AcDbArc
 50
230.1562195028
 51
275.4518816802
  0
ARC
  5
38C
100
AcDbEntity
  8
INTF_1
100
AcDbCircle
 62
7
  6
CONTINUOUS
 10
25.5533905719
 20
21.7821664359
 40
0.0691933334
100
AcDbArc
 50
180.5675053294
 51
310.5520051654
  0
CIRCLE
  5
38D
100
AcDbEntity
  8
INTF_1
100
AcDbCircle
 62
7
  6
CONTINUOUS
 10
25.6765314015
 20
21.7815912561
 40
0.0686169779
  0
ARC
  5
38E
100
AcDbEntity
  8
INTF_1
100
AcDbCircle
 62
7
  6
CONTINUOUS
 10
25.5526241098
 20
21.7814915315
 40
0.068423478
100
AcDbArc
 50
47.5048873671
 51
180.0087362707
  0
CIRCLE
  5
38F
100
AcDbEntity
  8
INTF_1
100
AcDbCircle
 62
7
  6
CONTINUOUS
 10
25.6759562945
 20
21.7815903304
 40
0.0583799814
  0
CIRCLE
  5
390
100
AcDbEntity
  8
INTF_1
100
AcDbCircle
 62
7
  6
CONTINUOUS
 10
24.8689578373
 20
21.7675151464
 40
0.0423890604
  0
ARC
  5
391
100
AcDbEntity
  8
INTF_1
100
AcDbCircle
 62
7
  6
CONTINUOUS
 10
25.9420509727
 20
21.8128056728
 40
0.036252502
100
AcDbArc
 50
260.4787245939
 51
99.5212754061
  0
CIRCLE
  5
392
100
AcDbEntity
  8
INTF_1
100
AcDbCircle
 62
7
  6
CONTINUOUS
 10
26.1192955229
 20
22.1251041448
 40
0.0269640101
  0
ENDSEC
  0
SECTION
  2
OBJECTS
  0
DICTIONARY
  5
393
100
AcDbDictionary
  3
ACAD_GROUP
350
394
  3
ACAD_MLINESTYLE
350
395
  0
DICTIONARY
  5
394
102
{ACAD_REACTORS
330
393
102
}
100
AcDbDictionary
  0
DICTIONARY
  5
395
102
{ACAD_REACTORS
330
393
102
}
100
AcDbDictionary
  3
STANDARD
350
396
  0
MLINESTYLE
  5
396
102
{ACAD_REACTORS
330
395
102
}
100
AcDbMlineStyle
  2
STANDARD
 70
0
  3

 62
256
 51
90.0
 52
90.0
 71
2
 49
0.5
 62
256
  6
BYLAYER
 49
-0.5
 62
256
  6
BYLAYER
  0
ENDSEC
  0
EOF
