999
DXF file: 1003766_7_e.dxf
999
Pro/ENGINEER 2007160 by Parametric Technology Corporation
  0
SECTION
  2
HEADER
  9
$ACADVER
  1
AC1014
  9
$DWGCODEPAGE
  3
ANSI_1252
  9
$EXTMAX
 10
44.0
 20
34.0
 30
0.0
  9
$EXTMIN
 10
0.0
 20
0.0
 30
0.0
  9
$LIMMIN
 10
0.0
 20
0.0
  9
$LIMMAX
 10
44.0
 20
34.0
  9
$VIEWCTR
 10
22.0
 20
17.0
  9
$VIEWSIZE
 40
34.0
  9
$CLAYER
  8
0
  9
$LTSCALE
 40
2.42
  9
$CELTYPE
  6
BYLAYER
  9
$DIMSCALE
 40
1.0
  9
$DIMASZ
 40
0.1875
  9
$DIMEXO
 40
0.275
  9
$DIMDLI
 40
1.672
  9
$DIMEXE
 40
0.792
  9
$DIMCEN
 40
0.396
  9
$DIMLFAC
 40
1.0
  9
$DIMBLK
  1
_ARROW_FILLED
  9
$DIMTXT
 40
0.15625
  9
$DIMTOL
 70
1
  9
$DIMLIM
 70
0
  9
$DIMTFAC
 40
1.0
  9
$DIMTP
 40
0.01
  9
$DIMTM
 40
0.01
  9
$PDMODE
 70
3
  9
$PDSIZE
 40
0.3125
  9
$HANDSEED
  5
3BC
  9
$MEASUREMENT
 70
0
  0
ENDSEC
  0
SECTION
  2
CLASSES
  0
ENDSEC
  0
SECTION
  2
TABLES
  0
TABLE
  2
VPORT
  5
8
100
AcDbSymbolTable
 70
2
  0
VPORT
  5
1F4
100
AcDbSymbolTableRecord
100
AcDbViewportTableRecord
  2
*ACTIVE
 70
0
 10
0.0
 20
0.0
 11
1.0
 21
1.0
 12
22.0
 22
17.0
 13
0.0
 23
0.0
 14
1.0
 24
1.0
 15
0.0
 25
0.0
 16
0.0
 26
0.0
 36
1.0
 17
0.0
 27
0.0
 37
0.0
 40
34.0
 41
1.2941176471
 42
50.0
 43
0.0
 44
0.0
 50
0.0
 51
0.0
 71
0
 72
100
 73
1
 74
1
 75
0
 76
0
 77
0
 78
0
  0
ENDTAB
  0
TABLE
  2
LTYPE
  5
5
100
AcDbSymbolTable
 70
6
  0
LTYPE
  5
14
100
AcDbSymbolTableRecord
100
AcDbLinetypeTableRecord
  2
BYBLOCK
 70
0
  3

 72
65
 73
0
 40
0.0
  0
LTYPE
  5
15
100
AcDbSymbolTableRecord
100
AcDbLinetypeTableRecord
  2
BYLAYER
 70
0
  3

 72
65
 73
0
 40
0.0
  0
LTYPE
  5
16
100
AcDbSymbolTableRecord
100
AcDbLinetypeTableRecord
  2
CONTINUOUS
 70
64
  3
Solid line
 72
65
 73
0
 40
0.0
  0
LTYPE
  5
1F5
100
AcDbSymbolTableRecord
100
AcDbLinetypeTableRecord
  2
CENTER
 70
64
  3
____ _ ____ _ ____ _ ____ _ ____ _ ____ _ ____
 72
65
 73
4
 40
0.6
 49
0.375
 74
0
 49
-0.075
 74
0
 49
0.075
 74
0
 49
-0.075
 74
0
  0
LTYPE
  5
1F6
100
AcDbSymbolTableRecord
100
AcDbLinetypeTableRecord
  2
HIDDEN
 70
64
  3
- - - - - - - - - - - - - - - - - - - -
 72
65
 73
2
 40
0.2
 49
0.1
 74
0
 49
-0.1
 74
0
  0
LTYPE
  5
1F7
100
AcDbSymbolTableRecord
100
AcDbLinetypeTableRecord
  2
PHANTOM
 70
64
  3
_____ _ _ _____ _ _ _____ _ _ _____
 72
65
 73
6
 40
0.8
 49
0.45
 74
0
 49
-0.05
 74
0
 49
0.1
 74
0
 49
-0.05
 74
0
 49
0.1
 74
0
 49
-0.05
 74
0
  0
LTYPE
  5
1F8
100
AcDbSymbolTableRecord
100
AcDbLinetypeTableRecord
  2
DOT
 70
64
  3
. . . . . . . . . . . . . . . . . . . .
 72
65
 73
2
 40
0.2
 49
0.1
 74
0
 49
-0.1
 74
0
  0
LTYPE
  5
1F9
100
AcDbSymbolTableRecord
100
AcDbLinetypeTableRecord
  2
DASHED
 70
64
  3
- - - - - - - - - - - - - - - - - - - -
 72
65
 73
2
 40
0.2
 49
0.1
 74
0
 49
-0.1
 74
0
  0
ENDTAB
  0
TABLE
  2
LAYER
  5
2
100
AcDbSymbolTable
 70
36
  0
LAYER
  5
10
100
AcDbSymbolTableRecord
100
AcDbLayerTableRecord
  2
0
 70
0
 62
7
  6
CONTINUOUS
  0
LAYER
  5
1FA
100
AcDbSymbolTableRecord
100
AcDbLayerTableRecord
  2
DEFAULT_1
 70
0
 62
7
  6
CENTER
  0
LAYER
  5
1FB
100
AcDbSymbolTableRecord
100
AcDbLayerTableRecord
  2
DEFAULT_2
 70
0
 62
8
  6
HIDDEN
  0
LAYER
  5
1FC
100
AcDbSymbolTableRecord
100
AcDbLayerTableRecord
  2
DEFAULT_3
 70
0
 62
7
  6
PHANTOM
  0
LAYER
  5
1FD
100
AcDbSymbolTableRecord
100
AcDbLayerTableRecord
  2
_2D_DELETED_OBJS
 70
0
 62
7
  6
CONTINUOUS
  0
LAYER
  5
1FE
100
AcDbSymbolTableRecord
100
AcDbLayerTableRecord
  2
0
 70
0
 62
7
  6
CONTINUOUS
  0
LAYER
  5
1FF
100
AcDbSymbolTableRecord
100
AcDbLayerTableRecord
  2
100
 70
0
 62
7
  6
CONTINUOUS
  0
LAYER
  5
200
100
AcDbSymbolTableRecord
100
AcDbLayerTableRecord
  2
110
 70
0
 62
7
  6
CONTINUOUS
  0
LAYER
  5
201
100
AcDbSymbolTableRecord
100
AcDbLayerTableRecord
  2
120
 70
0
 62
7
  6
CONTINUOUS
  0
LAYER
  5
202
100
AcDbSymbolTableRecord
100
AcDbLayerTableRecord
  2
130
 70
0
 62
7
  6
CONTINUOUS
  0
LAYER
  5
203
100
AcDbSymbolTableRecord
100
AcDbLayerTableRecord
  2
230
 70
0
 62
7
  6
CONTINUOUS
  0
LAYER
  5
204
100
AcDbSymbolTableRecord
100
AcDbLayerTableRecord
  2
255
 70
0
 62
7
  6
CONTINUOUS
  0
LAYER
  5
205
100
AcDbSymbolTableRecord
100
AcDbLayerTableRecord
  2
DEFPOINTS_
 70
0
 62
7
  6
CONTINUOUS
  0
LAYER
  5
206
100
AcDbSymbolTableRecord
100
AcDbLayerTableRecord
  2
INTF_1
 70
0
 62
7
  6
CONTINUOUS
  0
LAYER
  5
207
100
AcDbSymbolTableRecord
100
AcDbLayerTableRecord
  2
SHEET_1
 70
0
 62
7
  6
CONTINUOUS
  0
LAYER
  5
208
100
AcDbSymbolTableRecord
100
AcDbLayerTableRecord
  2
SHEET_2
 70
0
 62
7
  6
CONTINUOUS
  0
LAYER
  5
209
100
AcDbSymbolTableRecord
100
AcDbLayerTableRecord
  2
SHEET_3
 70
0
 62
7
  6
CONTINUOUS
  0
LAYER
  5
20A
100
AcDbSymbolTableRecord
100
AcDbLayerTableRecord
  2
SHEET_4
 70
0
 62
7
  6
CONTINUOUS
  0
LAYER
  5
20B
100
AcDbSymbolTableRecord
100
AcDbLayerTableRecord
  2
___NOTE
 70
0
 62
7
  6
CONTINUOUS
  0
LAYER
  5
20C
100
AcDbSymbolTableRecord
100
AcDbLayerTableRecord
  2
___SYMBOL
 70
0
 62
7
  6
CONTINUOUS
  0
ENDTAB
  0
TABLE
  2
STYLE
  5
3
100
AcDbSymbolTable
 70
1
  0
STYLE
  5
11
100
AcDbSymbolTableRecord
100
AcDbTextStyleTableRecord
  2
STANDARD
 70
0
 40
0.0
 41
0.8
 50
0.0
 71
0
 42
0.2
  3
txt
  4

  0
STYLE
  5
20D
100
AcDbSymbolTableRecord
100
AcDbTextStyleTableRecord
  2
TEXTSTYLE_1
 70
0
 40
0.0
 41
0.95
 50
0.0
 71
0
 42
0.2
  3
txt
  4

  0
ENDTAB
  0
TABLE
  2
VIEW
  5
6
100
AcDbSymbolTable
 70
0
  0
ENDTAB
  0
TABLE
  2
UCS
  5
7
100
AcDbSymbolTable
 70
0
  0
ENDTAB
  0
TABLE
  2
APPID
  5
9
100
AcDbSymbolTable
 70
1
  0
APPID
  5
20E
100
AcDbSymbolTableRecord
100
AcDbRegAppTableRecord
  2
ACAD
 70
0
  0
ENDTAB
  0
TABLE
  2
BLOCK_RECORD
  5
1
100
AcDbSymbolTable
 70
0
  0
BLOCK_RECORD
  5
1F
100
AcDbSymbolTableRecord
100
AcDbBlockTableRecord
  2
*MODEL_SPACE
  0
BLOCK_RECORD
  5
1B
100
AcDbSymbolTableRecord
100
AcDbBlockTableRecord
  2
*PAPER_SPACE
  0
BLOCK_RECORD
  5
20F
100
AcDbSymbolTableRecord
100
AcDbBlockTableRecord
  2
_ARROW_FILLED
  0
BLOCK_RECORD
  5
210
100
AcDbSymbolTableRecord
100
AcDbBlockTableRecord
  2
*D0
  0
BLOCK_RECORD
  5
211
100
AcDbSymbolTableRecord
100
AcDbBlockTableRecord
  2
*D1
  0
BLOCK_RECORD
  5
212
100
AcDbSymbolTableRecord
100
AcDbBlockTableRecord
  2
*D2
  0
BLOCK_RECORD
  5
213
100
AcDbSymbolTableRecord
100
AcDbBlockTableRecord
  2
*D3
  0
BLOCK_RECORD
  5
214
100
AcDbSymbolTableRecord
100
AcDbBlockTableRecord
  2
PLOTTING_TEMPLATE_NOTE_BL0
  0
BLOCK_RECORD
  5
215
100
AcDbSymbolTableRecord
100
AcDbBlockTableRecord
  2
PACKAGING_UPC_NOTE_BL1
  0
BLOCK_RECORD
  5
216
100
AcDbSymbolTableRecord
100
AcDbBlockTableRecord
  2
COPYRIGHT_YEAR_BL2
  0
BLOCK_RECORD
  5
217
100
AcDbSymbolTableRecord
100
AcDbBlockTableRecord
  2
TEMPLATE_NUMBER_BL3
  0
BLOCK_RECORD
  5
218
100
AcDbSymbolTableRecord
100
AcDbBlockTableRecord
  2
TEMPLATE_NUMBER_BL4
  0
ENDTAB
  0
TABLE
  2
DIMSTYLE
  5
A
100
AcDbSymbolTable
 70
1
  0
DIMSTYLE
105
219
100
AcDbSymbolTableRecord
100
AcDbDimStyleTableRecord
  2
STANDARD
 70
0
  3

  4

  5
_ARROW_FILLED
  6
_ARROW_FILLED
  7
_ARROW_FILLED
 40
1.0
 41
0.1875
 42
0.0625
 43
0.38
 44
0.18
 45
0.0
 46
0.0
 47
0.01
 48
0.01
140
0.15625
141
0.09
142
0.0
143
25.4
144
1.0
145
0.0
146
1.0
147
0.09
 71
1.0
 72
0.0
 73
1
 74
1
 75
0
 76
0
 77
0
 78
4
170
0
171
2
172
0
173
0
174
0
175
0
176
0
177
0
178
0
270
2
271
3
272
3
273
2
274
2
275
0
280
0
281
0
282
0
283
1
284
4
285
0
286
0
287
3
288
0
340
11
  0
DIMSTYLE
105
21A
100
AcDbSymbolTableRecord
100
AcDbDimStyleTableRecord
  2
DIMSTYLE_1
 70
0
  3

  4

  5
_ARROW_FILLED
  6
_ARROW_FILLED
  7
_ARROW_FILLED
 40
1.0
 41
0.1875
 42
0.0625
 43
0.38
 44
0.18
 45
0.0
 46
0.0
 47
0.01
 48
0.01
140
0.1562467604
141
0.09
142
0.0
143
25.4
144
1.0
145
0.0
146
1.0
147
0.09
 71
0.0
 72
0.0
 73
1
 74
1
 75
0
 76
0
 77
0
 78
4
170
0
171
2
172
0
173
0
174
0
175
0
176
0
177
0
178
0
270
2
271
3
272
3
273
2
274
2
275
0
280
0
281
0
282
0
283
1
284
4
285
0
286
0
287
3
288
0
340
11
  0
DIMSTYLE
105
21B
100
AcDbSymbolTableRecord
100
AcDbDimStyleTableRecord
  2
DIMSTYLE_2
 70
0
  3

  4

  5
_ARROW_FILLED
  6
_ARROW_FILLED
  7
_ARROW_FILLED
 40
1.0
 41
0.1875
 42
0.0625
 43
0.38
 44
0.18
 45
0.0
 46
0.0
 47
0.0
 48
0.0
140
0.156247
141
0.09
142
0.0
143
25.4
144
1.0
145
0.0
146
1.0
147
0.09
 71
0.0
 72
0.0
 73
1
 74
1
 75
0
 76
0
 77
0
 78
4
170
0
171
2
172
0
173
0
174
0
175
0
176
0
177
0
178
0
270
2
271
0
272
0
273
2
274
2
275
0
280
0
281
0
282
0
283
1
284
4
285
0
286
0
287
3
288
0
340
11
  0
DIMSTYLE
105
21C
100
AcDbSymbolTableRecord
100
AcDbDimStyleTableRecord
  2
DIMSTYLE_3
 70
0
  3

  4

  5
_ARROW_FILLED
  6
_ARROW_FILLED
  7
_ARROW_FILLED
 40
1.0
 41
0.1875
 42
0.0625
 43
0.38
 44
0.18
 45
0.0
 46
0.0
 47
0.0625
 48
0.0625
140
0.156247
141
0.09
142
0.0
143
25.4
144
1.0
145
0.0
146
1.0
147
0.09
 71
0.0
 72
0.0
 73
1
 74
1
 75
0
 76
0
 77
0
 78
4
170
0
171
2
172
0
173
0
174
0
175
0
176
0
177
0
178
0
270
2
271
4
272
4
273
2
274
2
275
0
280
0
281
0
282
0
283
1
284
4
285
0
286
0
287
3
288
0
340
11
  0
DIMSTYLE
105
21D
100
AcDbSymbolTableRecord
100
AcDbDimStyleTableRecord
  2
DIMSTYLE_4
 70
0
  3

  4

  5
_ARROW_FILLED
  6
_ARROW_FILLED
  7
_ARROW_FILLED
 40
1.0
 41
0.1875
 42
0.0625
 43
0.38
 44
0.18
 45
0.0
 46
0.0
 47
0.0625
 48
0.0625
140
0.208328
141
0.09
142
0.0
143
25.4
144
1.0
145
0.0
146
1.0
147
0.09
 71
0.0
 72
0.0
 73
1
 74
1
 75
0
 76
0
 77
0
 78
4
170
0
171
2
172
0
173
0
174
0
175
0
176
0
177
0
178
0
270
2
271
4
272
4
273
2
274
2
275
0
280
0
281
0
282
0
283
1
284
4
285
0
286
0
287
3
288
0
340
11
  0
ENDTAB
  0
ENDSEC
  0
SECTION
  2
BLOCKS
  0
BLOCK
  5
20
100
AcDbEntity
  8
0
100
AcDbBlockBegin
  2
*MODEL_SPACE
 70
0
 10
0.0
 20
0.0
 30
0.0
  3
*MODEL_SPACE
  1

  0
ENDBLK
  5
21
100
AcDbEntity
  8
0
100
AcDbBlockEnd
  0
BLOCK
  5
1C
100
AcDbEntity
  8
0
100
AcDbBlockBegin
  2
*PAPER_SPACE
 70
0
 10
0.0
 20
0.0
 30
0.0
  3
*PAPER_SPACE
  1

  0
ENDBLK
  5
1D
100
AcDbEntity
  8
0
100
AcDbBlockEnd
  0
BLOCK
  5
21E
100
AcDbEntity
  8
0
100
AcDbBlockBegin
 62
2
  6
CONTINUOUS
  2
*D0
 70
65
 10
0.0
 20
0.0
  3
*D0
  1

  0
TEXT
  5
21F
100
AcDbEntity
  8
0
100
AcDbText
 62
2
  6
CONTINUOUS
 10
5.3783489636
 20
25.0436276794
  7
STANDARD
 40
0.1562467604
  1
2-1/2
 41
0.8
 72
0
100
AcDbText
  0
TEXT
  5
220
100
AcDbEntity
  8
0
100
AcDbText
 62
2
  6
CONTINUOUS
 10
6.0033360052
 20
25.0436276794
  7
STANDARD
 40
0.1562467604
  1
"
 41
0.8
 72
0
100
AcDbText
  0
TEXT
  5
221
100
AcDbEntity
  8
0
100
AcDbText
 62
2
  6
CONTINUOUS
 10
5.2533515553
 20
24.8092575388
  7
STANDARD
 40
0.1562467604
  1
(6.4 cm)
 41
0.8
 72
0
100
AcDbText
  0
LINE
  5
222
100
AcDbEntity
  8
0
100
AcDbLine
 62
2
  6
CONTINUOUS
 10
6.3102249762
 20
26.3035465614
 11
5.6283411886
 21
26.3035465614
  0
LINE
  5
223
100
AcDbEntity
  8
0
100
AcDbLine
 62
2
  6
CONTINUOUS
 10
16.9898854949
 20
23.8036090614
 11
5.6283411886
 21
23.8036090614
  0
LINE
  5
224
100
AcDbEntity
  8
0
100
AcDbLine
 62
2
  6
CONTINUOUS
 10
5.7533411886
 20
26.3035465614
 11
5.7533411886
 21
25.27799782
  0
LINE
  5
225
100
AcDbEntity
  8
0
100
AcDbLine
 62
2
  6
CONTINUOUS
 10
5.7533411886
 20
23.8036090614
 11
5.7533411886
 21
24.7311341586
  0
INSERT
  5
226
100
AcDbEntity
  8
0
100
AcDbBlockReference
 62
2
  6
CONTINUOUS
  2
_ARROW_FILLED
 10
5.7533411886
 20
26.3035465614
 41
0.1875
 42
0.1875
 43
0.1875
 50
90.0
  0
INSERT
  5
227
100
AcDbEntity
  8
0
100
AcDbBlockReference
 62
2
  6
CONTINUOUS
  2
_ARROW_FILLED
 10
5.7533411886
 20
23.8036090614
 41
0.1875
 42
0.1875
 43
0.1875
 50
270.0
  0
ENDBLK
  5
228
100
AcDbEntity
  8
0
  6
BYBLOCK
 62
0
100
AcDbBlockEnd
  0
BLOCK
  5
229
100
AcDbEntity
  8
0
100
AcDbBlockBegin
 62
2
  6
CONTINUOUS
  2
*D1
 70
65
 10
0.0
 20
0.0
  3
*D1
  1

  0
TEXT
  5
22A
100
AcDbEntity
  8
0
100
AcDbText
 62
2
  6
CONTINUOUS
 10
4.6691053563
 20
27.5455942783
  7
STANDARD
 40
0.156247
  1
" (5.1 cm) MINIMUM
 41
0.8
 72
0
100
AcDbText
  0
TEXT
  5
22B
100
AcDbEntity
  8
0
100
AcDbText
 62
2
  6
CONTINUOUS
 10
4.4191101563
 20
27.3112237783
  7
STANDARD
 40
0.156247
  1
2 po (5,1 cm) MINIMUM
 41
0.8
 72
0
100
AcDbText
  0
TEXT
  5
22C
100
AcDbEntity
  8
0
100
AcDbText
 62
2
  6
CONTINUOUS
 10
4.6066065563
 20
27.0768532783
  7
STANDARD
 40
0.156247
  1
2" (5,1 cm) MINIMO
 41
0.8
 72
0
100
AcDbText
  0
TEXT
  5
22D
100
AcDbEntity
  8
0
100
AcDbText
 62
2
  6
CONTINUOUS
 10
4.5441077563
 20
27.5455942783
  7
STANDARD
 40
0.156247
  1
2
 41
0.8
 72
0
100
AcDbText
  0
LINE
  5
22E
100
AcDbEntity
  8
0
100
AcDbLine
 62
2
  6
CONTINUOUS
 10
6.3102249762
 20
26.3035465614
 11
5.6065849563
 21
26.3035465614
  0
LINE
  5
22F
100
AcDbEntity
  8
0
100
AcDbLine
 62
2
  6
CONTINUOUS
 10
6.3102249762
 20
28.3034965614
 11
5.6065849563
 21
28.3034965614
  0
LINE
  5
230
100
AcDbEntity
  8
0
100
AcDbLine
 62
2
  6
CONTINUOUS
 10
5.7315849563
 20
26.3035465614
 11
5.7315849563
 21
26.9987297783
  0
LINE
  5
231
100
AcDbEntity
  8
0
100
AcDbLine
 62
2
  6
CONTINUOUS
 10
5.7315849563
 20
28.3034965614
 11
5.7315849563
 21
27.7799647783
  0
INSERT
  5
232
100
AcDbEntity
  8
0
100
AcDbBlockReference
 62
2
  6
CONTINUOUS
  2
_ARROW_FILLED
 10
5.7315849563
 20
26.3035465614
 41
0.1875
 42
0.1875
 43
0.1875
 50
270.0
  0
INSERT
  5
233
100
AcDbEntity
  8
0
100
AcDbBlockReference
 62
2
  6
CONTINUOUS
  2
_ARROW_FILLED
 10
5.7315849563
 20
28.3034965614
 41
0.1875
 42
0.1875
 43
0.1875
 50
90.0
  0
ENDBLK
  5
234
100
AcDbEntity
  8
0
  6
BYBLOCK
 62
0
100
AcDbBlockEnd
  0
BLOCK
  5
235
100
AcDbEntity
  8
0
100
AcDbBlockBegin
 62
2
  6
CONTINUOUS
  2
*D2
 70
65
 10
0.0
 20
0.0
  3
*D2
  1

  0
TEXT
  5
236
100
AcDbEntity
  8
0
100
AcDbText
 62
2
  6
CONTINUOUS
 10
17.8300891541
 20
14.849023871
  7
STANDARD
 40
0.156247
  1
%%c
 41
1.3333333333
 72
0
100
AcDbText
  0
TEXT
  5
237
100
AcDbEntity
  8
0
100
AcDbText
 62
2
  6
CONTINUOUS
 10
18.7884040874
 20
14.849023871
  7
STANDARD
 40
0.156247
  1
"
 41
0.8
 72
0
100
AcDbText
  0
TEXT
  5
238
100
AcDbEntity
  8
0
100
AcDbText
 62
2
  6
CONTINUOUS
 10
17.8717550208
 20
14.614653371
  7
STANDARD
 40
0.156247
  1
(451 cm)
 41
0.8
 72
0
100
AcDbText
  0
TEXT
  5
239
100
AcDbEntity
  8
0
100
AcDbText
 62
2
  6
CONTINUOUS
 10
18.0384184874
 20
14.849023871
  7
STANDARD
 40
0.156247
  1
17-3/4
 41
0.8
 72
0
100
AcDbText
  0
LINE
  5
23A
100
AcDbEntity
  8
0
100
AcDbLine
 62
2
  6
CONTINUOUS
 10
8.1776145953
 20
14.9401555623
 11
17.7519656541
 21
14.9279382392
  0
LINE
  5
23B
100
AcDbEntity
  8
0
100
AcDbLine
 62
2
  6
CONTINUOUS
 10
25.9271563945
 20
14.9175063106
 11
18.9915251874
 21
14.9263565028
  0
INSERT
  5
23C
100
AcDbEntity
  8
0
100
AcDbBlockReference
 62
2
  6
CONTINUOUS
  2
_ARROW_FILLED
 10
8.1776145953
 20
14.9401555623
 41
0.1875
 42
0.1875
 43
0.1875
 50
179.9268879251
  0
INSERT
  5
23D
100
AcDbEntity
  8
0
100
AcDbBlockReference
 62
2
  6
CONTINUOUS
  2
_ARROW_FILLED
 10
25.9271563945
 20
14.9175063106
 41
0.1875
 42
0.1875
 43
0.1875
 50
359.9268879251
  0
ENDBLK
  5
23E
100
AcDbEntity
  8
0
  6
BYBLOCK
 62
0
100
AcDbBlockEnd
  0
BLOCK
  5
23F
100
AcDbEntity
  8
0
100
AcDbBlockBegin
 62
2
  6
CONTINUOUS
  2
*D3
 70
65
 10
0.0
 20
0.0
  3
*D3
  1

  0
TEXT
  5
240
100
AcDbEntity
  8
0
100
AcDbText
 62
2
  6
CONTINUOUS
 10
17.5608899422
 20
18.698829064
  7
STANDARD
 40
0.208328
  1
"
 41
0.8
 72
0
100
AcDbText
  0
TEXT
  5
241
100
AcDbEntity
  8
0
100
AcDbText
 62
2
  6
CONTINUOUS
 10
16.3109219422
 20
18.386337064
  7
STANDARD
 40
0.208328
  1
(45,9 cm)
 41
0.8
 72
0
100
AcDbText
  0
TEXT
  5
242
100
AcDbEntity
  8
0
100
AcDbText
 62
2
  6
CONTINUOUS
 10
16.3942531422
 20
18.698829064
  7
STANDARD
 40
0.208328
  1
18-1/16
 41
0.8
 72
0
100
AcDbText
  0
LINE
  5
243
100
AcDbEntity
  8
0
100
AcDbLine
 62
2
  6
CONTINUOUS
 10
17.1148854949
 20
23.8036090614
 11
17.1859027422
 21
23.8036090614
  0
LINE
  5
244
100
AcDbEntity
  8
0
100
AcDbLine
 62
2
  6
CONTINUOUS
 10
17.1148854949
 20
5.7415606239
 11
17.1859027422
 21
5.7415606239
  0
LINE
  5
245
100
AcDbEntity
  8
0
100
AcDbLine
 62
2
  6
CONTINUOUS
 10
17.0609027422
 20
23.8036090614
 11
17.0609027422
 21
19.011321064
  0
LINE
  5
246
100
AcDbEntity
  8
0
100
AcDbLine
 62
2
  6
CONTINUOUS
 10
17.0609027422
 20
5.7415606239
 11
17.0609027422
 21
18.282173064
  0
INSERT
  5
247
100
AcDbEntity
  8
0
100
AcDbBlockReference
 62
2
  6
CONTINUOUS
  2
_ARROW_FILLED
 10
17.0609027422
 20
23.8036090614
 41
0.1875
 42
0.1875
 43
0.1875
 50
90.0
  0
INSERT
  5
248
100
AcDbEntity
  8
0
100
AcDbBlockReference
 62
2
  6
CONTINUOUS
  2
_ARROW_FILLED
 10
17.0609027422
 20
5.7415606239
 41
0.1875
 42
0.1875
 43
0.1875
 50
270.0
  0
ENDBLK
  5
249
100
AcDbEntity
  8
0
  6
BYBLOCK
 62
0
100
AcDbBlockEnd
  0
BLOCK
  5
24A
100
AcDbEntity
  8
___SYMBOL
100
AcDbBlockBegin
 62
2
  6
CONTINUOUS
  2
PLOTTING_TEMPLATE_NOTE_BL0
 70
64
 10
12.7936546549
 20
17.5910238683
  3
PLOTTING_TEMPLATE_NOTE_BL0
  1

  0
TEXT
  5
24B
100
AcDbEntity
  8
___SYMBOL
100
AcDbText
 62
2
  6
CONTINUOUS
 10
9.9186546549
 20
18.9191488683
  7
STANDARD
 40
0.15625
  1
WHEN PLOTTING TEMPLATE FULL SIZE:
 41
0.8
 72
0
100
AcDbText
  0
TEXT
  5
24C
100
AcDbEntity
  8
___SYMBOL
100
AcDbText
 62
2
  6
CONTINUOUS
 10
9.9186546549
 20
18.6847738683
  7
STANDARD
 40
0.15625
  1
Make sure horizontal and vertical dimensions
 41
0.8
 72
0
100
AcDbText
  0
TEXT
  5
24D
100
AcDbEntity
  8
___SYMBOL
100
AcDbText
 62
2
  6
CONTINUOUS
 10
9.9186546549
 20
18.4503988683
  7
STANDARD
 40
0.15625
  1
match the dimensions labeled on the template.
 41
0.8
 72
0
100
AcDbText
  0
TEXT
  5
24E
100
AcDbEntity
  8
___SYMBOL
100
AcDbText
 62
2
  6
CONTINUOUS
 10
9.9186546549
 20
18.2160238683
  7
STANDARD
 40
0.15625
  1
 
 41
0.8
 72
0
100
AcDbText
  0
TEXT
  5
24F
100
AcDbEntity
  8
___SYMBOL
100
AcDbText
 62
2
  6
CONTINUOUS
 10
9.9186546549
 20
17.9816488683
  7
STANDARD
 40
0.15625
  1
LORS DU TRACÉ DU GABARIT À L'ÉCHELLE: 
 41
0.8
 72
0
100
AcDbText
  0
TEXT
  5
250
100
AcDbEntity
  8
___SYMBOL
100
AcDbText
 62
2
  6
CONTINUOUS
 10
9.9186546549
 20
17.7472738683
  7
STANDARD
 40
0.15625
  1
s'assurer que les dimensions horizontales et
 41
0.8
 72
0
100
AcDbText
  0
TEXT
  5
251
100
AcDbEntity
  8
___SYMBOL
100
AcDbText
 62
2
  6
CONTINUOUS
 10
9.9186546549
 20
17.5128988683
  7
STANDARD
 40
0.15625
  1
verticales correspondent à celles marquées sur
 41
0.8
 72
0
100
AcDbText
  0
TEXT
  5
252
100
AcDbEntity
  8
___SYMBOL
100
AcDbText
 62
2
  6
CONTINUOUS
 10
9.9186546549
 20
17.2785238683
  7
STANDARD
 40
0.15625
  1
le gabarit.
 41
0.8
 72
0
100
AcDbText
  0
TEXT
  5
253
100
AcDbEntity
  8
___SYMBOL
100
AcDbText
 62
2
  6
CONTINUOUS
 10
9.9186546549
 20
17.0441488683
  7
STANDARD
 40
0.15625
  1
 
 41
0.8
 72
0
100
AcDbText
  0
TEXT
  5
254
100
AcDbEntity
  8
___SYMBOL
100
AcDbText
 62
2
  6
CONTINUOUS
 10
9.9186546549
 20
16.8097738683
  7
STANDARD
 40
0.15625
  1
AL TRAZAR LA PLANTILLA A ESCALA COMPLETA:
 41
0.8
 72
0
100
AcDbText
  0
TEXT
  5
255
100
AcDbEntity
  8
___SYMBOL
100
AcDbText
 62
2
  6
CONTINUOUS
 10
9.9186546549
 20
16.5753988683
  7
STANDARD
 40
0.15625
  1
asegúrese de que la dimensión horizontal y
 41
0.8
 72
0
100
AcDbText
  0
TEXT
  5
256
100
AcDbEntity
  8
___SYMBOL
100
AcDbText
 62
2
  6
CONTINUOUS
 10
9.9186546549
 20
16.3410238683
  7
STANDARD
 40
0.15625
  1
la dimensión vertical sean iguales a las
 41
0.8
 72
0
100
AcDbText
  0
TEXT
  5
257
100
AcDbEntity
  8
___SYMBOL
100
AcDbText
 62
2
  6
CONTINUOUS
 10
9.9186546549
 20
16.1066488683
  7
STANDARD
 40
0.15625
  1
dimensiones indicadas en la plantilla.
 41
0.8
 72
0
100
AcDbText
  0
ENDBLK
  5
258
100
AcDbEntity
  8
0
  6
BYBLOCK
 62
0
100
AcDbBlockEnd
  0
BLOCK
  5
259
100
AcDbEntity
  8
___SYMBOL
100
AcDbBlockBegin
 62
2
  6
CONTINUOUS
  2
PACKAGING_UPC_NOTE_BL1
 70
64
 10
21.2246202695
 20
11.6557030226
  3
PACKAGING_UPC_NOTE_BL1
  1

  0
TEXT
  5
25A
100
AcDbEntity
  8
___SYMBOL
100
AcDbText
 62
7
  6
CONTINUOUS
 10
19.378119474
 20
12.1827063146
  7
STANDARD
 40
0.0593587493
  1
XXXXX-XX-X-XX
 41
0.8258950223
 72
0
100
AcDbText
  0
TEXT
  5
25B
100
AcDbEntity
  8
___SYMBOL
100
AcDbText
 62
7
  6
CONTINUOUS
 10
21.012099455
 20
12.0535413161
  7
STANDARD
 40
0.0445192495
  1
xxxxxx-xx
 41
0.6740211631
 72
0
100
AcDbText
  0
TEXT
  5
25C
100
AcDbEntity
  8
___SYMBOL
100
AcDbText
 62
2
  6
CONTINUOUS
 10
18.2477751787
 20
13.7263349764
  7
STANDARD
 40
0.1562500052
  1
PACKAGING/UPC LABEL ON BOX
 41
0.8
 72
0
100
AcDbText
  0
TEXT
  5
25D
100
AcDbEntity
  8
___SYMBOL
100
AcDbText
 62
2
  6
CONTINUOUS
 10
18.2477751787
 20
13.4919599686
  7
STANDARD
 40
0.1562500052
  1
EMBALLAGE/ÉTIQUETTE UPC SUR BOÎTE
 41
0.8
 72
0
100
AcDbText
  0
TEXT
  5
25E
100
AcDbEntity
  8
___SYMBOL
100
AcDbText
 62
2
  6
CONTINUOUS
 10
18.2477751787
 20
13.2575849608
  7
STANDARD
 40
0.1562500052
  1
ETIQUETA DE EMBALAJE/UPC EN LA CAJA
 41
0.8
 72
0
100
AcDbText
  0
TEXT
  5
25F
100
AcDbEntity
  8
___SYMBOL
100
AcDbText
 62
2
  6
CONTINUOUS
 10
18.2246202695
 20
11.5381960635
  7
STANDARD
 40
0.15625
  1
The template and the label suffixes circled
 41
0.8
 72
0
100
AcDbText
  0
TEXT
  5
260
100
AcDbEntity
  8
___SYMBOL
100
AcDbText
 62
2
  6
CONTINUOUS
 10
18.2246202695
 20
11.3038210635
  7
STANDARD
 40
0.15625
  1
must match for proper cut-out.
 41
0.8
 72
0
100
AcDbText
  0
TEXT
  5
261
100
AcDbEntity
  8
___SYMBOL
100
AcDbText
 62
2
  6
CONTINUOUS
 10
18.2246202695
 20
11.0694460635
  7
STANDARD
 40
0.15625
  1
 
 41
0.8
 72
0
100
AcDbText
  0
TEXT
  5
262
100
AcDbEntity
  8
___SYMBOL
100
AcDbText
 62
2
  6
CONTINUOUS
 10
18.2246202695
 20
10.8350710635
  7
STANDARD
 40
0.15625
  1
Les suffixes du gabarit et de l'étiquette
 41
0.8
 72
0
100
AcDbText
  0
TEXT
  5
263
100
AcDbEntity
  8
___SYMBOL
100
AcDbText
 62
2
  6
CONTINUOUS
 10
18.2246202695
 20
10.6006960635
  7
STANDARD
 40
0.15625
  1
encerclés doivent correspondre pour une
 41
0.8
 72
0
100
AcDbText
  0
TEXT
  5
264
100
AcDbEntity
  8
___SYMBOL
100
AcDbText
 62
2
  6
CONTINUOUS
 10
18.2246202695
 20
10.3663210635
  7
STANDARD
 40
0.15625
  1
propre découpe.
 41
0.8
 72
0
100
AcDbText
  0
TEXT
  5
265
100
AcDbEntity
  8
___SYMBOL
100
AcDbText
 62
2
  6
CONTINUOUS
 10
18.2246202695
 20
10.1319460635
  7
STANDARD
 40
0.15625
  1
 
 41
0.8
 72
0
100
AcDbText
  0
TEXT
  5
266
100
AcDbEntity
  8
___SYMBOL
100
AcDbText
 62
2
  6
CONTINUOUS
 10
18.2246202695
 20
9.8975710635
  7
STANDARD
 40
0.15625
  1
A fin de realizar el corte correcto, los sufijos
 41
0.8
 72
0
100
AcDbText
  0
TEXT
  5
267
100
AcDbEntity
  8
___SYMBOL
100
AcDbText
 62
2
  6
CONTINUOUS
 10
18.2246202695
 20
9.6631960635
  7
STANDARD
 40
0.15625
  1
de la plantilla y de la etiqueta encerrados
 41
0.8
 72
0
100
AcDbText
  0
TEXT
  5
268
100
AcDbEntity
  8
___SYMBOL
100
AcDbText
 62
2
  6
CONTINUOUS
 10
18.2246202695
 20
9.4288210635
  7
STANDARD
 40
0.15625
  1
en un círculo deben ser iguales.
 41
0.8
 72
0
100
AcDbText
  0
LINE
  5
269
100
AcDbEntity
  8
___SYMBOL
100
AcDbLine
 62
7
  6
CONTINUOUS
 10
21.3669244508
 20
12.0268113164
 11
19.1818819763
 21
12.0268113164
  0
LINE
  5
26A
100
AcDbEntity
  8
___SYMBOL
100
AcDbLine
 62
7
  6
CONTINUOUS
 10
19.1818819763
 20
12.0268113164
 11
19.1818819763
 21
13.0198413048
  0
LINE
  5
26B
100
AcDbEntity
  8
___SYMBOL
100
AcDbLine
 62
7
  6
CONTINUOUS
 10
19.1818819763
 20
13.0198413048
 11
21.3669244508
 21
13.0198413048
  0
LINE
  5
26C
100
AcDbEntity
  8
___SYMBOL
100
AcDbLine
 62
7
  6
CONTINUOUS
 10
21.3669244508
 20
13.0198413048
 11
21.3669244508
 21
12.0268113164
  0
LINE
  5
26D
100
AcDbEntity
  8
___SYMBOL
100
AcDbLine
 62
7
  6
CONTINUOUS
 10
19.1485144767
 20
13.0523013045
 11
21.4010794504
 21
13.0523013045
  0
LINE
  5
26E
100
AcDbEntity
  8
___SYMBOL
100
AcDbLine
 62
7
  6
CONTINUOUS
 10
21.4010794504
 20
13.0523013045
 11
21.4010794504
 21
11.9593938172
  0
LINE
  5
26F
100
AcDbEntity
  8
___SYMBOL
100
AcDbLine
 62
7
  6
CONTINUOUS
 10
21.4010794504
 20
11.9593938172
 11
19.1485144767
 21
11.9593938172
  0
LINE
  5
270
100
AcDbEntity
  8
___SYMBOL
100
AcDbLine
 62
7
  6
CONTINUOUS
 10
19.1485144767
 20
11.9593938172
 11
19.1485144767
 21
13.0523013045
  0
LINE
  5
271
100
AcDbEntity
  8
___SYMBOL
100
AcDbLine
 62
7
  6
CONTINUOUS
 10
21.1617394532
 20
12.4584813114
 11
21.1617394532
 21
12.3368463128
  0
LINE
  5
272
100
AcDbEntity
  8
___SYMBOL
100
AcDbLine
 62
7
  6
CONTINUOUS
 10
21.1617394532
 20
12.3368463128
 11
20.8187869572
 21
12.3368463128
  0
LINE
  5
273
100
AcDbEntity
  8
___SYMBOL
100
AcDbLine
 62
7
  6
CONTINUOUS
 10
20.8187869572
 20
12.3368463128
 11
20.8187869572
 21
12.4584813114
  0
LINE
  5
274
100
AcDbEntity
  8
___SYMBOL
100
AcDbLine
 62
7
  6
CONTINUOUS
 10
20.8187869572
 20
12.4584813114
 11
21.1617394532
 21
12.4584813114
  0
SOLID
  5
275
100
AcDbEntity
  8
___SYMBOL
100
AcDbTrace
 62
7
  6
CONTINUOUS
 10
20.8187869572
 20
12.3368463037
 11
20.8187869572
 21
12.4584813037
 12
21.1617394532
 22
12.4584813037
 13
21.1617394532
 23
12.4584813037
  0
SOLID
  5
276
100
AcDbEntity
  8
___SYMBOL
100
AcDbTrace
 62
7
  6
CONTINUOUS
 10
21.1617394532
 20
12.4584813037
 11
21.1617394532
 21
12.3368463037
 12
20.8187869572
 22
12.3368463037
 13
20.8187869572
 23
12.3368463037
  0
LINE
  5
277
100
AcDbEntity
  8
___SYMBOL
100
AcDbLine
 62
7
  6
CONTINUOUS
 10
20.0862844658
 20
12.4584813114
 11
20.0862844658
 21
12.3368463128
  0
LINE
  5
278
100
AcDbEntity
  8
___SYMBOL
100
AcDbLine
 62
7
  6
CONTINUOUS
 10
20.0862844658
 20
12.3368463128
 11
19.2305794758
 21
12.3368463128
  0
LINE
  5
279
100
AcDbEntity
  8
___SYMBOL
100
AcDbLine
 62
7
  6
CONTINUOUS
 10
19.2305794758
 20
12.3368463128
 11
19.2305794758
 21
12.4584813114
  0
LINE
  5
27A
100
AcDbEntity
  8
___SYMBOL
100
AcDbLine
 62
7
  6
CONTINUOUS
 10
19.2305794758
 20
12.4584813114
 11
20.0862844658
 21
12.4584813114
  0
SOLID
  5
27B
100
AcDbEntity
  8
___SYMBOL
100
AcDbTrace
 62
7
  6
CONTINUOUS
 10
19.2305794758
 20
12.3368463037
 11
19.2305794758
 21
12.4584813037
 12
20.0862844658
 22
12.4584813037
 13
20.0862844658
 23
12.4584813037
  0
SOLID
  5
27C
100
AcDbEntity
  8
___SYMBOL
100
AcDbTrace
 62
7
  6
CONTINUOUS
 10
20.0862844658
 20
12.4584813037
 11
20.0862844658
 21
12.3368463037
 12
19.2305794758
 22
12.3368463037
 13
19.2305794758
 23
12.3368463037
  0
LINE
  5
27D
100
AcDbEntity
  8
___SYMBOL
100
AcDbLine
 62
7
  6
CONTINUOUS
 10
20.0862844658
 20
12.0852138158
 11
20.0862844658
 21
12.0502338162
  0
LINE
  5
27E
100
AcDbEntity
  8
___SYMBOL
100
AcDbLine
 62
7
  6
CONTINUOUS
 10
20.0862844658
 20
12.0502338162
 11
19.2305794758
 21
12.0502338162
  0
LINE
  5
27F
100
AcDbEntity
  8
___SYMBOL
100
AcDbLine
 62
7
  6
CONTINUOUS
 10
19.2305794758
 20
12.0502338162
 11
19.2305794758
 21
12.0852138158
  0
LINE
  5
280
100
AcDbEntity
  8
___SYMBOL
100
AcDbLine
 62
7
  6
CONTINUOUS
 10
19.2305794758
 20
12.0852138158
 11
20.0862844658
 21
12.0852138158
  0
SOLID
  5
281
100
AcDbEntity
  8
___SYMBOL
100
AcDbTrace
 62
7
  6
CONTINUOUS
 10
19.2305794758
 20
12.0502338177
 11
19.2305794758
 21
12.0852137997
 12
20.0862844658
 22
12.0852137997
 13
20.0862844658
 23
12.0852137997
  0
SOLID
  5
282
100
AcDbEntity
  8
___SYMBOL
100
AcDbTrace
 62
7
  6
CONTINUOUS
 10
20.0862844658
 20
12.0852137997
 11
20.0862844658
 21
12.0502338177
 12
19.2305794758
 22
12.0502338177
 13
19.2305794758
 23
12.0502338177
  0
LWPOLYLINE
  5
283
100
AcDbEntity
  8
___SYMBOL
100
AcDbPolyline
 62
7
  6
CONTINUOUS
 90
7
 70
0
 10
19.9522894194
 20
12.2969914335
 10
19.8923919948
 20
12.2407978378
 10
19.9109250861
 20
12.1607875695
 10
19.9894287319
 20
12.1366551828
 10
20.0497090556
 20
12.19243784
 10
20.0317235948
 20
12.2725729977
 10
19.953386841
 20
12.2972417052
  0
LINE
  5
284
100
AcDbEntity
  8
___SYMBOL
100
AcDbLine
 62
7
  6
CONTINUOUS
 10
20.1329344652
 20
12.9917163052
 11
20.1329344652
 21
12.9300663059
  0
LINE
  5
285
100
AcDbEntity
  8
___SYMBOL
100
AcDbLine
 62
7
  6
CONTINUOUS
 10
20.1329344652
 20
12.9300663059
 11
19.2772294752
 21
12.9300663059
  0
LINE
  5
286
100
AcDbEntity
  8
___SYMBOL
100
AcDbLine
 62
7
  6
CONTINUOUS
 10
19.2772294752
 20
12.9300663059
 11
19.2772294752
 21
12.9917163052
  0
LINE
  5
287
100
AcDbEntity
  8
___SYMBOL
100
AcDbLine
 62
7
  6
CONTINUOUS
 10
19.2772294752
 20
12.9917163052
 11
20.1329344652
 21
12.9917163052
  0
SOLID
  5
288
100
AcDbEntity
  8
___SYMBOL
100
AcDbTrace
 62
7
  6
CONTINUOUS
 10
19.2772294752
 20
12.9300663017
 11
19.2772294752
 21
12.9917162917
 12
20.1329344652
 22
12.9917162917
 13
20.1329344652
 23
12.9917162917
  0
SOLID
  5
289
100
AcDbEntity
  8
___SYMBOL
100
AcDbTrace
 62
7
  6
CONTINUOUS
 10
20.1329344652
 20
12.9917162917
 11
20.1329344652
 21
12.9300663017
 12
19.2772294752
 22
12.9300663017
 13
19.2772294752
 23
12.9300663017
  0
LINE
  5
28A
100
AcDbEntity
  8
___SYMBOL
100
AcDbLine
 62
7
  6
CONTINUOUS
 10
20.1329344652
 20
12.8917338063
 11
20.1329344652
 21
12.8300838071
  0
LINE
  5
28B
100
AcDbEntity
  8
___SYMBOL
100
AcDbLine
 62
7
  6
CONTINUOUS
 10
20.1329344652
 20
12.8300838071
 11
19.2772294752
 21
12.8300838071
  0
LINE
  5
28C
100
AcDbEntity
  8
___SYMBOL
100
AcDbLine
 62
7
  6
CONTINUOUS
 10
19.2772294752
 20
12.8300838071
 11
19.2772294752
 21
12.8917338063
  0
LINE
  5
28D
100
AcDbEntity
  8
___SYMBOL
100
AcDbLine
 62
7
  6
CONTINUOUS
 10
19.2772294752
 20
12.8917338063
 11
20.1329344652
 21
12.8917338063
  0
SOLID
  5
28E
100
AcDbEntity
  8
___SYMBOL
100
AcDbTrace
 62
7
  6
CONTINUOUS
 10
19.2772294752
 20
12.8300837937
 11
19.2772294752
 21
12.8917338177
 12
20.1329344652
 22
12.8917338177
 13
20.1329344652
 23
12.8917338177
  0
SOLID
  5
28F
100
AcDbEntity
  8
___SYMBOL
100
AcDbTrace
 62
7
  6
CONTINUOUS
 10
20.1329344652
 20
12.8917338177
 11
20.1329344652
 21
12.8300837937
 12
19.2772294752
 22
12.8300837937
 13
19.2772294752
 23
12.8300837937
  0
LINE
  5
290
100
AcDbEntity
  8
___SYMBOL
100
AcDbLine
 62
7
  6
CONTINUOUS
 10
20.1329344652
 20
12.7917513075
 11
20.1329344652
 21
12.7301088082
  0
LINE
  5
291
100
AcDbEntity
  8
___SYMBOL
100
AcDbLine
 62
7
  6
CONTINUOUS
 10
20.1329344652
 20
12.7301088082
 11
19.2772294752
 21
12.7301088082
  0
LINE
  5
292
100
AcDbEntity
  8
___SYMBOL
100
AcDbLine
 62
7
  6
CONTINUOUS
 10
19.2772294752
 20
12.7301088082
 11
19.2772294752
 21
12.7917513075
  0
LINE
  5
293
100
AcDbEntity
  8
___SYMBOL
100
AcDbLine
 62
7
  6
CONTINUOUS
 10
19.2772294752
 20
12.7917513075
 11
20.1329344652
 21
12.7917513075
  0
SOLID
  5
294
100
AcDbEntity
  8
___SYMBOL
100
AcDbTrace
 62
7
  6
CONTINUOUS
 10
19.2772294752
 20
12.7301087997
 11
19.2772294752
 21
12.7917513097
 12
20.1329344652
 22
12.7917513097
 13
20.1329344652
 23
12.7917513097
  0
SOLID
  5
295
100
AcDbEntity
  8
___SYMBOL
100
AcDbTrace
 62
7
  6
CONTINUOUS
 10
20.1329344652
 20
12.7917513097
 11
20.1329344652
 21
12.7301087997
 12
19.2772294752
 22
12.7301087997
 13
19.2772294752
 23
12.7301087997
  0
LINE
  5
296
100
AcDbEntity
  8
___SYMBOL
100
AcDbLine
 62
7
  6
CONTINUOUS
 10
20.1329344652
 20
12.6917688087
 11
20.1329344652
 21
12.6301263094
  0
LINE
  5
297
100
AcDbEntity
  8
___SYMBOL
100
AcDbLine
 62
7
  6
CONTINUOUS
 10
20.1329344652
 20
12.6301263094
 11
19.2772294752
 21
12.6301263094
  0
LINE
  5
298
100
AcDbEntity
  8
___SYMBOL
100
AcDbLine
 62
7
  6
CONTINUOUS
 10
19.2772294752
 20
12.6301263094
 11
19.2772294752
 21
12.6917688087
  0
LINE
  5
299
100
AcDbEntity
  8
___SYMBOL
100
AcDbLine
 62
7
  6
CONTINUOUS
 10
19.2772294752
 20
12.6917688087
 11
20.1329344652
 21
12.6917688087
  0
SOLID
  5
29A
100
AcDbEntity
  8
___SYMBOL
100
AcDbTrace
 62
7
  6
CONTINUOUS
 10
19.2772294752
 20
12.6301263257
 11
19.2772294752
 21
12.6917688017
 12
20.1329344652
 22
12.6917688017
 13
20.1329344652
 23
12.6917688017
  0
SOLID
  5
29B
100
AcDbEntity
  8
___SYMBOL
100
AcDbTrace
 62
7
  6
CONTINUOUS
 10
20.1329344652
 20
12.6917688017
 11
20.1329344652
 21
12.6301263257
 12
19.2772294752
 22
12.6301263257
 13
19.2772294752
 23
12.6301263257
  0
LINE
  5
29C
100
AcDbEntity
  8
___SYMBOL
100
AcDbLine
 62
7
  6
CONTINUOUS
 10
20.1329344652
 20
12.5651313101
 11
20.1329344652
 21
12.5034813109
  0
LINE
  5
29D
100
AcDbEntity
  8
___SYMBOL
100
AcDbLine
 62
7
  6
CONTINUOUS
 10
20.1329344652
 20
12.5034813109
 11
19.2772294752
 21
12.5034813109
  0
LINE
  5
29E
100
AcDbEntity
  8
___SYMBOL
100
AcDbLine
 62
7
  6
CONTINUOUS
 10
19.2772294752
 20
12.5034813109
 11
19.2772294752
 21
12.5651313101
  0
LINE
  5
29F
100
AcDbEntity
  8
___SYMBOL
100
AcDbLine
 62
7
  6
CONTINUOUS
 10
19.2772294752
 20
12.5651313101
 11
20.1329344652
 21
12.5651313101
  0
SOLID
  5
2A0
100
AcDbEntity
  8
___SYMBOL
100
AcDbTrace
 62
7
  6
CONTINUOUS
 10
19.2772294752
 20
12.5034813237
 11
19.2772294752
 21
12.5651313137
 12
20.1329344652
 22
12.5651313137
 13
20.1329344652
 23
12.5651313137
  0
SOLID
  5
2A1
100
AcDbEntity
  8
___SYMBOL
100
AcDbTrace
 62
7
  6
CONTINUOUS
 10
20.1329344652
 20
12.5651313137
 11
20.1329344652
 21
12.5034813237
 12
19.2772294752
 22
12.5034813237
 13
19.2772294752
 23
12.5034813237
  0
ENDBLK
  5
2A2
100
AcDbEntity
  8
0
  6
BYBLOCK
 62
0
100
AcDbBlockEnd
  0
BLOCK
  5
2A3
100
AcDbEntity
  8
___SYMBOL
100
AcDbBlockBegin
 62
2
  6
CONTINUOUS
  2
COPYRIGHT_YEAR_BL2
 70
64
 10
18.8462461382
 20
6.727243857
  3
COPYRIGHT_YEAR_BL2
  1

  0
TEXT
  5
2A4
100
AcDbEntity
  8
___SYMBOL
100
AcDbText
 62
2
  6
CONTINUOUS
 10
18.4725545126
 20
6.6919702322
  7
STANDARD
 40
0.0705
  1
2003
 41
0.8
 72
0
100
AcDbText
  0
TEXT
  5
2A5
100
AcDbEntity
  8
___SYMBOL
100
AcDbText
 62
2
  6
CONTINUOUS
 10
18.6981545126
 20
6.6919702322
  7
STANDARD
 40
0.0705
  1
 KOHLER CO.
 41
0.8
 72
0
100
AcDbText
  0
TEXT
  5
2A6
100
AcDbEntity
  8
___SYMBOL
100
AcDbText
 62
7
  6
CONTINUOUS
 10
18.3925287636
 20
6.7084552325
  7
STANDARD
 40
0.0421874995
  1
C
 41
1.0
 72
0
100
AcDbText
  0
CIRCLE
  5
2A7
100
AcDbEntity
  8
___SYMBOL
100
AcDbCircle
 62
7
  6
CONTINUOUS
 10
18.4067637634
 20
6.7296914822
 40
0.0328259996
  0
ENDBLK
  5
2A8
100
AcDbEntity
  8
0
  6
BYBLOCK
 62
0
100
AcDbBlockEnd
  0
BLOCK
  5
2A9
100
AcDbEntity
  8
___SYMBOL
100
AcDbBlockBegin
 62
2
  6
CONTINUOUS
  2
TEMPLATE_NUMBER_BL3
 70
64
 10
14.3628899586
 20
6.7900276007
  3
TEMPLATE_NUMBER_BL3
  1

  0
TEXT
  5
2AA
100
AcDbEntity
  8
___SYMBOL
100
AcDbText
 62
2
  6
CONTINUOUS
 10
14.0526899586
 20
6.7547776007
  7
STANDARD
 40
0.0705
  1
1003766-7
 41
0.8
 72
0
100
AcDbText
  0
TEXT
  5
2AB
100
AcDbEntity
  8
___SYMBOL
100
AcDbText
 62
2
  6
CONTINUOUS
 10
14.5602899586
 20
6.7547776007
  7
STANDARD
 40
0.0705
  1
-
 41
0.8
 72
0
100
AcDbText
  0
TEXT
  5
2AC
100
AcDbEntity
  8
___SYMBOL
100
AcDbText
 62
2
  6
CONTINUOUS
 10
14.6166899586
 20
6.7547776007
  7
STANDARD
 40
0.0705
  1
E
 41
0.8
 72
0
100
AcDbText
  0
ENDBLK
  5
2AD
100
AcDbEntity
  8
0
  6
BYBLOCK
 62
0
100
AcDbBlockEnd
  0
BLOCK
  5
2AE
100
AcDbEntity
  8
___SYMBOL
100
AcDbBlockBegin
 62
2
  6
CONTINUOUS
  2
TEMPLATE_NUMBER_BL4
 70
64
 10
14.3942838167
 20
5.2674254846
  3
TEMPLATE_NUMBER_BL4
  1

  0
TEXT
  5
2AF
100
AcDbEntity
  8
___SYMBOL
100
AcDbText
 62
2
  6
CONTINUOUS
 10
14.0840838167
 20
5.2321754846
  7
STANDARD
 40
0.0705
  1
1003766-7
 41
0.8
 72
0
100
AcDbText
  0
TEXT
  5
2B0
100
AcDbEntity
  8
___SYMBOL
100
AcDbText
 62
2
  6
CONTINUOUS
 10
14.5916838167
 20
5.2321754846
  7
STANDARD
 40
0.0705
  1
-
 41
0.8
 72
0
100
AcDbText
  0
TEXT
  5
2B1
100
AcDbEntity
  8
___SYMBOL
100
AcDbText
 62
2
  6
CONTINUOUS
 10
14.6480838167
 20
5.2321754846
  7
STANDARD
 40
0.0705
  1
E
 41
0.8
 72
0
100
AcDbText
  0
ENDBLK
  5
2B2
100
AcDbEntity
  8
0
  6
BYBLOCK
 62
0
100
AcDbBlockEnd
  0
BLOCK
  5
2B3
100
AcDbEntity
  8
0
100
AcDbBlockBegin
  2
_ARROW_FILLED
 70
64
 10
0.0
 20
0.0
  3
_ARROW_FILLED
  1

  0
SOLID
  5
2B4
100
AcDbEntity
  8
0
  6
BYBLOCK
 62
0
100
AcDbTrace
 10
0.0
 20
0.0
 11
-1.0
 21
0.1666666667
 12
-1.0
 22
-0.1666666667
 13
-1.0
 23
-0.1666666667
  0
ENDBLK
  5
2B5
100
AcDbEntity
  8
0
  6
BYBLOCK
 62
0
100
AcDbBlockEnd
  0
ENDSEC
  0
SECTION
  2
ENTITIES
  0
DIMENSION
  5
2B6
100
AcDbEntity
  8
0
100
AcDbDimension
 62
2
  6
CONTINUOUS
  2
*D0
 10
5.7533411886
 20
23.8036090614
 11
5.7533411886
 21
25.0045659893
 70
160
  1
2-1/2"\P(6.4 cm)
  3
DIMSTYLE_1
100
AcDbAlignedDimension
 13
6.3102249762
 23
26.3035465614
 14
16.9898854949
 24
23.8036090614
 50
270.0
100
AcDbRotatedDimension
  0
DIMENSION
  5
2B7
100
AcDbEntity
  8
0
100
AcDbDimension
 62
2
  6
CONTINUOUS
  2
*D1
 10
5.7315849563
 20
28.3034965614
 11
5.7315849563
 21
27.3893472783
 70
160
  1
<>" (5.1 cm) MINIMUM\P2 po (5,1 cm) MINIMUM\P2" (5,1 cm) MINIMO
  3
DIMSTYLE_2
100
AcDbAlignedDimension
 13
6.3102249762
 23
26.3035465614
 14
6.3102249762
 24
28.3034965614
 50
90.0
100
AcDbRotatedDimension
  0
DIMENSION
  5
2B8
100
AcDbEntity
  8
0
100
AcDbDimension
 62
2
  6
CONTINUOUS
  2
*D2
 10
8.1776145953
 20
14.9401555623
 11
18.3717454208
 21
14.809962121
 70
163
  1
<>"\P(451 cm)
  3
DIMSTYLE_3
100
AcDbDiametricDimension
 15
25.9271563945
 25
14.9175063106
  0
DIMENSION
  5
2B9
100
AcDbEntity
  8
0
100
AcDbDimension
 62
2
  6
CONTINUOUS
  2
*D3
 10
17.0609027422
 20
5.7415606239
 11
17.0609027422
 21
18.646747064
 70
160
  1
<>"\P(45,9 cm)
  3
DIMSTYLE_4
100
AcDbAlignedDimension
 13
17.1859027422
 23
23.8036090614
 14
17.1859027422
 24
5.7415606239
 50
270.0
100
AcDbRotatedDimension
  0
TEXT
  5
2BA
100
AcDbEntity
  8
0
100
AcDbText
 62
7
  6
CONTINUOUS
 10
19.5147080365
 20
17.6905914413
  7
STANDARD
 40
0.0704982375
  1
TM
 41
1.0
 72
0
100
AcDbText
  0
MTEXT
  5
2BB
100
AcDbEntity
  8
0
100
AcDbMText
 62
7
  6
CONTINUOUS
  7
TEXTSTYLE_1
 71
1
 72
1
 10
18.2624796562
 20
19.4470582308
 30
0.0
 11
1.0
 21
0.0
 31
0.0
  1
CUT-OUT TEMPLATE\PSELF-RIMMING LAVATORY\PGABARIT\PLAVABO À REBORD INTÉGRÉ\PPLANTILLA DE RECORTE\PLAVABO CON BORDE TERMINADO\P \PMODESTO  441901-**-AB\P \PMODESTO  441904-**-AB\P \PMODESTO  441908-**-AB
 40
0.1874953125
 41
4.8092547644
  0
TEXT
  5
2BC
100
AcDbEntity
  8
0
100
AcDbText
 62
7
  6
CONTINUOUS
 10
19.5233031002
 20
17.2464126979
  7
STANDARD
 40
0.0704982375
  1
TM
 41
1.0
 72
0
100
AcDbText
  0
MTEXT
  5
2BD
100
AcDbEntity
  8
0
100
AcDbMText
 62
2
  6
CONTINUOUS
  7
STANDARD
 71
1
 72
1
 10
24.108140445
 20
27.1276471975
 30
0.0
 11
1.0
 21
0.0
 31
0.0
  1
CENTERLINE OF FITTING\PAXE DU ROBINET\PLÍNEA CENTRAL DEL GRIFO
 40
0.156246
 41
2.8749264
  0
MTEXT
  5
2BE
100
AcDbEntity
  8
0
100
AcDbMText
 62
2
  6
CONTINUOUS
  7
STANDARD
 71
1
 72
1
 10
24.0365043474
 20
29.1334579293
 30
0.0
 11
1.0
 21
0.0
 31
0.0
  1
FINISHED WALL / BACKSPLASH\PMUR FINI / DOSSERET\PPARED ACABADA / PARED POSTERIOR
 40
0.156246
 41
3.8749008
  0
MTEXT
  5
2BF
100
AcDbEntity
  8
0
100
AcDbMText
 62
2
  6
CONTINUOUS
  7
STANDARD
 71
1
 72
1
 10
21.5125108174
 20
25.6983899485
 30
0.0
 11
1.0
 21
0.0
 31
0.0
  1
NOTES: BEFORE CUTTING COUNTERTOP ALLOW FOR HANDLE CLEARANCE\H0.2083281250;\P \H0.1562460937;\PREMARQUE : AVANT DE COUPER L'OUVERTURE, PRÉVOIR LE DÉGAGEMENT\PPOUR LES POIGNÉES\P \PNOTA: ANTES DE CORTAR EL MOSTRADOR, DEJE ESPACIO LIBRE PARA LAS LLAVES\H0.20
  3
83281250;\P 
 40
0.1562460937
 41
8.7497812478
  0
MTEXT
  5
2C0
100
AcDbEntity
  8
___NOTE
100
AcDbMText
 62
2
  6
CONTINUOUS
  7
STANDARD
 71
1
 72
1
 10
10.9060786974
 20
11.6901947226
 30
0.0
 11
1.0
 21
0.0
 31
0.0
  1
RIM OF LAVATORY\PREBORD DE LAVABO\PBORDE DEL LAVABO
 40
0.156246
 41
1.9999488
  0
LINE
  5
2C1
100
AcDbEntity
  8
___NOTE
100
AcDbLine
 62
2
  6
CONTINUOUS
 10
8.6044457803
 20
10.5839716597
 11
10.6560786974
 21
11.6120717226
  0
LINE
  5
2C2
100
AcDbEntity
  8
___NOTE
100
AcDbLine
 62
2
  6
CONTINUOUS
 10
10.6560786974
 20
11.6120717226
 11
10.9060786974
 21
11.6120717226
  0
SOLID
  5
2C3
100
AcDbEntity
  8
___NOTE
100
AcDbTrace
 62
2
  6
CONTINUOUS
 10
8.7580758815
 20
10.6959118424
 11
8.6044457803
 21
10.5839716597
 12
8.7860764758
 22
10.640035043
 13
8.7860764758
 23
10.640035043
  0
MTEXT
  5
2C4
100
AcDbEntity
  8
___NOTE
100
AcDbMText
 62
2
  6
CONTINUOUS
  7
STANDARD
 71
1
 72
1
 10
10.8226228548
 20
13.3003331762
 30
0.0
 11
1.0
 21
0.0
 31
0.0
  1
CUT ALONG THIS LINE\PDÉCOUPER AU LONG DE CETTE LIGNE\PCORTE A LO LARGO DE ESTA LÍNEA
 40
0.156247
 41
3.9999232
  0
LINE
  5
2C5
100
AcDbEntity
  8
___NOTE
100
AcDbLine
 62
2
  6
CONTINUOUS
 10
8.537869077
 20
12.4258932747
 11
10.5726228548
 21
13.2222096762
  0
LINE
  5
2C6
100
AcDbEntity
  8
___NOTE
100
AcDbLine
 62
2
  6
CONTINUOUS
 10
10.5726228548
 20
13.2222096762
 11
10.8226228548
 21
13.2222096762
  0
SOLID
  5
2C7
100
AcDbEntity
  8
___NOTE
100
AcDbTrace
 62
2
  6
CONTINUOUS
 10
8.7010851173
 20
12.5233270301
 11
8.537869077
 21
12.4258932747
 12
8.7238627656
 22
12.4651254087
 13
8.7238627656
 23
12.4651254087
  0
INSERT
  5
2C8
100
AcDbEntity
  8
___SYMBOL
100
AcDbBlockReference
 62
2
  6
CONTINUOUS
  2
PLOTTING_TEMPLATE_NOTE_BL0
 10
12.7936546549
 20
17.5910238683
  0
INSERT
  5
2C9
100
AcDbEntity
  8
___SYMBOL
100
AcDbBlockReference
 62
2
  6
CONTINUOUS
  2
PACKAGING_UPC_NOTE_BL1
 10
21.2246202695
 20
11.6557030226
  0
INSERT
  5
2CA
100
AcDbEntity
  8
___SYMBOL
100
AcDbBlockReference
 62
2
  6
CONTINUOUS
  2
COPYRIGHT_YEAR_BL2
 10
18.8462461382
 20
6.727243857
  0
INSERT
  5
2CB
100
AcDbEntity
  8
___SYMBOL
100
AcDbBlockReference
 62
2
  6
CONTINUOUS
  2
TEMPLATE_NUMBER_BL3
 10
14.3628899586
 20
6.7900276007
  0
INSERT
  5
2CC
100
AcDbEntity
  8
___SYMBOL
100
AcDbBlockReference
 62
2
  6
CONTINUOUS
  2
TEMPLATE_NUMBER_BL4
 10
14.3942838167
 20
5.2674254846
  0
LINE
  5
2CD
100
AcDbEntity
  8
0
100
AcDbLine
 62
7
  6
CONTINUOUS
 10
15.1798865844
 20
5.934405795
 11
14.7587218377
 21
6.3555705417
  0
LINE
  5
2CE
100
AcDbEntity
  8
DEFAULT_1
100
AcDbLine
 62
2
  6
CENTER
 10
17.0523854949
 20
6.0540528114
 11
17.0523854949
 21
4.9934343276
  0
LINE
  5
2CF
100
AcDbEntity
  8
230
100
AcDbLine
 62
2
  6
CENTER
 10
17.0523854949
 20
23.8036090614
 11
17.0523854949
 21
24.8642275453
  0
LINE
  5
2D0
100
AcDbEntity
  8
INTF_1
100
AcDbLine
 62
7
  6
CONTINUOUS
 10
18.0769339375
 20
20.0646171571
 11
18.0769339375
 21
20.9077127459
  0
LINE
  5
2D1
100
AcDbEntity
  8
INTF_1
100
AcDbLine
 62
7
  6
CONTINUOUS
 10
18.0797653482
 20
20.9136181538
 11
18.0797653482
 21
20.0946904794
  0
LINE
  5
2D2
100
AcDbEntity
  8
INTF_1
100
AcDbLine
 62
7
  6
CONTINUOUS
 10
18.6950203368
 20
20.7282561213
 11
18.6950203368
 21
20.649889562
  0
LINE
  5
2D3
100
AcDbEntity
  8
INTF_1
100
AcDbLine
 62
7
  6
CONTINUOUS
 10
18.9278515529
 20
20.275965577
 11
18.9278515529
 21
20.2780636727
  0
LINE
  5
2D4
100
AcDbEntity
  8
INTF_1
100
AcDbLine
 62
7
  6
CONTINUOUS
 10
18.9703393795
 20
20.3730946302
 11
18.9703393795
 21
20.6824850434
  0
LWPOLYLINE
  5
2D5
100
AcDbEntity
  8
INTF_1
100
AcDbPolyline
 62
7
  6
CONTINUOUS
 90
22
 70
0
 10
19.0688887676
 20
20.6824850434
 10
19.0688887676
 20
20.3661503594
 10
19.0688992821
 20
20.3565715419
 10
19.0690478047
 20
20.3476093173
 10
19.0693949175
 20
20.3405946261
 10
19.0699500731
 20
20.3346679293
 10
19.0707169521
 20
20.3294605728
 10
19.071699495
 20
20.3247704098
 10
19.0729038379
 20
20.3204699403
 10
19.07433936
 20
20.316471071
 10
19.0760194282
 20
20.3127089873
 10
19.0779619897
 20
20.3091338691
 10
19.0801900619
 20
20.3057062697
 10
19.0827321482
 20
20.302394359
 10
19.0856226086
 20
20.2991721683
 10
19.0888894411
 20
20.2960296645
 10
19.0925694525
 20
20.2929530776
 10
19.0967116446
 20
20.2899255724
 10
19.1013719125
 20
20.2869333538
 10
19.1066135726
 20
20.2839650435
 10
19.1125080373
 20
20.28101116
 10
19.1191356595
 20
20.2780636727
  0
LINE
  5
2D6
100
AcDbEntity
  8
INTF_1
100
AcDbLine
 62
7
  6
CONTINUOUS
 10
19.1191356595
 20
20.2780636727
 11
19.1191356595
 21
20.275965577
  0
LINE
  5
2D7
100
AcDbEntity
  8
INTF_1
100
AcDbLine
 62
7
  6
CONTINUOUS
 10
19.2727410786
 20
20.7372892288
 11
19.2418362957
 21
20.6547172191
  0
LINE
  5
2D8
100
AcDbEntity
  8
INTF_1
100
AcDbLine
 62
7
  6
CONTINUOUS
 10
18.7674648219
 20
20.6547172191
 11
18.8012899022
 21
20.7372892288
  0
LINE
  5
2D9
100
AcDbEntity
  8
INTF_1
100
AcDbLine
 62
7
  6
CONTINUOUS
 10
19.7828468441
 20
20.3668558973
 11
19.7393738569
 21
20.275965577
  0
LWPOLYLINE
  5
2DA
100
AcDbEntity
  8
INTF_1
100
AcDbPolyline
 62
7
  6
CONTINUOUS
 90
36
 70
0
 10
21.1827229575
 20
20.2780636727
 10
21.1905346375
 20
20.2815784221
 10
21.1973587393
 20
20.2851224248
 10
21.2033177042
 20
20.28870751
 10
21.2085186081
 20
20.2923492071
 10
21.2130545618
 20
20.2960678047
 10
21.2170057644
 20
20.2998896709
 10
21.2204239772
 20
20.3038283677
 10
21.2233616753
 20
20.3079087417
 10
21.2258715985
 20
20.3121759214
 10
21.227995641
 20
20.316687753
 10
21.2297657198
 20
20.3215197084
 10
21.2312048509
 20
20.3267736726
 10
21.2323285347
 20
20.3325951449
 10
21.2331466575
 20
20.339210854
 10
21.2336666688
 20
20.347025952
 10
21.2339021472
 20
20.356959025
 10
21.2339290847
 20
20.3661503594
 10
21.2339290847
 20
20.6429526984
 10
21.233908247
 20
20.6514584372
 10
21.2336896548
 20
20.6616379379
 10
21.233188635
 20
20.6695813514
 10
21.2323909731
 20
20.676274544
 10
21.2312897539
 20
20.682143299
 10
21.2298760077
 20
20.6874232372
 10
21.2281353816
 20
20.69226447
 10
21.2260461793
 20
20.6967715581
 10
21.2235779387
 20
20.7010216219
 10
21.22069033
 20
20.7050735251
 10
21.2173322734
 20
20.7089729627
 10
21.2134495527
 20
20.7127480584
 10
21.2089948412
 20
20.7164089368
 10
21.2038898019
 20
20.7199817609
 10
21.1980433308
 20
20.7234862728
 10
21.1913505487
 20
20.7269371277
 10
21.1836914518
 20
20.730344958
  0
LWPOLYLINE
  5
2DB
100
AcDbEntity
  8
INTF_1
100
AcDbPolyline
 62
7
  6
CONTINUOUS
 90
19
 70
0
 10
21.8261716857
 20
20.730344958
 10
21.8183620963
 20
20.7268662958
 10
21.8115566327
 20
20.7233424919
 10
21.8056282106
 20
20.7197620888
 10
21.8004660928
 20
20.7161092089
 10
21.7959744185
 20
20.7123623593
 10
21.7939524348
 20
20.7104436933
 10
21.7920711127
 20
20.7084929206
 10
21.7887101796
 20
20.7044934074
 10
21.7858315415
 20
20.7003292243
 10
21.7833825646
 20
20.6959499444
 10
21.7813221525
 20
20.6912901627
 10
21.7796197273
 20
20.6862633095
 10
21.7782539402
 20
20.680750164
 10
21.7772109832
 20
20.6745754141
 10
21.7764821642
 20
20.6674533489
 10
21.7760593008
 20
20.6588338964
 10
21.7759181695
 20
20.6472669488
 10
21.7759155347
 20
20.253775391
  0
LWPOLYLINE
  5
2DC
100
AcDbEntity
  8
INTF_1
100
AcDbPolyline
 62
7
  6
CONTINUOUS
 90
19
 70
0
 10
21.0803310729
 20
20.730344958
 10
21.0749504405
 20
20.7286415908
 10
21.0724366491
 20
20.7276670653
 10
21.070037058
 20
20.7266140509
 10
21.065567843
 20
20.7242815109
 10
21.0615041468
 20
20.7216508349
 10
21.0578122098
 20
20.7187217723
 10
21.0544636275
 20
20.7154868224
 10
21.0514357321
 20
20.7119312019
 10
21.048711823
 20
20.7080328557
 10
21.0462811897
 20
20.7037623765
 10
21.0441388946
 20
20.6990826099
 10
21.0422852999
 20
20.6939475601
 10
21.0407253354
 20
20.6882998847
 10
21.0394674827
 20
20.6820654728
 10
21.0385223834
 20
20.6751414125
 10
21.0379007732
 20
20.667366593
 10
21.0376096488
 20
20.6584351553
 10
21.0376401399
 20
20.647531361
  0
LWPOLYLINE
  5
2DD
100
AcDbEntity
  8
INTF_1
100
AcDbPolyline
 62
7
  6
CONTINUOUS
 90
20
 70
0
 10
18.9278515529
 20
20.2780636727
 10
18.93304827
 20
20.2796977743
 10
18.9354817035
 20
20.280627067
 10
18.9378086306
 20
20.2816282927
 10
18.9421523728
 20
20.2838376062
 10
18.9461137749
 20
20.2863185342
 10
18.9497238885
 20
20.2890702093
 10
18.9530092658
 20
20.2920979015
 10
18.9559916284
 20
20.2954130804
 10
18.9586876415
 20
20.2990334342
 10
18.9611088386
 20
20.3029829346
 10
18.9632617282
 20
20.3072920972
 10
18.9651480988
 20
20.3119986925
 10
18.9667655259
 20
20.3171493505
 10
18.9681080893
 20
20.3228029363
 10
18.9691673362
 20
20.3290376485
 10
18.9699336101
 20
20.3359669029
 10
18.9703981261
 20
20.3437797474
 10
18.9705573411
 20
20.3528704839
 10
18.9703393795
 20
20.3730946302
  0
LWPOLYLINE
  5
2DE
100
AcDbEntity
  8
INTF_1
100
AcDbPolyline
 62
7
  6
CONTINUOUS
 90
21
 70
0
 10
20.5943765554
 20
20.730344958
 10
20.5891602509
 20
20.7287369397
 10
20.5843849117
 20
20.7268380703
 10
20.5800267965
 20
20.7246644012
 10
20.5760549932
 20
20.7222250675
 10
20.5724379522
 20
20.7195217221
 10
20.5691485348
 20
20.716550019
 10
20.5661643476
 20
20.7132995337
 10
20.5634679834
 20
20.70975373
 10
20.5610471225
 20
20.7058898967
 10
20.5588944594
 20
20.7016789142
 10
20.5570074406
 20
20.6970846206
 10
20.5553878069
 20
20.6920623743
 10
20.5540409403
 20
20.6865560392
 10
20.5529749951
 20
20.6804917019
 10
20.5521997381
 20
20.6737638612
 10
20.5517248556
 20
20.6662013177
 10
20.5515568084
 20
20.6574632881
 10
20.5516876489
 20
20.6465633443
 10
20.5517260475
 20
20.6447147607
 10
20.5518702107
 20
20.6346084626
  0
LWPOLYLINE
  5
2DF
100
AcDbEntity
  8
INTF_1
100
AcDbPolyline
 62
7
  6
CONTINUOUS
 90
19
 70
0
 10
20.8967523291
 20
20.2780636727
 10
20.9021283239
 20
20.2796859188
 10
20.9046400034
 20
20.2806219216
 10
20.9070376589
 20
20.2816377528
 10
20.911501354
 20
20.2838985981
 10
20.9155586628
 20
20.28646071
 10
20.9192440406
 20
20.2893236967
 10
20.9225865135
 20
20.2924946148
 10
20.9256092737
 20
20.2959879994
 10
20.9283294301
 20
20.2998258414
 10
20.9307579714
 20
20.3040376403
 10
20.9328999781
 20
20.3086607619
 10
20.9347550977
 20
20.3137414806
 10
20.9363182864
 20
20.3193374108
 10
20.9375808362
 20
20.3255228059
 10
20.9385317761
 20
20.3324003331
 10
20.9391599349
 20
20.3401297875
 10
20.9394577184
 20
20.3490121781
 10
20.9394327743
 20
20.3598402682
  0
LWPOLYLINE
  5
2E0
100
AcDbEntity
  8
INTF_1
100
AcDbPolyline
 62
7
  6
CONTINUOUS
 90
19
 70
0
 10
19.3365061511
 20
20.2780636727
 10
19.3419860109
 20
20.2796847656
 10
19.3445454155
 20
20.2806195318
 10
19.3469890201
 20
20.2816339476
 10
19.3515394122
 20
20.2838914596
 10
19.355674403
 20
20.2864477755
 10
19.3594292364
 20
20.2893014974
 10
19.3628338294
 20
20.2924585425
 10
19.3659123599
 20
20.2959321986
 10
19.3686829942
 20
20.2997431183
 10
19.3711578165
 20
20.3039193709
 10
19.3733429995
 20
20.3084967626
 10
19.3752392355
 20
20.3135197791
 10
19.3768424322
 20
20.3190437983
 10
19.3781446939
 20
20.3251399148
 10
19.379135663
 20
20.331905589
 10
19.3798044788
 20
20.3394902343
 10
19.3801432543
 20
20.348168142
 10
19.3801569564
 20
20.3586261197
  0
LWPOLYLINE
  5
2E1
100
AcDbEntity
  8
INTF_1
100
AcDbPolyline
 62
7
  6
CONTINUOUS
 90
40
 70
0
 10
19.8166552582
 20
20.2780636727
 10
19.8221153218
 20
20.2796794321
 10
19.8270904955
 20
20.2816200975
 10
19.8316089346
 20
20.283867014
 10
19.8357059212
 20
20.2864092953
 10
19.839417825
 20
20.2892454336
 10
19.8427755107
 20
20.2923814055
 10
19.8458039134
 20
20.2958307482
 10
19.8485217585
 20
20.2996145775
 10
19.8509414897
 20
20.3037616749
 10
19.8530694476
 20
20.3083088705
 10
19.8549063162
 20
20.3133021083
 10
19.856447838
 20
20.3187989041
 10
19.8576858089
 20
20.3248736815
 10
19.8586094173
 20
20.3316295894
 10
19.8592071521
 20
20.3392271972
 10
19.8594701133
 20
20.3479680477
 10
19.8594016857
 20
20.3586398716
 10
19.8593261383
 20
20.3624479359
 10
19.8591708619
 20
20.3730946302
 10
19.8591708619
 20
20.6346084626
 10
19.8593261383
 20
20.6454386528
 10
19.8593889019
 20
20.6485927697
 10
19.8594748762
 20
20.6595050706
 10
19.8592311364
 20
20.6683511519
 10
19.8586529624
 20
20.6760102303
 10
19.8577485559
 20
20.6828097039
 10
19.8565287558
 20
20.6889209656
 10
19.8550037046
 20
20.6944525658
 10
19.8531809522
 20
20.6994818699
 10
19.8510641278
 20
20.7040680668
 10
19.8486519504
 20
20.7082580758
 10
19.845937516
 20
20.7120893161
 10
19.8429078503
 20
20.7155909599
 10
19.8395437235
 20
20.7187844377
 10
19.8358197097
 20
20.721683609
 10
19.8317044503
 20
20.7242948362
 10
19.8271610569
 20
20.7266170964
 10
19.8221545032
 20
20.728639728
 10
19.8166552582
 20
20.730344958
  0
LWPOLYLINE
  5
2E2
100
AcDbEntity
  8
INTF_1
100
AcDbPolyline
 62
7
  6
CONTINUOUS
 90
19
 70
0
 10
20.4098478354
 20
20.2780636727
 10
20.4153277336
 20
20.2796847759
 10
20.4178871643
 20
20.2806195499
 10
20.4203307969
 20
20.2816339745
 10
20.4248812512
 20
20.2838915071
 10
20.4290163159
 20
20.2864478503
 10
20.4327712328
 20
20.2893016063
 10
20.4361759172
 20
20.2924586924
 10
20.4392545452
 20
20.2959323958
 10
20.4420252823
 20
20.2997433681
 10
20.4445002118
 20
20.3039196773
 10
20.4466855062
 20
20.3084971277
 10
20.4485818575
 20
20.3135202018
 10
20.450185174
 20
20.3190442737
 10
20.4514875602
 20
20.3251404312
 10
20.4524786595
 20
20.3319061236
 10
20.453147612
 20
20.339490743
 10
20.4534865325
 20
20.3481685284
 10
20.4535003897
 20
20.3586261014
  0
LWPOLYLINE
  5
2E3
100
AcDbEntity
  8
INTF_1
100
AcDbPolyline
 62
7
  6
CONTINUOUS
 90
23
 70
0
 10
19.3801569564
 20
20.3586261197
 10
19.3799791383
 20
20.3730946302
 10
19.3799791383
 20
20.6346084626
 10
19.3801175077
 20
20.6463425263
 10
19.3801489015
 20
20.6486277374
 10
19.3801525047
 20
20.6593052161
 10
19.3798329735
 20
20.6680835743
 10
19.3791838641
 20
20.6757281119
 10
19.3782122713
 20
20.6825368298
 10
19.3769283336
 20
20.6886693698
 10
19.3753417095
 20
20.6942283802
 10
19.373459622
 20
20.699287807
 10
19.3712855212
 20
20.7039046569
 10
19.3688181086
 20
20.7081243649
 10
19.3660506409
 20
20.7119833069
 10
19.3629704978
 20
20.7155099257
 10
19.3595590044
 20
20.71872517
 10
19.3557914899
 20
20.721642629
 10
19.3516375435
 20
20.7242685822
 10
19.3470614055
 20
20.7266020899
 10
19.3446025223
 20
20.72765694
 10
19.3420261551
 20
20.7286338556
 10
19.3365061511
 20
20.730344958
  0
LWPOLYLINE
  5
2E4
100
AcDbEntity
  8
INTF_1
100
AcDbPolyline
 62
7
  6
CONTINUOUS
 90
23
 70
0
 10
20.4535003897
 20
20.3586261014
 10
20.4533226744
 20
20.3730946302
 10
20.4533226744
 20
20.6346084626
 10
20.4534610044
 20
20.6463444947
 10
20.4534923436
 20
20.6486277949
 10
20.4534957915
 20
20.6593048303
 10
20.4531761155
 20
20.6680830571
 10
20.4525268696
 20
20.6757275655
 10
20.4515551471
 20
20.6825363007
 10
20.4502710851
 20
20.6886688814
 10
20.4486843416
 20
20.6942279448
 10
20.4468021387
 20
20.69928743
 10
20.4446279265
 20
20.7039043394
 10
20.4421604064
 20
20.708124105
 10
20.4393928354
 20
20.7119831008
 10
20.436312594
 20
20.7155097682
 10
20.4329010084
 20
20.7187250548
 10
20.4291334093
 20
20.7216425493
 10
20.4249793876
 20
20.7242685312
 10
20.4204031859
 20
20.7266020607
 10
20.4179442738
 20
20.7276569202
 10
20.4153678798
 20
20.7286338442
 10
20.4098478354
 20
20.730344958
  0
LINE
  5
2E5
100
AcDbEntity
  8
INTF_1
100
AcDbLine
 62
7
  6
CONTINUOUS
 10
19.3365061511
 20
20.275965577
 11
19.3365061511
 21
20.2780636727
  0
LINE
  5
2E6
100
AcDbEntity
  8
INTF_1
100
AcDbLine
 62
7
  6
CONTINUOUS
 10
19.3365061511
 20
20.730344958
 11
19.3365061511
 21
20.7324337946
  0
LINE
  5
2E7
100
AcDbEntity
  8
INTF_1
100
AcDbLine
 62
7
  6
CONTINUOUS
 10
19.4785285264
 20
20.6776388683
 11
19.4785285264
 21
20.5486087608
  0
LINE
  5
2E8
100
AcDbEntity
  8
INTF_1
100
AcDbLine
 62
7
  6
CONTINUOUS
 10
19.4785285264
 20
20.4986433433
 11
19.4785285264
 21
20.3342326388
  0
LINE
  5
2E9
100
AcDbEntity
  8
INTF_1
100
AcDbLine
 62
7
  6
CONTINUOUS
 10
19.6389078501
 20
20.552758657
 11
19.6389078501
 21
20.4792382728
  0
LINE
  5
2EA
100
AcDbEntity
  8
INTF_1
100
AcDbLine
 62
7
  6
CONTINUOUS
 10
19.6939731401
 20
20.735887412
 11
19.6939731401
 21
20.6547172191
  0
LINE
  5
2EB
100
AcDbEntity
  8
INTF_1
100
AcDbLine
 62
7
  6
CONTINUOUS
 10
19.8166552582
 20
20.275965577
 11
19.8166552582
 21
20.2780636727
  0
LINE
  5
2EC
100
AcDbEntity
  8
INTF_1
100
AcDbLine
 62
7
  6
CONTINUOUS
 10
19.8166552582
 20
20.730344958
 11
19.8166552582
 21
20.7324337946
  0
LWPOLYLINE
  5
2ED
100
AcDbEntity
  8
INTF_1
100
AcDbPolyline
 62
7
  6
CONTINUOUS
 90
24
 70
0
 10
19.9577109909
 20
20.6838683421
 10
19.9577109909
 20
20.3730946302
 10
19.9576031006
 20
20.363343176
 10
19.9575173432
 20
20.3568354645
 10
19.9575452104
 20
20.3479677896
 10
19.9578088066
 20
20.3404906263
 10
19.958308358
 20
20.3338878645
 10
19.9590386173
 20
20.3279394927
 10
19.9599927791
 20
20.3225239311
 10
19.961164013
 20
20.3175626001
 10
19.9625463723
 20
20.3129991378
 10
19.9641354398
 20
20.3087901946
 10
19.9659288267
 20
20.3049009171
 10
19.9679265636
 20
20.3013026026
 10
19.9701313986
 20
20.2979714567
 10
19.9725490055
 20
20.2948879499
 10
19.9751880995
 20
20.2920365046
 10
19.9780604662
 20
20.2894053623
 10
19.9811809071
 20
20.2869865319
 10
19.98456712
 20
20.2847757626
 10
19.9882395286
 20
20.2827725009
 10
19.9922210856
 20
20.2809798162
 10
19.9965287114
 20
20.2794070108
 10
20.0011839782
 20
20.2780636727
  0
LINE
  5
2EE
100
AcDbEntity
  8
INTF_1
100
AcDbLine
 62
7
  6
CONTINUOUS
 10
20.0011839782
 20
20.2780636727
 11
20.0011839782
 21
20.275965577
  0
LINE
  5
2EF
100
AcDbEntity
  8
INTF_1
100
AcDbLine
 62
7
  6
CONTINUOUS
 10
20.4098478354
 20
20.275965577
 11
20.4098478354
 21
20.2780636727
  0
LINE
  5
2F0
100
AcDbEntity
  8
INTF_1
100
AcDbLine
 62
7
  6
CONTINUOUS
 10
20.4098478354
 20
20.730344958
 11
20.4098478354
 21
20.7324337946
  0
LINE
  5
2F1
100
AcDbEntity
  8
INTF_1
100
AcDbLine
 62
7
  6
CONTINUOUS
 10
20.5518702107
 20
20.6346084626
 11
20.5518702107
 21
20.3321697274
  0
LINE
  5
2F2
100
AcDbEntity
  8
INTF_1
100
AcDbLine
 62
7
  6
CONTINUOUS
 10
20.5943765554
 20
20.7324337946
 11
20.5943765554
 21
20.730344958
  0
LWPOLYLINE
  5
2F3
100
AcDbEntity
  8
INTF_1
100
AcDbPolyline
 62
7
  6
CONTINUOUS
 90
3
 70
0
 10
20.8885136462
 20
19.8934881021
 10
20.9443937307
 20
20.0308365202
 10
20.9454881477
 20
20.0337105224
  0
LINE
  5
2F4
100
AcDbEntity
  8
INTF_1
100
AcDbLine
 62
7
  6
CONTINUOUS
 10
20.9454881477
 20
20.0058612187
 11
20.9214720815
 21
19.9469441731
  0
LINE
  5
2F5
100
AcDbEntity
  8
INTF_1
100
AcDbLine
 62
7
  6
CONTINUOUS
 10
20.8571570227
 20
20.368211419
 11
20.8069379079
 21
20.275965577
  0
LINE
  5
2F6
100
AcDbEntity
  8
INTF_1
100
AcDbLine
 62
7
  6
CONTINUOUS
 10
21.2109703994
 20
20.0270921694
 11
21.1460664665
 21
19.9488070895
  0
LINE
  5
2F7
100
AcDbEntity
  8
INTF_1
100
AcDbLine
 62
7
  6
CONTINUOUS
 10
22.0084412029
 20
19.9242132599
 11
22.0061986664
 21
19.9215188828
  0
LINE
  5
2F8
100
AcDbEntity
  8
INTF_1
100
AcDbLine
 62
7
  6
CONTINUOUS
 10
22.0061986664
 20
19.9215188828
 11
21.9631756679
 21
19.9019693716
  0
LINE
  5
2F9
100
AcDbEntity
  8
230
100
AcDbLine
 62
2
  6
CENTER
 10
26.9877821038
 20
14.9288309364
 11
25.9271636199
 21
14.9288309364
  0
LINE
  5
2FA
100
AcDbEntity
  8
DEFAULT_1
100
AcDbLine
 62
2
  6
CENTER
 10
7.116988886
 20
14.9288309364
 11
8.1776073699
 21
14.9288309364
  0
LINE
  5
2FB
100
AcDbEntity
  8
INTF_1
100
AcDbLine
 62
7
  6
CONTINUOUS
 10
18.3191963993
 20
20.2856764453
 11
18.2911859884
 21
20.3723890923
  0
LWPOLYLINE
  5
2FC
100
AcDbEntity
  8
INTF_1
100
AcDbPolyline
 62
7
  6
CONTINUOUS
 90
22
 70
0
 10
20.9394327743
 20
20.3598402682
 10
20.9392679329
 20
20.3730946302
 10
20.9392679329
 20
20.6346084626
 10
20.9394234575
 20
20.645423145
 10
20.9394873117
 20
20.6486163517
 10
20.9395741405
 20
20.6595253183
 10
20.9393310697
 20
20.6683685722
 10
20.9387534727
 20
20.6760250805
 10
20.9378495803
 20
20.6828222103
 10
20.9366302398
 20
20.6889313521
 10
20.9351055922
 20
20.6944610572
 10
20.9332831788
 20
20.6994886896
 10
20.931166614
 20
20.7040734342
 10
20.9287545975
 20
20.7082622028
 10
20.9260402011
 20
20.7120924042
 10
20.9230104227
 20
20.7155931971
 10
20.919646001
 20
20.7187859958
 10
20.9159214766
 20
20.7216846413
 10
20.9118054547
 20
20.7242954763
 10
20.9072610093
 20
20.7266174577
 10
20.9022531906
 20
20.7286398631
 10
20.8967523291
 20
20.730344958
  0
LWPOLYLINE
  5
2FD
100
AcDbEntity
  8
INTF_1
100
AcDbPolyline
 62
7
  6
CONTINUOUS
 90
3
 70
0
 10
21.0376401399
 20
20.647531361
 10
21.0377988029
 20
20.6346084626
 10
21.0377988029
 20
20.3730946302
  0
LINE
  5
2FE
100
AcDbEntity
  8
INTF_1
100
AcDbLine
 62
7
  6
CONTINUOUS
 10
20.8967523291
 20
20.275965577
 11
20.8967523291
 21
20.2780636727
  0
LINE
  5
2FF
100
AcDbEntity
  8
INTF_1
100
AcDbLine
 62
7
  6
CONTINUOUS
 10
20.8967523291
 20
20.730344958
 11
20.8967523291
 21
20.7324337946
  0
LWPOLYLINE
  5
300
100
AcDbEntity
  8
INTF_1
100
AcDbPolyline
 62
7
  6
CONTINUOUS
 90
7
 70
0
 10
21.0653221889
 20
19.8626722059
 10
21.0653221889
 20
20.0271643898
 10
21.1102784723
 20
20.0271643898
 10
21.1102784723
 20
19.9778859921
 10
21.1099266293
 20
19.9778859921
 10
21.1527311147
 20
20.0270921694
 10
21.2109703994
 20
20.0270921694
  0
LINE
  5
301
100
AcDbEntity
  8
INTF_1
100
AcDbLine
 62
7
  6
CONTINUOUS
 10
21.0803310729
 20
20.7324337946
 11
21.0803310729
 21
20.730344958
  0
LINE
  5
302
100
AcDbEntity
  8
INTF_1
100
AcDbLine
 62
7
  6
CONTINUOUS
 10
21.0803310729
 20
20.2780636727
 11
21.0803310729
 21
20.275965577
  0
LINE
  5
303
100
AcDbEntity
  8
INTF_1
100
AcDbLine
 62
7
  6
CONTINUOUS
 10
21.1827229575
 20
20.275965577
 11
21.1827229575
 21
20.2780636727
  0
LINE
  5
304
100
AcDbEntity
  8
INTF_1
100
AcDbLine
 62
7
  6
CONTINUOUS
 10
21.1836914518
 20
20.730344958
 11
21.1836914518
 21
20.7324337946
  0
LWPOLYLINE
  5
305
100
AcDbEntity
  8
INTF_1
100
AcDbPolyline
 62
7
  6
CONTINUOUS
 90
24
 70
0
 10
21.3034977158
 20
20.6346084626
 10
21.3034977158
 20
20.3661503594
 10
21.3035227862
 20
20.3547248766
 10
21.3036942628
 20
20.3467343836
 10
21.3040457484
 20
20.3402885621
 10
21.3045834819
 20
20.3347553999
 10
21.3053102428
 20
20.3298438264
 10
21.3062291062
 20
20.3253883462
 10
21.3073447851
 20
20.3212823223
 10
21.3086643818
 20
20.3174510753
 10
21.3101979232
 20
20.3138391628
 10
21.3119587833
 20
20.3104036891
 10
21.3139640289
 20
20.307110507
 10
21.3162347054
 20
20.3039319269
 10
21.3187960799
 20
20.3008452556
 10
21.3201955781
 20
20.2993296843
 10
21.3216778596
 20
20.2978318097
 10
21.3249002535
 20
20.294888317
 10
21.3284977003
 20
20.2920014294
 10
21.3325108213
 20
20.289159023
 10
21.3369852945
 20
20.2863512571
 10
21.3419721777
 20
20.2835701741
 10
21.3475283139
 20
20.280809363
 10
21.3537168307
 20
20.2780636727
  0
LINE
  5
306
100
AcDbEntity
  8
INTF_1
100
AcDbLine
 62
7
  6
CONTINUOUS
 10
21.3247379255
 20
20.7324337946
 11
21.3247379255
 21
20.7317282567
  0
LINE
  5
307
100
AcDbEntity
  8
INTF_1
100
AcDbLine
 62
7
  6
CONTINUOUS
 10
21.3537168307
 20
20.2780636727
 11
21.3537168307
 21
20.275965577
  0
LWPOLYLINE
  5
308
100
AcDbEntity
  8
INTF_1
100
AcDbPolyline
 62
7
  6
CONTINUOUS
 90
7
 70
0
 10
21.3681664694
 20
19.8626722059
 10
21.3681664694
 20
20.0271643898
 10
21.4130505325
 20
20.0271643898
 10
21.4130505325
 20
19.9694769431
 10
21.4584419902
 20
19.9694769431
 10
21.4584419902
 20
20.0271643898
 10
21.5033167943
 20
20.0271643898
  0
LWPOLYLINE
  5
309
100
AcDbEntity
  8
INTF_1
100
AcDbPolyline
 62
7
  6
CONTINUOUS
 90
7
 70
0
 10
21.5033167943
 20
20.0271643898
 10
21.5033167943
 20
19.8626722059
 10
21.4584419902
 20
19.8626722059
 10
21.4584419902
 20
19.9238688241
 10
21.4130505325
 20
19.9238688241
 10
21.4130505325
 20
19.8626722059
 10
21.3681664694
 20
19.8626722059
  0
LWPOLYLINE
  5
30A
100
AcDbEntity
  8
INTF_1
100
AcDbPolyline
 62
7
  6
CONTINUOUS
 90
3
 70
0
 10
21.5163368391
 20
19.8626722059
 10
21.5163368391
 20
20.0271643898
 10
21.5612949744
 20
20.0271643898
  0
LWPOLYLINE
  5
30B
100
AcDbEntity
  8
INTF_1
100
AcDbPolyline
 62
7
  6
CONTINUOUS
 90
4
 70
0
 10
21.5612949744
 20
20.0271643898
 10
21.5612949744
 20
19.9046637487
 10
21.6117677866
 20
19.9046637487
 10
21.6117677866
 20
19.8626722059
  0
LINE
  5
30C
100
AcDbEntity
  8
INTF_1
100
AcDbLine
 62
7
  6
CONTINUOUS
 10
21.6236656373
 20
19.8626722059
 11
21.6236656373
 21
20.0271643898
  0
LINE
  5
30D
100
AcDbEntity
  8
INTF_1
100
AcDbLine
 62
7
  6
CONTINUOUS
 10
21.6561277887
 20
20.730344958
 11
21.6561277887
 21
20.7324337946
  0
LWPOLYLINE
  5
30E
100
AcDbEntity
  8
INTF_1
100
AcDbPolyline
 62
7
  6
CONTINUOUS
 90
10
 70
0
 10
21.7149003934
 20
20.0271643898
 10
21.7149003934
 20
19.9892431156
 10
21.669744115
 20
19.9891708952
 10
21.6695459718
 20
19.9632196921
 10
21.7112838172
 20
19.9632196921
 10
21.7112838172
 20
19.926365058
 10
21.6696718945
 20
19.926365058
 10
21.6696718945
 20
19.9012638337
 10
21.7152448293
 20
19.9012638337
 10
21.7152448293
 20
19.8626722059
  0
LINE
  5
30F
100
AcDbEntity
  8
INTF_1
100
AcDbLine
 62
7
  6
CONTINUOUS
 10
21.7271260137
 20
19.8627814624
 11
21.7271260137
 21
20.0271643898
  0
LINE
  5
310
100
AcDbEntity
  8
INTF_1
100
AcDbLine
 62
7
  6
CONTINUOUS
 10
21.7710341752
 20
19.9890616387
 11
21.7710341752
 21
19.9573790974
  0
LINE
  5
311
100
AcDbEntity
  8
INTF_1
100
AcDbLine
 62
7
  6
CONTINUOUS
 10
21.7711063957
 20
19.9131450181
 11
21.7711063957
 21
19.8627814624
  0
LINE
  5
312
100
AcDbEntity
  8
INTF_1
100
AcDbLine
 62
7
  6
CONTINUOUS
 10
21.8261716857
 20
20.7324337946
 11
21.8261716857
 21
20.730344958
  0
LINE
  5
313
100
AcDbEntity
  8
INTF_1
100
AcDbLine
 62
7
  6
CONTINUOUS
 10
22.0084412029
 20
19.9208133449
 11
22.0084412029
 21
19.9242132599
  0
LINE
  5
314
100
AcDbEntity
  8
INTF_1
100
AcDbLine
 62
7
  6
CONTINUOUS
 10
22.0084412029
 20
19.9957892483
 11
22.0084412029
 21
20.0107259119
  0
LWPOLYLINE
  5
315
100
AcDbEntity
  8
INTF_1
100
AcDbPolyline
 62
7
  6
CONTINUOUS
 90
24
 70
0
 10
21.7063654216
 20
20.380020383
 10
21.7063664085
 20
20.6459017481
 10
21.7063176602
 20
20.6562793522
 10
21.7061105874
 20
20.663787835
 10
21.7057246562
 20
20.6699534546
 10
21.7051553367
 20
20.6752905818
 10
21.7044002644
 20
20.680050497
 10
21.703456461
 20
20.6843808426
 10
21.7023192141
 20
20.6883787688
 10
21.7009814064
 20
20.6921132859
 10
21.6994330219
 20
20.695636128
 10
21.6976607506
 20
20.6989875751
 10
21.6956476648
 20
20.702199806
 10
21.6933729505
 20
20.7052989415
 10
21.6908116803
 20
20.7083063602
 10
21.6894137846
 20
20.7097821397
 10
21.6879346079
 20
20.7112395957
 10
21.6847232651
 20
20.71410022
 10
21.6811426427
 20
20.7169019018
 10
21.6771529144
 20
20.719655783
 10
21.6727093529
 20
20.722370759
 10
21.6677620195
 20
20.7250538524
 10
21.6622553728
 20
20.7277105275
 10
21.6561277887
 20
20.730344958
  0
LWPOLYLINE
  5
316
100
AcDbEntity
  8
INTF_1
100
AcDbPolyline
 62
7
  6
CONTINUOUS
 90
20
 70
0
 10
21.0377988029
 20
20.3730946302
 10
21.0376472725
 20
20.360709772
 10
21.0376048741
 20
20.3497541461
 10
21.0378825877
 20
20.3408353431
 10
21.0384905622
 20
20.3330893799
 10
21.0394222346
 20
20.3261984367
 10
21.0406672074
 20
20.3199968302
 10
21.0422151802
 20
20.3143795273
 10
21.0440580471
 20
20.3092713513
 10
21.0461913029
 20
20.3046144312
 10
21.0486150672
 20
20.3003625526
 10
21.0513348198
 20
20.2964785382
 10
21.0543618713
 20
20.2929330914
 10
21.0577135746
 20
20.2897043604
 10
21.0614132945
 20
20.2867778281
 10
21.0654901708
 20
20.2841462966
 10
21.0699787323
 20
20.2818098324
 10
21.0723907927
 20
20.2807537075
 10
21.0749184306
 20
20.279775611
 10
21.0803310729
 20
20.2780636727
  0
LWPOLYLINE
  5
317
100
AcDbEntity
  8
INTF_1
100
AcDbPolyline
 62
7
  6
CONTINUOUS
 90
137
 70
0
 10
21.1893598286
 20
19.9463108556
 10
21.1894355962
 20
19.9504223378
 10
21.1897023263
 20
19.9545090174
 10
21.1901589629
 20
19.9585655479
 10
21.1908043175
 20
19.9625861809
 10
21.1916370091
 20
19.966564762
 10
21.1926554031
 20
19.9704947374
 10
21.1938575506
 20
19.9743691708
 10
21.1952411311
 20
19.9781807719
 10
21.1968033997
 20
19.9819219372
 10
21.1985411424
 20
19.9855848026
 10
21.2004506407
 20
19.9891613072
 10
21.2025276486
 20
19.992643267
 10
21.2047673834
 20
19.9960224563
 10
21.2071645311
 20
19.9992906951
 10
21.209713268
 20
20.0024399377
 10
21.2102141772
 20
20.0030242192
 10
21.2129337373
 20
20.0060202906
 10
21.2157884637
 20
20.0088788999
 10
21.2187710315
 20
20.0115933441
 10
21.221873921
 20
20.0141574177
 10
21.2250895039
 20
20.0165654474
 10
21.2284101297
 20
20.0188123096
 10
21.2318282091
 20
20.0208934318
 10
21.2353362915
 20
20.0228047793
 10
21.2389271343
 20
20.0245428276
 10
21.2425937627
 20
20.0261045231
 10
21.2463295179
 20
20.0274872339
 10
21.2501280942
 20
20.0286886939
 10
21.2539835641
 20
20.0297069419
 10
21.2578903926
 20
20.030540258
 10
21.2618434409
 20
20.0311871004
 10
21.2658379607
 20
20.031646043
 10
21.2698695807
 20
20.0319157167
 10
21.2739342865
 20
20.0319947549
 10
21.277987053
 20
20.0318824013
 10
21.2820120831
 20
20.0315794455
 10
21.2860051098
 20
20.03108698
 10
21.2899614663
 20
20.0304061275
 10
21.2938760661
 20
20.0295381029
 10
21.2977433904
 20
20.0284842786
 10
21.3015574858
 20
20.0272462529
 10
21.3053119712
 20
20.0258259197
 10
21.3090000581
 20
20.024225536
 10
21.3126145825
 20
20.0224477865
 10
21.3161480498
 20
20.0204958419
 10
21.3195926928
 20
20.0183734074
 10
21.3229405414
 20
20.0160847604
 10
21.326183503
 20
20.013634774
 10
21.3293134503
 20
20.0110289235
 10
21.3323223162
 20
20.0082732775
 10
21.3352021888
 20
20.0053744687
 10
21.3379454064
 20
20.0023396494
 10
21.3380122972
 20
20.0022619554
 10
21.3406061131
 20
19.9990978319
 10
21.3430473861
 20
19.9958160722
 10
21.3453301266
 20
19.9924250978
 10
21.3474489136
 20
19.988933442
 10
21.3493989143
 20
19.9853496519
 10
21.3511758858
 20
19.9816821945
 10
21.3527761605
 20
19.9779393699
 10
21.3541966166
 20
19.9741292342
 10
21.3554346359
 20
19.9702595337
 10
21.3564880513
 20
19.9663376521
 10
21.3573550869
 20
19.962370571
 10
21.3580342934
 20
19.9583648435
 10
21.35852448
 20
19.9543265804
 10
21.3588246479
 20
19.950261448
 10
21.3589339239
 20
19.946174676
 10
21.3588517713
 20
19.9420644476
 10
21.358578699
 20
19.9379793731
 10
21.3581157713
 20
19.9339247539
 10
21.3574641813
 20
19.9299062926
 10
21.3566253111
 20
19.9259300977
 10
21.3556007928
 20
19.9220026779
 10
21.3543925697
 20
19.918130926
 10
21.3530029541
 20
19.9143220909
 10
21.3514346798
 20
19.9105837381
 10
21.3496909485
 20
19.9069236974
 10
21.3477754654
 20
19.9033500002
 10
21.3456924631
 20
19.8998708065
 10
21.343446712
 20
19.8964943235
 10
21.3410435159
 20
19.8932287193
 10
21.3384886911
 20
19.8900820333
 10
21.3380122564
 20
19.8895277806
 10
21.335287699
 20
19.8865326688
 10
21.3324278551
 20
19.8836749051
 10
21.3294400608
 20
19.8809612125
 10
21.3263318534
 20
19.8783978193
 10
21.3231108861
 20
19.8759904242
 10
21.3197848405
 20
19.8737441768
 10
21.3163613433
 20
19.8716636752
 10
21.312847888
 20
19.8697529779
 10
21.3092517641
 20
19.8680156304
 10
21.3055799974
 20
19.866454704
 10
21.3018393
 20
19.8650728435
 10
21.2980360325
 20
19.863872323
 10
21.294176178
 20
19.8628551068
 10
21.290265327
 20
19.8620229121
 10
21.2863086727
 20
19.8613772729
 10
21.2823110162
 20
19.8609196021
 10
21.2782767793
 20
19.8606512508
 10
21.2742100248
 20
19.8605735629
 10
21.2701347298
 20
19.8606873703
 10
21.2660868847
 20
19.8609918172
 10
21.2620711832
 20
19.8614857983
 10
21.2580927194
 20
19.8621681351
 10
21.2541570014
 20
19.8630375151
 10
21.2502699563
 20
19.8640924274
 10
21.2464379249
 20
19.8653310978
 10
21.2426676453
 20
19.8667514237
 10
21.238966225
 20
19.8683509127
 10
21.2353411004
 20
19.870126626
 10
21.2317999832
 20
19.8720751296
 10
21.2283507965
 20
19.8741924562
 10
21.2250015992
 20
19.8764740795
 10
21.2217605027
 20
19.8789149035
 10
21.2186355815
 20
19.8815092672
 10
21.2156347811
 20
19.8842509668
 10
21.2127658263
 20
19.8871332945
 10
21.2124274983
 20
19.8874917723
 10
21.209717136
 20
19.8905209296
 10
21.2071553854
 20
19.8936726777
 10
21.2047483681
 20
19.896939007
 10
21.2025016616
 20
19.9003117841
 10
21.2004202782
 20
19.9037828446
 10
21.198508661
 20
19.907344082
 10
21.1967706957
 20
19.9109875316
 10
21.1952097366
 20
19.914705445
 10
21.1938286458
 20
19.9184903546
 10
21.1926298423
 20
19.9223351261
 10
21.191615359
 20
19.926232998
 10
21.1907869043
 20
19.9301776103
 10
21.1901459275
 20
19.9341630189
 10
21.189693684
 20
19.9381837008
 10
21.189431299
 20
19.9422345485
 10
21.1893598286
 20
19.9463108556
  0
LINE
  5
318
100
AcDbEntity
  8
INTF_1
100
AcDbLine
 62
7
  6
CONTINUOUS
 10
22.0079708443
 20
19.9083525453
 11
22.0084412029
 21
19.9208133449
  0
LINE
  5
319
100
AcDbEntity
  8
INTF_1
100
AcDbLine
 62
7
  6
CONTINUOUS
 10
22.4811756805
 20
20.506274634
 11
22.4763461716
 21
20.4764438983
  0
LINE
  5
31A
100
AcDbEntity
  8
INTF_1
100
AcDbLine
 62
7
  6
CONTINUOUS
 10
22.164016943
 20
19.8934881021
 11
22.1858997293
 21
19.9997502603
  0
LINE
  5
31B
100
AcDbEntity
  8
INTF_1
100
AcDbLine
 62
7
  6
CONTINUOUS
 10
22.1827886959
 20
20.0346512396
 11
22.1534023936
 21
19.8934881021
  0
LINE
  5
31C
100
AcDbEntity
  8
INTF_1
100
AcDbLine
 62
7
  6
CONTINUOUS
 10
22.2802436669
 20
20.0346512396
 11
22.2314171098
 21
19.9141764738
  0
LINE
  5
31D
100
AcDbEntity
  8
INTF_1
100
AcDbLine
 62
7
  6
CONTINUOUS
 10
22.2314171098
 20
19.8870493742
 11
22.2770974493
 21
19.9997502603
  0
LWPOLYLINE
  5
31E
100
AcDbEntity
  8
INTF_1
100
AcDbPolyline
 62
7
  6
CONTINUOUS
 90
3
 70
0
 10
22.3649859927
 20
19.8934881021
 10
22.4208290411
 20
20.0308365202
 10
22.4219679015
 20
20.0337105224
  0
LINE
  5
31F
100
AcDbEntity
  8
INTF_1
100
AcDbLine
 62
7
  6
CONTINUOUS
 10
22.4219679015
 20
20.0059334391
 11
22.397935169
 21
19.9469441731
  0
LINE
  5
320
100
AcDbEntity
  8
INTF_1
100
AcDbLine
 62
7
  6
CONTINUOUS
 10
22.6691043155
 20
19.9508329648
 11
22.7137717173
 21
20.0273458667
  0
LINE
  5
321
100
AcDbEntity
  8
INTF_1
100
AcDbLine
 62
7
  6
CONTINUOUS
 10
22.7024164457
 20
20.0273458667
 11
22.6637692637
 21
19.9619900933
  0
LWPOLYLINE
  5
322
100
AcDbEntity
  8
INTF_1
100
AcDbPolyline
 62
7
  6
CONTINUOUS
 90
22
 70
0
 10
19.2389326645
 20
20.6547172191
 10
19.2375060712
 20
20.6572135187
 10
19.2358692362
 20
20.6595898445
 10
19.2340153756
 20
20.661854026
 10
19.2319349097
 20
20.6640120598
 10
19.2296156347
 20
20.6660680441
 10
19.2270429099
 20
20.6680241624
 10
19.2241998416
 20
20.6698807148
 10
19.2210674455
 20
20.6716361914
 10
19.2176247685
 20
20.673287381
 10
19.2138489495
 20
20.6748295055
 10
19.2097151911
 20
20.6762563764
 10
19.2051966005
 20
20.6775605654
 10
19.2002638241
 20
20.6787335923
 10
19.1948843389
 20
20.6797661293
 10
19.1890211253
 20
20.6806482296
 10
19.1826301476
 20
20.6813695924
 10
19.1756553287
 20
20.6819198833
 10
19.1680176597
 20
20.6822891414
 10
19.1595883886
 20
20.6824683185
 10
19.1558551119
 20
20.6824850434
 10
19.0688887676
 20
20.6824850434
  0
LWPOLYLINE
  5
323
100
AcDbEntity
  8
INTF_1
100
AcDbPolyline
 62
7
  6
CONTINUOUS
 90
4
 70
0
 10
20.9454881477
 20
20.0337105224
 10
21.0021367315
 20
19.8934881021
 10
20.9911407101
 20
19.8934881021
 10
20.9741966893
 20
19.9366185053
  0
LINE
  5
324
100
AcDbEntity
  8
INTF_1
100
AcDbLine
 62
7
  6
CONTINUOUS
 10
20.9691875552
 20
19.9469441731
 11
20.9454881477
 21
20.0058612187
  0
LWPOLYLINE
  5
325
100
AcDbEntity
  8
INTF_1
100
AcDbPolyline
 62
7
  6
CONTINUOUS
 90
31
 70
0
 10
22.3778077937
 20
20.4284295741
 10
22.3777667868
 20
20.435659259
 10
22.37763443
 20
20.4414131196
 10
22.3774030149
 20
20.4463857432
 10
22.3770710334
 20
20.4508369539
 10
22.3766386748
 20
20.4548984322
 10
22.3761067379
 20
20.4586487183
 10
22.3754761928
 20
20.4621397965
 10
22.374747944
 20
20.4654086808
 10
22.3739226762
 20
20.468483186
 10
22.3730007395
 20
20.4713850844
 10
22.3719820587
 20
20.4741319553
 10
22.3708660592
 20
20.4767383235
 10
22.3696516043
 20
20.4792163881
 10
22.3683369453
 20
20.4815765012
 10
22.3669196806
 20
20.483827489
 10
22.3653967257
 20
20.4859768706
 10
22.3637642927
 20
20.4880310082
 10
22.3620178785
 20
20.4899952129
 10
22.3601522624
 20
20.4918738196
 10
22.3581615101
 20
20.4936702432
 10
22.3560389841
 20
20.495387022
 10
22.3537773588
 20
20.4970258541
 10
22.3513686386
 20
20.4985876302
 10
22.3501061983
 20
20.4993398277
 10
22.3488042259
 20
20.5000724371
 10
22.3460792006
 20
20.5014775325
 10
22.3431840475
 20
20.5028021413
 10
22.3401086543
 20
20.5040447636
 10
22.3368423301
 20
20.5052032099
 10
22.3333738201
 20
20.506274634
  0
LWPOLYLINE
  5
326
100
AcDbEntity
  8
INTF_1
100
AcDbPolyline
 62
7
  6
CONTINUOUS
 90
137
 70
0
 10
22.5620662508
 20
20.3025760228
 10
22.5620756069
 20
20.3001619232
 10
22.5620133997
 20
20.2979035927
 10
22.561884018
 20
20.2957892265
 10
22.5616913778
 20
20.2938080678
 10
22.5614389448
 20
20.2919502787
 10
22.5611297481
 20
20.2902068356
 10
22.5607663874
 20
20.2885694439
 10
22.5603510336
 20
20.2870304693
 10
22.5598854258
 20
20.2855828837
 10
22.5593708642
 20
20.2842202223
 10
22.5588082005
 20
20.2829365528
 10
22.5581978273
 20
20.281726452
 10
22.5575396671
 20
20.2805849915
 10
22.556833161
 20
20.2795077289
 10
22.5560772599
 20
20.2784907047
 10
22.5552704165
 20
20.2775304416
 10
22.5544105801
 20
20.2766239472
 10
22.5534968054
 20
20.2757701349
 10
22.5525269265
 20
20.2749672035
 10
22.551497754
 20
20.2742132621
 10
22.5504056033
 20
20.2735069138
 10
22.5492462957
 20
20.2728472491
 10
22.5480151576
 20
20.2722338375
 10
22.5467070151
 20
20.2716667172
 10
22.5453161828
 20
20.2711463835
 10
22.5438364457
 20
20.2706737772
 10
22.5422610322
 20
20.2702502736
 10
22.5405825776
 20
20.2698776734
 10
22.5387930755
 20
20.2695581959
 10
22.5368838159
 20
20.2692944767
 10
22.5348453081
 20
20.26908957
 10
22.5326671846
 20
20.2689469565
 10
22.5303380833
 20
20.26887056
 10
22.5290032872
 20
20.2688583534
 10
22.5266165991
 20
20.268891577
 10
22.5243841224
 20
20.2689937265
 10
22.5222941595
 20
20.2691606504
 10
22.520336031
 20
20.2693886587
 10
22.518499956
 20
20.2696745045
 10
22.5167769549
 20
20.2700153731
 10
22.5151587691
 20
20.2704088773
 10
22.5136377968
 20
20.270853059
 10
22.5122070412
 20
20.2713463931
 10
22.5108600709
 20
20.2718877965
 10
22.5095909898
 20
20.2724766382
 10
22.5083944153
 20
20.2731127507
 10
22.5072654645
 20
20.2737964423
 10
22.5061997453
 20
20.2745285081
 10
22.5051933527
 20
20.2753102408
 10
22.504242868
 20
20.2761434397
 10
22.5033461813
 20
20.2770295553
 10
22.5025018682
 20
20.2779698861
 10
22.5017076099
 20
20.278967391
 10
22.5009615815
 20
20.2800255405
 10
22.5002624464
 20
20.2811483193
 10
22.4996093473
 20
20.2823402313
 10
22.4990018973
 20
20.2836063089
 10
22.498440168
 20
20.284952129
 10
22.4979246787
 20
20.2863838364
 10
22.4974563844
 20
20.2879081778
 10
22.4970366672
 20
20.2895325479
 10
22.4966673284
 20
20.2912650491
 10
22.4963505862
 20
20.2931145695
 10
22.4960890777
 20
20.2950908811
 10
22.4958858678
 20
20.2972047635
 10
22.4957444674
 20
20.2994681589
 10
22.495668861
 20
20.301894367
 10
22.4956616743
 20
20.302433638
 10
22.4956806736
 20
20.3042214396
 10
22.4957735216
 20
20.3059602454
 10
22.4959382906
 20
20.3076509075
 10
22.4961732073
 20
20.3092942367
 10
22.4964766545
 20
20.3108909905
 10
22.4968471717
 20
20.3124418596
 10
22.4972834524
 20
20.3139474531
 10
22.4977843394
 20
20.3154082839
 10
22.4983488167
 20
20.316824753
 10
22.4989759987
 20
20.3181971336
 10
22.4996651143
 20
20.319525556
 10
22.5004154892
 20
20.3208099928
 10
22.5012265222
 20
20.3220502445
 10
22.5020976589
 20
20.3232459279
 10
22.5030283599
 20
20.3243964658
 10
22.504018066
 20
20.3255010794
 10
22.5050661591
 20
20.3265587843
 10
22.5061719199
 20
20.32756839
 10
22.5073344828
 20
20.3285285043
 10
22.5085527888
 20
20.3294375421
 10
22.5098255377
 20
20.3302937404
 10
22.5111511407
 20
20.331095179
 10
22.5125276747
 20
20.3318398071
 10
22.5139528411
 20
20.332525477
 10
22.5154239302
 20
20.3331499833
 10
22.516937794
 20
20.3337111086
 10
22.5184908296
 20
20.3342066737
 10
22.5200789752
 20
20.3346345909
 10
22.5216977204
 20
20.3349929206
 10
22.5233421334
 20
20.335279926
 10
22.5250069031
 20
20.3354941265
 10
22.5266863981
 20
20.3356343449
 10
22.5283747399
 20
20.3356997474
 10
22.5295265951
 20
20.3357012099
 10
22.5312141223
 20
20.3356401203
 10
22.5328920644
 20
20.3355042626
 10
22.5345545705
 20
20.3352944946
 10
22.5361960479
 20
20.3350120138
 10
22.537811233
 20
20.3346583179
 10
22.5393952486
 20
20.334235156
 10
22.540943645
 20
20.3337444755
 10
22.542452424
 20
20.3331883668
 10
22.5439180482
 20
20.332569007
 10
22.5453374352
 20
20.3318886062
 10
22.5467079391
 20
20.3311493581
 10
22.5480273222
 20
20.330353394
 10
22.5492937186
 20
20.3295027446
 10
22.5505055914
 20
20.3285993062
 10
22.5516616871
 20
20.3276448149
 10
22.552760987
 20
20.3266408258
 10
22.5538026599
 20
20.3255886992
 10
22.5547860141
 20
20.3244895913
 10
22.5557104525
 20
20.3233444511
 10
22.5565754306
 20
20.3221540208
 10
22.5573804172
 20
20.3209188402
 10
22.55812486
 20
20.3196392551
 10
22.5588081543
 20
20.318315427
 10
22.5594296164
 20
20.3169473463
 10
22.5599884617
 20
20.3155348461
 10
22.5604837854
 20
20.3140776174
 10
22.5609145491
 20
20.3125752247
 10
22.5612795692
 20
20.3110271218
 10
22.5615775099
 20
20.3094326677
 10
22.5618068784
 20
20.3077911416
 10
22.5619660235
 20
20.3061017573
 10
22.562053136
 20
20.3043636769
 10
22.5620690722
 20
20.3034760536
 10
22.5620662508
 20
20.3025760228
  0
LINE
  5
327
100
AcDbEntity
  8
INTF_1
100
AcDbLine
 62
7
  6
CONTINUOUS
 10
22.3213130105
 20
19.8934881021
 11
22.3213130105
 21
20.0273458667
  0
LINE
  5
328
100
AcDbEntity
  8
INTF_1
100
AcDbLine
 62
7
  6
CONTINUOUS
 10
22.3321442212
 20
20.017038717
 11
22.3321442212
 21
19.9661140642
  0
LINE
  5
329
100
AcDbEntity
  8
INTF_1
100
AcDbLine
 62
7
  6
CONTINUOUS
 10
22.3321442212
 20
19.9558235808
 11
22.3321442212
 21
19.8934881021
  0
LINE
  5
32A
100
AcDbEntity
  8
INTF_1
100
AcDbLine
 62
7
  6
CONTINUOUS
 10
22.3333738201
 20
20.506274634
 11
22.3333738201
 21
20.5083449526
  0
LINE
  5
32B
100
AcDbEntity
  8
INTF_1
100
AcDbLine
 62
7
  6
CONTINUOUS
 10
22.3778078944
 20
20.3279920541
 11
22.3778077937
 21
20.4284295741
  0
LINE
  5
32C
100
AcDbEntity
  8
INTF_1
100
AcDbLine
 62
7
  6
CONTINUOUS
 10
22.407753442
 20
20.7317282567
 11
22.407753442
 21
20.6519506216
  0
LINE
  5
32D
100
AcDbEntity
  8
INTF_1
100
AcDbLine
 62
7
  6
CONTINUOUS
 10
22.4763461716
 20
20.4764438983
 11
22.4763461716
 21
20.316897887
  0
LINE
  5
32E
100
AcDbEntity
  8
INTF_1
100
AcDbLine
 62
7
  6
CONTINUOUS
 10
22.4811756805
 20
20.5083449526
 11
22.4811756805
 21
20.506274634
  0
LINE
  5
32F
100
AcDbEntity
  8
INTF_1
100
AcDbLine
 62
7
  6
CONTINUOUS
 10
22.4858237125
 20
20.0308365202
 11
22.4858237125
 21
19.8934881021
  0
LINE
  5
330
100
AcDbEntity
  8
INTF_1
100
AcDbLine
 62
7
  6
CONTINUOUS
 10
22.4966197389
 20
19.8934881021
 11
22.4966197389
 21
20.0044519946
  0
LINE
  5
331
100
AcDbEntity
  8
INTF_1
100
AcDbLine
 62
7
  6
CONTINUOUS
 10
22.5166933111
 20
20.2830172526
 11
22.5166933111
 21
20.320479279
  0
LINE
  5
332
100
AcDbEntity
  8
INTF_1
100
AcDbLine
 62
7
  6
CONTINUOUS
 10
22.5226598286
 20
20.3164460465
 11
22.5226598286
 21
20.3037685856
  0
LINE
  5
333
100
AcDbEntity
  8
INTF_1
100
AcDbLine
 62
7
  6
CONTINUOUS
 10
22.5226598286
 20
20.2991483308
 11
22.5226598286
 21
20.2830172526
  0
LINE
  5
334
100
AcDbEntity
  8
INTF_1
100
AcDbLine
 62
7
  6
CONTINUOUS
 10
22.5350484077
 20
20.301679749
 11
22.5350484077
 21
20.3013816083
  0
LINE
  5
335
100
AcDbEntity
  8
INTF_1
100
AcDbLine
 62
7
  6
CONTINUOUS
 10
22.5961542875
 20
20.0273458667
 11
22.5961542875
 21
19.9144283194
  0
LINE
  5
336
100
AcDbEntity
  8
INTF_1
100
AcDbLine
 62
7
  6
CONTINUOUS
 10
22.6069503139
 20
19.8872493692
 11
22.6069503139
 21
20.0273458667
  0
LINE
  5
337
100
AcDbEntity
  8
INTF_1
100
AcDbLine
 62
7
  6
CONTINUOUS
 10
22.6335700187
 20
20.8349238249
 11
22.6335700187
 21
20.1733736974
  0
LINE
  5
338
100
AcDbEntity
  8
INTF_1
100
AcDbLine
 62
7
  6
CONTINUOUS
 10
22.6425401648
 20
20.843875453
 11
22.6425401648
 21
20.1644220694
  0
LINE
  5
339
100
AcDbEntity
  8
INTF_1
100
AcDbLine
 62
7
  6
CONTINUOUS
 10
22.6691043155
 20
19.8934881021
 11
22.6691043155
 21
19.9508329648
  0
LINE
  5
33A
100
AcDbEntity
  8
INTF_1
100
AcDbLine
 62
7
  6
CONTINUOUS
 10
22.658471248
 20
19.9501811292
 11
22.6582731048
 21
19.8934881021
  0
LWPOLYLINE
  5
33B
100
AcDbEntity
  8
INTF_1
100
AcDbPolyline
 62
7
  6
CONTINUOUS
 90
124
 70
0
 10
18.2911859884
 20
20.3723890923
 10
18.3023929877
 20
20.3660789685
 10
18.3143515381
 20
20.3598923588
 10
18.3269666305
 20
20.3539025546
 10
18.3313163486
 20
20.3519543986
 10
18.3445894247
 20
20.3463553444
 10
18.3582002918
 20
20.3411243218
 10
18.3720372766
 20
20.336306718
 10
18.385995475
 20
20.3319383042
 10
18.3999791237
 20
20.3280455273
 10
18.4139029981
 20
20.3246462272
 10
18.4276929891
 20
20.3217506177
 10
18.4412860501
 20
20.3193623937
 10
18.4546296984
 20
20.3174798598
 10
18.4676812327
 20
20.3160970131
 10
18.480406797
 20
20.3152045357
 10
18.4927803824
 20
20.31479068
 10
18.5047828325
 20
20.3148420397
 10
18.5164008927
 20
20.3153442125
 10
18.5276263257
 20
20.3162823626
 10
18.5384551045
 20
20.3176416952
 10
18.5488866836
 20
20.3194078549
 10
18.5589233462
 20
20.3215672585
 10
18.5685696215
 20
20.324107372
 10
18.5778317649
 20
20.3270169404
 10
18.5867172923
 20
20.3302861755
 10
18.5952345645
 20
20.333906908
 10
18.6022348705
 20
20.3373426838
 10
18.6085304557
 20
20.3409322741
 10
18.6141521459
 20
20.344654214
 10
18.6191309783
 20
20.3484893651
 10
18.6234976326
 20
20.3524212282
 10
18.627281752
 20
20.3564361951
 10
18.6305111681
 20
20.3605237064
 10
18.6332110572
 20
20.3646762764
 10
18.6354030736
 20
20.3688893458
 10
18.6371045244
 20
20.3731609341
 10
18.6383265438
 20
20.3774861307
 10
18.6390764214
 20
20.3818574189
 10
18.6393594387
 20
20.3862760774
 10
18.6391752051
 20
20.3907434045
 10
18.6385179249
 20
20.3952596835
 10
18.6373770182
 20
20.3998231722
 10
18.6357380619
 20
20.4044292008
 10
18.633583984
 20
20.4090694468
 10
18.6308964247
 20
20.4137314371
 10
18.6276571699
 20
20.4183983073
 10
18.6238495533
 20
20.4230488268
 10
18.6194597364
 20
20.4276576813
 10
18.6144777767
 20
20.4321959857
 10
18.6088984213
 20
20.4366319841
 10
18.6027215807
 20
20.4409318802
 10
18.5959524715
 20
20.4450607313
 10
18.5895235799
 20
20.4485197311
 10
18.5783606226
 20
20.453924861
 10
18.5663974876
 20
20.4592115056
 10
18.5534096216
 20
20.4644568091
 10
18.5390254702
 20
20.469784459
 10
18.5225326882
 20
20.475427966
 10
18.5021442816
 20
20.4819707556
 10
18.477104687
 20
20.4897884154
 10
18.456963946
 20
20.49626676
 10
18.4405869876
 20
20.501888911
 10
18.4287165304
 20
20.5061899446
 10
18.4147915194
 20
20.5115215954
 10
18.4024564757
 20
20.5166407314
 10
18.3913149849
 20
20.5216940462
 10
18.381183636
 20
20.5267394635
 10
18.3719531108
 20
20.5318033433
 10
18.3635462324
 20
20.5368985178
 10
18.3559020837
 20
20.5420315936
 10
18.3489691535
 20
20.5472064302
 10
18.3427021562
 20
20.5524260013
 10
18.3370605228
 20
20.5576934851
 10
18.3320077224
 20
20.5630129452
 10
18.3275110231
 20
20.5683897714
 10
18.3235414968
 20
20.573830964
 10
18.3200741596
 20
20.5793453009
 10
18.3170881846
 20
20.5849434112
 10
18.3145671396
 20
20.5906377653
 10
18.3121167063
 20
20.5974015198
 10
18.3102178508
 20
20.6039881659
 10
18.3088452224
 20
20.6104118498
 10
18.307978643
 20
20.6166786572
 10
18.307599905
 20
20.6227962493
 10
18.3076937277
 20
20.6287788149
 10
18.3082495482
 20
20.6346401876
 10
18.3092615704
 20
20.6403934669
 10
18.3107286964
 20
20.6460506047
 10
18.3126543254
 20
20.6516219757
 10
18.3150460085
 20
20.6571159453
 10
18.3179149556
 20
20.6625384508
 10
18.3212753869
 20
20.6678926042
 10
18.3251437256
 20
20.6731783211
 10
18.3295376176
 20
20.6783919761
 10
18.3344747587
 20
20.6835260794
 10
18.339971499
 20
20.6885689744
 10
18.346041185
 20
20.6935045543
 10
18.3526921923
 20
20.6983120092
 10
18.3599256057
 20
20.7029656265
 10
18.3677325205
 20
20.7074346898
 10
18.3760909804
 20
20.7116835481
 10
18.3826177182
 20
20.7146660128
 10
18.3925104562
 20
20.7187271504
 10
18.4030614029
 20
20.7225520134
 10
18.4142879996
 20
20.7261236773
 10
18.426204433
 20
20.7294236518
 10
18.4388205951
 20
20.7324320627
 10
18.4521408624
 20
20.7351278773
 10
18.466162668
 20
20.7374891888
 10
18.4808748377
 20
20.7394935785
 10
18.4962556736
 20
20.7411185782
 10
18.5122707802
 20
20.7423422618
 10
18.5288706624
 20
20.7431439945
 10
18.5459881715
 20
20.7435053719
 10
18.56353595
 20
20.7434113722
 10
18.5814041346
 20
20.7428517304
 10
18.5994587108
 20
20.741822511
 10
18.6175410618
 20
20.740327806
 10
18.635469379
 20
20.7383814096
 10
18.6530426284
 20
20.7360082369
 10
18.6630760159
 20
20.7344358759
 10
18.6795487888
 20
20.7314858612
 10
18.6950203368
 20
20.7282561213
  0
LWPOLYLINE
  5
33C
100
AcDbEntity
  8
INTF_1
100
AcDbPolyline
 62
7
  6
CONTINUOUS
 90
123
 70
0
 10
18.6950203368
 20
20.649889562
 10
18.6842947876
 20
20.6563822629
 10
18.6737195956
 20
20.6622360221
 10
18.6632357109
 20
20.6674999346
 10
18.6527866117
 20
20.6722148883
 10
18.6423170554
 20
20.6764144832
 10
18.6317719442
 20
20.6801257148
 10
18.6264542583
 20
20.6818047536
 10
18.6211026145
 20
20.6833674067
 10
18.610278332
 20
20.6861493133
 10
18.5992404137
 20
20.688485161
 10
18.5879270032
 20
20.6903831541
 10
18.576271795
 20
20.6918461159
 10
18.5642025526
 20
20.6928714999
 10
18.5516393212
 20
20.6934512602
 10
18.549164962
 20
20.6935104925
 10
18.5391532184
 20
20.6935204387
 10
18.5275887974
 20
20.6931042254
 10
18.5160386796
 20
20.6922541102
 10
18.5049127688
 20
20.6910030145
 10
18.4944261375
 20
20.6893904301
 10
18.4846852373
 20
20.6874561916
 10
18.4757334961
 20
20.6852379559
 10
18.4675766408
 20
20.6827700977
 10
18.4601975182
 20
20.6800831671
 10
18.4535652217
 20
20.6772035638
 10
18.447640993
 20
20.6741532871
 10
18.4423822421
 20
20.6709497014
 10
18.4377454448
 20
20.6676053052
 10
18.4336883668
 20
20.664127512
 10
18.4301718821
 20
20.6605184751
 10
18.4271615374
 20
20.6567749984
 10
18.4246289309
 20
20.6528885812
 10
18.4225529129
 20
20.6488456381
 10
18.4209205735
 20
20.6446279122
 10
18.419727962
 20
20.6402130677
 10
18.4189804919
 20
20.6355754083
 10
18.4187341774
 20
20.6311325372
 10
18.4189693076
 20
20.626790265
 10
18.419677345
 20
20.6225224845
 10
18.4208609295
 20
20.6183043145
 10
18.4225335584
 20
20.6141129028
 10
18.4247189254
 20
20.6099281091
 10
18.4274500034
 20
20.605732998
 10
18.4307679684
 20
20.6015141156
 10
18.4347210583
 20
20.5972615641
 10
18.4393634283
 20
20.5929689083
 10
18.4447540418
 20
20.5886329533
 10
18.4509556181
 20
20.5842534093
 10
18.4580336849
 20
20.5798324194
 10
18.4660558977
 20
20.5753738364
 10
18.4750921457
 20
20.5708819314
 10
18.4852171179
 20
20.5663586498
 10
18.4965212304
 20
20.5617966234
 10
18.509155144
 20
20.5571568161
 10
18.5235657207
 20
20.5522629202
 10
18.5338452525
 20
20.5488465001
 10
18.5568831484
 20
20.5412036682
 10
18.5805855717
 20
20.533517052
 10
18.6035458468
 20
20.5258979514
 10
18.6219966606
 20
20.5194176708
 10
18.6380486628
 20
20.5133632438
 10
18.6525257031
 20
20.5074555955
 10
18.6658528664
 20
20.501548969
 10
18.6782852323
 20
20.4955536819
 10
18.6874874122
 20
20.4906600947
 10
18.6958972268
 20
20.4856614637
 10
18.703550978
 20
20.4805711814
 10
18.7104841391
 20
20.4754009931
 10
18.7167310719
 20
20.4701608669
 10
18.7223247063
 20
20.4648588807
 10
18.7272961854
 20
20.4595011362
 10
18.7316744789
 20
20.4540917119
 10
18.7354859743
 20
20.4486326668
 10
18.7387540586
 20
20.4431241097
 10
18.7414987085
 20
20.4375643451
 10
18.7437334644
 20
20.4319576218
 10
18.7454709155
 20
20.4263051865
 10
18.7467220536
 20
20.4206025454
 10
18.7474935823
 20
20.4148445573
 10
18.7477878797
 20
20.4090259503
 10
18.7476031068
 20
20.403141891
 10
18.746933476
 20
20.3971885816
 10
18.7457696811
 20
20.391163862
 10
18.7440994835
 20
20.3850677915
 10
18.7419084441
 20
20.3789031893
 10
18.7391807829
 20
20.3726761137
 10
18.7359003452
 20
20.3663962607
 10
18.7320516471
 20
20.3600772654
 10
18.727620969
 20
20.3537368862
 10
18.7225974561
 20
20.3473970543
 10
18.7169741799
 20
20.3410837701
 10
18.7107491047
 20
20.3348268329
 10
18.7039259006
 20
20.3286593972
 10
18.6965145442
 20
20.3226173593
 10
18.6885316535
 20
20.3167385925
 10
18.6800005208
 20
20.3110620637
 10
18.6709508286
 20
20.3056268787
 10
18.661418058
 20
20.3004713137
 10
18.6514426319
 20
20.2956318955
 10
18.6452274401
 20
20.292878957
 10
18.6346583504
 20
20.2886245058
 10
18.6237889261
 20
20.2847727988
 10
18.6122363178
 20
20.2812003527
 10
18.6000174093
 20
20.2779265402
 10
18.5871265399
 20
20.2749716177
 10
18.5735636367
 20
20.2723568274
 10
18.5593354579
 20
20.270104067
 10
18.5444569796
 20
20.2682354819
 10
18.5289529126
 20
20.2667729615
 10
18.5128593214
 20
20.2657375252
 10
18.4962252844
 20
20.2651485809
 10
18.4791145004
 20
20.2650230464
 10
18.4616066953
 20
20.2653743367
 10
18.4437986289
 20
20.2662112344
 10
18.4258044485
 20
20.2675366879
 10
18.4077550978
 20
20.2693466178
 10
18.3897964867
 20
20.2716288435
 10
18.3720861948
 20
20.2743622802
 10
18.368408692
 20
20.2749918675
 10
18.3512680563
 20
20.2782199897
 10
18.334816035
 20
20.2817993401
 10
18.3191963993
 20
20.2856764453
  0
LINE
  5
33D
100
AcDbEntity
  8
INTF_1
100
AcDbLine
 62
7
  6
CONTINUOUS
 10
20.1876404277
 20
20.3106498951
 11
20.0697859668
 21
20.4154028317
  0
LWPOLYLINE
  5
33E
100
AcDbEntity
  8
INTF_1
100
AcDbPolyline
 62
7
  6
CONTINUOUS
 90
16
 70
0
 10
20.0929705723
 20
20.4986433433
 10
20.2320911683
 20
20.3730946302
 10
20.2396675641
 20
20.36655125
 10
20.247954793
 20
20.3597839648
 10
20.2569611085
 20
20.3528102067
 10
20.2666850094
 20
20.3456534404
 10
20.2771130582
 20
20.3383439301
 10
20.2882175768
 20
20.3309194384
 10
20.2999543628
 20
20.3234257537
 10
20.3122606481
 20
20.3159169169
 10
20.3250536156
 20
20.3084549829
 10
20.3382298653
 20
20.301109146
 10
20.3516662574
 20
20.2939540787
 10
20.3652225058
 20
20.2870674088
 10
20.3752981341
 20
20.2821626555
 10
20.3886076257
 20
20.275965577
  0
LINE
  5
33F
100
AcDbEntity
  8
INTF_1
100
AcDbLine
 62
7
  6
CONTINUOUS
 10
20.0697859668
 20
20.4154028317
 11
19.9808937447
 21
20.5132189048
  0
LWPOLYLINE
  5
340
100
AcDbEntity
  8
INTF_1
100
AcDbPolyline
 62
7
  6
CONTINUOUS
 90
7
 70
0
 10
21.1460664665
 20
19.9488070895
 10
21.2203294247
 20
19.8625814674
 10
21.1607883207
 20
19.8626722059
 10
21.1103599518
 20
19.9212837035
 10
21.1102784723
 20
19.9212837035
 10
21.1102784723
 20
19.8626722059
 10
21.0653221889
 20
19.8626722059
  0
LWPOLYLINE
  5
341
100
AcDbEntity
  8
INTF_1
100
AcDbPolyline
 62
7
  6
CONTINUOUS
 90
19
 70
0
 10
19.636004219
 20
20.4792382728
 10
19.6343170534
 20
20.4812449432
 10
19.6324155894
 20
20.4831490591
 10
19.6302865957
 20
20.4849552131
 10
19.6279139905
 20
20.486665977
 10
19.6252789491
 20
20.488281967
 10
19.6223599397
 20
20.4898019601
 10
19.619132648
 20
20.4912230512
 10
19.6155697283
 20
20.4925408436
 10
19.6116402929
 20
20.4937496637
 10
19.6073089825
 20
20.4948428008
 10
19.602534323
 20
20.4958127746
 10
19.5972657799
 20
20.4966516463
 10
19.5914382279
 20
20.4973514041
 10
19.5849607279
 20
20.4979044967
 10
19.5776909227
 20
20.4983046979
 10
19.5693649592
 20
20.4985489017
 10
19.5593342093
 20
20.4986428874
 10
19.4785285264
 20
20.4986433433
  0
LINE
  5
342
100
AcDbEntity
  8
INTF_1
100
AcDbLine
 62
7
  6
CONTINUOUS
 10
21.8077980709
 20
19.8626722059
 11
21.7711063957
 21
19.9131450181
  0
LINE
  5
343
100
AcDbEntity
  8
INTF_1
100
AcDbLine
 62
7
  6
CONTINUOUS
 10
21.8100776436
 20
19.9284261176
 11
21.8568968434
 21
19.8625814674
  0
LWPOLYLINE
  5
344
100
AcDbEntity
  8
INTF_1
100
AcDbPolyline
 62
7
  6
CONTINUOUS
 90
4
 70
0
 10
22.4219679015
 20
20.0337105224
 10
22.4786257443
 20
19.8934881021
 10
22.4680278611
 20
19.8934881021
 10
22.4506505177
 20
19.9366185053
  0
LINE
  5
345
100
AcDbEntity
  8
INTF_1
100
AcDbLine
 62
7
  6
CONTINUOUS
 10
22.1858997293
 20
19.9997502603
 11
22.2314171098
 21
19.8870493742
  0
LINE
  5
346
100
AcDbEntity
  8
INTF_1
100
AcDbLine
 62
7
  6
CONTINUOUS
 10
22.2314171098
 20
19.9141764738
 11
22.1827886959
 21
20.0346512396
  0
LINE
  5
347
100
AcDbEntity
  8
INTF_1
100
AcDbLine
 62
7
  6
CONTINUOUS
 10
22.44565805
 20
19.9469441731
 11
22.4219679015
 21
20.0059334391
  0
LINE
  5
348
100
AcDbEntity
  8
INTF_1
100
AcDbLine
 62
7
  6
CONTINUOUS
 10
22.5374353851
 20
20.2830172526
 11
22.5349039669
 21
20.2925670138
  0
LINE
  5
349
100
AcDbEntity
  8
INTF_1
100
AcDbLine
 62
7
  6
CONTINUOUS
 10
22.309594785
 20
19.8934881021
 11
22.2802436669
 21
20.0346512396
  0
LINE
  5
34A
100
AcDbEntity
  8
INTF_1
100
AcDbLine
 62
7
  6
CONTINUOUS
 10
22.2770974493
 20
19.9997502603
 11
22.2990691222
 21
19.8934881021
  0
LINE
  5
34B
100
AcDbEntity
  8
INTF_1
100
AcDbLine
 62
7
  6
CONTINUOUS
 10
22.4763461716
 20
20.316897887
 11
22.4811756805
 21
20.2856764453
  0
LWPOLYLINE
  5
34C
100
AcDbEntity
  8
INTF_1
100
AcDbPolyline
 62
7
  6
CONTINUOUS
 90
72
 70
0
 10
22.5166933111
 20
20.320479279
 10
22.518650921
 20
20.3207611067
 10
22.5199860465
 20
20.3209347625
 10
22.5212046353
 20
20.3210715943
 10
22.5223807314
 20
20.3211801976
 10
22.5235539348
 20
20.3212640357
 10
22.5247503638
 20
20.3213243489
 10
22.5259899029
 20
20.3213611594
 10
22.5272893425
 20
20.321373701
 10
22.5281802969
 20
20.3213637368
 10
22.5291464962
 20
20.3213291111
 10
22.5300694093
 20
20.3212707642
 10
22.5309499112
 20
20.3211897968
 10
22.5317888803
 20
20.3210872944
 10
22.5325871969
 20
20.3209643263
 10
22.5333457429
 20
20.3208219431
 10
22.5340654002
 20
20.3206611748
 10
22.5347470496
 20
20.3204830292
 10
22.5353915684
 20
20.3202884896
 10
22.5359998288
 20
20.3200785122
 10
22.5365726947
 20
20.3198540246
 10
22.537111019
 20
20.3196159234
 10
22.5376156398
 20
20.3193650726
 10
22.5380873761
 20
20.3191023018
 10
22.5385270232
 20
20.3188284054
 10
22.5387350638
 20
20.3186875169
 10
22.5389353476
 20
20.3185441421
 10
22.5393015218
 20
20.3182587977
 10
22.5396456114
 20
20.3179583767
 10
22.5399683533
 20
20.3176426575
 10
22.5402703725
 20
20.3173113072
 10
22.5405521761
 20
20.3169638841
 10
22.540814147
 20
20.3165998422
 10
22.5409377993
 20
20.3164113607
 10
22.5410565291
 20
20.316218554
 10
22.5412791302
 20
20.3158198918
 10
22.5414820425
 20
20.3154030889
 10
22.5416652227
 20
20.3149672953
 10
22.5418284929
 20
20.3145115843
 10
22.5419715421
 20
20.3140349602
 10
22.5420939293
 20
20.3135363653
 10
22.5421950867
 20
20.3130146867
 10
22.5422743248
 20
20.3124687622
 10
22.542330837
 20
20.3118973864
 10
22.5423637051
 20
20.3112993151
 10
22.5423722987
 20
20.3107850769
 10
22.5423594753
 20
20.3102575219
 10
22.5423214771
 20
20.3097450212
 10
22.5422589462
 20
20.3092471097
 10
22.5421724352
 20
20.3087633446
 10
22.5420624059
 20
20.3082933126
 10
22.5419292303
 20
20.3078366367
 10
22.5417731919
 20
20.307392984
 10
22.5415944897
 20
20.3069620738
 10
22.5413932431
 20
20.3065436849
 10
22.5411695
 20
20.306137664
 10
22.5409232456
 20
20.3057439329
 10
22.5406544148
 20
20.3053624954
 10
22.5403629063
 20
20.3049934431
 10
22.5400485985
 20
20.3046369612
 10
22.539711369
 20
20.304293332
 10
22.539351115
 20
20.3039629375
 10
22.538967777
 20
20.3036462599
 10
22.5385613641
 20
20.3033438812
 10
22.5381319806
 20
20.3030564791
 10
22.5376798549
 20
20.3027848219
 10
22.5372053685
 20
20.3025297591
 10
22.5367090855
 20
20.3022922104
 10
22.5361917811
 20
20.3020731503
 10
22.5356544671
 20
20.3018735899
 10
22.5350984151
 20
20.3016945543
 10
22.5350484077
 20
20.301679749
  0
LWPOLYLINE
  5
34D
100
AcDbEntity
  8
INTF_1
100
AcDbPolyline
 62
7
  6
CONTINUOUS
 90
86
 70
0
 10
22.4811756805
 20
20.2856764453
 10
22.4631569846
 20
20.2832553835
 10
22.4179782452
 20
20.2773456663
 10
22.3826309419
 20
20.2731402986
 10
22.3519656302
 20
20.2699959657
 10
22.3241421364
 20
20.2676841981
 10
22.2982484125
 20
20.2660947258
 10
22.2737493906
 20
20.2651661944
 10
22.2502962675
 20
20.2648621509
 10
22.2386302071
 20
20.2649349158
 10
22.2150572704
 20
20.2655403075
 10
22.1922623444
 20
20.2667417711
 10
22.1702543678
 20
20.2685179199
 10
22.1490406258
 20
20.2708467487
 10
22.1286266586
 20
20.2737057358
 10
22.1090161862
 20
20.2770719597
 10
22.0902110561
 20
20.2809222305
 10
22.0722112129
 20
20.2852332333
 10
22.0550146945
 20
20.2899816835
 10
22.0386176561
 20
20.2951444906
 10
22.0230144235
 20
20.3006989298
 10
22.0081975767
 20
20.3066228176
 10
21.9941580644
 20
20.3128946889
 10
21.9808853481
 20
20.3194939725
 10
21.9683675766
 20
20.3264011622
 10
21.9565917881
 20
20.3335979792
 10
21.9455441376
 20
20.3410675231
 10
21.935210149
 20
20.3487944074
 10
21.9255749855
 20
20.3567648769
 10
21.9166237369
 20
20.3649669023
 10
21.9083417183
 20
20.3733902502
 10
21.9007147753
 20
20.3820265236
 10
21.8937295894
 20
20.390869173
 10
21.8873739784
 20
20.3999134739
 10
21.881637185
 20
20.4091564713
 10
21.8765101459
 20
20.4185968893
 10
21.8719857361
 20
20.4282350099
 10
21.8680589808
 20
20.4380725193
 10
21.8647272307
 20
20.4481123298
 10
21.8619902942
 20
20.4583583778
 10
21.8598517445
 20
20.4688084071
 10
21.8583157752
 20
20.4794633347
 10
21.8573879677
 20
20.4903286035
 10
21.8570764686
 20
20.5014099408
 10
21.8573885389
 20
20.5125583386
 10
21.8583179966
 20
20.5234846427
 10
21.8598556303
 20
20.5341908403
 10
21.8619938559
 20
20.5446803582
 10
21.8647282569
 20
20.5549613838
 10
21.8680572442
 20
20.5650412242
 10
21.8719819739
 20
20.5749260857
 10
21.8765062152
 20
20.5846208608
 10
21.8816361709
 20
20.5941289303
 10
21.887380251
 20
20.6034519869
 10
21.8937488047
 20
20.6125898826
 10
21.9007538145
 20
20.6215405061
 10
21.9084085588
 20
20.6302996916
 10
21.9167272463
 20
20.6388611607
 10
21.9257246324
 20
20.6472164982
 10
21.9354156188
 20
20.655355163
 10
21.9458148468
 20
20.6632645312
 10
21.9569362868
 20
20.670929973
 10
21.9687928334
 20
20.6783349598
 10
21.9813959096
 20
20.6854612018
 10
21.9947550885
 20
20.6922888129
 10
22.0088777386
 20
20.6987965011
 10
22.0237686994
 20
20.7049617815
 10
22.0394299935
 20
20.7107612102
 10
22.0558605832
 20
20.7161706328
 10
22.0730561763
 20
20.7211654462
 10
22.0910090859
 20
20.725720867
 10
22.1097081498
 20
20.7298122027
 10
22.1291387112
 20
20.7334151192
 10
22.1492826602
 20
20.7365058999
 10
22.1701185382
 20
20.7390616907
 10
22.1916216988
 20
20.7410607247
 10
22.2137645233
 20
20.7424825239
 10
22.2365166816
 20
20.7433080721
 10
22.2560831598
 20
20.7435279617
 10
22.2803761204
 20
20.7432161673
 10
22.3048195097
 20
20.7422781805
 10
22.3294790032
 20
20.7407073059
 10
22.3544263007
 20
20.7384928091
 10
22.379740678
 20
20.7356194097
 10
22.4055109913
 20
20.7320666032
 10
22.407753442
 20
20.7317282567
  0
LWPOLYLINE
  5
34E
100
AcDbEntity
  8
INTF_1
100
AcDbPolyline
 62
7
  6
CONTINUOUS
 90
44
 70
0
 10
22.3467011807
 20
19.9661159403
 10
22.3500651472
 20
19.9662045166
 10
22.352898389
 20
19.966420764
 10
22.355381428
 20
19.9667611412
 10
22.3576146488
 20
19.9672252199
 10
22.3596621109
 20
19.9678154326
 10
22.3615685455
 20
19.968537202
 10
22.3633671756
 20
19.9693991928
 10
22.3650837416
 20
19.9704135908
 10
22.3667387565
 20
19.9715963773
 10
22.367548969
 20
19.9722574048
 10
22.3683488716
 20
19.9729675966
 10
22.369808378
 20
19.9744213342
 10
22.3711957491
 20
19.9760385817
 10
22.3724162213
 20
19.9777270118
 10
22.3734742139
 20
19.979488023
 10
22.3743726094
 20
19.9813240706
 10
22.3751120805
 20
19.9832369539
 10
22.3756915082
 20
19.9852267671
 10
22.3761098794
 20
19.9872977435
 10
22.3763643958
 20
19.9894545944
 10
22.3764505209
 20
19.9917023134
 10
22.376363472
 20
19.9939270503
 10
22.3761038587
 20
19.9961165175
 10
22.3756746103
 20
19.9982587797
 10
22.3750797183
 20
20.0003408895
 10
22.3743244799
 20
20.002349123
 10
22.373415669
 20
20.004269324
 10
22.3723846822
 20
20.0060510652
 10
22.3712014237
 20
20.0077510153
 10
22.3698971852
 20
20.009320145
 10
22.3684842132
 20
20.0107484497
 10
22.3669748319
 20
20.0120277312
 10
22.3655053749
 20
20.0130569222
 10
22.3639096828
 20
20.0139651083
 10
22.3621743473
 20
20.014755707
 10
22.3602821931
 20
20.0154301034
 10
22.3582108865
 20
20.0159879862
 10
22.3559298391
 20
20.0164278659
 10
22.3533928157
 20
20.0167479046
 10
22.3505174151
 20
20.0169474941
 10
22.3471088884
 20
20.0170317387
 10
22.3447124255
 20
20.017038717
 10
22.3321442212
 20
20.017038717
  0
LINE
  5
34F
100
AcDbEntity
  8
INTF_1
100
AcDbLine
 62
7
  6
CONTINUOUS
 10
21.7152448293
 20
19.8626722059
 11
21.6236656373
 21
19.8626722059
  0
LINE
  5
350
100
AcDbEntity
  8
INTF_1
100
AcDbLine
 62
7
  6
CONTINUOUS
 10
21.6117677866
 20
19.8626722059
 11
21.5163368391
 21
19.8626722059
  0
LINE
  5
351
100
AcDbEntity
  8
INTF_1
100
AcDbLine
 62
7
  6
CONTINUOUS
 10
21.7711063957
 20
19.8627814624
 11
21.7271260137
 21
19.8627814624
  0
LINE
  5
352
100
AcDbEntity
  8
INTF_1
100
AcDbLine
 62
7
  6
CONTINUOUS
 10
22.3321442212
 20
19.8934881021
 11
22.3213130105
 21
19.8934881021
  0
LINE
  5
353
100
AcDbEntity
  8
INTF_1
100
AcDbLine
 62
7
  6
CONTINUOUS
 10
22.1534023936
 20
19.8934881021
 11
22.164016943
 21
19.8934881021
  0
LINE
  5
354
100
AcDbEntity
  8
INTF_1
100
AcDbLine
 62
7
  6
CONTINUOUS
 10
22.2990691222
 20
19.8934881021
 11
22.309594785
 21
19.8934881021
  0
LINE
  5
355
100
AcDbEntity
  8
INTF_1
100
AcDbLine
 62
7
  6
CONTINUOUS
 10
22.4858237125
 20
19.8934881021
 11
22.4966197389
 21
19.8934881021
  0
LINE
  5
356
100
AcDbEntity
  8
INTF_1
100
AcDbLine
 62
7
  6
CONTINUOUS
 10
22.6582731048
 20
19.8934881021
 11
22.6691043155
 21
19.8934881021
  0
LINE
  5
357
100
AcDbEntity
  8
INTF_1
100
AcDbLine
 62
7
  6
CONTINUOUS
 10
20.9214720815
 20
19.9469441731
 11
20.9691875552
 21
19.9469441731
  0
LINE
  5
358
100
AcDbEntity
  8
INTF_1
100
AcDbLine
 62
7
  6
CONTINUOUS
 10
22.397935169
 20
19.9469441731
 11
22.44565805
 21
19.9469441731
  0
LINE
  5
359
100
AcDbEntity
  8
INTF_1
100
AcDbLine
 62
7
  6
CONTINUOUS
 10
22.3457253632
 20
19.9558235808
 11
22.3321442212
 21
19.9558235808
  0
LWPOLYLINE
  5
35A
100
AcDbEntity
  8
INTF_1
100
AcDbPolyline
 62
7
  6
CONTINUOUS
 90
35
 70
0
 10
21.7710341752
 20
19.9573790974
 10
21.7837653384
 20
19.9573790974
 10
21.7854124657
 20
19.9574644018
 10
21.7870333419
 20
19.9577190372
 10
21.7886169442
 20
19.9581407227
 10
21.790150406
 20
19.9587262021
 10
21.791619169
 20
19.9594706317
 10
21.7930073924
 20
19.9603670571
 10
21.7942986105
 20
19.961406091
 10
21.7943608012
 20
19.9614620093
 10
21.7955314
 20
19.9626366586
 10
21.7965698792
 20
19.9639225515
 10
21.7974649143
 20
19.9653037939
 10
21.798207687
 20
19.9667646383
 10
21.7987917239
 20
19.9682902441
 10
21.7992124715
 20
19.9698672244
 10
21.7994667199
 20
19.97148394
 10
21.7995519808
 20
19.9731305555
 10
21.7994667199
 20
19.9747882589
 10
21.7992122989
 20
19.9764185054
 10
21.7987910475
 20
19.9780108358
 10
21.7982061709
 20
19.9795529123
 10
21.7974623828
 20
19.9810306155
 10
21.7965664754
 20
19.982428395
 10
21.7955277108
 20
19.9837298826
 10
21.7954249382
 20
19.983844675
 10
21.794243998
 20
19.9850220622
 10
21.7929524547
 20
19.9860665809
 10
21.7915668441
 20
19.98696661
 10
21.7901036911
 20
19.98771313
 10
21.7885786751
 20
19.9882996207
 10
21.7870060074
 20
19.9887216618
 10
21.7853980738
 20
19.9889763484
 10
21.7837653384
 20
19.9890616387
 10
21.7710341752
 20
19.9890616387
  0
LINE
  5
35B
100
AcDbEntity
  8
INTF_1
100
AcDbLine
 62
7
  6
CONTINUOUS
 10
22.3321442212
 20
19.9661140642
 11
22.3467011807
 21
19.9661159403
  0
LINE
  5
35C
100
AcDbEntity
  8
INTF_1
100
AcDbLine
 62
7
  6
CONTINUOUS
 10
21.6236656373
 20
20.0271643898
 11
21.7149003934
 21
20.0271643898
  0
LWPOLYLINE
  5
35D
100
AcDbEntity
  8
INTF_1
100
AcDbPolyline
 62
7
  6
CONTINUOUS
 90
57
 70
0
 10
21.7271260137
 20
20.0271643898
 10
21.783493123
 20
20.0271643898
 10
21.78612968
 20
20.0271053092
 10
21.7887456872
 20
20.0269286166
 10
21.7913386345
 20
20.0266351309
 10
21.793905759
 20
20.0262256927
 10
21.79644403
 20
20.0257012008
 10
21.7989501388
 20
20.0250626532
 10
21.8014204925
 20
20.0243111901
 10
21.803851215
 20
20.0234481379
 10
21.8062381541
 20
20.0224750545
 10
21.8085768973
 20
20.0213937723
 10
21.8108627957
 20
20.02020644
 10
21.8130909965
 20
20.0189155585
 10
21.8152564852
 20
20.017524011
 10
21.8173541352
 20
20.0160350852
 10
21.8193787655
 20
20.0144524845
 10
21.821325204
 20
20.0127803289
 10
21.8231883551
 20
20.0110231422
 10
21.8249632689
 20
20.0091858275
 10
21.8265149581
 20
20.0074283132
 10
21.8281054718
 20
20.0054545428
 10
21.8295937901
 20
20.0034186076
 10
21.8309764537
 20
20.0013264865
 10
21.8322504369
 20
19.9991841896
 10
21.8334131579
 20
19.9969976846
 10
21.8344624763
 20
19.9947728259
 10
21.835396677
 20
19.9925152914
 10
21.836214443
 20
19.9902305264
 10
21.8369148175
 20
19.9879236978
 10
21.8374971594
 20
19.9855996588
 10
21.8379610916
 20
19.9832629245
 10
21.8383064473
 20
19.9809176584
 10
21.838533214
 20
19.9785676688
 10
21.8386414784
 20
19.9762164144
 10
21.8386313734
 20
19.9738670183
 10
21.8385030284
 20
19.971522288
 10
21.8382565244
 20
19.9691847414
 10
21.8378918537
 20
19.9668566365
 10
21.837408886
 20
19.9645400039
 10
21.8368073393
 20
19.9622366805
 10
21.8360867577
 20
19.9599483445
 10
21.8352464939
 20
19.9576765496
 10
21.8342856976
 20
19.9554227575
 10
21.8332033083
 20
19.9531883695
 10
21.8319980527
 20
19.9509747555
 10
21.8306684464
 20
19.9487832803
 10
21.8292127975
 20
19.946615327
 10
21.8276292146
 20
19.944472318
 10
21.8259156153
 20
19.9423557323
 10
21.8240697376
 20
19.9402671207
 10
21.822089152
 20
19.9382081174
 10
21.8199712736
 20
19.93618045
 10
21.8177138255
 20
19.9341863275
 10
21.8153143575
 20
19.9322279141
 10
21.8127699684
 20
19.9303071579
 10
21.8100776436
 20
19.9284261176
  0
LINE
  5
35E
100
AcDbEntity
  8
INTF_1
100
AcDbLine
 62
7
  6
CONTINUOUS
 10
22.7137717173
 20
20.0273458667
 11
22.7024164457
 21
20.0273458667
  0
LINE
  5
35F
100
AcDbEntity
  8
INTF_1
100
AcDbLine
 62
7
  6
CONTINUOUS
 10
22.6259924304
 20
20.0273458667
 11
22.6136223693
 21
20.0273458667
  0
LINE
  5
360
100
AcDbEntity
  8
INTF_1
100
AcDbLine
 62
7
  6
CONTINUOUS
 10
22.6069503139
 20
20.0273458667
 11
22.5961542875
 21
20.0273458667
  0
LINE
  5
361
100
AcDbEntity
  8
INTF_1
100
AcDbLine
 62
7
  6
CONTINUOUS
 10
22.3213130105
 20
20.0273458667
 11
22.3457253632
 21
20.0273458667
  0
LINE
  5
362
100
AcDbEntity
  8
INTF_1
100
AcDbLine
 62
7
  6
CONTINUOUS
 10
22.7184197493
 20
20.0646171571
 11
18.0769339375
 21
20.0646171571
  0
LWPOLYLINE
  5
363
100
AcDbEntity
  8
INTF_1
100
AcDbPolyline
 62
7
  6
CONTINUOUS
 90
3
 70
0
 10
18.0797653482
 20
20.0946904794
 10
22.7122717548
 20
20.0946904794
 10
22.7122717548
 20
20.9136181538
  0
LWPOLYLINE
  5
364
100
AcDbEntity
  8
INTF_1
100
AcDbPolyline
 62
7
  6
CONTINUOUS
 90
3
 70
0
 10
18.0986259877
 20
20.1203528008
 10
22.6914389423
 20
20.1203528008
 10
22.6914389423
 20
20.8909224249
  0
LWPOLYLINE
  5
365
100
AcDbEntity
  8
INTF_1
100
AcDbPolyline
 62
7
  6
CONTINUOUS
 90
3
 70
0
 10
22.6425401648
 20
20.1644220694
 10
18.1495321225
 20
20.1644220694
 10
18.1495321225
 20
20.843875453
  0
LWPOLYLINE
  5
366
100
AcDbEntity
  8
INTF_1
100
AcDbPolyline
 62
7
  6
CONTINUOUS
 90
3
 70
0
 10
22.6335700187
 20
20.1733736974
 10
18.1584837505
 20
20.1733736974
 10
18.1584837505
 20
20.8349238249
  0
LINE
  5
367
100
AcDbEntity
  8
INTF_1
100
AcDbLine
 62
7
  6
CONTINUOUS
 10
21.3537168307
 20
20.275965577
 11
21.1827229575
 21
20.275965577
  0
LINE
  5
368
100
AcDbEntity
  8
INTF_1
100
AcDbLine
 62
7
  6
CONTINUOUS
 10
21.0803310729
 20
20.275965577
 11
20.8967523291
 21
20.275965577
  0
LINE
  5
369
100
AcDbEntity
  8
INTF_1
100
AcDbLine
 62
7
  6
CONTINUOUS
 10
20.8069379079
 20
20.275965577
 11
20.4098478354
 21
20.275965577
  0
LINE
  5
36A
100
AcDbEntity
  8
INTF_1
100
AcDbLine
 62
7
  6
CONTINUOUS
 10
20.3886076257
 20
20.275965577
 11
20.2997154036
 21
20.275965577
  0
LINE
  5
36B
100
AcDbEntity
  8
INTF_1
100
AcDbLine
 62
7
  6
CONTINUOUS
 10
20.0011839782
 20
20.275965577
 11
19.8166552582
 21
20.275965577
  0
LINE
  5
36C
100
AcDbEntity
  8
INTF_1
100
AcDbLine
 62
7
  6
CONTINUOUS
 10
19.7393738569
 20
20.275965577
 11
19.3365061511
 21
20.275965577
  0
LINE
  5
36D
100
AcDbEntity
  8
INTF_1
100
AcDbLine
 62
7
  6
CONTINUOUS
 10
19.1191356595
 20
20.275965577
 11
18.9278515529
 21
20.275965577
  0
LWPOLYLINE
  5
36E
100
AcDbEntity
  8
INTF_1
100
AcDbPolyline
 62
7
  6
CONTINUOUS
 90
4
 70
0
 10
20.9741966893
 20
19.9366185053
 10
20.9172944082
 20
19.9366907258
 10
20.8989485705
 20
19.8934881021
 10
20.8885136462
 20
19.8934881021
  0
LWPOLYLINE
  5
36F
100
AcDbEntity
  8
INTF_1
100
AcDbPolyline
 62
7
  6
CONTINUOUS
 90
4
 70
0
 10
22.4506505177
 20
19.9366185053
 10
22.39379268
 20
19.9366907258
 10
22.375402399
 20
19.8934881021
 10
22.3649859927
 20
19.8934881021
  0
LINE
  5
370
100
AcDbEntity
  8
INTF_1
100
AcDbLine
 62
7
  6
CONTINUOUS
 10
21.8568968434
 20
19.8625814674
 11
21.8077980709
 21
19.8626722059
  0
LWPOLYLINE
  5
371
100
AcDbEntity
  8
INTF_1
100
AcDbPolyline
 62
7
  6
CONTINUOUS
 90
29
 70
0
 10
20.5518702107
 20
20.3321697274
 10
20.5679487674
 20
20.331297212
 10
20.5872966349
 20
20.3300323919
 10
20.6072423827
 20
20.3286208197
 10
20.6282824422
 20
20.3271867729
 10
20.6447269506
 20
20.3262278251
 10
20.6589215533
 20
20.3255942572
 10
20.6717100889
 20
20.325231768
 10
20.683511251
 20
20.3251135721
 10
20.6945702311
 20
20.3252243104
 10
20.7050461946
 20
20.3255544469
 10
20.7150500558
 20
20.3260978577
 10
20.7246632459
 20
20.3268506464
 10
20.7339480053
 20
20.3278105049
 10
20.7429534599
 20
20.328976345
 10
20.7517194209
 20
20.3303480766
 10
20.7602788699
 20
20.3319264689
 10
20.7686596478
 20
20.3337130615
 10
20.7768856375
 20
20.3357101063
 10
20.7849776143
 20
20.3379205302
 10
20.7929538715
 20
20.3403479092
 10
20.8008306886
 20
20.3429964521
 10
20.8086226893
 20
20.345870989
 10
20.8163431179
 20
20.3489769644
 10
20.8240040563
 20
20.3523204314
 10
20.8316165969
 20
20.3559080486
 10
20.8391909811
 20
20.3597470774
 10
20.8467367127
 20
20.3638453802
 10
20.8542626507
 20
20.368211419
  0
LWPOLYLINE
  5
372
100
AcDbEntity
  8
INTF_1
100
AcDbPolyline
 62
7
  6
CONTINUOUS
 90
75
 70
0
 10
21.9631756679
 20
19.9019693716
 10
21.9602989869
 20
19.9021623013
 10
21.9574928346
 20
19.9024539328
 10
21.9547564068
 20
19.9028420937
 10
21.9520889512
 20
19.9033247451
 10
21.9494897782
 20
19.9038999813
 10
21.946958272
 20
19.9045660279
 10
21.9444939022
 20
19.9053212386
 10
21.9420962361
 20
19.9061640892
 10
21.939764951
 20
19.9070931706
 10
21.9374998469
 20
19.9081071787
 10
21.9353008579
 20
19.9092049019
 10
21.9331680648
 20
19.9103852062
 10
21.9311017058
 20
19.9116470173
 10
21.9291021865
 20
19.9129893001
 10
21.9271700886
 20
19.9144110352
 10
21.9253061764
 20
19.9159111924
 10
21.9235114022
 20
19.9174887024
 10
21.9217869076
 20
19.9191424245
 10
21.9201340237
 20
19.9208711142
 10
21.918554266
 20
19.9226733869
 10
21.9170493274
 20
19.9245476823
 10
21.9156210661
 20
19.9264922273
 10
21.9142714893
 20
19.9285049992
 10
21.913002733
 20
19.9305836907
 10
21.9118170362
 20
19.932725677
 10
21.9107167117
 20
19.9349279866
 10
21.9097041118
 20
19.9371872765
 10
21.90878159
 20
19.9394998146
 10
21.9079514601
 20
19.9418614681
 10
21.9072159524
 20
19.9442677027
 10
21.9065771682
 20
19.9467135891
 10
21.9060370354
 20
19.9491938221
 10
21.9055972641
 20
19.9517027491
 10
21.9052593063
 20
19.95423441
 10
21.9050243196
 20
19.956782587
 10
21.9048931376
 20
19.959340863
 10
21.904863498
 20
19.9610803902
 10
21.9049074457
 20
19.9636389779
 10
21.9050553616
 20
19.9661878249
 10
21.9053065
 20
19.9687204933
 10
21.9056597828
 20
19.9712307374
 10
21.9061138278
 20
19.9737125642
 10
21.9066669828
 20
19.9761602853
 10
21.9073173655
 20
19.9785685596
 10
21.9080629073
 20
19.9809324245
 10
21.908901398
 20
19.9832473159
 10
21.9098305324
 20
19.9855090786
 10
21.9108479552
 20
19.9877139652
 10
21.9119513037
 20
19.989858627
 10
21.9131382478
 20
19.9919400959
 10
21.9144065264
 20
19.9939557605
 10
21.9157539789
 20
19.9959033361
 10
21.9171785726
 20
19.9977808317
 10
21.9186784252
 20
19.9995865127
 10
21.9202518225
 20
20.0013188642
 10
21.9218972319
 20
20.0029765517
 10
21.9236133111
 20
20.0045583831
 10
21.9253989136
 20
20.0060632725
 10
21.9272530897
 20
20.007490204
 10
21.9291750851
 20
20.0088381992
 10
21.9311643361
 20
20.0101062866
 10
21.933220463
 20
20.011293474
 10
21.9353432609
 20
20.0123987234
 10
21.9375326896
 20
20.0134209296
 10
21.9397888615
 20
20.0143589014
 10
21.9421120298
 20
20.015211346
 10
21.9445025751
 20
20.0159768558
 10
21.9469609923
 20
20.0166538986
 10
21.9494878773
 20
20.0172408096
 10
21.9520839144
 20
20.0177357862
 10
21.9547498633
 20
20.0181368849
 10
21.9574865476
 20
20.0184420194
 10
21.9602948432
 20
20.0186489611
 10
21.9631756679
 20
20.0187553408
  0
LWPOLYLINE
  5
373
100
AcDbEntity
  8
INTF_1
100
AcDbPolyline
 62
7
  6
CONTINUOUS
 90
29
 70
0
 10
19.4785285264
 20
20.3342326388
 10
19.4957246233
 20
20.332962893
 10
19.517404529
 20
20.3311574723
 10
19.5356113648
 20
20.3295945552
 10
19.5550583933
 20
20.32802064
 10
19.5708557686
 20
20.3269161061
 10
19.5846941437
 20
20.3261470499
 10
19.5972584487
 20
20.3256590511
 10
19.6089082722
 20
20.3254237436
 10
19.6198614052
 20
20.3254242961
 10
19.6302624563
 20
20.3256499834
 10
19.6402138547
 20
20.3260937436
 10
19.6497917425
 20
20.3267509381
 10
19.6590548934
 20
20.3276186653
 10
19.6680500722
 20
20.3286953574
 10
19.6768154334
 20
20.3299805317
 10
19.68538277
 20
20.3314746326
 10
19.693779056
 20
20.3331789283
 10
19.7020275358
 20
20.335095442
 10
19.7101485127
 20
20.3372269052
 10
19.7181599323
 20
20.339576726
 10
19.7260778223
 20
20.3421489676
 10
19.733916629
 20
20.3449483327
 10
19.7416894796
 20
20.3479801529
 10
19.7494083882
 20
20.351250381
 10
19.7570844209
 20
20.3547655856
 10
19.764727828
 20
20.3585329466
 10
19.7723481535
 20
20.3625602524
 10
19.7799543239
 20
20.3668558973
  0
LINE
  5
374
100
AcDbEntity
  8
INTF_1
100
AcDbLine
 62
7
  6
CONTINUOUS
 10
21.9631756679
 20
20.0187553408
 11
22.0084412029
 21
19.9957892483
  0
LINE
  5
375
100
AcDbEntity
  8
INTF_1
100
AcDbLine
 62
7
  6
CONTINUOUS
 10
22.5349039669
 20
20.2925670138
 11
22.5226598286
 21
20.2991483308
  0
LINE
  5
376
100
AcDbEntity
  8
INTF_1
100
AcDbLine
 62
7
  6
CONTINUOUS
 10
21.3527594472
 20
20.7005142223
 11
21.7063654216
 21
20.380020383
  0
LINE
  5
377
100
AcDbEntity
  8
INTF_1
100
AcDbLine
 62
7
  6
CONTINUOUS
 10
21.6348598019
 20
20.3328493401
 11
21.3034977158
 21
20.6346084626
  0
LINE
  5
378
100
AcDbEntity
  8
INTF_1
100
AcDbLine
 62
7
  6
CONTINUOUS
 10
21.3392505257
 20
20.7143860977
 11
21.3527594472
 21
20.7005142223
  0
LINE
  5
379
100
AcDbEntity
  8
INTF_1
100
AcDbLine
 62
7
  6
CONTINUOUS
 10
22.5961542875
 20
19.9144283194
 11
22.4858237125
 21
20.0308365202
  0
LINE
  5
37A
100
AcDbEntity
  8
INTF_1
100
AcDbLine
 62
7
  6
CONTINUOUS
 10
22.4966197389
 20
20.0044519946
 11
22.6069503139
 21
19.8872493692
  0
LINE
  5
37B
100
AcDbEntity
  8
INTF_1
100
AcDbLine
 62
7
  6
CONTINUOUS
 10
21.3247379255
 20
20.7317282567
 11
21.3392505257
 21
20.7143860977
  0
LINE
  5
37C
100
AcDbEntity
  8
INTF_1
100
AcDbLine
 62
7
  6
CONTINUOUS
 10
22.6136223693
 20
20.0273458667
 11
22.658471248
 21
19.9501811292
  0
LINE
  5
37D
100
AcDbEntity
  8
INTF_1
100
AcDbLine
 62
7
  6
CONTINUOUS
 10
22.6637692637
 20
19.9619900933
 11
22.6259924304
 21
20.0273458667
  0
LINE
  5
37E
100
AcDbEntity
  8
INTF_1
100
AcDbLine
 62
7
  6
CONTINUOUS
 10
22.5350484077
 20
20.3013816083
 11
22.5436926361
 21
20.2830172526
  0
LWPOLYLINE
  5
37F
100
AcDbEntity
  8
INTF_1
100
AcDbPolyline
 62
7
  6
CONTINUOUS
 90
81
 70
0
 10
19.9808937447
 20
20.5132189048
 10
19.9918486183
 20
20.5144765512
 10
20.0023365022
 20
20.5158552302
 10
20.0119939222
 20
20.5173110174
 10
20.0210205772
 20
20.5188628425
 10
20.0295483034
 20
20.5205238047
 10
20.0376701129
 20
20.522303832
 10
20.0454549385
 20
20.5242110404
 10
20.052955853
 20
20.5262524999
 10
20.0602149838
 20
20.5284347006
 10
20.0672666172
 20
20.5307638532
 10
20.0741392468
 20
20.5332460936
 10
20.0808569748
 20
20.5358876273
 10
20.087440501
 20
20.5386948361
 10
20.0879983694
 20
20.5389432796
 10
20.0934394873
 20
20.5414840913
 10
20.098603554
 20
20.5441101621
 10
20.1034826414
 20
20.546809755
 10
20.1080740852
 20
20.5495730515
 10
20.1123789877
 20
20.5523918678
 10
20.1164011285
 20
20.5552594414
 10
20.1201461569
 20
20.558170271
 10
20.1236209789
 20
20.5611199937
 10
20.1268332839
 20
20.5641052902
 10
20.1297911694
 20
20.5671238107
 10
20.1325028388
 20
20.5701741143
 10
20.1349763519
 20
20.5732556183
 10
20.1372194157
 20
20.5763685524
 10
20.1392392061
 20
20.5795139157
 10
20.1410422139
 20
20.5826934331
 10
20.142634113
 20
20.5859095101
 10
20.1440196457
 20
20.5891651835
 10
20.1452025267
 20
20.5924640681
 10
20.1461853637
 20
20.5958102995
 10
20.1469695946
 20
20.5992084721
 10
20.1475554421
 20
20.6026635755
 10
20.1479418845
 20
20.6061809286
 10
20.148126643
 20
20.6097661146
 10
20.1481061833
 20
20.6134249176
 10
20.1478757318
 20
20.617163263
 10
20.1474293024
 20
20.6209871636
 10
20.1468244758
 20
20.6244693809
 10
20.146026074
 20
20.6278686509
 10
20.1450353893
 20
20.6311899576
 10
20.1438525638
 20
20.6344378431
 10
20.142476629
 20
20.6376163351
 10
20.140905565
 20
20.6407288735
 10
20.1391363812
 20
20.6437782409
 10
20.1371652189
 20
20.6467664951
 10
20.1349874769
 20
20.6496949061
 10
20.132597963
 20
20.6525638976
 10
20.1299910738
 20
20.6553729909
 10
20.1271610071
 20
20.6581207527
 10
20.1241020137
 20
20.6608047429
 10
20.120808698
 20
20.6634214636
 10
20.1172763792
 20
20.6659663049
 10
20.1135015306
 20
20.6684334888
 10
20.1094823184
 20
20.6708160096
 10
20.1052192682
 20
20.6731055704
 10
20.1007160941
 20
20.6752925216
 10
20.0959807323
 20
20.6773658054
 10
20.0910266261
 20
20.6793129209
 10
20.0858743069
 20
20.6811199329
 10
20.0805533017
 20
20.6827715628
 10
20.0751043464
 20
20.684251424
 10
20.0695817797
 20
20.6855424959
 10
20.0672504337
 20
20.686025606
 10
20.0611308718
 20
20.6871415428
 10
20.0549126067
 20
20.6880677425
 10
20.0485717006
 20
20.688805769
 10
20.0420796437
 20
20.689356056
 10
20.0354016627
 20
20.6897177222
 10
20.0284941306
 20
20.689888277
 10
20.0213004143
 20
20.689863136
 10
20.013743828
 20
20.6896347806
 10
20.0057147483
 20
20.689191197
 10
19.9970445895
 20
20.6885126946
 10
19.9874452365
 20
20.6875644675
 10
19.9763333607
 20
20.6862750316
 10
19.962065651
 20
20.6844432125
 10
19.9577109909
 20
20.6838683421
  0
LINE
  5
380
100
AcDbEntity
  8
INTF_1
100
AcDbLine
 62
7
  6
CONTINUOUS
 10
19.2254163358
 20
20.7324337946
 11
19.2698485583
 21
20.7372892288
  0
LINE
  5
381
100
AcDbEntity
  8
INTF_1
100
AcDbLine
 62
7
  6
CONTINUOUS
 10
19.5934886152
 20
20.5486087608
 11
19.636004219
 21
20.552758657
  0
LINE
  5
382
100
AcDbEntity
  8
INTF_1
100
AcDbLine
 62
7
  6
CONTINUOUS
 10
19.645670644
 20
20.7324337946
 11
19.6910713608
 21
20.735887412
  0
LINE
  5
383
100
AcDbEntity
  8
INTF_1
100
AcDbLine
 62
7
  6
CONTINUOUS
 10
19.5770686554
 20
20.6824850434
 11
19.4785285264
 21
20.6776388683
  0
LWPOLYLINE
  5
384
100
AcDbEntity
  8
INTF_1
100
AcDbPolyline
 62
7
  6
CONTINUOUS
 90
81
 70
0
 10
22.232881888
 20
20.6935699515
 10
22.2197286269
 20
20.6933884867
 10
22.2054358788
 20
20.6927703199
 10
22.1914367097
 20
20.691723037
 10
22.1777558807
 20
20.6902575613
 10
22.1644168633
 20
20.6883860266
 10
22.1514416004
 20
20.6861216777
 10
22.1388502909
 20
20.6834787456
 10
22.1266612065
 20
20.680472299
 10
22.114890545
 20
20.6771180767
 10
22.1035523254
 20
20.6734323043
 10
22.0926583275
 20
20.6694314998
 10
22.0822180777
 20
20.6651322741
 10
22.0722388808
 20
20.6605511298
 10
22.062725895
 20
20.655704264
 10
22.0536822488
 20
20.6506073799
 10
22.0451091946
 20
20.6452755098
 10
22.0370062944
 20
20.6397228545
 10
22.0293716324
 20
20.6339626404
 10
22.0222020484
 20
20.6280069977
 10
22.0154933875
 20
20.6218668609
 10
22.0092407592
 20
20.6155518915
 10
22.0034388009
 20
20.6090704262
 10
21.9980819413
 20
20.6024294481
 10
21.993164658
 20
20.5956345818
 10
21.9886817253
 20
20.5886901125
 10
21.9846284478
 20
20.5815990267
 10
21.9810008764
 20
20.5743630733
 10
21.9777960032
 20
20.5669828444
 10
21.975011932
 20
20.5594578719
 10
21.9726480232
 20
20.5517867376
 10
21.9707050112
 20
20.5439671941
 10
21.9691850932
 20
20.5359962936
 10
21.9680919898
 20
20.5278705192
 10
21.9674309784
 20
20.5195859179
 10
21.9672645831
 20
20.5153826867
 10
21.9672089004
 20
20.5111393271
 10
21.9674309422
 20
20.5029659458
 10
21.9680948741
 20
20.4948643872
 10
21.9691984175
 20
20.4868341318
 10
21.9707405869
 20
20.4788752309
 10
21.9727215964
 20
20.4709884475
 10
21.9751427365
 20
20.4631753909
 10
21.9780062234
 20
20.4554386458
 10
21.98131502
 20
20.4477818888
 10
21.9850726322
 20
20.4402099917
 10
21.9892828825
 20
20.4327291059
 10
21.9939496646
 20
20.4253467268
 10
21.9990766838
 20
20.4180717343
 10
22.0046671879
 20
20.4109144076
 10
22.0107236939
 20
20.4038864124
 10
22.0172477176
 20
20.3970007581
 10
22.0242395135
 20
20.3902717259
 10
22.0316978304
 20
20.3837147664
 10
22.0396196919
 20
20.377346368
 10
22.048000209
 20
20.3711838976
 10
22.0568324303
 20
20.365245417
 10
22.0661072378
 20
20.3595494783
 10
22.0758132913
 20
20.3541149043
 10
22.0859370259
 20
20.3489605576
 10
22.0964627029
 20
20.3441051088
 10
22.1073725131
 20
20.3395668059
 10
22.1186467304
 20
20.335363257
 10
22.1302639086
 20
20.3315112289
 10
22.1422011152
 20
20.3280264703
 10
22.1544341939
 20
20.3249235623
 10
22.1646558895
 20
20.3226760719
 10
22.1773511685
 20
20.3203027754
 10
22.1902597988
 20
20.3183458719
 10
22.2033558234
 20
20.31681364
 10
22.2166136191
 20
20.3157129863
 10
22.230008111
 20
20.3150495067
 10
22.2435149555
 20
20.3148275684
 10
22.2598541825
 20
20.3150143799
 10
22.2776289338
 20
20.3156414512
 10
22.2952505494
 20
20.316702908
 10
22.3126128761
 20
20.318186717
 10
22.329622767
 20
20.3200771009
 10
22.346200594
 20
20.3223554293
 10
22.3622801201
 20
20.3250010537
 10
22.3778078944
 20
20.3279920541
  0
LINE
  5
385
100
AcDbEntity
  8
INTF_1
100
AcDbLine
 62
7
  6
CONTINUOUS
 10
22.5436926361
 20
20.2830172526
 11
22.5374353851
 21
20.2830172526
  0
LINE
  5
386
100
AcDbEntity
  8
INTF_1
100
AcDbLine
 62
7
  6
CONTINUOUS
 10
22.5226598286
 20
20.2830172526
 11
22.5166933111
 21
20.2830172526
  0
LWPOLYLINE
  5
387
100
AcDbEntity
  8
INTF_1
100
AcDbPolyline
 62
7
  6
CONTINUOUS
 90
81
 70
0
 10
22.5226598286
 20
20.3037685856
 10
22.5269819427
 20
20.3037685856
 10
22.5273811043
 20
20.3037725422
 10
22.5279091386
 20
20.3037903587
 10
22.5284201544
 20
20.3038220606
 10
22.5289135246
 20
20.3038671272
 10
22.5293887948
 20
20.3039250154
 10
22.5298456666
 20
20.3039951711
 10
22.5302839816
 20
20.3040770381
 10
22.530703705
 20
20.3041700671
 10
22.5311049093
 20
20.3042737233
 10
22.5314877593
 20
20.3043874929
 10
22.5318524971
 20
20.3045108886
 10
22.5321994285
 20
20.3046434556
 10
22.53252891
 20
20.304784775
 10
22.5328413367
 20
20.3049344684
 10
22.5331371309
 20
20.3050922004
 10
22.5334167319
 20
20.3052576821
 10
22.5336805857
 20
20.3054306725
 10
22.533929136
 20
20.3056109808
 10
22.5341628158
 20
20.3057984675
 10
22.5343820391
 20
20.3059930449
 10
22.5345871934
 20
20.3061946775
 10
22.5347786332
 20
20.3064033816
 10
22.5349566732
 20
20.3066192243
 10
22.5351215831
 20
20.3068423225
 10
22.5352735819
 20
20.3070728405
 10
22.5354128344
 20
20.307310988
 10
22.5355394468
 20
20.3075570173
 10
22.5356534646
 20
20.3078112199
 10
22.5357548697
 20
20.3080739235
 10
22.5358435801
 20
20.3083454879
 10
22.5359194485
 20
20.3086263023
 10
22.5359822147
 20
20.3089165277
 10
22.5360316286
 20
20.3092165112
 10
22.5360673986
 20
20.3095266972
 10
22.5360891705
 20
20.3098475471
 10
22.5360965297
 20
20.3101795365
 10
22.5360906944
 20
20.3104603336
 10
22.5360703852
 20
20.3107708215
 10
22.5360357515
 20
20.3110759128
 10
22.5359870392
 20
20.3113751389
 10
22.5359244923
 20
20.3116681178
 10
22.5358483423
 20
20.3119545436
 10
22.5357588006
 20
20.3122341758
 10
22.5356560504
 20
20.3125068287
 10
22.5355402419
 20
20.3127723605
 10
22.5354114874
 20
20.3130306639
 10
22.5352698579
 20
20.313281656
 10
22.5351153818
 20
20.3135252701
 10
22.534948043
 20
20.3137614473
 10
22.5347677809
 20
20.3139901294
 10
22.5345744912
 20
20.3142112528
 10
22.5343680265
 20
20.3144247424
 10
22.5341481984
 20
20.3146305072
 10
22.5339147792
 20
20.3148284363
 10
22.5336675047
 20
20.3150183957
 10
22.5334060765
 20
20.3152002255
 10
22.5331301648
 20
20.3153737385
 10
22.532839411
 20
20.3155387183
 10
22.5325334311
 20
20.3156949193
 10
22.5322119092
 20
20.3158420261
 10
22.5318745285
 20
20.3159797035
 10
22.5315208524
 20
20.3161076399
 10
22.5311504269
 20
20.3162254939
 10
22.5307627828
 20
20.3163328951
 10
22.5303574379
 20
20.3164294455
 10
22.5299338988
 20
20.3165147197
 10
22.5294916625
 20
20.3165882674
 10
22.5290302184
 20
20.3166496134
 10
22.5285490491
 20
20.3166982598
 10
22.5280476319
 20
20.3167336871
 10
22.5275254399
 20
20.3167553552
 10
22.5269819427
 20
20.3167627052
 10
22.526290852
 20
20.3167555541
 10
22.5256322459
 20
20.3167346001
 10
22.5250011691
 20
20.3167004688
 10
22.5243911096
 20
20.3166535387
 10
22.5237924122
 20
20.3165937306
 10
22.5231879234
 20
20.3165199326
 10
22.5226598286
 20
20.3164460465
  0
LINE
  5
388
100
AcDbEntity
  8
INTF_1
100
AcDbLine
 62
7
  6
CONTINUOUS
 10
19.7799543239
 20
20.3668558973
 11
19.7828468441
 21
20.3668558973
  0
LINE
  5
389
100
AcDbEntity
  8
INTF_1
100
AcDbLine
 62
7
  6
CONTINUOUS
 10
20.8542626507
 20
20.368211419
 11
20.8571570227
 21
20.368211419
  0
LINE
  5
38A
100
AcDbEntity
  8
INTF_1
100
AcDbLine
 62
7
  6
CONTINUOUS
 10
19.6389078501
 20
20.4792382728
 11
19.636004219
 21
20.4792382728
  0
LINE
  5
38B
100
AcDbEntity
  8
INTF_1
100
AcDbLine
 62
7
  6
CONTINUOUS
 10
22.3333738201
 20
20.5083449526
 11
22.4811756805
 21
20.5083449526
  0
LINE
  5
38C
100
AcDbEntity
  8
INTF_1
100
AcDbLine
 62
7
  6
CONTINUOUS
 10
19.4785285264
 20
20.5486087608
 11
19.5934886152
 21
20.5486087608
  0
LINE
  5
38D
100
AcDbEntity
  8
INTF_1
100
AcDbLine
 62
7
  6
CONTINUOUS
 10
19.636004219
 20
20.552758657
 11
19.6389078501
 21
20.552758657
  0
LINE
  5
38E
100
AcDbEntity
  8
INTF_1
100
AcDbLine
 62
7
  6
CONTINUOUS
 10
22.407753442
 20
20.6519506216
 11
22.4048609218
 21
20.6519506216
  0
LINE
  5
38F
100
AcDbEntity
  8
INTF_1
100
AcDbLine
 62
7
  6
CONTINUOUS
 10
19.6939731401
 20
20.6547172191
 11
19.6910713608
 21
20.6547172191
  0
LINE
  5
390
100
AcDbEntity
  8
INTF_1
100
AcDbLine
 62
7
  6
CONTINUOUS
 10
19.2418362957
 20
20.6547172191
 11
19.2389326645
 21
20.6547172191
  0
LINE
  5
391
100
AcDbEntity
  8
INTF_1
100
AcDbLine
 62
7
  6
CONTINUOUS
 10
18.7703666012
 20
20.6547172191
 11
18.7674648219
 21
20.6547172191
  0
LINE
  5
392
100
AcDbEntity
  8
INTF_1
100
AcDbLine
 62
7
  6
CONTINUOUS
 10
18.9703393795
 20
20.6824850434
 11
18.8853266901
 21
20.6824850434
  0
LINE
  5
393
100
AcDbEntity
  8
INTF_1
100
AcDbLine
 62
7
  6
CONTINUOUS
 10
18.8409037266
 20
20.7324337946
 11
19.2254163358
 21
20.7324337946
  0
LINE
  5
394
100
AcDbEntity
  8
INTF_1
100
AcDbLine
 62
7
  6
CONTINUOUS
 10
19.3365061511
 20
20.7324337946
 11
19.645670644
 21
20.7324337946
  0
LWPOLYLINE
  5
395
100
AcDbEntity
  8
INTF_1
100
AcDbPolyline
 62
7
  6
CONTINUOUS
 90
61
 70
0
 10
19.8166552582
 20
20.7324337946
 10
20.046584695
 20
20.7324337946
 10
20.0536112399
 20
20.7323855184
 10
20.0672871912
 20
20.732003972
 10
20.0804257247
 20
20.7312552048
 10
20.0930240897
 20
20.7301549251
 10
20.1050805748
 20
20.7287192275
 10
20.1165945817
 20
20.7269645244
 10
20.1275666885
 20
20.7249074641
 10
20.137998699
 20
20.7225648362
 10
20.147893674
 20
20.7199534632
 10
20.1572559423
 20
20.7170900821
 10
20.1660910883
 20
20.7139912134
 10
20.1744059144
 20
20.710673024
 10
20.1822083745
 20
20.7071511824
 10
20.1895074796
 20
20.7034407121
 10
20.1963131725
 20
20.6995558447
 10
20.2026361729
 20
20.6955098775
 10
20.2084877935
 20
20.6913150401
 10
20.2138797296
 20
20.6869823733
 10
20.2188238238
 20
20.682521626
 10
20.2233318107
 20
20.6779411753
 10
20.2274150473
 20
20.673247973
 10
20.2310842344
 20
20.6684475242
 10
20.2343491373
 20
20.6635439014
 10
20.237218314
 20
20.658539796
 10
20.2396988611
 20
20.6534366093
 10
20.2417961857
 20
20.6482345809
 10
20.2435138135
 20
20.6429329537
 10
20.2442308799
 20
20.6402439715
 10
20.2448532419
 20
20.6375301686
 10
20.2458128969
 20
20.632030909
 10
20.2463913411
 20
20.6264338881
 10
20.2465852504
 20
20.6207365871
 10
20.2463913032
 20
20.6153488957
 10
20.2458101755
 20
20.609988793
 10
20.2448407589
 20
20.6046500184
 10
20.2434791798
 20
20.599327234
 10
20.2417190396
 20
20.5940163134
 10
20.2395517334
 20
20.5887146213
 10
20.236966847
 20
20.583421278
 10
20.2339526273
 20
20.5781374037
 10
20.2304965265
 20
20.5728663386
 10
20.2265858152
 20
20.5676138356
 10
20.2222082626
 20
20.5623882223
 10
20.2173528802
 20
20.5572005252
 10
20.2120107205
 20
20.5520645517
 10
20.2061757207
 20
20.5469969161
 10
20.1998455729
 20
20.5420170011
 10
20.193022592
 20
20.5371468356
 10
20.1857145461
 20
20.5324108774
 10
20.1779353984
 20
20.527835683
 10
20.1697059036
 20
20.5234494568
 10
20.1610539942
 20
20.5192814743
 10
20.1520148941
 20
20.5153613906
 10
20.1426309049
 20
20.5117184534
 10
20.1329508337
 20
20.5083806577
 10
20.1230290574
 20
20.5053738922
 10
20.1133957866
 20
20.5028359742
 10
20.103200518
 20
20.5005444301
 10
20.0929705723
 20
20.4986433433
  0
LINE
  5
396
100
AcDbEntity
  8
INTF_1
100
AcDbLine
 62
7
  6
CONTINUOUS
 10
20.4098478354
 20
20.7324337946
 11
20.5943765554
 21
20.7324337946
  0
LINE
  5
397
100
AcDbEntity
  8
INTF_1
100
AcDbLine
 62
7
  6
CONTINUOUS
 10
20.8967523291
 20
20.7324337946
 11
21.0803310729
 21
20.7324337946
  0
LINE
  5
398
100
AcDbEntity
  8
INTF_1
100
AcDbLine
 62
7
  6
CONTINUOUS
 10
21.1836914518
 20
20.7324337946
 11
21.3247379255
 21
20.7324337946
  0
LINE
  5
399
100
AcDbEntity
  8
INTF_1
100
AcDbLine
 62
7
  6
CONTINUOUS
 10
21.6561277887
 20
20.7324337946
 11
21.8261716857
 21
20.7324337946
  0
LINE
  5
39A
100
AcDbEntity
  8
INTF_1
100
AcDbLine
 62
7
  6
CONTINUOUS
 10
19.6910713608
 20
20.735887412
 11
19.6939731401
 21
20.735887412
  0
LINE
  5
39B
100
AcDbEntity
  8
INTF_1
100
AcDbLine
 62
7
  6
CONTINUOUS
 10
18.8012899022
 20
20.7372892288
 11
18.8041750152
 21
20.7372892288
  0
LINE
  5
39C
100
AcDbEntity
  8
INTF_1
100
AcDbLine
 62
7
  6
CONTINUOUS
 10
19.2698485583
 20
20.7372892288
 11
19.2727410786
 21
20.7372892288
  0
LINE
  5
39D
100
AcDbEntity
  8
INTF_1
100
AcDbLine
 62
7
  6
CONTINUOUS
 10
18.1584837505
 20
20.8349238249
 11
22.6335700187
 21
20.8349238249
  0
LINE
  5
39E
100
AcDbEntity
  8
INTF_1
100
AcDbLine
 62
7
  6
CONTINUOUS
 10
18.1495321225
 20
20.843875453
 11
22.6425401648
 21
20.843875453
  0
LWPOLYLINE
  5
39F
100
AcDbEntity
  8
INTF_1
100
AcDbPolyline
 62
7
  6
CONTINUOUS
 90
3
 70
0
 10
22.6914389423
 20
20.8909224249
 10
18.0986259877
 20
20.8909224249
 10
18.0986259877
 20
20.1203528008
  0
LWPOLYLINE
  5
3A0
100
AcDbEntity
  8
INTF_1
100
AcDbPolyline
 62
7
  6
CONTINUOUS
 90
3
 70
0
 10
18.0769339375
 20
20.9077127459
 10
22.7184197493
 20
20.9077127459
 10
22.7184197493
 20
20.0646171571
  0
LINE
  5
3A1
100
AcDbEntity
  8
INTF_1
100
AcDbLine
 62
7
  6
CONTINUOUS
 10
22.7122717548
 20
20.9136181538
 11
18.0797653482
 21
20.9136181538
  0
LINE
  5
3A2
100
AcDbEntity
  8
INTF_1
100
AcDbLine
 62
7
  6
CONTINUOUS
 10
18.8041750152
 20
20.7372892288
 11
18.8409037266
 21
20.7324337946
  0
LINE
  5
3A3
100
AcDbEntity
  8
0
100
AcDbLine
 62
7
  6
CONTINUOUS
 10
18.9248844054
 20
5.934405795
 11
19.3460491521
 21
6.3555705417
  0
LINE
  5
3A4
100
AcDbEntity
  8
DEFAULT_1
100
AcDbLine
 62
2
  6
CENTER
 10
6.3727249762
 20
26.3035465614
 11
27.9409716492
 21
26.3035465614
  0
LINE
  5
3A5
100
AcDbEntity
  8
DEFAULT_1
100
AcDbLine
 62
2
  6
CENTER
 10
6.3727249762
 20
28.3034965614
 11
27.9409716492
 21
28.3034965614
  0
CIRCLE
  5
3A6
100
AcDbEntity
  8
110
100
AcDbCircle
 62
8
  6
HIDDEN
 10
17.0523854949
 20
14.9288309364
 40
9.4997625
  0
ARC
  5
3A7
100
AcDbEntity
  8
0
100
AcDbCircle
 62
7
  6
CONTINUOUS
 10
17.0523854949
 20
14.9288309364
 40
9.1872703125
100
AcDbArc
 50
258.2398901572
 51
281.7601098428
  0
ARC
  5
3A8
100
AcDbEntity
  8
0
100
AcDbCircle
 62
7
  6
CONTINUOUS
 10
17.0523854949
 20
14.9288309364
 40
8.874778125
100
AcDbArc
 50
284.9779584532
 51
255.0220415468
  0
ARC
  5
3A9
100
AcDbEntity
  8
INTF_1
100
AcDbCircle
 62
7
  6
CONTINUOUS
 10
22.2515933819
 20
20.3947546235
 40
0.2994006016
100
AcDbArc
 50
59.208555199
 51
93.5831215674
  0
ARC
  5
3AA
100
AcDbEntity
  8
INTF_1
100
AcDbCircle
 62
7
  6
CONTINUOUS
 10
21.832336855
 20
20.5197701406
 40
0.2719128025
100
AcDbArc
 50
223.4269507726
 51
258.0242403069
  0
ARC
  5
3AB
100
AcDbEntity
  8
INTF_1
100
AcDbCircle
 62
7
  6
CONTINUOUS
 10
18.8759000236
 20
20.4696579035
 40
0.2130358034
100
AcDbArc
 50
87.4638787987
 51
119.6947324667
  0
CIRCLE
  5
3AC
100
AcDbEntity
  8
0
100
AcDbCircle
 62
2
  6
CONTINUOUS
 10
21.8305805002
 20
16.2628190882
 40
0.1943718714
  0
CIRCLE
  5
3AD
100
AcDbEntity
  8
0
100
AcDbCircle
 62
2
  6
CONTINUOUS
 10
21.8202933608
 20
16.8175410257
 40
0.1943718714
  0
CIRCLE
  5
3AE
100
AcDbEntity
  8
0
100
AcDbCircle
 62
2
  6
CONTINUOUS
 10
21.8202933608
 20
17.3730465539
 40
0.1943718714
  0
ARC
  5
3AF
100
AcDbEntity
  8
INTF_1
100
AcDbCircle
 62
7
  6
CONTINUOUS
 10
19.5962029267
 20
20.513135234
 40
0.1704273402
100
AcDbArc
 50
56.1755396367
 51
96.4463209909
  0
ARC
  5
3B0
100
AcDbEntity
  8
INTF_1
100
AcDbCircle
 62
7
  6
CONTINUOUS
 10
20.2852419427
 20
20.4276130241
 40
0.1523365658
100
AcDbArc
 50
230.1562195028
 51
275.4518816802
  0
ARC
  5
3B1
100
AcDbEntity
  8
INTF_1
100
AcDbCircle
 62
7
  6
CONTINUOUS
 10
21.9629755066
 20
19.9609385913
 40
0.0692089058
100
AcDbArc
 50
180.5675053294
 51
310.5520051654
  0
CIRCLE
  5
3B2
100
AcDbEntity
  8
INTF_1
100
AcDbCircle
 62
7
  6
CONTINUOUS
 10
22.0861440498
 20
19.9603632821
 40
0.0686324205
  0
ARC
  5
3B3
100
AcDbEntity
  8
INTF_1
100
AcDbCircle
 62
7
  6
CONTINUOUS
 10
21.962208872
 20
19.960263535
 40
0.0684388771
100
AcDbArc
 50
47.5048873671
 51
180.0087362707
  0
CIRCLE
  5
3B4
100
AcDbEntity
  8
INTF_1
100
AcDbCircle
 62
7
  6
CONTINUOUS
 10
22.0855688134
 20
19.9603623562
 40
0.0583931202
  0
CIRCLE
  5
3B5
100
AcDbEntity
  8
INTF_1
100
AcDbCircle
 62
7
  6
CONTINUOUS
 10
21.2783887361
 20
19.9462840044
 40
0.0423986003
  0
ARC
  5
3B6
100
AcDbEntity
  8
INTF_1
100
AcDbCircle
 62
7
  6
CONTINUOUS
 10
22.3517233779
 20
19.9915847237
 40
0.0362606609
100
AcDbArc
 50
260.4787245939
 51
99.5212754061
  0
CIRCLE
  5
3B7
100
AcDbEntity
  8
INTF_1
100
AcDbCircle
 62
7
  6
CONTINUOUS
 10
22.529007818
 20
20.3039534804
 40
0.0269700785
  0
ENDSEC
  0
SECTION
  2
OBJECTS
  0
DICTIONARY
  5
3B8
100
AcDbDictionary
  3
ACAD_GROUP
350
3B9
  3
ACAD_MLINESTYLE
350
3BA
  0
DICTIONARY
  5
3B9
102
{ACAD_REACTORS
330
3B8
102
}
100
AcDbDictionary
  0
DICTIONARY
  5
3BA
102
{ACAD_REACTORS
330
3B8
102
}
100
AcDbDictionary
  3
STANDARD
350
3BB
  0
MLINESTYLE
  5
3BB
102
{ACAD_REACTORS
330
3BA
102
}
100
AcDbMlineStyle
  2
STANDARD
 70
0
  3

 62
256
 51
90.0
 52
90.0
 71
2
 49
0.5
 62
256
  6
BYLAYER
 49
-0.5
 62
256
  6
BYLAYER
  0
ENDSEC
  0
EOF
