999
DXF file: 1207219_7_a.dxf
999
Pro/ENGINEER 2012070 by Parametric Technology Corporation
  0
SECTION
  2
HEADER
  9
$EXTMAX
 10
44.0
 20
34.0
 30
0.0
  9
$EXTMIN
 10
0.0
 20
0.0
 30
0.0
  9
$LIMMIN
 10
0.0
 20
0.0
  9
$LIMMAX
 10
44.0
 20
34.0
  9
$VIEWCTR
 10
22.0
 20
17.0
  9
$VIEWSIZE
 40
34.0
  9
$CLAYER
  8
0
  9
$LTSCALE
 40
2.42
  9
$CELTYPE
  6
BYLAYER
  9
$DIMSCALE
 40
1.0
  9
$DIMASZ
 40
0.1875
  9
$DIMEXO
 40
0.0625
  9
$DIMDLI
 40
1.672
  9
$DIMEXE
 40
0.125
  9
$DIMCEN
 40
0.396
  9
$DIMLFAC
 40
1.0
  9
$DIMBLK
  1
_FILLED
  9
$DIMTXT
 40
0.15625
  9
$PDMODE
 70
3
  9
$PDSIZE
 40
0.3125
  9
$TILEMODE
 70
1
  0
ENDSEC
  0
SECTION
  2
TABLES
  0
TABLE
  2
LTYPE
 70
6
  0
LTYPE
  2
BYBLOCK
 70
0
  3

 72
65
 73
0
 40
0.0
  0
LTYPE
  2
BYLAYER
 70
0
  3

 72
65
 73
0
 40
0.0
  0
LTYPE
  2
CONTINUOUS
 70
64
  3
Solid line
 72
65
 73
0
 40
0.0
  0
LTYPE
  2
CENTER
 70
64
  3
____ _ ____ _ ____ _ ____ _ ____ _ ____ _ ____
 72
65
 73
4
 40
0.6
 49
0.375
 49
-0.075
 49
0.075
 49
-0.075
  0
LTYPE
  2
HIDDEN
 70
64
  3
- - - - - - - - - - - - - - - - - - - -
 72
65
 73
2
 40
0.2
 49
0.1
 49
-0.1
  0
LTYPE
  2
PHANTOM
 70
64
  3
_____ _ _ _____ _ _ _____ _ _ _____
 72
65
 73
6
 40
0.8
 49
0.45
 49
-0.05
 49
0.1
 49
-0.05
 49
0.1
 49
-0.05
  0
LTYPE
  2
DOT
 70
64
  3
. . . . . . . . . . . . . . . . . . . .
 72
65
 73
2
 40
0.2
 49
0.1
 49
-0.1
  0
LTYPE
  2
DASHED
 70
64
  3
- - - - - - - - - - - - - - - - - - - -
 72
65
 73
2
 40
0.2
 49
0.1
 49
-0.1
  0
ENDTAB
  0
TABLE
  2
LAYER
 70
36
  0
LAYER
  2
0
 70
0
 62
7
  6
CONTINUOUS
  0
LAYER
  2
DEFAULT_1
 70
0
 62
7
  6
CENTER
  0
LAYER
  2
DEFAULT_2
 70
0
 62
8
  6
HIDDEN
  0
LAYER
  2
DEFAULT_3
 70
0
 62
7
  6
PHANTOM
  0
LAYER
  2
DATUMS
 70
0
 62
7
  6
CONTINUOUS
  0
LAYER
  2
DATUM_AXIS
 70
0
 62
7
  6
CONTINUOUS
  0
LAYER
  2
DATUM_CSYS
 70
0
 62
7
  6
CONTINUOUS
  0
LAYER
  2
DATUM_PLANE
 70
0
 62
7
  6
CONTINUOUS
  0
LAYER
  2
DATUM_POINT
 70
0
 62
7
  6
CONTINUOUS
  0
LAYER
  2
_CURVE
 70
0
 62
7
  6
CONTINUOUS
  0
LAYER
  2
_SURFACE
 70
0
 62
7
  6
CONTINUOUS
  0
LAYER
  2
__REF_CURVE
 70
0
 62
7
  6
CONTINUOUS
  0
LAYER
  2
__REF_SURFACE
 70
0
 62
7
  6
CONTINUOUS
  0
LAYER
  2
___NOTE
 70
0
 62
7
  6
CONTINUOUS
  0
LAYER
  2
___SYMBOL
 70
0
 62
7
  6
CONTINUOUS
  0
ENDTAB
  0
TABLE
  2
STYLE
 70
1
  0
STYLE
  2
STANDARD
 70
0
 40
0.0
 41
0.8
 50
0.0
 71
0
 42
0.2
  3
txt
  4

  0
STYLE
  2
TEXTSTYLE_1
 70
0
 40
0.0
 41
0.8
 50
0.0
 71
0
 42
0.2
  3
gdt
  4

  0
STYLE
  2
TEXTSTYLE_2
 70
0
 40
0.0
 41
1.0
 50
0.0
 71
0
 42
0.2
  3
txt
  4

  0
ENDTAB
  0
ENDSEC
  0
SECTION
  2
BLOCKS
  0
BLOCK
  8
___SYMBOL
 62
2
  6
CONTINUOUS
  2
SYMBOL_37_BL5
 70
64
 10
28.6416626705
 20
19.9748826575
  0
LINE
  8
___SYMBOL
 62
7
  6
CONTINUOUS
 10
28.6110662205
 20
20.0927558299
 11
28.4989864473
 21
20.6464141316
  0
LINE
  8
___SYMBOL
 62
7
  6
CONTINUOUS
 10
28.5626865613
 20
20.0632547544
 11
28.4989864473
 21
20.6464141316
  0
LINE
  8
___SYMBOL
 62
7
  6
CONTINUOUS
 10
28.6383283258
 20
19.9970718379
 11
28.6367607118
 21
20.0479252447
  0
LINE
  8
___SYMBOL
 62
7
  6
CONTINUOUS
 10
28.6531384131
 20
20.0486052342
 11
28.6547168138
 21
19.9974019034
  0
LINE
  8
___SYMBOL
 62
7
  6
CONTINUOUS
 10
28.6472203302
 20
20.225974684
 11
28.8349347198
 21
20.6366786506
  0
LINE
  8
___SYMBOL
 62
7
  6
CONTINUOUS
 10
28.5331115084
 20
19.9677045834
 11
28.5656406023
 21
20.0291171514
  0
LINE
  8
___SYMBOL
 62
7
  6
CONTINUOUS
 10
28.7143675757
 20
20.035523282
 11
28.8349347198
 21
20.4212118948
  0
LINE
  8
___SYMBOL
 62
7
  6
CONTINUOUS
 10
28.6849989602
 20
20.1188222163
 11
28.6110662205
 21
20.0927558299
  0
LINE
  8
___SYMBOL
 62
7
  6
CONTINUOUS
 10
28.7389795996
 20
19.9657155868
 11
28.6816927978
 21
19.827451064
  0
LINE
  8
___SYMBOL
 62
7
  6
CONTINUOUS
 10
28.5869532714
 20
19.8319626738
 11
28.6310305466
 21
19.8777618756
  0
LINE
  8
___SYMBOL
 62
7
  6
CONTINUOUS
 10
28.4989864473
 20
20.6464141316
 11
28.7389795996
 21
19.9657155868
  0
LINE
  8
___SYMBOL
 62
7
  6
CONTINUOUS
 10
28.5869532714
 20
19.8319626738
 11
28.5331115084
 21
19.9677045834
  0
ARC
  8
___SYMBOL
 62
7
  6
CONTINUOUS
 10
28.4903007205
 20
20.5289452727
 40
0.3610804262
 50
342.6406360869
 51
17.3593639131
  0
ARC
  8
___SYMBOL
 62
7
  6
CONTINUOUS
 10
28.87533853
 20
20.0731129622
 40
0.3128073492
 50
181.8059909349
 51
231.752660067
  0
CIRCLE
  8
___SYMBOL
 62
7
  6
CONTINUOUS
 10
28.6460085428
 20
20.0227594544
 40
0.0268111801
  0
ARC
  8
___SYMBOL
 62
7
  6
CONTINUOUS
 10
28.8054663532
 20
19.650441857
 40
0.0146088562
 50
185.3133793157
 51
314.0675041521
  0
ARC
  8
___SYMBOL
 62
7
  6
CONTINUOUS
 10
28.4708047582
 20
19.6429212878
 40
0.0146087357
 50
233.3109272841
 51
359.4467240969
  0
POLYLINE
  8
___SYMBOL
 62
7
  6
CONTINUOUS
 66
1
 70
0
  0
VERTEX
  8
___SYMBOL
 62
7
  6
CONTINUOUS
 10
28.7677222251
 20
19.4157004865
  0
VERTEX
  8
___SYMBOL
 62
7
  6
CONTINUOUS
 10
28.7643829123
 20
19.4259493939
  0
VERTEX
  8
___SYMBOL
 62
7
  6
CONTINUOUS
 10
28.7613253344
 20
19.4362793832
  0
VERTEX
  8
___SYMBOL
 62
7
  6
CONTINUOUS
 10
28.7585372757
 20
19.4466848343
  0
VERTEX
  8
___SYMBOL
 62
7
  6
CONTINUOUS
 10
28.7560065203
 20
19.4571601272
  0
VERTEX
  8
___SYMBOL
 62
7
  6
CONTINUOUS
 10
28.7537208525
 20
19.4676996419
  0
VERTEX
  8
___SYMBOL
 62
7
  6
CONTINUOUS
 10
28.7516680562
 20
19.4782977585
  0
VERTEX
  8
___SYMBOL
 62
7
  6
CONTINUOUS
 10
28.7498359158
 20
19.4889488568
  0
VERTEX
  8
___SYMBOL
 62
7
  6
CONTINUOUS
 10
28.7482122154
 20
19.499647317
  0
VERTEX
  8
___SYMBOL
 62
7
  6
CONTINUOUS
 10
28.7467847392
 20
19.510387519
  0
VERTEX
  8
___SYMBOL
 62
7
  6
CONTINUOUS
 10
28.7455412713
 20
19.5211638427
  0
VERTEX
  8
___SYMBOL
 62
7
  6
CONTINUOUS
 10
28.744469596
 20
19.5319706683
  0
VERTEX
  8
___SYMBOL
 62
7
  6
CONTINUOUS
 10
28.7435574974
 20
19.5428023756
  0
VERTEX
  8
___SYMBOL
 62
7
  6
CONTINUOUS
 10
28.7427927596
 20
19.5536533446
  0
VERTEX
  8
___SYMBOL
 62
7
  6
CONTINUOUS
 10
28.7421631668
 20
19.5645179554
  0
VERTEX
  8
___SYMBOL
 62
7
  6
CONTINUOUS
 10
28.7416565033
 20
19.575390588
  0
VERTEX
  8
___SYMBOL
 62
7
  6
CONTINUOUS
 10
28.7412605531
 20
19.5862656223
  0
VERTEX
  8
___SYMBOL
 62
7
  6
CONTINUOUS
 10
28.7409631006
 20
19.5971374383
  0
VERTEX
  8
___SYMBOL
 62
7
  6
CONTINUOUS
 10
28.7407519297
 20
19.6080004161
  0
VERTEX
  8
___SYMBOL
 62
7
  6
CONTINUOUS
 10
28.7406148247
 20
19.6188489355
  0
VERTEX
  8
___SYMBOL
 62
7
  6
CONTINUOUS
 10
28.7405395698
 20
19.6296773767
  0
VERTEX
  8
___SYMBOL
 62
7
  6
CONTINUOUS
 10
28.7405093598
 20
19.6455950404
  0
VERTEX
  8
___SYMBOL
 62
7
  6
CONTINUOUS
 10
28.7405102771
 20
19.6614790509
  0
VERTEX
  8
___SYMBOL
 62
7
  6
CONTINUOUS
 10
28.7404656326
 20
19.677351577
  0
VERTEX
  8
___SYMBOL
 62
7
  6
CONTINUOUS
 10
28.7402987373
 20
19.6932347878
  0
VERTEX
  8
___SYMBOL
 62
7
  6
CONTINUOUS
 10
28.7399329021
 20
19.7091508523
  0
VERTEX
  8
___SYMBOL
 62
7
  6
CONTINUOUS
 10
28.7396747481
 20
19.7164830557
  0
VERTEX
  8
___SYMBOL
 62
7
  6
CONTINUOUS
 10
28.7393380749
 20
19.7238198923
  0
VERTEX
  8
___SYMBOL
 62
7
  6
CONTINUOUS
 10
28.7389026101
 20
19.731154368
  0
VERTEX
  8
___SYMBOL
 62
7
  6
CONTINUOUS
 10
28.7383480816
 20
19.7384794882
  0
VERTEX
  8
___SYMBOL
 62
7
  6
CONTINUOUS
 10
28.7376542169
 20
19.7457882589
  0
VERTEX
  8
___SYMBOL
 62
7
  6
CONTINUOUS
 10
28.7368007438
 20
19.7530736856
  0
VERTEX
  8
___SYMBOL
 62
7
  6
CONTINUOUS
 10
28.73576739
 20
19.7603287739
  0
VERTEX
  8
___SYMBOL
 62
7
  6
CONTINUOUS
 10
28.7345338831
 20
19.7675465298
  0
VERTEX
  8
___SYMBOL
 62
7
  6
CONTINUOUS
 10
28.7330799509
 20
19.7747199587
  0
VERTEX
  8
___SYMBOL
 62
7
  6
CONTINUOUS
 10
28.7313853211
 20
19.7818420664
  0
VERTEX
  8
___SYMBOL
 62
7
  6
CONTINUOUS
 10
28.7294297213
 20
19.7889058586
  0
VERTEX
  8
___SYMBOL
 62
7
  6
CONTINUOUS
 10
28.7271928793
 20
19.7959043409
  0
VERTEX
  8
___SYMBOL
 62
7
  6
CONTINUOUS
 10
28.7261258632
 20
19.7989100233
  0
VERTEX
  8
___SYMBOL
 62
7
  6
CONTINUOUS
 10
28.7249667662
 20
19.8018780271
  0
VERTEX
  8
___SYMBOL
 62
7
  6
CONTINUOUS
 10
28.7236800863
 20
19.8047842413
  0
VERTEX
  8
___SYMBOL
 62
7
  6
CONTINUOUS
 10
28.7222303217
 20
19.807604555
  0
VERTEX
  8
___SYMBOL
 62
7
  6
CONTINUOUS
 10
28.7205819705
 20
19.8103148576
  0
VERTEX
  8
___SYMBOL
 62
7
  6
CONTINUOUS
 10
28.7186995308
 20
19.812891038
  0
VERTEX
  8
___SYMBOL
 62
7
  6
CONTINUOUS
 10
28.7166341422
 20
19.8152323114
  0
VERTEX
  8
___SYMBOL
 62
7
  6
CONTINUOUS
 10
28.7143430061
 20
19.8174138454
  0
VERTEX
  8
___SYMBOL
 62
7
  6
CONTINUOUS
 10
28.7118521771
 20
19.819423693
  0
VERTEX
  8
___SYMBOL
 62
7
  6
CONTINUOUS
 10
28.7091877098
 20
19.821249907
  0
VERTEX
  8
___SYMBOL
 62
7
  6
CONTINUOUS
 10
28.706375659
 20
19.8228805405
  0
VERTEX
  8
___SYMBOL
 62
7
  6
CONTINUOUS
 10
28.7034420791
 20
19.8243036465
  0
VERTEX
  8
___SYMBOL
 62
7
  6
CONTINUOUS
 10
28.7004130249
 20
19.8255072778
  0
VERTEX
  8
___SYMBOL
 62
7
  6
CONTINUOUS
 10
28.6973145509
 20
19.8264794874
  0
VERTEX
  8
___SYMBOL
 62
7
  6
CONTINUOUS
 10
28.6941727119
 20
19.8272083283
  0
VERTEX
  8
___SYMBOL
 62
7
  6
CONTINUOUS
 10
28.6910135625
 20
19.8276818535
  0
VERTEX
  8
___SYMBOL
 62
7
  6
CONTINUOUS
 10
28.6878631572
 20
19.8278881159
  0
VERTEX
  8
___SYMBOL
 62
7
  6
CONTINUOUS
 10
28.6847475508
 20
19.8278151684
  0
VERTEX
  8
___SYMBOL
 62
7
  6
CONTINUOUS
 10
28.6816927978
 20
19.827451064
  0
SEQEND
  0
POLYLINE
  8
___SYMBOL
 62
7
  6
CONTINUOUS
 66
1
 70
0
  0
VERTEX
  8
___SYMBOL
 62
7
  6
CONTINUOUS
 10
28.7909202698
 20
19.6490890317
  0
VERTEX
  8
___SYMBOL
 62
7
  6
CONTINUOUS
 10
28.790297384
 20
19.656751316
  0
VERTEX
  8
___SYMBOL
 62
7
  6
CONTINUOUS
 10
28.7898426239
 20
19.6644201141
  0
VERTEX
  8
___SYMBOL
 62
7
  6
CONTINUOUS
 10
28.789511981
 20
19.6731257518
  0
VERTEX
  8
___SYMBOL
 62
7
  6
CONTINUOUS
 10
28.7893595557
 20
19.6818202683
  0
VERTEX
  8
___SYMBOL
 62
7
  6
CONTINUOUS
 10
28.7893642739
 20
19.690513564
  0
VERTEX
  8
___SYMBOL
 62
7
  6
CONTINUOUS
 10
28.7895050616
 20
19.6992155391
  0
VERTEX
  8
___SYMBOL
 62
7
  6
CONTINUOUS
 10
28.7897608447
 20
19.7079360939
  0
VERTEX
  8
___SYMBOL
 62
7
  6
CONTINUOUS
 10
28.7901105491
 20
19.7166851287
  0
VERTEX
  8
___SYMBOL
 62
7
  6
CONTINUOUS
 10
28.7905331009
 20
19.7254725437
  0
VERTEX
  8
___SYMBOL
 62
7
  6
CONTINUOUS
 10
28.791007426
 20
19.7343082392
  0
VERTEX
  8
___SYMBOL
 62
7
  6
CONTINUOUS
 10
28.7913223112
 20
19.7399076761
  0
VERTEX
  8
___SYMBOL
 62
7
  6
CONTINUOUS
 10
28.791636193
 20
19.7455250696
  0
VERTEX
  8
___SYMBOL
 62
7
  6
CONTINUOUS
 10
28.7919358619
 20
19.7511552432
  0
VERTEX
  8
___SYMBOL
 62
7
  6
CONTINUOUS
 10
28.7922081083
 20
19.7567930205
  0
VERTEX
  8
___SYMBOL
 62
7
  6
CONTINUOUS
 10
28.7924397227
 20
19.7624332251
  0
VERTEX
  8
___SYMBOL
 62
7
  6
CONTINUOUS
 10
28.7926174955
 20
19.7680706805
  0
VERTEX
  8
___SYMBOL
 62
7
  6
CONTINUOUS
 10
28.7927282172
 20
19.7737002104
  0
VERTEX
  8
___SYMBOL
 62
7
  6
CONTINUOUS
 10
28.7927586782
 20
19.7793166383
  0
VERTEX
  8
___SYMBOL
 62
7
  6
CONTINUOUS
 10
28.7926956689
 20
19.7849147879
  0
VERTEX
  8
___SYMBOL
 62
7
  6
CONTINUOUS
 10
28.7925259799
 20
19.7904894826
  0
VERTEX
  8
___SYMBOL
 62
7
  6
CONTINUOUS
 10
28.7922364016
 20
19.7960355461
  0
VERTEX
  8
___SYMBOL
 62
7
  6
CONTINUOUS
 10
28.7918137244
 20
19.801547802
  0
VERTEX
  8
___SYMBOL
 62
7
  6
CONTINUOUS
 10
28.7912447388
 20
19.8070210738
  0
VERTEX
  8
___SYMBOL
 62
7
  6
CONTINUOUS
 10
28.7905162352
 20
19.8124501851
  0
VERTEX
  8
___SYMBOL
 62
7
  6
CONTINUOUS
 10
28.7896150041
 20
19.8178299595
  0
VERTEX
  8
___SYMBOL
 62
7
  6
CONTINUOUS
 10
28.7885278359
 20
19.8231552205
  0
VERTEX
  8
___SYMBOL
 62
7
  6
CONTINUOUS
 10
28.7872415211
 20
19.8284207918
  0
VERTEX
  8
___SYMBOL
 62
7
  6
CONTINUOUS
 10
28.7857428502
 20
19.833621497
  0
VERTEX
  8
___SYMBOL
 62
7
  6
CONTINUOUS
 10
28.7840186135
 20
19.8387521595
  0
VERTEX
  8
___SYMBOL
 62
7
  6
CONTINUOUS
 10
28.7821926945
 20
19.8434905856
  0
VERTEX
  8
___SYMBOL
 62
7
  6
CONTINUOUS
 10
28.780176893
 20
19.8481691747
  0
VERTEX
  8
___SYMBOL
 62
7
  6
CONTINUOUS
 10
28.7779907345
 20
19.8527940575
  0
VERTEX
  8
___SYMBOL
 62
7
  6
CONTINUOUS
 10
28.7756537444
 20
19.8573713647
  0
VERTEX
  8
___SYMBOL
 62
7
  6
CONTINUOUS
 10
28.7731854483
 20
19.8619072271
  0
VERTEX
  8
___SYMBOL
 62
7
  6
CONTINUOUS
 10
28.7706053717
 20
19.8664077753
  0
VERTEX
  8
___SYMBOL
 62
7
  6
CONTINUOUS
 10
28.7679330401
 20
19.87087914
  0
VERTEX
  8
___SYMBOL
 62
7
  6
CONTINUOUS
 10
28.7651879789
 20
19.8753274521
  0
VERTEX
  8
___SYMBOL
 62
7
  6
CONTINUOUS
 10
28.7623897136
 20
19.8797588421
  0
VERTEX
  8
___SYMBOL
 62
7
  6
CONTINUOUS
 10
28.7595577697
 20
19.8841794408
  0
VERTEX
  8
___SYMBOL
 62
7
  6
CONTINUOUS
 10
28.7575173254
 20
19.8873518029
  0
VERTEX
  8
___SYMBOL
 62
7
  6
CONTINUOUS
 10
28.7554953829
 20
19.8905304581
  0
VERTEX
  8
___SYMBOL
 62
7
  6
CONTINUOUS
 10
28.7535177426
 20
19.8937241029
  0
VERTEX
  8
___SYMBOL
 62
7
  6
CONTINUOUS
 10
28.7516102051
 20
19.8969414339
  0
VERTEX
  8
___SYMBOL
 62
7
  6
CONTINUOUS
 10
28.7497985708
 20
19.9001911476
  0
VERTEX
  8
___SYMBOL
 62
7
  6
CONTINUOUS
 10
28.7481086401
 20
19.9034819406
  0
VERTEX
  8
___SYMBOL
 62
7
  6
CONTINUOUS
 10
28.7465662137
 20
19.9068225093
  0
VERTEX
  8
___SYMBOL
 62
7
  6
CONTINUOUS
 10
28.7451970919
 20
19.9102215504
  0
VERTEX
  8
___SYMBOL
 62
7
  6
CONTINUOUS
 10
28.7440270753
 20
19.9136877603
  0
VERTEX
  8
___SYMBOL
 62
7
  6
CONTINUOUS
 10
28.743126806
 20
19.9170031685
  0
VERTEX
  8
___SYMBOL
 62
7
  6
CONTINUOUS
 10
28.7424024515
 20
19.9203754523
  0
VERTEX
  8
___SYMBOL
 62
7
  6
CONTINUOUS
 10
28.7418322642
 20
19.9237948118
  0
VERTEX
  8
___SYMBOL
 62
7
  6
CONTINUOUS
 10
28.7413944965
 20
19.9272514469
  0
VERTEX
  8
___SYMBOL
 62
7
  6
CONTINUOUS
 10
28.7410674007
 20
19.9307355576
  0
VERTEX
  8
___SYMBOL
 62
7
  6
CONTINUOUS
 10
28.7408292292
 20
19.9342373438
  0
VERTEX
  8
___SYMBOL
 62
7
  6
CONTINUOUS
 10
28.7406582346
 20
19.9377470056
  0
VERTEX
  8
___SYMBOL
 62
7
  6
CONTINUOUS
 10
28.740532669
 20
19.941254743
  0
VERTEX
  8
___SYMBOL
 62
7
  6
CONTINUOUS
 10
28.7404132381
 20
19.9453671466
  0
VERTEX
  8
___SYMBOL
 62
7
  6
CONTINUOUS
 10
28.7402886247
 20
19.9494641813
  0
VERTEX
  8
___SYMBOL
 62
7
  6
CONTINUOUS
 10
28.7401208915
 20
19.9535466949
  0
VERTEX
  8
___SYMBOL
 62
7
  6
CONTINUOUS
 10
28.7398721011
 20
19.9576155352
  0
VERTEX
  8
___SYMBOL
 62
7
  6
CONTINUOUS
 10
28.7395043163
 20
19.9616715499
  0
VERTEX
  8
___SYMBOL
 62
7
  6
CONTINUOUS
 10
28.7389795996
 20
19.9657155868
  0
SEQEND
  0
POLYLINE
  8
___SYMBOL
 62
7
  6
CONTINUOUS
 66
1
 70
0
  0
VERTEX
  8
___SYMBOL
 62
7
  6
CONTINUOUS
 10
28.5282902305
 20
19.4543570699
  0
VERTEX
  8
___SYMBOL
 62
7
  6
CONTINUOUS
 10
28.5302871896
 20
19.4628493013
  0
VERTEX
  8
___SYMBOL
 62
7
  6
CONTINUOUS
 10
28.532040408
 20
19.471390502
  0
VERTEX
  8
___SYMBOL
 62
7
  6
CONTINUOUS
 10
28.5335636595
 20
19.4799762251
  0
VERTEX
  8
___SYMBOL
 62
7
  6
CONTINUOUS
 10
28.5348707176
 20
19.4886020237
  0
VERTEX
  8
___SYMBOL
 62
7
  6
CONTINUOUS
 10
28.5359753559
 20
19.4972634509
  0
VERTEX
  8
___SYMBOL
 62
7
  6
CONTINUOUS
 10
28.5368913481
 20
19.5059560597
  0
VERTEX
  8
___SYMBOL
 62
7
  6
CONTINUOUS
 10
28.5376324678
 20
19.5146754033
  0
VERTEX
  8
___SYMBOL
 62
7
  6
CONTINUOUS
 10
28.5382124886
 20
19.5234170347
  0
VERTEX
  8
___SYMBOL
 62
7
  6
CONTINUOUS
 10
28.5386451841
 20
19.532176507
  0
VERTEX
  8
___SYMBOL
 62
7
  6
CONTINUOUS
 10
28.538944328
 20
19.5409493733
  0
VERTEX
  8
___SYMBOL
 62
7
  6
CONTINUOUS
 10
28.5391236938
 20
19.5497311866
  0
VERTEX
  8
___SYMBOL
 62
7
  6
CONTINUOUS
 10
28.5391970553
 20
19.5585175
  0
VERTEX
  8
___SYMBOL
 62
7
  6
CONTINUOUS
 10
28.5391781859
 20
19.5673038667
  0
VERTEX
  8
___SYMBOL
 62
7
  6
CONTINUOUS
 10
28.5390272966
 20
19.5794273349
  0
VERTEX
  8
___SYMBOL
 62
7
  6
CONTINUOUS
 10
28.5387704093
 20
19.5915393631
  0
VERTEX
  8
___SYMBOL
 62
7
  6
CONTINUOUS
 10
28.5384510629
 20
19.6036368857
  0
VERTEX
  8
___SYMBOL
 62
7
  6
CONTINUOUS
 10
28.5381127961
 20
19.6157168371
  0
VERTEX
  8
___SYMBOL
 62
7
  6
CONTINUOUS
 10
28.5377991479
 20
19.6277761516
  0
VERTEX
  8
___SYMBOL
 62
7
  6
CONTINUOUS
 10
28.5375536569
 20
19.6398117636
  0
VERTEX
  8
___SYMBOL
 62
7
  6
CONTINUOUS
 10
28.5374198622
 20
19.6518206073
  0
VERTEX
  8
___SYMBOL
 62
7
  6
CONTINUOUS
 10
28.5374413024
 20
19.6637996171
  0
VERTEX
  8
___SYMBOL
 62
7
  6
CONTINUOUS
 10
28.5376615166
 20
19.6757457275
  0
VERTEX
  8
___SYMBOL
 62
7
  6
CONTINUOUS
 10
28.5381618984
 20
19.6887719123
  0
VERTEX
  8
___SYMBOL
 62
7
  6
CONTINUOUS
 10
28.5388936656
 20
19.7017938103
  0
VERTEX
  8
___SYMBOL
 62
7
  6
CONTINUOUS
 10
28.5397985818
 20
19.7148501214
  0
VERTEX
  8
___SYMBOL
 62
7
  6
CONTINUOUS
 10
28.5408184104
 20
19.7279795459
  0
VERTEX
  8
___SYMBOL
 62
7
  6
CONTINUOUS
 10
28.5418949151
 20
19.7412207838
  0
VERTEX
  8
___SYMBOL
 62
7
  6
CONTINUOUS
 10
28.5429698594
 20
19.7546125353
  0
VERTEX
  8
___SYMBOL
 62
7
  6
CONTINUOUS
 10
28.5432870489
 20
19.7586657357
  0
VERTEX
  8
___SYMBOL
 62
7
  6
CONTINUOUS
 10
28.5436185018
 20
19.7627261948
  0
VERTEX
  8
___SYMBOL
 62
7
  6
CONTINUOUS
 10
28.5439838693
 20
19.7667841227
  0
VERTEX
  8
___SYMBOL
 62
7
  6
CONTINUOUS
 10
28.5444028028
 20
19.7708297292
  0
VERTEX
  8
___SYMBOL
 62
7
  6
CONTINUOUS
 10
28.5448949535
 20
19.7748532242
  0
VERTEX
  8
___SYMBOL
 62
7
  6
CONTINUOUS
 10
28.5454799727
 20
19.7788448177
  0
VERTEX
  8
___SYMBOL
 62
7
  6
CONTINUOUS
 10
28.5461775118
 20
19.7827947195
  0
VERTEX
  8
___SYMBOL
 62
7
  6
CONTINUOUS
 10
28.547007222
 20
19.7866931396
  0
VERTEX
  8
___SYMBOL
 62
7
  6
CONTINUOUS
 10
28.5479887546
 20
19.7905302878
  0
VERTEX
  8
___SYMBOL
 62
7
  6
CONTINUOUS
 10
28.5491417609
 20
19.7942963742
  0
VERTEX
  8
___SYMBOL
 62
7
  6
CONTINUOUS
 10
28.5504858922
 20
19.7979816085
  0
VERTEX
  8
___SYMBOL
 62
7
  6
CONTINUOUS
 10
28.5520407999
 20
19.8015762007
  0
VERTEX
  8
___SYMBOL
 62
7
  6
CONTINUOUS
 10
28.5538261351
 20
19.8050703607
  0
VERTEX
  8
___SYMBOL
 62
7
  6
CONTINUOUS
 10
28.5558615491
 20
19.8084542984
  0
VERTEX
  8
___SYMBOL
 62
7
  6
CONTINUOUS
 10
28.557909074
 20
19.811383444
  0
VERTEX
  8
___SYMBOL
 62
7
  6
CONTINUOUS
 10
28.560157979
 20
19.8142007178
  0
VERTEX
  8
___SYMBOL
 62
7
  6
CONTINUOUS
 10
28.5625930705
 20
19.8168906088
  0
VERTEX
  8
___SYMBOL
 62
7
  6
CONTINUOUS
 10
28.5651991546
 20
19.8194376064
  0
VERTEX
  8
___SYMBOL
 62
7
  6
CONTINUOUS
 10
28.5679610378
 20
19.8218261999
  0
VERTEX
  8
___SYMBOL
 62
7
  6
CONTINUOUS
 10
28.5708635264
 20
19.8240408786
  0
VERTEX
  8
___SYMBOL
 62
7
  6
CONTINUOUS
 10
28.5738914267
 20
19.8260661317
  0
VERTEX
  8
___SYMBOL
 62
7
  6
CONTINUOUS
 10
28.577029545
 20
19.8278864485
  0
VERTEX
  8
___SYMBOL
 62
7
  6
CONTINUOUS
 10
28.5802626877
 20
19.8294863182
  0
VERTEX
  8
___SYMBOL
 62
7
  6
CONTINUOUS
 10
28.5835756611
 20
19.8308502302
  0
VERTEX
  8
___SYMBOL
 62
7
  6
CONTINUOUS
 10
28.5869532714
 20
19.8319626738
  0
SEQEND
  0
POLYLINE
  8
___SYMBOL
 62
7
  6
CONTINUOUS
 66
1
 70
0
  0
VERTEX
  8
___SYMBOL
 62
7
  6
CONTINUOUS
 10
28.4854128127
 20
19.6427802209
  0
VERTEX
  8
___SYMBOL
 62
7
  6
CONTINUOUS
 10
28.4854524221
 20
19.657740499
  0
VERTEX
  8
___SYMBOL
 62
7
  6
CONTINUOUS
 10
28.4853364229
 20
19.6727123887
  0
VERTEX
  8
___SYMBOL
 62
7
  6
CONTINUOUS
 10
28.4852007924
 20
19.6835842999
  0
VERTEX
  8
___SYMBOL
 62
7
  6
CONTINUOUS
 10
28.4850542
 20
19.6944715254
  0
VERTEX
  8
___SYMBOL
 62
7
  6
CONTINUOUS
 10
28.4849246979
 20
19.7053660118
  0
VERTEX
  8
___SYMBOL
 62
7
  6
CONTINUOUS
 10
28.4848403382
 20
19.7162597059
  0
VERTEX
  8
___SYMBOL
 62
7
  6
CONTINUOUS
 10
28.4848291732
 20
19.7271445544
  0
VERTEX
  8
___SYMBOL
 62
7
  6
CONTINUOUS
 10
28.4849192549
 20
19.7380125041
  0
VERTEX
  8
___SYMBOL
 62
7
  6
CONTINUOUS
 10
28.4851386355
 20
19.7488555018
  0
VERTEX
  8
___SYMBOL
 62
7
  6
CONTINUOUS
 10
28.4855153672
 20
19.759665494
  0
VERTEX
  8
___SYMBOL
 62
7
  6
CONTINUOUS
 10
28.486077502
 20
19.7704344277
  0
VERTEX
  8
___SYMBOL
 62
7
  6
CONTINUOUS
 10
28.4868530923
 20
19.7811542495
  0
VERTEX
  8
___SYMBOL
 62
7
  6
CONTINUOUS
 10
28.4874016675
 20
19.7872277256
  0
VERTEX
  8
___SYMBOL
 62
7
  6
CONTINUOUS
 10
28.4880420536
 20
19.7932843415
  0
VERTEX
  8
___SYMBOL
 62
7
  6
CONTINUOUS
 10
28.4887879124
 20
19.7993257348
  0
VERTEX
  8
___SYMBOL
 62
7
  6
CONTINUOUS
 10
28.4896529059
 20
19.8053535433
  0
VERTEX
  8
___SYMBOL
 62
7
  6
CONTINUOUS
 10
28.490650696
 20
19.8113694046
  0
VERTEX
  8
___SYMBOL
 62
7
  6
CONTINUOUS
 10
28.4917949447
 20
19.8173749565
  0
VERTEX
  8
___SYMBOL
 62
7
  6
CONTINUOUS
 10
28.4930993137
 20
19.8233718367
  0
VERTEX
  8
___SYMBOL
 62
7
  6
CONTINUOUS
 10
28.4945774651
 20
19.8293616829
  0
VERTEX
  8
___SYMBOL
 62
7
  6
CONTINUOUS
 10
28.4962430608
 20
19.8353461327
  0
VERTEX
  8
___SYMBOL
 62
7
  6
CONTINUOUS
 10
28.4981097627
 20
19.8413268238
  0
VERTEX
  8
___SYMBOL
 62
7
  6
CONTINUOUS
 10
28.5001912327
 20
19.8473053941
  0
VERTEX
  8
___SYMBOL
 62
7
  6
CONTINUOUS
 10
28.5025011328
 20
19.8532834811
  0
VERTEX
  8
___SYMBOL
 62
7
  6
CONTINUOUS
 10
28.5050531248
 20
19.8592627226
  0
VERTEX
  8
___SYMBOL
 62
7
  6
CONTINUOUS
 10
28.5065116671
 20
19.8624441202
  0
VERTEX
  8
___SYMBOL
 62
7
  6
CONTINUOUS
 10
28.5080311731
 20
19.8656259217
  0
VERTEX
  8
___SYMBOL
 62
7
  6
CONTINUOUS
 10
28.5096002443
 20
19.868807741
  0
VERTEX
  8
___SYMBOL
 62
7
  6
CONTINUOUS
 10
28.5112074821
 20
19.8719891918
  0
VERTEX
  8
___SYMBOL
 62
7
  6
CONTINUOUS
 10
28.5128414878
 20
19.8751698881
  0
VERTEX
  8
___SYMBOL
 62
7
  6
CONTINUOUS
 10
28.514490863
 20
19.8783494438
  0
VERTEX
  8
___SYMBOL
 62
7
  6
CONTINUOUS
 10
28.5161442089
 20
19.8815274726
  0
VERTEX
  8
___SYMBOL
 62
7
  6
CONTINUOUS
 10
28.5177901271
 20
19.8847035886
  0
VERTEX
  8
___SYMBOL
 62
7
  6
CONTINUOUS
 10
28.519417219
 20
19.8878774055
  0
VERTEX
  8
___SYMBOL
 62
7
  6
CONTINUOUS
 10
28.5210140859
 20
19.8910485372
  0
VERTEX
  8
___SYMBOL
 62
7
  6
CONTINUOUS
 10
28.5225693293
 20
19.8942165975
  0
VERTEX
  8
___SYMBOL
 62
7
  6
CONTINUOUS
 10
28.5240715505
 20
19.8973812004
  0
VERTEX
  8
___SYMBOL
 62
7
  6
CONTINUOUS
 10
28.5255093511
 20
19.9005419597
  0
VERTEX
  8
___SYMBOL
 62
7
  6
CONTINUOUS
 10
28.5268713324
 20
19.9036984893
  0
VERTEX
  8
___SYMBOL
 62
7
  6
CONTINUOUS
 10
28.5281460959
 20
19.906850403
  0
VERTEX
  8
___SYMBOL
 62
7
  6
CONTINUOUS
 10
28.5293222429
 20
19.9099973147
  0
VERTEX
  8
___SYMBOL
 62
7
  6
CONTINUOUS
 10
28.5303883749
 20
19.9131388383
  0
VERTEX
  8
___SYMBOL
 62
7
  6
CONTINUOUS
 10
28.5313330932
 20
19.9162745876
  0
VERTEX
  8
___SYMBOL
 62
7
  6
CONTINUOUS
 10
28.5321449994
 20
19.9194041765
  0
VERTEX
  8
___SYMBOL
 62
7
  6
CONTINUOUS
 10
28.5328126947
 20
19.9225272189
  0
VERTEX
  8
___SYMBOL
 62
7
  6
CONTINUOUS
 10
28.5333247807
 20
19.9256433286
  0
VERTEX
  8
___SYMBOL
 62
7
  6
CONTINUOUS
 10
28.5336698587
 20
19.9287521195
  0
VERTEX
  8
___SYMBOL
 62
7
  6
CONTINUOUS
 10
28.5338365302
 20
19.9318532055
  0
VERTEX
  8
___SYMBOL
 62
7
  6
CONTINUOUS
 10
28.5338133966
 20
19.9349462004
  0
VERTEX
  8
___SYMBOL
 62
7
  6
CONTINUOUS
 10
28.5335890592
 20
19.9380307182
  0
VERTEX
  8
___SYMBOL
 62
7
  6
CONTINUOUS
 10
28.5331521196
 20
19.9411063725
  0
VERTEX
  8
___SYMBOL
 62
7
  6
CONTINUOUS
 10
28.532491179
 20
19.9441727774
  0
VERTEX
  8
___SYMBOL
 62
7
  6
CONTINUOUS
 10
28.531594839
 20
19.9472295468
  0
VERTEX
  8
___SYMBOL
 62
7
  6
CONTINUOUS
 10
28.5310821622
 20
19.9487029696
  0
VERTEX
  8
___SYMBOL
 62
7
  6
CONTINUOUS
 10
28.5305551729
 20
19.9501860373
  0
VERTEX
  8
___SYMBOL
 62
7
  6
CONTINUOUS
 10
28.5300570216
 20
19.9516907284
  0
VERTEX
  8
___SYMBOL
 62
7
  6
CONTINUOUS
 10
28.5296308588
 20
19.953229021
  0
VERTEX
  8
___SYMBOL
 62
7
  6
CONTINUOUS
 10
28.5293198349
 20
19.9548128937
  0
VERTEX
  8
___SYMBOL
 62
7
  6
CONTINUOUS
 10
28.5291649424
 20
19.9563533068
  0
VERTEX
  8
___SYMBOL
 62
7
  6
CONTINUOUS
 10
28.5291517805
 20
19.9579214428
  0
VERTEX
  8
___SYMBOL
 62
7
  6
CONTINUOUS
 10
28.529281342
 20
19.9594938488
  0
VERTEX
  8
___SYMBOL
 62
7
  6
CONTINUOUS
 10
28.52955462
 20
19.9610470717
  0
VERTEX
  8
___SYMBOL
 62
7
  6
CONTINUOUS
 10
28.5299726073
 20
19.9625576585
  0
VERTEX
  8
___SYMBOL
 62
7
  6
CONTINUOUS
 10
28.5305362968
 20
19.964002156
  0
VERTEX
  8
___SYMBOL
 62
7
  6
CONTINUOUS
 10
28.5312466816
 20
19.9653571114
  0
VERTEX
  8
___SYMBOL
 62
7
  6
CONTINUOUS
 10
28.5321047545
 20
19.9665990715
  0
VERTEX
  8
___SYMBOL
 62
7
  6
CONTINUOUS
 10
28.5331115084
 20
19.9677045834
  0
SEQEND
  0
POLYLINE
  8
___SYMBOL
 62
7
  6
CONTINUOUS
 66
1
 70
0
  0
VERTEX
  8
___SYMBOL
 62
7
  6
CONTINUOUS
 10
28.8934197928
 20
19.3639569079
  0
VERTEX
  8
___SYMBOL
 62
7
  6
CONTINUOUS
 10
28.9144189989
 20
19.3680453129
  0
VERTEX
  8
___SYMBOL
 62
7
  6
CONTINUOUS
 10
28.9344488242
 20
19.3782873203
  0
VERTEX
  8
___SYMBOL
 62
7
  6
CONTINUOUS
 10
28.9517545624
 20
19.3937855151
  0
VERTEX
  8
___SYMBOL
 62
7
  6
CONTINUOUS
 10
28.9661245152
 20
19.4143508268
  0
VERTEX
  8
___SYMBOL
 62
7
  6
CONTINUOUS
 10
28.9762998055
 20
19.4381809605
  0
VERTEX
  8
___SYMBOL
 62
7
  6
CONTINUOUS
 10
28.9821558636
 20
19.4649851371
  0
VERTEX
  8
___SYMBOL
 62
7
  6
CONTINUOUS
 10
28.9831798311
 20
19.4924144949
  0
VERTEX
  8
___SYMBOL
 62
7
  6
CONTINUOUS
 10
28.979478082
 20
19.5196122091
  0
VERTEX
  8
___SYMBOL
 62
7
  6
CONTINUOUS
 10
28.971028455
 20
19.5457150397
  0
VERTEX
  8
___SYMBOL
 62
7
  6
CONTINUOUS
 10
28.9585713701
 20
19.5684359434
  0
VERTEX
  8
___SYMBOL
 62
7
  6
CONTINUOUS
 10
28.9422589234
 20
19.5874970878
  0
VERTEX
  8
___SYMBOL
 62
7
  6
CONTINUOUS
 10
28.9235204005
 20
19.6012284459
  0
VERTEX
  8
___SYMBOL
 62
7
  6
CONTINUOUS
 10
28.9025847623
 20
19.6094624087
  0
VERTEX
  8
___SYMBOL
 62
7
  6
CONTINUOUS
 10
28.8812864957
 20
19.611477335
  0
VERTEX
  8
___SYMBOL
 62
7
  6
CONTINUOUS
 10
28.8602874063
 20
19.6073890466
  0
VERTEX
  8
___SYMBOL
 62
7
  6
CONTINUOUS
 10
28.8402574644
 20
19.5971470392
  0
VERTEX
  8
___SYMBOL
 62
7
  6
CONTINUOUS
 10
28.8229518428
 20
19.5816487278
  0
VERTEX
  8
___SYMBOL
 62
7
  6
CONTINUOUS
 10
28.8085817734
 20
19.5610834161
  0
VERTEX
  8
___SYMBOL
 62
7
  6
CONTINUOUS
 10
28.7984065997
 20
19.5372532824
  0
VERTEX
  8
___SYMBOL
 62
7
  6
CONTINUOUS
 10
28.792550425
 20
19.5104491058
  0
VERTEX
  8
___SYMBOL
 62
7
  6
CONTINUOUS
 10
28.7915264575
 20
19.483019748
  0
VERTEX
  8
___SYMBOL
 62
7
  6
CONTINUOUS
 10
28.7952282066
 20
19.4558220338
  0
VERTEX
  8
___SYMBOL
 62
7
  6
CONTINUOUS
 10
28.8036778335
 20
19.4297192032
  0
VERTEX
  8
___SYMBOL
 62
7
  6
CONTINUOUS
 10
28.8161350351
 20
19.4069982995
  0
VERTEX
  8
___SYMBOL
 62
7
  6
CONTINUOUS
 10
28.8324474818
 20
19.3879371551
  0
VERTEX
  8
___SYMBOL
 62
7
  6
CONTINUOUS
 10
28.8511860047
 20
19.3742057969
  0
VERTEX
  8
___SYMBOL
 62
7
  6
CONTINUOUS
 10
28.8721215262
 20
19.3659719508
  0
VERTEX
  8
___SYMBOL
 62
7
  6
CONTINUOUS
 10
28.8934197928
 20
19.3639569079
  0
SEQEND
  0
POLYLINE
  8
___SYMBOL
 62
7
  6
CONTINUOUS
 66
1
 70
0
  0
VERTEX
  8
___SYMBOL
 62
7
  6
CONTINUOUS
 10
28.7677222251
 20
19.4157004865
  0
VERTEX
  8
___SYMBOL
 62
7
  6
CONTINUOUS
 10
28.7708735005
 20
19.4056659821
  0
VERTEX
  8
___SYMBOL
 62
7
  6
CONTINUOUS
 10
28.7744424825
 20
19.3959257204
  0
VERTEX
  8
___SYMBOL
 62
7
  6
CONTINUOUS
 10
28.7784163724
 20
19.386514631
  0
VERTEX
  8
___SYMBOL
 62
7
  6
CONTINUOUS
 10
28.7827809193
 20
19.3774664628
  0
VERTEX
  8
___SYMBOL
 62
7
  6
CONTINUOUS
 10
28.7875204718
 20
19.3688136633
  0
VERTEX
  8
___SYMBOL
 62
7
  6
CONTINUOUS
 10
28.7926180332
 20
19.3605872623
  0
VERTEX
  8
___SYMBOL
 62
7
  6
CONTINUOUS
 10
28.7980553234
 20
19.3528167605
  0
VERTEX
  8
___SYMBOL
 62
7
  6
CONTINUOUS
 10
28.8038128436
 20
19.3455300234
  0
VERTEX
  8
___SYMBOL
 62
7
  6
CONTINUOUS
 10
28.809869947
 20
19.3387531821
  0
VERTEX
  8
___SYMBOL
 62
7
  6
CONTINUOUS
 10
28.8162049121
 20
19.3325105388
  0
VERTEX
  8
___SYMBOL
 62
7
  6
CONTINUOUS
 10
28.8227950213
 20
19.3268244803
  0
VERTEX
  8
___SYMBOL
 62
7
  6
CONTINUOUS
 10
28.8296166417
 20
19.3217153972
  0
VERTEX
  8
___SYMBOL
 62
7
  6
CONTINUOUS
 10
28.8366453105
 20
19.3172016113
  0
VERTEX
  8
___SYMBOL
 62
7
  6
CONTINUOUS
 10
28.8438558223
 20
19.3132993093
  0
VERTEX
  8
___SYMBOL
 62
7
  6
CONTINUOUS
 10
28.8512223194
 20
19.3100224852
  0
VERTEX
  8
___SYMBOL
 62
7
  6
CONTINUOUS
 10
28.858718385
 20
19.3073828901
  0
VERTEX
  8
___SYMBOL
 62
7
  6
CONTINUOUS
 10
28.8663171375
 20
19.3053899897
  0
VERTEX
  8
___SYMBOL
 62
7
  6
CONTINUOUS
 10
28.8739913271
 20
19.3040509308
  0
VERTEX
  8
___SYMBOL
 62
7
  6
CONTINUOUS
 10
28.8817134334
 20
19.3033705154
  0
VERTEX
  8
___SYMBOL
 62
7
  6
CONTINUOUS
 10
28.8894557643
 20
19.3033511835
  0
VERTEX
  8
___SYMBOL
 62
7
  6
CONTINUOUS
 10
28.8971905551
 20
19.3039930043
  0
VERTEX
  8
___SYMBOL
 62
7
  6
CONTINUOUS
 10
28.9048900682
 20
19.3052936764
  0
VERTEX
  8
___SYMBOL
 62
7
  6
CONTINUOUS
 10
28.9125266923
 20
19.3072485354
  0
VERTEX
  8
___SYMBOL
 62
7
  6
CONTINUOUS
 10
28.920073042
 20
19.3098505709
  0
VERTEX
  8
___SYMBOL
 62
7
  6
CONTINUOUS
 10
28.9275020552
 20
19.3130904518
  0
VERTEX
  8
___SYMBOL
 62
7
  6
CONTINUOUS
 10
28.9347870908
 20
19.3169565597
  0
VERTEX
  8
___SYMBOL
 62
7
  6
CONTINUOUS
 10
28.9419020242
 20
19.3214350303
  0
VERTEX
  8
___SYMBOL
 62
7
  6
CONTINUOUS
 10
28.9488213405
 20
19.3265098034
  0
VERTEX
  8
___SYMBOL
 62
7
  6
CONTINUOUS
 10
28.9555202263
 20
19.3321626804
  0
VERTEX
  8
___SYMBOL
 62
7
  6
CONTINUOUS
 10
28.961974659
 20
19.3383733897
  0
VERTEX
  8
___SYMBOL
 62
7
  6
CONTINUOUS
 10
28.9681614923
 20
19.345119659
  0
VERTEX
  8
___SYMBOL
 62
7
  6
CONTINUOUS
 10
28.9740585396
 20
19.3523772956
  0
VERTEX
  8
___SYMBOL
 62
7
  6
CONTINUOUS
 10
28.9796446537
 20
19.360120273
  0
VERTEX
  8
___SYMBOL
 62
7
  6
CONTINUOUS
 10
28.9848998023
 20
19.3683208241
  0
VERTEX
  8
___SYMBOL
 62
7
  6
CONTINUOUS
 10
28.9898051398
 20
19.3769495411
  0
VERTEX
  8
___SYMBOL
 62
7
  6
CONTINUOUS
 10
28.9943430754
 20
19.3859754806
  0
VERTEX
  8
___SYMBOL
 62
7
  6
CONTINUOUS
 10
28.9984973355
 20
19.3953662748
  0
VERTEX
  8
___SYMBOL
 62
7
  6
CONTINUOUS
 10
29.0022530227
 20
19.4050882474
  0
VERTEX
  8
___SYMBOL
 62
7
  6
CONTINUOUS
 10
29.0055966686
 20
19.4151065345
  0
VERTEX
  8
___SYMBOL
 62
7
  6
CONTINUOUS
 10
29.0085162827
 20
19.4253852098
  0
VERTEX
  8
___SYMBOL
 62
7
  6
CONTINUOUS
 10
29.011001395
 20
19.4358874129
  0
VERTEX
  8
___SYMBOL
 62
7
  6
CONTINUOUS
 10
29.0130430937
 20
19.446575482
  0
VERTEX
  8
___SYMBOL
 62
7
  6
CONTINUOUS
 10
29.014634057
 20
19.4574110887
  0
VERTEX
  8
___SYMBOL
 62
7
  6
CONTINUOUS
 10
29.0157685795
 20
19.4683553756
  0
VERTEX
  8
___SYMBOL
 62
7
  6
CONTINUOUS
 10
29.0164425929
 20
19.4793690954
  0
VERTEX
  8
___SYMBOL
 62
7
  6
CONTINUOUS
 10
29.0166536799
 20
19.490412752
  0
VERTEX
  8
___SYMBOL
 62
7
  6
CONTINUOUS
 10
29.0164010838
 20
19.5014467419
  0
VERTEX
  8
___SYMBOL
 62
7
  6
CONTINUOUS
 10
29.0156857101
 20
19.5124314961
  0
VERTEX
  8
___SYMBOL
 62
7
  6
CONTINUOUS
 10
29.0145101245
 20
19.5233276223
  0
VERTEX
  8
___SYMBOL
 62
7
  6
CONTINUOUS
 10
29.0128785426
 20
19.5340960461
  0
VERTEX
  8
___SYMBOL
 62
7
  6
CONTINUOUS
 10
29.0107968154
 20
19.5446981509
  0
VERTEX
  8
___SYMBOL
 62
7
  6
CONTINUOUS
 10
29.0082724082
 20
19.5550959166
  0
VERTEX
  8
___SYMBOL
 62
7
  6
CONTINUOUS
 10
29.0053143737
 20
19.5652520559
  0
VERTEX
  8
___SYMBOL
 62
7
  6
CONTINUOUS
 10
29.0019333197
 20
19.575130148
  0
VERTEX
  8
___SYMBOL
 62
7
  6
CONTINUOUS
 10
28.998141371
 20
19.5846947691
  0
VERTEX
  8
___SYMBOL
 62
7
  6
CONTINUOUS
 10
28.9939521259
 20
19.5939116196
  0
VERTEX
  8
___SYMBOL
 62
7
  6
CONTINUOUS
 10
28.9893806073
 20
19.6027476472
  0
VERTEX
  8
___SYMBOL
 62
7
  6
CONTINUOUS
 10
28.9844432091
 20
19.6111711649
  0
VERTEX
  8
___SYMBOL
 62
7
  6
CONTINUOUS
 10
28.9791576374
 20
19.6191519654
  0
VERTEX
  8
___SYMBOL
 62
7
  6
CONTINUOUS
 10
28.9735428465
 20
19.6266614287
  0
VERTEX
  8
___SYMBOL
 62
7
  6
CONTINUOUS
 10
28.9676189717
 20
19.6336726253
  0
VERTEX
  8
___SYMBOL
 62
7
  6
CONTINUOUS
 10
28.9614072565
 20
19.6401604123
  0
VERTEX
  8
___SYMBOL
 62
7
  6
CONTINUOUS
 10
28.9549299767
 20
19.6461015239
  0
VERTEX
  8
___SYMBOL
 62
7
  6
CONTINUOUS
 10
28.9482103604
 20
19.6514746549
  0
VERTEX
  8
___SYMBOL
 62
7
  6
CONTINUOUS
 10
28.9412725047
 20
19.6562605367
  0
VERTEX
  8
___SYMBOL
 62
7
  6
CONTINUOUS
 10
28.9341412894
 20
19.6604420066
  0
VERTEX
  8
___SYMBOL
 62
7
  6
CONTINUOUS
 10
28.9268422877
 20
19.6640040696
  0
VERTEX
  8
___SYMBOL
 62
7
  6
CONTINUOUS
 10
28.9194016745
 20
19.6669339518
  0
VERTEX
  8
___SYMBOL
 62
7
  6
CONTINUOUS
 10
28.9118461324
 20
19.6692211463
  0
VERTEX
  8
___SYMBOL
 62
7
  6
CONTINUOUS
 10
28.9042027564
 20
19.670857451
  0
VERTEX
  8
___SYMBOL
 62
7
  6
CONTINUOUS
 10
28.8964989562
 20
19.6718369981
  0
VERTEX
  8
___SYMBOL
 62
7
  6
CONTINUOUS
 10
28.8887623584
 20
19.6721562748
  0
VERTEX
  8
___SYMBOL
 62
7
  6
CONTINUOUS
 10
28.8810207071
 20
19.6718141361
  0
VERTEX
  8
___SYMBOL
 62
7
  6
CONTINUOUS
 10
28.8733017645
 20
19.670811809
  0
VERTEX
  8
___SYMBOL
 62
7
  6
CONTINUOUS
 10
28.8656332116
 20
19.6691528879
  0
VERTEX
  8
___SYMBOL
 62
7
  6
CONTINUOUS
 10
28.8580425483
 20
19.6668433219
  0
VERTEX
  8
___SYMBOL
 62
7
  6
CONTINUOUS
 10
28.8505569956
 20
19.6638913932
  0
VERTEX
  8
___SYMBOL
 62
7
  6
CONTINUOUS
 10
28.8432033972
 20
19.6603076877
  0
VERTEX
  8
___SYMBOL
 62
7
  6
CONTINUOUS
 10
28.8360081239
 20
19.656105057
  0
VERTEX
  8
___SYMBOL
 62
7
  6
CONTINUOUS
 10
28.8289969785
 20
19.651298572
  0
VERTEX
  8
___SYMBOL
 62
7
  6
CONTINUOUS
 10
28.8221951037
 20
19.6459054692
  0
VERTEX
  8
___SYMBOL
 62
7
  6
CONTINUOUS
 10
28.8156268915
 20
19.6399450889
  0
SEQEND
  0
POLYLINE
  8
___SYMBOL
 62
7
  6
CONTINUOUS
 66
1
 70
0
  0
VERTEX
  8
___SYMBOL
 62
7
  6
CONTINUOUS
 10
28.4110196123
 20
19.377720225
  0
VERTEX
  8
___SYMBOL
 62
7
  6
CONTINUOUS
 10
28.4309834204
 20
19.3832601934
  0
VERTEX
  8
___SYMBOL
 62
7
  6
CONTINUOUS
 10
28.4495486771
 20
19.3948620864
  0
VERTEX
  8
___SYMBOL
 62
7
  6
CONTINUOUS
 10
28.4650886284
 20
19.4115090517
  0
VERTEX
  8
___SYMBOL
 62
7
  6
CONTINUOUS
 10
28.4774135039
 20
19.4329979052
  0
VERTEX
  8
___SYMBOL
 62
7
  6
CONTINUOUS
 10
28.485443408
 20
19.4574457553
  0
VERTEX
  8
___SYMBOL
 62
7
  6
CONTINUOUS
 10
28.4890801895
 20
19.4845540079
  0
VERTEX
  8
___SYMBOL
 62
7
  6
CONTINUOUS
 10
28.4880051928
 20
19.5119472078
  0
VERTEX
  8
___SYMBOL
 62
7
  6
CONTINUOUS
 10
28.4823856771
 20
19.5387794943
  0
VERTEX
  8
___SYMBOL
 62
7
  6
CONTINUOUS
 10
28.4722652068
 20
19.5641891436
  0
VERTEX
  8
___SYMBOL
 62
7
  6
CONTINUOUS
 10
28.4585305828
 20
19.5859501142
  0
VERTEX
  8
___SYMBOL
 62
7
  6
CONTINUOUS
 10
28.4413494725
 20
19.6037962377
  0
VERTEX
  8
___SYMBOL
 62
7
  6
CONTINUOUS
 10
28.422227443
 20
19.6161639777
  0
VERTEX
  8
___SYMBOL
 62
7
  6
CONTINUOUS
 10
28.401398004
 20
19.6229022878
  0
VERTEX
  8
___SYMBOL
 62
7
  6
CONTINUOUS
 10
28.380686253
 20
19.6234206283
  0
VERTEX
  8
___SYMBOL
 62
7
  6
CONTINUOUS
 10
28.3607224449
 20
19.6178805433
  0
VERTEX
  8
___SYMBOL
 62
7
  6
CONTINUOUS
 10
28.3421571882
 20
19.6062787668
  0
VERTEX
  8
___SYMBOL
 62
7
  6
CONTINUOUS
 10
28.3266172369
 20
19.5896318016
  0
VERTEX
  8
___SYMBOL
 62
7
  6
CONTINUOUS
 10
28.3142923031
 20
19.5681428314
  0
VERTEX
  8
___SYMBOL
 62
7
  6
CONTINUOUS
 10
28.3062624573
 20
19.5436949813
  0
VERTEX
  8
___SYMBOL
 62
7
  6
CONTINUOUS
 10
28.3026256757
 20
19.5165868453
  0
VERTEX
  8
___SYMBOL
 62
7
  6
CONTINUOUS
 10
28.3037006724
 20
19.4891936454
  0
VERTEX
  8
___SYMBOL
 62
7
  6
CONTINUOUS
 10
28.3093201881
 20
19.462361359
  0
VERTEX
  8
___SYMBOL
 62
7
  6
CONTINUOUS
 10
28.3194406584
 20
19.436951593
  0
VERTEX
  8
___SYMBOL
 62
7
  6
CONTINUOUS
 10
28.3331752825
 20
19.415190739
  0
VERTEX
  8
___SYMBOL
 62
7
  6
CONTINUOUS
 10
28.3503563927
 20
19.3973446156
  0
VERTEX
  8
___SYMBOL
 62
7
  6
CONTINUOUS
 10
28.3694784223
 20
19.3849768756
  0
VERTEX
  8
___SYMBOL
 62
7
  6
CONTINUOUS
 10
28.3903078613
 20
19.3782385655
  0
VERTEX
  8
___SYMBOL
 62
7
  6
CONTINUOUS
 10
28.4110196123
 20
19.377720225
  0
SEQEND
  0
POLYLINE
  8
___SYMBOL
 62
7
  6
CONTINUOUS
 66
1
 70
0
  0
VERTEX
  8
___SYMBOL
 62
7
  6
CONTINUOUS
 10
28.4620764444
 20
19.6312066945
  0
VERTEX
  8
___SYMBOL
 62
7
  6
CONTINUOUS
 10
28.4546594906
 20
19.6363324945
  0
VERTEX
  8
___SYMBOL
 62
7
  6
CONTINUOUS
 10
28.447014755
 20
19.6408287703
  0
VERTEX
  8
___SYMBOL
 62
7
  6
CONTINUOUS
 10
28.4391730403
 20
19.644677405
  0
VERTEX
  8
___SYMBOL
 62
7
  6
CONTINUOUS
 10
28.4311659431
 20
19.6478628914
  0
VERTEX
  8
___SYMBOL
 62
7
  6
CONTINUOUS
 10
28.4230257262
 20
19.6503723943
  0
VERTEX
  8
___SYMBOL
 62
7
  6
CONTINUOUS
 10
28.414785189
 20
19.6521958021
  0
VERTEX
  8
___SYMBOL
 62
7
  6
CONTINUOUS
 10
28.4064775349
 20
19.6533257678
  0
VERTEX
  8
___SYMBOL
 62
7
  6
CONTINUOUS
 10
28.3981362379
 20
19.6537577384
  0
VERTEX
  8
___SYMBOL
 62
7
  6
CONTINUOUS
 10
28.3897949074
 20
19.6534899735
  0
VERTEX
  8
___SYMBOL
 62
7
  6
CONTINUOUS
 10
28.381487153
 20
19.6525235519
  0
VERTEX
  8
___SYMBOL
 62
7
  6
CONTINUOUS
 10
28.3732464491
 20
19.6508623676
  0
VERTEX
  8
___SYMBOL
 62
7
  6
CONTINUOUS
 10
28.3651059999
 20
19.648513114
  0
VERTEX
  8
___SYMBOL
 62
7
  6
CONTINUOUS
 10
28.3570986056
 20
19.645485257
  0
VERTEX
  8
___SYMBOL
 62
7
  6
CONTINUOUS
 10
28.3492565302
 20
19.6417909965
  0
VERTEX
  8
___SYMBOL
 62
7
  6
CONTINUOUS
 10
28.3416113718
 20
19.6374452179
  0
VERTEX
  8
___SYMBOL
 62
7
  6
CONTINUOUS
 10
28.3341939348
 20
19.6324654316
  0
VERTEX
  8
___SYMBOL
 62
7
  6
CONTINUOUS
 10
28.3270341063
 20
19.6268717025
  0
VERTEX
  8
___SYMBOL
 62
7
  6
CONTINUOUS
 10
28.3201607352
 20
19.6206865694
  0
VERTEX
  8
___SYMBOL
 62
7
  6
CONTINUOUS
 10
28.3136015165
 20
19.6139349539
  0
VERTEX
  8
___SYMBOL
 62
7
  6
CONTINUOUS
 10
28.3073828789
 20
19.6066440604
  0
VERTEX
  8
___SYMBOL
 62
7
  6
CONTINUOUS
 10
28.3015298793
 20
19.5988432658
  0
VERTEX
  8
___SYMBOL
 62
7
  6
CONTINUOUS
 10
28.296066101
 20
19.5905640018
  0
VERTEX
  8
___SYMBOL
 62
7
  6
CONTINUOUS
 10
28.2910135591
 20
19.5818396279
  0
VERTEX
  8
___SYMBOL
 62
7
  6
CONTINUOUS
 10
28.2863926119
 20
19.5727052973
  0
VERTEX
  8
___SYMBOL
 62
7
  6
CONTINUOUS
 10
28.2822218784
 20
19.5631978146
  0
VERTEX
  8
___SYMBOL
 62
7
  6
CONTINUOUS
 10
28.2785181638
 20
19.5533554883
  0
VERTEX
  8
___SYMBOL
 62
7
  6
CONTINUOUS
 10
28.2752963913
 20
19.543217976
  0
VERTEX
  8
___SYMBOL
 62
7
  6
CONTINUOUS
 10
28.2725695423
 20
19.5328261245
  0
VERTEX
  8
___SYMBOL
 62
7
  6
CONTINUOUS
 10
28.2703486043
 20
19.5222218058
  0
VERTEX
  8
___SYMBOL
 62
7
  6
CONTINUOUS
 10
28.2686425259
 20
19.5114477475
  0
VERTEX
  8
___SYMBOL
 62
7
  6
CONTINUOUS
 10
28.2674581814
 20
19.5005473615
  0
VERTEX
  8
___SYMBOL
 62
7
  6
CONTINUOUS
 10
28.2668003429
 20
19.4895645686
  0
VERTEX
  8
___SYMBOL
 62
7
  6
CONTINUOUS
 10
28.2666716611
 20
19.4785436216
  0
VERTEX
  8
___SYMBOL
 62
7
  6
CONTINUOUS
 10
28.2670726544
 20
19.4675289271
  0
VERTEX
  8
___SYMBOL
 62
7
  6
CONTINUOUS
 10
28.268001707
 20
19.4565648664
  0
VERTEX
  8
___SYMBOL
 62
7
  6
CONTINUOUS
 10
28.2694550757
 20
19.4456956169
  0
VERTEX
  8
___SYMBOL
 62
7
  6
CONTINUOUS
 10
28.2714269043
 20
19.4349649739
  0
VERTEX
  8
___SYMBOL
 62
7
  6
CONTINUOUS
 10
28.2739092477
 20
19.4244161743
  0
VERTEX
  8
___SYMBOL
 62
7
  6
CONTINUOUS
 10
28.276892104
 20
19.4140917223
  0
VERTEX
  8
___SYMBOL
 62
7
  6
CONTINUOUS
 10
28.2803634542
 20
19.4040332179
  0
VERTEX
  8
___SYMBOL
 62
7
  6
CONTINUOUS
 10
28.2843093115
 20
19.3942811898
  0
VERTEX
  8
___SYMBOL
 62
7
  6
CONTINUOUS
 10
28.2887137766
 20
19.3848749318
  0
VERTEX
  8
___SYMBOL
 62
7
  6
CONTINUOUS
 10
28.2935591029
 20
19.3758523443
  0
VERTEX
  8
___SYMBOL
 62
7
  6
CONTINUOUS
 10
28.298825767
 20
19.367249782
  0
VERTEX
  8
___SYMBOL
 62
7
  6
CONTINUOUS
 10
28.3044925482
 20
19.359101907
  0
VERTEX
  8
___SYMBOL
 62
7
  6
CONTINUOUS
 10
28.3105366132
 20
19.3514415495
  0
VERTEX
  8
___SYMBOL
 62
7
  6
CONTINUOUS
 10
28.3169336088
 20
19.3442995752
  0
VERTEX
  8
___SYMBOL
 62
7
  6
CONTINUOUS
 10
28.3236577597
 20
19.3377047613
  0
VERTEX
  8
___SYMBOL
 62
7
  6
CONTINUOUS
 10
28.3306819723
 20
19.3316836801
  0
VERTEX
  8
___SYMBOL
 62
7
  6
CONTINUOUS
 10
28.3379779442
 20
19.3262605923
  0
VERTEX
  8
___SYMBOL
 62
7
  6
CONTINUOUS
 10
28.3455162776
 20
19.3214573491
  0
VERTEX
  8
___SYMBOL
 62
7
  6
CONTINUOUS
 10
28.3532665985
 20
19.3172933041
  0
VERTEX
  8
___SYMBOL
 62
7
  6
CONTINUOUS
 10
28.3611976786
 20
19.3137852355
  0
VERTEX
  8
___SYMBOL
 62
7
  6
CONTINUOUS
 10
28.3692775613
 20
19.3109472782
  0
VERTEX
  8
___SYMBOL
 62
7
  6
CONTINUOUS
 10
28.3774736905
 20
19.3087908673
  0
VERTEX
  8
___SYMBOL
 62
7
  6
CONTINUOUS
 10
28.3857530416
 20
19.3073246915
  0
VERTEX
  8
___SYMBOL
 62
7
  6
CONTINUOUS
 10
28.3940822546
 20
19.3065546585
  0
VERTEX
  8
___SYMBOL
 62
7
  6
CONTINUOUS
 10
28.4024277689
 20
19.3064838709
  0
VERTEX
  8
___SYMBOL
 62
7
  6
CONTINUOUS
 10
28.4107559579
 20
19.307112614
  0
VERTEX
  8
___SYMBOL
 62
7
  6
CONTINUOUS
 10
28.4190332649
 20
19.3084383543
  0
VERTEX
  8
___SYMBOL
 62
7
  6
CONTINUOUS
 10
28.4272263384
 20
19.3104557502
  0
VERTEX
  8
___SYMBOL
 62
7
  6
CONTINUOUS
 10
28.435302166
 20
19.3131566729
  0
VERTEX
  8
___SYMBOL
 62
7
  6
CONTINUOUS
 10
28.4432282079
 20
19.3165302396
  0
VERTEX
  8
___SYMBOL
 62
7
  6
CONTINUOUS
 10
28.4509725279
 20
19.3205628574
  0
VERTEX
  8
___SYMBOL
 62
7
  6
CONTINUOUS
 10
28.4585039218
 20
19.3252382774
  0
VERTEX
  8
___SYMBOL
 62
7
  6
CONTINUOUS
 10
28.4657920435
 20
19.3305376613
  0
VERTEX
  8
___SYMBOL
 62
7
  6
CONTINUOUS
 10
28.4728075271
 20
19.3364396562
  0
VERTEX
  8
___SYMBOL
 62
7
  6
CONTINUOUS
 10
28.479522105
 20
19.3429204813
  0
VERTEX
  8
___SYMBOL
 62
7
  6
CONTINUOUS
 10
28.4859087225
 20
19.3499540235
  0
VERTEX
  8
___SYMBOL
 62
7
  6
CONTINUOUS
 10
28.4919416459
 20
19.3575119427
  0
VERTEX
  8
___SYMBOL
 62
7
  6
CONTINUOUS
 10
28.497596567
 20
19.3655637857
  0
VERTEX
  8
___SYMBOL
 62
7
  6
CONTINUOUS
 10
28.5028507002
 20
19.3740771095
  0
VERTEX
  8
___SYMBOL
 62
7
  6
CONTINUOUS
 10
28.5076828754
 20
19.3830176113
  0
VERTEX
  8
___SYMBOL
 62
7
  6
CONTINUOUS
 10
28.5120736222
 20
19.3923492674
  0
VERTEX
  8
___SYMBOL
 62
7
  6
CONTINUOUS
 10
28.516005249
 20
19.4020344777
  0
VERTEX
  8
___SYMBOL
 62
7
  6
CONTINUOUS
 10
28.5194619143
 20
19.4120342179
  0
VERTEX
  8
___SYMBOL
 62
7
  6
CONTINUOUS
 10
28.5224296901
 20
19.4223081961
  0
VERTEX
  8
___SYMBOL
 62
7
  6
CONTINUOUS
 10
28.5248966183
 20
19.4328150154
  0
VERTEX
  8
___SYMBOL
 62
7
  6
CONTINUOUS
 10
28.5268527591
 20
19.4435123409
  0
VERTEX
  8
___SYMBOL
 62
7
  6
CONTINUOUS
 10
28.5282902305
 20
19.4543570699
  0
SEQEND
  0
LINE
  8
___SYMBOL
 62
7
  6
CONTINUOUS
 10
28.6375445188
 20
20.0224985413
 11
28.6457360661
 21
20.0227510551
  0
ENDBLK
  8
0
  6
BYBLOCK
 62
0
  0
BLOCK
  8
___SYMBOL
 62
2
  6
CONTINUOUS
  2
SYMBOL_12_BL4
 70
64
 10
20.1539100892
 20
15.2355522018
  0
TEXT
  8
___SYMBOL
 62
2
  6
CONTINUOUS
 10
16.0289100892
 20
16.3293022018
  7
STANDARD
 40
0.15625
  1
WHEN PLOTTING TEMPLATE FULL SIZE:
 41
0.8
 72
0
  0
TEXT
  8
___SYMBOL
 62
2
  6
CONTINUOUS
 10
16.0289100892
 20
16.0949272018
  7
STANDARD
 40
0.15625
  1
Make sure horizontal and vertical dimensions
 41
0.8
 72
0
  0
TEXT
  8
___SYMBOL
 62
2
  6
CONTINUOUS
 10
16.0289100892
 20
15.8605522018
  7
STANDARD
 40
0.15625
  1
match the dimensions labeled on the template.
 41
0.8
 72
0
  0
TEXT
  8
___SYMBOL
 62
2
  6
CONTINUOUS
 10
16.0289100892
 20
15.6261772018
  7
STANDARD
 40
0.15625
  1
 
 41
0.8
 72
0
  0
TEXT
  8
___SYMBOL
 62
2
  6
CONTINUOUS
 10
16.0289100892
 20
15.3918022018
  7
STANDARD
 40
0.15625
  1
LORS DU TRACÉ DU GABARIT À L'ÉCHELLE:  
 41
0.8
 72
0
  0
TEXT
  8
___SYMBOL
 62
2
  6
CONTINUOUS
 10
16.0289100892
 20
15.1574272018
  7
STANDARD
 40
0.15625
  1
S'assurer que les dimensions horizontales et verticales 
 41
0.8
 72
0
  0
TEXT
  8
___SYMBOL
 62
2
  6
CONTINUOUS
 10
16.0289100892
 20
14.9230522018
  7
STANDARD
 40
0.15625
  1
correspondent à celles marquées sur le gabarit.
 41
0.8
 72
0
  0
TEXT
  8
___SYMBOL
 62
2
  6
CONTINUOUS
 10
16.0289100892
 20
14.6886772018
  7
STANDARD
 40
0.15625
  1
 
 41
0.8
 72
0
  0
TEXT
  8
___SYMBOL
 62
2
  6
CONTINUOUS
 10
16.0289100892
 20
14.4543022018
  7
STANDARD
 40
0.15625
  1
AL TRAZAR LA PLANTILLA A ESCALA COMPLETA: 
 41
0.8
 72
0
  0
TEXT
  8
___SYMBOL
 62
2
  6
CONTINUOUS
 10
16.0289100892
 20
14.2199272018
  7
STANDARD
 40
0.15625
  1
Asegúrese de que la dimensión horizontal y la dimensión 
 41
0.8
 72
0
  0
TEXT
  8
___SYMBOL
 62
2
  6
CONTINUOUS
 10
16.0289100892
 20
13.9855522018
  7
STANDARD
 40
0.15625
  1
vertical sean iguales a las dimensiones indicadas en la plantilla.
 41
0.8
 72
0
  0
ENDBLK
  8
0
  6
BYBLOCK
 62
0
  0
BLOCK
  8
___SYMBOL
 62
2
  6
CONTINUOUS
  2
SYMBOL_10_BL3
 70
64
 10
17.6184145304
 20
10.8592434297
  0
TEXT
  8
___SYMBOL
 62
2
  6
CONTINUOUS
 10
16.9309145304
 20
10.7811184297
  7
STANDARD
 40
0.15625
  1
1207219-7
 41
0.8
 72
0
  0
TEXT
  8
___SYMBOL
 62
2
  6
CONTINUOUS
 10
18.0559145304
 20
10.7811184297
  7
STANDARD
 40
0.15625
  1
-A
 41
0.8
 72
0
  0
ENDBLK
  8
0
  6
BYBLOCK
 62
0
  0
BLOCK
  8
___SYMBOL
 62
2
  6
CONTINUOUS
  2
SYMBOL_9_BL2
 70
64
 10
17.6440800734
 20
12.5881662053
  0
TEXT
  8
___SYMBOL
 62
2
  6
CONTINUOUS
 10
16.9565800734
 20
12.5100412053
  7
STANDARD
 40
0.15625
  1
1207219-7
 41
0.8
 72
0
  0
TEXT
  8
___SYMBOL
 62
2
  6
CONTINUOUS
 10
18.0815800734
 20
12.5100412053
  7
STANDARD
 40
0.15625
  1
-A
 41
0.8
 72
0
  0
ENDBLK
  8
0
  6
BYBLOCK
 62
0
  0
BLOCK
  8
___SYMBOL
 62
2
  6
CONTINUOUS
  2
SYMBOL_3_BL1
 70
64
 10
27.6624134383
 20
10.8626481817
  0
TEXT
  8
___SYMBOL
 62
2
  6
CONTINUOUS
 10
26.8893559204
 20
10.7806023955
  7
STANDARD
 40
0.15625
  1
2013 KOHLER CO.
 41
0.8
 72
0
  0
TEXT
  8
___SYMBOL
 62
7
  6
CONTINUOUS
 10
26.6046584606
 20
10.7855742023
  7
TEXTSTYLE_2
 40
0.15625
  1
C
 41
1.0
 72
0
  0
CIRCLE
  8
___SYMBOL
 62
7
  6
CONTINUOUS
 10
26.6847227402
 20
10.8626481817
 40
0.1242517839
  0
ENDBLK
  8
0
  6
BYBLOCK
 62
0
  0
BLOCK
  8
___SYMBOL
 62
2
  6
CONTINUOUS
  2
SYMBOL_40_BL0
 70
64
 10
18.824368429
 20
22.85592873
  0
TEXT
  8
___SYMBOL
 62
2
  6
CONTINUOUS
 10
16.424368429
 20
23.6404828539
  7
STANDARD
 40
0.25
  1
CUT-OUT TEMPLATE
 41
0.8
 72
0
  0
TEXT
  8
___SYMBOL
 62
2
  6
CONTINUOUS
 10
16.424368429
 20
23.2654828539
  7
STANDARD
 40
0.25
  1
UNDERCOUNTER SINK
 41
0.8
 72
0
  0
TEXT
  8
___SYMBOL
 62
2
  6
CONTINUOUS
 10
16.424368429
 20
22.8904828539
  7
STANDARD
 40
0.25
  1
PLAN DE DÉCOUPE
 41
0.8
 72
0
  0
TEXT
  8
___SYMBOL
 62
2
  6
CONTINUOUS
 10
16.424368429
 20
22.5154828539
  7
STANDARD
 40
0.25
  1
ÉVIER SOUS COMPTOIR
 41
0.8
 72
0
  0
TEXT
  8
___SYMBOL
 62
2
  6
CONTINUOUS
 10
16.424368429
 20
22.1404828539
  7
STANDARD
 40
0.25
  1
PLANTILLA DE CORTE
 41
0.8
 72
0
  0
TEXT
  8
___SYMBOL
 62
2
  6
CONTINUOUS
 10
16.424368429
 20
21.7654828539
  7
STANDARD
 40
0.25
  1
FREGADERO DE INSTALACIÓN
 41
0.8
 72
0
  0
TEXT
  8
___SYMBOL
 62
2
  6
CONTINUOUS
 10
16.424368429
 20
21.3904828539
  7
STANDARD
 40
0.25
  1
BAJO CUBIERTA
 41
0.8
 72
0
  0
TEXT
  8
___SYMBOL
 62
2
  6
CONTINUOUS
 10
16.424368429
 20
21.0154828539
  7
STANDARD
 40
0.25
  1
K-5287
 41
0.8
 72
0
  0
LINE
  8
___SYMBOL
 62
2
  6
CONTINUOUS
 10
16.9509402052
 20
24.6923960917
 11
16.7376367533
 21
24.4387478188
  0
LINE
  8
___SYMBOL
 62
2
  6
CONTINUOUS
 10
16.7588783931
 20
24.6923960917
 11
16.9509402052
 21
24.6923960917
  0
LINE
  8
___SYMBOL
 62
2
  6
CONTINUOUS
 10
16.7588783931
 20
24.6923960917
 11
16.6211142264
 21
24.528574902
  0
LINE
  8
___SYMBOL
 62
2
  6
CONTINUOUS
 10
16.6211142264
 20
24.6923960917
 11
16.6211142264
 21
24.528574902
  0
LINE
  8
___SYMBOL
 62
2
  6
CONTINUOUS
 10
16.4466139995
 20
24.6923960917
 11
16.6211142264
 21
24.6923960917
  0
LINE
  8
___SYMBOL
 62
2
  6
CONTINUOUS
 10
16.4466139995
 20
24.6923960917
 11
16.4466139995
 21
24.1064584389
  0
LINE
  8
___SYMBOL
 62
2
  6
CONTINUOUS
 10
16.6211142264
 20
24.1064824423
 11
16.4466139995
 21
24.1064584389
  0
LINE
  8
___SYMBOL
 62
2
  6
CONTINUOUS
 10
16.6211142264
 20
24.3079822763
 11
16.6211142264
 21
24.1064824423
  0
LINE
  8
___SYMBOL
 62
2
  6
CONTINUOUS
 10
16.7748521665
 20
24.1064824423
 11
16.6211142264
 21
24.3079822763
  0
LINE
  8
___SYMBOL
 62
2
  6
CONTINUOUS
 10
16.7748521665
 20
24.1064824423
 11
16.991144588
 21
24.1064824423
  0
LINE
  8
___SYMBOL
 62
2
  6
CONTINUOUS
 10
16.991144588
 20
24.1064824423
 11
16.7376367533
 21
24.4387478188
  0
SOLID
  8
___SYMBOL
 62
2
  6
CONTINUOUS
 10
16.6211142264
 20
24.528574902
 11
16.7588783931
 21
24.6923960917
 12
16.9509402052
 22
24.6923960917
 13
16.9509402052
 23
24.6923960917
  0
SOLID
  8
___SYMBOL
 62
2
  6
CONTINUOUS
 10
16.9509402052
 20
24.6923960917
 11
16.7376367533
 21
24.4387478188
 12
16.6211142264
 22
24.528574902
 13
16.6211142264
 23
24.528574902
  0
SOLID
  8
___SYMBOL
 62
2
  6
CONTINUOUS
 10
16.6211142264
 20
24.3079822763
 11
16.7376367533
 21
24.4387478188
 12
16.7748521665
 22
24.1064824423
 13
16.7748521665
 23
24.1064824423
  0
SOLID
  8
___SYMBOL
 62
2
  6
CONTINUOUS
 10
16.7376367533
 20
24.4387478188
 11
16.991144588
 21
24.1064824423
 12
16.7748521665
 22
24.1064824423
 13
16.7748521665
 23
24.1064824423
  0
SOLID
  8
___SYMBOL
 62
2
  6
CONTINUOUS
 10
16.6211142264
 20
24.1064824423
 11
16.4466139995
 21
24.1064584389
 12
16.6211142264
 22
24.3079822763
 13
16.6211142264
 23
24.3079822763
  0
SOLID
  8
___SYMBOL
 62
2
  6
CONTINUOUS
 10
16.7376367533
 20
24.4387478188
 11
16.6211142264
 21
24.3079822763
 12
16.6211142264
 22
24.528574902
 13
16.6211142264
 23
24.528574902
  0
SOLID
  8
___SYMBOL
 62
2
  6
CONTINUOUS
 10
16.6211142264
 20
24.3079822763
 11
16.4466139995
 21
24.1064584389
 12
16.6211142264
 22
24.528574902
 13
16.6211142264
 23
24.528574902
  0
SOLID
  8
___SYMBOL
 62
2
  6
CONTINUOUS
 10
16.6211142264
 20
24.528574902
 11
16.4466139995
 21
24.1064584389
 12
16.6211142264
 22
24.6923960917
 13
16.6211142264
 23
24.6923960917
  0
SOLID
  8
___SYMBOL
 62
2
  6
CONTINUOUS
 10
16.4466139995
 20
24.1064584389
 11
16.4466139995
 21
24.6923960917
 12
16.6211142264
 22
24.6923960917
 13
16.6211142264
 23
24.6923960917
  0
CIRCLE
  8
___SYMBOL
 62
2
  6
CONTINUOUS
 10
17.1676534247
 20
24.3983180151
 40
0.298056591
  0
CIRCLE
  8
___SYMBOL
 62
2
  6
CONTINUOUS
 10
17.1676534247
 20
24.3983180151
 40
0.1247694151
  0
SOLID
  8
___SYMBOL
 62
2
  6
CONTINUOUS
 10
17.0755488728
 20
24.6817866782
 11
17.1364980273
 21
24.6947418209
 12
17.1988088221
 22
24.6947418209
 13
17.1988088221
 23
24.6947418209
  0
SOLID
  8
___SYMBOL
 62
2
  6
CONTINUOUS
 10
17.1988088221
 20
24.6947418209
 11
17.2597579766
 21
24.6817866782
 12
17.0755488728
 22
24.6817866782
 13
17.0755488728
 23
24.6817866782
  0
SOLID
  8
___SYMBOL
 62
2
  6
CONTINUOUS
 10
17.0186251292
 20
24.6564425947
 11
17.0755488728
 21
24.6817866782
 12
17.2597579766
 22
24.6817866782
 13
17.2597579766
 23
24.6817866782
  0
SOLID
  8
___SYMBOL
 62
2
  6
CONTINUOUS
 10
17.2597579766
 20
24.6817866782
 11
17.3166817202
 21
24.6564425947
 12
17.0186251292
 22
24.6564425947
 13
17.0186251292
 23
24.6564425947
  0
SOLID
  8
___SYMBOL
 62
2
  6
CONTINUOUS
 10
16.9682146372
 20
24.6198172284
 11
17.0186251292
 21
24.6564425947
 12
17.3166817202
 22
24.6564425947
 13
17.3166817202
 23
24.6564425947
  0
SOLID
  8
___SYMBOL
 62
2
  6
CONTINUOUS
 10
17.3166817202
 20
24.6564425947
 11
17.3670922121
 21
24.6198172284
 12
16.9682146372
 22
24.6198172284
 13
16.9682146372
 23
24.6198172284
  0
SOLID
  8
___SYMBOL
 62
2
  6
CONTINUOUS
 10
16.9265205773
 20
24.5735112837
 11
16.9682146372
 21
24.6198172284
 12
17.3670922121
 22
24.6198172284
 13
17.3670922121
 23
24.6198172284
  0
SOLID
  8
___SYMBOL
 62
2
  6
CONTINUOUS
 10
17.3670922121
 20
24.6198172284
 11
17.4087862721
 21
24.5735112837
 12
16.9265205773
 22
24.5735112837
 13
16.9265205773
 23
24.5735112837
  0
SOLID
  8
___SYMBOL
 62
2
  6
CONTINUOUS
 10
17.1676534247
 20
24.5230874302
 11
16.8953651799
 21
24.5195485524
 12
17.4087862721
 22
24.5735112837
 13
17.4087862721
 23
24.5735112837
  0
SOLID
  8
___SYMBOL
 62
2
  6
CONTINUOUS
 10
16.8953651799
 20
24.5195485524
 11
16.9265205773
 21
24.5735112837
 12
17.4087862721
 22
24.5735112837
 13
17.4087862721
 23
24.5735112837
  0
SOLID
  8
___SYMBOL
 62
2
  6
CONTINUOUS
 10
17.4087862721
 20
24.5735112837
 11
17.4399416695
 21
24.5195485524
 12
17.1676534247
 22
24.5230874302
 13
17.1676534247
 23
24.5230874302
  0
SOLID
  8
___SYMBOL
 62
2
  6
CONTINUOUS
 10
17.1676534247
 20
24.5230874302
 11
17.129097555
 21
24.5169807804
 12
16.8953651799
 22
24.5195485524
 13
16.8953651799
 23
24.5195485524
  0
SOLID
  8
___SYMBOL
 62
2
  6
CONTINUOUS
 10
17.2062092943
 20
24.5169807804
 11
17.1676534247
 21
24.5230874302
 12
17.4399416695
 22
24.5195485524
 13
17.4399416695
 23
24.5195485524
  0
SOLID
  8
___SYMBOL
 62
2
  6
CONTINUOUS
 10
17.0667128475
 20
24.4716556373
 11
16.8761100853
 21
24.4602874649
 12
17.0943158026
 22
24.4992585923
 13
17.0943158026
 23
24.4992585923
  0
SOLID
  8
___SYMBOL
 62
2
  6
CONTINUOUS
 10
17.0943158026
 20
24.4992585923
 11
16.8761100853
 21
24.4602874649
 12
17.129097555
 22
24.5169807804
 13
17.129097555
 23
24.5169807804
  0
SOLID
  8
___SYMBOL
 62
2
  6
CONTINUOUS
 10
16.8761100853
 20
24.4602874649
 11
16.8953651799
 21
24.5195485524
 12
17.129097555
 22
24.5169807804
 13
17.129097555
 23
24.5169807804
  0
SOLID
  8
___SYMBOL
 62
2
  6
CONTINUOUS
 10
17.2062092943
 20
24.5169807804
 11
17.4399416695
 21
24.5195485524
 12
17.2409910468
 22
24.4992585923
 13
17.2409910468
 23
24.4992585923
  0
SOLID
  8
___SYMBOL
 62
2
  6
CONTINUOUS
 10
17.2409910468
 20
24.4992585923
 11
17.4399416695
 21
24.5195485524
 12
17.2685940019
 22
24.4716556373
 13
17.2685940019
 23
24.4716556373
  0
SOLID
  8
___SYMBOL
 62
2
  6
CONTINUOUS
 10
17.4399416695
 20
24.5195485524
 11
17.459196764
 21
24.4602874649
 12
17.2685940019
 22
24.4716556373
 13
17.2685940019
 23
24.4716556373
  0
SOLID
  8
___SYMBOL
 62
2
  6
CONTINUOUS
 10
17.0667128475
 20
24.4716556373
 11
17.0489906594
 21
24.4368738848
 12
16.8761100853
 22
24.4602874649
 13
16.8761100853
 23
24.4602874649
  0
SOLID
  8
___SYMBOL
 62
2
  6
CONTINUOUS
 10
17.2863161899
 20
24.4368738848
 11
17.2685940019
 21
24.4716556373
 12
17.459196764
 22
24.4602874649
 13
17.459196764
 23
24.4602874649
  0
SOLID
  8
___SYMBOL
 62
2
  6
CONTINUOUS
 10
16.8695968337
 20
24.3983180151
 11
16.8761100853
 21
24.4602874649
 12
17.0489906594
 22
24.4368738848
 13
17.0489906594
 23
24.4368738848
  0
SOLID
  8
___SYMBOL
 62
2
  6
CONTINUOUS
 10
17.0489906594
 20
24.4368738848
 11
17.0428840096
 21
24.3983180151
 12
16.8695968337
 22
24.3983180151
 13
16.8695968337
 23
24.3983180151
  0
SOLID
  8
___SYMBOL
 62
2
  6
CONTINUOUS
 10
17.2863161899
 20
24.4368738848
 11
17.459196764
 21
24.4602874649
 12
17.2924228398
 22
24.3983180151
 13
17.2924228398
 23
24.3983180151
  0
SOLID
  8
___SYMBOL
 62
2
  6
CONTINUOUS
 10
17.459196764
 20
24.4602874649
 11
17.4657100157
 21
24.3983180151
 12
17.2924228398
 22
24.3983180151
 13
17.2924228398
 23
24.3983180151
  0
SOLID
  8
___SYMBOL
 62
2
  6
CONTINUOUS
 10
17.2863161899
 20
24.3597621455
 11
17.2924228398
 21
24.3983180151
 12
17.4657100157
 22
24.3983180151
 13
17.4657100157
 23
24.3983180151
  0
SOLID
  8
___SYMBOL
 62
2
  6
CONTINUOUS
 10
17.0489906594
 20
24.3597621455
 11
16.8761100853
 21
24.3363485654
 12
17.0428840096
 22
24.3983180151
 13
17.0428840096
 23
24.3983180151
  0
SOLID
  8
___SYMBOL
 62
2
  6
CONTINUOUS
 10
16.8761100853
 20
24.3363485654
 11
16.8695968337
 21
24.3983180151
 12
17.0428840096
 22
24.3983180151
 13
17.0428840096
 23
24.3983180151
  0
SOLID
  8
___SYMBOL
 62
2
  6
CONTINUOUS
 10
17.4657100157
 20
24.3983180151
 11
17.459196764
 21
24.3363485654
 12
17.2863161899
 22
24.3597621455
 13
17.2863161899
 23
24.3597621455
  0
SOLID
  8
___SYMBOL
 62
2
  6
CONTINUOUS
 10
17.0489906594
 20
24.3597621455
 11
17.0667128475
 21
24.324980393
 12
16.8761100853
 22
24.3363485654
 13
16.8761100853
 23
24.3363485654
  0
SOLID
  8
___SYMBOL
 62
2
  6
CONTINUOUS
 10
17.2685940019
 20
24.324980393
 11
17.2863161899
 21
24.3597621455
 12
17.459196764
 22
24.3363485654
 13
17.459196764
 23
24.3363485654
  0
SOLID
  8
___SYMBOL
 62
2
  6
CONTINUOUS
 10
17.129097555
 20
24.2796552499
 11
16.8953651799
 21
24.2770874779
 12
17.0943158026
 22
24.297377438
 13
17.0943158026
 23
24.297377438
  0
SOLID
  8
___SYMBOL
 62
2
  6
CONTINUOUS
 10
17.0943158026
 20
24.297377438
 11
16.8953651799
 21
24.2770874779
 12
17.0667128475
 22
24.324980393
 13
17.0667128475
 23
24.324980393
  0
SOLID
  8
___SYMBOL
 62
2
  6
CONTINUOUS
 10
16.8953651799
 20
24.2770874779
 11
16.8761100853
 21
24.3363485654
 12
17.0667128475
 22
24.324980393
 13
17.0667128475
 23
24.324980393
  0
SOLID
  8
___SYMBOL
 62
2
  6
CONTINUOUS
 10
17.2685940019
 20
24.324980393
 11
17.459196764
 21
24.3363485654
 12
17.2409910468
 22
24.297377438
 13
17.2409910468
 23
24.297377438
  0
SOLID
  8
___SYMBOL
 62
2
  6
CONTINUOUS
 10
17.2409910468
 20
24.297377438
 11
17.459196764
 21
24.3363485654
 12
17.2062092943
 22
24.2796552499
 13
17.2062092943
 23
24.2796552499
  0
SOLID
  8
___SYMBOL
 62
2
  6
CONTINUOUS
 10
17.459196764
 20
24.3363485654
 11
17.4399416695
 21
24.2770874779
 12
17.2062092943
 22
24.2796552499
 13
17.2062092943
 23
24.2796552499
  0
SOLID
  8
___SYMBOL
 62
2
  6
CONTINUOUS
 10
17.129097555
 20
24.2796552499
 11
17.1676534247
 21
24.2735486001
 12
16.8953651799
 22
24.2770874779
 13
16.8953651799
 23
24.2770874779
  0
SOLID
  8
___SYMBOL
 62
2
  6
CONTINUOUS
 10
17.1676534247
 20
24.2735486001
 11
17.2062092943
 21
24.2796552499
 12
17.4399416695
 22
24.2770874779
 13
17.4399416695
 23
24.2770874779
  0
SOLID
  8
___SYMBOL
 62
2
  6
CONTINUOUS
 10
16.9265205773
 20
24.2231247466
 11
16.8953651799
 21
24.2770874779
 12
17.1676534247
 22
24.2735486001
 13
17.1676534247
 23
24.2735486001
  0
SOLID
  8
___SYMBOL
 62
2
  6
CONTINUOUS
 10
17.1676534247
 20
24.2735486001
 11
17.4399416695
 21
24.2770874779
 12
16.9265205773
 22
24.2231247466
 13
16.9265205773
 23
24.2231247466
  0
SOLID
  8
___SYMBOL
 62
2
  6
CONTINUOUS
 10
17.4399416695
 20
24.2770874779
 11
17.4087862721
 21
24.2231247466
 12
16.9265205773
 22
24.2231247466
 13
16.9265205773
 23
24.2231247466
  0
SOLID
  8
___SYMBOL
 62
2
  6
CONTINUOUS
 10
16.9682146372
 20
24.1768188019
 11
16.9265205773
 21
24.2231247466
 12
17.4087862721
 22
24.2231247466
 13
17.4087862721
 23
24.2231247466
  0
SOLID
  8
___SYMBOL
 62
2
  6
CONTINUOUS
 10
17.4087862721
 20
24.2231247466
 11
17.3670922121
 21
24.1768188019
 12
16.9682146372
 22
24.1768188019
 13
16.9682146372
 23
24.1768188019
  0
SOLID
  8
___SYMBOL
 62
2
  6
CONTINUOUS
 10
17.0186251292
 20
24.1401934356
 11
16.9682146372
 21
24.1768188019
 12
17.3670922121
 22
24.1768188019
 13
17.3670922121
 23
24.1768188019
  0
SOLID
  8
___SYMBOL
 62
2
  6
CONTINUOUS
 10
17.3670922121
 20
24.1768188019
 11
17.3166817202
 21
24.1401934356
 12
17.0186251292
 22
24.1401934356
 13
17.0186251292
 23
24.1401934356
  0
SOLID
  8
___SYMBOL
 62
2
  6
CONTINUOUS
 10
17.0755488728
 20
24.1148493521
 11
17.0186251292
 21
24.1401934356
 12
17.3166817202
 22
24.1401934356
 13
17.3166817202
 23
24.1401934356
  0
SOLID
  8
___SYMBOL
 62
2
  6
CONTINUOUS
 10
17.3166817202
 20
24.1401934356
 11
17.2597579766
 21
24.1148493521
 12
17.0755488728
 22
24.1148493521
 13
17.0755488728
 23
24.1148493521
  0
SOLID
  8
___SYMBOL
 62
2
  6
CONTINUOUS
 10
17.1364980273
 20
24.1018942094
 11
17.0755488728
 21
24.1148493521
 12
17.2597579766
 22
24.1148493521
 13
17.2597579766
 23
24.1148493521
  0
SOLID
  8
___SYMBOL
 62
2
  6
CONTINUOUS
 10
17.2597579766
 20
24.1148493521
 11
17.1988088221
 21
24.1018942094
 12
17.1364980273
 22
24.1018942094
 13
17.1364980273
 23
24.1018942094
  0
LINE
  8
___SYMBOL
 62
2
  6
CONTINUOUS
 10
17.9602894339
 20
24.6923960917
 11
17.9602894339
 21
24.1064824423
  0
LINE
  8
___SYMBOL
 62
2
  6
CONTINUOUS
 10
17.9602894339
 20
24.1064824423
 11
17.795555754
 21
24.1064824423
  0
LINE
  8
___SYMBOL
 62
2
  6
CONTINUOUS
 10
17.795555754
 20
24.3348070521
 11
17.795555754
 21
24.1064824423
  0
LINE
  8
___SYMBOL
 62
2
  6
CONTINUOUS
 10
17.6475589429
 20
24.3348070521
 11
17.795555754
 21
24.3348070521
  0
LINE
  8
___SYMBOL
 62
2
  6
CONTINUOUS
 10
17.6475589429
 20
24.3348070521
 11
17.6475589429
 21
24.1064824423
  0
LINE
  8
___SYMBOL
 62
2
  6
CONTINUOUS
 10
17.6475589429
 20
24.1064824423
 11
17.4828252631
 21
24.1064824423
  0
LINE
  8
___SYMBOL
 62
2
  6
CONTINUOUS
 10
17.4828252631
 20
24.6923960917
 11
17.4828252631
 21
24.1064824423
  0
LINE
  8
___SYMBOL
 62
2
  6
CONTINUOUS
 10
17.4828252631
 20
24.6923960917
 11
17.6475589429
 21
24.6923960917
  0
LINE
  8
___SYMBOL
 62
2
  6
CONTINUOUS
 10
17.6475589429
 20
24.6923960917
 11
17.6475589429
 21
24.472012332
  0
LINE
  8
___SYMBOL
 62
2
  6
CONTINUOUS
 10
17.6475589429
 20
24.472012332
 11
17.795555754
 21
24.472012332
  0
LINE
  8
___SYMBOL
 62
2
  6
CONTINUOUS
 10
17.795555754
 20
24.6923960917
 11
17.795555754
 21
24.472012332
  0
LINE
  8
___SYMBOL
 62
2
  6
CONTINUOUS
 10
17.795555754
 20
24.6923960917
 11
17.9602894339
 21
24.6923960917
  0
SOLID
  8
___SYMBOL
 62
2
  6
CONTINUOUS
 10
17.795555754
 20
24.472012332
 11
17.795555754
 21
24.6923960917
 12
17.9602894339
 22
24.6923960917
 13
17.9602894339
 23
24.6923960917
  0
SOLID
  8
___SYMBOL
 62
2
  6
CONTINUOUS
 10
17.795555754
 20
24.472012332
 11
17.6475589429
 21
24.3348070521
 12
17.6475589429
 22
24.472012332
 13
17.6475589429
 23
24.472012332
  0
SOLID
  8
___SYMBOL
 62
2
  6
CONTINUOUS
 10
17.6475589429
 20
24.3348070521
 11
17.4828252631
 21
24.1064824423
 12
17.6475589429
 22
24.472012332
 13
17.6475589429
 23
24.472012332
  0
SOLID
  8
___SYMBOL
 62
2
  6
CONTINUOUS
 10
17.6475589429
 20
24.472012332
 11
17.4828252631
 21
24.1064824423
 12
17.6475589429
 22
24.6923960917
 13
17.6475589429
 23
24.6923960917
  0
SOLID
  8
___SYMBOL
 62
2
  6
CONTINUOUS
 10
17.4828252631
 20
24.1064824423
 11
17.4828252631
 21
24.6923960917
 12
17.6475589429
 22
24.6923960917
 13
17.6475589429
 23
24.6923960917
  0
SOLID
  8
___SYMBOL
 62
2
  6
CONTINUOUS
 10
17.6475589429
 20
24.3348070521
 11
17.6475589429
 21
24.1064824423
 12
17.4828252631
 22
24.1064824423
 13
17.4828252631
 23
24.1064824423
  0
SOLID
  8
___SYMBOL
 62
2
  6
CONTINUOUS
 10
17.6475589429
 20
24.3348070521
 11
17.795555754
 21
24.472012332
 12
17.795555754
 22
24.3348070521
 13
17.795555754
 23
24.3348070521
  0
SOLID
  8
___SYMBOL
 62
2
  6
CONTINUOUS
 10
17.795555754
 20
24.472012332
 11
17.9602894339
 21
24.6923960917
 12
17.795555754
 22
24.3348070521
 13
17.795555754
 23
24.3348070521
  0
SOLID
  8
___SYMBOL
 62
2
  6
CONTINUOUS
 10
17.795555754
 20
24.3348070521
 11
17.9602894339
 21
24.6923960917
 12
17.795555754
 22
24.1064824423
 13
17.795555754
 23
24.1064824423
  0
SOLID
  8
___SYMBOL
 62
2
  6
CONTINUOUS
 10
17.9602894339
 20
24.6923960917
 11
17.9602894339
 21
24.1064824423
 12
17.795555754
 22
24.1064824423
 13
17.795555754
 23
24.1064824423
  0
LINE
  8
___SYMBOL
 62
2
  6
CONTINUOUS
 10
18.1553803408
 20
24.1064824423
 11
18.3180644108
 21
24.1064824423
  0
LINE
  8
___SYMBOL
 62
2
  6
CONTINUOUS
 10
18.1553803408
 20
24.1064824423
 11
18.0053342781
 21
24.1064824423
  0
LINE
  8
___SYMBOL
 62
2
  6
CONTINUOUS
 10
18.0053342781
 20
24.1064824423
 11
18.0053342781
 21
24.6923960917
  0
LINE
  8
___SYMBOL
 62
2
  6
CONTINUOUS
 10
18.0053342781
 20
24.6923960917
 11
18.1553803408
 21
24.6923960917
  0
LINE
  8
___SYMBOL
 62
2
  6
CONTINUOUS
 10
18.1553803408
 20
24.6923960917
 11
18.1553803408
 21
24.2477091995
  0
LINE
  8
___SYMBOL
 62
2
  6
CONTINUOUS
 10
18.1553803408
 20
24.2477091995
 11
18.3180644108
 21
24.2477091995
  0
LINE
  8
___SYMBOL
 62
2
  6
CONTINUOUS
 10
18.3180644108
 20
24.2477091995
 11
18.3180644108
 21
24.1064824423
  0
SOLID
  8
___SYMBOL
 62
2
  6
CONTINUOUS
 10
18.3180644108
 20
24.2477091995
 11
18.0053342781
 21
24.1064824423
 12
18.1553803408
 22
24.2477091995
 13
18.1553803408
 23
24.2477091995
  0
SOLID
  8
___SYMBOL
 62
2
  6
CONTINUOUS
 10
18.1553803408
 20
24.2477091995
 11
18.0053342781
 21
24.1064824423
 12
18.1553803408
 22
24.6923960917
 13
18.1553803408
 23
24.6923960917
  0
SOLID
  8
___SYMBOL
 62
2
  6
CONTINUOUS
 10
18.0053342781
 20
24.1064824423
 11
18.0053342781
 21
24.6923960917
 12
18.1553803408
 22
24.6923960917
 13
18.1553803408
 23
24.6923960917
  0
SOLID
  8
___SYMBOL
 62
2
  6
CONTINUOUS
 10
18.0053342781
 20
24.1064824423
 11
18.3180644108
 21
24.2477091995
 12
18.1553803408
 22
24.1064824423
 13
18.1553803408
 23
24.1064824423
  0
SOLID
  8
___SYMBOL
 62
2
  6
CONTINUOUS
 10
18.3180644108
 20
24.2477091995
 11
18.3180644108
 21
24.1064824423
 12
18.1553803408
 22
24.1064824423
 13
18.1553803408
 23
24.1064824423
  0
LINE
  8
___SYMBOL
 62
2
  6
CONTINUOUS
 10
18.6563163248
 20
24.3276307305
 11
18.6563163248
 21
24.472012332
  0
LINE
  8
___SYMBOL
 62
2
  6
CONTINUOUS
 10
18.5054588014
 20
24.472012332
 11
18.6563163248
 21
24.472012332
  0
LINE
  8
___SYMBOL
 62
2
  6
CONTINUOUS
 10
18.5054588014
 20
24.5496366949
 11
18.5054588014
 21
24.472012332
  0
LINE
  8
___SYMBOL
 62
2
  6
CONTINUOUS
 10
18.5054588014
 20
24.5496366949
 11
18.6563163248
 21
24.5496366949
  0
LINE
  8
___SYMBOL
 62
2
  6
CONTINUOUS
 10
18.6563163248
 20
24.5496366949
 11
18.6563163248
 21
24.6923960917
  0
LINE
  8
___SYMBOL
 62
2
  6
CONTINUOUS
 10
18.5196631248
 20
24.6923960917
 11
18.6563163248
 21
24.6923960917
  0
LINE
  8
___SYMBOL
 62
2
  6
CONTINUOUS
 10
18.3472121495
 20
24.6923960917
 11
18.5196631248
 21
24.6923960917
  0
LINE
  8
___SYMBOL
 62
2
  6
CONTINUOUS
 10
18.3472121495
 20
24.1064824423
 11
18.3472121495
 21
24.6923960917
  0
LINE
  8
___SYMBOL
 62
2
  6
CONTINUOUS
 10
18.3472121495
 20
24.1064824423
 11
18.6563163248
 21
24.1064824423
  0
LINE
  8
___SYMBOL
 62
2
  6
CONTINUOUS
 10
18.6563163248
 20
24.1064824423
 11
18.6563163248
 21
24.2477091995
  0
LINE
  8
___SYMBOL
 62
2
  6
CONTINUOUS
 10
18.5054588014
 20
24.2477091995
 11
18.6563163248
 21
24.2477091995
  0
LINE
  8
___SYMBOL
 62
2
  6
CONTINUOUS
 10
18.5054588014
 20
24.3276307305
 11
18.5054588014
 21
24.2477091995
  0
LINE
  8
___SYMBOL
 62
2
  6
CONTINUOUS
 10
18.5054588014
 20
24.3276307305
 11
18.6563163248
 21
24.3276307305
  0
SOLID
  8
___SYMBOL
 62
2
  6
CONTINUOUS
 10
18.6563163248
 20
24.6923960917
 11
18.6563163248
 21
24.5496366949
 12
18.5054588014
 22
24.5496366949
 13
18.5054588014
 23
24.5496366949
  0
SOLID
  8
___SYMBOL
 62
2
  6
CONTINUOUS
 10
18.6563163248
 20
24.472012332
 11
18.6563163248
 21
24.3276307305
 12
18.5054588014
 22
24.3276307305
 13
18.5054588014
 23
24.3276307305
  0
SOLID
  8
___SYMBOL
 62
2
  6
CONTINUOUS
 10
18.6563163248
 20
24.2477091995
 11
18.3472121495
 21
24.1064824423
 12
18.5054588014
 22
24.2477091995
 13
18.5054588014
 23
24.2477091995
  0
SOLID
  8
___SYMBOL
 62
2
  6
CONTINUOUS
 10
18.5054588014
 20
24.2477091995
 11
18.3472121495
 21
24.1064824423
 12
18.5054588014
 22
24.3276307305
 13
18.5054588014
 23
24.3276307305
  0
SOLID
  8
___SYMBOL
 62
2
  6
CONTINUOUS
 10
18.6563163248
 20
24.472012332
 11
18.5054588014
 21
24.3276307305
 12
18.5054588014
 22
24.472012332
 13
18.5054588014
 23
24.472012332
  0
SOLID
  8
___SYMBOL
 62
2
  6
CONTINUOUS
 10
18.5054588014
 20
24.3276307305
 11
18.3472121495
 21
24.1064824423
 12
18.5054588014
 22
24.472012332
 13
18.5054588014
 23
24.472012332
  0
SOLID
  8
___SYMBOL
 62
2
  6
CONTINUOUS
 10
18.5054588014
 20
24.472012332
 11
18.3472121495
 21
24.1064824423
 12
18.5054588014
 22
24.5496366949
 13
18.5054588014
 23
24.5496366949
  0
SOLID
  8
___SYMBOL
 62
2
  6
CONTINUOUS
 10
18.6563163248
 20
24.6923960917
 11
18.5054588014
 21
24.5496366949
 12
18.5196631248
 22
24.6923960917
 13
18.5196631248
 23
24.6923960917
  0
SOLID
  8
___SYMBOL
 62
2
  6
CONTINUOUS
 10
18.5054588014
 20
24.5496366949
 11
18.3472121495
 21
24.1064824423
 12
18.5196631248
 22
24.6923960917
 13
18.5196631248
 23
24.6923960917
  0
SOLID
  8
___SYMBOL
 62
2
  6
CONTINUOUS
 10
18.3472121495
 20
24.1064824423
 11
18.3472121495
 21
24.6923960917
 12
18.5196631248
 22
24.6923960917
 13
18.5196631248
 23
24.6923960917
  0
SOLID
  8
___SYMBOL
 62
2
  6
CONTINUOUS
 10
18.6563163248
 20
24.2477091995
 11
18.6563163248
 21
24.1064824423
 12
18.3472121495
 22
24.1064824423
 13
18.3472121495
 23
24.1064824423
  0
LINE
  8
___SYMBOL
 62
2
  6
CONTINUOUS
 10
19.1665667308
 20
24.1064824423
 11
19.0071234878
 21
24.3580649836
  0
ARC
  8
___SYMBOL
 62
2
  6
CONTINUOUS
 10
18.9346842402
 20
24.517386581
 40
0.1750166163
 50
294.4500166359
 51
90.0
  0
LINE
  8
___SYMBOL
 62
2
  6
CONTINUOUS
 10
18.7011365395
 20
24.6923960917
 11
18.9346842402
 21
24.6923960917
  0
LINE
  8
___SYMBOL
 62
2
  6
CONTINUOUS
 10
18.7011365395
 20
24.1064824423
 11
18.7011365395
 21
24.6923960917
  0
LINE
  8
___SYMBOL
 62
2
  6
CONTINUOUS
 10
18.7011365395
 20
24.1064824423
 11
18.8517923621
 21
24.1064824423
  0
LINE
  8
___SYMBOL
 62
2
  6
CONTINUOUS
 10
18.8517923621
 20
24.3034388131
 11
18.8517923621
 21
24.1064824423
  0
LINE
  8
___SYMBOL
 62
2
  6
CONTINUOUS
 10
18.9766157912
 20
24.1064824423
 11
18.8517923621
 21
24.3034388131
  0
LINE
  8
___SYMBOL
 62
2
  6
CONTINUOUS
 10
18.9766157912
 20
24.1064824423
 11
19.1665667308
 21
24.1064824423
  0
LINE
  8
___SYMBOL
 62
2
  6
CONTINUOUS
 10
18.8517923621
 20
24.4427141238
 11
18.9041321123
 21
24.4427141238
  0
ARC
  8
___SYMBOL
 62
2
  6
CONTINUOUS
 10
18.9077221416
 20
24.4962055233
 40
0.053611735
 50
266.1604009902
 51
89.9998910512
  0
LINE
  8
___SYMBOL
 62
2
  6
CONTINUOUS
 10
18.9077222435
 20
24.5498172584
 11
18.8517923621
 21
24.5498172584
  0
LINE
  8
___SYMBOL
 62
2
  6
CONTINUOUS
 10
18.8517923621
 20
24.5498172584
 11
18.8517923621
 21
24.4427141238
  0
SOLID
  8
___SYMBOL
 62
2
  6
CONTINUOUS
 10
18.9346842402
 20
24.6924031973
 11
18.9816172637
 21
24.6859929489
 12
18.7011365395
 22
24.6923960917
 13
18.7011365395
 23
24.6923960917
  0
SOLID
  8
___SYMBOL
 62
2
  6
CONTINUOUS
 10
18.8517923621
 20
24.5498172584
 11
19.1057321032
 21
24.5544465939
 12
18.9077222435
 22
24.5498172584
 13
18.9077222435
 23
24.5498172584
  0
SOLID
  8
___SYMBOL
 62
2
  6
CONTINUOUS
 10
18.9077222435
 20
24.5498172584
 11
19.1057321032
 21
24.5544465939
 12
18.9314448251
 22
24.54428309
 13
18.9314448251
 23
24.54428309
  0
SOLID
  8
___SYMBOL
 62
2
  6
CONTINUOUS
 10
18.9314448251
 20
24.54428309
 11
19.1057321032
 21
24.5544465939
 12
18.9502698128
 22
24.528823215
 13
18.9502698128
 23
24.528823215
  0
SOLID
  8
___SYMBOL
 62
2
  6
CONTINUOUS
 10
19.1057321032
 20
24.5544465939
 11
19.1094053496
 21
24.507220465
 12
18.9502698128
 22
24.528823215
 13
18.9502698128
 23
24.528823215
  0
SOLID
  8
___SYMBOL
 62
2
  6
CONTINUOUS
 10
18.9603107514
 20
24.5066293544
 11
18.9502698128
 21
24.528823215
 12
19.1094053496
 22
24.507220465
 13
19.1094053496
 23
24.507220465
  0
SOLID
  8
___SYMBOL
 62
2
  6
CONTINUOUS
 10
18.9603107514
 20
24.5066293544
 11
19.1094053496
 21
24.507220465
 12
18.9594946697
 22
24.4822834737
 13
18.9594946697
 23
24.4822834737
  0
SOLID
  8
___SYMBOL
 62
2
  6
CONTINUOUS
 10
18.9594946697
 20
24.4822834737
 11
19.1094053496
 21
24.507220465
 12
18.9479900493
 22
24.4608118271
 13
18.9479900493
 23
24.4608118271
  0
SOLID
  8
___SYMBOL
 62
2
  6
CONTINUOUS
 10
19.1094053496
 20
24.507220465
 11
19.1002797459
 21
24.460739035
 12
18.9479900493
 22
24.4608118271
 13
18.9479900493
 23
24.4608118271
  0
SOLID
  8
___SYMBOL
 62
2
  6
CONTINUOUS
 10
18.9281720415
 20
24.4466472776
 11
18.9479900493
 21
24.4608118271
 12
19.1002797459
 22
24.460739035
 13
19.1002797459
 23
24.460739035
  0
SOLID
  8
___SYMBOL
 62
2
  6
CONTINUOUS
 10
18.9281720415
 20
24.4466472776
 11
19.1002797459
 21
24.460739035
 12
18.9041321123
 22
24.4427141238
 13
18.9041321123
 23
24.4427141238
  0
SOLID
  8
___SYMBOL
 62
2
  6
CONTINUOUS
 10
19.1002797459
 20
24.460739035
 11
19.0790237702
 21
24.4184072091
 12
18.9041321123
 22
24.4427141238
 13
18.9041321123
 23
24.4427141238
  0
SOLID
  8
___SYMBOL
 62
2
  6
CONTINUOUS
 10
19.0071234878
 20
24.3580649836
 11
18.8517923621
 21
24.3034388131
 12
19.0471944871
 22
24.3833259218
 13
19.0471944871
 23
24.3833259218
  0
SOLID
  8
___SYMBOL
 62
2
  6
CONTINUOUS
 10
19.0471944871
 20
24.3833259218
 11
18.8517923621
 21
24.3034388131
 12
19.0790237702
 22
24.4184072091
 13
19.0790237702
 23
24.4184072091
  0
SOLID
  8
___SYMBOL
 62
2
  6
CONTINUOUS
 10
19.0790237702
 20
24.4184072091
 11
18.8517923621
 21
24.3034388131
 12
18.9041321123
 22
24.4427141238
 13
18.9041321123
 23
24.4427141238
  0
SOLID
  8
___SYMBOL
 62
2
  6
CONTINUOUS
 10
18.8517923621
 20
24.3034388131
 11
18.7011365395
 21
24.1064824423
 12
18.9041321123
 22
24.4427141238
 13
18.9041321123
 23
24.4427141238
  0
SOLID
  8
___SYMBOL
 62
2
  6
CONTINUOUS
 10
18.9041321123
 20
24.4427141238
 11
18.7011365395
 21
24.1064824423
 12
18.8517923621
 22
24.4427141238
 13
18.8517923621
 23
24.4427141238
  0
SOLID
  8
___SYMBOL
 62
2
  6
CONTINUOUS
 10
18.8517923621
 20
24.4427141238
 11
18.7011365395
 21
24.1064824423
 12
18.8517923621
 22
24.5498172584
 13
18.8517923621
 23
24.5498172584
  0
SOLID
  8
___SYMBOL
 62
2
  6
CONTINUOUS
 10
19.1057321032
 20
24.5544465939
 11
18.8517923621
 21
24.5498172584
 12
19.0895290831
 22
24.5989579646
 13
19.0895290831
 23
24.5989579646
  0
SOLID
  8
___SYMBOL
 62
2
  6
CONTINUOUS
 10
19.0895290831
 20
24.5989579646
 11
18.8517923621
 21
24.5498172584
 12
19.0619832095
 22
24.6374939845
 13
19.0619832095
 23
24.6374939845
  0
SOLID
  8
___SYMBOL
 62
2
  6
CONTINUOUS
 10
19.0619832095
 20
24.6374939845
 11
18.8517923621
 21
24.5498172584
 12
19.0251123012
 22
24.6672317737
 13
19.0251123012
 23
24.6672317737
  0
SOLID
  8
___SYMBOL
 62
2
  6
CONTINUOUS
 10
19.0251123012
 20
24.6672317737
 11
18.8517923621
 21
24.5498172584
 12
18.9816172637
 22
24.6859929489
 13
18.9816172637
 23
24.6859929489
  0
SOLID
  8
___SYMBOL
 62
2
  6
CONTINUOUS
 10
18.9816172637
 20
24.6859929489
 11
18.8517923621
 21
24.5498172584
 12
18.7011365395
 22
24.6923960917
 13
18.7011365395
 23
24.6923960917
  0
SOLID
  8
___SYMBOL
 62
2
  6
CONTINUOUS
 10
18.7011365395
 20
24.1064824423
 11
18.7011365395
 21
24.6923960917
 12
18.8517923621
 22
24.5498172584
 13
18.8517923621
 23
24.5498172584
  0
SOLID
  8
___SYMBOL
 62
2
  6
CONTINUOUS
 10
18.8517923621
 20
24.3034388131
 11
18.8517923621
 21
24.1064824423
 12
18.7011365395
 22
24.1064824423
 13
18.7011365395
 23
24.1064824423
  0
SOLID
  8
___SYMBOL
 62
2
  6
CONTINUOUS
 10
18.8517923621
 20
24.3034388131
 11
19.0071234878
 21
24.3580649836
 12
18.9766157912
 22
24.1064824423
 13
18.9766157912
 23
24.1064824423
  0
SOLID
  8
___SYMBOL
 62
2
  6
CONTINUOUS
 10
19.0071234878
 20
24.3580649836
 11
19.1665667308
 21
24.1064824423
 12
18.9766157912
 22
24.1064824423
 13
18.9766157912
 23
24.1064824423
  0
CIRCLE
  8
___SYMBOL
 62
2
  6
CONTINUOUS
 10
19.3073367054
 20
24.1064824423
 40
0.0653578721
  0
LINE
  8
___SYMBOL
 62
2
  6
CONTINUOUS
 10
19.3030486822
 20
24.1059446929
 11
19.334916695
 21
24.0736417515
  0
LINE
  8
___SYMBOL
 62
2
  6
CONTINUOUS
 10
19.291450706
 20
24.0736417515
 11
19.291450706
 21
24.1396079504
  0
LINE
  8
___SYMBOL
 62
2
  6
CONTINUOUS
 10
19.291450706
 20
24.1396079504
 11
19.315730039
 21
24.1396079504
  0
ARC
  8
___SYMBOL
 62
2
  6
CONTINUOUS
 10
19.315730039
 20
24.1227765008
 40
0.0168314496
 50
270.0
 51
90.0
  0
LINE
  8
___SYMBOL
 62
2
  6
CONTINUOUS
 10
19.315730039
 20
24.1059446929
 11
19.291450706
 21
24.1059446929
  0
ENDBLK
  8
0
  6
BYBLOCK
 62
0
  0
BLOCK
  8
0
  2
_FILLED
 70
64
 10
0.0
 20
0.0
  0
SOLID
  8
0
  6
BYBLOCK
 62
0
 10
0.0
 20
0.0
 11
-1.0
 21
0.1666666667
 12
-1.0
 22
-0.1666666667
 13
-1.0
 23
-0.1666666667
  0
ENDBLK
  8
0
  6
BYBLOCK
 62
0
  0
BLOCK
  8
0
 62
2
  6
CONTINUOUS
  2
*D0
 70
65
 10
0.0
 20
0.0
  0
TEXT
  8
0
 62
2
  6
CONTINUOUS
 10
27.0744401622
 20
24.8024171662
  7
STANDARD
 40
0.15625
  1
R
 41
0.8
 72
2
 11
27.1994401622
 21
24.8024171662
  0
TEXT
  8
0
 62
2
  6
CONTINUOUS
 10
27.1994401622
 20
24.8024171662
  7
STANDARD
 40
0.15625
  1
1/2
 41
0.8
 72
2
 11
27.5744401622
 21
24.8024171662
  0
TEXT
  8
0
 62
2
  6
CONTINUOUS
 10
27.1994401622
 20
24.5680421662
  7
STANDARD
 40
0.15625
  1
[
 41
0.8
 72
2
 11
27.3244401622
 21
24.5680421662
  0
TEXT
  8
0
 62
2
  6
CONTINUOUS
 10
27.3244401622
 20
24.5680421662
  7
STANDARD
 40
0.15625
  1
1,3
 41
0.8
 72
2
 11
27.6994401622
 21
24.5680421662
  0
TEXT
  8
0
 62
2
  6
CONTINUOUS
 10
27.6994401622
 20
24.5680421662
  7
STANDARD
 40
0.15625
  1
]
 41
0.8
 72
2
 11
27.8244401622
 21
24.5680421662
  0
LINE
  8
0
 62
2
  6
CONTINUOUS
 10
28.4799932747
 20
25.3317059862
 11
28.0744401622
 21
24.8805421662
  0
LINE
  8
0
 62
2
  6
CONTINUOUS
 10
28.0744401622
 20
24.8805421662
 11
27.9025651622
 21
24.8805421662
  0
INSERT
  8
0
 62
2
  6
CONTINUOUS
  2
_FILLED
 10
28.4799932747
 20
25.3317059862
 41
0.1875
 42
0.1875
 43
0.1875
 50
48.0474899021
  0
ENDBLK
  8
0
  6
BYBLOCK
 62
0
  0
BLOCK
  8
0
 62
2
  6
CONTINUOUS
  2
*D1
 70
65
 10
0.0
 20
0.0
  0
TEXT
  8
0
 62
2
  6
CONTINUOUS
 10
24.7567717929
 20
15.9179241813
  7
STANDARD
 40
0.15625
  1
13-1/4
 41
0.8
 72
0
  0
TEXT
  8
0
 62
2
  6
CONTINUOUS
 10
25.5067717929
 20
15.9179241813
  7
STANDARD
 40
0.15625
  1
"
 41
0.8
 72
0
  0
TEXT
  8
0
 62
2
  6
CONTINUOUS
 10
24.7567717929
 20
15.6835491813
  7
STANDARD
 40
0.15625
  1
[
 41
0.8
 72
0
  0
TEXT
  8
0
 62
2
  6
CONTINUOUS
 10
24.8817717929
 20
15.6835491813
  7
STANDARD
 40
0.15625
  1
34
 41
0.8
 72
0
  0
TEXT
  8
0
 62
2
  6
CONTINUOUS
 10
25.1317717929
 20
15.6835491813
  7
STANDARD
 40
0.15625
  1
]
 41
0.8
 72
0
  0
LINE
  8
0
 62
2
  6
CONTINUOUS
 10
25.0692717929
 20
12.209856395
 11
25.5777706691
 21
12.209856395
  0
LINE
  8
0
 62
2
  6
CONTINUOUS
 10
25.1942717929
 20
25.459856395
 11
25.1942717929
 21
16.1522991813
  0
LINE
  8
0
 62
2
  6
CONTINUOUS
 10
25.1942717929
 20
12.209856395
 11
25.1942717929
 21
15.6054241813
  0
INSERT
  8
0
 62
2
  6
CONTINUOUS
  2
_FILLED
 10
25.1942717929
 20
25.459856395
 41
0.1875
 42
0.1875
 43
0.1875
 50
90.0
  0
INSERT
  8
0
 62
2
  6
CONTINUOUS
  2
_FILLED
 10
25.1942717929
 20
12.209856395
 41
0.1875
 42
0.1875
 43
0.1875
 50
270.0
  0
ENDBLK
  8
0
  6
BYBLOCK
 62
0
  0
BLOCK
  8
0
 62
2
  6
CONTINUOUS
  2
*D2
 70
65
 10
0.0
 20
0.0
  0
TEXT
  8
0
 62
2
  6
CONTINUOUS
 10
25.9705587365
 20
17.4478883927
  7
STANDARD
 40
0.15625
  1
13-1/4
 41
0.8
 72
0
  0
TEXT
  8
0
 62
2
  6
CONTINUOUS
 10
26.7205587365
 20
17.4478883927
  7
STANDARD
 40
0.15625
  1
"
 41
0.8
 72
0
  0
TEXT
  8
0
 62
2
  6
CONTINUOUS
 10
25.9705587365
 20
17.2135133927
  7
STANDARD
 40
0.15625
  1
[
 41
0.8
 72
0
  0
TEXT
  8
0
 62
2
  6
CONTINUOUS
 10
26.0955587365
 20
17.2135133927
  7
STANDARD
 40
0.15625
  1
34
 41
0.8
 72
0
  0
TEXT
  8
0
 62
2
  6
CONTINUOUS
 10
26.3455587365
 20
17.2135133927
  7
STANDARD
 40
0.15625
  1
]
 41
0.8
 72
0
  0
LINE
  8
0
 62
2
  6
CONTINUOUS
 10
15.3957360661
 20
17.6510133927
 11
15.3957360661
 21
17.3773158995
  0
LINE
  8
0
 62
2
  6
CONTINUOUS
 10
28.6457360661
 20
17.5260133927
 11
26.9236837365
 21
17.5260133927
  0
LINE
  8
0
 62
2
  6
CONTINUOUS
 10
15.3957360661
 20
17.5260133927
 11
25.8924337365
 21
17.5260133927
  0
INSERT
  8
0
 62
2
  6
CONTINUOUS
  2
_FILLED
 10
28.6457360661
 20
17.5260133927
 41
0.1875
 42
0.1875
 43
0.1875
  0
INSERT
  8
0
 62
2
  6
CONTINUOUS
  2
_FILLED
 10
15.3957360661
 20
17.5260133927
 41
0.1875
 42
0.1875
 43
0.1875
 50
180.0
  0
ENDBLK
  8
0
  6
BYBLOCK
 62
0
  0
ENDSEC
  0
SECTION
  2
ENTITIES
  0
DIMENSION
  8
0
 62
2
  6
CONTINUOUS
  2
*D0
 10
28.1457360661
 20
24.959856395
 11
27.4494401622
 21
24.7633546662
 70
132
 15
28.4799932747
 25
25.3317059862
  0
DIMENSION
  8
0
 62
2
  6
CONTINUOUS
  2
*D1
 10
25.1942717929
 20
12.209856395
 11
25.1942717929
 21
15.8788616813
 70
128
 13
15.8957360661
 23
25.459856395
 14
25.6402706691
 24
12.209856395
 50
270.0
  0
DIMENSION
  8
0
 62
2
  6
CONTINUOUS
  2
*D2
 10
15.3957360661
 20
17.5260133927
 11
26.4080587365
 21
17.4088258927
 70
128
 13
28.6457360661
 23
24.959856395
 14
15.3957360661
 24
17.3148158995
 50
180.0
  0
TEXT
  8
___NOTE
 62
2
  6
CONTINUOUS
 10
26.309173274
 20
23.2840566977
  7
STANDARD
 40
0.15625
  1
RIM OF SINK
 41
0.8
 72
2
 11
27.684173274
 21
23.2840566977
  0
TEXT
  8
___NOTE
 62
2
  6
CONTINUOUS
 10
25.559173274
 20
23.0496816977
  7
STANDARD
 40
0.15625
  1
REBORD DE L'ÉVIER
 41
0.8
 72
2
 11
27.684173274
 21
23.0496816977
  0
TEXT
  8
___NOTE
 62
2
  6
CONTINUOUS
 10
25.309173274
 20
22.8153066977
  7
STANDARD
 40
0.15625
  1
BORDE DEL FREGADERO
 41
0.8
 72
2
 11
27.684173274
 21
22.8153066977
  0
LINE
  8
___NOTE
 62
2
  6
CONTINUOUS
 10
29.5207360661
 20
21.843249163
 11
27.934173274
 21
23.3621816977
  0
LINE
  8
___NOTE
 62
2
  6
CONTINUOUS
 10
27.934173274
 20
23.3621816977
 11
27.684173274
 21
23.3621816977
  0
SOLID
  8
___NOTE
 62
2
  6
CONTINUOUS
 10
29.3636875862
 20
21.950340654
 11
29.5207360661
 21
21.843249163
 12
29.4069090686
 22
21.9954865669
 13
29.4069090686
 23
21.9954865669
  0
TEXT
  8
___NOTE
 62
2
  6
CONTINUOUS
 10
21.1755046904
 20
21.2903245295
  7
STANDARD
 40
0.15625
  1
FOR UNDERCOUNTER INSTALLATION
 41
0.8
 72
2
 11
24.8005046904
 21
21.2903245295
  0
TEXT
  8
___NOTE
 62
2
  6
CONTINUOUS
 10
22.4255046904
 20
21.0559495295
  7
STANDARD
 40
0.15625
  1
CUT ALONG THIS LINE
 41
0.8
 72
2
 11
24.8005046904
 21
21.0559495295
  0
TEXT
  8
___NOTE
 62
2
  6
CONTINUOUS
 10
20.8005046904
 20
20.8215745295
  7
STANDARD
 40
0.15625
  1
POUR INSTALLATION SOUS COMPTOIR 
 41
0.8
 72
2
 11
24.8005046904
 21
20.8215745295
  0
TEXT
  8
___NOTE
 62
2
  6
CONTINUOUS
 10
20.9255046904
 20
20.5871995295
  7
STANDARD
 40
0.15625
  1
DÉCOUPER LE LONG DE CETTE LIGNE
 41
0.8
 72
2
 11
24.8005046904
 21
20.5871995295
  0
TEXT
  8
___NOTE
 62
2
  6
CONTINUOUS
 10
20.8005046904
 20
20.3528245295
  7
STANDARD
 40
0.15625
  1
PARA INSTALACIÓN BAJO CUBIERTA, 
 41
0.8
 72
2
 11
24.8005046904
 21
20.3528245295
  0
TEXT
  8
___NOTE
 62
2
  6
CONTINUOUS
 10
22.3005046904
 20
20.1184495295
  7
STANDARD
 40
0.15625
  1
CORTE POR ESTA LÍNEA
 41
0.8
 72
2
 11
24.8005046904
 21
20.1184495295
  0
LINE
  8
___NOTE
 62
2
  6
CONTINUOUS
 10
28.6457360661
 20
20.8469683451
 11
25.0505046904
 21
21.3684495295
  0
LINE
  8
___NOTE
 62
2
  6
CONTINUOUS
 10
25.0505046904
 20
21.3684495295
 11
24.8005046904
 21
21.3684495295
  0
SOLID
  8
___NOTE
 62
2
  6
CONTINUOUS
 10
28.4556920706
 20
20.8429568278
 11
28.6457360661
 21
20.8469683451
 12
28.4646636864
 22
20.904809557
 13
28.4646636864
 23
20.904809557
  0
INSERT
  8
___SYMBOL
 62
2
  6
CONTINUOUS
  2
SYMBOL_40_BL0
 10
18.824368429
 20
22.85592873
  0
INSERT
  8
___SYMBOL
 62
2
  6
CONTINUOUS
  2
SYMBOL_3_BL1
 10
27.6624134383
 20
10.8626481817
  0
INSERT
  8
___SYMBOL
 62
2
  6
CONTINUOUS
  2
SYMBOL_9_BL2
 10
17.6440800734
 20
12.5881662053
  0
INSERT
  8
___SYMBOL
 62
2
  6
CONTINUOUS
  2
SYMBOL_10_BL3
 10
17.6184145304
 20
10.8592434297
  0
INSERT
  8
___SYMBOL
 62
2
  6
CONTINUOUS
  2
SYMBOL_12_BL4
 10
20.1539100892
 20
15.2355522018
  0
INSERT
  8
___SYMBOL
 62
2
  6
CONTINUOUS
  2
SYMBOL_37_BL5
 10
28.6416626705
 20
19.9748826575
  0
LINE
  8
_CURVE
 62
8
  6
PHANTOM
 10
14.5207360661
 20
26.084856395
 11
14.5207360661
 21
11.584856395
  0
LINE
  8
_CURVE
 62
8
  6
PHANTOM
 10
14.7707360661
 20
11.334856395
 11
29.2707360661
 21
11.334856395
  0
LINE
  8
_CURVE
 62
7
  6
CONTINUOUS
 10
15.3957360661
 20
12.709856395
 11
15.3957360661
 21
24.959856395
  0
LINE
  8
_CURVE
 62
7
  6
CONTINUOUS
 10
28.1457360661
 20
12.209856395
 11
15.8957360661
 21
12.209856395
  0
LINE
  8
_CURVE
 62
8
  6
CENTER
 10
22.0207360661
 20
28.334856395
 11
22.0207360661
 21
24.334856395
  0
LINE
  8
_CURVE
 62
8
  6
CENTER
 10
22.0207360661
 20
9.334856395
 11
22.0207360661
 21
13.334856395
  0
LINE
  8
_CURVE
 62
8
  6
CENTER
 10
31.5207360661
 20
18.834856395
 11
27.5207360661
 21
18.834856395
  0
LINE
  8
_CURVE
 62
8
  6
CENTER
 10
12.5207360661
 20
18.834856395
 11
16.5207360661
 21
18.834856395
  0
LINE
  8
_CURVE
 62
7
  6
CONTINUOUS
 10
28.6457360661
 20
24.959856395
 11
28.6457360661
 21
12.709856395
  0
LINE
  8
_CURVE
 62
7
  6
CONTINUOUS
 10
15.8957360661
 20
25.459856395
 11
28.1457360661
 21
25.459856395
  0
LINE
  8
_CURVE
 62
8
  6
PHANTOM
 10
29.5207360661
 20
11.584856395
 11
29.5207360661
 21
26.084856395
  0
LINE
  8
_CURVE
 62
8
  6
PHANTOM
 10
29.2707360661
 20
26.334856395
 11
14.7707360661
 21
26.334856395
  0
ARC
  8
_CURVE
 62
7
  6
CONTINUOUS
 10
15.8957360661
 20
24.959856395
 40
0.5
 50
90.0
 51
180.0
  0
ARC
  8
_CURVE
 62
7
  6
CONTINUOUS
 10
15.8957360661
 20
12.709856395
 40
0.5
 50
180.0
 51
270.0
  0
ARC
  8
_CURVE
 62
7
  6
CONTINUOUS
 10
28.1457360661
 20
12.709856395
 40
0.5
 50
270.0
 51
360.0
  0
ARC
  8
_CURVE
 62
7
  6
CONTINUOUS
 10
28.1457360661
 20
24.959856395
 40
0.5
 50
0.0
 51
90.0
  0
ARC
  8
_CURVE
 62
8
  6
PHANTOM
 10
29.2707360661
 20
26.084856395
 40
0.25
 50
0.0
 51
90.0
  0
ARC
  8
_CURVE
 62
8
  6
PHANTOM
 10
14.7707360661
 20
26.084856395
 40
0.25
 50
90.0
 51
180.0
  0
ARC
  8
_CURVE
 62
8
  6
PHANTOM
 10
14.7707360661
 20
11.584856395
 40
0.25
 50
180.0
 51
270.0
  0
ARC
  8
_CURVE
 62
8
  6
PHANTOM
 10
29.2707360661
 20
11.584856395
 40
0.25
 50
270.0
 51
360.0
  0
ENDSEC
  0
EOF
