999
DXF file: 114332-7.dxf
999
Pro/ENGINEER 2001490 by Parametric Technology Corporation
0
SECTION
2
HEADER
9
$ACADVER
1
AC1014
9
$EXTMAX
10
25.0000000000
20
22.0000000000
9
$EXTMIN
10
0.0000000000
20
0.0000000000
9
$LIMMIN
10
0.0000000000
20
0.0000000000
9
$LIMMAX
10
25.0000000000
20
22.0000000000
9
$VIEWCTR
10
12.5000000000
20
11.0000000000
9
$VIEWSIZE
40
22.0000000000
9
$CLAYER
8
0
9
$LTSCALE
40
1.4340740741
9
$CELTYPE
6
BYLAYER
9
$DIMSCALE
40
1
9
$DIMASZ
40
0.1875000000
9
$DIMEXO
40
0.1629629630
9
$DIMDLI
40
0.9908148148
9
$DIMEXE
40
0.4693333333
9
$DIMCEN
40
0.2346666667
9
$DIMLFAC
40
1.0000000000
9
$DIMTXT
40
0.1562500000
9
$DIMTOL
70
1
9
$DIMLIM
70
0
9
$DIMTFAC
40
1.0000000000
9
$DIMTP
40
0.0100000000
9
$DIMTM
40
0.0100000000
9
$HANDSEED
5
37C
0
ENDSEC
0
SECTION
2
CLASSES
0
ENDSEC
0
SECTION
2
TABLES
0
TABLE
2
VPORT
5
8
100
AcDbSymbolTable
70
2
0
VPORT
5
1F4
100
AcDbSymbolTableRecord
100
AcDbViewportTableRecord
2
*ACTIVE
70
0
10
0.0
20
0.0
11
1.0
21
1.0
12
12.5000000000
22
11.0000000000
13
0.0
23
0.0
14
1.0
24
1.0
15
0.0
25
0.0
16
0.0
26
0.0
36
1.0
17
0.0
27
0.0
37
0.0
40
22.0000000000
41
1.1363636364
42
50.0
43
0.0
44
0.0
50
0.0
51
0.0
71
0
72
100
73
1
74
1
75
0
76
0
77
0
78
0
0
ENDTAB
0
TABLE
2
LTYPE
5
5
100
AcDbSymbolTable
70
6
0
LTYPE
5
14
100
AcDbSymbolTableRecord
100
AcDbLinetypeTableRecord
2
BYBLOCK
70
0
3

72
65
73
0
40
0.0
0
LTYPE
5
15
100
AcDbSymbolTableRecord
100
AcDbLinetypeTableRecord
2
BYLAYER
70
0
3

72
65
73
0
40
0.0
0
LTYPE
5
16
100
AcDbSymbolTableRecord
100
AcDbLinetypeTableRecord
2
CONTINUOUS
70
64
3
Solid line
72
65
73
0
40
0
0
LTYPE
5
1F5
100
AcDbSymbolTableRecord
100
AcDbLinetypeTableRecord
2
CENTER
70
64
3
____ _ ____ _ ____ _ ____ _ ____ _ ____ _ ____
72
65
73
4
40
0.6
49
0.375
74
0
49
-0.075
74
0
49
0.075
74
0
49
-0.075
74
0
0
LTYPE
5
1F6
100
AcDbSymbolTableRecord
100
AcDbLinetypeTableRecord
2
HIDDEN
70
64
3
- - - - - - - - - - - - - - - - - - - -
72
65
73
2
40
0.2
49
0.1
74
0
49
-0.1
74
0
0
LTYPE
5
1F7
100
AcDbSymbolTableRecord
100
AcDbLinetypeTableRecord
2
PHANTOM
70
64
3
_____ _ _ _____ _ _ _____ _ _ _____
72
65
73
6
40
0.8
49
0.45
74
0
49
-0.05
74
0
49
0.1
74
0
49
-0.05
74
0
49
0.1
74
0
49
-0.05
74
0
0
LTYPE
5
1F8
100
AcDbSymbolTableRecord
100
AcDbLinetypeTableRecord
2
DOT
70
64
3
. . . . . . . . . . . . . . . . . . . .
72
65
73
2
40
0.2
49
0.1
74
0
49
-0.1
74
0
0
LTYPE
5
1F9
100
AcDbSymbolTableRecord
100
AcDbLinetypeTableRecord
2
DASHED
70
64
3
- - - - - - - - - - - - - - - - - - - -
72
65
73
2
40
0.2
49
0.1
74
0
49
-0.1
74
0
0
ENDTAB
0
TABLE
2
LAYER
5
2
100
AcDbSymbolTable
70
36
0
LAYER
5
10
100
AcDbSymbolTableRecord
100
AcDbLayerTableRecord
2
0
70
0
62
7
6
CONTINUOUS
0
LAYER
5
1FA
100
AcDbSymbolTableRecord
100
AcDbLayerTableRecord
2
DEFAULT_1
70
0
62
7
6
CENTER
0
LAYER
5
1FB
100
AcDbSymbolTableRecord
100
AcDbLayerTableRecord
2
DEFAULT_2
70
0
62
8
6
HIDDEN
0
LAYER
5
1FC
100
AcDbSymbolTableRecord
100
AcDbLayerTableRecord
2
DEFAULT_3
70
0
62
7
6
PHANTOM
0
LAYER
5
1FD
100
AcDbSymbolTableRecord
100
AcDbLayerTableRecord
2
0
70
0
62
7
6
CONTINUOUS
0
LAYER
5
1FE
100
AcDbSymbolTableRecord
100
AcDbLayerTableRecord
2
DEFPOINTS
70
0
62
7
6
CONTINUOUS
0
LAYER
5
1FF
100
AcDbSymbolTableRecord
100
AcDbLayerTableRecord
2
PSPTBK
70
0
62
7
6
CONTINUOUS
0
LAYER
5
200
100
AcDbSymbolTableRecord
100
AcDbLayerTableRecord
2
___NOTE
70
0
62
7
6
CONTINUOUS
0
LAYER
5
201
100
AcDbSymbolTableRecord
100
AcDbLayerTableRecord
2
___SYMBOL
70
0
62
7
6
CONTINUOUS
0
ENDTAB
0
TABLE
2
STYLE
5
3
100
AcDbSymbolTable
70
1
0
STYLE
5
11
100
AcDbSymbolTableRecord
100
AcDbTextStyleTableRecord
2
STANDARD
70
0
40
0.0
41
0.8000000000
50
0.0
71
0
42
0.0
3
txt
4

0
STYLE
5
202
100
AcDbSymbolTableRecord
100
AcDbTextStyleTableRecord
2
TEXTSTYLE_0
70
0
40
0.0
41
0.80
50
0.0
71
0
42
0.2
3
txt
4

0
ENDTAB
0
TABLE
2
VIEW
5
6
100
AcDbSymbolTable
70
0
0
ENDTAB
0
TABLE
2
UCS
5
7
100
AcDbSymbolTable
70
0
0
ENDTAB
0
TABLE
2
APPID
5
9
100
AcDbSymbolTable
70
1
0
APPID
5
203
100
AcDbSymbolTableRecord
100
AcDbRegAppTableRecord
2
ACAD
70
0
0
ENDTAB
0
TABLE
2
DIMSTYLE
5
A
100
AcDbSymbolTable
70
1
0
DIMSTYLE
105
204
100
AcDbSymbolTableRecord
100
AcDbDimStyleTableRecord
2
STANDARD
70
0
3

4

5

6

7

40
1.0
41
0.1875000000
42
0.0625
43
0.38
44
0.18
45
0.0
46
0.0
47
0.0100000000
48
0.0100000000
140
0.1562500000
141
0.09
142
0.0
143
25.4
144
1.0000000000
145
0.0
146
1.0000000000
147
0.09
71
1
72
0
73
1
74
1
75
0
76
0
77
0
78
0
170
0
171
2
172
0
173
0
174
0
175
0
176
0
177
0
178
0
270
2
271
3
272
3
273
2
274
2
340
11
275
0
280
0
281
0
282
0
283
1
284
0
285
0
286
0
287
3
288
0
0
DIMSTYLE
105
205
100
AcDbSymbolTableRecord
100
AcDbDimStyleTableRecord
2
DIMSTYLE_1
70
0
3

4

5

6

7

40
1.0
41
0.1875000000
42
0.0625
43
0.38
44
0.18
45
0.0
46
0.0
47
0.0312500000
48
0.0312500000
140
0.1562500000
141
0.09
142
0.0
143
25.4
144
1.0000000000
145
0.0
146
1.0000000000
147
0.09
71
0
72
0
73
1
74
1
75
0
76
0
77
0
78
0
170
0
171
2
172
0
173
0
174
0
175
0
176
0
177
0
178
0
270
2
271
5
272
5
273
2
274
2
340
11
275
0
280
0
281
0
282
0
283
1
284
0
285
0
286
0
287
3
288
0
0
ENDTAB
0
TABLE
2
BLOCK_RECORD
5
1
100
AcDbSymbolTable
70
0
0
BLOCK_RECORD
5
1B
100
AcDbSymbolTableRecord
100
AcDbBlockTableRecord
2
*MODEL_SPACE
0
BLOCK_RECORD
5
1C
100
AcDbSymbolTableRecord
100
AcDbBlockTableRecord
2
*PAPER_SPACE
0
BLOCK_RECORD
5
206
100
AcDbSymbolTableRecord
100
AcDbBlockTableRecord
2
*D0
0
BLOCK_RECORD
5
207
100
AcDbSymbolTableRecord
100
AcDbBlockTableRecord
2
*D1
0
ENDTAB
0
ENDSEC
0
SECTION
2
BLOCKS
0
BLOCK
5
1E
100
AcDbEntity
8
0
100
AcDbBlockBegin
2
*MODEL_SPACE
70
0
10
0.0
20
0.0
30
0.0
3
*MODEL_SPACE
1

0
ENDBLK
5
1F
100
AcDbEntity
8
0
100
AcDbBlockEnd
0
BLOCK
5
20
100
AcDbEntity
8
0
100
AcDbBlockBegin
2
*PAPER_SPACE
70
0
10
0.0
20
0.0
30
0.0
3
*PAPER_SPACE
1

0
ENDBLK
5
21
100
AcDbEntity
8
0
100
AcDbBlockEnd
0
BLOCK
5
208
100
AcDbEntity
8
0
100
AcDbBlockBegin
62
2
6
CONTINUOUS
2
*D0
70
65
10
0.0000000000
20
0.0000000000
3
*D0
1

0
TEXT
5
209
100
AcDbEntity
8
0
100
AcDbText
62
2
6
CONTINUOUS
10
8.3177912089
20
10.7271442286
7
TEXTSTYLE_0
40
0.1562500000
1
[40 cm]
72
5
11
9.1927912089
21
10.7271442286
100
AcDbText
0
TEXT
5
20A
100
AcDbEntity
8
0
100
AcDbText
62
2
6
CONTINUOUS
10
8.3802912089
20
10.9615192286
7
TEXTSTYLE_0
40
0.1562500000
1
15-3/4
72
5
11
9.1302912089
21
10.9615192286
100
AcDbText
0
LINE
5
20B
100
AcDbEntity
8
0
100
AcDbLine
62
2
6
CONTINUOUS
10
3.3736150000
20
11.0122632325
11
3.3736150000
21
11.1646442286
0
LINE
5
20C
100
AcDbEntity
8
0
100
AcDbLine
62
2
6
CONTINUOUS
10
19.1236150000
20
10.9027392482
11
19.1236150000
21
11.1646442286
0
LINE
5
20D
100
AcDbEntity
8
0
100
AcDbLine
62
2
6
CONTINUOUS
10
3.3736150000
20
11.0396442286
11
8.2396662089
21
11.0396442286
0
LINE
5
20E
100
AcDbEntity
8
0
100
AcDbLine
62
2
6
CONTINUOUS
10
19.1236150000
20
11.0396442286
11
9.2709162089
21
11.0396442286
0
SOLID
5
20F
100
AcDbEntity
8
0
100
AcDbTrace
62
2
6
CONTINUOUS
10
3.5611150000
20
11.0708942286
11
3.3736150000
21
11.0396442286
12
3.5611150000
22
11.0083942286
13
3.5611150000
23
11.0083942286
0
SOLID
5
210
100
AcDbEntity
8
0
100
AcDbTrace
62
2
6
CONTINUOUS
10
18.9361150000
20
11.0083942286
11
19.1236150000
21
11.0396442286
12
18.9361150000
22
11.0708942286
13
18.9361150000
23
11.0708942286
0
ENDBLK
5
211
100
AcDbEntity
8
0
100
AcDbBlockEnd
0
BLOCK
5
212
100
AcDbEntity
8
0
100
AcDbBlockBegin
62
2
6
CONTINUOUS
2
*D1
70
65
10
0.0000000000
20
0.0000000000
3
*D1
1

0
TEXT
5
213
100
AcDbEntity
8
0
100
AcDbText
62
2
6
CONTINUOUS
10
10.6844618510
20
12.0094127609
7
TEXTSTYLE_0
40
0.1562500000
1
[44,5 cm]
72
5
11
11.8094618510
21
12.0094127609
100
AcDbText
0
TEXT
5
214
100
AcDbEntity
8
0
100
AcDbText
62
2
6
CONTINUOUS
10
10.8719618510
20
12.2437877609
7
TEXTSTYLE_0
40
0.1562500000
1
17-1/2
72
5
11
11.6219618510
21
12.2437877609
100
AcDbText
0
LINE
5
215
100
AcDbEntity
8
0
100
AcDbLine
62
2
6
CONTINUOUS
10
11.1648188628
20
19.7900000000
11
11.3719618510
21
19.7900000000
0
LINE
5
216
100
AcDbEntity
8
0
100
AcDbLine
62
2
6
CONTINUOUS
10
11.1374378667
20
2.2900000000
11
11.3719618510
21
2.2900000000
0
LINE
5
217
100
AcDbEntity
8
0
100
AcDbLine
62
2
6
CONTINUOUS
10
11.2469618510
20
19.7900000000
11
11.2469618510
21
12.4781627609
0
LINE
5
218
100
AcDbEntity
8
0
100
AcDbLine
62
2
6
CONTINUOUS
10
11.2469618510
20
2.2900000000
11
11.2469618510
21
11.9312877609
0
SOLID
5
219
100
AcDbEntity
8
0
100
AcDbTrace
62
2
6
CONTINUOUS
10
11.2782118510
20
19.6025000000
11
11.2469618510
21
19.7900000000
12
11.2157118510
22
19.6025000000
13
11.2157118510
23
19.6025000000
0
SOLID
5
21A
100
AcDbEntity
8
0
100
AcDbTrace
62
2
6
CONTINUOUS
10
11.2157118510
20
2.4775000000
11
11.2469618510
21
2.2900000000
12
11.2782118510
22
2.4775000000
13
11.2782118510
23
2.4775000000
0
ENDBLK
5
21B
100
AcDbEntity
8
0
100
AcDbBlockEnd
0
ENDSEC
0
SECTION
2
ENTITIES
0
SOLID
5
21C
100
AcDbEntity
8
0
100
AcDbTrace
62
2
6
CONTINUOUS
10
5.5010147779
20
8.0781306023
11
5.5010147779
21
8.1603306003
12
6.6419547779
22
8.1603306003
13
6.6419547779
23
8.1603306003
0
SOLID
5
21D
100
AcDbEntity
8
0
100
AcDbTrace
62
2
6
CONTINUOUS
10
6.6419547779
20
8.1603306003
11
6.6419547779
21
8.0781306023
12
5.5010147779
22
8.0781306023
13
5.5010147779
23
8.0781306023
0
SOLID
5
21E
100
AcDbEntity
8
0
100
AcDbTrace
62
2
6
CONTINUOUS
10
5.4388147779
20
7.8559505983
11
5.4388147779
21
8.0181305983
12
6.5797547779
22
8.0181305983
13
6.5797547779
23
8.0181305983
0
SOLID
5
21F
100
AcDbEntity
8
0
100
AcDbTrace
62
2
6
CONTINUOUS
10
6.5797547779
20
8.0181305983
11
6.5797547779
21
7.8559505983
12
5.4388147779
22
7.8559505983
13
5.4388147779
23
7.8559505983
0
SOLID
5
220
100
AcDbEntity
8
0
100
AcDbTrace
62
2
6
CONTINUOUS
10
5.5010147779
20
8.6469106183
11
5.5010147779
21
8.7291106163
12
6.6419547779
22
8.7291106163
13
6.6419547779
23
8.7291106163
0
SOLID
5
221
100
AcDbEntity
8
0
100
AcDbTrace
62
2
6
CONTINUOUS
10
6.6419547779
20
8.7291106163
11
6.6419547779
21
8.6469106183
12
5.5010147779
22
8.6469106183
13
5.5010147779
23
8.6469106183
0
SOLID
5
222
100
AcDbEntity
8
0
100
AcDbTrace
62
2
6
CONTINUOUS
10
5.5010147779
20
8.5136005963
11
5.5010147779
21
8.5958006283
12
6.6419547779
22
8.5958006283
13
6.6419547779
23
8.5958006283
0
SOLID
5
223
100
AcDbEntity
8
0
100
AcDbTrace
62
2
6
CONTINUOUS
10
6.6419547779
20
8.5958006283
11
6.6419547779
21
8.5136005963
12
5.5010147779
22
8.5136005963
13
5.5010147779
23
8.5136005963
0
SOLID
5
224
100
AcDbEntity
8
0
100
AcDbTrace
62
2
6
CONTINUOUS
10
5.5010147779
20
8.3803006043
11
5.5010147779
21
8.4624906063
12
6.6419547779
22
8.4624906063
13
6.6419547779
23
8.4624906063
0
SOLID
5
225
100
AcDbEntity
8
0
100
AcDbTrace
62
2
6
CONTINUOUS
10
6.6419547779
20
8.4624906063
11
6.6419547779
21
8.3803006043
12
5.5010147779
22
8.3803006043
13
5.5010147779
23
8.3803006043
0
SOLID
5
226
100
AcDbEntity
8
0
100
AcDbTrace
62
2
6
CONTINUOUS
10
5.5010147779
20
8.2469906163
11
5.5010147779
21
8.3291806183
12
6.6419547779
22
8.3291806183
13
6.6419547779
23
8.3291806183
0
SOLID
5
227
100
AcDbEntity
8
0
100
AcDbTrace
62
2
6
CONTINUOUS
10
6.6419547779
20
8.3291806183
11
6.6419547779
21
8.2469906163
12
5.5010147779
22
8.2469906163
13
5.5010147779
23
8.2469906163
0
SOLID
5
228
100
AcDbEntity
8
0
100
AcDbTrace
62
2
6
CONTINUOUS
10
5.4388147779
20
7.4738006283
11
5.4388147779
21
7.5204406043
12
6.5797547779
22
7.5204406043
13
6.5797547779
23
7.5204406043
0
SOLID
5
229
100
AcDbEntity
8
0
100
AcDbTrace
62
2
6
CONTINUOUS
10
6.5797547779
20
7.5204406043
11
6.5797547779
21
7.4738006283
12
5.4388147779
22
7.4738006283
13
5.4388147779
23
7.4738006283
0
SOLID
5
22A
100
AcDbEntity
8
0
100
AcDbTrace
62
2
6
CONTINUOUS
10
7.5564247779
20
7.8559505983
11
7.5564247779
21
8.0181305983
12
8.0136947779
22
8.0181305983
13
8.0136947779
23
8.0181305983
0
SOLID
5
22B
100
AcDbEntity
8
0
100
AcDbTrace
62
2
6
CONTINUOUS
10
8.0136947779
20
8.0181305983
11
8.0136947779
21
7.8559505983
12
7.5564247779
22
7.8559505983
13
7.5564247779
23
7.8559505983
0
SOLID
5
22C
100
AcDbEntity
8
0
100
AcDbTrace
62
2
6
CONTINUOUS
10
4.8752358366
20
17.8492346606
11
5.0130000033
21
18.0130558503
12
5.2050618154
22
18.0130558503
13
5.2050618154
23
18.0130558503
0
SOLID
5
22D
100
AcDbEntity
8
0
100
AcDbTrace
62
2
6
CONTINUOUS
10
5.2050618154
20
18.0130558503
11
4.9917583635
21
17.7594075773
12
4.8752358366
22
17.8492346606
13
4.8752358366
23
17.8492346606
0
SOLID
5
22E
100
AcDbEntity
8
0
100
AcDbTrace
62
2
6
CONTINUOUS
10
4.8752358366
20
17.6286420349
11
4.9917583635
21
17.7594075773
12
5.0289737767
22
17.4271422009
13
5.0289737767
23
17.4271422009
0
SOLID
5
22F
100
AcDbEntity
8
0
100
AcDbTrace
62
2
6
CONTINUOUS
10
4.9917583635
20
17.7594075773
11
5.2452661982
21
17.4271422009
12
5.0289737767
22
17.4271422009
13
5.0289737767
23
17.4271422009
0
SOLID
5
230
100
AcDbEntity
8
0
100
AcDbTrace
62
2
6
CONTINUOUS
10
4.8752358366
20
17.4271422009
11
4.7007356096
21
17.4271181974
12
4.8752358366
22
17.6286420349
13
4.8752358366
23
17.6286420349
0
SOLID
5
231
100
AcDbEntity
8
0
100
AcDbTrace
62
2
6
CONTINUOUS
10
4.9917583635
20
17.7594075773
11
4.8752358366
21
17.6286420349
12
4.8752358366
22
17.8492346606
13
4.8752358366
23
17.8492346606
0
SOLID
5
232
100
AcDbEntity
8
0
100
AcDbTrace
62
2
6
CONTINUOUS
10
4.8752358366
20
17.6286420349
11
4.7007356096
21
17.4271181974
12
4.8752358366
22
17.8492346606
13
4.8752358366
23
17.8492346606
0
SOLID
5
233
100
AcDbEntity
8
0
100
AcDbTrace
62
2
6
CONTINUOUS
10
4.8752358366
20
17.8492346606
11
4.7007356096
21
17.4271181974
12
4.8752358366
22
18.0130558503
13
4.8752358366
23
18.0130558503
0
SOLID
5
234
100
AcDbEntity
8
0
100
AcDbTrace
62
2
6
CONTINUOUS
10
4.7007356096
20
17.4271181974
11
4.7007356096
21
18.0130558503
12
4.8752358366
22
18.0130558503
13
4.8752358366
23
18.0130558503
0
SOLID
5
235
100
AcDbEntity
8
0
100
AcDbTrace
62
2
6
CONTINUOUS
10
5.3296704830
20
18.0024464368
11
5.3906196374
21
18.0154015795
12
5.4529304323
22
18.0154015795
13
5.4529304323
23
18.0154015795
0
SOLID
5
236
100
AcDbEntity
8
0
100
AcDbTrace
62
2
6
CONTINUOUS
10
5.4529304323
20
18.0154015795
11
5.5138795868
21
18.0024464368
12
5.3296704830
22
18.0024464368
13
5.3296704830
23
18.0024464368
0
SOLID
5
237
100
AcDbEntity
8
0
100
AcDbTrace
62
2
6
CONTINUOUS
10
5.2727467394
20
17.9771023533
11
5.3296704830
21
18.0024464368
12
5.5138795868
22
18.0024464368
13
5.5138795868
23
18.0024464368
0
SOLID
5
238
100
AcDbEntity
8
0
100
AcDbTrace
62
2
6
CONTINUOUS
10
5.5138795868
20
18.0024464368
11
5.5708033304
21
17.9771023533
12
5.2727467394
22
17.9771023533
13
5.2727467394
23
17.9771023533
0
SOLID
5
239
100
AcDbEntity
8
0
100
AcDbTrace
62
2
6
CONTINUOUS
10
5.2223362474
20
17.9404769870
11
5.2727467394
21
17.9771023533
12
5.5708033304
22
17.9771023533
13
5.5708033304
23
17.9771023533
0
SOLID
5
23A
100
AcDbEntity
8
0
100
AcDbTrace
62
2
6
CONTINUOUS
10
5.5708033304
20
17.9771023533
11
5.6212138223
21
17.9404769870
12
5.2223362474
22
17.9404769870
13
5.2223362474
23
17.9404769870
0
SOLID
5
23B
100
AcDbEntity
8
0
100
AcDbTrace
62
2
6
CONTINUOUS
10
5.1806421875
20
17.8941710423
11
5.2223362474
21
17.9404769870
12
5.6212138223
22
17.9404769870
13
5.6212138223
23
17.9404769870
0
SOLID
5
23C
100
AcDbEntity
8
0
100
AcDbTrace
62
2
6
CONTINUOUS
10
5.6212138223
20
17.9404769870
11
5.6629078823
21
17.8941710423
12
5.1806421875
22
17.8941710423
13
5.1806421875
23
17.8941710423
0
SOLID
5
23D
100
AcDbEntity
8
0
100
AcDbTrace
62
2
6
CONTINUOUS
10
5.4217750349
20
17.8437471888
11
5.1494867900
21
17.8402083110
12
5.6629078823
22
17.8941710423
13
5.6629078823
23
17.8941710423
0
SOLID
5
23E
100
AcDbEntity
8
0
100
AcDbTrace
62
2
6
CONTINUOUS
10
5.1494867900
20
17.8402083110
11
5.1806421875
21
17.8941710423
12
5.6629078823
22
17.8941710423
13
5.6629078823
23
17.8941710423
0
SOLID
5
23F
100
AcDbEntity
8
0
100
AcDbTrace
62
2
6
CONTINUOUS
10
5.6629078823
20
17.8941710423
11
5.6940632797
21
17.8402083110
12
5.4217750349
22
17.8437471888
13
5.4217750349
23
17.8437471888
0
SOLID
5
240
100
AcDbEntity
8
0
100
AcDbTrace
62
2
6
CONTINUOUS
10
5.4217750349
20
17.8437471888
11
5.3832191652
21
17.8376405390
12
5.1494867900
22
17.8402083110
13
5.1494867900
23
17.8402083110
0
SOLID
5
241
100
AcDbEntity
8
0
100
AcDbTrace
62
2
6
CONTINUOUS
10
5.4603309045
20
17.8376405390
11
5.4217750349
21
17.8437471888
12
5.6940632797
22
17.8402083110
13
5.6940632797
23
17.8402083110
0
SOLID
5
242
100
AcDbEntity
8
0
100
AcDbTrace
62
2
6
CONTINUOUS
10
5.3208344577
20
17.7923153958
11
5.1302316955
21
17.7809472235
12
5.3484374127
22
17.8199183509
13
5.3484374127
23
17.8199183509
0
SOLID
5
243
100
AcDbEntity
8
0
100
AcDbTrace
62
2
6
CONTINUOUS
10
5.3484374127
20
17.8199183509
11
5.1302316955
21
17.7809472235
12
5.3832191652
22
17.8376405390
13
5.3832191652
23
17.8376405390
0
SOLID
5
244
100
AcDbEntity
8
0
100
AcDbTrace
62
2
6
CONTINUOUS
10
5.1302316955
20
17.7809472235
11
5.1494867900
21
17.8402083110
12
5.3832191652
22
17.8376405390
13
5.3832191652
23
17.8376405390
0
SOLID
5
245
100
AcDbEntity
8
0
100
AcDbTrace
62
2
6
CONTINUOUS
10
5.4603309045
20
17.8376405390
11
5.6940632797
21
17.8402083110
12
5.4951126570
22
17.8199183509
13
5.4951126570
23
17.8199183509
0
SOLID
5
246
100
AcDbEntity
8
0
100
AcDbTrace
62
2
6
CONTINUOUS
10
5.4951126570
20
17.8199183509
11
5.6940632797
21
17.8402083110
12
5.5227156120
22
17.7923153958
13
5.5227156120
23
17.7923153958
0
SOLID
5
247
100
AcDbEntity
8
0
100
AcDbTrace
62
2
6
CONTINUOUS
10
5.6940632797
20
17.8402083110
11
5.7133183742
21
17.7809472235
12
5.5227156120
22
17.7923153958
13
5.5227156120
23
17.7923153958
0
SOLID
5
248
100
AcDbEntity
8
0
100
AcDbTrace
62
2
6
CONTINUOUS
10
5.3208344577
20
17.7923153958
11
5.3031122696
21
17.7575336434
12
5.1302316955
22
17.7809472235
13
5.1302316955
23
17.7809472235
0
SOLID
5
249
100
AcDbEntity
8
0
100
AcDbTrace
62
2
6
CONTINUOUS
10
5.5404378001
20
17.7575336434
11
5.5227156120
21
17.7923153958
12
5.7133183742
22
17.7809472235
13
5.7133183742
23
17.7809472235
0
SOLID
5
24A
100
AcDbEntity
8
0
100
AcDbTrace
62
2
6
CONTINUOUS
10
5.1237184439
20
17.7189777737
11
5.1302316955
21
17.7809472235
12
5.3031122696
22
17.7575336434
13
5.3031122696
23
17.7575336434
0
SOLID
5
24B
100
AcDbEntity
8
0
100
AcDbTrace
62
2
6
CONTINUOUS
10
5.3031122696
20
17.7575336434
11
5.2970056198
21
17.7189777737
12
5.1237184439
22
17.7189777737
13
5.1237184439
23
17.7189777737
0
SOLID
5
24C
100
AcDbEntity
8
0
100
AcDbTrace
62
2
6
CONTINUOUS
10
5.5404378001
20
17.7575336434
11
5.7133183742
21
17.7809472235
12
5.5465444499
22
17.7189777737
13
5.5465444499
23
17.7189777737
0
SOLID
5
24D
100
AcDbEntity
8
0
100
AcDbTrace
62
2
6
CONTINUOUS
10
5.7133183742
20
17.7809472235
11
5.7198316258
21
17.7189777737
12
5.5465444499
22
17.7189777737
13
5.5465444499
23
17.7189777737
0
SOLID
5
24E
100
AcDbEntity
8
0
100
AcDbTrace
62
2
6
CONTINUOUS
10
5.5404378001
20
17.6804219041
11
5.5465444499
21
17.7189777737
12
5.7198316258
22
17.7189777737
13
5.7198316258
23
17.7189777737
0
SOLID
5
24F
100
AcDbEntity
8
0
100
AcDbTrace
62
2
6
CONTINUOUS
10
5.3031122696
20
17.6804219041
11
5.1302316955
21
17.6570083239
12
5.2970056198
22
17.7189777737
13
5.2970056198
23
17.7189777737
0
SOLID
5
250
100
AcDbEntity
8
0
100
AcDbTrace
62
2
6
CONTINUOUS
10
5.1302316955
20
17.6570083239
11
5.1237184439
21
17.7189777737
12
5.2970056198
22
17.7189777737
13
5.2970056198
23
17.7189777737
0
SOLID
5
251
100
AcDbEntity
8
0
100
AcDbTrace
62
2
6
CONTINUOUS
10
5.7198316258
20
17.7189777737
11
5.7133183742
21
17.6570083239
12
5.5404378001
22
17.6804219041
13
5.5404378001
23
17.6804219041
0
SOLID
5
252
100
AcDbEntity
8
0
100
AcDbTrace
62
2
6
CONTINUOUS
10
5.3031122696
20
17.6804219041
11
5.3208344577
21
17.6456401516
12
5.1302316955
22
17.6570083239
13
5.1302316955
23
17.6570083239
0
SOLID
5
253
100
AcDbEntity
8
0
100
AcDbTrace
62
2
6
CONTINUOUS
10
5.5227156120
20
17.6456401516
11
5.5404378001
21
17.6804219041
12
5.7133183742
22
17.6570083239
13
5.7133183742
23
17.6570083239
0
SOLID
5
254
100
AcDbEntity
8
0
100
AcDbTrace
62
2
6
CONTINUOUS
10
5.3832191652
20
17.6003150085
11
5.1494867900
21
17.5977472365
12
5.3484374127
22
17.6180371966
13
5.3484374127
23
17.6180371966
0
SOLID
5
255
100
AcDbEntity
8
0
100
AcDbTrace
62
2
6
CONTINUOUS
10
5.3484374127
20
17.6180371966
11
5.1494867900
21
17.5977472365
12
5.3208344577
22
17.6456401516
13
5.3208344577
23
17.6456401516
0
SOLID
5
256
100
AcDbEntity
8
0
100
AcDbTrace
62
2
6
CONTINUOUS
10
5.1494867900
20
17.5977472365
11
5.1302316955
21
17.6570083239
12
5.3208344577
22
17.6456401516
13
5.3208344577
23
17.6456401516
0
SOLID
5
257
100
AcDbEntity
8
0
100
AcDbTrace
62
2
6
CONTINUOUS
10
5.5227156120
20
17.6456401516
11
5.7133183742
21
17.6570083239
12
5.4951126570
22
17.6180371966
13
5.4951126570
23
17.6180371966
0
SOLID
5
258
100
AcDbEntity
8
0
100
AcDbTrace
62
2
6
CONTINUOUS
10
5.4951126570
20
17.6180371966
11
5.7133183742
21
17.6570083239
12
5.4603309045
22
17.6003150085
13
5.4603309045
23
17.6003150085
0
SOLID
5
259
100
AcDbEntity
8
0
100
AcDbTrace
62
2
6
CONTINUOUS
10
5.7133183742
20
17.6570083239
11
5.6940632797
21
17.5977472365
12
5.4603309045
22
17.6003150085
13
5.4603309045
23
17.6003150085
0
SOLID
5
25A
100
AcDbEntity
8
0
100
AcDbTrace
62
2
6
CONTINUOUS
10
5.3832191652
20
17.6003150085
11
5.4217750349
21
17.5942083587
12
5.1494867900
22
17.5977472365
13
5.1494867900
23
17.5977472365
0
SOLID
5
25B
100
AcDbEntity
8
0
100
AcDbTrace
62
2
6
CONTINUOUS
10
5.4217750349
20
17.5942083587
11
5.4603309045
21
17.6003150085
12
5.6940632797
22
17.5977472365
13
5.6940632797
23
17.5977472365
0
SOLID
5
25C
100
AcDbEntity
8
0
100
AcDbTrace
62
2
6
CONTINUOUS
10
5.1806421875
20
17.5437845052
11
5.1494867900
21
17.5977472365
12
5.4217750349
22
17.5942083587
13
5.4217750349
23
17.5942083587
0
SOLID
5
25D
100
AcDbEntity
8
0
100
AcDbTrace
62
2
6
CONTINUOUS
10
5.4217750349
20
17.5942083587
11
5.6940632797
21
17.5977472365
12
5.1806421875
22
17.5437845052
13
5.1806421875
23
17.5437845052
0
SOLID
5
25E
100
AcDbEntity
8
0
100
AcDbTrace
62
2
6
CONTINUOUS
10
5.6940632797
20
17.5977472365
11
5.6629078823
21
17.5437845052
12
5.1806421875
22
17.5437845052
13
5.1806421875
23
17.5437845052
0
SOLID
5
25F
100
AcDbEntity
8
0
100
AcDbTrace
62
2
6
CONTINUOUS
10
5.2223362474
20
17.4974785604
11
5.1806421875
21
17.5437845052
12
5.6629078823
22
17.5437845052
13
5.6629078823
23
17.5437845052
0
SOLID
5
260
100
AcDbEntity
8
0
100
AcDbTrace
62
2
6
CONTINUOUS
10
5.6629078823
20
17.5437845052
11
5.6212138223
21
17.4974785604
12
5.2223362474
22
17.4974785604
13
5.2223362474
23
17.4974785604
0
SOLID
5
261
100
AcDbEntity
8
0
100
AcDbTrace
62
2
6
CONTINUOUS
10
5.2727467394
20
17.4608531942
11
5.2223362474
21
17.4974785604
12
5.6212138223
22
17.4974785604
13
5.6212138223
23
17.4974785604
0
SOLID
5
262
100
AcDbEntity
8
0
100
AcDbTrace
62
2
6
CONTINUOUS
10
5.6212138223
20
17.4974785604
11
5.5708033304
21
17.4608531942
12
5.2727467394
22
17.4608531942
13
5.2727467394
23
17.4608531942
0
SOLID
5
263
100
AcDbEntity
8
0
100
AcDbTrace
62
2
6
CONTINUOUS
10
5.3296704830
20
17.4355091106
11
5.2727467394
21
17.4608531942
12
5.5708033304
22
17.4608531942
13
5.5708033304
23
17.4608531942
0
SOLID
5
264
100
AcDbEntity
8
0
100
AcDbTrace
62
2
6
CONTINUOUS
10
5.5708033304
20
17.4608531942
11
5.5138795868
21
17.4355091106
12
5.3296704830
22
17.4355091106
13
5.3296704830
23
17.4355091106
0
SOLID
5
265
100
AcDbEntity
8
0
100
AcDbTrace
62
2
6
CONTINUOUS
10
5.3906196374
20
17.4225539679
11
5.3296704830
21
17.4355091106
12
5.5138795868
22
17.4355091106
13
5.5138795868
23
17.4355091106
0
SOLID
5
266
100
AcDbEntity
8
0
100
AcDbTrace
62
2
6
CONTINUOUS
10
5.5138795868
20
17.4355091106
11
5.4529304323
21
17.4225539679
12
5.3906196374
22
17.4225539679
13
5.3906196374
23
17.4225539679
0
SOLID
5
267
100
AcDbEntity
8
0
100
AcDbTrace
62
2
6
CONTINUOUS
10
6.0496773642
20
17.7926720906
11
6.0496773642
21
18.0130558503
12
6.2144110441
22
18.0130558503
13
6.2144110441
23
18.0130558503
0
SOLID
5
268
100
AcDbEntity
8
0
100
AcDbTrace
62
2
6
CONTINUOUS
10
6.0496773642
20
17.7926720906
11
5.9016805531
21
17.6554668107
12
5.9016805531
22
17.7926720906
13
5.9016805531
23
17.7926720906
0
SOLID
5
269
100
AcDbEntity
8
0
100
AcDbTrace
62
2
6
CONTINUOUS
10
5.9016805531
20
17.6554668107
11
5.7369468732
21
17.4271422009
12
5.9016805531
22
17.7926720906
13
5.9016805531
23
17.7926720906
0
SOLID
5
26A
100
AcDbEntity
8
0
100
AcDbTrace
62
2
6
CONTINUOUS
10
5.9016805531
20
17.7926720906
11
5.7369468732
21
17.4271422009
12
5.9016805531
22
18.0130558503
13
5.9016805531
23
18.0130558503
0
SOLID
5
26B
100
AcDbEntity
8
0
100
AcDbTrace
62
2
6
CONTINUOUS
10
5.7369468732
20
17.4271422009
11
5.7369468732
21
18.0130558503
12
5.9016805531
22
18.0130558503
13
5.9016805531
23
18.0130558503
0
SOLID
5
26C
100
AcDbEntity
8
0
100
AcDbTrace
62
2
6
CONTINUOUS
10
5.9016805531
20
17.6554668107
11
5.9016805531
21
17.4271422009
12
5.7369468732
22
17.4271422009
13
5.7369468732
23
17.4271422009
0
SOLID
5
26D
100
AcDbEntity
8
0
100
AcDbTrace
62
2
6
CONTINUOUS
10
5.9016805531
20
17.6554668107
11
6.0496773642
21
17.7926720906
12
6.0496773642
22
17.6554668107
13
6.0496773642
23
17.6554668107
0
SOLID
5
26E
100
AcDbEntity
8
0
100
AcDbTrace
62
2
6
CONTINUOUS
10
6.0496773642
20
17.7926720906
11
6.2144110441
21
18.0130558503
12
6.0496773642
22
17.6554668107
13
6.0496773642
23
17.6554668107
0
SOLID
5
26F
100
AcDbEntity
8
0
100
AcDbTrace
62
2
6
CONTINUOUS
10
6.0496773642
20
17.6554668107
11
6.2144110441
21
18.0130558503
12
6.0496773642
22
17.4271422009
13
6.0496773642
23
17.4271422009
0
SOLID
5
270
100
AcDbEntity
8
0
100
AcDbTrace
62
2
6
CONTINUOUS
10
6.2144110441
20
18.0130558503
11
6.2144110441
21
17.4271422009
12
6.0496773642
22
17.4271422009
13
6.0496773642
23
17.4271422009
0
SOLID
5
271
100
AcDbEntity
8
0
100
AcDbTrace
62
2
6
CONTINUOUS
10
6.5721860210
20
17.5683689581
11
6.2594558883
21
17.4271422009
12
6.4095019510
22
17.5683689581
13
6.4095019510
23
17.5683689581
0
SOLID
5
272
100
AcDbEntity
8
0
100
AcDbTrace
62
2
6
CONTINUOUS
10
6.4095019510
20
17.5683689581
11
6.2594558883
21
17.4271422009
12
6.4095019510
22
18.0130558503
13
6.4095019510
23
18.0130558503
0
SOLID
5
273
100
AcDbEntity
8
0
100
AcDbTrace
62
2
6
CONTINUOUS
10
6.2594558883
20
17.4271422009
11
6.2594558883
21
18.0130558503
12
6.4095019510
22
18.0130558503
13
6.4095019510
23
18.0130558503
0
SOLID
5
274
100
AcDbEntity
8
0
100
AcDbTrace
62
2
6
CONTINUOUS
10
6.2594558883
20
17.4271422009
11
6.5721860210
21
17.5683689581
12
6.4095019510
22
17.4271422009
13
6.4095019510
23
17.4271422009
0
SOLID
5
275
100
AcDbEntity
8
0
100
AcDbTrace
62
2
6
CONTINUOUS
10
6.5721860210
20
17.5683689581
11
6.5721860210
21
17.4271422009
12
6.4095019510
22
17.4271422009
13
6.4095019510
23
17.4271422009
0
SOLID
5
276
100
AcDbEntity
8
0
100
AcDbTrace
62
2
6
CONTINUOUS
10
6.9104379350
20
18.0130558503
11
6.9104379350
21
17.8702964535
12
6.7595804116
22
17.8702964535
13
6.7595804116
23
17.8702964535
0
SOLID
5
277
100
AcDbEntity
8
0
100
AcDbTrace
62
2
6
CONTINUOUS
10
6.9104379350
20
17.7926720906
11
6.9104379350
21
17.6482904891
12
6.7595804116
22
17.6482904891
13
6.7595804116
23
17.6482904891
0
SOLID
5
278
100
AcDbEntity
8
0
100
AcDbTrace
62
2
6
CONTINUOUS
10
6.9104379350
20
17.5683689581
11
6.6013337596
21
17.4271422009
12
6.7595804116
22
17.5683689581
13
6.7595804116
23
17.5683689581
0
SOLID
5
279
100
AcDbEntity
8
0
100
AcDbTrace
62
2
6
CONTINUOUS
10
6.7595804116
20
17.5683689581
11
6.6013337596
21
17.4271422009
12
6.7595804116
22
17.6482904891
13
6.7595804116
23
17.6482904891
0
SOLID
5
27A
100
AcDbEntity
8
0
100
AcDbTrace
62
2
6
CONTINUOUS
10
6.9104379350
20
17.7926720906
11
6.7595804116
21
17.6482904891
12
6.7595804116
22
17.7926720906
13
6.7595804116
23
17.7926720906
0
SOLID
5
27B
100
AcDbEntity
8
0
100
AcDbTrace
62
2
6
CONTINUOUS
10
6.7595804116
20
17.6482904891
11
6.6013337596
21
17.4271422009
12
6.7595804116
22
17.7926720906
13
6.7595804116
23
17.7926720906
0
SOLID
5
27C
100
AcDbEntity
8
0
100
AcDbTrace
62
2
6
CONTINUOUS
10
6.7595804116
20
17.7926720906
11
6.6013337596
21
17.4271422009
12
6.7595804116
22
17.8702964535
13
6.7595804116
23
17.8702964535
0
SOLID
5
27D
100
AcDbEntity
8
0
100
AcDbTrace
62
2
6
CONTINUOUS
10
6.9104379350
20
18.0130558503
11
6.7595804116
21
17.8702964535
12
6.7737847349
22
18.0130558503
13
6.7737847349
23
18.0130558503
0
SOLID
5
27E
100
AcDbEntity
8
0
100
AcDbTrace
62
2
6
CONTINUOUS
10
6.7595804116
20
17.8702964535
11
6.6013337596
21
17.4271422009
12
6.7737847349
22
18.0130558503
13
6.7737847349
23
18.0130558503
0
SOLID
5
27F
100
AcDbEntity
8
0
100
AcDbTrace
62
2
6
CONTINUOUS
10
6.6013337596
20
17.4271422009
11
6.6013337596
21
18.0130558503
12
6.7737847349
22
18.0130558503
13
6.7737847349
23
18.0130558503
0
SOLID
5
280
100
AcDbEntity
8
0
100
AcDbTrace
62
2
6
CONTINUOUS
10
6.9104379350
20
17.5683689581
11
6.9104379350
21
17.4271422009
12
6.6013337596
22
17.4271422009
13
6.6013337596
23
17.4271422009
0
SOLID
5
281
100
AcDbEntity
8
0
100
AcDbTrace
62
2
6
CONTINUOUS
10
7.1888058503
20
18.0130629559
11
7.2357388739
21
18.0066527074
12
6.9552581497
22
18.0130558503
13
6.9552581497
23
18.0130558503
0
SOLID
5
282
100
AcDbEntity
8
0
100
AcDbTrace
62
2
6
CONTINUOUS
10
7.1059139723
20
17.8704770169
11
7.3598537133
21
17.8751063524
12
7.1618438537
22
17.8704770169
13
7.1618438537
23
17.8704770169
0
SOLID
5
283
100
AcDbEntity
8
0
100
AcDbTrace
62
2
6
CONTINUOUS
10
7.1618438537
20
17.8704770169
11
7.3598537133
21
17.8751063524
12
7.1855664353
22
17.8649428486
13
7.1855664353
23
17.8649428486
0
SOLID
5
284
100
AcDbEntity
8
0
100
AcDbTrace
62
2
6
CONTINUOUS
10
7.1855664353
20
17.8649428486
11
7.3598537133
21
17.8751063524
12
7.2043914230
22
17.8494829736
13
7.2043914230
23
17.8494829736
0
SOLID
5
285
100
AcDbEntity
8
0
100
AcDbTrace
62
2
6
CONTINUOUS
10
7.3598537133
20
17.8751063524
11
7.3635269598
21
17.8278802236
12
7.2043914230
22
17.8494829736
13
7.2043914230
23
17.8494829736
0
SOLID
5
286
100
AcDbEntity
8
0
100
AcDbTrace
62
2
6
CONTINUOUS
10
7.2144323615
20
17.8272891129
11
7.2043914230
21
17.8494829736
12
7.3635269598
22
17.8278802236
13
7.3635269598
23
17.8278802236
0
SOLID
5
287
100
AcDbEntity
8
0
100
AcDbTrace
62
2
6
CONTINUOUS
10
7.2144323615
20
17.8272891129
11
7.3635269598
21
17.8278802236
12
7.2136162798
22
17.8029432322
13
7.2136162798
23
17.8029432322
0
SOLID
5
288
100
AcDbEntity
8
0
100
AcDbTrace
62
2
6
CONTINUOUS
10
7.2136162798
20
17.8029432322
11
7.3635269598
21
17.8278802236
12
7.2021116595
22
17.7814715856
13
7.2021116595
23
17.7814715856
0
SOLID
5
289
100
AcDbEntity
8
0
100
AcDbTrace
62
2
6
CONTINUOUS
10
7.3635269598
20
17.8278802236
11
7.3544013561
21
17.7813987936
12
7.2021116595
22
17.7814715856
13
7.2021116595
23
17.7814715856
0
SOLID
5
28A
100
AcDbEntity
8
0
100
AcDbTrace
62
2
6
CONTINUOUS
10
7.1822936517
20
17.7673070361
11
7.2021116595
21
17.7814715856
12
7.3544013561
22
17.7813987936
13
7.3544013561
23
17.7813987936
0
SOLID
5
28B
100
AcDbEntity
8
0
100
AcDbTrace
62
2
6
CONTINUOUS
10
7.1822936517
20
17.7673070361
11
7.3544013561
21
17.7813987936
12
7.1582537224
22
17.7633738824
13
7.1582537224
23
17.7633738824
0
SOLID
5
28C
100
AcDbEntity
8
0
100
AcDbTrace
62
2
6
CONTINUOUS
10
7.3544013561
20
17.7813987936
11
7.3331453804
21
17.7390669677
12
7.1582537224
22
17.7633738824
13
7.1582537224
23
17.7633738824
0
SOLID
5
28D
100
AcDbEntity
8
0
100
AcDbTrace
62
2
6
CONTINUOUS
10
7.2612450980
20
17.6787247422
11
7.1059139723
21
17.6240985717
12
7.3013160973
22
17.7039856804
13
7.3013160973
23
17.7039856804
0
SOLID
5
28E
100
AcDbEntity
8
0
100
AcDbTrace
62
2
6
CONTINUOUS
10
7.3013160973
20
17.7039856804
11
7.1059139723
21
17.6240985717
12
7.3331453804
22
17.7390669677
13
7.3331453804
23
17.7390669677
0
SOLID
5
28F
100
AcDbEntity
8
0
100
AcDbTrace
62
2
6
CONTINUOUS
10
7.3331453804
20
17.7390669677
11
7.1059139723
21
17.6240985717
12
7.1582537224
22
17.7633738824
13
7.1582537224
23
17.7633738824
0
SOLID
5
290
100
AcDbEntity
8
0
100
AcDbTrace
62
2
6
CONTINUOUS
10
7.1059139723
20
17.6240985717
11
6.9552581497
21
17.4271422009
12
7.1582537224
22
17.7633738824
13
7.1582537224
23
17.7633738824
0
SOLID
5
291
100
AcDbEntity
8
0
100
AcDbTrace
62
2
6
CONTINUOUS
10
7.1582537224
20
17.7633738824
11
6.9552581497
21
17.4271422009
12
7.1059139723
22
17.7633738824
13
7.1059139723
23
17.7633738824
0
SOLID
5
292
100
AcDbEntity
8
0
100
AcDbTrace
62
2
6
CONTINUOUS
10
7.1059139723
20
17.7633738824
11
6.9552581497
21
17.4271422009
12
7.1059139723
22
17.8704770169
13
7.1059139723
23
17.8704770169
0
SOLID
5
293
100
AcDbEntity
8
0
100
AcDbTrace
62
2
6
CONTINUOUS
10
7.3598537133
20
17.8751063524
11
7.1059139723
21
17.8704770169
12
7.3436506932
22
17.9196177232
13
7.3436506932
23
17.9196177232
0
SOLID
5
294
100
AcDbEntity
8
0
100
AcDbTrace
62
2
6
CONTINUOUS
10
7.3436506932
20
17.9196177232
11
7.1059139723
21
17.8704770169
12
7.3161048197
22
17.9581537431
13
7.3161048197
23
17.9581537431
0
SOLID
5
295
100
AcDbEntity
8
0
100
AcDbTrace
62
2
6
CONTINUOUS
10
7.3161048197
20
17.9581537431
11
7.1059139723
21
17.8704770169
12
7.2792339114
22
17.9878915322
13
7.2792339114
23
17.9878915322
0
SOLID
5
296
100
AcDbEntity
8
0
100
AcDbTrace
62
2
6
CONTINUOUS
10
7.2792339114
20
17.9878915322
11
7.1059139723
21
17.8704770169
12
7.2357388739
22
18.0066527074
13
7.2357388739
23
18.0066527074
0
SOLID
5
297
100
AcDbEntity
8
0
100
AcDbTrace
62
2
6
CONTINUOUS
10
7.2357388739
20
18.0066527074
11
7.1059139723
21
17.8704770169
12
6.9552581497
22
18.0130558503
13
6.9552581497
23
18.0130558503
0
SOLID
5
298
100
AcDbEntity
8
0
100
AcDbTrace
62
2
6
CONTINUOUS
10
6.9552581497
20
17.4271422009
11
6.9552581497
21
18.0130558503
12
7.1059139723
22
17.8704770169
13
7.1059139723
23
17.8704770169
0
SOLID
5
299
100
AcDbEntity
8
0
100
AcDbTrace
62
2
6
CONTINUOUS
10
7.1059139723
20
17.6240985717
11
7.1059139723
21
17.4271422009
12
6.9552581497
22
17.4271422009
13
6.9552581497
23
17.4271422009
0
SOLID
5
29A
100
AcDbEntity
8
0
100
AcDbTrace
62
2
6
CONTINUOUS
10
7.1059139723
20
17.6240985717
11
7.2612450980
21
17.6787247422
12
7.2307374014
22
17.4271422009
13
7.2307374014
23
17.4271422009
0
SOLID
5
29B
100
AcDbEntity
8
0
100
AcDbTrace
62
2
6
CONTINUOUS
10
7.2612450980
20
17.6787247422
11
7.4206883410
21
17.4271422009
12
7.2307374014
22
17.4271422009
13
7.2307374014
23
17.4271422009
0
TEXT
5
29C
100
AcDbEntity
8
___NOTE
100
AcDbText
62
8
6
HIDDEN
10
22.3042805853
20
1.0417575074
7
TEXTSTYLE_0
40
0.1000000000
1
AB
72
5
11
22.4642805853
21
1.0417575074
100
AcDbText
0
TEXT
5
29D
100
AcDbEntity
8
___NOTE
100
AcDbText
62
8
6
HIDDEN
10
22.5929602079
20
1.0417575074
7
TEXTSTYLE_0
40
0.1000000000
1
AC
72
5
11
22.7529602079
21
1.0417575074
100
AcDbText
0
DIMENSION
5
29E
100
AcDbEntity
8
0
100
AcDbDimension
62
2
6
CONTINUOUS
2
*D0
10
19.1236150000
20
11.0396442286
11
8.7552912089
21
10.9224567286
70
160
1
<>\P[40 cm]
3
DIMSTYLE_1
100
AcDbAlignedDimension
13
3.3736150000
23
11.1646442286
14
19.1236150000
24
10.9027392482
100
AcDbRotatedDimension
0
DIMENSION
5
29F
100
AcDbEntity
8
0
100
AcDbDimension
62
2
6
CONTINUOUS
2
*D1
10
11.2469618510
20
2.2900000000
11
11.2469618510
21
12.2047252609
70
160
1
<>\P[44,5 cm]
3
DIMSTYLE_1
100
AcDbAlignedDimension
13
11.3719618510
23
19.7900000000
14
11.3719618510
24
2.2900000000
50
270.000000
100
AcDbRotatedDimension
0
TEXT
5
2A0
100
AcDbEntity
8
0
100
AcDbText
62
2
6
CONTINUOUS
10
5.8777280000
20
1.1066890000
7
TEXTSTYLE_0
40
0.0940000000
1
114332-7-AC
72
5
11
6.9117280000
21
1.1066890000
100
AcDbText
0
TEXT
5
2A1
100
AcDbEntity
8
0
100
AcDbText
62
2
6
CONTINUOUS
10
5.8777280000
20
2.5858910000
7
TEXTSTYLE_0
40
0.0940000000
1
114332-7-AC
72
5
11
6.9117280000
21
2.5858910000
100
AcDbText
0
TEXT
5
2A2
100
AcDbEntity
8
0
100
AcDbText
62
2
6
CONTINUOUS
10
4.6414801387
20
17.0073541274
7
TEXTSTYLE_0
40
0.2500000000
1
CUT-OUT TEMPLATE
72
5
11
8.6414801387
21
17.0073541274
100
AcDbText
0
TEXT
5
2A3
100
AcDbEntity
8
0
100
AcDbText
62
2
6
CONTINUOUS
10
4.6414801387
20
16.6323541274
7
TEXTSTYLE_0
40
0.2500000000
1
SELF-RIMMING/
72
5
11
7.8914801387
21
16.6323541274
100
AcDbText
0
TEXT
5
2A4
100
AcDbEntity
8
0
100
AcDbText
62
2
6
CONTINUOUS
10
4.6414801387
20
16.2573541274
7
TEXTSTYLE_0
40
0.2500000000
1
  UNDERCOUNTER SINK
72
5
11
9.3914801387
21
16.2573541274
100
AcDbText
0
TEXT
5
2A5
100
AcDbEntity
8
0
100
AcDbText
62
2
6
CONTINUOUS
10
4.6414801387
20
15.8823541274
7
TEXTSTYLE_0
40
0.2500000000
1
 
72
5
11
4.8914801387
21
15.8823541274
100
AcDbText
0
TEXT
5
2A6
100
AcDbEntity
8
0
100
AcDbText
62
2
6
CONTINUOUS
10
4.6414801387
20
15.5073541274
7
TEXTSTYLE_0
40
0.2500000000
1
PLANTILLA DE RECORTE
72
5
11
9.6414801387
21
15.5073541274
100
AcDbText
0
TEXT
5
2A7
100
AcDbEntity
8
0
100
AcDbText
62
2
6
CONTINUOUS
10
4.6414801387
20
15.1323541274
7
TEXTSTYLE_0
40
0.2500000000
1
FREGADERO CON BORDE
72
5
11
9.3914801387
21
15.1323541274
100
AcDbText
0
TEXT
5
2A8
100
AcDbEntity
8
0
100
AcDbText
62
2
6
CONTINUOUS
10
4.6414801387
20
14.7573541274
7
TEXTSTYLE_0
40
0.2500000000
1
  TEMINADO/MONTADO DEBAJO
72
5
11
10.8914801387
21
14.7573541274
100
AcDbText
0
TEXT
5
2A9
100
AcDbEntity
8
0
100
AcDbText
62
2
6
CONTINUOUS
10
4.6414801387
20
14.3823541274
7
TEXTSTYLE_0
40
0.2500000000
1
  DEL MANTRADOR
72
5
11
8.3914801387
21
14.3823541274
100
AcDbText
0
TEXT
5
2AA
100
AcDbEntity
8
0
100
AcDbText
62
2
6
CONTINUOUS
10
4.6414801387
20
14.0073541274
7
TEXTSTYLE_0
40
0.2500000000
1
 
72
5
11
4.8914801387
21
14.0073541274
100
AcDbText
0
TEXT
5
2AB
100
AcDbEntity
8
0
100
AcDbText
62
2
6
CONTINUOUS
10
4.6414801387
20
13.6323541274
7
TEXTSTYLE_0
40
0.2500000000
1
GABARIT
72
5
11
6.3914801387
21
13.6323541274
100
AcDbText
0
TEXT
5
2AC
100
AcDbEntity
8
0
100
AcDbText
62
2
6
CONTINUOUS
10
4.6414801387
20
13.2573541274
7
TEXTSTYLE_0
40
0.2500000000
1
ÉVIER À REBORD INTÉGRÉ/
72
5
11
10.3914801387
21
13.2573541274
100
AcDbText
0
TEXT
5
2AD
100
AcDbEntity
8
0
100
AcDbText
62
2
6
CONTINUOUS
10
4.6414801387
20
12.8823541274
7
TEXTSTYLE_0
40
0.2500000000
1
  SOUS-COMPTOIR
72
5
11
8.3914801387
21
12.8823541274
100
AcDbText
0
TEXT
5
2AE
100
AcDbEntity
8
0
100
AcDbText
62
2
6
CONTINUOUS
10
4.6414801387
20
12.5073541274
7
TEXTSTYLE_0
40
0.2500000000
1
 
72
5
11
4.8914801387
21
12.5073541274
100
AcDbText
0
TEXT
5
2AF
100
AcDbEntity
8
0
100
AcDbText
62
2
6
CONTINUOUS
10
4.6414801387
20
12.1323541274
7
TEXTSTYLE_0
40
0.2500000000
1
IRON/TONES  6584-**-AA
72
5
11
10.1414801387
21
12.1323541274
100
AcDbText
0
TEXT
5
2B0
100
AcDbEntity
8
0
100
AcDbText
62
2
6
CONTINUOUS
10
6.5724904153
20
13.4091363779
7
TEXTSTYLE_0
40
0.0940000000
1
TM
72
5
11
6.7604904153
21
13.4091363779
100
AcDbText
0
TEXT
5
2B1
100
AcDbEntity
8
0
100
AcDbText
62
2
6
CONTINUOUS
10
5.6355347779
20
7.6504306123
7
TEXTSTYLE_0
40
0.0791450000
1
XXXXX-XX-X-XX
72
5
11
6.4852857779
21
7.6504306123
100
AcDbText
0
TEXT
5
2B2
100
AcDbEntity
8
0
100
AcDbText
62
2
6
CONTINUOUS
10
4.8604139075
20
9.3998391224
7
TEXTSTYLE_0
40
0.1560000000
1
PACKAGING/UPC LABEL ON BOX
72
5
11
8.9164139075
21
9.3998391224
100
AcDbText
0
TEXT
5
2B3
100
AcDbEntity
8
0
100
AcDbText
62
2
6
CONTINUOUS
10
4.8604139075
20
9.1658391224
7
TEXTSTYLE_0
40
0.1560000000
1
ETIQUETA DE EMBALAJE / UPC EN LA CAJA
72
5
11
10.6324139075
21
9.1658391224
100
AcDbText
0
TEXT
5
2B4
100
AcDbEntity
8
0
100
AcDbText
62
2
6
CONTINUOUS
10
4.8604139075
20
8.9318391224
7
TEXTSTYLE_0
40
0.1560000000
1
ETIQUETTE D'EMBALLAGE / UPC SUR LA BOÎTE
72
5
11
11.1004139075
21
8.9318391224
100
AcDbText
0
TEXT
5
2B5
100
AcDbEntity
8
0
100
AcDbText
62
2
6
CONTINUOUS
10
6.5724904153
20
13.4091363779
7
TEXTSTYLE_0
40
0.0940000000
1
TM
72
5
11
6.7604904153
21
13.4091363779
100
AcDbText
0
TEXT
5
2B6
100
AcDbEntity
8
0
100
AcDbText
62
2
6
CONTINUOUS
10
7.8141747779
20
7.4782106123
7
TEXTSTYLE_0
40
0.0593590000
1
xxxxxx-xx
72
5
11
8.1742577779
21
7.4782106123
100
AcDbText
0
TEXT
5
2B7
100
AcDbEntity
8
0
100
AcDbText
62
2
6
CONTINUOUS
10
15.3269300000
20
2.5858910000
7
TEXTSTYLE_0
40
0.0940000000
1
2002 KOHLER CO.
72
5
11
16.7369300000
21
2.5858910000
100
AcDbText
0
TEXT
5
2B8
100
AcDbEntity
8
0
100
AcDbText
62
2
6
CONTINUOUS
10
15.2343990000
20
2.6078710000
7
TEXTSTYLE_0
40
0.0562500000
1
C
72
5
11
15.2906490000
21
2.6078710000
100
AcDbText
0
TEXT
5
2B9
100
AcDbEntity
8
___NOTE
100
AcDbText
62
2
6
CONTINUOUS
10
22.3042805853
20
1.0417575074
7
TEXTSTYLE_0
40
0.1000000000
1
AB
72
5
11
22.4642805853
21
1.0417575074
100
AcDbText
0
TEXT
5
2BA
100
AcDbEntity
8
___NOTE
100
AcDbText
62
2
6
CONTINUOUS
10
22.5929602079
20
1.0417575074
7
TEXTSTYLE_0
40
0.1000000000
1
AC
72
5
11
22.7529602079
21
1.0417575074
100
AcDbText
0
TEXT
5
2BB
100
AcDbEntity
8
___NOTE
100
AcDbText
62
2
6
CONTINUOUS
10
11.3840441273
20
18.0668127799
7
TEXTSTYLE_0
40
0.1560000000
1
WHEN PLOTTING TEMPLATE FULL SIZE:
72
5
11
16.5320441273
21
18.0668127799
100
AcDbText
0
TEXT
5
2BC
100
AcDbEntity
8
___NOTE
100
AcDbText
62
2
6
CONTINUOUS
10
11.3840441273
20
17.8328127799
7
TEXTSTYLE_0
40
0.1560000000
1
Make sure horizontal and vertical
72
5
11
16.5320441273
21
17.8328127799
100
AcDbText
0
TEXT
5
2BD
100
AcDbEntity
8
___NOTE
100
AcDbText
62
2
6
CONTINUOUS
10
11.3840441273
20
17.5988127799
7
TEXTSTYLE_0
40
0.1560000000
1
dimensions match the dimensions
72
5
11
16.2200441273
21
17.5988127799
100
AcDbText
0
TEXT
5
2BE
100
AcDbEntity
8
___NOTE
100
AcDbText
62
2
6
CONTINUOUS
10
11.3840441273
20
17.3645002799
7
TEXTSTYLE_0
40
0.1562500000
1
labled on the template.
72
5
11
14.2590441273
21
17.3645002799
100
AcDbText
0
TEXT
5
2BF
100
AcDbEntity
8
___NOTE
100
AcDbText
62
2
6
CONTINUOUS
10
11.3840441273
20
17.1301252799
7
TEXTSTYLE_0
40
0.1562500000
1
 
72
5
11
11.5090441273
21
17.1301252799
100
AcDbText
0
TEXT
5
2C0
100
AcDbEntity
8
___NOTE
100
AcDbText
62
2
6
CONTINUOUS
10
11.3840441273
20
16.8960627799
7
TEXTSTYLE_0
40
0.1560000000
1
AL TRAZAR UNA PLANTILLA A ESCALA,
72
5
11
16.5320441273
21
16.8960627799
100
AcDbText
0
TEXT
5
2C1
100
AcDbEntity
8
___NOTE
100
AcDbText
62
2
6
CONTINUOUS
10
11.3840441273
20
16.6617502799
7
TEXTSTYLE_0
40
0.1562500000
1
asegúrese de que las dimensiones horizontales
72
5
11
17.0090441273
21
16.6617502799
100
AcDbText
0
TEXT
5
2C2
100
AcDbEntity
8
___NOTE
100
AcDbText
62
2
6
CONTINUOUS
10
11.3840441273
20
16.4273752799
7
TEXTSTYLE_0
40
0.1562500000
1
y verticales concuerden con las dimensiones
72
5
11
16.7590441273
21
16.4273752799
100
AcDbText
0
TEXT
5
2C3
100
AcDbEntity
8
___NOTE
100
AcDbText
62
2
6
CONTINUOUS
10
11.3840441273
20
16.1930002799
7
TEXTSTYLE_0
40
0.1562500000
1
marcadas en la plantilla.
72
5
11
14.5090441273
21
16.1930002799
100
AcDbText
0
TEXT
5
2C4
100
AcDbEntity
8
___NOTE
100
AcDbText
62
2
6
CONTINUOUS
10
11.3840441273
20
15.9586252799
7
TEXTSTYLE_0
40
0.1562500000
1
 
72
5
11
11.5090441273
21
15.9586252799
100
AcDbText
0
TEXT
5
2C5
100
AcDbEntity
8
___NOTE
100
AcDbText
62
2
6
CONTINUOUS
10
11.3840441273
20
15.7245627799
7
TEXTSTYLE_0
40
0.1560000000
1
AU MOMENT DE TRACER UN GABARIT À L'ÉCHELLE,
72
5
11
18.0920441273
21
15.7245627799
100
AcDbText
0
TEXT
5
2C6
100
AcDbEntity
8
___NOTE
100
AcDbText
62
2
6
CONTINUOUS
10
11.3840441273
20
15.4902502799
7
TEXTSTYLE_0
40
0.1562500000
1
s'assurer que les dimensions horizotales et
72
5
11
16.7590441273
21
15.4902502799
100
AcDbText
0
TEXT
5
2C7
100
AcDbEntity
8
___NOTE
100
AcDbText
62
2
6
CONTINUOUS
10
11.3840441273
20
15.2558752799
7
TEXTSTYLE_0
40
0.1562500000
1
verticales correspondent avec les dimensions 
72
5
11
17.0090441273
21
15.2558752799
100
AcDbText
0
TEXT
5
2C8
100
AcDbEntity
8
___NOTE
100
AcDbText
62
2
6
CONTINUOUS
10
11.3840441273
20
15.0215002799
7
TEXTSTYLE_0
40
0.1562500000
1
sur le gabarit.
72
5
11
13.2590441273
21
15.0215002799
100
AcDbText
0
TEXT
5
2C9
100
AcDbEntity
8
___NOTE
100
AcDbText
62
2
6
CONTINUOUS
10
4.5140064760
20
6.9941311138
7
TEXTSTYLE_0
40
0.1560000000
1
The template and label suffixes circled
72
5
11
10.5980064760
21
6.9941311138
100
AcDbText
0
TEXT
5
2CA
100
AcDbEntity
8
___NOTE
100
AcDbText
62
2
6
CONTINUOUS
10
4.5140064760
20
6.7601311138
7
TEXTSTYLE_0
40
0.1560000000
1
must match for proper cut-out.
72
5
11
9.1940064760
21
6.7601311138
100
AcDbText
0
TEXT
5
2CB
100
AcDbEntity
8
___NOTE
100
AcDbText
62
2
6
CONTINUOUS
10
4.5140064760
20
6.5258186138
7
TEXTSTYLE_0
40
0.1562500000
1
 
72
5
11
4.6390064760
21
6.5258186138
100
AcDbText
0
TEXT
5
2CC
100
AcDbEntity
8
___NOTE
100
AcDbText
62
2
6
CONTINUOUS
10
4.5140064760
20
6.2914436138
7
TEXTSTYLE_0
40
0.1562500000
1
A fin de realizar el corte apropiado, la plantilla y
72
5
11
11.0140064760
21
6.2914436138
100
AcDbText
0
TEXT
5
2CD
100
AcDbEntity
8
___NOTE
100
AcDbText
62
2
6
CONTINUOUS
10
4.5140064760
20
6.0570686138
7
TEXTSTYLE_0
40
0.1562500000
1
los sufijos de la etiqueta demarcados deben concordar
72
5
11
11.1390064760
21
6.0570686138
100
AcDbText
0
TEXT
5
2CE
100
AcDbEntity
8
___NOTE
100
AcDbText
62
2
6
CONTINUOUS
10
4.5140064760
20
5.8226936138
7
TEXTSTYLE_0
40
0.1562500000
1
 
72
5
11
4.6390064760
21
5.8226936138
100
AcDbText
0
TEXT
5
2CF
100
AcDbEntity
8
___NOTE
100
AcDbText
62
2
6
CONTINUOUS
10
4.5140064760
20
5.5883186138
7
TEXTSTYLE_0
40
0.1562500000
1
A fin de découper l'ouverture correctement, le gabarit
72
5
11
11.2640064760
21
5.5883186138
100
AcDbText
0
TEXT
5
2D0
100
AcDbEntity
8
___NOTE
100
AcDbText
62
2
6
CONTINUOUS
10
4.5140064760
20
5.3539436138
7
TEXTSTYLE_0
40
0.1562500000
1
et les suffixes encerclés doivent correspondre.
72
5
11
10.5140064760
21
5.3539436138
100
AcDbText
0
TEXT
5
2D1
100
AcDbEntity
8
___NOTE
100
AcDbText
62
2
6
CONTINUOUS
10
15.7875797818
20
8.0101742000
7
TEXTSTYLE_0
40
0.1560000000
1
RIM OF SINK
72
5
11
17.5035797818
21
8.0101742000
100
AcDbText
0
TEXT
5
2D2
100
AcDbEntity
8
___NOTE
100
AcDbText
62
2
6
CONTINUOUS
10
14.3835797818
20
7.7761742000
7
TEXTSTYLE_0
40
0.1560000000
1
REBORDE DE FREGADERO
72
5
11
17.5035797818
21
7.7761742000
100
AcDbText
0
TEXT
5
2D3
100
AcDbEntity
8
___NOTE
100
AcDbText
62
2
6
CONTINUOUS
10
15.3195797818
20
7.5421742000
7
TEXTSTYLE_0
40
0.1560000000
1
REBORD D'ÉVIER
72
5
11
17.5035797818
21
7.5421742000
100
AcDbText
0
TEXT
5
2D4
100
AcDbEntity
8
___NOTE
100
AcDbText
62
2
6
CONTINUOUS
10
13.4203159341
20
9.9934868852
7
TEXTSTYLE_0
40
0.1560000000
1
FOR SELF-RIMMING INSTALLATION
72
5
11
17.9443159341
21
9.9934868852
100
AcDbText
0
TEXT
5
2D5
100
AcDbEntity
8
___NOTE
100
AcDbText
62
2
6
CONTINUOUS
10
14.9803159341
20
9.7594868852
7
TEXTSTYLE_0
40
0.1560000000
1
CUT ALONG THIS LINE
72
5
11
17.9443159341
21
9.7594868852
100
AcDbText
0
TEXT
5
2D6
100
AcDbEntity
8
___NOTE
100
AcDbText
62
2
6
CONTINUOUS
10
12.0163159341
20
9.5254868852
7
TEXTSTYLE_0
40
0.1560000000
1
PARA INSTALACIONES DE BORDE TERMINADO,
72
5
11
17.9443159341
21
9.5254868852
100
AcDbText
0
TEXT
5
2D7
100
AcDbEntity
8
___NOTE
100
AcDbText
62
2
6
CONTINUOUS
10
13.2643159341
20
9.2914868852
7
TEXTSTYLE_0
40
0.1560000000
1
CORTE A LO LARGO DE ESTA LÍNEA
72
5
11
17.9443159341
21
9.2914868852
100
AcDbText
0
TEXT
5
2D8
100
AcDbEntity
8
___NOTE
100
AcDbText
62
2
6
CONTINUOUS
10
11.7043159341
20
9.0574868852
7
TEXTSTYLE_0
40
0.1560000000
1
POUR DES INSTALLATIONS À REBORD INTÉGRÉ,
72
5
11
17.9443159341
21
9.0574868852
100
AcDbText
0
TEXT
5
2D9
100
AcDbEntity
8
___NOTE
100
AcDbText
62
2
6
CONTINUOUS
10
13.1083159341
20
8.8234868852
7
TEXTSTYLE_0
40
0.1560000000
1
DÉCOUPER AU LONG DE CETTE LIGNE
72
5
11
17.9443159341
21
8.8234868852
100
AcDbText
0
TEXT
5
2DA
100
AcDbEntity
8
___NOTE
100
AcDbText
62
2
6
CONTINUOUS
10
13.1264918325
20
6.4308696544
7
TEXTSTYLE_0
40
0.1560000000
1
FOR UNDERCOUNTER INSTALLATION
72
5
11
17.6504918325
21
6.4308696544
100
AcDbText
0
TEXT
5
2DB
100
AcDbEntity
8
___NOTE
100
AcDbText
62
2
6
CONTINUOUS
10
14.6864918325
20
6.1968696544
7
TEXTSTYLE_0
40
0.1560000000
1
CUT ALONG THIS LINE
72
5
11
17.6504918325
21
6.1968696544
100
AcDbText
0
TEXT
5
2DC
100
AcDbEntity
8
___NOTE
100
AcDbText
62
2
6
CONTINUOUS
10
11.4104918325
20
5.9628696544
7
TEXTSTYLE_0
40
0.1560000000
1
PARA INSTALACIONES DEBAJO DEL MOSTRADOR,
72
5
11
17.6504918325
21
5.9628696544
100
AcDbText
0
TEXT
5
2DD
100
AcDbEntity
8
___NOTE
100
AcDbText
62
2
6
CONTINUOUS
10
12.9704918325
20
5.7288696544
7
TEXTSTYLE_0
40
0.1560000000
1
CORTE A LO LARGO DE ESTA LÍNEA
72
5
11
17.6504918325
21
5.7288696544
100
AcDbText
0
TEXT
5
2DE
100
AcDbEntity
8
___NOTE
100
AcDbText
62
2
6
CONTINUOUS
10
11.8784918325
20
5.4948696544
7
TEXTSTYLE_0
40
0.1560000000
1
POUR DES INSTALLATIONS SOUS COMPTOIR,
72
5
11
17.6504918325
21
5.4948696544
100
AcDbText
0
TEXT
5
2DF
100
AcDbEntity
8
___NOTE
100
AcDbText
62
2
6
CONTINUOUS
10
12.8144918325
20
5.2608696544
7
TEXTSTYLE_0
40
0.1560000000
1
DÉCOUPER AU LONG DE CETTE LIGNE
72
5
11
17.6504918325
21
5.2608696544
100
AcDbText
0
TEXT
5
2E0
100
AcDbEntity
8
___NOTE
100
AcDbText
62
8
6
HIDDEN
10
22.3042805853
20
1.0417575074
7
TEXTSTYLE_0
40
0.1000000000
1
AB
72
5
11
22.4642805853
21
1.0417575074
100
AcDbText
0
TEXT
5
2E1
100
AcDbEntity
8
___NOTE
100
AcDbText
62
8
6
HIDDEN
10
22.5929602079
20
1.0417575074
7
TEXTSTYLE_0
40
0.1000000000
1
AC
72
5
11
22.7529602079
21
1.0417575074
100
AcDbText
0
LINE
5
2E2
100
AcDbEntity
8
0
100
AcDbLine
62
7
6
CONTINUOUS
10
0.0000000000
20
0.0000000000
11
0.0000000000
21
22.0000000000
0
LINE
5
2E3
100
AcDbEntity
8
0
100
AcDbLine
62
7
6
CONTINUOUS
10
0.0000000000
20
0.0000000000
11
25.0000000000
21
0.0000000000
0
LINE
5
2E4
100
AcDbEntity
8
0
100
AcDbLine
62
2
6
CONTINUOUS
10
5.0130000033
20
18.0130558503
11
4.8752358366
21
17.8492346606
0
LINE
5
2E5
100
AcDbEntity
8
0
100
AcDbLine
62
2
6
CONTINUOUS
10
5.2050618154
20
18.0130558503
11
4.9917583635
21
17.7594075773
0
POLYLINE
5
2E6
100
AcDbEntity
8
DEFAULT_2
100
AcDb2dPolyline
62
8
6
HIDDEN
66
1
70
0
0
VERTEX
5
2E7
100
AcDbEntity
8
DEFAULT_2
100
AcDbVertex
62
8
6
HIDDEN
100
AcDb2dVertex
10
22.6115511566
20
1.0088267474
0
VERTEX
5
2E8
100
AcDbEntity
8
DEFAULT_2
100
AcDbVertex
62
8
6
HIDDEN
100
AcDb2dVertex
10
22.4456896365
20
1.0088267474
0
VERTEX
5
2E9
100
AcDbEntity
8
DEFAULT_2
100
AcDbVertex
62
8
6
HIDDEN
100
AcDb2dVertex
10
22.4456896365
20
1.1746882675
0
VERTEX
5
2EA
100
AcDbEntity
8
DEFAULT_2
100
AcDbVertex
62
8
6
HIDDEN
100
AcDb2dVertex
10
22.6115511566
20
1.1746882675
0
VERTEX
5
2EB
100
AcDbEntity
8
DEFAULT_2
100
AcDbVertex
62
8
6
HIDDEN
100
AcDb2dVertex
10
22.6115511566
20
1.0088267474
0
SEQEND
5
2EC
100
AcDbEntity
8
0
0
LINE
5
2ED
100
AcDbEntity
8
DEFAULT_2
100
AcDbLine
62
8
6
CONTINUOUS
10
2.7486150000
20
18.9150000000
11
2.7486150000
21
3.1650000000
0
LINE
5
2EE
100
AcDbEntity
8
0
100
AcDbLine
62
7
6
CONTINUOUS
10
3.3736150000
20
18.9150000000
11
3.3736150000
21
3.1650000000
0
LINE
5
2EF
100
AcDbEntity
8
DEFAULT_2
100
AcDbLine
62
8
6
CONTINUOUS
10
4.2486150000
20
1.6650000000
11
18.2486150000
21
1.6650000000
0
LINE
5
2F0
100
AcDbEntity
8
DEFAULT_3
100
AcDbLine
62
7
6
PHANTOM
10
4.3686150000
20
17.1645533584
11
4.3686150000
21
4.9154466416
0
LINE
5
2F1
100
AcDbEntity
8
0
100
AcDbLine
62
7
6
CONTINUOUS
10
4.2486150000
20
2.2900000000
11
18.2486150000
21
2.2900000000
0
LINE
5
2F2
100
AcDbEntity
8
0
100
AcDbLine
62
2
6
CONTINUOUS
10
4.7007356096
20
18.0130558503
11
4.7007356096
21
17.4271181974
0
LINE
5
2F3
100
AcDbEntity
8
0
100
AcDbLine
62
2
6
CONTINUOUS
10
4.8752358366
20
18.0130558503
11
4.8752358366
21
17.8492346606
0
LINE
5
2F4
100
AcDbEntity
8
0
100
AcDbLine
62
2
6
CONTINUOUS
10
5.3293947779
20
7.3526806123
11
5.3293947779
21
8.8098906123
0
LINE
5
2F5
100
AcDbEntity
8
DEFAULT_3
100
AcDbLine
62
7
6
PHANTOM
10
5.9990616416
20
3.2850000000
11
16.4981683584
21
3.2850000000
0
LINE
5
2F6
100
AcDbEntity
8
0
100
AcDbLine
62
2
6
CONTINUOUS
10
5.3738847779
20
7.4425706123
11
5.3738847779
21
8.7666106123
0
LINE
5
2F7
100
AcDbEntity
8
0
100
AcDbLine
62
2
6
CONTINUOUS
10
5.4388147779
20
7.4738006123
11
5.4388147779
21
7.5204406123
0
LINE
5
2F8
100
AcDbEntity
8
0
100
AcDbLine
62
2
6
CONTINUOUS
10
5.4388147779
20
7.8559506123
11
5.4388147779
21
8.0181306123
0
LINE
5
2F9
100
AcDbEntity
8
0
100
AcDbLine
62
2
6
CONTINUOUS
10
5.5010147779
20
8.0781306123
11
5.5010147779
21
8.1603306123
0
LINE
5
2FA
100
AcDbEntity
8
0
100
AcDbLine
62
2
6
CONTINUOUS
10
5.5010147779
20
8.2469906123
11
5.5010147779
21
8.3291806123
0
LINE
5
2FB
100
AcDbEntity
8
0
100
AcDbLine
62
2
6
CONTINUOUS
10
5.5010147779
20
8.3803006123
11
5.5010147779
21
8.4624906123
0
LINE
5
2FC
100
AcDbEntity
8
0
100
AcDbLine
62
2
6
CONTINUOUS
10
5.5010147779
20
8.5136006123
11
5.5010147779
21
8.5958006123
0
LINE
5
2FD
100
AcDbEntity
8
0
100
AcDbLine
62
2
6
CONTINUOUS
10
5.5010147779
20
8.6469106123
11
5.5010147779
21
8.7291106123
0
LINE
5
2FE
100
AcDbEntity
8
0
100
AcDbLine
62
2
6
CONTINUOUS
10
5.7369468732
20
18.0130558503
11
5.7369468732
21
17.4271422009
0
LINE
5
2FF
100
AcDbEntity
8
0
100
AcDbLine
62
2
6
CONTINUOUS
10
5.9016805531
20
18.0130558503
11
5.9016805531
21
17.7926720906
0
LINE
5
300
100
AcDbEntity
8
0
100
AcDbLine
62
2
6
CONTINUOUS
10
5.9016805531
20
17.6554668107
11
5.9016805531
21
17.4271422009
0
LINE
5
301
100
AcDbEntity
8
0
100
AcDbLine
62
2
6
CONTINUOUS
10
6.0496773642
20
18.0130558503
11
6.0496773642
21
17.7926720906
0
LINE
5
302
100
AcDbEntity
8
0
100
AcDbLine
62
2
6
CONTINUOUS
10
6.0496773642
20
17.6554668107
11
6.0496773642
21
17.4271422009
0
LINE
5
303
100
AcDbEntity
8
0
100
AcDbLine
62
2
6
CONTINUOUS
10
6.2594558883
20
17.4271422009
11
6.2594558883
21
18.0130558503
0
LINE
5
304
100
AcDbEntity
8
0
100
AcDbLine
62
2
6
CONTINUOUS
10
6.4095019510
20
18.0130558503
11
6.4095019510
21
17.5683689581
0
LINE
5
305
100
AcDbEntity
8
0
100
AcDbLine
62
2
6
CONTINUOUS
10
6.5721860210
20
17.5683689581
11
6.5721860210
21
17.4271422009
0
LINE
5
306
100
AcDbEntity
8
0
100
AcDbLine
62
2
6
CONTINUOUS
10
6.5797547779
20
8.0181306123
11
6.5797547779
21
7.8559506123
0
LINE
5
307
100
AcDbEntity
8
0
100
AcDbLine
62
2
6
CONTINUOUS
10
6.5797547779
20
7.5204406123
11
6.5797547779
21
7.4738006123
0
LINE
5
308
100
AcDbEntity
8
0
100
AcDbLine
62
2
6
CONTINUOUS
10
6.6013337596
20
17.4271422009
11
6.6013337596
21
18.0130558503
0
LINE
5
309
100
AcDbEntity
8
0
100
AcDbLine
62
2
6
CONTINUOUS
10
6.6419547779
20
8.7291106123
11
6.6419547779
21
8.6469106123
0
LINE
5
30A
100
AcDbEntity
8
0
100
AcDbLine
62
2
6
CONTINUOUS
10
6.6419547779
20
8.5958006123
11
6.6419547779
21
8.5136006123
0
LINE
5
30B
100
AcDbEntity
8
0
100
AcDbLine
62
2
6
CONTINUOUS
10
6.6419547779
20
8.4624906123
11
6.6419547779
21
8.3803006123
0
LINE
5
30C
100
AcDbEntity
8
0
100
AcDbLine
62
2
6
CONTINUOUS
10
6.6419547779
20
8.3291806123
11
6.6419547779
21
8.2469906123
0
LINE
5
30D
100
AcDbEntity
8
0
100
AcDbLine
62
2
6
CONTINUOUS
10
6.6419547779
20
8.1603306123
11
6.6419547779
21
8.0781306123
0
LINE
5
30E
100
AcDbEntity
8
0
100
AcDbLine
62
2
6
CONTINUOUS
10
6.7595804116
20
17.8702964535
11
6.7595804116
21
17.7926720906
0
LINE
5
30F
100
AcDbEntity
8
0
100
AcDbLine
62
2
6
CONTINUOUS
10
6.7595804116
20
17.6482904891
11
6.7595804116
21
17.5683689581
0
LINE
5
310
100
AcDbEntity
8
0
100
AcDbLine
62
2
6
CONTINUOUS
10
6.9104379350
20
17.4271422009
11
6.9104379350
21
17.5683689581
0
LINE
5
311
100
AcDbEntity
8
0
100
AcDbLine
62
2
6
CONTINUOUS
10
6.9104379350
20
17.6482904891
11
6.9104379350
21
17.7926720906
0
LINE
5
312
100
AcDbEntity
8
0
100
AcDbLine
62
2
6
CONTINUOUS
10
6.9104379350
20
17.8702964535
11
6.9104379350
21
18.0130558503
0
LINE
5
313
100
AcDbEntity
8
0
100
AcDbLine
62
2
6
CONTINUOUS
10
6.9552581497
20
17.4271422009
11
6.9552581497
21
18.0130558503
0
LINE
5
314
100
AcDbEntity
8
0
100
AcDbLine
62
2
6
CONTINUOUS
10
7.1059139723
20
17.8704770169
11
7.1059139723
21
17.7633738824
0
LINE
5
315
100
AcDbEntity
8
0
100
AcDbLine
62
2
6
CONTINUOUS
10
7.1059139723
20
17.6240985717
11
7.1059139723
21
17.4271422009
0
LINE
5
316
100
AcDbEntity
8
0
100
AcDbLine
62
2
6
CONTINUOUS
10
7.5455723162
20
17.3943015101
11
7.5455723162
21
17.4602677090
0
LINE
5
317
100
AcDbEntity
8
0
100
AcDbLine
62
2
6
CONTINUOUS
10
7.5564247779
20
7.8559506123
11
7.5564247779
21
8.0181306123
0
LINE
5
318
100
AcDbEntity
8
0
100
AcDbLine
62
2
6
CONTINUOUS
10
8.0136947779
20
8.0181306123
11
8.0136947779
21
7.8559506123
0
LINE
5
319
100
AcDbEntity
8
___NOTE
100
AcDbLine
62
2
6
CONTINUOUS
10
17.9004918325
20
6.5088696544
11
17.6504918325
21
6.5088696544
0
LINE
5
31A
100
AcDbEntity
8
0
100
AcDbLine
62
2
6
CONTINUOUS
10
8.2872747779
20
8.7666106123
11
8.2872747779
21
7.4425706123
0
LINE
5
31B
100
AcDbEntity
8
0
100
AcDbLine
62
2
6
CONTINUOUS
10
8.3328147779
20
8.8098906123
11
8.3328147779
21
7.3526806123
0
LINE
5
31C
100
AcDbEntity
8
0
100
AcDbLine
62
2
6
CONTINUOUS
10
8.3328147779
20
7.3526806123
11
5.3293947779
21
7.3526806123
0
LINE
5
31D
100
AcDbEntity
8
0
100
AcDbLine
62
2
6
CONTINUOUS
10
8.2872747779
20
7.4425706123
11
5.3738847779
21
7.4425706123
0
LINE
5
31E
100
AcDbEntity
8
0
100
AcDbLine
62
2
6
CONTINUOUS
10
6.5797547779
20
7.4738006123
11
5.4388147779
21
7.4738006123
0
LINE
5
31F
100
AcDbEntity
8
0
100
AcDbLine
62
2
6
CONTINUOUS
10
5.4388147779
20
7.5204406123
11
6.5797547779
21
7.5204406123
0
LINE
5
320
100
AcDbEntity
8
0
100
AcDbLine
62
2
6
CONTINUOUS
10
8.0136947779
20
7.8559506123
11
7.5564247779
21
7.8559506123
0
LINE
5
321
100
AcDbEntity
8
0
100
AcDbLine
62
2
6
CONTINUOUS
10
6.5797547779
20
7.8559506123
11
5.4388147779
21
7.8559506123
0
LINE
5
322
100
AcDbEntity
8
0
100
AcDbLine
62
2
6
CONTINUOUS
10
5.4388147779
20
8.0181306123
11
6.5797547779
21
8.0181306123
0
LINE
5
323
100
AcDbEntity
8
0
100
AcDbLine
62
2
6
CONTINUOUS
10
7.5564247779
20
8.0181306123
11
8.0136947779
21
8.0181306123
0
LINE
5
324
100
AcDbEntity
8
0
100
AcDbLine
62
2
6
CONTINUOUS
10
6.6419547779
20
8.0781306123
11
5.5010147779
21
8.0781306123
0
LINE
5
325
100
AcDbEntity
8
___NOTE
100
AcDbLine
62
2
6
CONTINUOUS
10
17.7535797818
20
8.0881742000
11
17.5035797818
21
8.0881742000
0
LINE
5
326
100
AcDbEntity
8
0
100
AcDbLine
62
2
6
CONTINUOUS
10
5.5010147779
20
8.1603306123
11
6.6419547779
21
8.1603306123
0
LINE
5
327
100
AcDbEntity
8
0
100
AcDbLine
62
2
6
CONTINUOUS
10
6.6419547779
20
8.2469906123
11
5.5010147779
21
8.2469906123
0
LINE
5
328
100
AcDbEntity
8
0
100
AcDbLine
62
2
6
CONTINUOUS
10
5.5010147779
20
8.3291806123
11
6.6419547779
21
8.3291806123
0
LINE
5
329
100
AcDbEntity
8
0
100
AcDbLine
62
2
6
CONTINUOUS
10
6.6419547779
20
8.3803006123
11
5.5010147779
21
8.3803006123
0
LINE
5
32A
100
AcDbEntity
8
0
100
AcDbLine
62
2
6
CONTINUOUS
10
5.5010147779
20
8.4624906123
11
6.6419547779
21
8.4624906123
0
LINE
5
32B
100
AcDbEntity
8
0
100
AcDbLine
62
2
6
CONTINUOUS
10
6.6419547779
20
8.5136006123
11
5.5010147779
21
8.5136006123
0
LINE
5
32C
100
AcDbEntity
8
0
100
AcDbLine
62
2
6
CONTINUOUS
10
5.5010147779
20
8.5958006123
11
6.6419547779
21
8.5958006123
0
LINE
5
32D
100
AcDbEntity
8
0
100
AcDbLine
62
2
6
CONTINUOUS
10
6.6419547779
20
8.6469106123
11
5.5010147779
21
8.6469106123
0
LINE
5
32E
100
AcDbEntity
8
0
100
AcDbLine
62
2
6
CONTINUOUS
10
5.5010147779
20
8.7291106123
11
6.6419547779
21
8.7291106123
0
LINE
5
32F
100
AcDbEntity
8
0
100
AcDbLine
62
2
6
CONTINUOUS
10
5.3738847779
20
8.7666106123
11
8.2872747779
21
8.7666106123
0
LINE
5
330
100
AcDbEntity
8
0
100
AcDbLine
62
2
6
CONTINUOUS
10
5.3293947779
20
8.8098906123
11
8.3328147779
21
8.8098906123
0
LINE
5
331
100
AcDbEntity
8
0
100
AcDbLine
62
2
6
CONTINUOUS
10
5.0289737767
20
17.4271422009
11
4.8752358366
21
17.6286420349
0
LINE
5
332
100
AcDbEntity
8
0
100
AcDbLine
62
2
6
CONTINUOUS
10
5.2452661982
20
17.4271422009
11
4.9917583635
21
17.7594075773
0
LINE
5
333
100
AcDbEntity
8
DEFAULT_1
100
AcDbLine
62
2
6
CENTER
10
11.2486150000
20
21.4150000000
11
11.2486150000
21
19.7900000000
0
LINE
5
334
100
AcDbEntity
8
DEFAULT_1
100
AcDbLine
62
2
6
CENTER
10
11.2486150000
20
2.2900000000
11
11.2486150000
21
0.6650000000
0
LINE
5
335
100
AcDbEntity
8
___NOTE
100
AcDbLine
62
2
6
CONTINUOUS
10
18.1943159341
20
10.0714868852
11
17.9443159341
21
10.0714868852
0
LINE
5
336
100
AcDbEntity
8
0
100
AcDbLine
62
2
6
CONTINUOUS
10
7.2307374014
20
17.4271422009
11
7.1059139723
21
17.6240985717
0
LINE
5
337
100
AcDbEntity
8
0
100
AcDbLine
62
2
6
CONTINUOUS
10
7.4206883410
20
17.4271422009
11
7.2612450980
21
17.6787247422
0
LINE
5
338
100
AcDbEntity
8
DEFAULT_1
100
AcDbLine
62
2
6
CENTER
10
1.7486150000
20
11.0400000000
11
3.3736150000
21
11.0400000000
0
LINE
5
339
100
AcDbEntity
8
DEFAULT_1
100
AcDbLine
62
2
6
CENTER
10
19.1236150000
20
11.0400000000
11
20.7486150000
21
11.0400000000
0
LINE
5
33A
100
AcDbEntity
8
___NOTE
100
AcDbLine
62
2
6
CONTINUOUS
10
19.7486150000
20
7.0720325156
11
17.7535797818
21
8.0881742000
0
LINE
5
33B
100
AcDbEntity
8
0
100
AcDbLine
62
2
6
CONTINUOUS
10
7.5571702924
20
17.4266044515
11
7.5890383051
21
17.3943015101
0
LINE
5
33C
100
AcDbEntity
8
0
100
AcDbLine
62
2
6
CONTINUOUS
10
14.9717285612
20
18.1392989071
11
14.9717285612
21
17.5533852577
0
LINE
5
33D
100
AcDbEntity
8
___NOTE
100
AcDbLine
62
2
6
CONTINUOUS
10
18.1286150000
20
6.0803761730
11
17.9004918325
21
6.5088696544
0
LINE
5
33E
100
AcDbEntity
8
___NOTE
100
AcDbLine
62
2
6
CONTINUOUS
10
19.1236150000
20
8.9329184918
11
18.1943159341
21
10.0714868852
0
LINE
5
33F
100
AcDbEntity
8
DEFAULT_3
100
AcDbLine
62
7
6
PHANTOM
10
18.1286150000
20
4.9154466416
11
18.1286150000
21
17.1645533584
0
LINE
5
340
100
AcDbEntity
8
0
100
AcDbLine
62
2
6
CONTINUOUS
10
4.8752358366
20
17.4271422009
11
4.7007356096
21
17.4271181974
0
LINE
5
341
100
AcDbEntity
8
0
100
AcDbLine
62
2
6
CONTINUOUS
10
7.5698516491
20
17.4266044515
11
7.5455723162
21
17.4266044515
0
LINE
5
342
100
AcDbEntity
8
0
100
AcDbLine
62
2
6
CONTINUOUS
10
6.2144110441
20
17.4271422009
11
6.0496773642
21
17.4271422009
0
LINE
5
343
100
AcDbEntity
8
0
100
AcDbLine
62
2
6
CONTINUOUS
10
5.9016805531
20
17.4271422009
11
5.7369468732
21
17.4271422009
0
LINE
5
344
100
AcDbEntity
8
0
100
AcDbLine
62
2
6
CONTINUOUS
10
5.0289737767
20
17.4271422009
11
5.2452661982
21
17.4271422009
0
LINE
5
345
100
AcDbEntity
8
0
100
AcDbLine
62
2
6
CONTINUOUS
10
6.2594558883
20
17.4271422009
11
6.5721860210
21
17.4271422009
0
LINE
5
346
100
AcDbEntity
8
0
100
AcDbLine
62
2
6
CONTINUOUS
10
6.6013337596
20
17.4271422009
11
6.9104379350
21
17.4271422009
0
LINE
5
347
100
AcDbEntity
8
0
100
AcDbLine
62
2
6
CONTINUOUS
10
6.9552581497
20
17.4271422009
11
7.1059139723
21
17.4271422009
0
LINE
5
348
100
AcDbEntity
8
0
100
AcDbLine
62
2
6
CONTINUOUS
10
7.2307374014
20
17.4271422009
11
7.4206883410
21
17.4271422009
0
LINE
5
349
100
AcDbEntity
8
0
100
AcDbLine
62
2
6
CONTINUOUS
10
7.5455723162
20
17.4602677090
11
7.5698516491
21
17.4602677090
0
LINE
5
34A
100
AcDbEntity
8
0
100
AcDbLine
62
7
6
CONTINUOUS
10
19.1236150000
20
18.9150000000
11
19.1236150000
21
3.1650000000
0
LINE
5
34B
100
AcDbEntity
8
DEFAULT_2
100
AcDbLine
62
8
6
CONTINUOUS
10
19.7486150000
20
18.9150000000
11
19.7486150000
21
3.1650000000
0
LINE
5
34C
100
AcDbEntity
8
0
100
AcDbLine
62
2
6
CONTINUOUS
10
6.4095019510
20
17.5683689581
11
6.5721860210
21
17.5683689581
0
LINE
5
34D
100
AcDbEntity
8
0
100
AcDbLine
62
2
6
CONTINUOUS
10
6.7595804116
20
17.5683689581
11
6.9104379350
21
17.5683689581
0
LINE
5
34E
100
AcDbEntity
8
0
100
AcDbLine
62
2
6
CONTINUOUS
10
6.7595804116
20
17.6482904891
11
6.9104379350
21
17.6482904891
0
LINE
5
34F
100
AcDbEntity
8
0
100
AcDbLine
62
2
6
CONTINUOUS
10
5.9016805531
20
17.6554668107
11
6.0496773642
21
17.6554668107
0
LINE
5
350
100
AcDbEntity
8
0
100
AcDbLine
62
2
6
CONTINUOUS
10
7.1059139723
20
17.7633738824
11
7.1582537224
21
17.7633738824
0
LINE
5
351
100
AcDbEntity
8
0
100
AcDbLine
62
2
6
CONTINUOUS
10
5.9016805531
20
17.7926720906
11
6.0496773642
21
17.7926720906
0
LINE
5
352
100
AcDbEntity
8
0
100
AcDbLine
62
2
6
CONTINUOUS
10
6.7595804116
20
17.7926720906
11
6.9104379350
21
17.7926720906
0
LINE
5
353
100
AcDbEntity
8
0
100
AcDbLine
62
2
6
CONTINUOUS
10
6.7595804116
20
17.8702964535
11
6.9104379350
21
17.8702964535
0
LINE
5
354
100
AcDbEntity
8
0
100
AcDbLine
62
2
6
CONTINUOUS
10
7.1618438537
20
17.8704770169
11
7.1059139723
21
17.8704770169
0
LINE
5
355
100
AcDbEntity
8
0
100
AcDbLine
62
2
6
CONTINUOUS
10
4.7007356096
20
18.0130558503
11
4.8752358366
21
18.0130558503
0
LINE
5
356
100
AcDbEntity
8
0
100
AcDbLine
62
2
6
CONTINUOUS
10
5.0130000033
20
18.0130558503
11
5.2050618154
21
18.0130558503
0
LINE
5
357
100
AcDbEntity
8
0
100
AcDbLine
62
2
6
CONTINUOUS
10
5.7369468732
20
18.0130558503
11
5.9016805531
21
18.0130558503
0
LINE
5
358
100
AcDbEntity
8
0
100
AcDbLine
62
2
6
CONTINUOUS
10
6.0496773642
20
18.0130558503
11
6.2144110441
21
18.0130558503
0
LINE
5
359
100
AcDbEntity
8
0
100
AcDbLine
62
2
6
CONTINUOUS
10
6.2594558883
20
18.0130558503
11
6.4095019510
21
18.0130558503
0
LINE
5
35A
100
AcDbEntity
8
0
100
AcDbLine
62
2
6
CONTINUOUS
10
6.6013337596
20
18.0130558503
11
6.9104379350
21
18.0130558503
0
LINE
5
35B
100
AcDbEntity
8
0
100
AcDbLine
62
2
6
CONTINUOUS
10
6.9552581497
20
18.0130558503
11
7.1888058503
21
18.0130558503
0
LINE
5
35C
100
AcDbEntity
8
DEFAULT_3
100
AcDbLine
62
7
6
PHANTOM
10
16.4981683584
20
18.7950000000
11
5.9990616416
21
18.7950000000
0
LINE
5
35D
100
AcDbEntity
8
0
100
AcDbLine
62
7
6
CONTINUOUS
10
4.2486150000
20
19.7900000000
11
18.2486150000
21
19.7900000000
0
LINE
5
35E
100
AcDbEntity
8
DEFAULT_2
100
AcDbLine
62
8
6
CONTINUOUS
10
4.2486150000
20
20.4150000000
11
18.2486150000
21
20.4150000000
0
LINE
5
35F
100
AcDbEntity
8
0
100
AcDbLine
62
7
6
CONTINUOUS
10
0.0000000000
20
22.0000000000
11
25.0000000000
21
22.0000000000
0
LINE
5
360
100
AcDbEntity
8
0
100
AcDbLine
62
7
6
CONTINUOUS
10
25.0000000000
20
0.0000000000
11
25.0000000000
21
22.0000000000
0
ARC
5
361
100
AcDbEntity
8
DEFAULT_2
100
AcDbCircle
62
8
6
CONTINUOUS
10
4.2486050000
20
3.1649900000
40
1.4999900000
100
AcDbArc
50
179.9996180000
51
270.0003820000
0
ARC
5
362
100
AcDbEntity
8
DEFAULT_2
100
AcDbCircle
62
8
6
CONTINUOUS
10
4.2486050000
20
18.9150100000
40
1.4999900000
100
AcDbArc
50
89.9996180000
51
180.0003820000
0
ARC
5
363
100
AcDbEntity
8
DEFAULT_2
100
AcDbCircle
62
8
6
CONTINUOUS
10
18.2486150000
20
3.1650000000
40
1.5000000000
100
AcDbArc
50
270.0000000000
51
360.0000000000
0
ARC
5
364
100
AcDbEntity
8
DEFAULT_2
100
AcDbCircle
62
8
6
CONTINUOUS
10
18.2486150000
20
18.9150000000
40
1.5000000000
100
AcDbArc
50
0.0000000000
51
90.0000000000
0
CIRCLE
5
365
100
AcDbEntity
8
0
100
AcDbCircle
62
2
6
CONTINUOUS
10
15.2533780000
20
2.6361850000
40
0.0437680000
0
CIRCLE
5
366
100
AcDbEntity
8
0
100
AcDbCircle
62
2
6
CONTINUOUS
10
5.4217750349
20
17.7189777737
40
0.2980565910
0
CIRCLE
5
367
100
AcDbEntity
8
0
100
AcDbCircle
62
2
6
CONTINUOUS
10
5.4217750349
20
17.7189777737
40
0.1247694151
0
ARC
5
368
100
AcDbEntity
8
0
100
AcDbCircle
62
2
6
CONTINUOUS
10
7.1888058503
20
17.8380463396
40
0.1750166163
100
AcDbArc
50
294.4500166359
51
90.0000000000
0
ARC
5
369
100
AcDbEntity
8
0
100
AcDbCircle
62
2
6
CONTINUOUS
10
7.1618437518
20
17.8168652819
40
0.0536117350
100
AcDbArc
50
266.1604009902
51
89.9998910512
0
CIRCLE
5
36A
100
AcDbEntity
8
0
100
AcDbCircle
62
2
6
CONTINUOUS
10
7.5614583156
20
17.4271422009
40
0.0653578721
0
ARC
5
36B
100
AcDbEntity
8
0
100
AcDbCircle
62
2
6
CONTINUOUS
10
7.5698516491
20
17.4434362594
40
0.0168314496
100
AcDbArc
50
270.0000000000
51
90.0000000000
0
CIRCLE
5
36C
100
AcDbEntity
8
___NOTE
100
AcDbCircle
62
2
6
CONTINUOUS
10
22.3842805853
20
1.0917575074
40
0.1443398113
0
CIRCLE
5
36D
100
AcDbEntity
8
___NOTE
100
AcDbCircle
62
2
6
CONTINUOUS
10
22.6729602079
20
1.0917575074
40
0.1443398113
0
SPLINE
5
36E
100
AcDbEntity
8
0
100
AcDbSpline
62
2
6
CONTINUOUS
70
0
71
3
72
39
73
35
74
33
42
0.0000001000
43
0.0000001000
44
0.0000000001
40
0.0000000000
40
0.0000000000
40
0.0000000000
40
0.0000000000
40
0.0312500000
40
0.0625000000
40
0.0937500000
40
0.1250000000
40
0.1562500000
40
0.1875000000
40
0.2187500000
40
0.2500000000
40
0.2812500000
40
0.3125000000
40
0.3437500000
40
0.3750000000
40
0.4062500000
40
0.4375000000
40
0.4687500000
40
0.5000000000
40
0.5312500000
40
0.5625000000
40
0.5937500000
40
0.6250000000
40
0.6562500000
40
0.6875000000
40
0.7187500000
40
0.7500000000
40
0.7812500000
40
0.8125000000
40
0.8437500000
40
0.8750000000
40
0.9062500000
40
0.9375000000
40
0.9687500000
40
1.0000000000
40
1.0000000000
40
1.0000000000
40
1.0000000000
10
6.4010947139
20
7.8028107726
30
0.0000000000
10
6.3941193845
20
7.8011697554
30
0.0000000000
10
6.3804914330
20
7.7965167892
30
0.0000000000
10
6.3617990435
20
7.7856914213
30
0.0000000000
10
6.3455716167
20
7.7714343913
30
0.0000000000
10
6.3324300062
20
7.7542912012
30
0.0000000000
10
6.3228770618
20
7.7349178013
30
0.0000000000
10
6.3172783022
20
7.7140554722
30
0.0000000000
10
6.3158479531
20
7.6925024659
30
0.0000000000
10
6.3186407434
20
7.6710834617
30
0.0000000000
10
6.3255498130
20
7.6506180115
30
0.0000000000
10
6.3363108013
20
7.6318891815
30
0.0000000000
10
6.3505119624
20
7.6156135900
30
0.0000000000
10
6.3676099195
20
7.6024139873
30
0.0000000000
10
6.3869504562
20
7.5927954276
30
0.0000000000
10
6.4077935486
20
7.5871259444
30
0.0000000000
10
6.4293416809
20
7.5856224682
30
0.0000000000
10
6.4507703603
20
7.5883425263
30
0.0000000000
10
6.4712596648
20
7.5951820415
30
0.0000000000
10
6.4900256152
20
7.6058793145
30
0.0000000000
10
6.5063501731
20
7.6200250374
30
0.0000000000
10
6.5196087146
20
7.6370779546
30
0.0000000000
10
6.5292939302
20
7.6563855730
30
0.0000000000
10
6.5350352360
20
7.6772091283
30
0.0000000000
10
6.5366129534
20
7.6987518523
30
0.0000000000
10
6.5339667144
20
7.7201894590
30
0.0000000000
10
6.5271977717
20
7.7407016848
30
0.0000000000
10
6.5165651242
20
7.7595036738
30
0.0000000000
10
6.5024756070
20
7.7758760082
30
0.0000000000
10
6.4854683261
20
7.7891922365
30
0.0000000000
10
6.4661940245
20
7.7989428409
30
0.0000000000
10
6.4453902060
20
7.8047547390
30
0.0000000000
10
6.4238528299
20
7.8064055390
30
0.0000000000
10
6.4095550628
20
7.8046899271
30
0.0000000000
10
6.4025579428
20
7.8031444682
30
0.0000000000
11
6.4010947139
21
7.8028107726
31
0.0000000000
11
6.3807830226
21
7.7958758028
31
0.0000000000
11
6.3622098706
21
7.7851194776
31
0.0000000000
11
6.3460859194
21
7.7709533646
31
0.0000000000
11
6.3330281172
21
7.7539194995
31
0.0000000000
11
6.3235360926
21
7.7346696464
31
0.0000000000
11
6.3179730373
21
7.7139403593
31
0.0000000000
11
6.3165518097
21
7.6925247996
31
0.0000000000
11
6.3193267900
21
7.6712423874
31
0.0000000000
11
6.3261917995
21
7.6509074482
31
0.0000000000
11
6.3368841635
21
7.6322980546
31
0.0000000000
11
6.3509947618
21
7.6161262548
31
0.0000000000
11
6.3679836828
21
7.6030108278
31
0.0000000000
11
6.3872008821
21
7.5934536070
31
0.0000000000
11
6.4079110553
21
7.5878202789
31
0.0000000000
11
6.4293217721
21
7.5863263906
31
0.0000000000
11
6.4506137978
21
7.5890291025
31
0.0000000000
11
6.4709724391
21
7.5958250011
31
0.0000000000
11
6.4896187165
21
7.6064540562
31
0.0000000000
11
6.5058391704
21
7.6205095698
31
0.0000000000
11
6.5190131603
21
7.6374537381
31
0.0000000000
11
6.5286366119
21
7.6566382291
31
0.0000000000
11
6.5343413046
21
7.6773289897
31
0.0000000000
11
6.5359089607
21
7.6987343327
31
0.0000000000
11
6.5332795971
21
7.7200352288
31
0.0000000000
11
6.5265538209
21
7.7404166453
31
0.0000000000
11
6.5159889793
21
7.7590987313
31
0.0000000000
11
6.5019893131
21
7.7753666572
31
0.0000000000
11
6.4850904893
21
7.7885979658
31
0.0000000000
11
6.4659391050
21
7.7982863899
31
0.0000000000
11
6.4452679464
21
7.8040612226
31
0.0000000000
11
6.4238679508
21
7.8057015027
31
0.0000000000
11
6.4025579428
21
7.8031444682
31
0.0000000000
0
SPLINE
5
36F
100
AcDbEntity
8
0
100
AcDbSpline
62
2
6
CONTINUOUS
70
0
71
3
72
71
73
67
74
65
42
0.0000001000
43
0.0000001000
44
0.0000000001
40
0.0000000000
40
0.0000000000
40
0.0000000000
40
0.0000000000
40
0.0156250000
40
0.0312500000
40
0.0468750000
40
0.0625000000
40
0.0781250000
40
0.0937500000
40
0.1093750000
40
0.1250000000
40
0.1406250000
40
0.1562500000
40
0.1718750000
40
0.1875000000
40
0.2031250000
40
0.2187500000
40
0.2343750000
40
0.2500000000
40
0.2656250000
40
0.2812500000
40
0.2968750000
40
0.3125000000
40
0.3281250000
40
0.3437500000
40
0.3593750000
40
0.3750000000
40
0.3906250000
40
0.4062500000
40
0.4218750000
40
0.4375000000
40
0.4531250000
40
0.4687500000
40
0.4843750000
40
0.5000000000
40
0.5156250000
40
0.5312500000
40
0.5468750000
40
0.5625000000
40
0.5781250000
40
0.5937500000
40
0.6093750000
40
0.6250000000
40
0.6406250000
40
0.6562500000
40
0.6718750000
40
0.6875000000
40
0.7031250000
40
0.7187500000
40
0.7343750000
40
0.7500000000
40
0.7656250000
40
0.7812500000
40
0.7968750000
40
0.8125000000
40
0.8281250000
40
0.8437500000
40
0.8593750000
40
0.8750000000
40
0.8906250000
40
0.9062500000
40
0.9218750000
40
0.9375000000
40
0.9531250000
40
0.9687500000
40
0.9843750000
40
1.0000000000
40
1.0000000000
40
1.0000000000
40
1.0000000000
10
9.8157305872
20
12.5434184408
30
0.0000000000
10
9.8058523277
20
12.5410940289
30
0.0000000000
10
9.7863237618
20
12.5354768175
30
0.0000000000
10
9.7579955861
20
12.5242266152
30
0.0000000000
10
9.7309037311
20
12.5102599065
30
0.0000000000
10
9.7053079676
20
12.4937106127
30
0.0000000000
10
9.6814537266
20
12.4747374200
30
0.0000000000
10
9.6595697386
20
12.4535222565
30
0.0000000000
10
9.6398658424
20
12.4302685477
30
0.0000000000
10
9.6225309724
20
12.4051992661
30
0.0000000000
10
9.6077313474
20
12.3785547933
30
0.0000000000
10
9.5956088764
20
12.3505906148
30
0.0000000000
10
9.5862797978
20
12.3215748703
30
0.0000000000
10
9.5798335653
20
12.2917857828
30
0.0000000000
10
9.5763319899
20
12.2615089905
30
0.0000000000
10
9.5758086470
20
12.2310348080
30
0.0000000000
10
9.5782685548
20
12.2006554429
30
0.0000000000
10
9.5836881261
20
12.1706621934
30
0.0000000000
10
9.5920153942
20
12.1413426552
30
0.0000000000
10
9.6031705116
20
12.1129779644
30
0.0000000000
10
9.6170465153
20
12.0858401011
30
0.0000000000
10
9.6335103527
20
12.0601892818
30
0.0000000000
10
9.6524041572
20
12.0362714641
30
0.0000000000
10
9.6735467621
20
12.0143159886
30
0.0000000000
10
9.6967354374
20
11.9945333794
30
0.0000000000
10
9.7217478342
20
11.9771133258
30
0.0000000000
10
9.7483441164
20
11.9622228632
30
0.0000000000
10
9.7762692607
20
11.9500047717
30
0.0000000000
10
9.8052555016
20
11.9405762066
30
0.0000000000
10
9.8350248990
20
11.9340275757
30
0.0000000000
10
9.8652920034
20
11.9304216715
30
0.0000000000
10
9.8957665932
20
11.9297930701
30
0.0000000000
10
9.9261564569
20
11.9321477988
30
0.0000000000
10
9.9561701957
20
11.9374632790
30
0.0000000000
10
9.9855200172
20
11.9456885421
30
0.0000000000
10
10.0139244952
20
11.9567447187
30
0.0000000000
10
10.0411112679
20
11.9705257945
30
0.0000000000
10
10.0668196499
20
11.9868996272
30
0.0000000000
10
10.0908031316
20
12.0057092131
30
0.0000000000
10
10.1128317429
20
12.0267741930
30
0.0000000000
10
10.1326942583
20
12.0498925815
30
0.0000000000
10
10.1502002223
20
12.0748427034
30
0.0000000000
10
10.1651817757
20
12.1013853199
30
0.0000000000
10
10.1774952651
20
12.1292659222
30
0.0000000000
10
10.1870226204
20
12.1582171718
30
0.0000000000
10
10.1936724865
20
12.1879614642
30
0.0000000000
10
10.1973811002
20
12.2182135908
30
0.0000000000
10
10.1981129006
20
12.2486834734
30
0.0000000000
10
10.1958608707
20
12.2790789457
30
0.0000000000
10
10.1906466045
20
12.3091085551
30
0.0000000000
10
10.1825201001
20
12.3384843571
30
0.0000000000
10
10.1715592799
20
12.3669246763
30
0.0000000000
10
10.1578692437
20
12.3941568072
30
0.0000000000
10
10.1415812612
20
12.4199196297
30
0.0000000000
10
10.1228515126
20
12.4439661119
30
0.0000000000
10
10.1018595917
20
12.4660656797
30
0.0000000000
10
10.0788067833
20
12.4860064272
30
0.0000000000
10
10.0539141338
20
12.5035971489
30
0.0000000000
10
10.0274203309
20
12.5186691729
30
0.0000000000
10
9.9995794155
20
12.5310779780
30
0.0000000000
10
9.9706583453
20
12.5407045804
30
0.0000000000
10
9.9409344355
20
12.5474566734
30
0.0000000000
10
9.9106926991
20
12.5512695132
30
0.0000000000
10
9.8802231159
20
12.5521065401
30
0.0000000000
10
9.8498178445
20
12.5499597270
30
0.0000000000
10
9.8297849144
20
12.5465530177
30
0.0000000000
10
9.8198757733
20
12.5443639519
30
0.0000000000
11
9.8157305872
21
12.5434184408
31
0.0000000000
11
9.7864845407
21
12.5350060866
31
0.0000000000
11
9.7582016395
21
12.5237738641
31
0.0000000000
11
9.7311530797
21
12.5098294757
31
0.0000000000
11
9.7055982214
21
12.4933066295
31
0.0000000000
11
9.6817821021
21
12.4743637582
31
0.0000000000
11
9.6599330872
21
12.4531824990
31
0.0000000000
11
9.6402606801
21
12.4299659522
31
0.0000000000
11
9.6229535133
21
12.4049367343
31
0.0000000000
11
9.6081775398
21
12.3783348424
31
0.0000000000
11
9.5960744418
21
12.3504153538
31
0.0000000000
11
9.5867602721
21
12.3214459798
31
0.0000000000
11
9.5803243415
21
12.2917044987
31
0.0000000000
11
9.5768283620
21
12.2614760921
31
0.0000000000
11
9.5763058555
21
12.2310506109
31
0.0000000000
11
9.5787618321
21
12.2007197955
31
0.0000000000
11
9.5841727422
21
12.1707744786
31
0.0000000000
11
9.5924867024
21
12.1415017965
31
0.0000000000
11
9.6036239926
21
12.1131824357
31
0.0000000000
11
9.6174778209
21
12.0860879418
31
0.0000000000
11
9.6339153473
21
12.0604781154
31
0.0000000000
11
9.6527789573
21
12.0365985211
31
0.0000000000
11
9.6738877738
21
12.0146781330
31
0.0000000000
11
9.6970393909
21
11.9949271387
31
0.0000000000
11
9.7220118151
21
11.9775349243
31
0.0000000000
11
9.7485655934
21
11.9626682584
31
0.0000000000
11
9.7764461102
21
11.9504696928
31
0.0000000000
11
9.8053860277
21
11.9410561956
31
0.0000000000
11
9.8351078501
21
11.9345180301
31
0.0000000000
11
9.8653265843
21
11.9309178886
31
0.0000000000
11
9.8957524722
21
11.9302902918
31
0.0000000000
11
9.9260937694
21
11.9326412574
31
0.0000000000
11
9.9560595428
21
11.9379482428
31
0.0000000000
11
9.9853624600
21
11.9461603610
31
0.0000000000
11
10.0137215443
21
11.9571988686
31
0.0000000000
11
10.0408648694
21
11.9709579207
31
0.0000000000
11
10.0665321665
21
11.9873055861
31
0.0000000000
11
10.0904773199
21
12.0060851121
31
0.0000000000
11
10.1124707269
21
12.0271164278
31
0.0000000000
11
10.1323014997
21
12.0501978704
31
0.0000000000
11
10.1497794872
21
12.0751081191
31
0.0000000000
11
10.1647370984
21
12.1016083175
31
0.0000000000
11
10.1770309094
21
12.1294443634
31
0.0000000000
11
10.1865430389
21
12.1583493456
31
0.0000000000
11
10.1931822778
21
12.1880461032
31
0.0000000000
11
10.1968849646
21
12.2182498835
31
0.0000000000
11
10.1976155955
21
12.2486710717
31
0.0000000000
11
10.1953671646
21
12.2790179686
31
0.0000000000
11
10.1901612315
21
12.3089995872
31
0.0000000000
11
10.1820477141
21
12.3383284433
31
0.0000000000
11
10.1711044106
21
12.3667233116
31
0.0000000000
11
10.1574362527
21
12.3939119225
31
0.0000000000
11
10.1411743002
21
12.4196335730
31
0.0000000000
11
10.1224744839
21
12.4436416262
31
0.0000000000
11
10.1015161104
21
12.4657058763
31
0.0000000000
11
10.0785001431
21
12.4856147563
31
0.0000000000
11
10.0536472749
21
12.5031773660
31
0.0000000000
11
10.0271958122
21
12.5182253031
31
0.0000000000
11
9.9993993897
21
12.5306142776
31
0.0000000000
11
9.9705245387
21
12.5402254955
31
0.0000000000
11
9.9408481310
21
12.5469667978
31
0.0000000000
11
9.9106547246
21
12.5507735444
31
0.0000000000
11
9.8802338345
21
12.5516092335
31
0.0000000000
11
9.8498771572
21
12.5494658519
31
0.0000000000
11
9.8198757733
21
12.5443639519
31
0.0000000000
0
SPLINE
5
370
100
AcDbEntity
8
DEFAULT_3
100
AcDbSpline
62
7
6
PHANTOM
70
0
71
3
72
15
73
11
74
9
42
0.0000001000
43
0.0000001000
44
0.0000000001
40
0.0000000000
40
0.0000000000
40
0.0000000000
40
0.0000000000
40
0.1187926969
40
0.2467919332
40
0.3736127821
40
0.5000000000
40
0.6263872179
40
0.7532080668
40
0.8812073031
40
1.0000000000
40
1.0000000000
40
1.0000000000
40
1.0000000000
10
16.4981683584
20
18.7950000000
30
0.0000000000
10
16.5990371963
20
18.7933991466
30
0.0000000000
10
16.8088864895
20
18.7709336337
30
0.0000000000
10
17.1140166589
20
18.6776969390
30
0.0000000000
10
17.4009727344
20
18.5236869077
30
0.0000000000
10
17.6514495521
20
18.3178345521
30
0.0000000000
10
17.8573019077
20
18.0673577344
30
0.0000000000
10
18.0113119390
20
17.7804016589
30
0.0000000000
10
18.1045486337
20
17.4752714895
30
0.0000000000
10
18.1270141466
20
17.2654221963
30
0.0000000000
10
18.1286150000
20
17.1645533584
30
0.0000000000
11
16.4981683584
21
18.7950000000
31
0.0000000000
11
16.7991364268
21
18.7627072030
31
0.0000000000
11
17.1108676269
21
18.6674723103
31
0.0000000000
11
17.3953980019
21
18.5147277807
31
0.0000000000
11
17.6440206379
21
18.3104056379
31
0.0000000000
11
17.8483427807
21
18.0617830019
31
0.0000000000
11
18.0010873103
21
17.7772526269
31
0.0000000000
11
18.0963222030
21
17.4655214268
31
0.0000000000
11
18.1286150000
21
17.1645533584
31
0.0000000000
0
SPLINE
5
371
100
AcDbEntity
8
DEFAULT_3
100
AcDbSpline
62
7
6
PHANTOM
70
0
71
3
72
15
73
11
74
9
42
0.0000001000
43
0.0000001000
44
0.0000000001
40
0.0000000000
40
0.0000000000
40
0.0000000000
40
0.0000000000
40
0.1187926969
40
0.2467919332
40
0.3736127821
40
0.5000000000
40
0.6263872179
40
0.7532080668
40
0.8812073031
40
1.0000000000
40
1.0000000000
40
1.0000000000
40
1.0000000000
10
4.3686150000
20
17.1645533584
30
0.0000000000
10
4.3702158534
20
17.2654221963
30
0.0000000000
10
4.3926813663
20
17.4752714895
30
0.0000000000
10
4.4859180610
20
17.7804016589
30
0.0000000000
10
4.6399280923
20
18.0673577344
30
0.0000000000
10
4.8457804479
20
18.3178345521
30
0.0000000000
10
5.0962572656
20
18.5236869077
30
0.0000000000
10
5.3832133411
20
18.6776969390
30
0.0000000000
10
5.6883435105
20
18.7709336337
30
0.0000000000
10
5.8981928037
20
18.7933991466
30
0.0000000000
10
5.9990616416
20
18.7950000000
30
0.0000000000
11
4.3686150000
21
17.1645533584
31
0.0000000000
11
4.4009077970
21
17.4655214268
31
0.0000000000
11
4.4961426897
21
17.7772526269
31
0.0000000000
11
4.6488872193
21
18.0617830019
31
0.0000000000
11
4.8532093621
21
18.3104056379
31
0.0000000000
11
5.1018319981
21
18.5147277807
31
0.0000000000
11
5.3863623731
21
18.6674723103
31
0.0000000000
11
5.6980935732
21
18.7627072030
31
0.0000000000
11
5.9990616416
21
18.7950000000
31
0.0000000000
0
SPLINE
5
372
100
AcDbEntity
8
DEFAULT_3
100
AcDbSpline
62
7
6
PHANTOM
70
0
71
3
72
15
73
11
74
9
42
0.0000001000
43
0.0000001000
44
0.0000000001
40
0.0000000000
40
0.0000000000
40
0.0000000000
40
0.0000000000
40
0.1187926969
40
0.2467919332
40
0.3736127821
40
0.5000000000
40
0.6263872179
40
0.7532080668
40
0.8812073031
40
1.0000000000
40
1.0000000000
40
1.0000000000
40
1.0000000000
10
5.9990616416
20
3.2850000000
30
0.0000000000
10
5.8981928037
20
3.2866008534
30
0.0000000000
10
5.6883435105
20
3.3090663663
30
0.0000000000
10
5.3832133411
20
3.4023030610
30
0.0000000000
10
5.0962572656
20
3.5563130923
30
0.0000000000
10
4.8457804479
20
3.7621654479
30
0.0000000000
10
4.6399280923
20
4.0126422656
30
0.0000000000
10
4.4859180610
20
4.2995983411
30
0.0000000000
10
4.3926813663
20
4.6047285105
30
0.0000000000
10
4.3702158534
20
4.8145778037
30
0.0000000000
10
4.3686150000
20
4.9154466416
30
0.0000000000
11
5.9990616416
21
3.2850000000
31
0.0000000000
11
5.6980935732
21
3.3172927970
31
0.0000000000
11
5.3863623731
21
3.4125276897
31
0.0000000000
11
5.1018319981
21
3.5652722193
31
0.0000000000
11
4.8532093621
21
3.7695943621
31
0.0000000000
11
4.6488872193
21
4.0182169981
31
0.0000000000
11
4.4961426897
21
4.3027473731
31
0.0000000000
11
4.4009077970
21
4.6144785732
31
0.0000000000
11
4.3686150000
21
4.9154466416
31
0.0000000000
0
SPLINE
5
373
100
AcDbEntity
8
DEFAULT_3
100
AcDbSpline
62
7
6
PHANTOM
70
0
71
3
72
15
73
11
74
9
42
0.0000001000
43
0.0000001000
44
0.0000000001
40
0.0000000000
40
0.0000000000
40
0.0000000000
40
0.0000000000
40
0.1187926969
40
0.2467919332
40
0.3736127821
40
0.5000000000
40
0.6263872179
40
0.7532080668
40
0.8812073031
40
1.0000000000
40
1.0000000000
40
1.0000000000
40
1.0000000000
10
18.1286150000
20
4.9154466416
30
0.0000000000
10
18.1270141466
20
4.8145778037
30
0.0000000000
10
18.1045486337
20
4.6047285105
30
0.0000000000
10
18.0113119390
20
4.2995983411
30
0.0000000000
10
17.8573019077
20
4.0126422656
30
0.0000000000
10
17.6514495521
20
3.7621654479
30
0.0000000000
10
17.4009727344
20
3.5563130923
30
0.0000000000
10
17.1140166589
20
3.4023030610
30
0.0000000000
10
16.8088864895
20
3.3090663663
30
0.0000000000
10
16.5990371963
20
3.2866008534
30
0.0000000000
10
16.4981683584
20
3.2850000000
30
0.0000000000
11
18.1286150000
21
4.9154466416
31
0.0000000000
11
18.0963222030
21
4.6144785732
31
0.0000000000
11
18.0010873103
21
4.3027473731
31
0.0000000000
11
17.8483427807
21
4.0182169981
31
0.0000000000
11
17.6440206379
21
3.7695943621
31
0.0000000000
11
17.3953980019
21
3.5652722193
31
0.0000000000
11
17.1108676269
21
3.4125276897
31
0.0000000000
11
16.7991364268
21
3.3172927970
31
0.0000000000
11
16.4981683584
21
3.2850000000
31
0.0000000000
0
SPLINE
5
374
100
AcDbEntity
8
0
100
AcDbSpline
62
7
6
CONTINUOUS
70
0
71
3
72
23
73
19
74
17
42
0.0000001000
43
0.0000001000
44
0.0000000001
40
0.0000000000
40
0.0000000000
40
0.0000000000
40
0.0000000000
40
0.0625000000
40
0.1250000000
40
0.1875000000
40
0.2500000000
40
0.3125000000
40
0.3750000000
40
0.4375000000
40
0.5000000000
40
0.5625000000
40
0.6250000000
40
0.6875000000
40
0.7500000000
40
0.8125000000
40
0.8750000000
40
0.9375000000
40
1.0000000000
40
1.0000000000
40
1.0000000000
40
1.0000000000
10
3.3736145470
20
3.1650008990
30
0.0000000000
10
3.3736144644
20
3.1363665435
30
0.0000000000
10
3.3764277484
20
3.0790978615
30
0.0000000000
10
3.3890473814
20
2.9940220354
30
0.0000000000
10
3.4099451858
20
2.9105927963
30
0.0000000000
10
3.4389199014
20
2.8296136106
30
0.0000000000
10
3.4756924821
20
2.7518643664
30
0.0000000000
10
3.5199087830
20
2.6780938407
30
0.0000000000
10
3.5711429711
20
2.6090124940
30
0.0000000000
10
3.6289016264
20
2.5452856264
30
0.0000000000
10
3.6926284940
20
2.4875269711
30
0.0000000000
10
3.7617098407
20
2.4362927830
30
0.0000000000
10
3.8354803664
20
2.3920764821
30
0.0000000000
10
3.9132296106
20
2.3553039014
30
0.0000000000
10
3.9942087963
20
2.3263291858
30
0.0000000000
10
4.0776380354
20
2.3054313814
30
0.0000000000
10
4.1627138615
20
2.2928117484
30
0.0000000000
10
4.2199825435
20
2.2899984644
30
0.0000000000
10
4.2486168990
20
2.2899985470
30
0.0000000000
11
3.3736145470
21
3.1650008990
31
0.0000000000
11
3.3778276996
21
3.0792357276
31
0.0000000000
11
3.3904270767
21
2.9942964665
31
0.0000000000
11
3.4112913376
21
2.9110011386
31
0.0000000000
11
3.4402195455
21
2.8301519342
31
0.0000000000
11
3.4769331021
21
2.7525274861
31
0.0000000000
11
3.5210784308
21
2.6788753705
31
0.0000000000
11
3.5722303823
21
2.6099049072
31
0.0000000000
11
3.6298963285
21
2.5462803285
31
0.0000000000
11
3.6935209072
21
2.4886143823
31
0.0000000000
11
3.7624913705
21
2.4374624308
31
0.0000000000
11
3.8361434861
21
2.3933171021
31
0.0000000000
11
3.9137679342
21
2.3566035455
31
0.0000000000
11
3.9946171386
21
2.3276753376
31
0.0000000000
11
4.0779124665
21
2.3068110767
31
0.0000000000
11
4.1628517276
21
2.2942116996
31
0.0000000000
11
4.2486168990
21
2.2899985470
31
0.0000000000
0
SPLINE
5
375
100
AcDbEntity
8
0
100
AcDbSpline
62
7
6
CONTINUOUS
70
0
71
3
72
23
73
19
74
17
42
0.0000001000
43
0.0000001000
44
0.0000000001
40
0.0000000000
40
0.0000000000
40
0.0000000000
40
0.0000000000
40
0.0625000000
40
0.1250000000
40
0.1875000000
40
0.2500000000
40
0.3125000000
40
0.3750000000
40
0.4375000000
40
0.5000000000
40
0.5625000000
40
0.6250000000
40
0.6875000000
40
0.7500000000
40
0.8125000000
40
0.8750000000
40
0.9375000000
40
1.0000000000
40
1.0000000000
40
1.0000000000
40
1.0000000000
10
4.2486180849
20
19.7900014428
30
0.0000000000
10
4.2199837542
20
19.7900015601
30
0.0000000000
10
4.1627150988
20
19.7871883310
30
0.0000000000
10
4.0776392529
20
19.7745687368
30
0.0000000000
10
3.9942099443
20
19.7536709286
30
0.0000000000
10
3.9132306496
20
19.7246961690
30
0.0000000000
10
3.8354812673
20
19.6879235079
30
0.0000000000
10
3.7617105847
20
19.6437070952
30
0.0000000000
10
3.6926290724
20
19.5924727701
30
0.0000000000
10
3.6289020402
20
19.5347139598
30
0.0000000000
10
3.5711432299
20
19.4709869276
30
0.0000000000
10
3.5199089048
20
19.4019054153
30
0.0000000000
10
3.4756924921
20
19.3281347327
30
0.0000000000
10
3.4389198310
20
19.2503853504
30
0.0000000000
10
3.4099450714
20
19.1694060557
30
0.0000000000
10
3.3890472632
20
19.0859767471
30
0.0000000000
10
3.3764276690
20
19.0009009012
30
0.0000000000
10
3.3736144399
20
18.9436322458
30
0.0000000000
10
3.3736145572
20
18.9149979151
30
0.0000000000
11
4.2486180849
21
19.7900014428
31
0.0000000000
11
4.1628529550
21
19.7857883726
31
0.0000000000
11
4.0779136758
21
19.7731890345
31
0.0000000000
11
3.9946182800
21
19.7523247701
31
0.0000000000
11
3.9137689683
21
19.7233965188
31
0.0000000000
11
3.8361443839
21
19.6866828826
31
0.0000000000
11
3.7624921131
21
19.6425374431
31
0.0000000000
11
3.6935214858
21
19.5913853559
31
0.0000000000
11
3.6298967438
21
19.5337192562
31
0.0000000000
11
3.5722306441
21
19.4700945142
31
0.0000000000
11
3.5210785569
21
19.4011238869
31
0.0000000000
11
3.4769331174
21
19.3274716161
31
0.0000000000
11
3.4402194812
21
19.2498470317
31
0.0000000000
11
3.4112912299
21
19.1689977200
31
0.0000000000
11
3.3904269655
21
19.0857023242
31
0.0000000000
11
3.3778276274
21
19.0007630450
31
0.0000000000
11
3.3736145572
21
18.9149979151
31
0.0000000000
0
SPLINE
5
376
100
AcDbEntity
8
0
100
AcDbSpline
62
7
6
CONTINUOUS
70
0
71
3
72
23
73
19
74
17
42
0.0000001000
43
0.0000001000
44
0.0000000001
40
0.0000000000
40
0.0000000000
40
0.0000000000
40
0.0000000000
40
0.0625000000
40
0.1250000000
40
0.1875000000
40
0.2500000000
40
0.3125000000
40
0.3750000000
40
0.4375000000
40
0.5000000000
40
0.5625000000
40
0.6250000000
40
0.6875000000
40
0.7500000000
40
0.8125000000
40
0.8750000000
40
0.9375000000
40
1.0000000000
40
1.0000000000
40
1.0000000000
40
1.0000000000
10
18.2486121010
20
2.2899985470
30
0.0000000000
10
18.2772464565
20
2.2899984644
30
0.0000000000
10
18.3345151385
20
2.2928117484
30
0.0000000000
10
18.4195909646
20
2.3054313814
30
0.0000000000
10
18.5030202037
20
2.3263291858
30
0.0000000000
10
18.5839993894
20
2.3553039014
30
0.0000000000
10
18.6617486336
20
2.3920764821
30
0.0000000000
10
18.7355191593
20
2.4362927830
30
0.0000000000
10
18.8046005060
20
2.4875269711
30
0.0000000000
10
18.8683273736
20
2.5452856264
30
0.0000000000
10
18.9260860289
20
2.6090124940
30
0.0000000000
10
18.9773202170
20
2.6780938407
30
0.0000000000
10
19.0215365179
20
2.7518643664
30
0.0000000000
10
19.0583090986
20
2.8296136106
30
0.0000000000
10
19.0872838142
20
2.9105927963
30
0.0000000000
10
19.1081816186
20
2.9940220354
30
0.0000000000
10
19.1208012516
20
3.0790978615
30
0.0000000000
10
19.1236145356
20
3.1363665435
30
0.0000000000
10
19.1236144530
20
3.1650008990
30
0.0000000000
11
18.2486121010
21
2.2899985470
31
0.0000000000
11
18.3343772724
21
2.2942116996
31
0.0000000000
11
18.4193165335
21
2.3068110767
31
0.0000000000
11
18.5026118614
21
2.3276753376
31
0.0000000000
11
18.5834610658
21
2.3566035455
31
0.0000000000
11
18.6610855139
21
2.3933171021
31
0.0000000000
11
18.7347376295
21
2.4374624308
31
0.0000000000
11
18.8037080928
21
2.4886143823
31
0.0000000000
11
18.8673326715
21
2.5462803285
31
0.0000000000
11
18.9249986177
21
2.6099049072
31
0.0000000000
11
18.9761505692
21
2.6788753705
31
0.0000000000
11
19.0202958979
21
2.7525274861
31
0.0000000000
11
19.0570094545
21
2.8301519342
31
0.0000000000
11
19.0859376624
21
2.9110011386
31
0.0000000000
11
19.1068019233
21
2.9942964665
31
0.0000000000
11
19.1194013004
21
3.0792357276
31
0.0000000000
11
19.1236144530
21
3.1650008990
31
0.0000000000
0
SPLINE
5
377
100
AcDbEntity
8
0
100
AcDbSpline
62
7
6
CONTINUOUS
70
0
71
3
72
23
73
19
74
17
42
0.0000001000
43
0.0000001000
44
0.0000000001
40
0.0000000000
40
0.0000000000
40
0.0000000000
40
0.0000000000
40
0.0625000000
40
0.1250000000
40
0.1875000000
40
0.2500000000
40
0.3125000000
40
0.3750000000
40
0.4375000000
40
0.5000000000
40
0.5625000000
40
0.6250000000
40
0.6875000000
40
0.7500000000
40
0.8125000000
40
0.8750000000
40
0.9375000000
40
1.0000000000
40
1.0000000000
40
1.0000000000
40
1.0000000000
10
19.1236144530
20
18.9149991010
30
0.0000000000
10
19.1236145356
20
18.9436334565
30
0.0000000000
10
19.1208012516
20
19.0009021385
30
0.0000000000
10
19.1081816186
20
19.0859779646
30
0.0000000000
10
19.0872838142
20
19.1694072037
30
0.0000000000
10
19.0583090986
20
19.2503863894
30
0.0000000000
10
19.0215365179
20
19.3281356336
30
0.0000000000
10
18.9773202170
20
19.4019061593
30
0.0000000000
10
18.9260860289
20
19.4709875060
30
0.0000000000
10
18.8683273736
20
19.5347143736
30
0.0000000000
10
18.8046005060
20
19.5924730289
30
0.0000000000
10
18.7355191593
20
19.6437072170
30
0.0000000000
10
18.6617486336
20
19.6879235179
30
0.0000000000
10
18.5839993894
20
19.7246960986
30
0.0000000000
10
18.5030202037
20
19.7536708142
30
0.0000000000
10
18.4195909646
20
19.7745686186
30
0.0000000000
10
18.3345151385
20
19.7871882516
30
0.0000000000
10
18.2772464565
20
19.7900015356
30
0.0000000000
10
18.2486121010
20
19.7900014530
30
0.0000000000
11
19.1236144530
21
18.9149991010
31
0.0000000000
11
19.1194013004
21
19.0007642724
31
0.0000000000
11
19.1068019233
21
19.0857035335
31
0.0000000000
11
19.0859376624
21
19.1689988614
31
0.0000000000
11
19.0570094545
21
19.2498480658
31
0.0000000000
11
19.0202958979
21
19.3274725139
31
0.0000000000
11
18.9761505692
21
19.4011246295
31
0.0000000000
11
18.9249986177
21
19.4700950928
31
0.0000000000
11
18.8673326715
21
19.5337196715
31
0.0000000000
11
18.8037080928
21
19.5913856177
31
0.0000000000
11
18.7347376295
21
19.6425375692
31
0.0000000000
11
18.6610855139
21
19.6866828979
31
0.0000000000
11
18.5834610658
21
19.7233964545
31
0.0000000000
11
18.5026118614
21
19.7523246624
31
0.0000000000
11
18.4193165335
21
19.7731889233
31
0.0000000000
11
18.3343772724
21
19.7857883004
31
0.0000000000
11
18.2486121010
21
19.7900014530
31
0.0000000000
0
ENDSEC
0
SECTION
2
OBJECTS
0
DICTIONARY
5
378
100
AcDbDictionary
3
ACAD_GROUP
350
379
3
ACAD_MLINESTYLE
350
37A
0
DICTIONARY
5
379
102
{ACAD_REACTORS
330
378
102
}
100
AcDbDictionary
0
DICTIONARY
5
37A
102
{ACAD_REACTORS
330
378
102
}
100
AcDbDictionary
3
STANDARD
350
37B
0
MLINESTYLE
5
37B
102
{ACAD_REACTORS
330
37A
102
}
100
AcDbMlineStyle
2
STANDARD
70
0
3

62
256
51
90.0
52
90.0
71
2
49
0.5
62
256
6
BYLAYER
49
-0.5
62
256
6
BYLAYER
0
ENDSEC
0
EOF
