999
DXF file: 113197-7.dxf
999
Pro/ENGINEER 2003490 by Parametric Technology Corporation
0
SECTION
2
HEADER
9
$ACADVER
1
AC1014
9
$EXTMAX
10
34.0000000000
20
22.0000000000
30
0.0000000000
9
$EXTMIN
10
0.0000000000
20
0.0000000000
30
0.0000000000
9
$LIMMIN
10
0.0000000000
20
0.0000000000
9
$LIMMAX
10
34.0000000000
20
22.0000000000
9
$VIEWCTR
10
17.0000000000
20
11.0000000000
9
$VIEWSIZE
40
22.0000000000
9
$CLAYER
8
0
9
$LTSCALE
40
1.8700000000
9
$CELTYPE
6
BYLAYER
9
$DIMSCALE
40
1
9
$DIMASZ
40
0.1875000000
9
$DIMEXO
40
0.2125000000
9
$DIMDLI
40
1.2920000000
9
$DIMEXE
40
0.6120000000
9
$DIMCEN
40
0.3060000000
9
$DIMLFAC
40
1.0000000000
9
$DIMBLK
1
_FILLED
9
$DIMTXT
40
0.1562500000
9
$DIMTOL
70
1
9
$DIMLIM
70
0
9
$DIMTFAC
40
1.0000000000
9
$DIMTP
40
0.0100000000
9
$DIMTM
40
0.0100000000
9
$PDMODE
70
3
9
$PDSIZE
40
0.3125000000
9
$HANDSEED
5
38E
9
$MEASUREMENT
70
0
0
ENDSEC
0
SECTION
2
CLASSES
0
ENDSEC
0
SECTION
2
TABLES
0
TABLE
2
VPORT
5
8
100
AcDbSymbolTable
70
2
0
VPORT
5
1F4
100
AcDbSymbolTableRecord
100
AcDbViewportTableRecord
2
*ACTIVE
70
0
10
0.0
20
0.0
11
1.0
21
1.0
12
17.0000000000
22
11.0000000000
13
0.0
23
0.0
14
1.0
24
1.0
15
0.0
25
0.0
16
0.0
26
0.0
36
1.0
17
0.0
27
0.0
37
0.0
40
22.0000000000
41
1.5454545455
42
50.0
43
0.0
44
0.0
50
0.0
51
0.0
71
0
72
100
73
1
74
1
75
0
76
0
77
0
78
0
0
ENDTAB
0
TABLE
2
LTYPE
5
5
100
AcDbSymbolTable
70
6
0
LTYPE
5
14
100
AcDbSymbolTableRecord
100
AcDbLinetypeTableRecord
2
BYBLOCK
70
0
3

72
65
73
0
40
0.0
0
LTYPE
5
15
100
AcDbSymbolTableRecord
100
AcDbLinetypeTableRecord
2
BYLAYER
70
0
3

72
65
73
0
40
0.0
0
LTYPE
5
16
100
AcDbSymbolTableRecord
100
AcDbLinetypeTableRecord
2
CONTINUOUS
70
64
3
Solid line
72
65
73
0
40
0
0
LTYPE
5
1F5
100
AcDbSymbolTableRecord
100
AcDbLinetypeTableRecord
2
CENTER
70
64
3
____ _ ____ _ ____ _ ____ _ ____ _ ____ _ ____
72
65
73
4
40
0.6
49
0.375
74
0
49
-0.075
74
0
49
0.075
74
0
49
-0.075
74
0
0
LTYPE
5
1F6
100
AcDbSymbolTableRecord
100
AcDbLinetypeTableRecord
2
HIDDEN
70
64
3
- - - - - - - - - - - - - - - - - - - -
72
65
73
2
40
0.2
49
0.1
74
0
49
-0.1
74
0
0
LTYPE
5
1F7
100
AcDbSymbolTableRecord
100
AcDbLinetypeTableRecord
2
PHANTOM
70
64
3
_____ _ _ _____ _ _ _____ _ _ _____
72
65
73
6
40
0.8
49
0.45
74
0
49
-0.05
74
0
49
0.1
74
0
49
-0.05
74
0
49
0.1
74
0
49
-0.05
74
0
0
LTYPE
5
1F8
100
AcDbSymbolTableRecord
100
AcDbLinetypeTableRecord
2
DOT
70
64
3
. . . . . . . . . . . . . . . . . . . .
72
65
73
2
40
0.2
49
0.1
74
0
49
-0.1
74
0
0
LTYPE
5
1F9
100
AcDbSymbolTableRecord
100
AcDbLinetypeTableRecord
2
DASHED
70
64
3
- - - - - - - - - - - - - - - - - - - -
72
65
73
2
40
0.2
49
0.1
74
0
49
-0.1
74
0
0
ENDTAB
0
TABLE
2
LAYER
5
2
100
AcDbSymbolTable
70
36
0
LAYER
5
10
100
AcDbSymbolTableRecord
100
AcDbLayerTableRecord
2
0
70
0
62
7
6
CONTINUOUS
0
LAYER
5
1FA
100
AcDbSymbolTableRecord
100
AcDbLayerTableRecord
2
DEFAULT_1
70
0
62
7
6
CENTER
0
LAYER
5
1FB
100
AcDbSymbolTableRecord
100
AcDbLayerTableRecord
2
DEFAULT_2
70
0
62
8
6
HIDDEN
0
LAYER
5
1FC
100
AcDbSymbolTableRecord
100
AcDbLayerTableRecord
2
DEFAULT_3
70
0
62
7
6
PHANTOM
0
LAYER
5
1FD
100
AcDbSymbolTableRecord
100
AcDbLayerTableRecord
2
DATUMS
70
0
62
7
6
CONTINUOUS
0
LAYER
5
1FE
100
AcDbSymbolTableRecord
100
AcDbLayerTableRecord
2
DATUM_AXIS
70
0
62
7
6
CONTINUOUS
0
LAYER
5
1FF
100
AcDbSymbolTableRecord
100
AcDbLayerTableRecord
2
DATUM_CSYS
70
0
62
7
6
CONTINUOUS
0
LAYER
5
200
100
AcDbSymbolTableRecord
100
AcDbLayerTableRecord
2
DATUM_PLANE
70
0
62
7
6
CONTINUOUS
0
LAYER
5
201
100
AcDbSymbolTableRecord
100
AcDbLayerTableRecord
2
DATUM_POINT
70
0
62
7
6
CONTINUOUS
0
LAYER
5
202
100
AcDbSymbolTableRecord
100
AcDbLayerTableRecord
2
_CURVE
70
0
62
7
6
CONTINUOUS
0
LAYER
5
203
100
AcDbSymbolTableRecord
100
AcDbLayerTableRecord
2
_SURFACE
70
0
62
7
6
CONTINUOUS
0
LAYER
5
204
100
AcDbSymbolTableRecord
100
AcDbLayerTableRecord
2
__REF_CURVE
70
0
62
7
6
CONTINUOUS
0
LAYER
5
205
100
AcDbSymbolTableRecord
100
AcDbLayerTableRecord
2
__REF_SURFACE
70
0
62
7
6
CONTINUOUS
0
LAYER
5
206
100
AcDbSymbolTableRecord
100
AcDbLayerTableRecord
2
___NOTE
70
0
62
7
6
CONTINUOUS
0
LAYER
5
207
100
AcDbSymbolTableRecord
100
AcDbLayerTableRecord
2
___SYMBOL
70
0
62
7
6
CONTINUOUS
0
ENDTAB
0
TABLE
2
STYLE
5
3
100
AcDbSymbolTable
70
1
0
STYLE
5
11
100
AcDbSymbolTableRecord
100
AcDbTextStyleTableRecord
2
STANDARD
70
0
40
0.0
41
0.8000000000
50
0.0
71
0
42
0.2
3
txt
4

0
ENDTAB
0
TABLE
2
VIEW
5
6
100
AcDbSymbolTable
70
0
0
ENDTAB
0
TABLE
2
UCS
5
7
100
AcDbSymbolTable
70
0
0
ENDTAB
0
TABLE
2
APPID
5
9
100
AcDbSymbolTable
70
1
0
APPID
5
208
100
AcDbSymbolTableRecord
100
AcDbRegAppTableRecord
2
ACAD
70
0
0
ENDTAB
0
TABLE
2
DIMSTYLE
5
A
100
AcDbSymbolTable
70
1
0
DIMSTYLE
105
209
100
AcDbSymbolTableRecord
100
AcDbDimStyleTableRecord
2
STANDARD
70
0
3

4

5
_FILLED
6
_FILLED
7
_FILLED
40
1.0
41
0.1875000000
42
0.0625
43
0.38
44
0.18
45
0.0
46
0.0
47
0.0100000000
48
0.0100000000
140
0.1562500000
141
0.09
142
0.0
143
25.4
144
1.0000000000
145
0.0
146
1.0000000000
147
0.09
71
1
72
0
73
1
74
1
75
0
76
0
77
0
78
4
170
0
171
2
172
0
173
0
174
0
175
0
176
0
177
0
178
0
270
2
271
3
272
3
273
2
274
2
340
11
275
0
280
0
281
0
282
0
283
1
284
4
285
0
286
0
287
3
288
0
0
DIMSTYLE
105
20A
100
AcDbSymbolTableRecord
100
AcDbDimStyleTableRecord
2
DIMSTYLE_1
70
0
3

4

5
_FILLED
6
_FILLED
7
_FILLED
40
1.0
41
0.1875000000
42
0.0625
43
0.38
44
0.18
45
0.0
46
0.0
47
0.0625000000
48
0.0625000000
140
0.1562500000
141
0.09
142
0.0
143
25.4
144
1.0000000000
145
0.0
146
1.0000000000
147
0.09
71
0
72
0
73
1
74
1
75
0
76
0
77
0
78
4
170
0
171
2
172
0
173
0
174
0
175
0
176
0
177
0
178
0
270
2
271
4
272
4
273
2
274
2
340
11
275
0
280
0
281
0
282
0
283
1
284
4
285
0
286
0
287
3
288
0
0
ENDTAB
0
TABLE
2
BLOCK_RECORD
5
1
100
AcDbSymbolTable
70
0
0
BLOCK_RECORD
5
1B
100
AcDbSymbolTableRecord
100
AcDbBlockTableRecord
2
*MODEL_SPACE
0
BLOCK_RECORD
5
1C
100
AcDbSymbolTableRecord
100
AcDbBlockTableRecord
2
*PAPER_SPACE
0
BLOCK_RECORD
5
20B
100
AcDbSymbolTableRecord
100
AcDbBlockTableRecord
2
_FILLED
0
BLOCK_RECORD
5
20C
100
AcDbSymbolTableRecord
100
AcDbBlockTableRecord
2
*D0
0
BLOCK_RECORD
5
20D
100
AcDbSymbolTableRecord
100
AcDbBlockTableRecord
2
*D1
0
BLOCK_RECORD
5
20E
100
AcDbSymbolTableRecord
100
AcDbBlockTableRecord
2
COPYRIGHT_YEAR_BL0
0
BLOCK_RECORD
5
20F
100
AcDbSymbolTableRecord
100
AcDbBlockTableRecord
2
CUT-OUT_TEMPLATE_SKU_SIN_BL1
0
BLOCK_RECORD
5
210
100
AcDbSymbolTableRecord
100
AcDbBlockTableRecord
2
PACKAGING_UPC_BL2
0
BLOCK_RECORD
5
211
100
AcDbSymbolTableRecord
100
AcDbBlockTableRecord
2
TEMPLATE_NUMBER_BL3
0
BLOCK_RECORD
5
212
100
AcDbSymbolTableRecord
100
AcDbBlockTableRecord
2
TEMPLATE_NUMBER_BL4
0
BLOCK_RECORD
5
213
100
AcDbSymbolTableRecord
100
AcDbBlockTableRecord
2
WHEN_PLOTTING_TEMPLATE_N_BL5
0
ENDTAB
0
ENDSEC
0
SECTION
2
BLOCKS
0
BLOCK
5
1E
100
AcDbEntity
8
0
100
AcDbBlockBegin
2
*MODEL_SPACE
70
0
10
0.0
20
0.0
30
0.0
3
*MODEL_SPACE
1

0
ENDBLK
5
1F
100
AcDbEntity
8
0
100
AcDbBlockEnd
0
BLOCK
5
20
100
AcDbEntity
8
0
100
AcDbBlockBegin
2
*PAPER_SPACE
70
0
10
0.0
20
0.0
30
0.0
3
*PAPER_SPACE
1

0
ENDBLK
5
21
100
AcDbEntity
8
0
100
AcDbBlockEnd
0
BLOCK
5
214
100
AcDbEntity
8
0
100
AcDbBlockBegin
62
2
6
CONTINUOUS
2
*D0
70
65
10
0.0000000000
20
0.0000000000
3
*D0
1

0
TEXT
5
215
100
AcDbEntity
8
0
100
AcDbText
62
2
6
CONTINUOUS
10
13.2160091881
20
6.9738282594
7
STANDARD
40
0.1562500000
1
"
41
0.8000000000
72
0
100
AcDbText
0
TEXT
5
216
100
AcDbEntity
8
0
100
AcDbText
62
2
6
CONTINUOUS
10
12.4660091881
20
6.7394532594
7
STANDARD
40
0.1562500000
1
[39,1 cm]
41
0.8000000000
72
0
100
AcDbText
0
TEXT
5
217
100
AcDbEntity
8
0
100
AcDbText
62
2
6
CONTINUOUS
10
12.4660091881
20
6.9738282594
7
STANDARD
40
0.1562500000
1
15-3/8
41
0.8000000000
72
0
100
AcDbText
0
LINE
5
218
100
AcDbEntity
8
0
100
AcDbLine
62
2
6
CONTINUOUS
10
12.9313795413
20
18.6903214274
11
12.7785091881
21
18.6903214274
0
LINE
5
219
100
AcDbEntity
8
0
100
AcDbLine
62
2
6
CONTINUOUS
10
12.9313795413
20
3.3103214274
11
12.7785091881
21
3.3103214274
0
LINE
5
21A
100
AcDbEntity
8
0
100
AcDbLine
62
2
6
CONTINUOUS
10
12.9035091881
20
18.6903214274
11
12.9035091881
21
7.2082032594
0
LINE
5
21B
100
AcDbEntity
8
0
100
AcDbLine
62
2
6
CONTINUOUS
10
12.9035091881
20
3.3103214274
11
12.9035091881
21
6.6613282594
0
INSERT
5
21C
100
AcDbEntity
8
0
100
AcDbBlockReference
62
2
6
CONTINUOUS
2
_FILLED
10
12.9035091881
20
18.6903214274
41
  0.187500
42
  0.187500
43
  0.187500
50
 90.000000
0
INSERT
5
21D
100
AcDbEntity
8
0
100
AcDbBlockReference
62
2
6
CONTINUOUS
2
_FILLED
10
12.9035091881
20
3.3103214274
41
  0.187500
42
  0.187500
43
  0.187500
50
270.000000
0
ENDBLK
5
21E
100
AcDbEntity
8
0
6
BYBLOCK
62
0
100
AcDbBlockEnd
0
BLOCK
5
21F
100
AcDbEntity
8
0
100
AcDbBlockBegin
62
2
6
CONTINUOUS
2
*D1
70
65
10
0.0000000000
20
0.0000000000
3
*D1
1

0
TEXT
5
220
100
AcDbEntity
8
0
100
AcDbText
62
2
6
CONTINUOUS
10
12.0543830353
20
10.5914228154
7
STANDARD
40
0.1562500000
1
"
41
0.8000000000
72
0
100
AcDbText
0
TEXT
5
221
100
AcDbEntity
8
0
100
AcDbText
62
2
6
CONTINUOUS
10
11.3043830353
20
10.3570478154
7
STANDARD
40
0.1562500000
1
[34,9 cm]
41
0.8000000000
72
0
100
AcDbText
0
TEXT
5
222
100
AcDbEntity
8
0
100
AcDbText
62
2
6
CONTINUOUS
10
11.3043830353
20
10.5914228154
7
STANDARD
40
0.1562500000
1
13-3/4
41
0.8000000000
72
0
100
AcDbText
0
LINE
5
223
100
AcDbEntity
8
0
100
AcDbLine
62
2
6
CONTINUOUS
10
19.8688795413
20
10.9378214274
11
19.8688795413
21
10.5445478154
0
LINE
5
224
100
AcDbEntity
8
0
100
AcDbLine
62
2
6
CONTINUOUS
10
6.1188795413
20
10.9378214274
11
6.1188795413
21
10.5445478154
0
LINE
5
225
100
AcDbEntity
8
0
100
AcDbLine
62
2
6
CONTINUOUS
10
19.8688795413
20
10.6695478154
11
12.5075080353
21
10.6695478154
0
LINE
5
226
100
AcDbEntity
8
0
100
AcDbLine
62
2
6
CONTINUOUS
10
6.1188795413
20
10.6695478154
11
11.2262580353
21
10.6695478154
0
INSERT
5
227
100
AcDbEntity
8
0
100
AcDbBlockReference
62
2
6
CONTINUOUS
2
_FILLED
10
19.8688795413
20
10.6695478154
41
  0.187500
42
  0.187500
43
  0.187500
0
INSERT
5
228
100
AcDbEntity
8
0
100
AcDbBlockReference
62
2
6
CONTINUOUS
2
_FILLED
10
6.1188795413
20
10.6695478154
41
  0.187500
42
  0.187500
43
  0.187500
50
180.000000
0
ENDBLK
5
229
100
AcDbEntity
8
0
6
BYBLOCK
62
0
100
AcDbBlockEnd
0
BLOCK
5
22A
100
AcDbEntity
8
___SYMBOL
100
AcDbBlockBegin
62
2
6
CONTINUOUS
2
COPYRIGHT_YEAR_BL0
70
64
10
14.8957687265
20
3.5427879877
3
COPYRIGHT_YEAR_BL0
1

0
TEXT
5
22B
100
AcDbEntity
8
___SYMBOL
100
AcDbText
62
2
6
CONTINUOUS
10
14.5220784230
20
3.5075144877
7
STANDARD
40
0.0704997506
1
2004
41
0.8000000000
72
0
100
AcDbText
0
TEXT
5
22C
100
AcDbEntity
8
___SYMBOL
100
AcDbText
62
2
6
CONTINUOUS
10
14.7476776248
20
3.5075144877
7
STANDARD
40
0.0704997506
1
 KOHLER CO.
41
0.8000000000
72
0
100
AcDbText
0
TEXT
5
22D
100
AcDbEntity
8
___SYMBOL
100
AcDbText
62
7
6
CONTINUOUS
10
14.4420529570
20
3.5239994296
7
STANDARD
40
0.0421873503
1
C
41
1.0000000000
72
0
100
AcDbText
0
CIRCLE
5
22E
100
AcDbEntity
8
___SYMBOL
100
AcDbCircle
62
7
6
CONTINUOUS
10
14.4562879065
20
3.5452356043
40
0.0328258835
0
ENDBLK
5
22F
100
AcDbEntity
8
0
6
BYBLOCK
62
0
100
AcDbBlockEnd
0
BLOCK
5
230
100
AcDbEntity
8
___SYMBOL
100
AcDbBlockBegin
62
2
6
CONTINUOUS
2
CUT-OUT_TEMPLATE_SKU_SIN_BL1
70
64
10
10.2375638552
20
14.2178182929
3
CUT-OUT_TEMPLATE_SKU_SIN_BL1
1

0
TEXT
5
231
100
AcDbEntity
8
___SYMBOL
100
AcDbText
62
2
6
CONTINUOUS
10
7.8375637699
20
15.8786308504
7
STANDARD
40
0.2500000089
1
CUT-OUT TEMPLATE
41
0.8000000000
72
0
100
AcDbText
0
TEXT
5
232
100
AcDbEntity
8
___SYMBOL
100
AcDbText
62
2
6
CONTINUOUS
10
7.8375637699
20
15.5036308371
7
STANDARD
40
0.2500000089
1
UNDERCOUNTER SINK
41
0.8000000000
72
0
100
AcDbText
0
TEXT
5
233
100
AcDbEntity
8
___SYMBOL
100
AcDbText
62
2
6
CONTINUOUS
10
7.8375637699
20
15.1286308237
7
STANDARD
40
0.2500000089
1
PLANTILLA DE RECORTE
41
0.8000000000
72
0
100
AcDbText
0
TEXT
5
234
100
AcDbEntity
8
___SYMBOL
100
AcDbText
62
2
6
CONTINUOUS
10
7.8375637699
20
14.7536308104
7
STANDARD
40
0.2500000089
1
FREGADERO MONTADO DEBAJO
41
0.8000000000
72
0
100
AcDbText
0
TEXT
5
235
100
AcDbEntity
8
___SYMBOL
100
AcDbText
62
2
6
CONTINUOUS
10
7.8375637699
20
14.3786307971
7
STANDARD
40
0.2500000089
1
  DEL MOSTRADOR
41
0.8000000000
72
0
100
AcDbText
0
TEXT
5
236
100
AcDbEntity
8
___SYMBOL
100
AcDbText
62
2
6
CONTINUOUS
10
7.8375637699
20
14.0036307837
7
STANDARD
40
0.2500000089
1
PLAN DE DÉCOUPE
41
0.8000000000
72
0
100
AcDbText
0
TEXT
5
237
100
AcDbEntity
8
___SYMBOL
100
AcDbText
62
2
6
CONTINUOUS
10
7.8375637699
20
13.6286307704
7
STANDARD
40
0.2500000089
1
ÉVIER SOUS-COMPTOIR
41
0.8000000000
72
0
100
AcDbText
0
TEXT
5
238
100
AcDbEntity
8
___SYMBOL
100
AcDbText
62
2
6
CONTINUOUS
10
7.8375637699
20
13.2536307571
7
STANDARD
40
0.2500000089
1
UNDERTONE
41
0.8000000000
72
0
100
AcDbText
0
TEXT
5
239
100
AcDbEntity
8
___SYMBOL
100
AcDbText
62
2
6
CONTINUOUS
10
9.6375638339
20
13.2536307571
7
STANDARD
40
0.2500000089
1
   
41
0.8000000000
72
0
100
AcDbText
0
TEXT
5
23A
100
AcDbEntity
8
___SYMBOL
100
AcDbText
62
2
6
CONTINUOUS
10
10.2375638552
20
13.2536307571
7
STANDARD
40
0.2500000089
1
3336
41
0.8000000000
72
0
100
AcDbText
0
TEXT
5
23B
100
AcDbEntity
8
___SYMBOL
100
AcDbText
62
2
6
CONTINUOUS
10
11.0375638837
20
13.2536307571
7
STANDARD
40
0.2500000089
1
-**-
41
0.8000000000
72
0
100
AcDbText
0
TEXT
5
23C
100
AcDbEntity
8
___SYMBOL
100
AcDbText
62
2
6
CONTINUOUS
10
11.8375639121
20
13.2536307571
7
STANDARD
40
0.2500000089
1
BB
41
0.8000000000
72
0
100
AcDbText
0
LINE
5
23D
100
AcDbEntity
8
___SYMBOL
100
AcDbLine
62
2
6
CONTINUOUS
10
8.3641355648
20
16.9305441256
11
8.1508321054
21
16.6768958437
0
LINE
5
23E
100
AcDbEntity
8
___SYMBOL
100
AcDbLine
62
2
6
CONTINUOUS
10
8.1720737459
20
16.9305441256
11
8.3641355648
21
16.9305441256
0
LINE
5
23F
100
AcDbEntity
8
___SYMBOL
100
AcDbLine
62
2
6
CONTINUOUS
10
8.1720737459
20
16.9305441256
11
8.0343095743
21
16.7667229301
0
LINE
5
240
100
AcDbEntity
8
___SYMBOL
100
AcDbLine
62
2
6
CONTINUOUS
10
8.0343095743
20
16.9305441256
11
8.0343095743
21
16.7667229301
0
LINE
5
241
100
AcDbEntity
8
___SYMBOL
100
AcDbLine
62
2
6
CONTINUOUS
10
7.8598093411
20
16.9305441256
11
8.0343095743
21
16.9305441256
0
LINE
5
242
100
AcDbEntity
8
___SYMBOL
100
AcDbLine
62
2
6
CONTINUOUS
10
7.8598093411
20
16.9305441256
11
7.8598093411
21
16.3446064520
0
LINE
5
243
100
AcDbEntity
8
___SYMBOL
100
AcDbLine
62
2
6
CONTINUOUS
10
8.0343095743
20
16.3446304554
11
7.8598093411
21
16.3446064520
0
LINE
5
244
100
AcDbEntity
8
___SYMBOL
100
AcDbLine
62
2
6
CONTINUOUS
10
8.0343095743
20
16.5461302966
11
8.0343095743
21
16.3446304554
0
LINE
5
245
100
AcDbEntity
8
___SYMBOL
100
AcDbLine
62
2
6
CONTINUOUS
10
8.1880475198
20
16.3446304554
11
8.0343095743
21
16.5461302966
0
LINE
5
246
100
AcDbEntity
8
___SYMBOL
100
AcDbLine
62
2
6
CONTINUOUS
10
8.1880475198
20
16.3446304554
11
8.4043399491
21
16.3446304554
0
LINE
5
247
100
AcDbEntity
8
___SYMBOL
100
AcDbLine
62
2
6
CONTINUOUS
10
8.4043399491
20
16.3446304554
11
8.1508321054
21
16.6768958437
0
SOLID
5
248
100
AcDbEntity
8
___SYMBOL
100
AcDbTrace
62
2
6
CONTINUOUS
10
8.0343095743
20
16.7667229301
11
8.1720737459
21
16.9305441256
12
8.3641355648
22
16.9305441256
13
8.3641355648
23
16.9305441256
0
SOLID
5
249
100
AcDbEntity
8
___SYMBOL
100
AcDbTrace
62
2
6
CONTINUOUS
10
8.3641355648
20
16.9305441256
11
8.1508321054
21
16.6768958437
12
8.0343095743
22
16.7667229301
13
8.0343095743
23
16.7667229301
0
SOLID
5
24A
100
AcDbEntity
8
___SYMBOL
100
AcDbTrace
62
2
6
CONTINUOUS
10
8.0343095743
20
16.5461302966
11
8.1508321054
21
16.6768958437
12
8.1880475198
22
16.3446304554
13
8.1880475198
23
16.3446304554
0
SOLID
5
24B
100
AcDbEntity
8
___SYMBOL
100
AcDbTrace
62
2
6
CONTINUOUS
10
8.1508321054
20
16.6768958437
11
8.4043399491
21
16.3446304554
12
8.1880475198
22
16.3446304554
13
8.1880475198
23
16.3446304554
0
SOLID
5
24C
100
AcDbEntity
8
___SYMBOL
100
AcDbTrace
62
2
6
CONTINUOUS
10
8.0343095743
20
16.3446304554
11
7.8598093411
21
16.3446064520
12
8.0343095743
22
16.5461302966
13
8.0343095743
23
16.5461302966
0
SOLID
5
24D
100
AcDbEntity
8
___SYMBOL
100
AcDbTrace
62
2
6
CONTINUOUS
10
8.1508321054
20
16.6768958437
11
8.0343095743
21
16.5461302966
12
8.0343095743
22
16.7667229301
13
8.0343095743
23
16.7667229301
0
SOLID
5
24E
100
AcDbEntity
8
___SYMBOL
100
AcDbTrace
62
2
6
CONTINUOUS
10
8.0343095743
20
16.5461302966
11
7.8598093411
21
16.3446064520
12
8.0343095743
22
16.7667229301
13
8.0343095743
23
16.7667229301
0
SOLID
5
24F
100
AcDbEntity
8
___SYMBOL
100
AcDbTrace
62
2
6
CONTINUOUS
10
8.0343095743
20
16.7667229301
11
7.8598093411
21
16.3446064520
12
8.0343095743
22
16.9305441256
13
8.0343095743
23
16.9305441256
0
SOLID
5
250
100
AcDbEntity
8
___SYMBOL
100
AcDbTrace
62
2
6
CONTINUOUS
10
7.8598093411
20
16.3446064520
11
7.8598093411
21
16.9305441256
12
8.0343095743
22
16.9305441256
13
8.0343095743
23
16.9305441256
0
CIRCLE
5
251
100
AcDbEntity
8
___SYMBOL
100
AcDbCircle
62
2
6
CONTINUOUS
10
8.5808487920
20
16.6364660386
40
0.2980566016
0
CIRCLE
5
252
100
AcDbEntity
8
___SYMBOL
100
AcDbCircle
62
2
6
CONTINUOUS
10
8.5808487920
20
16.6364660386
40
0.1247694195
0
SOLID
5
253
100
AcDbEntity
8
___SYMBOL
100
AcDbTrace
62
2
6
CONTINUOUS
10
8.4887442368
20
16.9199347118
11
8.5496933935
21
16.9328898549
12
8.6120041905
22
16.9328898549
13
8.6120041905
23
16.9328898549
0
SOLID
5
254
100
AcDbEntity
8
___SYMBOL
100
AcDbTrace
62
2
6
CONTINUOUS
10
8.6120041905
20
16.9328898549
11
8.6729533472
21
16.9199347118
12
8.4887442368
22
16.9199347118
13
8.4887442368
23
16.9199347118
0
SOLID
5
255
100
AcDbEntity
8
___SYMBOL
100
AcDbTrace
62
2
6
CONTINUOUS
10
8.4318204912
20
16.8945906274
11
8.4887442368
21
16.9199347118
12
8.6729533472
22
16.9199347118
13
8.6729533472
23
16.9199347118
0
SOLID
5
256
100
AcDbEntity
8
___SYMBOL
100
AcDbTrace
62
2
6
CONTINUOUS
10
8.6729533472
20
16.9199347118
11
8.7298770928
21
16.8945906274
12
8.4318204912
22
16.8945906274
13
8.4318204912
23
16.8945906274
0
SOLID
5
257
100
AcDbEntity
8
___SYMBOL
100
AcDbTrace
62
2
6
CONTINUOUS
10
8.3814099974
20
16.8579652598
11
8.4318204912
21
16.8945906274
12
8.7298770928
22
16.8945906274
13
8.7298770928
23
16.8945906274
0
SOLID
5
258
100
AcDbEntity
8
___SYMBOL
100
AcDbTrace
62
2
6
CONTINUOUS
10
8.7298770928
20
16.8945906274
11
8.7802875865
21
16.8579652598
12
8.3814099974
22
16.8579652598
13
8.3814099974
23
16.8579652598
0
SOLID
5
259
100
AcDbEntity
8
___SYMBOL
100
AcDbTrace
62
2
6
CONTINUOUS
10
8.3397159360
20
16.8116593134
11
8.3814099974
21
16.8579652598
12
8.7802875865
22
16.8579652598
13
8.7802875865
23
16.8579652598
0
SOLID
5
25A
100
AcDbEntity
8
___SYMBOL
100
AcDbTrace
62
2
6
CONTINUOUS
10
8.7802875865
20
16.8579652598
11
8.8219816480
21
16.8116593134
12
8.3397159360
22
16.8116593134
13
8.3397159360
23
16.8116593134
0
SOLID
5
25B
100
AcDbEntity
8
___SYMBOL
100
AcDbTrace
62
2
6
CONTINUOUS
10
8.5808487920
20
16.7612354581
11
8.3085605375
21
16.7576965802
12
8.8219816480
22
16.8116593134
13
8.8219816480
23
16.8116593134
0
SOLID
5
25C
100
AcDbEntity
8
___SYMBOL
100
AcDbTrace
62
2
6
CONTINUOUS
10
8.3085605375
20
16.7576965802
11
8.3397159360
21
16.8116593134
12
8.8219816480
22
16.8116593134
13
8.8219816480
23
16.8116593134
0
SOLID
5
25D
100
AcDbEntity
8
___SYMBOL
100
AcDbTrace
62
2
6
CONTINUOUS
10
8.8219816480
20
16.8116593134
11
8.8531370465
21
16.7576965802
12
8.5808487920
22
16.7612354581
13
8.5808487920
23
16.7612354581
0
SOLID
5
25E
100
AcDbEntity
8
___SYMBOL
100
AcDbTrace
62
2
6
CONTINUOUS
10
8.5808487920
20
16.7612354581
11
8.5422929210
21
16.7551288081
12
8.3085605375
22
16.7576965802
13
8.3085605375
23
16.7576965802
0
SOLID
5
25F
100
AcDbEntity
8
___SYMBOL
100
AcDbTrace
62
2
6
CONTINUOUS
10
8.6194046630
20
16.7551288081
11
8.5808487920
21
16.7612354581
12
8.8531370465
22
16.7576965802
13
8.8531370465
23
16.7576965802
0
SOLID
5
260
100
AcDbEntity
8
___SYMBOL
100
AcDbTrace
62
2
6
CONTINUOUS
10
8.4799082112
20
16.7098036633
11
8.2893054423
21
16.6984354906
12
8.5075111673
22
16.7374066194
13
8.5075111673
23
16.7374066194
0
SOLID
5
261
100
AcDbEntity
8
___SYMBOL
100
AcDbTrace
62
2
6
CONTINUOUS
10
8.5075111673
20
16.7374066194
11
8.2893054423
21
16.6984354906
12
8.5422929210
22
16.7551288081
13
8.5422929210
23
16.7551288081
0
SOLID
5
262
100
AcDbEntity
8
___SYMBOL
100
AcDbTrace
62
2
6
CONTINUOUS
10
8.2893054423
20
16.6984354906
11
8.3085605375
21
16.7576965802
12
8.5422929210
22
16.7551288081
13
8.5422929210
23
16.7551288081
0
SOLID
5
263
100
AcDbEntity
8
___SYMBOL
100
AcDbTrace
62
2
6
CONTINUOUS
10
8.6194046630
20
16.7551288081
11
8.8531370465
21
16.7576965802
12
8.6541864167
22
16.7374066194
13
8.6541864167
23
16.7374066194
0
SOLID
5
264
100
AcDbEntity
8
___SYMBOL
100
AcDbTrace
62
2
6
CONTINUOUS
10
8.6541864167
20
16.7374066194
11
8.8531370465
21
16.7576965802
12
8.6817893728
22
16.7098036633
13
8.6817893728
23
16.7098036633
0
SOLID
5
265
100
AcDbEntity
8
___SYMBOL
100
AcDbTrace
62
2
6
CONTINUOUS
10
8.8531370465
20
16.7576965802
11
8.8723921417
21
16.6984354906
12
8.6817893728
22
16.7098036633
13
8.6817893728
23
16.7098036633
0
SOLID
5
266
100
AcDbEntity
8
___SYMBOL
100
AcDbTrace
62
2
6
CONTINUOUS
10
8.4799082112
20
16.7098036633
11
8.4621860225
21
16.6750219096
12
8.2893054423
22
16.6984354906
13
8.2893054423
23
16.6984354906
0
SOLID
5
267
100
AcDbEntity
8
___SYMBOL
100
AcDbTrace
62
2
6
CONTINUOUS
10
8.6995115615
20
16.6750219096
11
8.6817893728
21
16.7098036633
12
8.8723921417
22
16.6984354906
13
8.8723921417
23
16.6984354906
0
SOLID
5
268
100
AcDbEntity
8
___SYMBOL
100
AcDbTrace
62
2
6
CONTINUOUS
10
8.2827921904
20
16.6364660386
11
8.2893054423
21
16.6984354906
12
8.4621860225
22
16.6750219096
13
8.4621860225
23
16.6750219096
0
SOLID
5
269
100
AcDbEntity
8
___SYMBOL
100
AcDbTrace
62
2
6
CONTINUOUS
10
8.4621860225
20
16.6750219096
11
8.4560793725
21
16.6364660386
12
8.2827921904
22
16.6364660386
13
8.2827921904
23
16.6364660386
0
SOLID
5
26A
100
AcDbEntity
8
___SYMBOL
100
AcDbTrace
62
2
6
CONTINUOUS
10
8.6995115615
20
16.6750219096
11
8.8723921417
21
16.6984354906
12
8.7056182115
22
16.6364660386
13
8.7056182115
23
16.6364660386
0
SOLID
5
26B
100
AcDbEntity
8
___SYMBOL
100
AcDbTrace
62
2
6
CONTINUOUS
10
8.8723921417
20
16.6984354906
11
8.8789053936
21
16.6364660386
12
8.7056182115
22
16.6364660386
13
8.7056182115
23
16.6364660386
0
SOLID
5
26C
100
AcDbEntity
8
___SYMBOL
100
AcDbTrace
62
2
6
CONTINUOUS
10
8.6995115615
20
16.5979101676
11
8.7056182115
21
16.6364660386
12
8.8789053936
22
16.6364660386
13
8.8789053936
23
16.6364660386
0
SOLID
5
26D
100
AcDbEntity
8
___SYMBOL
100
AcDbTrace
62
2
6
CONTINUOUS
10
8.4621860225
20
16.5979101676
11
8.2893054423
21
16.5744965866
12
8.4560793725
22
16.6364660386
13
8.4560793725
23
16.6364660386
0
SOLID
5
26E
100
AcDbEntity
8
___SYMBOL
100
AcDbTrace
62
2
6
CONTINUOUS
10
8.2893054423
20
16.5744965866
11
8.2827921904
21
16.6364660386
12
8.4560793725
22
16.6364660386
13
8.4560793725
23
16.6364660386
0
SOLID
5
26F
100
AcDbEntity
8
___SYMBOL
100
AcDbTrace
62
2
6
CONTINUOUS
10
8.8789053936
20
16.6364660386
11
8.8723921417
21
16.5744965866
12
8.6995115615
22
16.5979101676
13
8.6995115615
23
16.5979101676
0
SOLID
5
270
100
AcDbEntity
8
___SYMBOL
100
AcDbTrace
62
2
6
CONTINUOUS
10
8.4621860225
20
16.5979101676
11
8.4799082112
21
16.5631284139
12
8.2893054423
22
16.5744965866
13
8.2893054423
23
16.5744965866
0
SOLID
5
271
100
AcDbEntity
8
___SYMBOL
100
AcDbTrace
62
2
6
CONTINUOUS
10
8.6817893728
20
16.5631284139
11
8.6995115615
21
16.5979101676
12
8.8723921417
22
16.5744965866
13
8.8723921417
23
16.5744965866
0
SOLID
5
272
100
AcDbEntity
8
___SYMBOL
100
AcDbTrace
62
2
6
CONTINUOUS
10
8.5422929210
20
16.5178032692
11
8.3085605375
21
16.5152354970
12
8.5075111673
22
16.5355254579
13
8.5075111673
23
16.5355254579
0
SOLID
5
273
100
AcDbEntity
8
___SYMBOL
100
AcDbTrace
62
2
6
CONTINUOUS
10
8.5075111673
20
16.5355254579
11
8.3085605375
21
16.5152354970
12
8.4799082112
22
16.5631284139
13
8.4799082112
23
16.5631284139
0
SOLID
5
274
100
AcDbEntity
8
___SYMBOL
100
AcDbTrace
62
2
6
CONTINUOUS
10
8.3085605375
20
16.5152354970
11
8.2893054423
21
16.5744965866
12
8.4799082112
22
16.5631284139
13
8.4799082112
23
16.5631284139
0
SOLID
5
275
100
AcDbEntity
8
___SYMBOL
100
AcDbTrace
62
2
6
CONTINUOUS
10
8.6817893728
20
16.5631284139
11
8.8723921417
21
16.5744965866
12
8.6541864167
22
16.5355254579
13
8.6541864167
23
16.5355254579
0
SOLID
5
276
100
AcDbEntity
8
___SYMBOL
100
AcDbTrace
62
2
6
CONTINUOUS
10
8.6541864167
20
16.5355254579
11
8.8723921417
21
16.5744965866
12
8.6194046630
22
16.5178032692
13
8.6194046630
23
16.5178032692
0
SOLID
5
277
100
AcDbEntity
8
___SYMBOL
100
AcDbTrace
62
2
6
CONTINUOUS
10
8.8723921417
20
16.5744965866
11
8.8531370465
21
16.5152354970
12
8.6194046630
22
16.5178032692
13
8.6194046630
23
16.5178032692
0
SOLID
5
278
100
AcDbEntity
8
___SYMBOL
100
AcDbTrace
62
2
6
CONTINUOUS
10
8.5422929210
20
16.5178032692
11
8.5808487920
21
16.5116966191
12
8.3085605375
22
16.5152354970
13
8.3085605375
23
16.5152354970
0
SOLID
5
279
100
AcDbEntity
8
___SYMBOL
100
AcDbTrace
62
2
6
CONTINUOUS
10
8.5808487920
20
16.5116966191
11
8.6194046630
21
16.5178032692
12
8.8531370465
22
16.5152354970
13
8.8531370465
23
16.5152354970
0
SOLID
5
27A
100
AcDbEntity
8
___SYMBOL
100
AcDbTrace
62
2
6
CONTINUOUS
10
8.3397159360
20
16.4612727639
11
8.3085605375
21
16.5152354970
12
8.5808487920
22
16.5116966191
13
8.5808487920
23
16.5116966191
0
SOLID
5
27B
100
AcDbEntity
8
___SYMBOL
100
AcDbTrace
62
2
6
CONTINUOUS
10
8.5808487920
20
16.5116966191
11
8.8531370465
21
16.5152354970
12
8.3397159360
22
16.4612727639
13
8.3397159360
23
16.4612727639
0
SOLID
5
27C
100
AcDbEntity
8
___SYMBOL
100
AcDbTrace
62
2
6
CONTINUOUS
10
8.8531370465
20
16.5152354970
11
8.8219816480
21
16.4612727639
12
8.3397159360
22
16.4612727639
13
8.3397159360
23
16.4612727639
0
SOLID
5
27D
100
AcDbEntity
8
___SYMBOL
100
AcDbTrace
62
2
6
CONTINUOUS
10
8.3814099974
20
16.4149668174
11
8.3397159360
21
16.4612727639
12
8.8219816480
22
16.4612727639
13
8.8219816480
23
16.4612727639
0
SOLID
5
27E
100
AcDbEntity
8
___SYMBOL
100
AcDbTrace
62
2
6
CONTINUOUS
10
8.8219816480
20
16.4612727639
11
8.7802875865
21
16.4149668174
12
8.3814099974
22
16.4149668174
13
8.3814099974
23
16.4149668174
0
SOLID
5
27F
100
AcDbEntity
8
___SYMBOL
100
AcDbTrace
62
2
6
CONTINUOUS
10
8.4318204912
20
16.3783414499
11
8.3814099974
21
16.4149668174
12
8.7802875865
22
16.4149668174
13
8.7802875865
23
16.4149668174
0
SOLID
5
280
100
AcDbEntity
8
___SYMBOL
100
AcDbTrace
62
2
6
CONTINUOUS
10
8.7802875865
20
16.4149668174
11
8.7298770928
21
16.3783414499
12
8.4318204912
22
16.3783414499
13
8.4318204912
23
16.3783414499
0
SOLID
5
281
100
AcDbEntity
8
___SYMBOL
100
AcDbTrace
62
2
6
CONTINUOUS
10
8.4887442368
20
16.3529973655
11
8.4318204912
21
16.3783414499
12
8.7298770928
22
16.3783414499
13
8.7298770928
23
16.3783414499
0
SOLID
5
282
100
AcDbEntity
8
___SYMBOL
100
AcDbTrace
62
2
6
CONTINUOUS
10
8.7298770928
20
16.3783414499
11
8.6729533472
21
16.3529973655
12
8.4887442368
22
16.3529973655
13
8.4887442368
23
16.3529973655
0
SOLID
5
283
100
AcDbEntity
8
___SYMBOL
100
AcDbTrace
62
2
6
CONTINUOUS
10
8.5496933935
20
16.3400422223
11
8.4887442368
21
16.3529973655
12
8.6729533472
22
16.3529973655
13
8.6729533472
23
16.3529973655
0
SOLID
5
284
100
AcDbEntity
8
___SYMBOL
100
AcDbTrace
62
2
6
CONTINUOUS
10
8.6729533472
20
16.3529973655
11
8.6120041905
21
16.3400422223
12
8.5496933935
22
16.3400422223
13
8.5496933935
23
16.3400422223
0
LINE
5
285
100
AcDbEntity
8
___SYMBOL
100
AcDbLine
62
2
6
CONTINUOUS
10
9.3734848294
20
16.9305441256
11
9.3734848294
21
16.3446304554
0
LINE
5
286
100
AcDbEntity
8
___SYMBOL
100
AcDbLine
62
2
6
CONTINUOUS
10
9.3734848294
20
16.3446304554
11
9.2087511437
21
16.3446304554
0
LINE
5
287
100
AcDbEntity
8
___SYMBOL
100
AcDbLine
62
2
6
CONTINUOUS
10
9.2087511437
20
16.5729550733
11
9.2087511437
21
16.3446304554
0
LINE
5
288
100
AcDbEntity
8
___SYMBOL
100
AcDbLine
62
2
6
CONTINUOUS
10
9.0607543273
20
16.5729550733
11
9.2087511437
21
16.5729550733
0
LINE
5
289
100
AcDbEntity
8
___SYMBOL
100
AcDbLine
62
2
6
CONTINUOUS
10
9.0607543273
20
16.5729550733
11
9.0607543273
21
16.3446304554
0
LINE
5
28A
100
AcDbEntity
8
___SYMBOL
100
AcDbLine
62
2
6
CONTINUOUS
10
9.0607543273
20
16.3446304554
11
8.8960206416
21
16.3446304554
0
LINE
5
28B
100
AcDbEntity
8
___SYMBOL
100
AcDbLine
62
2
6
CONTINUOUS
10
8.8960206416
20
16.9305441256
11
8.8960206416
21
16.3446304554
0
LINE
5
28C
100
AcDbEntity
8
___SYMBOL
100
AcDbLine
62
2
6
CONTINUOUS
10
8.8960206416
20
16.9305441256
11
9.0607543273
21
16.9305441256
0
LINE
5
28D
100
AcDbEntity
8
___SYMBOL
100
AcDbLine
62
2
6
CONTINUOUS
10
9.0607543273
20
16.9305441256
11
9.0607543273
21
16.7101603581
0
LINE
5
28E
100
AcDbEntity
8
___SYMBOL
100
AcDbLine
62
2
6
CONTINUOUS
10
9.0607543273
20
16.7101603581
11
9.2087511437
21
16.7101603581
0
LINE
5
28F
100
AcDbEntity
8
___SYMBOL
100
AcDbLine
62
2
6
CONTINUOUS
10
9.2087511437
20
16.9305441256
11
9.2087511437
21
16.7101603581
0
LINE
5
290
100
AcDbEntity
8
___SYMBOL
100
AcDbLine
62
2
6
CONTINUOUS
10
9.2087511437
20
16.9305441256
11
9.3734848294
21
16.9305441256
0
SOLID
5
291
100
AcDbEntity
8
___SYMBOL
100
AcDbTrace
62
2
6
CONTINUOUS
10
9.2087511437
20
16.7101603581
11
9.2087511437
21
16.9305441256
12
9.3734848294
22
16.9305441256
13
9.3734848294
23
16.9305441256
0
SOLID
5
292
100
AcDbEntity
8
___SYMBOL
100
AcDbTrace
62
2
6
CONTINUOUS
10
9.2087511437
20
16.7101603581
11
9.0607543273
21
16.5729550733
12
9.0607543273
22
16.7101603581
13
9.0607543273
23
16.7101603581
0
SOLID
5
293
100
AcDbEntity
8
___SYMBOL
100
AcDbTrace
62
2
6
CONTINUOUS
10
9.0607543273
20
16.5729550733
11
8.8960206416
21
16.3446304554
12
9.0607543273
22
16.7101603581
13
9.0607543273
23
16.7101603581
0
SOLID
5
294
100
AcDbEntity
8
___SYMBOL
100
AcDbTrace
62
2
6
CONTINUOUS
10
9.0607543273
20
16.7101603581
11
8.8960206416
21
16.3446304554
12
9.0607543273
22
16.9305441256
13
9.0607543273
23
16.9305441256
0
SOLID
5
295
100
AcDbEntity
8
___SYMBOL
100
AcDbTrace
62
2
6
CONTINUOUS
10
8.8960206416
20
16.3446304554
11
8.8960206416
21
16.9305441256
12
9.0607543273
22
16.9305441256
13
9.0607543273
23
16.9305441256
0
SOLID
5
296
100
AcDbEntity
8
___SYMBOL
100
AcDbTrace
62
2
6
CONTINUOUS
10
9.0607543273
20
16.5729550733
11
9.0607543273
21
16.3446304554
12
8.8960206416
22
16.3446304554
13
8.8960206416
23
16.3446304554
0
SOLID
5
297
100
AcDbEntity
8
___SYMBOL
100
AcDbTrace
62
2
6
CONTINUOUS
10
9.0607543273
20
16.5729550733
11
9.2087511437
21
16.7101603581
12
9.2087511437
22
16.5729550733
13
9.2087511437
23
16.5729550733
0
SOLID
5
298
100
AcDbEntity
8
___SYMBOL
100
AcDbTrace
62
2
6
CONTINUOUS
10
9.2087511437
20
16.7101603581
11
9.3734848294
21
16.9305441256
12
9.2087511437
22
16.5729550733
13
9.2087511437
23
16.5729550733
0
SOLID
5
299
100
AcDbEntity
8
___SYMBOL
100
AcDbTrace
62
2
6
CONTINUOUS
10
9.2087511437
20
16.5729550733
11
9.3734848294
21
16.9305441256
12
9.2087511437
22
16.3446304554
13
9.2087511437
23
16.3446304554
0
SOLID
5
29A
100
AcDbEntity
8
___SYMBOL
100
AcDbTrace
62
2
6
CONTINUOUS
10
9.3734848294
20
16.9305441256
11
9.3734848294
21
16.3446304554
12
9.2087511437
22
16.3446304554
13
9.2087511437
23
16.3446304554
0
LINE
5
29B
100
AcDbEntity
8
___SYMBOL
100
AcDbLine
62
2
6
CONTINUOUS
10
9.5685757433
20
16.3446304554
11
9.7312598190
21
16.3446304554
0
LINE
5
29C
100
AcDbEntity
8
___SYMBOL
100
AcDbLine
62
2
6
CONTINUOUS
10
9.5685757433
20
16.3446304554
11
9.4185296752
21
16.3446304554
0
LINE
5
29D
100
AcDbEntity
8
___SYMBOL
100
AcDbLine
62
2
6
CONTINUOUS
10
9.4185296752
20
16.3446304554
11
9.4185296752
21
16.9305441256
0
LINE
5
29E
100
AcDbEntity
8
___SYMBOL
100
AcDbLine
62
2
6
CONTINUOUS
10
9.4185296752
20
16.9305441256
11
9.5685757433
21
16.9305441256
0
LINE
5
29F
100
AcDbEntity
8
___SYMBOL
100
AcDbLine
62
2
6
CONTINUOUS
10
9.5685757433
20
16.9305441256
11
9.5685757433
21
16.4858572176
0
LINE
5
2A0
100
AcDbEntity
8
___SYMBOL
100
AcDbLine
62
2
6
CONTINUOUS
10
9.5685757433
20
16.4858572176
11
9.7312598190
21
16.4858572176
0
LINE
5
2A1
100
AcDbEntity
8
___SYMBOL
100
AcDbLine
62
2
6
CONTINUOUS
10
9.7312598190
20
16.4858572176
11
9.7312598190
21
16.3446304554
0
SOLID
5
2A2
100
AcDbEntity
8
___SYMBOL
100
AcDbTrace
62
2
6
CONTINUOUS
10
9.7312598190
20
16.4858572176
11
9.4185296752
21
16.3446304554
12
9.5685757433
22
16.4858572176
13
9.5685757433
23
16.4858572176
0
SOLID
5
2A3
100
AcDbEntity
8
___SYMBOL
100
AcDbTrace
62
2
6
CONTINUOUS
10
9.5685757433
20
16.4858572176
11
9.4185296752
21
16.3446304554
12
9.5685757433
22
16.9305441256
13
9.5685757433
23
16.9305441256
0
SOLID
5
2A4
100
AcDbEntity
8
___SYMBOL
100
AcDbTrace
62
2
6
CONTINUOUS
10
9.4185296752
20
16.3446304554
11
9.4185296752
21
16.9305441256
12
9.5685757433
22
16.9305441256
13
9.5685757433
23
16.9305441256
0
SOLID
5
2A5
100
AcDbEntity
8
___SYMBOL
100
AcDbTrace
62
2
6
CONTINUOUS
10
9.4185296752
20
16.3446304554
11
9.7312598190
21
16.4858572176
12
9.5685757433
22
16.3446304554
13
9.5685757433
23
16.3446304554
0
SOLID
5
2A6
100
AcDbEntity
8
___SYMBOL
100
AcDbTrace
62
2
6
CONTINUOUS
10
9.7312598190
20
16.4858572176
11
9.7312598190
21
16.3446304554
12
9.5685757433
22
16.3446304554
13
9.5685757433
23
16.3446304554
0
LINE
5
2A7
100
AcDbEntity
8
___SYMBOL
100
AcDbLine
62
2
6
CONTINUOUS
10
10.0695117451
20
16.5657787514
11
10.0695117451
21
16.7101603581
0
LINE
5
2A8
100
AcDbEntity
8
___SYMBOL
100
AcDbLine
62
2
6
CONTINUOUS
10
9.9186542163
20
16.7101603581
11
10.0695117451
21
16.7101603581
0
LINE
5
2A9
100
AcDbEntity
8
___SYMBOL
100
AcDbLine
62
2
6
CONTINUOUS
10
9.9186542163
20
16.7877847238
11
9.9186542163
21
16.7101603581
0
LINE
5
2AA
100
AcDbEntity
8
___SYMBOL
100
AcDbLine
62
2
6
CONTINUOUS
10
9.9186542163
20
16.7877847238
11
10.0695117451
21
16.7877847238
0
LINE
5
2AB
100
AcDbEntity
8
___SYMBOL
100
AcDbLine
62
2
6
CONTINUOUS
10
10.0695117451
20
16.7877847238
11
10.0695117451
21
16.9305441256
0
LINE
5
2AC
100
AcDbEntity
8
___SYMBOL
100
AcDbLine
62
2
6
CONTINUOUS
10
9.9328585401
20
16.9305441256
11
10.0695117451
21
16.9305441256
0
LINE
5
2AD
100
AcDbEntity
8
___SYMBOL
100
AcDbLine
62
2
6
CONTINUOUS
10
9.7604075587
20
16.9305441256
11
9.9328585401
21
16.9305441256
0
LINE
5
2AE
100
AcDbEntity
8
___SYMBOL
100
AcDbLine
62
2
6
CONTINUOUS
10
9.7604075587
20
16.3446304554
11
9.7604075587
21
16.9305441256
0
LINE
5
2AF
100
AcDbEntity
8
___SYMBOL
100
AcDbLine
62
2
6
CONTINUOUS
10
9.7604075587
20
16.3446304554
11
10.0695117451
21
16.3446304554
0
LINE
5
2B0
100
AcDbEntity
8
___SYMBOL
100
AcDbLine
62
2
6
CONTINUOUS
10
10.0695117451
20
16.3446304554
11
10.0695117451
21
16.4858572176
0
LINE
5
2B1
100
AcDbEntity
8
___SYMBOL
100
AcDbLine
62
2
6
CONTINUOUS
10
9.9186542163
20
16.4858572176
11
10.0695117451
21
16.4858572176
0
LINE
5
2B2
100
AcDbEntity
8
___SYMBOL
100
AcDbLine
62
2
6
CONTINUOUS
10
9.9186542163
20
16.5657787514
11
9.9186542163
21
16.4858572176
0
LINE
5
2B3
100
AcDbEntity
8
___SYMBOL
100
AcDbLine
62
2
6
CONTINUOUS
10
9.9186542163
20
16.5657787514
11
10.0695117451
21
16.5657787514
0
SOLID
5
2B4
100
AcDbEntity
8
___SYMBOL
100
AcDbTrace
62
2
6
CONTINUOUS
10
10.0695117451
20
16.9305441256
11
10.0695117451
21
16.7877847238
12
9.9186542163
22
16.7877847238
13
9.9186542163
23
16.7877847238
0
SOLID
5
2B5
100
AcDbEntity
8
___SYMBOL
100
AcDbTrace
62
2
6
CONTINUOUS
10
10.0695117451
20
16.7101603581
11
10.0695117451
21
16.5657787514
12
9.9186542163
22
16.5657787514
13
9.9186542163
23
16.5657787514
0
SOLID
5
2B6
100
AcDbEntity
8
___SYMBOL
100
AcDbTrace
62
2
6
CONTINUOUS
10
10.0695117451
20
16.4858572176
11
9.7604075587
21
16.3446304554
12
9.9186542163
22
16.4858572176
13
9.9186542163
23
16.4858572176
0
SOLID
5
2B7
100
AcDbEntity
8
___SYMBOL
100
AcDbTrace
62
2
6
CONTINUOUS
10
9.9186542163
20
16.4858572176
11
9.7604075587
21
16.3446304554
12
9.9186542163
22
16.5657787514
13
9.9186542163
23
16.5657787514
0
SOLID
5
2B8
100
AcDbEntity
8
___SYMBOL
100
AcDbTrace
62
2
6
CONTINUOUS
10
10.0695117451
20
16.7101603581
11
9.9186542163
21
16.5657787514
12
9.9186542163
22
16.7101603581
13
9.9186542163
23
16.7101603581
0
SOLID
5
2B9
100
AcDbEntity
8
___SYMBOL
100
AcDbTrace
62
2
6
CONTINUOUS
10
9.9186542163
20
16.5657787514
11
9.7604075587
21
16.3446304554
12
9.9186542163
22
16.7101603581
13
9.9186542163
23
16.7101603581
0
SOLID
5
2BA
100
AcDbEntity
8
___SYMBOL
100
AcDbTrace
62
2
6
CONTINUOUS
10
9.9186542163
20
16.7101603581
11
9.7604075587
21
16.3446304554
12
9.9186542163
22
16.7877847238
13
9.9186542163
23
16.7877847238
0
SOLID
5
2BB
100
AcDbEntity
8
___SYMBOL
100
AcDbTrace
62
2
6
CONTINUOUS
10
10.0695117451
20
16.9305441256
11
9.9186542163
21
16.7877847238
12
9.9328585401
22
16.9305441256
13
9.9328585401
23
16.9305441256
0
SOLID
5
2BC
100
AcDbEntity
8
___SYMBOL
100
AcDbTrace
62
2
6
CONTINUOUS
10
9.9186542163
20
16.7877847238
11
9.7604075587
21
16.3446304554
12
9.9328585401
22
16.9305441256
13
9.9328585401
23
16.9305441256
0
SOLID
5
2BD
100
AcDbEntity
8
___SYMBOL
100
AcDbTrace
62
2
6
CONTINUOUS
10
9.7604075587
20
16.3446304554
11
9.7604075587
21
16.9305441256
12
9.9328585401
22
16.9305441256
13
9.9328585401
23
16.9305441256
0
SOLID
5
2BE
100
AcDbEntity
8
___SYMBOL
100
AcDbTrace
62
2
6
CONTINUOUS
10
10.0695117451
20
16.4858572176
11
10.0695117451
21
16.3446304554
12
9.7604075587
22
16.3446304554
13
9.7604075587
23
16.3446304554
0
LINE
5
2BF
100
AcDbEntity
8
___SYMBOL
100
AcDbLine
62
2
6
CONTINUOUS
10
10.5797621692
20
16.3446304554
11
10.4203189205
21
16.5962130056
0
ARC
5
2C0
100
AcDbEntity
8
___SYMBOL
100
AcDbCircle
62
2
6
CONTINUOUS
10
10.3478796703
20
16.7555346087
40
0.1750166225
100
AcDbArc
50
294.4500166359
51
90.0000000000
0
LINE
5
2C1
100
AcDbEntity
8
___SYMBOL
100
AcDbLine
62
2
6
CONTINUOUS
10
10.1143319613
20
16.9305441256
11
10.3478796703
21
16.9305441256
0
LINE
5
2C2
100
AcDbEntity
8
___SYMBOL
100
AcDbLine
62
2
6
CONTINUOUS
10
10.1143319613
20
16.3446304554
11
10.1143319613
21
16.9305441256
0
LINE
5
2C3
100
AcDbEntity
8
___SYMBOL
100
AcDbLine
62
2
6
CONTINUOUS
10
10.1143319613
20
16.3446304554
11
10.2649877893
21
16.3446304554
0
LINE
5
2C4
100
AcDbEntity
8
___SYMBOL
100
AcDbLine
62
2
6
CONTINUOUS
10
10.2649877893
20
16.5415868332
11
10.2649877893
21
16.3446304554
0
LINE
5
2C5
100
AcDbEntity
8
___SYMBOL
100
AcDbLine
62
2
6
CONTINUOUS
10
10.3898112229
20
16.3446304554
11
10.2649877893
21
16.5415868332
0
LINE
5
2C6
100
AcDbEntity
8
___SYMBOL
100
AcDbLine
62
2
6
CONTINUOUS
10
10.3898112229
20
16.3446304554
11
10.5797621692
21
16.3446304554
0
LINE
5
2C7
100
AcDbEntity
8
___SYMBOL
100
AcDbLine
62
2
6
CONTINUOUS
10
10.2649877893
20
16.6808621489
11
10.3173275413
21
16.6808621489
0
ARC
5
2C8
100
AcDbEntity
8
___SYMBOL
100
AcDbCircle
62
2
6
CONTINUOUS
10
10.3209175708
20
16.7343535503
40
0.0536117369
100
AcDbArc
50
266.1604009902
51
89.9998910512
0
LINE
5
2C9
100
AcDbEntity
8
___SYMBOL
100
AcDbLine
62
2
6
CONTINUOUS
10
10.3209176727
20
16.7879652872
11
10.2649877893
21
16.7879652872
0
LINE
5
2CA
100
AcDbEntity
8
___SYMBOL
100
AcDbLine
62
2
6
CONTINUOUS
10
10.2649877893
20
16.7879652872
11
10.2649877893
21
16.6808621489
0
SOLID
5
2CB
100
AcDbEntity
8
___SYMBOL
100
AcDbTrace
62
2
6
CONTINUOUS
10
10.3478796703
20
16.9305512312
11
10.3948126955
21
16.9241409826
12
10.1143319613
22
16.9305441256
13
10.1143319613
23
16.9305441256
0
SOLID
5
2CC
100
AcDbEntity
8
___SYMBOL
100
AcDbTrace
62
2
6
CONTINUOUS
10
10.2649877893
20
16.7879652872
11
10.5189275394
21
16.7925946229
12
10.3209176727
22
16.7879652872
13
10.3209176727
23
16.7879652872
0
SOLID
5
2CD
100
AcDbEntity
8
___SYMBOL
100
AcDbTrace
62
2
6
CONTINUOUS
10
10.3209176727
20
16.7879652872
11
10.5189275394
21
16.7925946229
12
10.3446402551
22
16.7824311187
13
10.3446402551
23
16.7824311187
0
SOLID
5
2CE
100
AcDbEntity
8
___SYMBOL
100
AcDbTrace
62
2
6
CONTINUOUS
10
10.3446402551
20
16.7824311187
11
10.5189275394
21
16.7925946229
12
10.3634652435
22
16.7669712431
13
10.3634652435
23
16.7669712431
0
SOLID
5
2CF
100
AcDbEntity
8
___SYMBOL
100
AcDbTrace
62
2
6
CONTINUOUS
10
10.5189275394
20
16.7925946229
11
10.5226007859
21
16.7453684924
12
10.3634652435
22
16.7669712431
13
10.3634652435
23
16.7669712431
0
SOLID
5
2D0
100
AcDbEntity
8
___SYMBOL
100
AcDbTrace
62
2
6
CONTINUOUS
10
10.3735061824
20
16.7447773817
11
10.3634652435
21
16.7669712431
12
10.5226007859
22
16.7453684924
13
10.5226007859
23
16.7453684924
0
SOLID
5
2D1
100
AcDbEntity
8
___SYMBOL
100
AcDbTrace
62
2
6
CONTINUOUS
10
10.3735061824
20
16.7447773817
11
10.5226007859
21
16.7453684924
12
10.3726901007
22
16.7204315001
13
10.3726901007
23
16.7204315001
0
SOLID
5
2D2
100
AcDbEntity
8
___SYMBOL
100
AcDbTrace
62
2
6
CONTINUOUS
10
10.3726901007
20
16.7204315001
11
10.5226007859
21
16.7453684924
12
10.3611854799
22
16.6989598527
13
10.3611854799
23
16.6989598527
0
SOLID
5
2D3
100
AcDbEntity
8
___SYMBOL
100
AcDbTrace
62
2
6
CONTINUOUS
10
10.5226007859
20
16.7453684924
11
10.5134751819
21
16.6988870607
12
10.3611854799
22
16.6989598527
13
10.3611854799
23
16.6989598527
0
SOLID
5
2D4
100
AcDbEntity
8
___SYMBOL
100
AcDbTrace
62
2
6
CONTINUOUS
10
10.3413674714
20
16.6847953027
11
10.3611854799
21
16.6989598527
12
10.5134751819
22
16.6988870607
13
10.5134751819
23
16.6988870607
0
SOLID
5
2D5
100
AcDbEntity
8
___SYMBOL
100
AcDbTrace
62
2
6
CONTINUOUS
10
10.3413674714
20
16.6847953027
11
10.5134751819
21
16.6988870607
12
10.3173275413
22
16.6808621489
13
10.3173275413
23
16.6808621489
0
SOLID
5
2D6
100
AcDbEntity
8
___SYMBOL
100
AcDbTrace
62
2
6
CONTINUOUS
10
10.5134751819
20
16.6988870607
11
10.4922192055
21
16.6565552333
12
10.3173275413
22
16.6808621489
13
10.3173275413
23
16.6808621489
0
SOLID
5
2D7
100
AcDbEntity
8
___SYMBOL
100
AcDbTrace
62
2
6
CONTINUOUS
10
10.4203189205
20
16.5962130056
11
10.2649877893
21
16.5415868332
12
10.4603899212
22
16.6214739448
13
10.4603899212
23
16.6214739448
0
SOLID
5
2D8
100
AcDbEntity
8
___SYMBOL
100
AcDbTrace
62
2
6
CONTINUOUS
10
10.4603899212
20
16.6214739448
11
10.2649877893
21
16.5415868332
12
10.4922192055
22
16.6565552333
13
10.4922192055
23
16.6565552333
0
SOLID
5
2D9
100
AcDbEntity
8
___SYMBOL
100
AcDbTrace
62
2
6
CONTINUOUS
10
10.4922192055
20
16.6565552333
11
10.2649877893
21
16.5415868332
12
10.3173275413
22
16.6808621489
13
10.3173275413
23
16.6808621489
0
SOLID
5
2DA
100
AcDbEntity
8
___SYMBOL
100
AcDbTrace
62
2
6
CONTINUOUS
10
10.2649877893
20
16.5415868332
11
10.1143319613
21
16.3446304554
12
10.3173275413
22
16.6808621489
13
10.3173275413
23
16.6808621489
0
SOLID
5
2DB
100
AcDbEntity
8
___SYMBOL
100
AcDbTrace
62
2
6
CONTINUOUS
10
10.3173275413
20
16.6808621489
11
10.1143319613
21
16.3446304554
12
10.2649877893
22
16.6808621489
13
10.2649877893
23
16.6808621489
0
SOLID
5
2DC
100
AcDbEntity
8
___SYMBOL
100
AcDbTrace
62
2
6
CONTINUOUS
10
10.2649877893
20
16.6808621489
11
10.1143319613
21
16.3446304554
12
10.2649877893
22
16.7879652872
13
10.2649877893
23
16.7879652872
0
SOLID
5
2DD
100
AcDbEntity
8
___SYMBOL
100
AcDbTrace
62
2
6
CONTINUOUS
10
10.5189275394
20
16.7925946229
11
10.2649877893
21
16.7879652872
12
10.5027245187
22
16.8371059952
13
10.5027245187
23
16.8371059952
0
SOLID
5
2DE
100
AcDbEntity
8
___SYMBOL
100
AcDbTrace
62
2
6
CONTINUOUS
10
10.5027245187
20
16.8371059952
11
10.2649877893
21
16.7879652872
12
10.4751786442
22
16.8756420165
13
10.4751786442
23
16.8756420165
0
SOLID
5
2DF
100
AcDbEntity
8
___SYMBOL
100
AcDbTrace
62
2
6
CONTINUOUS
10
10.4751786442
20
16.8756420165
11
10.2649877893
21
16.7879652872
12
10.4383077345
22
16.9053798067
13
10.4383077345
23
16.9053798067
0
SOLID
5
2E0
100
AcDbEntity
8
___SYMBOL
100
AcDbTrace
62
2
6
CONTINUOUS
10
10.4383077345
20
16.9053798067
11
10.2649877893
21
16.7879652872
12
10.3948126955
22
16.9241409826
13
10.3948126955
23
16.9241409826
0
SOLID
5
2E1
100
AcDbEntity
8
___SYMBOL
100
AcDbTrace
62
2
6
CONTINUOUS
10
10.3948126955
20
16.9241409826
11
10.2649877893
21
16.7879652872
12
10.1143319613
22
16.9305441256
13
10.1143319613
23
16.9305441256
0
SOLID
5
2E2
100
AcDbEntity
8
___SYMBOL
100
AcDbTrace
62
2
6
CONTINUOUS
10
10.1143319613
20
16.3446304554
11
10.1143319613
21
16.9305441256
12
10.2649877893
22
16.7879652872
13
10.2649877893
23
16.7879652872
0
SOLID
5
2E3
100
AcDbEntity
8
___SYMBOL
100
AcDbTrace
62
2
6
CONTINUOUS
10
10.2649877893
20
16.5415868332
11
10.2649877893
21
16.3446304554
12
10.1143319613
22
16.3446304554
13
10.1143319613
23
16.3446304554
0
SOLID
5
2E4
100
AcDbEntity
8
___SYMBOL
100
AcDbTrace
62
2
6
CONTINUOUS
10
10.2649877893
20
16.5415868332
11
10.4203189205
21
16.5962130056
12
10.3898112229
22
16.3446304554
13
10.3898112229
23
16.3446304554
0
SOLID
5
2E5
100
AcDbEntity
8
___SYMBOL
100
AcDbTrace
62
2
6
CONTINUOUS
10
10.4203189205
20
16.5962130056
11
10.5797621692
21
16.3446304554
12
10.3898112229
22
16.3446304554
13
10.3898112229
23
16.3446304554
0
CIRCLE
5
2E6
100
AcDbEntity
8
___SYMBOL
100
AcDbCircle
62
2
6
CONTINUOUS
10
10.7205321488
20
16.3446304554
40
0.0653578744
0
LINE
5
2E7
100
AcDbEntity
8
___SYMBOL
100
AcDbLine
62
2
6
CONTINUOUS
10
10.7162441254
20
16.3440927060
11
10.7481121393
21
16.3117897635
0
LINE
5
2E8
100
AcDbEntity
8
___SYMBOL
100
AcDbLine
62
2
6
CONTINUOUS
10
10.7046461488
20
16.3117897635
11
10.7046461488
21
16.3777559647
0
LINE
5
2E9
100
AcDbEntity
8
___SYMBOL
100
AcDbLine
62
2
6
CONTINUOUS
10
10.7046461488
20
16.3777559647
11
10.7289254826
21
16.3777559647
0
ARC
5
2EA
100
AcDbEntity
8
___SYMBOL
100
AcDbCircle
62
2
6
CONTINUOUS
10
10.7289254826
20
16.3609245145
40
0.0168314502
100
AcDbArc
50
270.0000000000
51
90.0000000000
0
LINE
5
2EB
100
AcDbEntity
8
___SYMBOL
100
AcDbLine
62
2
6
CONTINUOUS
10
10.7289254826
20
16.3440927060
11
10.7046461488
21
16.3440927060
0
TEXT
5
2EC
100
AcDbEntity
8
___SYMBOL
100
AcDbText
62
2
6
CONTINUOUS
10
7.8453030856
20
12.3936388022
7
STANDARD
40
0.2500000089
1
UNDERTONE
41
0.8000000000
72
0
100
AcDbText
0
TEXT
5
2ED
100
AcDbEntity
8
___SYMBOL
100
AcDbText
62
2
6
CONTINUOUS
10
9.6453031495
20
12.3936388022
7
STANDARD
40
0.2500000089
1
   
41
0.8000000000
72
0
100
AcDbText
0
TEXT
5
2EE
100
AcDbEntity
8
___SYMBOL
100
AcDbText
62
2
6
CONTINUOUS
10
10.2453031709
20
12.3936388022
7
STANDARD
40
0.2500000089
1
14300
41
0.8000000000
72
0
100
AcDbText
0
TEXT
5
2EF
100
AcDbEntity
8
___SYMBOL
100
AcDbText
62
2
6
CONTINUOUS
10
11.2453032064
20
12.3936388022
7
STANDARD
40
0.2500000089
1
-**-
41
0.8000000000
72
0
100
AcDbText
0
TEXT
5
2F0
100
AcDbEntity
8
___SYMBOL
100
AcDbText
62
2
6
CONTINUOUS
10
12.0453032349
20
12.3936388022
7
STANDARD
40
0.2500000089
1
AA
41
0.8000000000
72
0
100
AcDbText
0
TEXT
5
2F1
100
AcDbEntity
8
___SYMBOL
100
AcDbText
62
2
6
CONTINUOUS
10
7.8484393894
20
11.5011139457
7
STANDARD
40
0.2500000089
1
ICEROCK  
41
0.8000000000
72
0
100
AcDbText
0
TEXT
5
2F2
100
AcDbEntity
8
___SYMBOL
100
AcDbText
62
2
6
CONTINUOUS
10
9.6484394534
20
11.5011139457
7
STANDARD
40
0.2500000089
1
   
41
0.8000000000
72
0
100
AcDbText
0
TEXT
5
2F3
100
AcDbEntity
8
___SYMBOL
100
AcDbText
62
2
6
CONTINUOUS
10
10.2484394747
20
11.5011139457
7
STANDARD
40
0.2500000089
1
3336W
41
0.8000000000
72
0
100
AcDbText
0
TEXT
5
2F4
100
AcDbEntity
8
___SYMBOL
100
AcDbText
62
2
6
CONTINUOUS
10
11.2484395103
20
11.5011139457
7
STANDARD
40
0.2500000089
1
-**-
41
0.8000000000
72
0
100
AcDbText
0
TEXT
5
2F5
100
AcDbEntity
8
___SYMBOL
100
AcDbText
62
2
6
CONTINUOUS
10
12.0484395387
20
11.5011139457
7
STANDARD
40
0.2500000089
1
AA
41
0.8000000000
72
0
100
AcDbText
0
ENDBLK
5
2F6
100
AcDbEntity
8
0
6
BYBLOCK
62
0
100
AcDbBlockEnd
0
BLOCK
5
2F7
100
AcDbEntity
8
___SYMBOL
100
AcDbBlockBegin
62
2
6
CONTINUOUS
2
PACKAGING_UPC_BL2
70
64
10
9.7281534940
20
7.9806755383
3
PACKAGING_UPC_BL2
1

0
TEXT
5
2F8
100
AcDbEntity
8
___SYMBOL
100
AcDbText
62
7
6
CONTINUOUS
10
8.1941526109
20
8.5076788392
7
STANDARD
40
0.0593587494
1
XXXXX-XX-X-XX
41
0.8258950207
72
0
100
AcDbText
0
TEXT
5
2F9
100
AcDbEntity
8
___SYMBOL
100
AcDbText
62
7
6
CONTINUOUS
10
9.8281325949
20
8.3785138405
7
STANDARD
40
0.0445192496
1
xxxxxx-xx
41
0.6740211618
72
0
100
AcDbText
0
TEXT
5
2FA
100
AcDbEntity
8
___SYMBOL
100
AcDbText
62
2
6
CONTINUOUS
10
7.0638083134
20
10.0513075040
7
STANDARD
40
0.1562500055
1
PACKAGING/UPC LABEL ON BOX
41
0.7999999985
72
0
100
AcDbText
0
TEXT
5
2FB
100
AcDbEntity
8
___SYMBOL
100
AcDbText
62
2
6
CONTINUOUS
10
7.0638083134
20
9.8169324962
7
STANDARD
40
0.1562500055
1
ETIQUETA DE EMBALAJE/UPC EN LA CAJA
41
0.7999999985
72
0
100
AcDbText
0
TEXT
5
2FC
100
AcDbEntity
8
___SYMBOL
100
AcDbText
62
2
6
CONTINUOUS
10
7.0638083134
20
9.5825574949
7
STANDARD
40
0.1562500003
1
ETIQUETTE D'EMBALLAGE/UPC SUR LA BOÎTE
41
0.7999999985
72
0
100
AcDbText
0
TEXT
5
2FD
100
AcDbEntity
8
___SYMBOL
100
AcDbText
62
2
6
CONTINUOUS
10
7.0406534041
20
7.8631685841
7
STANDARD
40
0.1562500055
1
The template and the label suffixes circled
41
0.7999999985
72
0
100
AcDbText
0
TEXT
5
2FE
100
AcDbEntity
8
___SYMBOL
100
AcDbText
62
2
6
CONTINUOUS
10
7.0406534041
20
7.6287935763
7
STANDARD
40
0.1562500055
1
must match for proper cut-out.
41
0.7999999985
72
0
100
AcDbText
0
TEXT
5
2FF
100
AcDbEntity
8
___SYMBOL
100
AcDbText
62
2
6
CONTINUOUS
10
7.0406534041
20
7.3944185750
7
STANDARD
40
0.1562500003
1
 
41
0.7999999985
72
0
100
AcDbText
0
TEXT
5
300
100
AcDbEntity
8
___SYMBOL
100
AcDbText
62
2
6
CONTINUOUS
10
7.0406534041
20
7.1600435685
7
STANDARD
40
0.1562500055
1
A fin de realizar el corte apropiado, la
41
0.7999999985
72
0
100
AcDbText
0
TEXT
5
301
100
AcDbEntity
8
___SYMBOL
100
AcDbText
62
2
6
CONTINUOUS
10
7.0406534041
20
6.9256685672
7
STANDARD
40
0.1562500003
1
plantilla y los sufijos de la etiqueta
41
0.7999999985
72
0
100
AcDbText
0
TEXT
5
302
100
AcDbEntity
8
___SYMBOL
100
AcDbText
62
2
6
CONTINUOUS
10
7.0406534041
20
6.6912935672
7
STANDARD
40
0.1562500003
1
demarcados deben concordar.
41
0.7999999985
72
0
100
AcDbText
0
TEXT
5
303
100
AcDbEntity
8
___SYMBOL
100
AcDbText
62
2
6
CONTINUOUS
10
7.0406534041
20
6.4569185672
7
STANDARD
40
0.1562500003
1
 
41
0.7999999985
72
0
100
AcDbText
0
TEXT
5
304
100
AcDbEntity
8
___SYMBOL
100
AcDbText
62
2
6
CONTINUOUS
10
7.0406534041
20
6.2225435672
7
STANDARD
40
0.1562500003
1
Afin de découper l'ouverture correctement,
41
0.7999999985
72
0
100
AcDbText
0
TEXT
5
305
100
AcDbEntity
8
___SYMBOL
100
AcDbText
62
2
6
CONTINUOUS
10
7.0406534041
20
5.9881685672
7
STANDARD
40
0.1562500003
1
le gabarit et les suffixes encerclés
41
0.7999999985
72
0
100
AcDbText
0
TEXT
5
306
100
AcDbEntity
8
___SYMBOL
100
AcDbText
62
2
6
CONTINUOUS
10
7.0406534041
20
5.7537935672
7
STANDARD
40
0.1562500003
1
doivent correspondre
41
0.7999999985
72
0
100
AcDbText
0
LINE
5
307
100
AcDbEntity
8
___SYMBOL
100
AcDbLine
62
7
6
CONTINUOUS
10
10.1829575914
20
8.3517838408
11
7.9979151128
21
8.3517838408
0
LINE
5
308
100
AcDbEntity
8
___SYMBOL
100
AcDbLine
62
7
6
CONTINUOUS
10
7.9979151128
20
8.3517838408
11
7.9979151128
21
9.3448138311
0
LINE
5
309
100
AcDbEntity
8
___SYMBOL
100
AcDbLine
62
7
6
CONTINUOUS
10
7.9979151128
20
9.3448138311
11
10.1829575914
21
9.3448138311
0
LINE
5
30A
100
AcDbEntity
8
___SYMBOL
100
AcDbLine
62
7
6
CONTINUOUS
10
10.1829575914
20
9.3448138311
11
10.1829575914
21
8.3517838408
0
LINE
5
30B
100
AcDbEntity
8
___SYMBOL
100
AcDbLine
62
7
6
CONTINUOUS
10
7.9645476131
20
9.3772738307
11
10.2171125911
21
9.3772738307
0
LINE
5
30C
100
AcDbEntity
8
___SYMBOL
100
AcDbLine
62
7
6
CONTINUOUS
10
10.2171125911
20
9.3772738307
11
10.2171125911
21
8.2843663414
0
LINE
5
30D
100
AcDbEntity
8
___SYMBOL
100
AcDbLine
62
7
6
CONTINUOUS
10
10.2171125911
20
8.2843663414
11
7.9645476131
21
8.2843663414
0
LINE
5
30E
100
AcDbEntity
8
___SYMBOL
100
AcDbLine
62
7
6
CONTINUOUS
10
7.9645476131
20
8.2843663414
11
7.9645476131
21
9.3772738307
0
LINE
5
30F
100
AcDbEntity
8
___SYMBOL
100
AcDbLine
62
7
6
CONTINUOUS
10
9.9777725934
20
8.7834538365
11
9.9777725934
21
8.6618188377
0
LINE
5
310
100
AcDbEntity
8
___SYMBOL
100
AcDbLine
62
7
6
CONTINUOUS
10
9.9777725934
20
8.6618188377
11
9.6348200968
21
8.6618188377
0
LINE
5
311
100
AcDbEntity
8
___SYMBOL
100
AcDbLine
62
7
6
CONTINUOUS
10
9.6348200968
20
8.6618188377
11
9.6348200968
21
8.7834538365
0
LINE
5
312
100
AcDbEntity
8
___SYMBOL
100
AcDbLine
62
7
6
CONTINUOUS
10
9.6348200968
20
8.7834538365
11
9.9777725934
21
8.7834538365
0
SOLID
5
313
100
AcDbEntity
8
___SYMBOL
100
AcDbTrace
62
7
6
CONTINUOUS
10
9.6348200968
20
8.6618188286
11
9.6348200968
21
8.7834538289
12
9.9777725934
22
8.7834538289
13
9.9777725934
23
8.7834538289
0
SOLID
5
314
100
AcDbEntity
8
___SYMBOL
100
AcDbTrace
62
7
6
CONTINUOUS
10
9.9777725934
20
8.7834538289
11
9.9777725934
21
8.6618188286
12
9.6348200968
22
8.6618188286
13
9.6348200968
23
8.6618188286
0
LINE
5
315
100
AcDbEntity
8
___SYMBOL
100
AcDbLine
62
7
6
CONTINUOUS
10
8.9023176039
20
8.7834538365
11
8.9023176039
21
8.6618188377
0
LINE
5
316
100
AcDbEntity
8
___SYMBOL
100
AcDbLine
62
7
6
CONTINUOUS
10
8.9023176039
20
8.6618188377
11
8.0466126123
21
8.6618188377
0
LINE
5
317
100
AcDbEntity
8
___SYMBOL
100
AcDbLine
62
7
6
CONTINUOUS
10
8.0466126123
20
8.6618188377
11
8.0466126123
21
8.7834538365
0
LINE
5
318
100
AcDbEntity
8
___SYMBOL
100
AcDbLine
62
7
6
CONTINUOUS
10
8.0466126123
20
8.7834538365
11
8.9023176039
21
8.7834538365
0
SOLID
5
319
100
AcDbEntity
8
___SYMBOL
100
AcDbTrace
62
7
6
CONTINUOUS
10
8.0466126123
20
8.6618188286
11
8.0466126123
21
8.7834538289
12
8.9023176039
22
8.7834538289
13
8.9023176039
23
8.7834538289
0
SOLID
5
31A
100
AcDbEntity
8
___SYMBOL
100
AcDbTrace
62
7
6
CONTINUOUS
10
8.9023176039
20
8.7834538289
11
8.9023176039
21
8.6618188286
12
8.0466126123
22
8.6618188286
13
8.0466126123
23
8.6618188286
0
LINE
5
31B
100
AcDbEntity
8
___SYMBOL
100
AcDbLine
62
7
6
CONTINUOUS
10
8.9023176039
20
8.4101863402
11
8.9023176039
21
8.3752063405
0
LINE
5
31C
100
AcDbEntity
8
___SYMBOL
100
AcDbLine
62
7
6
CONTINUOUS
10
8.9023176039
20
8.3752063405
11
8.0466126123
21
8.3752063405
0
LINE
5
31D
100
AcDbEntity
8
___SYMBOL
100
AcDbLine
62
7
6
CONTINUOUS
10
8.0466126123
20
8.3752063405
11
8.0466126123
21
8.4101863402
0
LINE
5
31E
100
AcDbEntity
8
___SYMBOL
100
AcDbLine
62
7
6
CONTINUOUS
10
8.0466126123
20
8.4101863402
11
8.9023176039
21
8.4101863402
0
SOLID
5
31F
100
AcDbEntity
8
___SYMBOL
100
AcDbTrace
62
7
6
CONTINUOUS
10
8.0466126123
20
8.3752063421
11
8.0466126123
21
8.4101863242
12
8.9023176039
22
8.4101863242
13
8.9023176039
23
8.4101863242
0
SOLID
5
320
100
AcDbEntity
8
___SYMBOL
100
AcDbTrace
62
7
6
CONTINUOUS
10
8.9023176039
20
8.4101863242
11
8.9023176039
21
8.3752063421
12
8.0466126123
22
8.3752063421
13
8.0466126123
23
8.3752063421
0
SPLINE
5
321
100
AcDbEntity
8
___SYMBOL
100
AcDbSpline
62
7
6
CONTINUOUS
70
0
71
2
72
8
73
5
74
295
42
0.0000001000
43
0.0000001000
44
0.0000000001
12
-0.3204212141
22
-0.0753823492
32
0.0000000000
13
-0.3214221905
23
-0.0709927505
33
0.0000000000
40
0.0000000000
40
0.0000000000
40
0.0000000000
40
1.0000000000
40
1.0000000000
40
2.0000000000
40
2.0000000000
40
2.0000000000
41
1.0000000000
41
0.0034195132
41
1.0000000000
41
0.0034195132
41
1.0000000000
10
8.7683225573
20
8.6219639584
30
0.0000000000
10
-14.6576150637
20
3.1107739002
30
0.0000000000
10
8.8054618699
20
8.4616277073
30
0.0000000000
10
32.2685388035
20
13.8124815144
30
0.0000000000
10
8.7694199790
20
8.6222142300
30
0.0000000000
11
8.7683225573
21
8.6219639584
31
0.0000000000
11
8.7670635050
21
8.6216572721
31
0.0000000000
11
8.7657898022
21
8.6213255188
31
0.0000000000
11
8.7645017229
21
8.6209677538
31
0.0000000000
11
8.7631995808
21
8.6205830125
31
0.0000000000
11
8.7618837320
21
8.6201703108
31
0.0000000000
11
8.7605545773
21
8.6197286464
31
0.0000000000
11
8.7592125650
21
8.6192569998
31
0.0000000000
11
8.7578581931
21
8.6187543362
31
0.0000000000
11
8.7564920123
21
8.6182196066
31
0.0000000000
11
8.7551146283
21
8.6176517499
31
0.0000000000
11
8.7537267047
21
8.6170496953
31
0.0000000000
11
8.7523289657
21
8.6164123639
31
0.0000000000
11
8.7509221984
21
8.6157386722
31
0.0000000000
11
8.7495072561
21
8.6150275342
31
0.0000000000
11
8.7480850602
21
8.6142778649
31
0.0000000000
11
8.7466566029
21
8.6134885838
31
0.0000000000
11
8.7452229500
21
8.6126586185
31
0.0000000000
11
8.7437852426
21
8.6117869090
31
0.0000000000
11
8.7423446995
21
8.6108724118
31
0.0000000000
11
8.7409026194
21
8.6099141048
31
0.0000000000
11
8.7394603820
21
8.6089109922
31
0.0000000000
11
8.7380194501
21
8.6078621103
31
0.0000000000
11
8.7365813703
21
8.6067665325
31
0.0000000000
11
8.7351477741
21
8.6056233759
31
0.0000000000
11
8.7337203781
21
8.6044318076
31
0.0000000000
11
8.7323009844
21
8.6031910509
31
0.0000000000
11
8.7308914799
21
8.6019003926
31
0.0000000000
11
8.7294938354
21
8.6005591898
31
0.0000000000
11
8.7281101042
21
8.5991668777
31
0.0000000000
11
8.7267424200
21
8.5977229766
31
0.0000000000
11
8.7253929940
21
8.5962270999
31
0.0000000000
11
8.7240641118
21
8.5946789617
31
0.0000000000
11
8.7227581293
21
8.5930783846
31
0.0000000000
11
8.7214774675
21
8.5914253074
31
0.0000000000
11
8.7202246073
21
8.5897197926
31
0.0000000000
11
8.7190020829
21
8.5879620343
31
0.0000000000
11
8.7178124745
21
8.5861523647
31
0.0000000000
11
8.7166584006
21
8.5842912615
31
0.0000000000
11
8.7155425090
21
8.5823793539
31
0.0000000000
11
8.7144674671
21
8.5804174289
31
0.0000000000
11
8.7134359516
21
8.5784064362
31
0.0000000000
11
8.7124506375
21
8.5763474927
31
0.0000000000
11
8.7115141860
21
8.5742418865
31
0.0000000000
11
8.7106292323
21
8.5720910797
31
0.0000000000
11
8.7097983727
21
8.5698967100
31
0.0000000000
11
8.7090241506
21
8.5676605914
31
0.0000000000
11
8.7083090433
21
8.5653847140
31
0.0000000000
11
8.7076554475
21
8.5630712423
31
0.0000000000
11
8.7070656650
21
8.5607225122
31
0.0000000000
11
8.7065418887
21
8.5583410268
31
0.0000000000
11
8.7060861882
21
8.5559294505
31
0.0000000000
11
8.7057004961
21
8.5534906024
31
0.0000000000
11
8.7053865943
21
8.5510274478
31
0.0000000000
11
8.7051461015
21
8.5485430883
31
0.0000000000
11
8.7049804606
21
8.5460407511
31
0.0000000000
11
8.7048909276
21
8.5435237763
31
0.0000000000
11
8.7048785613
21
8.5409956039
31
0.0000000000
11
8.7049442144
21
8.5384597591
31
0.0000000000
11
8.7050885252
21
8.5359198369
31
0.0000000000
11
8.7053119115
21
8.5333794857
31
0.0000000000
11
8.7056145656
21
8.5308423904
31
0.0000000000
11
8.7059964510
21
8.5283122553
31
0.0000000000
11
8.7064573001
21
8.5257927857
31
0.0000000000
11
8.7069966149
21
8.5232876704
31
0.0000000000
11
8.7076136681
21
8.5208005635
31
0.0000000000
11
8.7083075061
21
8.5183350668
31
0.0000000000
11
8.7090769547
21
8.5158947124
31
0.0000000000
11
8.7099206248
21
8.5134829459
31
0.0000000000
11
8.7108369206
21
8.5111031101
31
0.0000000000
11
8.7118240493
21
8.5087584303
31
0.0000000000
11
8.7128800314
21
8.5064519996
31
0.0000000000
11
8.7140027131
21
8.5041867660
31
0.0000000000
11
8.7151897785
21
8.5019655207
31
0.0000000000
11
8.7164387643
21
8.4997908879
31
0.0000000000
11
8.7177470737
21
8.4976653152
31
0.0000000000
11
8.7191119919
21
8.4955910665
31
0.0000000000
11
8.7205307014
21
8.4935702159
31
0.0000000000
11
8.7220002981
21
8.4916046431
31
0.0000000000
11
8.7235178067
21
8.4896960302
31
0.0000000000
11
8.7250801968
21
8.4878458602
31
0.0000000000
11
8.7266843985
21
8.4860554171
31
0.0000000000
11
8.7283273172
21
8.4843257867
31
0.0000000000
11
8.7300058487
21
8.4826578591
31
0.0000000000
11
8.7317168932
21
8.4810523325
31
0.0000000000
11
8.7334573685
21
8.4795097177
31
0.0000000000
11
8.7352242229
21
8.4780303441
31
0.0000000000
11
8.7370144467
21
8.4766143661
31
0.0000000000
11
8.7388250834
21
8.4752617702
31
0.0000000000
11
8.7406532393
21
8.4739723836
31
0.0000000000
11
8.7424960928
21
8.4727458822
31
0.0000000000
11
8.7443509023
21
8.4715817999
31
0.0000000000
11
8.7462150128
21
8.4704795375
31
0.0000000000
11
8.7480858628
21
8.4694383728
31
0.0000000000
11
8.7499609885
21
8.4684574696
31
0.0000000000
11
8.7518380286
21
8.4675358877
31
0.0000000000
11
8.7537147275
21
8.4666725926
31
0.0000000000
11
8.7555889375
21
8.4658664646
31
0.0000000000
11
8.7574586209
21
8.4651163085
31
0.0000000000
11
8.7593218504
21
8.4644208626
31
0.0000000000
11
8.7611768101
21
8.4637788073
31
0.0000000000
11
8.7630217944
21
8.4631887736
31
0.0000000000
11
8.7648552076
21
8.4626493513
31
0.0000000000
11
8.7666755623
21
8.4621590964
31
0.0000000000
11
8.7684814773
21
8.4617165386
31
0.0000000000
11
8.7702716756
21
8.4613201881
31
0.0000000000
11
8.7720449816
21
8.4609685417
31
0.0000000000
11
8.7738003182
21
8.4606600892
31
0.0000000000
11
8.7755367036
21
8.4603933184
31
0.0000000000
11
8.7772532479
21
8.4601667205
31
0.0000000000
11
8.7789491496
21
8.4599787943
31
0.0000000000
11
8.7806236918
21
8.4598280509
31
0.0000000000
11
8.7822762385
21
8.4597130173
31
0.0000000000
11
8.7839062309
21
8.4596322393
31
0.0000000000
11
8.7855131835
21
8.4595842854
31
0.0000000000
11
8.7870966799
21
8.4595677488
31
0.0000000000
11
8.7886563697
21
8.4595812497
31
0.0000000000
11
8.7901919641
21
8.4596234378
31
0.0000000000
11
8.7917032325
21
8.4596929935
31
0.0000000000
11
8.7931899988
21
8.4597886297
31
0.0000000000
11
8.7946521378
21
8.4599090927
31
0.0000000000
11
8.7960895720
21
8.4600531630
31
0.0000000000
11
8.7975022681
21
8.4602196566
31
0.0000000000
11
8.7981993402
21
8.4603109518
31
0.0000000000
11
8.7988902338
21
8.4604074249
31
0.0000000000
11
8.7995749555
21
8.4605089380
31
0.0000000000
11
8.8002535146
21
8.4606153552
31
0.0000000000
11
8.8009259221
21
8.4607265434
31
0.0000000000
11
8.8015921912
21
8.4608423711
31
0.0000000000
11
8.8022523371
21
8.4609627096
31
0.0000000000
11
8.8025801190
21
8.4610245306
31
0.0000000000
11
8.8029063766
21
8.4610874321
31
0.0000000000
11
8.8032311123
21
8.4611513984
31
0.0000000000
11
8.8035543285
21
8.4612164142
31
0.0000000000
11
8.8038760278
21
8.4612824643
31
0.0000000000
11
8.8041962130
21
8.4613495337
31
0.0000000000
11
8.8043557387
21
8.4613834459
31
0.0000000000
11
8.8045148869
21
8.4614176074
31
0.0000000000
11
8.8046736580
21
8.4614520163
31
0.0000000000
11
8.8048320523
21
8.4614866707
31
0.0000000000
11
8.8049900703
21
8.4615215688
31
0.0000000000
11
8.8050689383
21
8.4615391087
31
0.0000000000
11
8.8051477123
21
8.4615567088
31
0.0000000000
11
8.8052263924
21
8.4615743689
31
0.0000000000
11
8.8053049787
21
8.4615920889
31
0.0000000000
11
8.8053834712
21
8.4616098684
31
0.0000000000
11
8.8054226822
21
8.4616187805
31
0.0000000000
11
8.8054618699
21
8.4616277073
31
0.0000000000
11
8.8055010532
21
8.4616366533
31
0.0000000000
11
8.8055402511
21
8.4616456228
31
0.0000000000
11
8.8056186911
21
8.4616636323
31
0.0000000000
11
8.8056971898
21
8.4616817363
31
0.0000000000
11
8.8057757472
21
8.4616999348
31
0.0000000000
11
8.8058543632
21
8.4617182281
31
0.0000000000
11
8.8059330376
21
8.4617366165
31
0.0000000000
11
8.8060905620
21
8.4617736791
31
0.0000000000
11
8.8062483199
21
8.4618111246
31
0.0000000000
11
8.8064063108
21
8.4618489546
31
0.0000000000
11
8.8065645344
21
8.4618871711
31
0.0000000000
11
8.8067229900
21
8.4619257758
31
0.0000000000
11
8.8070405957
21
8.4620041574
31
0.0000000000
11
8.8073591239
21
8.4620841138
31
0.0000000000
11
8.8076785706
21
8.4621656600
31
0.0000000000
11
8.8079989316
21
8.4622488107
31
0.0000000000
11
8.8083202024
21
8.4623335809
31
0.0000000000
11
8.8086423784
21
8.4624199855
31
0.0000000000
11
8.8092894273
21
8.4625977583
31
0.0000000000
11
8.8099400386
21
8.4627822507
31
0.0000000000
11
8.8105941700
21
8.4629735854
31
0.0000000000
11
8.8112517765
21
8.4631718863
31
0.0000000000
11
8.8119128103
21
8.4633772785
31
0.0000000000
11
8.8125772208
21
8.4635898882
31
0.0000000000
11
8.8132449542
21
8.4638098427
31
0.0000000000
11
8.8145901605
21
8.4642723004
31
0.0000000000
11
8.8159479382
21
8.4647656899
31
0.0000000000
11
8.8173177439
21
8.4652910639
31
0.0000000000
11
8.8186989791
21
8.4658494876
31
0.0000000000
11
8.8200909874
21
8.4664420363
31
0.0000000000
11
8.8214930523
21
8.4670697938
31
0.0000000000
11
8.8229043938
21
8.4677338492
31
0.0000000000
11
8.8243241662
21
8.4684352940
31
0.0000000000
11
8.8257514557
21
8.4691752196
31
0.0000000000
11
8.8271852772
21
8.4699547132
31
0.0000000000
11
8.8286245725
21
8.4707748546
31
0.0000000000
11
8.8300682078
21
8.4716367114
31
0.0000000000
11
8.8315149711
21
8.4725413357
31
0.0000000000
11
8.8329635712
21
8.4734897582
31
0.0000000000
11
8.8344126349
21
8.4744829841
31
0.0000000000
11
8.8358607062
21
8.4755219873
31
0.0000000000
11
8.8373062448
21
8.4766077047
31
0.0000000000
11
8.8387476254
21
8.4777410305
31
0.0000000000
11
8.8401831370
21
8.4789228093
31
0.0000000000
11
8.8416109828
21
8.4801538300
31
0.0000000000
11
8.8430292809
21
8.4814348189
31
0.0000000000
11
8.8444360650
21
8.4827664321
31
0.0000000000
11
8.8458292857
21
8.4841492487
31
0.0000000000
11
8.8472068126
21
8.4855837628
31
0.0000000000
11
8.8485664372
21
8.4870703761
31
0.0000000000
11
8.8499058758
21
8.4886093903
31
0.0000000000
11
8.8512227740
21
8.4902009987
31
0.0000000000
11
8.8525147111
21
8.4918452792
31
0.0000000000
11
8.8537792058
21
8.4935421861
31
0.0000000000
11
8.8550137229
21
8.4952915429
31
0.0000000000
11
8.8562156796
21
8.4970930349
31
0.0000000000
11
8.8573824545
21
8.4989462023
31
0.0000000000
11
8.8585113954
21
8.5008504339
31
0.0000000000
11
8.8595998297
21
8.5028049613
31
0.0000000000
11
8.8606450741
21
8.5048088529
31
0.0000000000
11
8.8616444463
21
8.5068610101
31
0.0000000000
11
8.8625952760
21
8.5089601630
31
0.0000000000
11
8.8634949183
21
8.5111048678
31
0.0000000000
11
8.8643407657
21
8.5132935044
31
0.0000000000
11
8.8651302624
21
8.5155242763
31
0.0000000000
11
8.8658609177
21
8.5177952103
31
0.0000000000
11
8.8665303201
21
8.5201041583
31
0.0000000000
11
8.8671361518
21
8.5224488004
31
0.0000000000
11
8.8676762028
21
8.5248266485
31
0.0000000000
11
8.8681483855
21
8.5272350524
31
0.0000000000
11
8.8685507479
21
8.5296712061
31
0.0000000000
11
8.8688814879
21
8.5321321568
31
0.0000000000
11
8.8691389656
21
8.5346148139
31
0.0000000000
11
8.8693217162
21
8.5371159602
31
0.0000000000
11
8.8694284608
21
8.5396322643
31
0.0000000000
11
8.8694581171
21
8.5421602934
31
0.0000000000
11
8.8694098083
21
8.5446965283
31
0.0000000000
11
8.8692828716
21
8.5472373786
31
0.0000000000
11
8.8690768641
21
8.5497791985
31
0.0000000000
11
8.8687915684
21
8.5523183047
31
0.0000000000
11
8.8684269958
21
8.5548509928
31
0.0000000000
11
8.8679833883
21
8.5573735556
31
0.0000000000
11
8.8674612187
21
8.5598823011
31
0.0000000000
11
8.8668611896
21
8.5623735703
31
0.0000000000
11
8.8661842295
21
8.5648437549
31
0.0000000000
11
8.8654314887
21
8.5672893148
31
0.0000000000
11
8.8646043327
21
8.5697067952
31
0.0000000000
11
8.8637043343
21
8.5720928422
31
0.0000000000
11
8.8627332642
21
8.5744442185
31
0.0000000000
11
8.8616930807
21
8.5767578175
31
0.0000000000
11
8.8605859176
21
8.5790306764
31
0.0000000000
11
8.8594140713
21
8.5812599884
31
0.0000000000
11
8.8581799874
21
8.5834431125
31
0.0000000000
11
8.8568862457
21
8.5855775833
31
0.0000000000
11
8.8555355455
21
8.5876611184
31
0.0000000000
11
8.8541306901
21
8.5896916245
31
0.0000000000
11
8.8526745707
21
8.5916672022
31
0.0000000000
11
8.8511701509
21
8.5935861490
31
0.0000000000
11
8.8496204510
21
8.5954469611
31
0.0000000000
11
8.8480285321
21
8.5972483336
31
0.0000000000
11
8.8463974811
21
8.5989891597
31
0.0000000000
11
8.8447303961
21
8.6006685279
31
0.0000000000
11
8.8430303722
21
8.6022857190
31
0.0000000000
11
8.8413004879
21
8.6038402009
31
0.0000000000
11
8.8395437927
21
8.6053316236
31
0.0000000000
11
8.8377632950
21
8.6067598120
31
0.0000000000
11
8.8359619515
21
8.6081247593
31
0.0000000000
11
8.8341426568
21
8.6094266186
31
0.0000000000
11
8.8323082348
21
8.6106656947
31
0.0000000000
11
8.8304614302
21
8.6118424349
31
0.0000000000
11
8.8286049020
21
8.6129574202
31
0.0000000000
11
8.8267412167
21
8.6140113553
31
0.0000000000
11
8.8248728436
21
8.6150050596
31
0.0000000000
11
8.8230021505
21
8.6159394571
31
0.0000000000
11
8.8211313999
21
8.6168155668
31
0.0000000000
11
8.8192627472
21
8.6176344937
31
0.0000000000
11
8.8173982383
21
8.6183974189
31
0.0000000000
11
8.8155398088
21
8.6191055912
31
0.0000000000
11
8.8136892839
21
8.6197603175
31
0.0000000000
11
8.8118483783
21
8.6203629552
31
0.0000000000
11
8.8100186974
21
8.6209149036
31
0.0000000000
11
8.8082017385
21
8.6214175965
31
0.0000000000
11
8.8063988927
21
8.6218724945
31
0.0000000000
11
8.8046114472
21
8.6222810789
31
0.0000000000
11
8.8028405879
21
8.6226448446
31
0.0000000000
11
8.8010874022
21
8.6229652945
31
0.0000000000
11
8.7993528822
21
8.6232439341
31
0.0000000000
11
8.7976379280
21
8.6234822662
31
0.0000000000
11
8.7959433516
21
8.6236817861
31
0.0000000000
11
8.7942698798
21
8.6238439780
31
0.0000000000
11
8.7926181587
21
8.6239703107
31
0.0000000000
11
8.7909887571
21
8.6240622342
31
0.0000000000
11
8.7893821704
21
8.6241211768
31
0.0000000000
11
8.7877988244
21
8.6241485425
31
0.0000000000
11
8.7862390790
21
8.6241457085
31
0.0000000000
11
8.7847032322
21
8.6241140232
31
0.0000000000
11
8.7831915238
21
8.6240548045
31
0.0000000000
11
8.7817041385
21
8.6239693384
31
0.0000000000
11
8.7802412100
21
8.6238588778
31
0.0000000000
11
8.7788028244
21
8.6237246412
31
0.0000000000
11
8.7773890229
21
8.6235678128
31
0.0000000000
11
8.7759998058
21
8.6233895411
31
0.0000000000
11
8.7746351351
21
8.6231909390
31
0.0000000000
11
8.7732949374
21
8.6229730835
31
0.0000000000
11
8.7719791070
21
8.6227370159
31
0.0000000000
11
8.7706875084
21
8.6224837414
31
0.0000000000
11
8.7694199790
21
8.6222142300
31
0.0000000000
0
LINE
5
322
100
AcDbEntity
8
___SYMBOL
100
AcDbLine
62
7
6
CONTINUOUS
10
8.9489676035
20
9.3166888313
11
8.9489676035
21
9.2550388319
0
LINE
5
323
100
AcDbEntity
8
___SYMBOL
100
AcDbLine
62
7
6
CONTINUOUS
10
8.9489676035
20
9.2550388319
11
8.0932626118
21
9.2550388319
0
LINE
5
324
100
AcDbEntity
8
___SYMBOL
100
AcDbLine
62
7
6
CONTINUOUS
10
8.0932626118
20
9.2550388319
11
8.0932626118
21
9.3166888313
0
LINE
5
325
100
AcDbEntity
8
___SYMBOL
100
AcDbLine
62
7
6
CONTINUOUS
10
8.0932626118
20
9.3166888313
11
8.9489676035
21
9.3166888313
0
SOLID
5
326
100
AcDbEntity
8
___SYMBOL
100
AcDbTrace
62
7
6
CONTINUOUS
10
8.0932626118
20
9.2550388278
11
8.0932626118
21
9.3166888179
12
8.9489676035
22
9.3166888179
13
8.9489676035
23
9.3166888179
0
SOLID
5
327
100
AcDbEntity
8
___SYMBOL
100
AcDbTrace
62
7
6
CONTINUOUS
10
8.9489676035
20
9.3166888179
11
8.9489676035
21
9.2550388278
12
8.0932626118
22
9.2550388278
13
8.0932626118
23
9.2550388278
0
LINE
5
328
100
AcDbEntity
8
___SYMBOL
100
AcDbLine
62
7
6
CONTINUOUS
10
8.9489676035
20
9.2167063323
11
8.9489676035
21
9.1550563329
0
LINE
5
329
100
AcDbEntity
8
___SYMBOL
100
AcDbLine
62
7
6
CONTINUOUS
10
8.9489676035
20
9.1550563329
11
8.0932626118
21
9.1550563329
0
LINE
5
32A
100
AcDbEntity
8
___SYMBOL
100
AcDbLine
62
7
6
CONTINUOUS
10
8.0932626118
20
9.1550563329
11
8.0932626118
21
9.2167063323
0
LINE
5
32B
100
AcDbEntity
8
___SYMBOL
100
AcDbLine
62
7
6
CONTINUOUS
10
8.0932626118
20
9.2167063323
11
8.9489676035
21
9.2167063323
0
SOLID
5
32C
100
AcDbEntity
8
___SYMBOL
100
AcDbTrace
62
7
6
CONTINUOUS
10
8.0932626118
20
9.1550563196
11
8.0932626118
21
9.2167063437
12
8.9489676035
22
9.2167063437
13
8.9489676035
23
9.2167063437
0
SOLID
5
32D
100
AcDbEntity
8
___SYMBOL
100
AcDbTrace
62
7
6
CONTINUOUS
10
8.9489676035
20
9.2167063437
11
8.9489676035
21
9.1550563196
12
8.0932626118
22
9.1550563196
13
8.0932626118
23
9.1550563196
0
LINE
5
32E
100
AcDbEntity
8
___SYMBOL
100
AcDbLine
62
7
6
CONTINUOUS
10
8.9489676035
20
9.1167238333
11
8.9489676035
21
9.0550813339
0
LINE
5
32F
100
AcDbEntity
8
___SYMBOL
100
AcDbLine
62
7
6
CONTINUOUS
10
8.9489676035
20
9.0550813339
11
8.0932626118
21
9.0550813339
0
LINE
5
330
100
AcDbEntity
8
___SYMBOL
100
AcDbLine
62
7
6
CONTINUOUS
10
8.0932626118
20
9.0550813339
11
8.0932626118
21
9.1167238333
0
LINE
5
331
100
AcDbEntity
8
___SYMBOL
100
AcDbLine
62
7
6
CONTINUOUS
10
8.0932626118
20
9.1167238333
11
8.9489676035
21
9.1167238333
0
SOLID
5
332
100
AcDbEntity
8
___SYMBOL
100
AcDbTrace
62
7
6
CONTINUOUS
10
8.0932626118
20
9.0550813254
11
8.0932626118
21
9.1167238355
12
8.9489676035
22
9.1167238355
13
8.9489676035
23
9.1167238355
0
SOLID
5
333
100
AcDbEntity
8
___SYMBOL
100
AcDbTrace
62
7
6
CONTINUOUS
10
8.9489676035
20
9.1167238355
11
8.9489676035
21
9.0550813254
12
8.0932626118
22
9.0550813254
13
8.0932626118
23
9.0550813254
0
LINE
5
334
100
AcDbEntity
8
___SYMBOL
100
AcDbLine
62
7
6
CONTINUOUS
10
8.9489676035
20
9.0167413343
11
8.9489676035
21
8.9550988349
0
LINE
5
335
100
AcDbEntity
8
___SYMBOL
100
AcDbLine
62
7
6
CONTINUOUS
10
8.9489676035
20
8.9550988349
11
8.0932626118
21
8.9550988349
0
LINE
5
336
100
AcDbEntity
8
___SYMBOL
100
AcDbLine
62
7
6
CONTINUOUS
10
8.0932626118
20
8.9550988349
11
8.0932626118
21
9.0167413343
0
LINE
5
337
100
AcDbEntity
8
___SYMBOL
100
AcDbLine
62
7
6
CONTINUOUS
10
8.0932626118
20
9.0167413343
11
8.9489676035
21
9.0167413343
0
SOLID
5
338
100
AcDbEntity
8
___SYMBOL
100
AcDbTrace
62
7
6
CONTINUOUS
10
8.0932626118
20
8.9550988512
11
8.0932626118
21
9.0167413273
12
8.9489676035
22
9.0167413273
13
8.9489676035
23
9.0167413273
0
SOLID
5
339
100
AcDbEntity
8
___SYMBOL
100
AcDbTrace
62
7
6
CONTINUOUS
10
8.9489676035
20
9.0167413273
11
8.9489676035
21
8.9550988512
12
8.0932626118
22
8.9550988512
13
8.0932626118
23
8.9550988512
0
LINE
5
33A
100
AcDbEntity
8
___SYMBOL
100
AcDbLine
62
7
6
CONTINUOUS
10
8.9489676035
20
8.8901038355
11
8.9489676035
21
8.8284538361
0
LINE
5
33B
100
AcDbEntity
8
___SYMBOL
100
AcDbLine
62
7
6
CONTINUOUS
10
8.9489676035
20
8.8284538361
11
8.0932626118
21
8.8284538361
0
LINE
5
33C
100
AcDbEntity
8
___SYMBOL
100
AcDbLine
62
7
6
CONTINUOUS
10
8.0932626118
20
8.8284538361
11
8.0932626118
21
8.8901038355
0
LINE
5
33D
100
AcDbEntity
8
___SYMBOL
100
AcDbLine
62
7
6
CONTINUOUS
10
8.0932626118
20
8.8901038355
11
8.9489676035
21
8.8901038355
0
SOLID
5
33E
100
AcDbEntity
8
___SYMBOL
100
AcDbTrace
62
7
6
CONTINUOUS
10
8.0932626118
20
8.8284538490
11
8.0932626118
21
8.8901038391
12
8.9489676035
22
8.8901038391
13
8.9489676035
23
8.8901038391
0
SOLID
5
33F
100
AcDbEntity
8
___SYMBOL
100
AcDbTrace
62
7
6
CONTINUOUS
10
8.9489676035
20
8.8901038391
11
8.9489676035
21
8.8284538490
12
8.0932626118
22
8.8284538490
13
8.0932626118
23
8.8284538490
0
ENDBLK
5
340
100
AcDbEntity
8
0
6
BYBLOCK
62
0
100
AcDbBlockEnd
0
BLOCK
5
341
100
AcDbEntity
8
___SYMBOL
100
AcDbBlockBegin
62
2
6
CONTINUOUS
2
TEMPLATE_NUMBER_BL3
70
64
10
11.7387996600
20
3.5060831673
3
TEMPLATE_NUMBER_BL3
1

0
TEXT
5
342
100
AcDbEntity
8
___SYMBOL
100
AcDbText
62
2
6
CONTINUOUS
10
11.4285997575
20
3.4708331783
7
STANDARD
40
0.0704999778
1
113197-7
41
0.8000000000
72
0
100
AcDbText
0
TEXT
5
343
100
AcDbEntity
8
___SYMBOL
100
AcDbText
62
2
6
CONTINUOUS
10
11.8797996157
20
3.4708331783
7
STANDARD
40
0.0704999778
1
-
41
0.8000000000
72
0
100
AcDbText
0
TEXT
5
344
100
AcDbEntity
8
___SYMBOL
100
AcDbText
62
2
6
CONTINUOUS
10
11.9361995980
20
3.4708331783
7
STANDARD
40
0.0704999778
1
CD
41
0.8000000000
72
0
100
AcDbText
0
ENDBLK
5
345
100
AcDbEntity
8
0
6
BYBLOCK
62
0
100
AcDbBlockEnd
0
BLOCK
5
346
100
AcDbEntity
8
___SYMBOL
100
AcDbBlockBegin
62
2
6
CONTINUOUS
2
TEMPLATE_NUMBER_BL4
70
64
10
11.7312243096
20
2.2938676656
3
TEMPLATE_NUMBER_BL4
1

0
TEXT
5
347
100
AcDbEntity
8
___SYMBOL
100
AcDbText
62
2
6
CONTINUOUS
10
11.4210244071
20
2.2586176767
7
STANDARD
40
0.0704999778
1
113197-7
41
0.8000000000
72
0
100
AcDbText
0
TEXT
5
348
100
AcDbEntity
8
___SYMBOL
100
AcDbText
62
2
6
CONTINUOUS
10
11.8722242653
20
2.2586176767
7
STANDARD
40
0.0704999778
1
-
41
0.8000000000
72
0
100
AcDbText
0
TEXT
5
349
100
AcDbEntity
8
___SYMBOL
100
AcDbText
62
2
6
CONTINUOUS
10
11.9286242476
20
2.2586176767
7
STANDARD
40
0.0704999778
1
CD
41
0.8000000000
72
0
100
AcDbText
0
ENDBLK
5
34A
100
AcDbEntity
8
0
6
BYBLOCK
62
0
100
AcDbBlockEnd
0
BLOCK
5
34B
100
AcDbEntity
8
___SYMBOL
100
AcDbBlockBegin
62
2
6
CONTINUOUS
2
WHEN_PLOTTING_TEMPLATE_N_BL5
70
64
10
16.3780459219
20
9.0745339258
3
WHEN_PLOTTING_TEMPLATE_N_BL5
1

0
TEXT
5
34C
100
AcDbEntity
8
___SYMBOL
100
AcDbText
62
2
6
CONTINUOUS
10
13.0655456895
20
10.2854715108
7
STANDARD
40
0.1562500110
1
WHEN PLOTTING TEMPLATE FULL SIZE:
41
0.8000000000
72
0
100
AcDbText
0
TEXT
5
34D
100
AcDbEntity
8
___SYMBOL
100
AcDbText
62
2
6
CONTINUOUS
10
13.0655456895
20
10.0510964944
7
STANDARD
40
0.1562500110
1
Make sure horizontal and vertical dimensions
41
0.8000000000
72
0
100
AcDbText
0
TEXT
5
34E
100
AcDbEntity
8
___SYMBOL
100
AcDbText
62
2
6
CONTINUOUS
10
13.0655456895
20
9.8167214779
7
STANDARD
40
0.1562500110
1
match the dimensions labeled on the template.
41
0.8000000000
72
0
100
AcDbText
0
TEXT
5
34F
100
AcDbEntity
8
___SYMBOL
100
AcDbText
62
2
6
CONTINUOUS
10
13.0655456895
20
9.5823464615
7
STANDARD
40
0.1562500110
1
 
41
0.8000000000
72
0
100
AcDbText
0
TEXT
5
350
100
AcDbEntity
8
___SYMBOL
100
AcDbText
62
2
6
CONTINUOUS
10
13.0655456895
20
9.3479714450
7
STANDARD
40
0.1562500110
1
AL TRAZAR LA PLANTILLA A ESCALA,
41
0.8000000000
72
0
100
AcDbText
0
TEXT
5
351
100
AcDbEntity
8
___SYMBOL
100
AcDbText
62
2
6
CONTINUOUS
10
13.0655456895
20
9.1135964286
7
STANDARD
40
0.1562500110
1
asegúrese de que las dimensiones horizontales
41
0.8000000000
72
0
100
AcDbText
0
TEXT
5
352
100
AcDbEntity
8
___SYMBOL
100
AcDbText
62
2
6
CONTINUOUS
10
13.0655456895
20
8.8792214121
7
STANDARD
40
0.1562500110
1
y verticales concuerden con las dimensiones marcadas
41
0.8000000000
72
0
100
AcDbText
0
TEXT
5
353
100
AcDbEntity
8
___SYMBOL
100
AcDbText
62
2
6
CONTINUOUS
10
13.0655456895
20
8.6448463957
7
STANDARD
40
0.1562500110
1
en la plantilla.
41
0.8000000000
72
0
100
AcDbText
0
TEXT
5
354
100
AcDbEntity
8
___SYMBOL
100
AcDbText
62
2
6
CONTINUOUS
10
13.0655456895
20
8.4104713792
7
STANDARD
40
0.1562500110
1
 
41
0.8000000000
72
0
100
AcDbText
0
TEXT
5
355
100
AcDbEntity
8
___SYMBOL
100
AcDbText
62
2
6
CONTINUOUS
10
13.0655456895
20
8.1760963628
7
STANDARD
40
0.1562500110
1
AU MOMENT DE TRACER LA DÉCOUPE À L'ÉCHELLE,
41
0.8000000000
72
0
100
AcDbText
0
TEXT
5
356
100
AcDbEntity
8
___SYMBOL
100
AcDbText
62
2
6
CONTINUOUS
10
13.0655456895
20
7.9417213464
7
STANDARD
40
0.1562500110
1
Assurez vos que les dimensions horizotales et
41
0.8000000000
72
0
100
AcDbText
0
TEXT
5
357
100
AcDbEntity
8
___SYMBOL
100
AcDbText
62
2
6
CONTINUOUS
10
13.0655456895
20
7.7073463299
7
STANDARD
40
0.1562500110
1
verticales correspondent avec les dimensions du plan.
41
0.8000000000
72
0
100
AcDbText
0
ENDBLK
5
358
100
AcDbEntity
8
0
6
BYBLOCK
62
0
100
AcDbBlockEnd
0
BLOCK
5
359
100
AcDbEntity
8
0
100
AcDbBlockBegin
2
_FILLED
70
64
10
0.0000000000
20
0.0000000000
3
_FILLED
1

0
SOLID
5
35A
100
AcDbEntity
8
0
6
BYBLOCK
62
0
100
AcDbTrace
10
0.0000000000
20
0.0000000000
11
-1.0000000000
21
0.1666666667
12
-1.0000000000
22
-0.1666666667
13
-1.0000000000
23
-0.1666666667
0
ENDBLK
5
35B
100
AcDbEntity
8
0
6
BYBLOCK
62
0
100
AcDbBlockEnd
0
ENDSEC
0
SECTION
2
ENTITIES
0
DIMENSION
5
35C
100
AcDbEntity
8
0
100
AcDbDimension
62
2
6
CONTINUOUS
2
*D0
10
12.9035091881
20
3.3103214274
11
13.0285091881
21
6.9347657594
70
160
1
<>"\P[39,1 cm]
3
DIMSTYLE_1
100
AcDbAlignedDimension
13
12.7785091881
23
18.6903214274
14
12.7785091881
24
3.3103214274
50
270.000000
100
AcDbRotatedDimension
0
DIMENSION
5
35D
100
AcDbEntity
8
0
100
AcDbDimension
62
2
6
CONTINUOUS
2
*D1
10
6.1188795413
20
10.6695478154
11
11.8668830353
21
10.5523603154
70
160
1
<>"\P[34,9 cm]
3
DIMSTYLE_1
100
AcDbAlignedDimension
13
19.8688795413
23
10.9378214274
14
6.1188795413
24
10.9378214274
50
180.000000
100
AcDbRotatedDimension
0
TEXT
5
35E
100
AcDbEntity
8
___NOTE
100
AcDbText
62
2
6
CONTINUOUS
10
9.6565039542
20
12.6606782106
7
STANDARD
40
0.0940000000
1
TM
41
1.0000000000
72
0
100
AcDbText
0
TEXT
5
35F
100
AcDbEntity
8
___NOTE
100
AcDbText
62
2
6
CONTINUOUS
10
9.6369294143
20
13.5067813862
7
STANDARD
40
0.0940000000
1
TM
41
1.0000000000
72
0
100
AcDbText
0
SOLID
5
360
100
AcDbEntity
8
___NOTE
100
AcDbTrace
62
2
6
CONTINUOUS
10
20.7438795413
20
13.1014802780
11
20.5639824365
21
13.1628793349
12
20.5936198120
22
13.2179054739
13
20.5936198120
23
13.2179054739
0
TEXT
5
361
100
AcDbEntity
8
___NOTE
100
AcDbText
62
2
6
CONTINUOUS
10
16.6632610332
20
14.3459646610
7
STANDARD
40
0.1562500000
1
RIM OF SINK
41
0.8000000000
72
0
100
AcDbText
0
TEXT
5
362
100
AcDbEntity
8
___NOTE
100
AcDbText
62
2
6
CONTINUOUS
10
15.5382610332
20
14.1115896610
7
STANDARD
40
0.1562500000
1
REBORDE DE FREGADERO
41
0.8000000000
72
0
100
AcDbText
0
TEXT
5
363
100
AcDbEntity
8
___NOTE
100
AcDbText
62
2
6
CONTINUOUS
10
16.2882610332
20
13.8772146610
7
STANDARD
40
0.1562500000
1
REBORD D'ÉVIER
41
0.8000000000
72
0
100
AcDbText
0
SOLID
5
364
100
AcDbEntity
8
___NOTE
100
AcDbTrace
62
2
6
CONTINUOUS
10
19.8602212112
20
12.2135160264
11
19.6776295584
21
12.2663658212
12
19.7046398514
22
12.3227279900
13
19.7046398514
23
12.3227279900
0
TEXT
5
365
100
AcDbEntity
8
___NOTE
100
AcDbText
62
2
6
CONTINUOUS
10
15.7684293250
20
12.8383178218
7
STANDARD
40
0.1562500000
1
CUT ALONG THIS LINE
41
0.8000000000
72
0
100
AcDbText
0
TEXT
5
366
100
AcDbEntity
8
___NOTE
100
AcDbText
62
2
6
CONTINUOUS
10
14.3934293250
20
12.6039428218
7
STANDARD
40
0.1562500000
1
CORTE A LO LARGO DE ESTA LÍNEA
41
0.8000000000
72
0
100
AcDbText
0
TEXT
5
367
100
AcDbEntity
8
___NOTE
100
AcDbText
62
2
6
CONTINUOUS
10
14.2684293250
20
12.3695678218
7
STANDARD
40
0.1562500000
1
DÉCOUPER AU LONG DE CETTE LIGNE
41
0.8000000000
72
0
100
AcDbText
0
TEXT
5
368
100
AcDbEntity
8
0
100
AcDbText
62
2
6
CONTINUOUS
10
9.2787538851
20
11.7156239945
7
STANDARD
40
0.0940000000
1
TM
41
1.0000000000
72
0
100
AcDbText
0
INSERT
5
369
100
AcDbEntity
8
___SYMBOL
100
AcDbBlockReference
62
2
6
CONTINUOUS
2
COPYRIGHT_YEAR_BL0
10
14.8957687265
20
3.5427879877
0
INSERT
5
36A
100
AcDbEntity
8
___SYMBOL
100
AcDbBlockReference
62
2
6
CONTINUOUS
2
CUT-OUT_TEMPLATE_SKU_SIN_BL1
10
10.2375638552
20
14.2178182929
0
INSERT
5
36B
100
AcDbEntity
8
___SYMBOL
100
AcDbBlockReference
62
2
6
CONTINUOUS
2
PACKAGING_UPC_BL2
10
9.7281534940
20
7.9806755383
0
INSERT
5
36C
100
AcDbEntity
8
___SYMBOL
100
AcDbBlockReference
62
2
6
CONTINUOUS
2
TEMPLATE_NUMBER_BL3
10
11.7387996600
20
3.5060831673
0
INSERT
5
36D
100
AcDbEntity
8
___SYMBOL
100
AcDbBlockReference
62
2
6
CONTINUOUS
2
TEMPLATE_NUMBER_BL4
10
11.7312243096
20
2.2938676656
0
INSERT
5
36E
100
AcDbEntity
8
___SYMBOL
100
AcDbBlockReference
62
2
6
CONTINUOUS
2
WHEN_PLOTTING_TEMPLATE_N_BL5
10
16.3780459219
20
9.0745339258
0
LINE
5
36F
100
AcDbEntity
8
0
100
AcDbLine
62
7
6
CONTINUOUS
10
0.0000000000
20
0.0000000000
11
0.0000000000
21
22.0000000000
0
LINE
5
370
100
AcDbEntity
8
0
100
AcDbLine
62
7
6
CONTINUOUS
10
0.0000000000
20
0.0000000000
11
34.0000000000
21
0.0000000000
0
LINE
5
371
100
AcDbEntity
8
0
100
AcDbLine
62
7
6
CONTINUOUS
10
0.0000000000
20
22.0000000000
11
34.0000000000
21
22.0000000000
0
LINE
5
372
100
AcDbEntity
8
0
100
AcDbLine
62
7
6
CONTINUOUS
10
34.0000000000
20
0.0000000000
11
34.0000000000
21
22.0000000000
0
LINE
5
373
100
AcDbEntity
8
_CURVE
100
AcDbLine
62
8
6
HIDDEN
10
8.4938795413
20
19.5653214274
11
5.2438795413
21
16.3153214274
0
LINE
5
374
100
AcDbEntity
8
_CURVE
100
AcDbLine
62
8
6
HIDDEN
10
5.2438795413
20
5.6853214274
11
8.4938795413
21
2.4353214274
0
LINE
5
375
100
AcDbEntity
8
_CURVE
100
AcDbLine
62
8
6
HIDDEN
10
17.4938795413
20
2.4353214274
11
8.4938795413
21
2.4353214274
0
LINE
5
376
100
AcDbEntity
8
_CURVE
100
AcDbLine
62
8
6
HIDDEN
10
5.2438795413
20
5.6853214274
11
5.2438795413
21
16.3153214274
0
LINE
5
377
100
AcDbEntity
8
___NOTE
100
AcDbLine
62
2
6
CONTINUOUS
10
18.3934293250
20
12.9164428218
11
18.1434293250
21
12.9164428218
0
LINE
5
378
100
AcDbEntity
8
___NOTE
100
AcDbLine
62
2
6
CONTINUOUS
10
18.2882610332
20
14.4240896610
11
18.0382610332
21
14.4240896610
0
LINE
5
379
100
AcDbEntity
8
___NOTE
100
AcDbLine
62
2
6
CONTINUOUS
10
19.8602212112
20
12.2135160264
11
18.3934293250
21
12.9164428218
0
LINE
5
37A
100
AcDbEntity
8
___NOTE
100
AcDbLine
62
2
6
CONTINUOUS
10
20.7438795413
20
13.1014802780
11
18.2882610332
21
14.4240896610
0
LINE
5
37B
100
AcDbEntity
8
_CURVE
100
AcDbLine
62
8
6
HIDDEN
10
20.7438795413
20
16.3153214274
11
20.7438795413
21
5.6853214274
0
LINE
5
37C
100
AcDbEntity
8
_CURVE
100
AcDbLine
62
8
6
HIDDEN
10
8.4938795413
20
19.5653214274
11
17.4938795413
21
19.5653214274
0
LINE
5
37D
100
AcDbEntity
8
_CURVE
100
AcDbLine
62
8
6
HIDDEN
10
17.4938795413
20
2.4353214274
11
20.7438795413
21
5.6853214274
0
LINE
5
37E
100
AcDbEntity
8
_CURVE
100
AcDbLine
62
8
6
HIDDEN
10
20.7438795413
20
16.3153214274
11
17.4938795413
21
19.5653214274
0
CIRCLE
5
37F
100
AcDbEntity
8
0
100
AcDbCircle
62
2
6
CONTINUOUS
10
12.0284320467
20
13.3951593343
40
0.2513022906
0
CIRCLE
5
380
100
AcDbEntity
8
0
100
AcDbCircle
62
2
6
CONTINUOUS
10
12.2431222423
20
12.5298927883
40
0.2513022906
0
CIRCLE
5
381
100
AcDbEntity
8
0
100
AcDbCircle
62
2
6
CONTINUOUS
10
12.2496280058
20
11.6190858978
40
0.2513022906
0
ARC
5
382
100
AcDbEntity
8
_CURVE
100
AcDbCircle
62
7
6
CONTINUOUS
10
15.1817346480
20
14.0305366999
40
4.6300000000
100
AcDbArc
50
2.1607528524
51
88.4400852134
0
ARC
5
383
100
AcDbEntity
8
_CURVE
100
AcDbCircle
62
7
6
CONTINUOUS
10
12.9938795413
20
-66.3096785726
40
85.0000000000
100
AcDbArc
50
88.4400852134
51
91.5599147866
0
ARC
5
384
100
AcDbEntity
8
_CURVE
100
AcDbCircle
62
7
6
CONTINUOUS
10
10.8060244345
20
14.0305366999
40
4.6300000000
100
AcDbArc
50
91.5599147866
51
177.8392471476
0
ARC
5
385
100
AcDbEntity
8
_CURVE
100
AcDbCircle
62
7
6
CONTINUOUS
10
91.1188795413
20
11.0003214274
40
85.0000000000
100
AcDbArc
50
177.8392471476
51
182.1607528524
0
ARC
5
386
100
AcDbEntity
8
_CURVE
100
AcDbCircle
62
7
6
CONTINUOUS
10
10.8060244345
20
7.9701061549
40
4.6300000000
100
AcDbArc
50
182.1607528524
51
268.4400852134
0
ARC
5
387
100
AcDbEntity
8
_CURVE
100
AcDbCircle
62
7
6
CONTINUOUS
10
12.9938795413
20
88.3103214274
40
85.0000000000
100
AcDbArc
50
268.4400852134
51
271.5599147866
0
ARC
5
388
100
AcDbEntity
8
_CURVE
100
AcDbCircle
62
7
6
CONTINUOUS
10
15.1817346480
20
7.9701061549
40
4.6300000000
100
AcDbArc
50
271.5599147866
51
357.8392471476
0
ARC
5
389
100
AcDbEntity
8
_CURVE
100
AcDbCircle
62
7
6
CONTINUOUS
10
-65.1311204587
20
11.0003214274
40
85.0000000000
100
AcDbArc
50
357.8392471476
51
2.1607528524
0
ENDSEC
0
SECTION
2
OBJECTS
0
DICTIONARY
5
38A
100
AcDbDictionary
3
ACAD_GROUP
350
38B
3
ACAD_MLINESTYLE
350
38C
0
DICTIONARY
5
38B
102
{ACAD_REACTORS
330
38A
102
}
100
AcDbDictionary
0
DICTIONARY
5
38C
102
{ACAD_REACTORS
330
38A
102
}
100
AcDbDictionary
3
STANDARD
350
38D
0
MLINESTYLE
5
38D
102
{ACAD_REACTORS
330
38C
102
}
100
AcDbMlineStyle
2
STANDARD
70
0
3

62
256
51
90.0
52
90.0
71
2
49
0.5
62
256
6
BYLAYER
49
-0.5
62
256
6
BYLAYER
0
ENDSEC
0
EOF
