999
DXF file: 113194-7.dxf
999
Pro/ENGINEER 2003490 by Parametric Technology Corporation
0
SECTION
2
HEADER
9
$ACADVER
1
AC1014
9
$EXTMAX
10
34.0000000000
20
22.0000000000
30
0.0000000000
9
$EXTMIN
10
0.0000000000
20
0.0000000000
30
0.0000000000
9
$LIMMIN
10
0.0000000000
20
0.0000000000
9
$LIMMAX
10
34.0000000000
20
22.0000000000
9
$VIEWCTR
10
17.0000000000
20
11.0000000000
9
$VIEWSIZE
40
22.0000000000
9
$CLAYER
8
0
9
$LTSCALE
40
1.8700000000
9
$CELTYPE
6
BYLAYER
9
$DIMSCALE
40
1
9
$DIMASZ
40
0.1875000000
9
$DIMEXO
40
0.2125000000
9
$DIMDLI
40
1.2920000000
9
$DIMEXE
40
0.6120000000
9
$DIMCEN
40
0.3060000000
9
$DIMLFAC
40
1.0000000000
9
$DIMBLK
1
_FILLED
9
$DIMTXT
40
0.1562500000
9
$DIMTOL
70
1
9
$DIMLIM
70
0
9
$DIMTFAC
40
1.0000000000
9
$DIMTP
40
0.0100000000
9
$DIMTM
40
0.0100000000
9
$PDMODE
70
3
9
$PDSIZE
40
0.3125000000
9
$HANDSEED
5
387
9
$MEASUREMENT
70
0
0
ENDSEC
0
SECTION
2
CLASSES
0
ENDSEC
0
SECTION
2
TABLES
0
TABLE
2
VPORT
5
8
100
AcDbSymbolTable
70
2
0
VPORT
5
1F4
100
AcDbSymbolTableRecord
100
AcDbViewportTableRecord
2
*ACTIVE
70
0
10
0.0
20
0.0
11
1.0
21
1.0
12
17.0000000000
22
11.0000000000
13
0.0
23
0.0
14
1.0
24
1.0
15
0.0
25
0.0
16
0.0
26
0.0
36
1.0
17
0.0
27
0.0
37
0.0
40
22.0000000000
41
1.5454545455
42
50.0
43
0.0
44
0.0
50
0.0
51
0.0
71
0
72
100
73
1
74
1
75
0
76
0
77
0
78
0
0
ENDTAB
0
TABLE
2
LTYPE
5
5
100
AcDbSymbolTable
70
6
0
LTYPE
5
14
100
AcDbSymbolTableRecord
100
AcDbLinetypeTableRecord
2
BYBLOCK
70
0
3

72
65
73
0
40
0.0
0
LTYPE
5
15
100
AcDbSymbolTableRecord
100
AcDbLinetypeTableRecord
2
BYLAYER
70
0
3

72
65
73
0
40
0.0
0
LTYPE
5
16
100
AcDbSymbolTableRecord
100
AcDbLinetypeTableRecord
2
CONTINUOUS
70
64
3
Solid line
72
65
73
0
40
0
0
LTYPE
5
1F5
100
AcDbSymbolTableRecord
100
AcDbLinetypeTableRecord
2
CENTER
70
64
3
____ _ ____ _ ____ _ ____ _ ____ _ ____ _ ____
72
65
73
4
40
0.6
49
0.375
74
0
49
-0.075
74
0
49
0.075
74
0
49
-0.075
74
0
0
LTYPE
5
1F6
100
AcDbSymbolTableRecord
100
AcDbLinetypeTableRecord
2
HIDDEN
70
64
3
- - - - - - - - - - - - - - - - - - - -
72
65
73
2
40
0.2
49
0.1
74
0
49
-0.1
74
0
0
LTYPE
5
1F7
100
AcDbSymbolTableRecord
100
AcDbLinetypeTableRecord
2
PHANTOM
70
64
3
_____ _ _ _____ _ _ _____ _ _ _____
72
65
73
6
40
0.8
49
0.45
74
0
49
-0.05
74
0
49
0.1
74
0
49
-0.05
74
0
49
0.1
74
0
49
-0.05
74
0
0
LTYPE
5
1F8
100
AcDbSymbolTableRecord
100
AcDbLinetypeTableRecord
2
DOT
70
64
3
. . . . . . . . . . . . . . . . . . . .
72
65
73
2
40
0.2
49
0.1
74
0
49
-0.1
74
0
0
LTYPE
5
1F9
100
AcDbSymbolTableRecord
100
AcDbLinetypeTableRecord
2
DASHED
70
64
3
- - - - - - - - - - - - - - - - - - - -
72
65
73
2
40
0.2
49
0.1
74
0
49
-0.1
74
0
0
ENDTAB
0
TABLE
2
LAYER
5
2
100
AcDbSymbolTable
70
36
0
LAYER
5
10
100
AcDbSymbolTableRecord
100
AcDbLayerTableRecord
2
0
70
0
62
7
6
CONTINUOUS
0
LAYER
5
1FA
100
AcDbSymbolTableRecord
100
AcDbLayerTableRecord
2
DEFAULT_1
70
0
62
7
6
CENTER
0
LAYER
5
1FB
100
AcDbSymbolTableRecord
100
AcDbLayerTableRecord
2
DEFAULT_2
70
0
62
8
6
HIDDEN
0
LAYER
5
1FC
100
AcDbSymbolTableRecord
100
AcDbLayerTableRecord
2
DEFAULT_3
70
0
62
7
6
PHANTOM
0
LAYER
5
1FD
100
AcDbSymbolTableRecord
100
AcDbLayerTableRecord
2
DATUMS
70
0
62
7
6
CONTINUOUS
0
LAYER
5
1FE
100
AcDbSymbolTableRecord
100
AcDbLayerTableRecord
2
DATUM_AXIS
70
0
62
7
6
CONTINUOUS
0
LAYER
5
1FF
100
AcDbSymbolTableRecord
100
AcDbLayerTableRecord
2
DATUM_CSYS
70
0
62
7
6
CONTINUOUS
0
LAYER
5
200
100
AcDbSymbolTableRecord
100
AcDbLayerTableRecord
2
DATUM_PLANE
70
0
62
7
6
CONTINUOUS
0
LAYER
5
201
100
AcDbSymbolTableRecord
100
AcDbLayerTableRecord
2
DATUM_POINT
70
0
62
7
6
CONTINUOUS
0
LAYER
5
202
100
AcDbSymbolTableRecord
100
AcDbLayerTableRecord
2
_CURVE
70
0
62
7
6
CONTINUOUS
0
LAYER
5
203
100
AcDbSymbolTableRecord
100
AcDbLayerTableRecord
2
_SURFACE
70
0
62
7
6
CONTINUOUS
0
LAYER
5
204
100
AcDbSymbolTableRecord
100
AcDbLayerTableRecord
2
__REF_CURVE
70
0
62
7
6
CONTINUOUS
0
LAYER
5
205
100
AcDbSymbolTableRecord
100
AcDbLayerTableRecord
2
__REF_SURFACE
70
0
62
7
6
CONTINUOUS
0
LAYER
5
206
100
AcDbSymbolTableRecord
100
AcDbLayerTableRecord
2
___NOTE
70
0
62
7
6
CONTINUOUS
0
LAYER
5
207
100
AcDbSymbolTableRecord
100
AcDbLayerTableRecord
2
___SYMBOL
70
0
62
7
6
CONTINUOUS
0
ENDTAB
0
TABLE
2
STYLE
5
3
100
AcDbSymbolTable
70
1
0
STYLE
5
11
100
AcDbSymbolTableRecord
100
AcDbTextStyleTableRecord
2
STANDARD
70
0
40
0.0
41
0.8000000000
50
0.0
71
0
42
0.2
3
txt
4

0
ENDTAB
0
TABLE
2
VIEW
5
6
100
AcDbSymbolTable
70
0
0
ENDTAB
0
TABLE
2
UCS
5
7
100
AcDbSymbolTable
70
0
0
ENDTAB
0
TABLE
2
APPID
5
9
100
AcDbSymbolTable
70
1
0
APPID
5
208
100
AcDbSymbolTableRecord
100
AcDbRegAppTableRecord
2
ACAD
70
0
0
ENDTAB
0
TABLE
2
DIMSTYLE
5
A
100
AcDbSymbolTable
70
1
0
DIMSTYLE
105
209
100
AcDbSymbolTableRecord
100
AcDbDimStyleTableRecord
2
STANDARD
70
0
3

4

5
_FILLED
6
_FILLED
7
_FILLED
40
1.0
41
0.1875000000
42
0.0625
43
0.38
44
0.18
45
0.0
46
0.0
47
0.0100000000
48
0.0100000000
140
0.1562500000
141
0.09
142
0.0
143
25.4
144
1.0000000000
145
0.0
146
1.0000000000
147
0.09
71
1
72
0
73
1
74
1
75
0
76
0
77
0
78
4
170
0
171
2
172
0
173
0
174
0
175
0
176
0
177
0
178
0
270
2
271
3
272
3
273
2
274
2
340
11
275
0
280
0
281
0
282
0
283
1
284
4
285
0
286
0
287
3
288
0
0
DIMSTYLE
105
20A
100
AcDbSymbolTableRecord
100
AcDbDimStyleTableRecord
2
DIMSTYLE_1
70
0
3

4

5
_FILLED
6
_FILLED
7
_FILLED
40
1.0
41
0.1875000000
42
0.0625
43
0.38
44
0.18
45
0.0
46
0.0
47
0.0625000000
48
0.0625000000
140
0.1562500000
141
0.09
142
0.0
143
25.4
144
1.0000000000
145
0.0
146
1.0000000000
147
0.09
71
0
72
0
73
1
74
1
75
0
76
0
77
0
78
4
170
0
171
2
172
0
173
0
174
0
175
0
176
0
177
0
178
0
270
2
271
4
272
4
273
2
274
2
340
11
275
0
280
0
281
0
282
0
283
1
284
4
285
0
286
0
287
3
288
0
0
ENDTAB
0
TABLE
2
BLOCK_RECORD
5
1
100
AcDbSymbolTable
70
0
0
BLOCK_RECORD
5
1B
100
AcDbSymbolTableRecord
100
AcDbBlockTableRecord
2
*MODEL_SPACE
0
BLOCK_RECORD
5
1C
100
AcDbSymbolTableRecord
100
AcDbBlockTableRecord
2
*PAPER_SPACE
0
BLOCK_RECORD
5
20B
100
AcDbSymbolTableRecord
100
AcDbBlockTableRecord
2
_FILLED
0
BLOCK_RECORD
5
20C
100
AcDbSymbolTableRecord
100
AcDbBlockTableRecord
2
*D0
0
BLOCK_RECORD
5
20D
100
AcDbSymbolTableRecord
100
AcDbBlockTableRecord
2
*D1
0
BLOCK_RECORD
5
20E
100
AcDbSymbolTableRecord
100
AcDbBlockTableRecord
2
COPYRIGHT_YEAR_BL0
0
BLOCK_RECORD
5
20F
100
AcDbSymbolTableRecord
100
AcDbBlockTableRecord
2
CUT-OUT_TEMPLATE_SKU_SIN_BL1
0
BLOCK_RECORD
5
210
100
AcDbSymbolTableRecord
100
AcDbBlockTableRecord
2
PACKAGING_UPC_BL2
0
BLOCK_RECORD
5
211
100
AcDbSymbolTableRecord
100
AcDbBlockTableRecord
2
TEMPLATE_NUMBER_BL3
0
BLOCK_RECORD
5
212
100
AcDbSymbolTableRecord
100
AcDbBlockTableRecord
2
TEMPLATE_NUMBER_BL4
0
BLOCK_RECORD
5
213
100
AcDbSymbolTableRecord
100
AcDbBlockTableRecord
2
WHEN_PLOTTING_TEMPLATE_N_BL5
0
ENDTAB
0
ENDSEC
0
SECTION
2
BLOCKS
0
BLOCK
5
1E
100
AcDbEntity
8
0
100
AcDbBlockBegin
2
*MODEL_SPACE
70
0
10
0.0
20
0.0
30
0.0
3
*MODEL_SPACE
1

0
ENDBLK
5
1F
100
AcDbEntity
8
0
100
AcDbBlockEnd
0
BLOCK
5
20
100
AcDbEntity
8
0
100
AcDbBlockBegin
2
*PAPER_SPACE
70
0
10
0.0
20
0.0
30
0.0
3
*PAPER_SPACE
1

0
ENDBLK
5
21
100
AcDbEntity
8
0
100
AcDbBlockEnd
0
BLOCK
5
214
100
AcDbEntity
8
0
100
AcDbBlockBegin
62
2
6
CONTINUOUS
2
*D0
70
65
10
0.0000000000
20
0.0000000000
3
*D0
1

0
TEXT
5
215
100
AcDbEntity
8
0
100
AcDbText
62
2
6
CONTINUOUS
10
8.2520181905
20
9.1091141241
7
STANDARD
40
0.1562500000
1
"
41
0.8000000000
72
0
100
AcDbText
0
TEXT
5
216
100
AcDbEntity
8
0
100
AcDbText
62
2
6
CONTINUOUS
10
7.5020181905
20
8.8747391241
7
STANDARD
40
0.1562500000
1
[40 cm]
41
0.8000000000
72
0
100
AcDbText
0
TEXT
5
217
100
AcDbEntity
8
0
100
AcDbText
62
2
6
CONTINUOUS
10
7.5020181905
20
9.1091141241
7
STANDARD
40
0.1562500000
1
15-3/4
41
0.8000000000
72
0
100
AcDbText
0
LINE
5
218
100
AcDbEntity
8
0
100
AcDbLine
62
2
6
CONTINUOUS
10
11.1894087383
20
19.3716717924
11
7.8145181905
21
19.3716717924
0
LINE
5
219
100
AcDbEntity
8
0
100
AcDbLine
62
2
6
CONTINUOUS
10
11.1894087383
20
3.6216717924
11
7.8145181905
21
3.6216717924
0
LINE
5
21A
100
AcDbEntity
8
0
100
AcDbLine
62
2
6
CONTINUOUS
10
7.9395181905
20
19.3716717924
11
7.9395181905
21
9.3434891241
0
LINE
5
21B
100
AcDbEntity
8
0
100
AcDbLine
62
2
6
CONTINUOUS
10
7.9395181905
20
3.6216717924
11
7.9395181905
21
8.7966141241
0
INSERT
5
21C
100
AcDbEntity
8
0
100
AcDbBlockReference
62
2
6
CONTINUOUS
2
_FILLED
10
7.9395181905
20
19.3716717924
41
  0.187500
42
  0.187500
43
  0.187500
50
 90.000000
0
INSERT
5
21D
100
AcDbEntity
8
0
100
AcDbBlockReference
62
2
6
CONTINUOUS
2
_FILLED
10
7.9395181905
20
3.6216717924
41
  0.187500
42
  0.187500
43
  0.187500
50
270.000000
0
ENDBLK
5
21E
100
AcDbEntity
8
0
6
BYBLOCK
62
0
100
AcDbBlockEnd
0
BLOCK
5
21F
100
AcDbEntity
8
0
100
AcDbBlockBegin
62
2
6
CONTINUOUS
2
*D1
70
65
10
0.0000000000
20
0.0000000000
3
*D1
1

0
TEXT
5
220
100
AcDbEntity
8
0
100
AcDbText
62
2
6
CONTINUOUS
10
6.2739129807
20
11.6527758993
7
STANDARD
40
0.1562500000
1
"
41
0.8000000000
72
0
100
AcDbText
0
TEXT
5
221
100
AcDbEntity
8
0
100
AcDbText
62
2
6
CONTINUOUS
10
6.1489129807
20
11.4184008993
7
STANDARD
40
0.1562500000
1
[22,9 cm]
41
0.8000000000
72
0
100
AcDbText
0
TEXT
5
222
100
AcDbEntity
8
0
100
AcDbText
62
2
6
CONTINUOUS
10
6.1489129807
20
11.6527758993
7
STANDARD
40
0.1562500000
1
9
41
0.8000000000
72
0
100
AcDbText
0
LINE
5
223
100
AcDbEntity
8
0
100
AcDbLine
62
2
6
CONTINUOUS
10
13.0019087383
20
5.4341717924
11
13.0019087383
21
11.8559008993
0
LINE
5
224
100
AcDbEntity
8
0
100
AcDbLine
62
2
6
CONTINUOUS
10
4.0019087383
20
5.4341717924
11
4.0019087383
21
11.8559008993
0
LINE
5
225
100
AcDbEntity
8
0
100
AcDbLine
62
2
6
CONTINUOUS
10
13.0019087383
20
11.7309008993
11
7.3520379807
21
11.7309008993
0
LINE
5
226
100
AcDbEntity
8
0
100
AcDbLine
62
2
6
CONTINUOUS
10
4.0019087383
20
11.7309008993
11
6.0707879807
21
11.7309008993
0
INSERT
5
227
100
AcDbEntity
8
0
100
AcDbBlockReference
62
2
6
CONTINUOUS
2
_FILLED
10
13.0019087383
20
11.7309008993
41
  0.187500
42
  0.187500
43
  0.187500
0
INSERT
5
228
100
AcDbEntity
8
0
100
AcDbBlockReference
62
2
6
CONTINUOUS
2
_FILLED
10
4.0019087383
20
11.7309008993
41
  0.187500
42
  0.187500
43
  0.187500
50
180.000000
0
ENDBLK
5
229
100
AcDbEntity
8
0
6
BYBLOCK
62
0
100
AcDbBlockEnd
0
BLOCK
5
22A
100
AcDbEntity
8
___SYMBOL
100
AcDbBlockBegin
62
2
6
CONTINUOUS
2
COPYRIGHT_YEAR_BL0
70
64
10
10.6024991210
20
3.8212493626
3
COPYRIGHT_YEAR_BL0
1

0
TEXT
5
22B
100
AcDbEntity
8
___SYMBOL
100
AcDbText
62
2
6
CONTINUOUS
10
10.2288088175
20
3.7859758626
7
STANDARD
40
0.0704997506
1
2004
41
0.8000000000
72
0
100
AcDbText
0
TEXT
5
22C
100
AcDbEntity
8
___SYMBOL
100
AcDbText
62
2
6
CONTINUOUS
10
10.4544080193
20
3.7859758626
7
STANDARD
40
0.0704997506
1
 KOHLER CO.
41
0.8000000000
72
0
100
AcDbText
0
TEXT
5
22D
100
AcDbEntity
8
___SYMBOL
100
AcDbText
62
7
6
CONTINUOUS
10
10.1487833515
20
3.8024608045
7
STANDARD
40
0.0421873503
1
C
41
1.0000000000
72
0
100
AcDbText
0
CIRCLE
5
22E
100
AcDbEntity
8
___SYMBOL
100
AcDbCircle
62
7
6
CONTINUOUS
10
10.1630183010
20
3.8236969791
40
0.0328258835
0
ENDBLK
5
22F
100
AcDbEntity
8
0
6
BYBLOCK
62
0
100
AcDbBlockEnd
0
BLOCK
5
230
100
AcDbEntity
8
___SYMBOL
100
AcDbBlockBegin
62
2
6
CONTINUOUS
2
CUT-OUT_TEMPLATE_SKU_SIN_BL1
70
64
10
16.7996552679
20
17.6715350488
3
CUT-OUT_TEMPLATE_SKU_SIN_BL1
1

0
TEXT
5
231
100
AcDbEntity
8
___SYMBOL
100
AcDbText
62
2
6
CONTINUOUS
10
14.3996551826
20
18.8860851780
7
STANDARD
40
0.2500000089
1
CUT-OUT TEMPLATE
41
0.8000000000
72
0
100
AcDbText
0
TEXT
5
232
100
AcDbEntity
8
___SYMBOL
100
AcDbText
62
2
6
CONTINUOUS
10
14.3996551826
20
18.5110851647
7
STANDARD
40
0.2500000089
1
UNDERCOUNTER SINK
41
0.8000000000
72
0
100
AcDbText
0
TEXT
5
233
100
AcDbEntity
8
___SYMBOL
100
AcDbText
62
2
6
CONTINUOUS
10
14.3996551826
20
18.1360851513
7
STANDARD
40
0.2500000089
1
PLANTILLA DE RECORTE
41
0.8000000000
72
0
100
AcDbText
0
TEXT
5
234
100
AcDbEntity
8
___SYMBOL
100
AcDbText
62
2
6
CONTINUOUS
10
14.3996551826
20
17.7610851380
7
STANDARD
40
0.2500000089
1
FREGADERO MONTADO DEBAJO
41
0.8000000000
72
0
100
AcDbText
0
TEXT
5
235
100
AcDbEntity
8
___SYMBOL
100
AcDbText
62
2
6
CONTINUOUS
10
14.3996551826
20
17.3860851247
7
STANDARD
40
0.2500000089
1
  DEL MOSTRADOR
41
0.8000000000
72
0
100
AcDbText
0
TEXT
5
236
100
AcDbEntity
8
___SYMBOL
100
AcDbText
62
2
6
CONTINUOUS
10
14.3996551826
20
17.0110851113
7
STANDARD
40
0.2500000089
1
PLAN DE DÉCOUPE
41
0.8000000000
72
0
100
AcDbText
0
TEXT
5
237
100
AcDbEntity
8
___SYMBOL
100
AcDbText
62
2
6
CONTINUOUS
10
14.3996551826
20
16.6360850980
7
STANDARD
40
0.2500000089
1
ÉVIER SOUS-COMPTOIR
41
0.8000000000
72
0
100
AcDbText
0
TEXT
5
238
100
AcDbEntity
8
___SYMBOL
100
AcDbText
62
2
6
CONTINUOUS
10
14.3996551826
20
16.2610850847
7
STANDARD
40
0.2500000089
1
UNDERTONE
41
0.8000000000
72
0
100
AcDbText
0
TEXT
5
239
100
AcDbEntity
8
___SYMBOL
100
AcDbText
62
2
6
CONTINUOUS
10
16.1996552466
20
16.2610850847
7
STANDARD
40
0.2500000089
1
   
41
0.8000000000
72
0
100
AcDbText
0
TEXT
5
23A
100
AcDbEntity
8
___SYMBOL
100
AcDbText
62
2
6
CONTINUOUS
10
16.7996552679
20
16.2610850847
7
STANDARD
40
0.2500000089
1
3333
41
0.8000000000
72
0
100
AcDbText
0
TEXT
5
23B
100
AcDbEntity
8
___SYMBOL
100
AcDbText
62
2
6
CONTINUOUS
10
17.5996552964
20
16.2610850847
7
STANDARD
40
0.2500000089
1
-**-
41
0.8000000000
72
0
100
AcDbText
0
TEXT
5
23C
100
AcDbEntity
8
___SYMBOL
100
AcDbText
62
2
6
CONTINUOUS
10
18.3996553248
20
16.2610850847
7
STANDARD
40
0.2500000089
1
BB
41
0.8000000000
72
0
100
AcDbText
0
LINE
5
23D
100
AcDbEntity
8
___SYMBOL
100
AcDbLine
62
2
6
CONTINUOUS
10
14.9262269775
20
19.9379984532
11
14.7129235181
21
19.6843501713
0
LINE
5
23E
100
AcDbEntity
8
___SYMBOL
100
AcDbLine
62
2
6
CONTINUOUS
10
14.7341651586
20
19.9379984532
11
14.9262269775
21
19.9379984532
0
LINE
5
23F
100
AcDbEntity
8
___SYMBOL
100
AcDbLine
62
2
6
CONTINUOUS
10
14.7341651586
20
19.9379984532
11
14.5964009870
21
19.7741772577
0
LINE
5
240
100
AcDbEntity
8
___SYMBOL
100
AcDbLine
62
2
6
CONTINUOUS
10
14.5964009870
20
19.9379984532
11
14.5964009870
21
19.7741772577
0
LINE
5
241
100
AcDbEntity
8
___SYMBOL
100
AcDbLine
62
2
6
CONTINUOUS
10
14.4219007538
20
19.9379984532
11
14.5964009870
21
19.9379984532
0
LINE
5
242
100
AcDbEntity
8
___SYMBOL
100
AcDbLine
62
2
6
CONTINUOUS
10
14.4219007538
20
19.9379984532
11
14.4219007538
21
19.3520607796
0
LINE
5
243
100
AcDbEntity
8
___SYMBOL
100
AcDbLine
62
2
6
CONTINUOUS
10
14.5964009870
20
19.3520847830
11
14.4219007538
21
19.3520607796
0
LINE
5
244
100
AcDbEntity
8
___SYMBOL
100
AcDbLine
62
2
6
CONTINUOUS
10
14.5964009870
20
19.5535846242
11
14.5964009870
21
19.3520847830
0
LINE
5
245
100
AcDbEntity
8
___SYMBOL
100
AcDbLine
62
2
6
CONTINUOUS
10
14.7501389325
20
19.3520847830
11
14.5964009870
21
19.5535846242
0
LINE
5
246
100
AcDbEntity
8
___SYMBOL
100
AcDbLine
62
2
6
CONTINUOUS
10
14.7501389325
20
19.3520847830
11
14.9664313618
21
19.3520847830
0
LINE
5
247
100
AcDbEntity
8
___SYMBOL
100
AcDbLine
62
2
6
CONTINUOUS
10
14.9664313618
20
19.3520847830
11
14.7129235181
21
19.6843501713
0
SOLID
5
248
100
AcDbEntity
8
___SYMBOL
100
AcDbTrace
62
2
6
CONTINUOUS
10
14.5964009870
20
19.7741772577
11
14.7341651586
21
19.9379984532
12
14.9262269775
22
19.9379984532
13
14.9262269775
23
19.9379984532
0
SOLID
5
249
100
AcDbEntity
8
___SYMBOL
100
AcDbTrace
62
2
6
CONTINUOUS
10
14.9262269775
20
19.9379984532
11
14.7129235181
21
19.6843501713
12
14.5964009870
22
19.7741772577
13
14.5964009870
23
19.7741772577
0
SOLID
5
24A
100
AcDbEntity
8
___SYMBOL
100
AcDbTrace
62
2
6
CONTINUOUS
10
14.5964009870
20
19.5535846242
11
14.7129235181
21
19.6843501713
12
14.7501389325
22
19.3520847830
13
14.7501389325
23
19.3520847830
0
SOLID
5
24B
100
AcDbEntity
8
___SYMBOL
100
AcDbTrace
62
2
6
CONTINUOUS
10
14.7129235181
20
19.6843501713
11
14.9664313618
21
19.3520847830
12
14.7501389325
22
19.3520847830
13
14.7501389325
23
19.3520847830
0
SOLID
5
24C
100
AcDbEntity
8
___SYMBOL
100
AcDbTrace
62
2
6
CONTINUOUS
10
14.5964009870
20
19.3520847830
11
14.4219007538
21
19.3520607796
12
14.5964009870
22
19.5535846242
13
14.5964009870
23
19.5535846242
0
SOLID
5
24D
100
AcDbEntity
8
___SYMBOL
100
AcDbTrace
62
2
6
CONTINUOUS
10
14.7129235181
20
19.6843501713
11
14.5964009870
21
19.5535846242
12
14.5964009870
22
19.7741772577
13
14.5964009870
23
19.7741772577
0
SOLID
5
24E
100
AcDbEntity
8
___SYMBOL
100
AcDbTrace
62
2
6
CONTINUOUS
10
14.5964009870
20
19.5535846242
11
14.4219007538
21
19.3520607796
12
14.5964009870
22
19.7741772577
13
14.5964009870
23
19.7741772577
0
SOLID
5
24F
100
AcDbEntity
8
___SYMBOL
100
AcDbTrace
62
2
6
CONTINUOUS
10
14.5964009870
20
19.7741772577
11
14.4219007538
21
19.3520607796
12
14.5964009870
22
19.9379984532
13
14.5964009870
23
19.9379984532
0
SOLID
5
250
100
AcDbEntity
8
___SYMBOL
100
AcDbTrace
62
2
6
CONTINUOUS
10
14.4219007538
20
19.3520607796
11
14.4219007538
21
19.9379984532
12
14.5964009870
22
19.9379984532
13
14.5964009870
23
19.9379984532
0
CIRCLE
5
251
100
AcDbEntity
8
___SYMBOL
100
AcDbCircle
62
2
6
CONTINUOUS
10
15.1429402047
20
19.6439203662
40
0.2980566016
0
CIRCLE
5
252
100
AcDbEntity
8
___SYMBOL
100
AcDbCircle
62
2
6
CONTINUOUS
10
15.1429402047
20
19.6439203662
40
0.1247694195
0
SOLID
5
253
100
AcDbEntity
8
___SYMBOL
100
AcDbTrace
62
2
6
CONTINUOUS
10
15.0508356495
20
19.9273890394
11
15.1117848062
21
19.9403441826
12
15.1740956032
22
19.9403441826
13
15.1740956032
23
19.9403441826
0
SOLID
5
254
100
AcDbEntity
8
___SYMBOL
100
AcDbTrace
62
2
6
CONTINUOUS
10
15.1740956032
20
19.9403441826
11
15.2350447599
21
19.9273890394
12
15.0508356495
22
19.9273890394
13
15.0508356495
23
19.9273890394
0
SOLID
5
255
100
AcDbEntity
8
___SYMBOL
100
AcDbTrace
62
2
6
CONTINUOUS
10
14.9939119039
20
19.9020449550
11
15.0508356495
21
19.9273890394
12
15.2350447599
22
19.9273890394
13
15.2350447599
23
19.9273890394
0
SOLID
5
256
100
AcDbEntity
8
___SYMBOL
100
AcDbTrace
62
2
6
CONTINUOUS
10
15.2350447599
20
19.9273890394
11
15.2919685055
21
19.9020449550
12
14.9939119039
22
19.9020449550
13
14.9939119039
23
19.9020449550
0
SOLID
5
257
100
AcDbEntity
8
___SYMBOL
100
AcDbTrace
62
2
6
CONTINUOUS
10
14.9435014101
20
19.8654195874
11
14.9939119039
21
19.9020449550
12
15.2919685055
22
19.9020449550
13
15.2919685055
23
19.9020449550
0
SOLID
5
258
100
AcDbEntity
8
___SYMBOL
100
AcDbTrace
62
2
6
CONTINUOUS
10
15.2919685055
20
19.9020449550
11
15.3423789992
21
19.8654195874
12
14.9435014101
22
19.8654195874
13
14.9435014101
23
19.8654195874
0
SOLID
5
259
100
AcDbEntity
8
___SYMBOL
100
AcDbTrace
62
2
6
CONTINUOUS
10
14.9018073487
20
19.8191136410
11
14.9435014101
21
19.8654195874
12
15.3423789992
22
19.8654195874
13
15.3423789992
23
19.8654195874
0
SOLID
5
25A
100
AcDbEntity
8
___SYMBOL
100
AcDbTrace
62
2
6
CONTINUOUS
10
15.3423789992
20
19.8654195874
11
15.3840730607
21
19.8191136410
12
14.9018073487
22
19.8191136410
13
14.9018073487
23
19.8191136410
0
SOLID
5
25B
100
AcDbEntity
8
___SYMBOL
100
AcDbTrace
62
2
6
CONTINUOUS
10
15.1429402047
20
19.7686897857
11
14.8706519502
21
19.7651509078
12
15.3840730607
22
19.8191136410
13
15.3840730607
23
19.8191136410
0
SOLID
5
25C
100
AcDbEntity
8
___SYMBOL
100
AcDbTrace
62
2
6
CONTINUOUS
10
14.8706519502
20
19.7651509078
11
14.9018073487
21
19.8191136410
12
15.3840730607
22
19.8191136410
13
15.3840730607
23
19.8191136410
0
SOLID
5
25D
100
AcDbEntity
8
___SYMBOL
100
AcDbTrace
62
2
6
CONTINUOUS
10
15.3840730607
20
19.8191136410
11
15.4152284592
21
19.7651509078
12
15.1429402047
22
19.7686897857
13
15.1429402047
23
19.7686897857
0
SOLID
5
25E
100
AcDbEntity
8
___SYMBOL
100
AcDbTrace
62
2
6
CONTINUOUS
10
15.1429402047
20
19.7686897857
11
15.1043843337
21
19.7625831357
12
14.8706519502
22
19.7651509078
13
14.8706519502
23
19.7651509078
0
SOLID
5
25F
100
AcDbEntity
8
___SYMBOL
100
AcDbTrace
62
2
6
CONTINUOUS
10
15.1814960757
20
19.7625831357
11
15.1429402047
21
19.7686897857
12
15.4152284592
22
19.7651509078
13
15.4152284592
23
19.7651509078
0
SOLID
5
260
100
AcDbEntity
8
___SYMBOL
100
AcDbTrace
62
2
6
CONTINUOUS
10
15.0419996239
20
19.7172579909
11
14.8513968550
21
19.7058898182
12
15.0696025800
22
19.7448609470
13
15.0696025800
23
19.7448609470
0
SOLID
5
261
100
AcDbEntity
8
___SYMBOL
100
AcDbTrace
62
2
6
CONTINUOUS
10
15.0696025800
20
19.7448609470
11
14.8513968550
21
19.7058898182
12
15.1043843337
22
19.7625831357
13
15.1043843337
23
19.7625831357
0
SOLID
5
262
100
AcDbEntity
8
___SYMBOL
100
AcDbTrace
62
2
6
CONTINUOUS
10
14.8513968550
20
19.7058898182
11
14.8706519502
21
19.7651509078
12
15.1043843337
22
19.7625831357
13
15.1043843337
23
19.7625831357
0
SOLID
5
263
100
AcDbEntity
8
___SYMBOL
100
AcDbTrace
62
2
6
CONTINUOUS
10
15.1814960757
20
19.7625831357
11
15.4152284592
21
19.7651509078
12
15.2162778294
22
19.7448609470
13
15.2162778294
23
19.7448609470
0
SOLID
5
264
100
AcDbEntity
8
___SYMBOL
100
AcDbTrace
62
2
6
CONTINUOUS
10
15.2162778294
20
19.7448609470
11
15.4152284592
21
19.7651509078
12
15.2438807855
22
19.7172579909
13
15.2438807855
23
19.7172579909
0
SOLID
5
265
100
AcDbEntity
8
___SYMBOL
100
AcDbTrace
62
2
6
CONTINUOUS
10
15.4152284592
20
19.7651509078
11
15.4344835544
21
19.7058898182
12
15.2438807855
22
19.7172579909
13
15.2438807855
23
19.7172579909
0
SOLID
5
266
100
AcDbEntity
8
___SYMBOL
100
AcDbTrace
62
2
6
CONTINUOUS
10
15.0419996239
20
19.7172579909
11
15.0242774352
21
19.6824762372
12
14.8513968550
22
19.7058898182
13
14.8513968550
23
19.7058898182
0
SOLID
5
267
100
AcDbEntity
8
___SYMBOL
100
AcDbTrace
62
2
6
CONTINUOUS
10
15.2616029742
20
19.6824762372
11
15.2438807855
21
19.7172579909
12
15.4344835544
22
19.7058898182
13
15.4344835544
23
19.7058898182
0
SOLID
5
268
100
AcDbEntity
8
___SYMBOL
100
AcDbTrace
62
2
6
CONTINUOUS
10
14.8448836031
20
19.6439203662
11
14.8513968550
21
19.7058898182
12
15.0242774352
22
19.6824762372
13
15.0242774352
23
19.6824762372
0
SOLID
5
269
100
AcDbEntity
8
___SYMBOL
100
AcDbTrace
62
2
6
CONTINUOUS
10
15.0242774352
20
19.6824762372
11
15.0181707852
21
19.6439203662
12
14.8448836031
22
19.6439203662
13
14.8448836031
23
19.6439203662
0
SOLID
5
26A
100
AcDbEntity
8
___SYMBOL
100
AcDbTrace
62
2
6
CONTINUOUS
10
15.2616029742
20
19.6824762372
11
15.4344835544
21
19.7058898182
12
15.2677096242
22
19.6439203662
13
15.2677096242
23
19.6439203662
0
SOLID
5
26B
100
AcDbEntity
8
___SYMBOL
100
AcDbTrace
62
2
6
CONTINUOUS
10
15.4344835544
20
19.7058898182
11
15.4409968063
21
19.6439203662
12
15.2677096242
22
19.6439203662
13
15.2677096242
23
19.6439203662
0
SOLID
5
26C
100
AcDbEntity
8
___SYMBOL
100
AcDbTrace
62
2
6
CONTINUOUS
10
15.2616029742
20
19.6053644952
11
15.2677096242
21
19.6439203662
12
15.4409968063
22
19.6439203662
13
15.4409968063
23
19.6439203662
0
SOLID
5
26D
100
AcDbEntity
8
___SYMBOL
100
AcDbTrace
62
2
6
CONTINUOUS
10
15.0242774352
20
19.6053644952
11
14.8513968550
21
19.5819509142
12
15.0181707852
22
19.6439203662
13
15.0181707852
23
19.6439203662
0
SOLID
5
26E
100
AcDbEntity
8
___SYMBOL
100
AcDbTrace
62
2
6
CONTINUOUS
10
14.8513968550
20
19.5819509142
11
14.8448836031
21
19.6439203662
12
15.0181707852
22
19.6439203662
13
15.0181707852
23
19.6439203662
0
SOLID
5
26F
100
AcDbEntity
8
___SYMBOL
100
AcDbTrace
62
2
6
CONTINUOUS
10
15.4409968063
20
19.6439203662
11
15.4344835544
21
19.5819509142
12
15.2616029742
22
19.6053644952
13
15.2616029742
23
19.6053644952
0
SOLID
5
270
100
AcDbEntity
8
___SYMBOL
100
AcDbTrace
62
2
6
CONTINUOUS
10
15.0242774352
20
19.6053644952
11
15.0419996239
21
19.5705827415
12
14.8513968550
22
19.5819509142
13
14.8513968550
23
19.5819509142
0
SOLID
5
271
100
AcDbEntity
8
___SYMBOL
100
AcDbTrace
62
2
6
CONTINUOUS
10
15.2438807855
20
19.5705827415
11
15.2616029742
21
19.6053644952
12
15.4344835544
22
19.5819509142
13
15.4344835544
23
19.5819509142
0
SOLID
5
272
100
AcDbEntity
8
___SYMBOL
100
AcDbTrace
62
2
6
CONTINUOUS
10
15.1043843337
20
19.5252575968
11
14.8706519502
21
19.5226898246
12
15.0696025800
22
19.5429797855
13
15.0696025800
23
19.5429797855
0
SOLID
5
273
100
AcDbEntity
8
___SYMBOL
100
AcDbTrace
62
2
6
CONTINUOUS
10
15.0696025800
20
19.5429797855
11
14.8706519502
21
19.5226898246
12
15.0419996239
22
19.5705827415
13
15.0419996239
23
19.5705827415
0
SOLID
5
274
100
AcDbEntity
8
___SYMBOL
100
AcDbTrace
62
2
6
CONTINUOUS
10
14.8706519502
20
19.5226898246
11
14.8513968550
21
19.5819509142
12
15.0419996239
22
19.5705827415
13
15.0419996239
23
19.5705827415
0
SOLID
5
275
100
AcDbEntity
8
___SYMBOL
100
AcDbTrace
62
2
6
CONTINUOUS
10
15.2438807855
20
19.5705827415
11
15.4344835544
21
19.5819509142
12
15.2162778294
22
19.5429797855
13
15.2162778294
23
19.5429797855
0
SOLID
5
276
100
AcDbEntity
8
___SYMBOL
100
AcDbTrace
62
2
6
CONTINUOUS
10
15.2162778294
20
19.5429797855
11
15.4344835544
21
19.5819509142
12
15.1814960757
22
19.5252575968
13
15.1814960757
23
19.5252575968
0
SOLID
5
277
100
AcDbEntity
8
___SYMBOL
100
AcDbTrace
62
2
6
CONTINUOUS
10
15.4344835544
20
19.5819509142
11
15.4152284592
21
19.5226898246
12
15.1814960757
22
19.5252575968
13
15.1814960757
23
19.5252575968
0
SOLID
5
278
100
AcDbEntity
8
___SYMBOL
100
AcDbTrace
62
2
6
CONTINUOUS
10
15.1043843337
20
19.5252575968
11
15.1429402047
21
19.5191509467
12
14.8706519502
22
19.5226898246
13
14.8706519502
23
19.5226898246
0
SOLID
5
279
100
AcDbEntity
8
___SYMBOL
100
AcDbTrace
62
2
6
CONTINUOUS
10
15.1429402047
20
19.5191509467
11
15.1814960757
21
19.5252575968
12
15.4152284592
22
19.5226898246
13
15.4152284592
23
19.5226898246
0
SOLID
5
27A
100
AcDbEntity
8
___SYMBOL
100
AcDbTrace
62
2
6
CONTINUOUS
10
14.9018073487
20
19.4687270915
11
14.8706519502
21
19.5226898246
12
15.1429402047
22
19.5191509467
13
15.1429402047
23
19.5191509467
0
SOLID
5
27B
100
AcDbEntity
8
___SYMBOL
100
AcDbTrace
62
2
6
CONTINUOUS
10
15.1429402047
20
19.5191509467
11
15.4152284592
21
19.5226898246
12
14.9018073487
22
19.4687270915
13
14.9018073487
23
19.4687270915
0
SOLID
5
27C
100
AcDbEntity
8
___SYMBOL
100
AcDbTrace
62
2
6
CONTINUOUS
10
15.4152284592
20
19.5226898246
11
15.3840730607
21
19.4687270915
12
14.9018073487
22
19.4687270915
13
14.9018073487
23
19.4687270915
0
SOLID
5
27D
100
AcDbEntity
8
___SYMBOL
100
AcDbTrace
62
2
6
CONTINUOUS
10
14.9435014101
20
19.4224211451
11
14.9018073487
21
19.4687270915
12
15.3840730607
22
19.4687270915
13
15.3840730607
23
19.4687270915
0
SOLID
5
27E
100
AcDbEntity
8
___SYMBOL
100
AcDbTrace
62
2
6
CONTINUOUS
10
15.3840730607
20
19.4687270915
11
15.3423789992
21
19.4224211451
12
14.9435014101
22
19.4224211451
13
14.9435014101
23
19.4224211451
0
SOLID
5
27F
100
AcDbEntity
8
___SYMBOL
100
AcDbTrace
62
2
6
CONTINUOUS
10
14.9939119039
20
19.3857957775
11
14.9435014101
21
19.4224211451
12
15.3423789992
22
19.4224211451
13
15.3423789992
23
19.4224211451
0
SOLID
5
280
100
AcDbEntity
8
___SYMBOL
100
AcDbTrace
62
2
6
CONTINUOUS
10
15.3423789992
20
19.4224211451
11
15.2919685055
21
19.3857957775
12
14.9939119039
22
19.3857957775
13
14.9939119039
23
19.3857957775
0
SOLID
5
281
100
AcDbEntity
8
___SYMBOL
100
AcDbTrace
62
2
6
CONTINUOUS
10
15.0508356495
20
19.3604516931
11
14.9939119039
21
19.3857957775
12
15.2919685055
22
19.3857957775
13
15.2919685055
23
19.3857957775
0
SOLID
5
282
100
AcDbEntity
8
___SYMBOL
100
AcDbTrace
62
2
6
CONTINUOUS
10
15.2919685055
20
19.3857957775
11
15.2350447599
21
19.3604516931
12
15.0508356495
22
19.3604516931
13
15.0508356495
23
19.3604516931
0
SOLID
5
283
100
AcDbEntity
8
___SYMBOL
100
AcDbTrace
62
2
6
CONTINUOUS
10
15.1117848062
20
19.3474965499
11
15.0508356495
21
19.3604516931
12
15.2350447599
22
19.3604516931
13
15.2350447599
23
19.3604516931
0
SOLID
5
284
100
AcDbEntity
8
___SYMBOL
100
AcDbTrace
62
2
6
CONTINUOUS
10
15.2350447599
20
19.3604516931
11
15.1740956032
21
19.3474965499
12
15.1117848062
22
19.3474965499
13
15.1117848062
23
19.3474965499
0
LINE
5
285
100
AcDbEntity
8
___SYMBOL
100
AcDbLine
62
2
6
CONTINUOUS
10
15.9355762421
20
19.9379984532
11
15.9355762421
21
19.3520847830
0
LINE
5
286
100
AcDbEntity
8
___SYMBOL
100
AcDbLine
62
2
6
CONTINUOUS
10
15.9355762421
20
19.3520847830
11
15.7708425564
21
19.3520847830
0
LINE
5
287
100
AcDbEntity
8
___SYMBOL
100
AcDbLine
62
2
6
CONTINUOUS
10
15.7708425564
20
19.5804094009
11
15.7708425564
21
19.3520847830
0
LINE
5
288
100
AcDbEntity
8
___SYMBOL
100
AcDbLine
62
2
6
CONTINUOUS
10
15.6228457400
20
19.5804094009
11
15.7708425564
21
19.5804094009
0
LINE
5
289
100
AcDbEntity
8
___SYMBOL
100
AcDbLine
62
2
6
CONTINUOUS
10
15.6228457400
20
19.5804094009
11
15.6228457400
21
19.3520847830
0
LINE
5
28A
100
AcDbEntity
8
___SYMBOL
100
AcDbLine
62
2
6
CONTINUOUS
10
15.6228457400
20
19.3520847830
11
15.4581120543
21
19.3520847830
0
LINE
5
28B
100
AcDbEntity
8
___SYMBOL
100
AcDbLine
62
2
6
CONTINUOUS
10
15.4581120543
20
19.9379984532
11
15.4581120543
21
19.3520847830
0
LINE
5
28C
100
AcDbEntity
8
___SYMBOL
100
AcDbLine
62
2
6
CONTINUOUS
10
15.4581120543
20
19.9379984532
11
15.6228457400
21
19.9379984532
0
LINE
5
28D
100
AcDbEntity
8
___SYMBOL
100
AcDbLine
62
2
6
CONTINUOUS
10
15.6228457400
20
19.9379984532
11
15.6228457400
21
19.7176146857
0
LINE
5
28E
100
AcDbEntity
8
___SYMBOL
100
AcDbLine
62
2
6
CONTINUOUS
10
15.6228457400
20
19.7176146857
11
15.7708425564
21
19.7176146857
0
LINE
5
28F
100
AcDbEntity
8
___SYMBOL
100
AcDbLine
62
2
6
CONTINUOUS
10
15.7708425564
20
19.9379984532
11
15.7708425564
21
19.7176146857
0
LINE
5
290
100
AcDbEntity
8
___SYMBOL
100
AcDbLine
62
2
6
CONTINUOUS
10
15.7708425564
20
19.9379984532
11
15.9355762421
21
19.9379984532
0
SOLID
5
291
100
AcDbEntity
8
___SYMBOL
100
AcDbTrace
62
2
6
CONTINUOUS
10
15.7708425564
20
19.7176146857
11
15.7708425564
21
19.9379984532
12
15.9355762421
22
19.9379984532
13
15.9355762421
23
19.9379984532
0
SOLID
5
292
100
AcDbEntity
8
___SYMBOL
100
AcDbTrace
62
2
6
CONTINUOUS
10
15.7708425564
20
19.7176146857
11
15.6228457400
21
19.5804094009
12
15.6228457400
22
19.7176146857
13
15.6228457400
23
19.7176146857
0
SOLID
5
293
100
AcDbEntity
8
___SYMBOL
100
AcDbTrace
62
2
6
CONTINUOUS
10
15.6228457400
20
19.5804094009
11
15.4581120543
21
19.3520847830
12
15.6228457400
22
19.7176146857
13
15.6228457400
23
19.7176146857
0
SOLID
5
294
100
AcDbEntity
8
___SYMBOL
100
AcDbTrace
62
2
6
CONTINUOUS
10
15.6228457400
20
19.7176146857
11
15.4581120543
21
19.3520847830
12
15.6228457400
22
19.9379984532
13
15.6228457400
23
19.9379984532
0
SOLID
5
295
100
AcDbEntity
8
___SYMBOL
100
AcDbTrace
62
2
6
CONTINUOUS
10
15.4581120543
20
19.3520847830
11
15.4581120543
21
19.9379984532
12
15.6228457400
22
19.9379984532
13
15.6228457400
23
19.9379984532
0
SOLID
5
296
100
AcDbEntity
8
___SYMBOL
100
AcDbTrace
62
2
6
CONTINUOUS
10
15.6228457400
20
19.5804094009
11
15.6228457400
21
19.3520847830
12
15.4581120543
22
19.3520847830
13
15.4581120543
23
19.3520847830
0
SOLID
5
297
100
AcDbEntity
8
___SYMBOL
100
AcDbTrace
62
2
6
CONTINUOUS
10
15.6228457400
20
19.5804094009
11
15.7708425564
21
19.7176146857
12
15.7708425564
22
19.5804094009
13
15.7708425564
23
19.5804094009
0
SOLID
5
298
100
AcDbEntity
8
___SYMBOL
100
AcDbTrace
62
2
6
CONTINUOUS
10
15.7708425564
20
19.7176146857
11
15.9355762421
21
19.9379984532
12
15.7708425564
22
19.5804094009
13
15.7708425564
23
19.5804094009
0
SOLID
5
299
100
AcDbEntity
8
___SYMBOL
100
AcDbTrace
62
2
6
CONTINUOUS
10
15.7708425564
20
19.5804094009
11
15.9355762421
21
19.9379984532
12
15.7708425564
22
19.3520847830
13
15.7708425564
23
19.3520847830
0
SOLID
5
29A
100
AcDbEntity
8
___SYMBOL
100
AcDbTrace
62
2
6
CONTINUOUS
10
15.9355762421
20
19.9379984532
11
15.9355762421
21
19.3520847830
12
15.7708425564
22
19.3520847830
13
15.7708425564
23
19.3520847830
0
LINE
5
29B
100
AcDbEntity
8
___SYMBOL
100
AcDbLine
62
2
6
CONTINUOUS
10
16.1306671560
20
19.3520847830
11
16.2933512317
21
19.3520847830
0
LINE
5
29C
100
AcDbEntity
8
___SYMBOL
100
AcDbLine
62
2
6
CONTINUOUS
10
16.1306671560
20
19.3520847830
11
15.9806210879
21
19.3520847830
0
LINE
5
29D
100
AcDbEntity
8
___SYMBOL
100
AcDbLine
62
2
6
CONTINUOUS
10
15.9806210879
20
19.3520847830
11
15.9806210879
21
19.9379984532
0
LINE
5
29E
100
AcDbEntity
8
___SYMBOL
100
AcDbLine
62
2
6
CONTINUOUS
10
15.9806210879
20
19.9379984532
11
16.1306671560
21
19.9379984532
0
LINE
5
29F
100
AcDbEntity
8
___SYMBOL
100
AcDbLine
62
2
6
CONTINUOUS
10
16.1306671560
20
19.9379984532
11
16.1306671560
21
19.4933115452
0
LINE
5
2A0
100
AcDbEntity
8
___SYMBOL
100
AcDbLine
62
2
6
CONTINUOUS
10
16.1306671560
20
19.4933115452
11
16.2933512317
21
19.4933115452
0
LINE
5
2A1
100
AcDbEntity
8
___SYMBOL
100
AcDbLine
62
2
6
CONTINUOUS
10
16.2933512317
20
19.4933115452
11
16.2933512317
21
19.3520847830
0
SOLID
5
2A2
100
AcDbEntity
8
___SYMBOL
100
AcDbTrace
62
2
6
CONTINUOUS
10
16.2933512317
20
19.4933115452
11
15.9806210879
21
19.3520847830
12
16.1306671560
22
19.4933115452
13
16.1306671560
23
19.4933115452
0
SOLID
5
2A3
100
AcDbEntity
8
___SYMBOL
100
AcDbTrace
62
2
6
CONTINUOUS
10
16.1306671560
20
19.4933115452
11
15.9806210879
21
19.3520847830
12
16.1306671560
22
19.9379984532
13
16.1306671560
23
19.9379984532
0
SOLID
5
2A4
100
AcDbEntity
8
___SYMBOL
100
AcDbTrace
62
2
6
CONTINUOUS
10
15.9806210879
20
19.3520847830
11
15.9806210879
21
19.9379984532
12
16.1306671560
22
19.9379984532
13
16.1306671560
23
19.9379984532
0
SOLID
5
2A5
100
AcDbEntity
8
___SYMBOL
100
AcDbTrace
62
2
6
CONTINUOUS
10
15.9806210879
20
19.3520847830
11
16.2933512317
21
19.4933115452
12
16.1306671560
22
19.3520847830
13
16.1306671560
23
19.3520847830
0
SOLID
5
2A6
100
AcDbEntity
8
___SYMBOL
100
AcDbTrace
62
2
6
CONTINUOUS
10
16.2933512317
20
19.4933115452
11
16.2933512317
21
19.3520847830
12
16.1306671560
22
19.3520847830
13
16.1306671560
23
19.3520847830
0
LINE
5
2A7
100
AcDbEntity
8
___SYMBOL
100
AcDbLine
62
2
6
CONTINUOUS
10
16.6316031577
20
19.5732330790
11
16.6316031577
21
19.7176146857
0
LINE
5
2A8
100
AcDbEntity
8
___SYMBOL
100
AcDbLine
62
2
6
CONTINUOUS
10
16.4807456290
20
19.7176146857
11
16.6316031577
21
19.7176146857
0
LINE
5
2A9
100
AcDbEntity
8
___SYMBOL
100
AcDbLine
62
2
6
CONTINUOUS
10
16.4807456290
20
19.7952390514
11
16.4807456290
21
19.7176146857
0
LINE
5
2AA
100
AcDbEntity
8
___SYMBOL
100
AcDbLine
62
2
6
CONTINUOUS
10
16.4807456290
20
19.7952390514
11
16.6316031577
21
19.7952390514
0
LINE
5
2AB
100
AcDbEntity
8
___SYMBOL
100
AcDbLine
62
2
6
CONTINUOUS
10
16.6316031577
20
19.7952390514
11
16.6316031577
21
19.9379984532
0
LINE
5
2AC
100
AcDbEntity
8
___SYMBOL
100
AcDbLine
62
2
6
CONTINUOUS
10
16.4949499528
20
19.9379984532
11
16.6316031577
21
19.9379984532
0
LINE
5
2AD
100
AcDbEntity
8
___SYMBOL
100
AcDbLine
62
2
6
CONTINUOUS
10
16.3224989714
20
19.9379984532
11
16.4949499528
21
19.9379984532
0
LINE
5
2AE
100
AcDbEntity
8
___SYMBOL
100
AcDbLine
62
2
6
CONTINUOUS
10
16.3224989714
20
19.3520847830
11
16.3224989714
21
19.9379984532
0
LINE
5
2AF
100
AcDbEntity
8
___SYMBOL
100
AcDbLine
62
2
6
CONTINUOUS
10
16.3224989714
20
19.3520847830
11
16.6316031577
21
19.3520847830
0
LINE
5
2B0
100
AcDbEntity
8
___SYMBOL
100
AcDbLine
62
2
6
CONTINUOUS
10
16.6316031577
20
19.3520847830
11
16.6316031577
21
19.4933115452
0
LINE
5
2B1
100
AcDbEntity
8
___SYMBOL
100
AcDbLine
62
2
6
CONTINUOUS
10
16.4807456290
20
19.4933115452
11
16.6316031577
21
19.4933115452
0
LINE
5
2B2
100
AcDbEntity
8
___SYMBOL
100
AcDbLine
62
2
6
CONTINUOUS
10
16.4807456290
20
19.5732330790
11
16.4807456290
21
19.4933115452
0
LINE
5
2B3
100
AcDbEntity
8
___SYMBOL
100
AcDbLine
62
2
6
CONTINUOUS
10
16.4807456290
20
19.5732330790
11
16.6316031577
21
19.5732330790
0
SOLID
5
2B4
100
AcDbEntity
8
___SYMBOL
100
AcDbTrace
62
2
6
CONTINUOUS
10
16.6316031577
20
19.9379984532
11
16.6316031577
21
19.7952390514
12
16.4807456290
22
19.7952390514
13
16.4807456290
23
19.7952390514
0
SOLID
5
2B5
100
AcDbEntity
8
___SYMBOL
100
AcDbTrace
62
2
6
CONTINUOUS
10
16.6316031577
20
19.7176146857
11
16.6316031577
21
19.5732330790
12
16.4807456290
22
19.5732330790
13
16.4807456290
23
19.5732330790
0
SOLID
5
2B6
100
AcDbEntity
8
___SYMBOL
100
AcDbTrace
62
2
6
CONTINUOUS
10
16.6316031577
20
19.4933115452
11
16.3224989714
21
19.3520847830
12
16.4807456290
22
19.4933115452
13
16.4807456290
23
19.4933115452
0
SOLID
5
2B7
100
AcDbEntity
8
___SYMBOL
100
AcDbTrace
62
2
6
CONTINUOUS
10
16.4807456290
20
19.4933115452
11
16.3224989714
21
19.3520847830
12
16.4807456290
22
19.5732330790
13
16.4807456290
23
19.5732330790
0
SOLID
5
2B8
100
AcDbEntity
8
___SYMBOL
100
AcDbTrace
62
2
6
CONTINUOUS
10
16.6316031577
20
19.7176146857
11
16.4807456290
21
19.5732330790
12
16.4807456290
22
19.7176146857
13
16.4807456290
23
19.7176146857
0
SOLID
5
2B9
100
AcDbEntity
8
___SYMBOL
100
AcDbTrace
62
2
6
CONTINUOUS
10
16.4807456290
20
19.5732330790
11
16.3224989714
21
19.3520847830
12
16.4807456290
22
19.7176146857
13
16.4807456290
23
19.7176146857
0
SOLID
5
2BA
100
AcDbEntity
8
___SYMBOL
100
AcDbTrace
62
2
6
CONTINUOUS
10
16.4807456290
20
19.7176146857
11
16.3224989714
21
19.3520847830
12
16.4807456290
22
19.7952390514
13
16.4807456290
23
19.7952390514
0
SOLID
5
2BB
100
AcDbEntity
8
___SYMBOL
100
AcDbTrace
62
2
6
CONTINUOUS
10
16.6316031577
20
19.9379984532
11
16.4807456290
21
19.7952390514
12
16.4949499528
22
19.9379984532
13
16.4949499528
23
19.9379984532
0
SOLID
5
2BC
100
AcDbEntity
8
___SYMBOL
100
AcDbTrace
62
2
6
CONTINUOUS
10
16.4807456290
20
19.7952390514
11
16.3224989714
21
19.3520847830
12
16.4949499528
22
19.9379984532
13
16.4949499528
23
19.9379984532
0
SOLID
5
2BD
100
AcDbEntity
8
___SYMBOL
100
AcDbTrace
62
2
6
CONTINUOUS
10
16.3224989714
20
19.3520847830
11
16.3224989714
21
19.9379984532
12
16.4949499528
22
19.9379984532
13
16.4949499528
23
19.9379984532
0
SOLID
5
2BE
100
AcDbEntity
8
___SYMBOL
100
AcDbTrace
62
2
6
CONTINUOUS
10
16.6316031577
20
19.4933115452
11
16.6316031577
21
19.3520847830
12
16.3224989714
22
19.3520847830
13
16.3224989714
23
19.3520847830
0
LINE
5
2BF
100
AcDbEntity
8
___SYMBOL
100
AcDbLine
62
2
6
CONTINUOUS
10
17.1418535819
20
19.3520847830
11
16.9824103332
21
19.6036673332
0
ARC
5
2C0
100
AcDbEntity
8
___SYMBOL
100
AcDbCircle
62
2
6
CONTINUOUS
10
16.9099710830
20
19.7629889363
40
0.1750166225
100
AcDbArc
50
294.4500166359
51
90.0000000000
0
LINE
5
2C1
100
AcDbEntity
8
___SYMBOL
100
AcDbLine
62
2
6
CONTINUOUS
10
16.6764233740
20
19.9379984532
11
16.9099710830
21
19.9379984532
0
LINE
5
2C2
100
AcDbEntity
8
___SYMBOL
100
AcDbLine
62
2
6
CONTINUOUS
10
16.6764233740
20
19.3520847830
11
16.6764233740
21
19.9379984532
0
LINE
5
2C3
100
AcDbEntity
8
___SYMBOL
100
AcDbLine
62
2
6
CONTINUOUS
10
16.6764233740
20
19.3520847830
11
16.8270792020
21
19.3520847830
0
LINE
5
2C4
100
AcDbEntity
8
___SYMBOL
100
AcDbLine
62
2
6
CONTINUOUS
10
16.8270792020
20
19.5490411608
11
16.8270792020
21
19.3520847830
0
LINE
5
2C5
100
AcDbEntity
8
___SYMBOL
100
AcDbLine
62
2
6
CONTINUOUS
10
16.9519026356
20
19.3520847830
11
16.8270792020
21
19.5490411608
0
LINE
5
2C6
100
AcDbEntity
8
___SYMBOL
100
AcDbLine
62
2
6
CONTINUOUS
10
16.9519026356
20
19.3520847830
11
17.1418535819
21
19.3520847830
0
LINE
5
2C7
100
AcDbEntity
8
___SYMBOL
100
AcDbLine
62
2
6
CONTINUOUS
10
16.8270792020
20
19.6883164765
11
16.8794189540
21
19.6883164765
0
ARC
5
2C8
100
AcDbEntity
8
___SYMBOL
100
AcDbCircle
62
2
6
CONTINUOUS
10
16.8830089835
20
19.7418078779
40
0.0536117369
100
AcDbArc
50
266.1604009902
51
89.9998910512
0
LINE
5
2C9
100
AcDbEntity
8
___SYMBOL
100
AcDbLine
62
2
6
CONTINUOUS
10
16.8830090854
20
19.7954196148
11
16.8270792020
21
19.7954196148
0
LINE
5
2CA
100
AcDbEntity
8
___SYMBOL
100
AcDbLine
62
2
6
CONTINUOUS
10
16.8270792020
20
19.7954196148
11
16.8270792020
21
19.6883164765
0
SOLID
5
2CB
100
AcDbEntity
8
___SYMBOL
100
AcDbTrace
62
2
6
CONTINUOUS
10
16.9099710830
20
19.9380055588
11
16.9569041082
21
19.9315953102
12
16.6764233740
22
19.9379984532
13
16.6764233740
23
19.9379984532
0
SOLID
5
2CC
100
AcDbEntity
8
___SYMBOL
100
AcDbTrace
62
2
6
CONTINUOUS
10
16.8270792020
20
19.7954196148
11
17.0810189521
21
19.8000489505
12
16.8830090854
22
19.7954196148
13
16.8830090854
23
19.7954196148
0
SOLID
5
2CD
100
AcDbEntity
8
___SYMBOL
100
AcDbTrace
62
2
6
CONTINUOUS
10
16.8830090854
20
19.7954196148
11
17.0810189521
21
19.8000489505
12
16.9067316678
22
19.7898854463
13
16.9067316678
23
19.7898854463
0
SOLID
5
2CE
100
AcDbEntity
8
___SYMBOL
100
AcDbTrace
62
2
6
CONTINUOUS
10
16.9067316678
20
19.7898854463
11
17.0810189521
21
19.8000489505
12
16.9255566562
22
19.7744255707
13
16.9255566562
23
19.7744255707
0
SOLID
5
2CF
100
AcDbEntity
8
___SYMBOL
100
AcDbTrace
62
2
6
CONTINUOUS
10
17.0810189521
20
19.8000489505
11
17.0846921986
21
19.7528228200
12
16.9255566562
22
19.7744255707
13
16.9255566562
23
19.7744255707
0
SOLID
5
2D0
100
AcDbEntity
8
___SYMBOL
100
AcDbTrace
62
2
6
CONTINUOUS
10
16.9355975951
20
19.7522317093
11
16.9255566562
21
19.7744255707
12
17.0846921986
22
19.7528228200
13
17.0846921986
23
19.7528228200
0
SOLID
5
2D1
100
AcDbEntity
8
___SYMBOL
100
AcDbTrace
62
2
6
CONTINUOUS
10
16.9355975951
20
19.7522317093
11
17.0846921986
21
19.7528228200
12
16.9347815134
22
19.7278858277
13
16.9347815134
23
19.7278858277
0
SOLID
5
2D2
100
AcDbEntity
8
___SYMBOL
100
AcDbTrace
62
2
6
CONTINUOUS
10
16.9347815134
20
19.7278858277
11
17.0846921986
21
19.7528228200
12
16.9232768926
22
19.7064141804
13
16.9232768926
23
19.7064141804
0
SOLID
5
2D3
100
AcDbEntity
8
___SYMBOL
100
AcDbTrace
62
2
6
CONTINUOUS
10
17.0846921986
20
19.7528228200
11
17.0755665946
21
19.7063413883
12
16.9232768926
22
19.7064141804
13
16.9232768926
23
19.7064141804
0
SOLID
5
2D4
100
AcDbEntity
8
___SYMBOL
100
AcDbTrace
62
2
6
CONTINUOUS
10
16.9034588841
20
19.6922496304
11
16.9232768926
21
19.7064141804
12
17.0755665946
22
19.7063413883
13
17.0755665946
23
19.7063413883
0
SOLID
5
2D5
100
AcDbEntity
8
___SYMBOL
100
AcDbTrace
62
2
6
CONTINUOUS
10
16.9034588841
20
19.6922496304
11
17.0755665946
21
19.7063413883
12
16.8794189540
22
19.6883164765
13
16.8794189540
23
19.6883164765
0
SOLID
5
2D6
100
AcDbEntity
8
___SYMBOL
100
AcDbTrace
62
2
6
CONTINUOUS
10
17.0755665946
20
19.7063413883
11
17.0543106182
21
19.6640095609
12
16.8794189540
22
19.6883164765
13
16.8794189540
23
19.6883164765
0
SOLID
5
2D7
100
AcDbEntity
8
___SYMBOL
100
AcDbTrace
62
2
6
CONTINUOUS
10
16.9824103332
20
19.6036673332
11
16.8270792020
21
19.5490411608
12
17.0224813339
22
19.6289282724
13
17.0224813339
23
19.6289282724
0
SOLID
5
2D8
100
AcDbEntity
8
___SYMBOL
100
AcDbTrace
62
2
6
CONTINUOUS
10
17.0224813339
20
19.6289282724
11
16.8270792020
21
19.5490411608
12
17.0543106182
22
19.6640095609
13
17.0543106182
23
19.6640095609
0
SOLID
5
2D9
100
AcDbEntity
8
___SYMBOL
100
AcDbTrace
62
2
6
CONTINUOUS
10
17.0543106182
20
19.6640095609
11
16.8270792020
21
19.5490411608
12
16.8794189540
22
19.6883164765
13
16.8794189540
23
19.6883164765
0
SOLID
5
2DA
100
AcDbEntity
8
___SYMBOL
100
AcDbTrace
62
2
6
CONTINUOUS
10
16.8270792020
20
19.5490411608
11
16.6764233740
21
19.3520847830
12
16.8794189540
22
19.6883164765
13
16.8794189540
23
19.6883164765
0
SOLID
5
2DB
100
AcDbEntity
8
___SYMBOL
100
AcDbTrace
62
2
6
CONTINUOUS
10
16.8794189540
20
19.6883164765
11
16.6764233740
21
19.3520847830
12
16.8270792020
22
19.6883164765
13
16.8270792020
23
19.6883164765
0
SOLID
5
2DC
100
AcDbEntity
8
___SYMBOL
100
AcDbTrace
62
2
6
CONTINUOUS
10
16.8270792020
20
19.6883164765
11
16.6764233740
21
19.3520847830
12
16.8270792020
22
19.7954196148
13
16.8270792020
23
19.7954196148
0
SOLID
5
2DD
100
AcDbEntity
8
___SYMBOL
100
AcDbTrace
62
2
6
CONTINUOUS
10
17.0810189521
20
19.8000489505
11
16.8270792020
21
19.7954196148
12
17.0648159314
22
19.8445603228
13
17.0648159314
23
19.8445603228
0
SOLID
5
2DE
100
AcDbEntity
8
___SYMBOL
100
AcDbTrace
62
2
6
CONTINUOUS
10
17.0648159314
20
19.8445603228
11
16.8270792020
21
19.7954196148
12
17.0372700569
22
19.8830963441
13
17.0372700569
23
19.8830963441
0
SOLID
5
2DF
100
AcDbEntity
8
___SYMBOL
100
AcDbTrace
62
2
6
CONTINUOUS
10
17.0372700569
20
19.8830963441
11
16.8270792020
21
19.7954196148
12
17.0003991472
22
19.9128341343
13
17.0003991472
23
19.9128341343
0
SOLID
5
2E0
100
AcDbEntity
8
___SYMBOL
100
AcDbTrace
62
2
6
CONTINUOUS
10
17.0003991472
20
19.9128341343
11
16.8270792020
21
19.7954196148
12
16.9569041082
22
19.9315953102
13
16.9569041082
23
19.9315953102
0
SOLID
5
2E1
100
AcDbEntity
8
___SYMBOL
100
AcDbTrace
62
2
6
CONTINUOUS
10
16.9569041082
20
19.9315953102
11
16.8270792020
21
19.7954196148
12
16.6764233740
22
19.9379984532
13
16.6764233740
23
19.9379984532
0
SOLID
5
2E2
100
AcDbEntity
8
___SYMBOL
100
AcDbTrace
62
2
6
CONTINUOUS
10
16.6764233740
20
19.3520847830
11
16.6764233740
21
19.9379984532
12
16.8270792020
22
19.7954196148
13
16.8270792020
23
19.7954196148
0
SOLID
5
2E3
100
AcDbEntity
8
___SYMBOL
100
AcDbTrace
62
2
6
CONTINUOUS
10
16.8270792020
20
19.5490411608
11
16.8270792020
21
19.3520847830
12
16.6764233740
22
19.3520847830
13
16.6764233740
23
19.3520847830
0
SOLID
5
2E4
100
AcDbEntity
8
___SYMBOL
100
AcDbTrace
62
2
6
CONTINUOUS
10
16.8270792020
20
19.5490411608
11
16.9824103332
21
19.6036673332
12
16.9519026356
22
19.3520847830
13
16.9519026356
23
19.3520847830
0
SOLID
5
2E5
100
AcDbEntity
8
___SYMBOL
100
AcDbTrace
62
2
6
CONTINUOUS
10
16.9824103332
20
19.6036673332
11
17.1418535819
21
19.3520847830
12
16.9519026356
22
19.3520847830
13
16.9519026356
23
19.3520847830
0
CIRCLE
5
2E6
100
AcDbEntity
8
___SYMBOL
100
AcDbCircle
62
2
6
CONTINUOUS
10
17.2826235615
20
19.3520847830
40
0.0653578744
0
LINE
5
2E7
100
AcDbEntity
8
___SYMBOL
100
AcDbLine
62
2
6
CONTINUOUS
10
17.2783355381
20
19.3515470336
11
17.3102035520
21
19.3192440911
0
LINE
5
2E8
100
AcDbEntity
8
___SYMBOL
100
AcDbLine
62
2
6
CONTINUOUS
10
17.2667375615
20
19.3192440911
11
17.2667375615
21
19.3852102923
0
LINE
5
2E9
100
AcDbEntity
8
___SYMBOL
100
AcDbLine
62
2
6
CONTINUOUS
10
17.2667375615
20
19.3852102923
11
17.2910168953
21
19.3852102923
0
ARC
5
2EA
100
AcDbEntity
8
___SYMBOL
100
AcDbCircle
62
2
6
CONTINUOUS
10
17.2910168953
20
19.3683788421
40
0.0168314502
100
AcDbArc
50
270.0000000000
51
90.0000000000
0
LINE
5
2EB
100
AcDbEntity
8
___SYMBOL
100
AcDbLine
62
2
6
CONTINUOUS
10
17.2910168953
20
19.3515470336
11
17.2667375615
21
19.3515470336
0
TEXT
5
2EC
100
AcDbEntity
8
___SYMBOL
100
AcDbText
62
2
6
CONTINUOUS
10
14.4073944983
20
15.4010931298
7
STANDARD
40
0.2500000089
1
ICEROCK  
41
0.8000000000
72
0
100
AcDbText
0
TEXT
5
2ED
100
AcDbEntity
8
___SYMBOL
100
AcDbText
62
2
6
CONTINUOUS
10
16.2073945622
20
15.4010931298
7
STANDARD
40
0.2500000089
1
   
41
0.8000000000
72
0
100
AcDbText
0
TEXT
5
2EE
100
AcDbEntity
8
___SYMBOL
100
AcDbText
62
2
6
CONTINUOUS
10
16.8073945836
20
15.4010931298
7
STANDARD
40
0.2500000089
1
3333W
41
0.8000000000
72
0
100
AcDbText
0
TEXT
5
2EF
100
AcDbEntity
8
___SYMBOL
100
AcDbText
62
2
6
CONTINUOUS
10
17.8073946191
20
15.4010931298
7
STANDARD
40
0.2500000089
1
-**-
41
0.8000000000
72
0
100
AcDbText
0
TEXT
5
2F0
100
AcDbEntity
8
___SYMBOL
100
AcDbText
62
2
6
CONTINUOUS
10
18.6073946476
20
15.4010931298
7
STANDARD
40
0.2500000089
1
AA
41
0.8000000000
72
0
100
AcDbText
0
ENDBLK
5
2F1
100
AcDbEntity
8
0
6
BYBLOCK
62
0
100
AcDbBlockEnd
0
BLOCK
5
2F2
100
AcDbEntity
8
___SYMBOL
100
AcDbBlockBegin
62
2
6
CONTINUOUS
2
PACKAGING_UPC_BL2
70
64
10
17.0750488889
20
10.6678645192
3
PACKAGING_UPC_BL2
1

0
TEXT
5
2F3
100
AcDbEntity
8
___SYMBOL
100
AcDbText
62
7
6
CONTINUOUS
10
15.5410480057
20
11.1948678201
7
STANDARD
40
0.0593587494
1
XXXXX-XX-X-XX
41
0.8258950207
72
0
100
AcDbText
0
TEXT
5
2F4
100
AcDbEntity
8
___SYMBOL
100
AcDbText
62
7
6
CONTINUOUS
10
17.1750279898
20
11.0657028214
7
STANDARD
40
0.0445192496
1
xxxxxx-xx
41
0.6740211618
72
0
100
AcDbText
0
TEXT
5
2F5
100
AcDbEntity
8
___SYMBOL
100
AcDbText
62
2
6
CONTINUOUS
10
14.4107037082
20
12.7384964849
7
STANDARD
40
0.1562500055
1
PACKAGING/UPC LABEL ON BOX
41
0.7999999985
72
0
100
AcDbText
0
TEXT
5
2F6
100
AcDbEntity
8
___SYMBOL
100
AcDbText
62
2
6
CONTINUOUS
10
14.4107037082
20
12.5041214770
7
STANDARD
40
0.1562500055
1
ETIQUETA DE EMBALAJE/UPC EN LA CAJA
41
0.7999999985
72
0
100
AcDbText
0
TEXT
5
2F7
100
AcDbEntity
8
___SYMBOL
100
AcDbText
62
2
6
CONTINUOUS
10
14.4107037082
20
12.2697464757
7
STANDARD
40
0.1562500003
1
ETIQUETTE D'EMBALLAGE/UPC SUR LA BOÎTE
41
0.7999999985
72
0
100
AcDbText
0
TEXT
5
2F8
100
AcDbEntity
8
___SYMBOL
100
AcDbText
62
2
6
CONTINUOUS
10
14.3875487990
20
10.5503575650
7
STANDARD
40
0.1562500055
1
The template and the label suffixes circled
41
0.7999999985
72
0
100
AcDbText
0
TEXT
5
2F9
100
AcDbEntity
8
___SYMBOL
100
AcDbText
62
2
6
CONTINUOUS
10
14.3875487990
20
10.3159825572
7
STANDARD
40
0.1562500055
1
must match for proper cut-out.
41
0.7999999985
72
0
100
AcDbText
0
TEXT
5
2FA
100
AcDbEntity
8
___SYMBOL
100
AcDbText
62
2
6
CONTINUOUS
10
14.3875487990
20
10.0816075559
7
STANDARD
40
0.1562500003
1
 
41
0.7999999985
72
0
100
AcDbText
0
TEXT
5
2FB
100
AcDbEntity
8
___SYMBOL
100
AcDbText
62
2
6
CONTINUOUS
10
14.3875487990
20
9.8472325493
7
STANDARD
40
0.1562500055
1
A fin de realizar el corte apropiado, la
41
0.7999999985
72
0
100
AcDbText
0
TEXT
5
2FC
100
AcDbEntity
8
___SYMBOL
100
AcDbText
62
2
6
CONTINUOUS
10
14.3875487990
20
9.6128575480
7
STANDARD
40
0.1562500003
1
plantilla y los sufijos de la etiqueta
41
0.7999999985
72
0
100
AcDbText
0
TEXT
5
2FD
100
AcDbEntity
8
___SYMBOL
100
AcDbText
62
2
6
CONTINUOUS
10
14.3875487990
20
9.3784825480
7
STANDARD
40
0.1562500003
1
demarcados deben concordar.
41
0.7999999985
72
0
100
AcDbText
0
TEXT
5
2FE
100
AcDbEntity
8
___SYMBOL
100
AcDbText
62
2
6
CONTINUOUS
10
14.3875487990
20
9.1441075480
7
STANDARD
40
0.1562500003
1
 
41
0.7999999985
72
0
100
AcDbText
0
TEXT
5
2FF
100
AcDbEntity
8
___SYMBOL
100
AcDbText
62
2
6
CONTINUOUS
10
14.3875487990
20
8.9097325480
7
STANDARD
40
0.1562500003
1
Afin de découper l'ouverture correctement,
41
0.7999999985
72
0
100
AcDbText
0
TEXT
5
300
100
AcDbEntity
8
___SYMBOL
100
AcDbText
62
2
6
CONTINUOUS
10
14.3875487990
20
8.6753575480
7
STANDARD
40
0.1562500003
1
le gabarit et les suffixes encerclés
41
0.7999999985
72
0
100
AcDbText
0
TEXT
5
301
100
AcDbEntity
8
___SYMBOL
100
AcDbText
62
2
6
CONTINUOUS
10
14.3875487990
20
8.4409825480
7
STANDARD
40
0.1562500003
1
doivent correspondre
41
0.7999999985
72
0
100
AcDbText
0
LINE
5
302
100
AcDbEntity
8
___SYMBOL
100
AcDbLine
62
7
6
CONTINUOUS
10
17.5298529863
20
11.0389728216
11
15.3448105076
21
11.0389728216
0
LINE
5
303
100
AcDbEntity
8
___SYMBOL
100
AcDbLine
62
7
6
CONTINUOUS
10
15.3448105076
20
11.0389728216
11
15.3448105076
21
12.0320028119
0
LINE
5
304
100
AcDbEntity
8
___SYMBOL
100
AcDbLine
62
7
6
CONTINUOUS
10
15.3448105076
20
12.0320028119
11
17.5298529863
21
12.0320028119
0
LINE
5
305
100
AcDbEntity
8
___SYMBOL
100
AcDbLine
62
7
6
CONTINUOUS
10
17.5298529863
20
12.0320028119
11
17.5298529863
21
11.0389728216
0
LINE
5
306
100
AcDbEntity
8
___SYMBOL
100
AcDbLine
62
7
6
CONTINUOUS
10
15.3114430080
20
12.0644628116
11
17.5640079860
21
12.0644628116
0
LINE
5
307
100
AcDbEntity
8
___SYMBOL
100
AcDbLine
62
7
6
CONTINUOUS
10
17.5640079860
20
12.0644628116
11
17.5640079860
21
10.9715553223
0
LINE
5
308
100
AcDbEntity
8
___SYMBOL
100
AcDbLine
62
7
6
CONTINUOUS
10
17.5640079860
20
10.9715553223
11
15.3114430080
21
10.9715553223
0
LINE
5
309
100
AcDbEntity
8
___SYMBOL
100
AcDbLine
62
7
6
CONTINUOUS
10
15.3114430080
20
10.9715553223
11
15.3114430080
21
12.0644628116
0
LINE
5
30A
100
AcDbEntity
8
___SYMBOL
100
AcDbLine
62
7
6
CONTINUOUS
10
17.3246679883
20
11.4706428174
11
17.3246679883
21
11.3490078186
0
LINE
5
30B
100
AcDbEntity
8
___SYMBOL
100
AcDbLine
62
7
6
CONTINUOUS
10
17.3246679883
20
11.3490078186
11
16.9817154916
21
11.3490078186
0
LINE
5
30C
100
AcDbEntity
8
___SYMBOL
100
AcDbLine
62
7
6
CONTINUOUS
10
16.9817154916
20
11.3490078186
11
16.9817154916
21
11.4706428174
0
LINE
5
30D
100
AcDbEntity
8
___SYMBOL
100
AcDbLine
62
7
6
CONTINUOUS
10
16.9817154916
20
11.4706428174
11
17.3246679883
21
11.4706428174
0
SOLID
5
30E
100
AcDbEntity
8
___SYMBOL
100
AcDbTrace
62
7
6
CONTINUOUS
10
16.9817154916
20
11.3490078095
11
16.9817154916
21
11.4706428097
12
17.3246679883
22
11.4706428097
13
17.3246679883
23
11.4706428097
0
SOLID
5
30F
100
AcDbEntity
8
___SYMBOL
100
AcDbTrace
62
7
6
CONTINUOUS
10
17.3246679883
20
11.4706428097
11
17.3246679883
21
11.3490078095
12
16.9817154916
22
11.3490078095
13
16.9817154916
23
11.3490078095
0
LINE
5
310
100
AcDbEntity
8
___SYMBOL
100
AcDbLine
62
7
6
CONTINUOUS
10
16.2492129988
20
11.4706428174
11
16.2492129988
21
11.3490078186
0
LINE
5
311
100
AcDbEntity
8
___SYMBOL
100
AcDbLine
62
7
6
CONTINUOUS
10
16.2492129988
20
11.3490078186
11
15.3935080072
21
11.3490078186
0
LINE
5
312
100
AcDbEntity
8
___SYMBOL
100
AcDbLine
62
7
6
CONTINUOUS
10
15.3935080072
20
11.3490078186
11
15.3935080072
21
11.4706428174
0
LINE
5
313
100
AcDbEntity
8
___SYMBOL
100
AcDbLine
62
7
6
CONTINUOUS
10
15.3935080072
20
11.4706428174
11
16.2492129988
21
11.4706428174
0
SOLID
5
314
100
AcDbEntity
8
___SYMBOL
100
AcDbTrace
62
7
6
CONTINUOUS
10
15.3935080072
20
11.3490078095
11
15.3935080072
21
11.4706428097
12
16.2492129988
22
11.4706428097
13
16.2492129988
23
11.4706428097
0
SOLID
5
315
100
AcDbEntity
8
___SYMBOL
100
AcDbTrace
62
7
6
CONTINUOUS
10
16.2492129988
20
11.4706428097
11
16.2492129988
21
11.3490078095
12
15.3935080072
22
11.3490078095
13
15.3935080072
23
11.3490078095
0
LINE
5
316
100
AcDbEntity
8
___SYMBOL
100
AcDbLine
62
7
6
CONTINUOUS
10
16.2492129988
20
11.0973753210
11
16.2492129988
21
11.0623953214
0
LINE
5
317
100
AcDbEntity
8
___SYMBOL
100
AcDbLine
62
7
6
CONTINUOUS
10
16.2492129988
20
11.0623953214
11
15.3935080072
21
11.0623953214
0
LINE
5
318
100
AcDbEntity
8
___SYMBOL
100
AcDbLine
62
7
6
CONTINUOUS
10
15.3935080072
20
11.0623953214
11
15.3935080072
21
11.0973753210
0
LINE
5
319
100
AcDbEntity
8
___SYMBOL
100
AcDbLine
62
7
6
CONTINUOUS
10
15.3935080072
20
11.0973753210
11
16.2492129988
21
11.0973753210
0
SOLID
5
31A
100
AcDbEntity
8
___SYMBOL
100
AcDbTrace
62
7
6
CONTINUOUS
10
15.3935080072
20
11.0623953230
11
15.3935080072
21
11.0973753050
12
16.2492129988
22
11.0973753050
13
16.2492129988
23
11.0973753050
0
SOLID
5
31B
100
AcDbEntity
8
___SYMBOL
100
AcDbTrace
62
7
6
CONTINUOUS
10
16.2492129988
20
11.0973753050
11
16.2492129988
21
11.0623953230
12
15.3935080072
22
11.0623953230
13
15.3935080072
23
11.0623953230
0
SPLINE
5
31C
100
AcDbEntity
8
___SYMBOL
100
AcDbSpline
62
7
6
CONTINUOUS
70
0
71
2
72
8
73
5
74
295
42
0.0000001000
43
0.0000001000
44
0.0000000001
12
-0.3204212141
22
-0.0753823492
32
0.0000000000
13
-0.3214221905
23
-0.0709927505
33
0.0000000000
40
0.0000000000
40
0.0000000000
40
0.0000000000
40
1.0000000000
40
1.0000000000
40
2.0000000000
40
2.0000000000
40
2.0000000000
41
1.0000000000
41
0.0034195132
41
1.0000000000
41
0.0034195132
41
1.0000000000
10
16.1152179521
20
11.3091529392
30
0.0000000000
10
-7.3107196689
20
5.7979628811
30
0.0000000000
10
16.1523572647
20
11.1488166882
30
0.0000000000
10
39.6154341983
20
16.4996704952
30
0.0000000000
10
16.1163153738
20
11.3094032109
30
0.0000000000
11
16.1152179521
21
11.3091529392
31
0.0000000000
11
16.1139588998
21
11.3088462530
31
0.0000000000
11
16.1126851971
21
11.3085144996
31
0.0000000000
11
16.1113971178
21
11.3081567347
31
0.0000000000
11
16.1100949757
21
11.3077719934
31
0.0000000000
11
16.1087791268
21
11.3073592917
31
0.0000000000
11
16.1074499722
21
11.3069176273
31
0.0000000000
11
16.1061079598
21
11.3064459807
31
0.0000000000
11
16.1047535880
21
11.3059433171
31
0.0000000000
11
16.1033874071
21
11.3054085874
31
0.0000000000
11
16.1020100231
21
11.3048407308
31
0.0000000000
11
16.1006220996
21
11.3042386761
31
0.0000000000
11
16.0992243605
21
11.3036013448
31
0.0000000000
11
16.0978175933
21
11.3029276531
31
0.0000000000
11
16.0964026510
21
11.3022165150
31
0.0000000000
11
16.0949804550
21
11.3014668457
31
0.0000000000
11
16.0935519978
21
11.3006775646
31
0.0000000000
11
16.0921183448
21
11.2998475994
31
0.0000000000
11
16.0906806374
21
11.2989758899
31
0.0000000000
11
16.0892400944
21
11.2980613927
31
0.0000000000
11
16.0877980142
21
11.2971030856
31
0.0000000000
11
16.0863557769
21
11.2960999731
31
0.0000000000
11
16.0849148450
21
11.2950510911
31
0.0000000000
11
16.0834767652
21
11.2939555133
31
0.0000000000
11
16.0820431689
21
11.2928123568
31
0.0000000000
11
16.0806157729
21
11.2916207885
31
0.0000000000
11
16.0791963792
21
11.2903800318
31
0.0000000000
11
16.0777868747
21
11.2890893734
31
0.0000000000
11
16.0763892303
21
11.2877481707
31
0.0000000000
11
16.0750054991
21
11.2863558586
31
0.0000000000
11
16.0736378148
21
11.2849119575
31
0.0000000000
11
16.0722883888
21
11.2834160808
31
0.0000000000
11
16.0709595067
21
11.2818679426
31
0.0000000000
11
16.0696535242
21
11.2802673655
31
0.0000000000
11
16.0683728624
21
11.2786142882
31
0.0000000000
11
16.0671200022
21
11.2769087735
31
0.0000000000
11
16.0658974777
21
11.2751510152
31
0.0000000000
11
16.0647078693
21
11.2733413456
31
0.0000000000
11
16.0635537954
21
11.2714802423
31
0.0000000000
11
16.0624379038
21
11.2695683348
31
0.0000000000
11
16.0613628619
21
11.2676064098
31
0.0000000000
11
16.0603313464
21
11.2655954170
31
0.0000000000
11
16.0593460323
21
11.2635364735
31
0.0000000000
11
16.0584095808
21
11.2614308674
31
0.0000000000
11
16.0575246272
21
11.2592800606
31
0.0000000000
11
16.0566937676
21
11.2570856908
31
0.0000000000
11
16.0559195455
21
11.2548495722
31
0.0000000000
11
16.0552044382
21
11.2525736948
31
0.0000000000
11
16.0545508423
21
11.2502602232
31
0.0000000000
11
16.0539610598
21
11.2479114931
31
0.0000000000
11
16.0534372835
21
11.2455300076
31
0.0000000000
11
16.0529815830
21
11.2431184313
31
0.0000000000
11
16.0525958909
21
11.2406795833
31
0.0000000000
11
16.0522819892
21
11.2382164287
31
0.0000000000
11
16.0520414964
21
11.2357320692
31
0.0000000000
11
16.0518758555
21
11.2332297320
31
0.0000000000
11
16.0517863224
21
11.2307127572
31
0.0000000000
11
16.0517739562
21
11.2281845848
31
0.0000000000
11
16.0518396092
21
11.2256487400
31
0.0000000000
11
16.0519839200
21
11.2231088178
31
0.0000000000
11
16.0522073063
21
11.2205684665
31
0.0000000000
11
16.0525099605
21
11.2180313713
31
0.0000000000
11
16.0528918458
21
11.2155012362
31
0.0000000000
11
16.0533526950
21
11.2129817666
31
0.0000000000
11
16.0538920098
21
11.2104766513
31
0.0000000000
11
16.0545090629
21
11.2079895444
31
0.0000000000
11
16.0552029010
21
11.2055240477
31
0.0000000000
11
16.0559723496
21
11.2030836933
31
0.0000000000
11
16.0568160196
21
11.2006719267
31
0.0000000000
11
16.0577323155
21
11.1982920910
31
0.0000000000
11
16.0587194441
21
11.1959474112
31
0.0000000000
11
16.0597754263
21
11.1936409804
31
0.0000000000
11
16.0608981079
21
11.1913757468
31
0.0000000000
11
16.0620851734
21
11.1891545016
31
0.0000000000
11
16.0633341591
21
11.1869798688
31
0.0000000000
11
16.0646424685
21
11.1848542961
31
0.0000000000
11
16.0660073867
21
11.1827800474
31
0.0000000000
11
16.0674260963
21
11.1807591968
31
0.0000000000
11
16.0688956929
21
11.1787936240
31
0.0000000000
11
16.0704132015
21
11.1768850110
31
0.0000000000
11
16.0719755917
21
11.1750348411
31
0.0000000000
11
16.0735797933
21
11.1732443980
31
0.0000000000
11
16.0752227120
21
11.1715147676
31
0.0000000000
11
16.0769012436
21
11.1698468400
31
0.0000000000
11
16.0786122881
21
11.1682413134
31
0.0000000000
11
16.0803527634
21
11.1666986986
31
0.0000000000
11
16.0821196177
21
11.1652193250
31
0.0000000000
11
16.0839098415
21
11.1638033469
31
0.0000000000
11
16.0857204782
21
11.1624507510
31
0.0000000000
11
16.0875486341
21
11.1611613644
31
0.0000000000
11
16.0893914877
21
11.1599348631
31
0.0000000000
11
16.0912462971
21
11.1587707807
31
0.0000000000
11
16.0931104077
21
11.1576685184
31
0.0000000000
11
16.0949812576
21
11.1566273536
31
0.0000000000
11
16.0968563833
21
11.1556464504
31
0.0000000000
11
16.0987334235
21
11.1547248686
31
0.0000000000
11
16.1006101224
21
11.1538615734
31
0.0000000000
11
16.1024843324
21
11.1530554454
31
0.0000000000
11
16.1043540157
21
11.1523052894
31
0.0000000000
11
16.1062172453
21
11.1516098435
31
0.0000000000
11
16.1080722049
21
11.1509677882
31
0.0000000000
11
16.1099171893
21
11.1503777545
31
0.0000000000
11
16.1117506025
21
11.1498383321
31
0.0000000000
11
16.1135709572
21
11.1493480772
31
0.0000000000
11
16.1153768722
21
11.1489055194
31
0.0000000000
11
16.1171670705
21
11.1485091689
31
0.0000000000
11
16.1189403765
21
11.1481575226
31
0.0000000000
11
16.1206957131
21
11.1478490701
31
0.0000000000
11
16.1224320985
21
11.1475822993
31
0.0000000000
11
16.1241486428
21
11.1473557013
31
0.0000000000
11
16.1258445444
21
11.1471677752
31
0.0000000000
11
16.1275190866
21
11.1470170318
31
0.0000000000
11
16.1291716333
21
11.1469019981
31
0.0000000000
11
16.1308016258
21
11.1468212202
31
0.0000000000
11
16.1324085783
21
11.1467732663
31
0.0000000000
11
16.1339920748
21
11.1467567296
31
0.0000000000
11
16.1355517646
21
11.1467702305
31
0.0000000000
11
16.1370873589
21
11.1468124186
31
0.0000000000
11
16.1385986273
21
11.1468819744
31
0.0000000000
11
16.1400853936
21
11.1469776106
31
0.0000000000
11
16.1415475327
21
11.1470980735
31
0.0000000000
11
16.1429849669
21
11.1472421439
31
0.0000000000
11
16.1443976630
21
11.1474086375
31
0.0000000000
11
16.1450947351
21
11.1474999327
31
0.0000000000
11
16.1457856286
21
11.1475964058
31
0.0000000000
11
16.1464703504
21
11.1476979188
31
0.0000000000
11
16.1471489094
21
11.1478043361
31
0.0000000000
11
16.1478213169
21
11.1479155242
31
0.0000000000
11
16.1484875861
21
11.1480313520
31
0.0000000000
11
16.1491477319
21
11.1481516904
31
0.0000000000
11
16.1494755139
21
11.1482135115
31
0.0000000000
11
16.1498017715
21
11.1482764129
31
0.0000000000
11
16.1501265071
21
11.1483403792
31
0.0000000000
11
16.1504497233
21
11.1484053950
31
0.0000000000
11
16.1507714227
21
11.1484714452
31
0.0000000000
11
16.1510916079
21
11.1485385146
31
0.0000000000
11
16.1512511336
21
11.1485724268
31
0.0000000000
11
16.1514102818
21
11.1486065883
31
0.0000000000
11
16.1515690529
21
11.1486409971
31
0.0000000000
11
16.1517274472
21
11.1486756515
31
0.0000000000
11
16.1518854652
21
11.1487105496
31
0.0000000000
11
16.1519643331
21
11.1487280895
31
0.0000000000
11
16.1520431072
21
11.1487456897
31
0.0000000000
11
16.1521217873
21
11.1487633498
31
0.0000000000
11
16.1522003735
21
11.1487810698
31
0.0000000000
11
16.1522788660
21
11.1487988493
31
0.0000000000
11
16.1523180771
21
11.1488077613
31
0.0000000000
11
16.1523572647
21
11.1488166882
31
0.0000000000
11
16.1523964480
21
11.1488256341
31
0.0000000000
11
16.1524356460
21
11.1488346036
31
0.0000000000
11
16.1525140860
21
11.1488526132
31
0.0000000000
11
16.1525925847
21
11.1488707171
31
0.0000000000
11
16.1526711420
21
11.1488889157
31
0.0000000000
11
16.1527497580
21
11.1489072090
31
0.0000000000
11
16.1528284325
21
11.1489255973
31
0.0000000000
11
16.1529859569
21
11.1489626600
31
0.0000000000
11
16.1531437148
21
11.1490001054
31
0.0000000000
11
16.1533017057
21
11.1490379355
31
0.0000000000
11
16.1534599292
21
11.1490761520
31
0.0000000000
11
16.1536183848
21
11.1491147567
31
0.0000000000
11
16.1539359905
21
11.1491931382
31
0.0000000000
11
16.1542545188
21
11.1492730947
31
0.0000000000
11
16.1545739655
21
11.1493546409
31
0.0000000000
11
16.1548943264
21
11.1494377916
31
0.0000000000
11
16.1552155972
21
11.1495225618
31
0.0000000000
11
16.1555377733
21
11.1496089663
31
0.0000000000
11
16.1561848222
21
11.1497867392
31
0.0000000000
11
16.1568354335
21
11.1499712316
31
0.0000000000
11
16.1574895649
21
11.1501625663
31
0.0000000000
11
16.1581471714
21
11.1503608672
31
0.0000000000
11
16.1588082052
21
11.1505662594
31
0.0000000000
11
16.1594726156
21
11.1507788691
31
0.0000000000
11
16.1601403491
21
11.1509988236
31
0.0000000000
11
16.1614855554
21
11.1514612813
31
0.0000000000
11
16.1628433331
21
11.1519546708
31
0.0000000000
11
16.1642131388
21
11.1524800448
31
0.0000000000
11
16.1655943739
21
11.1530384684
31
0.0000000000
11
16.1669863823
21
11.1536310172
31
0.0000000000
11
16.1683884471
21
11.1542587747
31
0.0000000000
11
16.1697997886
21
11.1549228300
31
0.0000000000
11
16.1712195611
21
11.1556242749
31
0.0000000000
11
16.1726468505
21
11.1563642005
31
0.0000000000
11
16.1740806721
21
11.1571436941
31
0.0000000000
11
16.1755199674
21
11.1579638354
31
0.0000000000
11
16.1769636026
21
11.1588256923
31
0.0000000000
11
16.1784103660
21
11.1597303165
31
0.0000000000
11
16.1798589660
21
11.1606787390
31
0.0000000000
11
16.1813080297
21
11.1616719649
31
0.0000000000
11
16.1827561010
21
11.1627109681
31
0.0000000000
11
16.1842016397
21
11.1637966856
31
0.0000000000
11
16.1856430203
21
11.1649300113
31
0.0000000000
11
16.1870785318
21
11.1661117901
31
0.0000000000
11
16.1885063776
21
11.1673428109
31
0.0000000000
11
16.1899246758
21
11.1686237998
31
0.0000000000
11
16.1913314599
21
11.1699554130
31
0.0000000000
11
16.1927246806
21
11.1713382295
31
0.0000000000
11
16.1941022075
21
11.1727727436
31
0.0000000000
11
16.1954618320
21
11.1742593570
31
0.0000000000
11
16.1968012707
21
11.1757983711
31
0.0000000000
11
16.1981181688
21
11.1773899796
31
0.0000000000
11
16.1994101059
21
11.1790342601
31
0.0000000000
11
16.2006746007
21
11.1807311670
31
0.0000000000
11
16.2019091177
21
11.1824805238
31
0.0000000000
11
16.2031110745
21
11.1842820157
31
0.0000000000
11
16.2042778493
21
11.1861351831
31
0.0000000000
11
16.2054067903
21
11.1880394148
31
0.0000000000
11
16.2064952246
21
11.1899939421
31
0.0000000000
11
16.2075404690
21
11.1919978338
31
0.0000000000
11
16.2085398411
21
11.1940499910
31
0.0000000000
11
16.2094906709
21
11.1961491439
31
0.0000000000
11
16.2103903131
21
11.1982938486
31
0.0000000000
11
16.2112361606
21
11.2004824853
31
0.0000000000
11
16.2120256573
21
11.2027132571
31
0.0000000000
11
16.2127563126
21
11.2049841911
31
0.0000000000
11
16.2134257150
21
11.2072931392
31
0.0000000000
11
16.2140315466
21
11.2096377813
31
0.0000000000
11
16.2145715977
21
11.2120156294
31
0.0000000000
11
16.2150437803
21
11.2144240332
31
0.0000000000
11
16.2154461427
21
11.2168601870
31
0.0000000000
11
16.2157768827
21
11.2193211376
31
0.0000000000
11
16.2160343605
21
11.2218037947
31
0.0000000000
11
16.2162171111
21
11.2243049411
31
0.0000000000
11
16.2163238557
21
11.2268212452
31
0.0000000000
11
16.2163535119
21
11.2293492743
31
0.0000000000
11
16.2163052032
21
11.2318855092
31
0.0000000000
11
16.2161782664
21
11.2344263594
31
0.0000000000
11
16.2159722590
21
11.2369681794
31
0.0000000000
11
16.2156869632
21
11.2395072856
31
0.0000000000
11
16.2153223906
21
11.2420399736
31
0.0000000000
11
16.2148787831
21
11.2445625365
31
0.0000000000
11
16.2143566136
21
11.2470712820
31
0.0000000000
11
16.2137565844
21
11.2495625512
31
0.0000000000
11
16.2130796243
21
11.2520327357
31
0.0000000000
11
16.2123268836
21
11.2544782957
31
0.0000000000
11
16.2114997276
21
11.2568957761
31
0.0000000000
11
16.2105997291
21
11.2592818230
31
0.0000000000
11
16.2096286591
21
11.2616331993
31
0.0000000000
11
16.2085884756
21
11.2639467983
31
0.0000000000
11
16.2074813124
21
11.2662196573
31
0.0000000000
11
16.2063094662
21
11.2684489692
31
0.0000000000
11
16.2050753822
21
11.2706320933
31
0.0000000000
11
16.2037816405
21
11.2727665641
31
0.0000000000
11
16.2024309404
21
11.2748500992
31
0.0000000000
11
16.2010260849
21
11.2768806054
31
0.0000000000
11
16.1995699655
21
11.2788561831
31
0.0000000000
11
16.1980655458
21
11.2807751298
31
0.0000000000
11
16.1965158459
21
11.2826359419
31
0.0000000000
11
16.1949239269
21
11.2844373144
31
0.0000000000
11
16.1932928759
21
11.2861781405
31
0.0000000000
11
16.1916257909
21
11.2878575088
31
0.0000000000
11
16.1899257670
21
11.2894746998
31
0.0000000000
11
16.1881958828
21
11.2910291818
31
0.0000000000
11
16.1864391875
21
11.2925206044
31
0.0000000000
11
16.1846586899
21
11.2939487929
31
0.0000000000
11
16.1828573463
21
11.2953137402
31
0.0000000000
11
16.1810380516
21
11.2966155995
31
0.0000000000
11
16.1792036296
21
11.2978546755
31
0.0000000000
11
16.1773568251
21
11.2990314158
31
0.0000000000
11
16.1755002969
21
11.3001464010
31
0.0000000000
11
16.1736366116
21
11.3012003362
31
0.0000000000
11
16.1717682385
21
11.3021940405
31
0.0000000000
11
16.1698975453
21
11.3031284379
31
0.0000000000
11
16.1680267947
21
11.3040045477
31
0.0000000000
11
16.1661581420
21
11.3048234745
31
0.0000000000
11
16.1642936331
21
11.3055863998
31
0.0000000000
11
16.1624352036
21
11.3062945720
31
0.0000000000
11
16.1605846787
21
11.3069492984
31
0.0000000000
11
16.1587437731
21
11.3075519361
31
0.0000000000
11
16.1569140922
21
11.3081038845
31
0.0000000000
11
16.1550971333
21
11.3086065773
31
0.0000000000
11
16.1532942875
21
11.3090614754
31
0.0000000000
11
16.1515068421
21
11.3094700597
31
0.0000000000
11
16.1497359828
21
11.3098338254
31
0.0000000000
11
16.1479827971
21
11.3101542754
31
0.0000000000
11
16.1462482770
21
11.3104329150
31
0.0000000000
11
16.1445333229
21
11.3106712470
31
0.0000000000
11
16.1428387464
21
11.3108707670
31
0.0000000000
11
16.1411652746
21
11.3110329589
31
0.0000000000
11
16.1395135536
21
11.3111592916
31
0.0000000000
11
16.1378841520
21
11.3112512150
31
0.0000000000
11
16.1362775653
21
11.3113101577
31
0.0000000000
11
16.1346942192
21
11.3113375234
31
0.0000000000
11
16.1331344738
21
11.3113346894
31
0.0000000000
11
16.1315986271
21
11.3113030041
31
0.0000000000
11
16.1300869186
21
11.3112437854
31
0.0000000000
11
16.1285995333
21
11.3111583193
31
0.0000000000
11
16.1271366049
21
11.3110478586
31
0.0000000000
11
16.1256982192
21
11.3109136221
31
0.0000000000
11
16.1242844177
21
11.3107567937
31
0.0000000000
11
16.1228952007
21
11.3105785220
31
0.0000000000
11
16.1215305299
21
11.3103799199
31
0.0000000000
11
16.1201903322
21
11.3101620644
31
0.0000000000
11
16.1188745018
21
11.3099259967
31
0.0000000000
11
16.1175829033
21
11.3096727223
31
0.0000000000
11
16.1163153738
21
11.3094032109
31
0.0000000000
0
LINE
5
31D
100
AcDbEntity
8
___SYMBOL
100
AcDbLine
62
7
6
CONTINUOUS
10
16.2958629983
20
12.0038778122
11
16.2958629983
21
11.9422278128
0
LINE
5
31E
100
AcDbEntity
8
___SYMBOL
100
AcDbLine
62
7
6
CONTINUOUS
10
16.2958629983
20
11.9422278128
11
15.4401580067
21
11.9422278128
0
LINE
5
31F
100
AcDbEntity
8
___SYMBOL
100
AcDbLine
62
7
6
CONTINUOUS
10
15.4401580067
20
11.9422278128
11
15.4401580067
21
12.0038778122
0
LINE
5
320
100
AcDbEntity
8
___SYMBOL
100
AcDbLine
62
7
6
CONTINUOUS
10
15.4401580067
20
12.0038778122
11
16.2958629983
21
12.0038778122
0
SOLID
5
321
100
AcDbEntity
8
___SYMBOL
100
AcDbTrace
62
7
6
CONTINUOUS
10
15.4401580067
20
11.9422278086
11
15.4401580067
21
12.0038777988
12
16.2958629983
22
12.0038777988
13
16.2958629983
23
12.0038777988
0
SOLID
5
322
100
AcDbEntity
8
___SYMBOL
100
AcDbTrace
62
7
6
CONTINUOUS
10
16.2958629983
20
12.0038777988
11
16.2958629983
21
11.9422278086
12
15.4401580067
22
11.9422278086
13
15.4401580067
23
11.9422278086
0
LINE
5
323
100
AcDbEntity
8
___SYMBOL
100
AcDbLine
62
7
6
CONTINUOUS
10
16.2958629983
20
11.9038953132
11
16.2958629983
21
11.8422453138
0
LINE
5
324
100
AcDbEntity
8
___SYMBOL
100
AcDbLine
62
7
6
CONTINUOUS
10
16.2958629983
20
11.8422453138
11
15.4401580067
21
11.8422453138
0
LINE
5
325
100
AcDbEntity
8
___SYMBOL
100
AcDbLine
62
7
6
CONTINUOUS
10
15.4401580067
20
11.8422453138
11
15.4401580067
21
11.9038953132
0
LINE
5
326
100
AcDbEntity
8
___SYMBOL
100
AcDbLine
62
7
6
CONTINUOUS
10
15.4401580067
20
11.9038953132
11
16.2958629983
21
11.9038953132
0
SOLID
5
327
100
AcDbEntity
8
___SYMBOL
100
AcDbTrace
62
7
6
CONTINUOUS
10
15.4401580067
20
11.8422453005
11
15.4401580067
21
11.9038953246
12
16.2958629983
22
11.9038953246
13
16.2958629983
23
11.9038953246
0
SOLID
5
328
100
AcDbEntity
8
___SYMBOL
100
AcDbTrace
62
7
6
CONTINUOUS
10
16.2958629983
20
11.9038953246
11
16.2958629983
21
11.8422453005
12
15.4401580067
22
11.8422453005
13
15.4401580067
23
11.8422453005
0
LINE
5
329
100
AcDbEntity
8
___SYMBOL
100
AcDbLine
62
7
6
CONTINUOUS
10
16.2958629983
20
11.8039128141
11
16.2958629983
21
11.7422703147
0
LINE
5
32A
100
AcDbEntity
8
___SYMBOL
100
AcDbLine
62
7
6
CONTINUOUS
10
16.2958629983
20
11.7422703147
11
15.4401580067
21
11.7422703147
0
LINE
5
32B
100
AcDbEntity
8
___SYMBOL
100
AcDbLine
62
7
6
CONTINUOUS
10
15.4401580067
20
11.7422703147
11
15.4401580067
21
11.8039128141
0
LINE
5
32C
100
AcDbEntity
8
___SYMBOL
100
AcDbLine
62
7
6
CONTINUOUS
10
15.4401580067
20
11.8039128141
11
16.2958629983
21
11.8039128141
0
SOLID
5
32D
100
AcDbEntity
8
___SYMBOL
100
AcDbTrace
62
7
6
CONTINUOUS
10
15.4401580067
20
11.7422703063
11
15.4401580067
21
11.8039128164
12
16.2958629983
22
11.8039128164
13
16.2958629983
23
11.8039128164
0
SOLID
5
32E
100
AcDbEntity
8
___SYMBOL
100
AcDbTrace
62
7
6
CONTINUOUS
10
16.2958629983
20
11.8039128164
11
16.2958629983
21
11.7422703063
12
15.4401580067
22
11.7422703063
13
15.4401580067
23
11.7422703063
0
LINE
5
32F
100
AcDbEntity
8
___SYMBOL
100
AcDbLine
62
7
6
CONTINUOUS
10
16.2958629983
20
11.7039303151
11
16.2958629983
21
11.6422878157
0
LINE
5
330
100
AcDbEntity
8
___SYMBOL
100
AcDbLine
62
7
6
CONTINUOUS
10
16.2958629983
20
11.6422878157
11
15.4401580067
21
11.6422878157
0
LINE
5
331
100
AcDbEntity
8
___SYMBOL
100
AcDbLine
62
7
6
CONTINUOUS
10
15.4401580067
20
11.6422878157
11
15.4401580067
21
11.7039303151
0
LINE
5
332
100
AcDbEntity
8
___SYMBOL
100
AcDbLine
62
7
6
CONTINUOUS
10
15.4401580067
20
11.7039303151
11
16.2958629983
21
11.7039303151
0
SOLID
5
333
100
AcDbEntity
8
___SYMBOL
100
AcDbTrace
62
7
6
CONTINUOUS
10
15.4401580067
20
11.6422878321
11
15.4401580067
21
11.7039303082
12
16.2958629983
22
11.7039303082
13
16.2958629983
23
11.7039303082
0
SOLID
5
334
100
AcDbEntity
8
___SYMBOL
100
AcDbTrace
62
7
6
CONTINUOUS
10
16.2958629983
20
11.7039303082
11
16.2958629983
21
11.6422878321
12
15.4401580067
22
11.6422878321
13
15.4401580067
23
11.6422878321
0
LINE
5
335
100
AcDbEntity
8
___SYMBOL
100
AcDbLine
62
7
6
CONTINUOUS
10
16.2958629983
20
11.5772928164
11
16.2958629983
21
11.5156428170
0
LINE
5
336
100
AcDbEntity
8
___SYMBOL
100
AcDbLine
62
7
6
CONTINUOUS
10
16.2958629983
20
11.5156428170
11
15.4401580067
21
11.5156428170
0
LINE
5
337
100
AcDbEntity
8
___SYMBOL
100
AcDbLine
62
7
6
CONTINUOUS
10
15.4401580067
20
11.5156428170
11
15.4401580067
21
11.5772928164
0
LINE
5
338
100
AcDbEntity
8
___SYMBOL
100
AcDbLine
62
7
6
CONTINUOUS
10
15.4401580067
20
11.5772928164
11
16.2958629983
21
11.5772928164
0
SOLID
5
339
100
AcDbEntity
8
___SYMBOL
100
AcDbTrace
62
7
6
CONTINUOUS
10
15.4401580067
20
11.5156428298
11
15.4401580067
21
11.5772928199
12
16.2958629983
22
11.5772928199
13
16.2958629983
23
11.5772928199
0
SOLID
5
33A
100
AcDbEntity
8
___SYMBOL
100
AcDbTrace
62
7
6
CONTINUOUS
10
16.2958629983
20
11.5772928199
11
16.2958629983
21
11.5156428298
12
15.4401580067
22
11.5156428298
13
15.4401580067
23
11.5156428298
0
ENDBLK
5
33B
100
AcDbEntity
8
0
6
BYBLOCK
62
0
100
AcDbBlockEnd
0
BLOCK
5
33C
100
AcDbEntity
8
___SYMBOL
100
AcDbBlockBegin
62
2
6
CONTINUOUS
2
TEMPLATE_NUMBER_BL3
70
64
10
6.2974233235
20
3.7881224025
3
TEMPLATE_NUMBER_BL3
1

0
TEXT
5
33D
100
AcDbEntity
8
___SYMBOL
100
AcDbText
62
2
6
CONTINUOUS
10
5.9872234210
20
3.7528724136
7
STANDARD
40
0.0704999778
1
113194-7
41
0.8000000000
72
0
100
AcDbText
0
TEXT
5
33E
100
AcDbEntity
8
___SYMBOL
100
AcDbText
62
2
6
CONTINUOUS
10
6.4384232791
20
3.7528724136
7
STANDARD
40
0.0704999778
1
-
41
0.8000000000
72
0
100
AcDbText
0
TEXT
5
33F
100
AcDbEntity
8
___SYMBOL
100
AcDbText
62
2
6
CONTINUOUS
10
6.4948232614
20
3.7528724136
7
STANDARD
40
0.0704999778
1
CC
41
0.8000000000
72
0
100
AcDbText
0
ENDBLK
5
340
100
AcDbEntity
8
0
6
BYBLOCK
62
0
100
AcDbBlockEnd
0
BLOCK
5
341
100
AcDbEntity
8
___SYMBOL
100
AcDbBlockBegin
62
2
6
CONTINUOUS
2
TEMPLATE_NUMBER_BL4
70
64
10
6.2921694514
20
2.5531719225
3
TEMPLATE_NUMBER_BL4
1

0
TEXT
5
342
100
AcDbEntity
8
___SYMBOL
100
AcDbText
62
2
6
CONTINUOUS
10
5.9819695489
20
2.5179219336
7
STANDARD
40
0.0704999778
1
113194-7
41
0.8000000000
72
0
100
AcDbText
0
TEXT
5
343
100
AcDbEntity
8
___SYMBOL
100
AcDbText
62
2
6
CONTINUOUS
10
6.4331694071
20
2.5179219336
7
STANDARD
40
0.0704999778
1
-
41
0.8000000000
72
0
100
AcDbText
0
TEXT
5
344
100
AcDbEntity
8
___SYMBOL
100
AcDbText
62
2
6
CONTINUOUS
10
6.4895693894
20
2.5179219336
7
STANDARD
40
0.0704999778
1
CC
41
0.8000000000
72
0
100
AcDbText
0
ENDBLK
5
345
100
AcDbEntity
8
0
6
BYBLOCK
62
0
100
AcDbBlockEnd
0
BLOCK
5
346
100
AcDbEntity
8
___SYMBOL
100
AcDbBlockBegin
62
2
6
CONTINUOUS
2
WHEN_PLOTTING_TEMPLATE_N_BL5
70
64
10
17.6921396136
20
5.1675956343
3
WHEN_PLOTTING_TEMPLATE_N_BL5
1

0
TEXT
5
347
100
AcDbEntity
8
___SYMBOL
100
AcDbText
62
2
6
CONTINUOUS
10
14.3796393812
20
6.3785332193
7
STANDARD
40
0.1562500110
1
WHEN PLOTTING TEMPLATE FULL SIZE:
41
0.8000000000
72
0
100
AcDbText
0
TEXT
5
348
100
AcDbEntity
8
___SYMBOL
100
AcDbText
62
2
6
CONTINUOUS
10
14.3796393812
20
6.1441582028
7
STANDARD
40
0.1562500110
1
Make sure horizontal and vertical dimensions
41
0.8000000000
72
0
100
AcDbText
0
TEXT
5
349
100
AcDbEntity
8
___SYMBOL
100
AcDbText
62
2
6
CONTINUOUS
10
14.3796393812
20
5.9097831864
7
STANDARD
40
0.1562500110
1
match the dimensions labeled on the template.
41
0.8000000000
72
0
100
AcDbText
0
TEXT
5
34A
100
AcDbEntity
8
___SYMBOL
100
AcDbText
62
2
6
CONTINUOUS
10
14.3796393812
20
5.6754081700
7
STANDARD
40
0.1562500110
1
 
41
0.8000000000
72
0
100
AcDbText
0
TEXT
5
34B
100
AcDbEntity
8
___SYMBOL
100
AcDbText
62
2
6
CONTINUOUS
10
14.3796393812
20
5.4410331535
7
STANDARD
40
0.1562500110
1
AL TRAZAR LA PLANTILLA A ESCALA,
41
0.8000000000
72
0
100
AcDbText
0
TEXT
5
34C
100
AcDbEntity
8
___SYMBOL
100
AcDbText
62
2
6
CONTINUOUS
10
14.3796393812
20
5.2066581371
7
STANDARD
40
0.1562500110
1
asegúrese de que las dimensiones horizontales
41
0.8000000000
72
0
100
AcDbText
0
TEXT
5
34D
100
AcDbEntity
8
___SYMBOL
100
AcDbText
62
2
6
CONTINUOUS
10
14.3796393812
20
4.9722831206
7
STANDARD
40
0.1562500110
1
y verticales concuerden con las dimensiones marcadas
41
0.8000000000
72
0
100
AcDbText
0
TEXT
5
34E
100
AcDbEntity
8
___SYMBOL
100
AcDbText
62
2
6
CONTINUOUS
10
14.3796393812
20
4.7379081042
7
STANDARD
40
0.1562500110
1
en la plantilla.
41
0.8000000000
72
0
100
AcDbText
0
TEXT
5
34F
100
AcDbEntity
8
___SYMBOL
100
AcDbText
62
2
6
CONTINUOUS
10
14.3796393812
20
4.5035330877
7
STANDARD
40
0.1562500110
1
 
41
0.8000000000
72
0
100
AcDbText
0
TEXT
5
350
100
AcDbEntity
8
___SYMBOL
100
AcDbText
62
2
6
CONTINUOUS
10
14.3796393812
20
4.2691580713
7
STANDARD
40
0.1562500110
1
AU MOMENT DE TRACER LA DÉCOUPE À L'ÉCHELLE,
41
0.8000000000
72
0
100
AcDbText
0
TEXT
5
351
100
AcDbEntity
8
___SYMBOL
100
AcDbText
62
2
6
CONTINUOUS
10
14.3796393812
20
4.0347830548
7
STANDARD
40
0.1562500110
1
Assurez vos que les dimensions horizotales et
41
0.8000000000
72
0
100
AcDbText
0
TEXT
5
352
100
AcDbEntity
8
___SYMBOL
100
AcDbText
62
2
6
CONTINUOUS
10
14.3796393812
20
3.8004080384
7
STANDARD
40
0.1562500110
1
verticales correspondent avec les dimensions du plan.
41
0.8000000000
72
0
100
AcDbText
0
ENDBLK
5
353
100
AcDbEntity
8
0
6
BYBLOCK
62
0
100
AcDbBlockEnd
0
BLOCK
5
354
100
AcDbEntity
8
0
100
AcDbBlockBegin
2
_FILLED
70
64
10
0.0000000000
20
0.0000000000
3
_FILLED
1

0
SOLID
5
355
100
AcDbEntity
8
0
6
BYBLOCK
62
0
100
AcDbTrace
10
0.0000000000
20
0.0000000000
11
-1.0000000000
21
0.1666666667
12
-1.0000000000
22
-0.1666666667
13
-1.0000000000
23
-0.1666666667
0
ENDBLK
5
356
100
AcDbEntity
8
0
6
BYBLOCK
62
0
100
AcDbBlockEnd
0
ENDSEC
0
SECTION
2
ENTITIES
0
DIMENSION
5
357
100
AcDbEntity
8
0
100
AcDbDimension
62
2
6
CONTINUOUS
2
*D0
10
7.9395181905
20
3.6216717924
11
7.9395181905
21
9.0700516241
70
160
1
<>"\P[40 cm]
3
DIMSTYLE_1
100
AcDbAlignedDimension
13
11.1894087383
23
19.3716717924
14
11.1894087383
24
3.6216717924
50
270.000000
100
AcDbRotatedDimension
0
DIMENSION
5
358
100
AcDbEntity
8
0
100
AcDbDimension
62
2
6
CONTINUOUS
2
*D1
10
4.0019087383
20
11.7309008993
11
6.7114129807
21
11.6137133993
70
160
1
<>"\P[22,9 cm]
3
DIMSTYLE_1
100
AcDbAlignedDimension
13
13.0019087383
23
5.4341717924
14
4.0019087383
24
5.4341717924
50
180.000000
100
AcDbRotatedDimension
0
TEXT
5
359
100
AcDbEntity
8
___NOTE
100
AcDbText
62
2
6
CONTINUOUS
10
15.8798381543
20
15.5710395463
7
STANDARD
40
0.0940000000
1
TM
41
1.0000000000
72
0
100
AcDbText
0
TEXT
5
35A
100
AcDbEntity
8
___NOTE
100
AcDbText
62
2
6
CONTINUOUS
10
16.2728598540
20
16.4100195302
7
STANDARD
40
0.0940000000
1
TM
41
1.0000000000
72
0
100
AcDbText
0
SOLID
5
35B
100
AcDbEntity
8
___NOTE
100
AcDbTrace
62
2
6
CONTINUOUS
10
13.8769087383
20
15.0727248359
11
13.6911995885
21
15.1132825006
12
13.7143917581
22
15.1713201890
13
13.7143917581
23
15.1713201890
0
TEXT
5
35C
100
AcDbEntity
8
___NOTE
100
AcDbText
62
2
6
CONTINUOUS
10
10.1526021544
20
15.8334939368
7
STANDARD
40
0.1562500000
1
RIM OF SINK
41
0.8000000000
72
0
100
AcDbText
0
TEXT
5
35D
100
AcDbEntity
8
___NOTE
100
AcDbText
62
2
6
CONTINUOUS
10
9.0276021544
20
15.5991189368
7
STANDARD
40
0.1562500000
1
REBORDE DE FREGADERO
41
0.8000000000
72
0
100
AcDbText
0
TEXT
5
35E
100
AcDbEntity
8
___NOTE
100
AcDbText
62
2
6
CONTINUOUS
10
9.7776021544
20
15.3647439368
7
STANDARD
40
0.1562500000
1
REBORD D'ÉVIER
41
0.8000000000
72
0
100
AcDbText
0
SOLID
5
35F
100
AcDbEntity
8
___NOTE
100
AcDbTrace
62
2
6
CONTINUOUS
10
13.0019087383
20
12.7083982482
11
12.8412023432
21
12.8099180347
12
12.8828145115
22
12.8565514717
13
12.8828145115
23
12.8565514717
0
TEXT
5
360
100
AcDbEntity
8
___NOTE
100
AcDbText
62
2
6
CONTINUOUS
10
9.8220969673
20
13.1253455032
7
STANDARD
40
0.1562500000
1
CUT ALONG THIS LINE
41
0.8000000000
72
0
100
AcDbText
0
TEXT
5
361
100
AcDbEntity
8
___NOTE
100
AcDbText
62
2
6
CONTINUOUS
10
8.4470969673
20
12.8909705032
7
STANDARD
40
0.1562500000
1
CORTE A LO LARGO DE ESTA LÍNEA
41
0.8000000000
72
0
100
AcDbText
0
TEXT
5
362
100
AcDbEntity
8
___NOTE
100
AcDbText
62
2
6
CONTINUOUS
10
8.3220969673
20
12.6565955032
7
STANDARD
40
0.1562500000
1
DÉCOUPER AU LONG DE CETTE LIGNE
41
0.8000000000
72
0
100
AcDbText
0
INSERT
5
363
100
AcDbEntity
8
___SYMBOL
100
AcDbBlockReference
62
2
6
CONTINUOUS
2
COPYRIGHT_YEAR_BL0
10
10.6024991210
20
3.8212493626
0
INSERT
5
364
100
AcDbEntity
8
___SYMBOL
100
AcDbBlockReference
62
2
6
CONTINUOUS
2
CUT-OUT_TEMPLATE_SKU_SIN_BL1
10
16.7996552679
20
17.6715350488
0
INSERT
5
365
100
AcDbEntity
8
___SYMBOL
100
AcDbBlockReference
62
2
6
CONTINUOUS
2
PACKAGING_UPC_BL2
10
17.0750488889
20
10.6678645192
0
INSERT
5
366
100
AcDbEntity
8
___SYMBOL
100
AcDbBlockReference
62
2
6
CONTINUOUS
2
TEMPLATE_NUMBER_BL3
10
6.2974233235
20
3.7881224025
0
INSERT
5
367
100
AcDbEntity
8
___SYMBOL
100
AcDbBlockReference
62
2
6
CONTINUOUS
2
TEMPLATE_NUMBER_BL4
10
6.2921694514
20
2.5531719225
0
INSERT
5
368
100
AcDbEntity
8
___SYMBOL
100
AcDbBlockReference
62
2
6
CONTINUOUS
2
WHEN_PLOTTING_TEMPLATE_N_BL5
10
17.6921396136
20
5.1675956343
0
LINE
5
369
100
AcDbEntity
8
0
100
AcDbLine
62
7
6
CONTINUOUS
10
0.0000000000
20
0.0000000000
11
0.0000000000
21
22.0000000000
0
LINE
5
36A
100
AcDbEntity
8
0
100
AcDbLine
62
7
6
CONTINUOUS
10
0.0000000000
20
0.0000000000
11
34.0000000000
21
0.0000000000
0
LINE
5
36B
100
AcDbEntity
8
0
100
AcDbLine
62
7
6
CONTINUOUS
10
0.0000000000
20
22.0000000000
11
34.0000000000
21
22.0000000000
0
LINE
5
36C
100
AcDbEntity
8
0
100
AcDbLine
62
7
6
CONTINUOUS
10
34.0000000000
20
0.0000000000
11
34.0000000000
21
22.0000000000
0
LINE
5
36D
100
AcDbEntity
8
_CURVE
100
AcDbLine
62
8
6
HIDDEN
10
4.0069087383
20
20.2466717924
11
3.1269087383
21
19.3666717924
0
LINE
5
36E
100
AcDbEntity
8
_CURVE
100
AcDbLine
62
8
6
HIDDEN
10
3.1269087383
20
3.6266717924
11
4.0069087383
21
2.7466717924
0
LINE
5
36F
100
AcDbEntity
8
_CURVE
100
AcDbLine
62
8
6
HIDDEN
10
12.9969087383
20
2.7466717924
11
4.0069087383
21
2.7466717924
0
LINE
5
370
100
AcDbEntity
8
_CURVE
100
AcDbLine
62
7
6
CONTINUOUS
10
5.7519087383
20
3.6216717924
11
11.2519087383
21
3.6216717924
0
LINE
5
371
100
AcDbEntity
8
_CURVE
100
AcDbLine
62
8
6
HIDDEN
10
3.1269087383
20
3.6266717924
11
3.1269087383
21
19.3666717924
0
LINE
5
372
100
AcDbEntity
8
_CURVE
100
AcDbLine
62
7
6
CONTINUOUS
10
4.0019087383
20
17.6216717924
11
4.0019087383
21
5.3716717924
0
LINE
5
373
100
AcDbEntity
8
___NOTE
100
AcDbLine
62
2
6
CONTINUOUS
10
12.4470969673
20
13.2034705032
11
12.1970969673
21
13.2034705032
0
LINE
5
374
100
AcDbEntity
8
___NOTE
100
AcDbLine
62
2
6
CONTINUOUS
10
13.0019087383
20
12.7083982482
11
12.4470969673
21
13.2034705032
0
LINE
5
375
100
AcDbEntity
8
_CURVE
100
AcDbLine
62
7
6
CONTINUOUS
10
13.0019087383
20
5.3716717924
11
13.0019087383
21
17.6216717924
0
LINE
5
376
100
AcDbEntity
8
___NOTE
100
AcDbLine
62
2
6
CONTINUOUS
10
11.7776021544
20
15.9116189368
11
11.5276021544
21
15.9116189368
0
LINE
5
377
100
AcDbEntity
8
_CURVE
100
AcDbLine
62
8
6
HIDDEN
10
13.8769087383
20
19.3666717924
11
13.8769087383
21
3.6266717924
0
LINE
5
378
100
AcDbEntity
8
___NOTE
100
AcDbLine
62
2
6
CONTINUOUS
10
13.8769087383
20
15.0727248359
11
11.7776021544
21
15.9116189368
0
LINE
5
379
100
AcDbEntity
8
_CURVE
100
AcDbLine
62
7
6
CONTINUOUS
10
11.2519087383
20
19.3716717924
11
5.7519087383
21
19.3716717924
0
LINE
5
37A
100
AcDbEntity
8
_CURVE
100
AcDbLine
62
8
6
HIDDEN
10
4.0069087383
20
20.2466717924
11
12.9969087383
21
20.2466717924
0
LINE
5
37B
100
AcDbEntity
8
_CURVE
100
AcDbLine
62
8
6
HIDDEN
10
12.9969087383
20
2.7466717924
11
13.8769087383
21
3.6266717924
0
LINE
5
37C
100
AcDbEntity
8
_CURVE
100
AcDbLine
62
8
6
HIDDEN
10
13.8769087383
20
19.3666717924
11
12.9969087383
21
20.2466717924
0
CIRCLE
5
37D
100
AcDbEntity
8
0
100
AcDbCircle
62
2
6
CONTINUOUS
10
18.5956175182
20
16.3899678832
40
0.2513022906
0
CIRCLE
5
37E
100
AcDbEntity
8
0
100
AcDbCircle
62
2
6
CONTINUOUS
10
18.8243357664
20
15.5132145985
40
0.2513022906
0
ARC
5
37F
100
AcDbEntity
8
_CURVE
100
AcDbCircle
62
7
6
CONTINUOUS
10
11.2519087383
20
17.6216717924
40
1.7500000000
100
AcDbArc
50
0.0000000000
51
90.0000000000
0
ARC
5
380
100
AcDbEntity
8
_CURVE
100
AcDbCircle
62
7
6
CONTINUOUS
10
5.7519087383
20
17.6216717924
40
1.7500000000
100
AcDbArc
50
90.0000000000
51
180.0000000000
0
ARC
5
381
100
AcDbEntity
8
_CURVE
100
AcDbCircle
62
7
6
CONTINUOUS
10
5.7519087383
20
5.3716717924
40
1.7500000000
100
AcDbArc
50
180.0000000000
51
270.0000000000
0
ARC
5
382
100
AcDbEntity
8
_CURVE
100
AcDbCircle
62
7
6
CONTINUOUS
10
11.2519087383
20
5.3716717924
40
1.7500000000
100
AcDbArc
50
270.0000000000
51
360.0000000000
0
ENDSEC
0
SECTION
2
OBJECTS
0
DICTIONARY
5
383
100
AcDbDictionary
3
ACAD_GROUP
350
384
3
ACAD_MLINESTYLE
350
385
0
DICTIONARY
5
384
102
{ACAD_REACTORS
330
383
102
}
100
AcDbDictionary
0
DICTIONARY
5
385
102
{ACAD_REACTORS
330
383
102
}
100
AcDbDictionary
3
STANDARD
350
386
0
MLINESTYLE
5
386
102
{ACAD_REACTORS
330
385
102
}
100
AcDbMlineStyle
2
STANDARD
70
0
3

62
256
51
90.0
52
90.0
71
2
49
0.5
62
256
6
BYLAYER
49
-0.5
62
256
6
BYLAYER
0
ENDSEC
0
EOF
