999
DXF file: 1130823-7.dxf
999
Pro/ENGINEER 2009220 by Parametric Technology Corporation
  0
SECTION
  2
HEADER
  9
$EXTMAX
 10
44.0
 20
34.0
 30
0.0
  9
$EXTMIN
 10
0.0
 20
0.0
 30
0.0
  9
$LIMMIN
 10
0.0
 20
0.0
  9
$LIMMAX
 10
44.0
 20
34.0
  9
$VIEWCTR
 10
22.0
 20
17.0
  9
$VIEWSIZE
 40
34.0
  9
$CLAYER
  8
0
  9
$LTSCALE
 40
2.42
  9
$CELTYPE
  6
BYLAYER
  9
$DIMSCALE
 40
1.0
  9
$DIMASZ
 40
0.1875
  9
$DIMEXO
 40
0.275
  9
$DIMDLI
 40
1.672
  9
$DIMEXE
 40
0.792
  9
$DIMCEN
 40
0.396
  9
$DIMLFAC
 40
1.0
  9
$DIMBLK
  1
_FILLED
  9
$DIMTXT
 40
0.15625
  9
$PDMODE
 70
3
  9
$PDSIZE
 40
0.3125
  9
$TILEMODE
 70
1
  0
ENDSEC
  0
SECTION
  2
TABLES
  0
TABLE
  2
LTYPE
 70
6
  0
LTYPE
  2
BYBLOCK
 70
0
  3

 72
65
 73
0
 40
0.0
  0
LTYPE
  2
BYLAYER
 70
0
  3

 72
65
 73
0
 40
0.0
  0
LTYPE
  2
CONTINUOUS
 70
64
  3
Solid line
 72
65
 73
0
 40
0.0
  0
LTYPE
  2
CENTER
 70
64
  3
____ _ ____ _ ____ _ ____ _ ____ _ ____ _ ____
 72
65
 73
4
 40
0.6
 49
0.375
 49
-0.075
 49
0.075
 49
-0.075
  0
LTYPE
  2
HIDDEN
 70
64
  3
- - - - - - - - - - - - - - - - - - - -
 72
65
 73
2
 40
0.2
 49
0.1
 49
-0.1
  0
LTYPE
  2
PHANTOM
 70
64
  3
_____ _ _ _____ _ _ _____ _ _ _____
 72
65
 73
6
 40
0.8
 49
0.45
 49
-0.05
 49
0.1
 49
-0.05
 49
0.1
 49
-0.05
  0
LTYPE
  2
DOT
 70
64
  3
. . . . . . . . . . . . . . . . . . . .
 72
65
 73
2
 40
0.2
 49
0.1
 49
-0.1
  0
LTYPE
  2
DASHED
 70
64
  3
- - - - - - - - - - - - - - - - - - - -
 72
65
 73
2
 40
0.2
 49
0.1
 49
-0.1
  0
ENDTAB
  0
TABLE
  2
LAYER
 70
36
  0
LAYER
  2
0
 70
0
 62
7
  6
CONTINUOUS
  0
LAYER
  2
DEFAULT_1
 70
0
 62
7
  6
CENTER
  0
LAYER
  2
DEFAULT_2
 70
0
 62
8
  6
HIDDEN
  0
LAYER
  2
DEFAULT_3
 70
0
 62
7
  6
PHANTOM
  0
LAYER
  2
DATUMS
 70
0
 62
7
  6
CONTINUOUS
  0
LAYER
  2
DATUM_AXIS
 70
0
 62
7
  6
CONTINUOUS
  0
LAYER
  2
DATUM_CSYS
 70
0
 62
7
  6
CONTINUOUS
  0
LAYER
  2
DATUM_PLANE
 70
0
 62
7
  6
CONTINUOUS
  0
LAYER
  2
DATUM_POINT
 70
0
 62
7
  6
CONTINUOUS
  0
LAYER
  2
_CURVE
 70
0
 62
7
  6
CONTINUOUS
  0
LAYER
  2
_SURFACE
 70
0
 62
7
  6
CONTINUOUS
  0
LAYER
  2
__REF_CURVE
 70
0
 62
7
  6
CONTINUOUS
  0
LAYER
  2
__REF_SURFACE
 70
0
 62
7
  6
CONTINUOUS
  0
LAYER
  2
___NOTE
 70
0
 62
7
  6
CONTINUOUS
  0
LAYER
  2
___SYMBOL
 70
0
 62
7
  6
CONTINUOUS
  0
ENDTAB
  0
TABLE
  2
STYLE
 70
1
  0
STYLE
  2
STANDARD
 70
0
 40
0.0
 41
0.8
 50
0.0
 71
0
 42
0.2
  3
txt
  4

  0
STYLE
  2
TEXTSTYLE_1
 70
0
 40
0.0
 41
0.8
 50
0.0
 71
0
 42
0.2
  3
gdt
  4

  0
STYLE
  2
TEXTSTYLE_2
 70
0
 40
0.0
 41
1.0
 50
0.0
 71
0
 42
0.2
  3
txt
  4

  0
ENDTAB
  0
ENDSEC
  0
SECTION
  2
BLOCKS
  0
BLOCK
  8
___SYMBOL
 62
2
  6
CONTINUOUS
  2
SKU_SINK_KOHLER_BL2
 70
64
 10
11.2323812355
 20
22.6827179866
  0
LINE
  8
___SYMBOL
 62
2
  6
CONTINUOUS
 10
7.7585596058
 20
24.9266041525
 11
7.5452561539
 21
24.6729558796
  0
LINE
  8
___SYMBOL
 62
2
  6
CONTINUOUS
 10
7.5664977938
 20
24.9266041525
 11
7.7585596058
 21
24.9266041525
  0
LINE
  8
___SYMBOL
 62
2
  6
CONTINUOUS
 10
7.5664977938
 20
24.9266041525
 11
7.428733627
 21
24.7627829628
  0
LINE
  8
___SYMBOL
 62
2
  6
CONTINUOUS
 10
7.428733627
 20
24.9266041525
 11
7.428733627
 21
24.7627829628
  0
LINE
  8
___SYMBOL
 62
2
  6
CONTINUOUS
 10
7.2542334001
 20
24.9266041525
 11
7.428733627
 21
24.9266041525
  0
LINE
  8
___SYMBOL
 62
2
  6
CONTINUOUS
 10
7.2542334001
 20
24.9266041525
 11
7.2542334001
 21
24.3406664997
  0
LINE
  8
___SYMBOL
 62
2
  6
CONTINUOUS
 10
7.428733627
 20
24.3406905031
 11
7.2542334001
 21
24.3406664997
  0
LINE
  8
___SYMBOL
 62
2
  6
CONTINUOUS
 10
7.428733627
 20
24.5421903371
 11
7.428733627
 21
24.3406905031
  0
LINE
  8
___SYMBOL
 62
2
  6
CONTINUOUS
 10
7.5824715671
 20
24.3406905031
 11
7.428733627
 21
24.5421903371
  0
LINE
  8
___SYMBOL
 62
2
  6
CONTINUOUS
 10
7.5824715671
 20
24.3406905031
 11
7.7987639886
 21
24.3406905031
  0
LINE
  8
___SYMBOL
 62
2
  6
CONTINUOUS
 10
7.7987639886
 20
24.3406905031
 11
7.5452561539
 21
24.6729558796
  0
SOLID
  8
___SYMBOL
 62
2
  6
CONTINUOUS
 10
7.428733627
 20
24.7627829628
 11
7.5664977938
 21
24.9266041525
 12
7.7585596058
 22
24.9266041525
 13
7.7585596058
 23
24.9266041525
  0
SOLID
  8
___SYMBOL
 62
2
  6
CONTINUOUS
 10
7.7585596058
 20
24.9266041525
 11
7.5452561539
 21
24.6729558796
 12
7.428733627
 22
24.7627829628
 13
7.428733627
 23
24.7627829628
  0
SOLID
  8
___SYMBOL
 62
2
  6
CONTINUOUS
 10
7.428733627
 20
24.5421903371
 11
7.5452561539
 21
24.6729558796
 12
7.5824715671
 22
24.3406905031
 13
7.5824715671
 23
24.3406905031
  0
SOLID
  8
___SYMBOL
 62
2
  6
CONTINUOUS
 10
7.5452561539
 20
24.6729558796
 11
7.7987639886
 21
24.3406905031
 12
7.5824715671
 22
24.3406905031
 13
7.5824715671
 23
24.3406905031
  0
SOLID
  8
___SYMBOL
 62
2
  6
CONTINUOUS
 10
7.428733627
 20
24.3406905031
 11
7.2542334001
 21
24.3406664997
 12
7.428733627
 22
24.5421903371
 13
7.428733627
 23
24.5421903371
  0
SOLID
  8
___SYMBOL
 62
2
  6
CONTINUOUS
 10
7.5452561539
 20
24.6729558796
 11
7.428733627
 21
24.5421903371
 12
7.428733627
 22
24.7627829628
 13
7.428733627
 23
24.7627829628
  0
SOLID
  8
___SYMBOL
 62
2
  6
CONTINUOUS
 10
7.428733627
 20
24.5421903371
 11
7.2542334001
 21
24.3406664997
 12
7.428733627
 22
24.7627829628
 13
7.428733627
 23
24.7627829628
  0
SOLID
  8
___SYMBOL
 62
2
  6
CONTINUOUS
 10
7.428733627
 20
24.7627829628
 11
7.2542334001
 21
24.3406664997
 12
7.428733627
 22
24.9266041525
 13
7.428733627
 23
24.9266041525
  0
SOLID
  8
___SYMBOL
 62
2
  6
CONTINUOUS
 10
7.2542334001
 20
24.3406664997
 11
7.2542334001
 21
24.9266041525
 12
7.428733627
 22
24.9266041525
 13
7.428733627
 23
24.9266041525
  0
CIRCLE
  8
___SYMBOL
 62
2
  6
CONTINUOUS
 10
7.9752728253
 20
24.632526076
 40
0.298056591
  0
CIRCLE
  8
___SYMBOL
 62
2
  6
CONTINUOUS
 10
7.9752728253
 20
24.632526076
 40
0.1247694151
  0
SOLID
  8
___SYMBOL
 62
2
  6
CONTINUOUS
 10
7.8831682734
 20
24.915994739
 11
7.9441174279
 21
24.9289498817
 12
8.0064282227
 22
24.9289498817
 13
8.0064282227
 23
24.9289498817
  0
SOLID
  8
___SYMBOL
 62
2
  6
CONTINUOUS
 10
8.0064282227
 20
24.9289498817
 11
8.0673773772
 21
24.915994739
 12
7.8831682734
 22
24.915994739
 13
7.8831682734
 23
24.915994739
  0
SOLID
  8
___SYMBOL
 62
2
  6
CONTINUOUS
 10
7.8262445298
 20
24.8906506555
 11
7.8831682734
 21
24.915994739
 12
8.0673773772
 22
24.915994739
 13
8.0673773772
 23
24.915994739
  0
SOLID
  8
___SYMBOL
 62
2
  6
CONTINUOUS
 10
8.0673773772
 20
24.915994739
 11
8.1243011208
 21
24.8906506555
 12
7.8262445298
 22
24.8906506555
 13
7.8262445298
 23
24.8906506555
  0
SOLID
  8
___SYMBOL
 62
2
  6
CONTINUOUS
 10
7.7758340378
 20
24.8540252892
 11
7.8262445298
 21
24.8906506555
 12
8.1243011208
 22
24.8906506555
 13
8.1243011208
 23
24.8906506555
  0
SOLID
  8
___SYMBOL
 62
2
  6
CONTINUOUS
 10
8.1243011208
 20
24.8906506555
 11
8.1747116127
 21
24.8540252892
 12
7.7758340378
 22
24.8540252892
 13
7.7758340378
 23
24.8540252892
  0
SOLID
  8
___SYMBOL
 62
2
  6
CONTINUOUS
 10
7.7341399779
 20
24.8077193445
 11
7.7758340378
 21
24.8540252892
 12
8.1747116127
 22
24.8540252892
 13
8.1747116127
 23
24.8540252892
  0
SOLID
  8
___SYMBOL
 62
2
  6
CONTINUOUS
 10
8.1747116127
 20
24.8540252892
 11
8.2164056727
 21
24.8077193445
 12
7.7341399779
 22
24.8077193445
 13
7.7341399779
 23
24.8077193445
  0
SOLID
  8
___SYMBOL
 62
2
  6
CONTINUOUS
 10
7.9752728253
 20
24.757295491
 11
7.7029845805
 21
24.7537566132
 12
8.2164056727
 22
24.8077193445
 13
8.2164056727
 23
24.8077193445
  0
SOLID
  8
___SYMBOL
 62
2
  6
CONTINUOUS
 10
7.7029845805
 20
24.7537566132
 11
7.7341399779
 21
24.8077193445
 12
8.2164056727
 22
24.8077193445
 13
8.2164056727
 23
24.8077193445
  0
SOLID
  8
___SYMBOL
 62
2
  6
CONTINUOUS
 10
8.2164056727
 20
24.8077193445
 11
8.2475610701
 21
24.7537566132
 12
7.9752728253
 22
24.757295491
 13
7.9752728253
 23
24.757295491
  0
SOLID
  8
___SYMBOL
 62
2
  6
CONTINUOUS
 10
7.9752728253
 20
24.757295491
 11
7.9367169557
 21
24.7511888412
 12
7.7029845805
 22
24.7537566132
 13
7.7029845805
 23
24.7537566132
  0
SOLID
  8
___SYMBOL
 62
2
  6
CONTINUOUS
 10
8.0138286949
 20
24.7511888412
 11
7.9752728253
 21
24.757295491
 12
8.2475610701
 22
24.7537566132
 13
8.2475610701
 23
24.7537566132
  0
SOLID
  8
___SYMBOL
 62
2
  6
CONTINUOUS
 10
7.8743322481
 20
24.7058636981
 11
7.6837294859
 21
24.6944955257
 12
7.9019352032
 22
24.7334666531
 13
7.9019352032
 23
24.7334666531
  0
SOLID
  8
___SYMBOL
 62
2
  6
CONTINUOUS
 10
7.9019352032
 20
24.7334666531
 11
7.6837294859
 21
24.6944955257
 12
7.9367169557
 22
24.7511888412
 13
7.9367169557
 23
24.7511888412
  0
SOLID
  8
___SYMBOL
 62
2
  6
CONTINUOUS
 10
7.6837294859
 20
24.6944955257
 11
7.7029845805
 21
24.7537566132
 12
7.9367169557
 22
24.7511888412
 13
7.9367169557
 23
24.7511888412
  0
SOLID
  8
___SYMBOL
 62
2
  6
CONTINUOUS
 10
8.0138286949
 20
24.7511888412
 11
8.2475610701
 21
24.7537566132
 12
8.0486104474
 22
24.7334666531
 13
8.0486104474
 23
24.7334666531
  0
SOLID
  8
___SYMBOL
 62
2
  6
CONTINUOUS
 10
8.0486104474
 20
24.7334666531
 11
8.2475610701
 21
24.7537566132
 12
8.0762134025
 22
24.7058636981
 13
8.0762134025
 23
24.7058636981
  0
SOLID
  8
___SYMBOL
 62
2
  6
CONTINUOUS
 10
8.2475610701
 20
24.7537566132
 11
8.2668161647
 21
24.6944955257
 12
8.0762134025
 22
24.7058636981
 13
8.0762134025
 23
24.7058636981
  0
SOLID
  8
___SYMBOL
 62
2
  6
CONTINUOUS
 10
7.8743322481
 20
24.7058636981
 11
7.85661006
 21
24.6710819456
 12
7.6837294859
 22
24.6944955257
 13
7.6837294859
 23
24.6944955257
  0
SOLID
  8
___SYMBOL
 62
2
  6
CONTINUOUS
 10
8.0939355905
 20
24.6710819456
 11
8.0762134025
 21
24.7058636981
 12
8.2668161647
 22
24.6944955257
 13
8.2668161647
 23
24.6944955257
  0
SOLID
  8
___SYMBOL
 62
2
  6
CONTINUOUS
 10
7.6772162343
 20
24.632526076
 11
7.6837294859
 21
24.6944955257
 12
7.85661006
 22
24.6710819456
 13
7.85661006
 23
24.6710819456
  0
SOLID
  8
___SYMBOL
 62
2
  6
CONTINUOUS
 10
7.85661006
 20
24.6710819456
 11
7.8505034102
 21
24.632526076
 12
7.6772162343
 22
24.632526076
 13
7.6772162343
 23
24.632526076
  0
SOLID
  8
___SYMBOL
 62
2
  6
CONTINUOUS
 10
8.0939355905
 20
24.6710819456
 11
8.2668161647
 21
24.6944955257
 12
8.1000422404
 22
24.632526076
 13
8.1000422404
 23
24.632526076
  0
SOLID
  8
___SYMBOL
 62
2
  6
CONTINUOUS
 10
8.2668161647
 20
24.6944955257
 11
8.2733294163
 21
24.632526076
 12
8.1000422404
 22
24.632526076
 13
8.1000422404
 23
24.632526076
  0
SOLID
  8
___SYMBOL
 62
2
  6
CONTINUOUS
 10
8.0939355905
 20
24.5939702063
 11
8.1000422404
 21
24.632526076
 12
8.2733294163
 22
24.632526076
 13
8.2733294163
 23
24.632526076
  0
SOLID
  8
___SYMBOL
 62
2
  6
CONTINUOUS
 10
7.85661006
 20
24.5939702063
 11
7.6837294859
 21
24.5705566262
 12
7.8505034102
 22
24.632526076
 13
7.8505034102
 23
24.632526076
  0
SOLID
  8
___SYMBOL
 62
2
  6
CONTINUOUS
 10
7.6837294859
 20
24.5705566262
 11
7.6772162343
 21
24.632526076
 12
7.8505034102
 22
24.632526076
 13
7.8505034102
 23
24.632526076
  0
SOLID
  8
___SYMBOL
 62
2
  6
CONTINUOUS
 10
8.2733294163
 20
24.632526076
 11
8.2668161647
 21
24.5705566262
 12
8.0939355905
 22
24.5939702063
 13
8.0939355905
 23
24.5939702063
  0
SOLID
  8
___SYMBOL
 62
2
  6
CONTINUOUS
 10
7.85661006
 20
24.5939702063
 11
7.8743322481
 21
24.5591884538
 12
7.6837294859
 22
24.5705566262
 13
7.6837294859
 23
24.5705566262
  0
SOLID
  8
___SYMBOL
 62
2
  6
CONTINUOUS
 10
8.0762134025
 20
24.5591884538
 11
8.0939355905
 21
24.5939702063
 12
8.2668161647
 22
24.5705566262
 13
8.2668161647
 23
24.5705566262
  0
SOLID
  8
___SYMBOL
 62
2
  6
CONTINUOUS
 10
7.9367169557
 20
24.5138633107
 11
7.7029845805
 21
24.5112955387
 12
7.9019352032
 22
24.5315854988
 13
7.9019352032
 23
24.5315854988
  0
SOLID
  8
___SYMBOL
 62
2
  6
CONTINUOUS
 10
7.9019352032
 20
24.5315854988
 11
7.7029845805
 21
24.5112955387
 12
7.8743322481
 22
24.5591884538
 13
7.8743322481
 23
24.5591884538
  0
SOLID
  8
___SYMBOL
 62
2
  6
CONTINUOUS
 10
7.7029845805
 20
24.5112955387
 11
7.6837294859
 21
24.5705566262
 12
7.8743322481
 22
24.5591884538
 13
7.8743322481
 23
24.5591884538
  0
SOLID
  8
___SYMBOL
 62
2
  6
CONTINUOUS
 10
8.0762134025
 20
24.5591884538
 11
8.2668161647
 21
24.5705566262
 12
8.0486104474
 22
24.5315854988
 13
8.0486104474
 23
24.5315854988
  0
SOLID
  8
___SYMBOL
 62
2
  6
CONTINUOUS
 10
8.0486104474
 20
24.5315854988
 11
8.2668161647
 21
24.5705566262
 12
8.0138286949
 22
24.5138633107
 13
8.0138286949
 23
24.5138633107
  0
SOLID
  8
___SYMBOL
 62
2
  6
CONTINUOUS
 10
8.2668161647
 20
24.5705566262
 11
8.2475610701
 21
24.5112955387
 12
8.0138286949
 22
24.5138633107
 13
8.0138286949
 23
24.5138633107
  0
SOLID
  8
___SYMBOL
 62
2
  6
CONTINUOUS
 10
7.9367169557
 20
24.5138633107
 11
7.9752728253
 21
24.5077566609
 12
7.7029845805
 22
24.5112955387
 13
7.7029845805
 23
24.5112955387
  0
SOLID
  8
___SYMBOL
 62
2
  6
CONTINUOUS
 10
7.9752728253
 20
24.5077566609
 11
8.0138286949
 21
24.5138633107
 12
8.2475610701
 22
24.5112955387
 13
8.2475610701
 23
24.5112955387
  0
SOLID
  8
___SYMBOL
 62
2
  6
CONTINUOUS
 10
7.7341399779
 20
24.4573328074
 11
7.7029845805
 21
24.5112955387
 12
7.9752728253
 22
24.5077566609
 13
7.9752728253
 23
24.5077566609
  0
SOLID
  8
___SYMBOL
 62
2
  6
CONTINUOUS
 10
7.9752728253
 20
24.5077566609
 11
8.2475610701
 21
24.5112955387
 12
7.7341399779
 22
24.4573328074
 13
7.7341399779
 23
24.4573328074
  0
SOLID
  8
___SYMBOL
 62
2
  6
CONTINUOUS
 10
8.2475610701
 20
24.5112955387
 11
8.2164056727
 21
24.4573328074
 12
7.7341399779
 22
24.4573328074
 13
7.7341399779
 23
24.4573328074
  0
SOLID
  8
___SYMBOL
 62
2
  6
CONTINUOUS
 10
7.7758340378
 20
24.4110268627
 11
7.7341399779
 21
24.4573328074
 12
8.2164056727
 22
24.4573328074
 13
8.2164056727
 23
24.4573328074
  0
SOLID
  8
___SYMBOL
 62
2
  6
CONTINUOUS
 10
8.2164056727
 20
24.4573328074
 11
8.1747116127
 21
24.4110268627
 12
7.7758340378
 22
24.4110268627
 13
7.7758340378
 23
24.4110268627
  0
SOLID
  8
___SYMBOL
 62
2
  6
CONTINUOUS
 10
7.8262445298
 20
24.3744014964
 11
7.7758340378
 21
24.4110268627
 12
8.1747116127
 22
24.4110268627
 13
8.1747116127
 23
24.4110268627
  0
SOLID
  8
___SYMBOL
 62
2
  6
CONTINUOUS
 10
8.1747116127
 20
24.4110268627
 11
8.1243011208
 21
24.3744014964
 12
7.8262445298
 22
24.3744014964
 13
7.8262445298
 23
24.3744014964
  0
SOLID
  8
___SYMBOL
 62
2
  6
CONTINUOUS
 10
7.8831682734
 20
24.3490574129
 11
7.8262445298
 21
24.3744014964
 12
8.1243011208
 22
24.3744014964
 13
8.1243011208
 23
24.3744014964
  0
SOLID
  8
___SYMBOL
 62
2
  6
CONTINUOUS
 10
8.1243011208
 20
24.3744014964
 11
8.0673773772
 21
24.3490574129
 12
7.8831682734
 22
24.3490574129
 13
7.8831682734
 23
24.3490574129
  0
SOLID
  8
___SYMBOL
 62
2
  6
CONTINUOUS
 10
7.9441174279
 20
24.3361022702
 11
7.8831682734
 21
24.3490574129
 12
8.0673773772
 22
24.3490574129
 13
8.0673773772
 23
24.3490574129
  0
SOLID
  8
___SYMBOL
 62
2
  6
CONTINUOUS
 10
8.0673773772
 20
24.3490574129
 11
8.0064282227
 21
24.3361022702
 12
7.9441174279
 22
24.3361022702
 13
7.9441174279
 23
24.3361022702
  0
LINE
  8
___SYMBOL
 62
2
  6
CONTINUOUS
 10
8.7679088345
 20
24.9266041525
 11
8.7679088345
 21
24.3406905031
  0
LINE
  8
___SYMBOL
 62
2
  6
CONTINUOUS
 10
8.7679088345
 20
24.3406905031
 11
8.6031751546
 21
24.3406905031
  0
LINE
  8
___SYMBOL
 62
2
  6
CONTINUOUS
 10
8.6031751546
 20
24.5690151129
 11
8.6031751546
 21
24.3406905031
  0
LINE
  8
___SYMBOL
 62
2
  6
CONTINUOUS
 10
8.4551783435
 20
24.5690151129
 11
8.6031751546
 21
24.5690151129
  0
LINE
  8
___SYMBOL
 62
2
  6
CONTINUOUS
 10
8.4551783435
 20
24.5690151129
 11
8.4551783435
 21
24.3406905031
  0
LINE
  8
___SYMBOL
 62
2
  6
CONTINUOUS
 10
8.4551783435
 20
24.3406905031
 11
8.2904446637
 21
24.3406905031
  0
LINE
  8
___SYMBOL
 62
2
  6
CONTINUOUS
 10
8.2904446637
 20
24.9266041525
 11
8.2904446637
 21
24.3406905031
  0
LINE
  8
___SYMBOL
 62
2
  6
CONTINUOUS
 10
8.2904446637
 20
24.9266041525
 11
8.4551783435
 21
24.9266041525
  0
LINE
  8
___SYMBOL
 62
2
  6
CONTINUOUS
 10
8.4551783435
 20
24.9266041525
 11
8.4551783435
 21
24.7062203928
  0
LINE
  8
___SYMBOL
 62
2
  6
CONTINUOUS
 10
8.4551783435
 20
24.7062203928
 11
8.6031751546
 21
24.7062203928
  0
LINE
  8
___SYMBOL
 62
2
  6
CONTINUOUS
 10
8.6031751546
 20
24.9266041525
 11
8.6031751546
 21
24.7062203928
  0
LINE
  8
___SYMBOL
 62
2
  6
CONTINUOUS
 10
8.6031751546
 20
24.9266041525
 11
8.7679088345
 21
24.9266041525
  0
SOLID
  8
___SYMBOL
 62
2
  6
CONTINUOUS
 10
8.6031751546
 20
24.7062203928
 11
8.6031751546
 21
24.9266041525
 12
8.7679088345
 22
24.9266041525
 13
8.7679088345
 23
24.9266041525
  0
SOLID
  8
___SYMBOL
 62
2
  6
CONTINUOUS
 10
8.6031751546
 20
24.7062203928
 11
8.4551783435
 21
24.5690151129
 12
8.4551783435
 22
24.7062203928
 13
8.4551783435
 23
24.7062203928
  0
SOLID
  8
___SYMBOL
 62
2
  6
CONTINUOUS
 10
8.4551783435
 20
24.5690151129
 11
8.2904446637
 21
24.3406905031
 12
8.4551783435
 22
24.7062203928
 13
8.4551783435
 23
24.7062203928
  0
SOLID
  8
___SYMBOL
 62
2
  6
CONTINUOUS
 10
8.4551783435
 20
24.7062203928
 11
8.2904446637
 21
24.3406905031
 12
8.4551783435
 22
24.9266041525
 13
8.4551783435
 23
24.9266041525
  0
SOLID
  8
___SYMBOL
 62
2
  6
CONTINUOUS
 10
8.2904446637
 20
24.3406905031
 11
8.2904446637
 21
24.9266041525
 12
8.4551783435
 22
24.9266041525
 13
8.4551783435
 23
24.9266041525
  0
SOLID
  8
___SYMBOL
 62
2
  6
CONTINUOUS
 10
8.4551783435
 20
24.5690151129
 11
8.4551783435
 21
24.3406905031
 12
8.2904446637
 22
24.3406905031
 13
8.2904446637
 23
24.3406905031
  0
SOLID
  8
___SYMBOL
 62
2
  6
CONTINUOUS
 10
8.4551783435
 20
24.5690151129
 11
8.6031751546
 21
24.7062203928
 12
8.6031751546
 22
24.5690151129
 13
8.6031751546
 23
24.5690151129
  0
SOLID
  8
___SYMBOL
 62
2
  6
CONTINUOUS
 10
8.6031751546
 20
24.7062203928
 11
8.7679088345
 21
24.9266041525
 12
8.6031751546
 22
24.5690151129
 13
8.6031751546
 23
24.5690151129
  0
SOLID
  8
___SYMBOL
 62
2
  6
CONTINUOUS
 10
8.6031751546
 20
24.5690151129
 11
8.7679088345
 21
24.9266041525
 12
8.6031751546
 22
24.3406905031
 13
8.6031751546
 23
24.3406905031
  0
SOLID
  8
___SYMBOL
 62
2
  6
CONTINUOUS
 10
8.7679088345
 20
24.9266041525
 11
8.7679088345
 21
24.3406905031
 12
8.6031751546
 22
24.3406905031
 13
8.6031751546
 23
24.3406905031
  0
LINE
  8
___SYMBOL
 62
2
  6
CONTINUOUS
 10
8.9629997414
 20
24.3406905031
 11
9.1256838114
 21
24.3406905031
  0
LINE
  8
___SYMBOL
 62
2
  6
CONTINUOUS
 10
8.9629997414
 20
24.3406905031
 11
8.8129536787
 21
24.3406905031
  0
LINE
  8
___SYMBOL
 62
2
  6
CONTINUOUS
 10
8.8129536787
 20
24.3406905031
 11
8.8129536787
 21
24.9266041525
  0
LINE
  8
___SYMBOL
 62
2
  6
CONTINUOUS
 10
8.8129536787
 20
24.9266041525
 11
8.9629997414
 21
24.9266041525
  0
LINE
  8
___SYMBOL
 62
2
  6
CONTINUOUS
 10
8.9629997414
 20
24.9266041525
 11
8.9629997414
 21
24.4819172603
  0
LINE
  8
___SYMBOL
 62
2
  6
CONTINUOUS
 10
8.9629997414
 20
24.4819172603
 11
9.1256838114
 21
24.4819172603
  0
LINE
  8
___SYMBOL
 62
2
  6
CONTINUOUS
 10
9.1256838114
 20
24.4819172603
 11
9.1256838114
 21
24.3406905031
  0
SOLID
  8
___SYMBOL
 62
2
  6
CONTINUOUS
 10
9.1256838114
 20
24.4819172603
 11
8.8129536787
 21
24.3406905031
 12
8.9629997414
 22
24.4819172603
 13
8.9629997414
 23
24.4819172603
  0
SOLID
  8
___SYMBOL
 62
2
  6
CONTINUOUS
 10
8.9629997414
 20
24.4819172603
 11
8.8129536787
 21
24.3406905031
 12
8.9629997414
 22
24.9266041525
 13
8.9629997414
 23
24.9266041525
  0
SOLID
  8
___SYMBOL
 62
2
  6
CONTINUOUS
 10
8.8129536787
 20
24.3406905031
 11
8.8129536787
 21
24.9266041525
 12
8.9629997414
 22
24.9266041525
 13
8.9629997414
 23
24.9266041525
  0
SOLID
  8
___SYMBOL
 62
2
  6
CONTINUOUS
 10
8.8129536787
 20
24.3406905031
 11
9.1256838114
 21
24.4819172603
 12
8.9629997414
 22
24.3406905031
 13
8.9629997414
 23
24.3406905031
  0
SOLID
  8
___SYMBOL
 62
2
  6
CONTINUOUS
 10
9.1256838114
 20
24.4819172603
 11
9.1256838114
 21
24.3406905031
 12
8.9629997414
 22
24.3406905031
 13
8.9629997414
 23
24.3406905031
  0
LINE
  8
___SYMBOL
 62
2
  6
CONTINUOUS
 10
9.4639357254
 20
24.5618387913
 11
9.4639357254
 21
24.7062203928
  0
LINE
  8
___SYMBOL
 62
2
  6
CONTINUOUS
 10
9.313078202
 20
24.7062203928
 11
9.4639357254
 21
24.7062203928
  0
LINE
  8
___SYMBOL
 62
2
  6
CONTINUOUS
 10
9.313078202
 20
24.7838447557
 11
9.313078202
 21
24.7062203928
  0
LINE
  8
___SYMBOL
 62
2
  6
CONTINUOUS
 10
9.313078202
 20
24.7838447557
 11
9.4639357254
 21
24.7838447557
  0
LINE
  8
___SYMBOL
 62
2
  6
CONTINUOUS
 10
9.4639357254
 20
24.7838447557
 11
9.4639357254
 21
24.9266041525
  0
LINE
  8
___SYMBOL
 62
2
  6
CONTINUOUS
 10
9.3272825254
 20
24.9266041525
 11
9.4639357254
 21
24.9266041525
  0
LINE
  8
___SYMBOL
 62
2
  6
CONTINUOUS
 10
9.1548315501
 20
24.9266041525
 11
9.3272825254
 21
24.9266041525
  0
LINE
  8
___SYMBOL
 62
2
  6
CONTINUOUS
 10
9.1548315501
 20
24.3406905031
 11
9.1548315501
 21
24.9266041525
  0
LINE
  8
___SYMBOL
 62
2
  6
CONTINUOUS
 10
9.1548315501
 20
24.3406905031
 11
9.4639357254
 21
24.3406905031
  0
LINE
  8
___SYMBOL
 62
2
  6
CONTINUOUS
 10
9.4639357254
 20
24.3406905031
 11
9.4639357254
 21
24.4819172603
  0
LINE
  8
___SYMBOL
 62
2
  6
CONTINUOUS
 10
9.313078202
 20
24.4819172603
 11
9.4639357254
 21
24.4819172603
  0
LINE
  8
___SYMBOL
 62
2
  6
CONTINUOUS
 10
9.313078202
 20
24.5618387913
 11
9.313078202
 21
24.4819172603
  0
LINE
  8
___SYMBOL
 62
2
  6
CONTINUOUS
 10
9.313078202
 20
24.5618387913
 11
9.4639357254
 21
24.5618387913
  0
SOLID
  8
___SYMBOL
 62
2
  6
CONTINUOUS
 10
9.4639357254
 20
24.9266041525
 11
9.4639357254
 21
24.7838447557
 12
9.313078202
 22
24.7838447557
 13
9.313078202
 23
24.7838447557
  0
SOLID
  8
___SYMBOL
 62
2
  6
CONTINUOUS
 10
9.4639357254
 20
24.7062203928
 11
9.4639357254
 21
24.5618387913
 12
9.313078202
 22
24.5618387913
 13
9.313078202
 23
24.5618387913
  0
SOLID
  8
___SYMBOL
 62
2
  6
CONTINUOUS
 10
9.4639357254
 20
24.4819172603
 11
9.1548315501
 21
24.3406905031
 12
9.313078202
 22
24.4819172603
 13
9.313078202
 23
24.4819172603
  0
SOLID
  8
___SYMBOL
 62
2
  6
CONTINUOUS
 10
9.313078202
 20
24.4819172603
 11
9.1548315501
 21
24.3406905031
 12
9.313078202
 22
24.5618387913
 13
9.313078202
 23
24.5618387913
  0
SOLID
  8
___SYMBOL
 62
2
  6
CONTINUOUS
 10
9.4639357254
 20
24.7062203928
 11
9.313078202
 21
24.5618387913
 12
9.313078202
 22
24.7062203928
 13
9.313078202
 23
24.7062203928
  0
SOLID
  8
___SYMBOL
 62
2
  6
CONTINUOUS
 10
9.313078202
 20
24.5618387913
 11
9.1548315501
 21
24.3406905031
 12
9.313078202
 22
24.7062203928
 13
9.313078202
 23
24.7062203928
  0
SOLID
  8
___SYMBOL
 62
2
  6
CONTINUOUS
 10
9.313078202
 20
24.7062203928
 11
9.1548315501
 21
24.3406905031
 12
9.313078202
 22
24.7838447557
 13
9.313078202
 23
24.7838447557
  0
SOLID
  8
___SYMBOL
 62
2
  6
CONTINUOUS
 10
9.4639357254
 20
24.9266041525
 11
9.313078202
 21
24.7838447557
 12
9.3272825254
 22
24.9266041525
 13
9.3272825254
 23
24.9266041525
  0
SOLID
  8
___SYMBOL
 62
2
  6
CONTINUOUS
 10
9.313078202
 20
24.7838447557
 11
9.1548315501
 21
24.3406905031
 12
9.3272825254
 22
24.9266041525
 13
9.3272825254
 23
24.9266041525
  0
SOLID
  8
___SYMBOL
 62
2
  6
CONTINUOUS
 10
9.1548315501
 20
24.3406905031
 11
9.1548315501
 21
24.9266041525
 12
9.3272825254
 22
24.9266041525
 13
9.3272825254
 23
24.9266041525
  0
SOLID
  8
___SYMBOL
 62
2
  6
CONTINUOUS
 10
9.4639357254
 20
24.4819172603
 11
9.4639357254
 21
24.3406905031
 12
9.1548315501
 22
24.3406905031
 13
9.1548315501
 23
24.3406905031
  0
LINE
  8
___SYMBOL
 62
2
  6
CONTINUOUS
 10
9.9741861314
 20
24.3406905031
 11
9.8147428884
 21
24.5922730444
  0
ARC
  8
___SYMBOL
 62
2
  6
CONTINUOUS
 10
9.7423036408
 20
24.7515946418
 40
0.1750166163
 50
294.4500166359
 51
90.0
  0
LINE
  8
___SYMBOL
 62
2
  6
CONTINUOUS
 10
9.5087559401
 20
24.9266041525
 11
9.7423036408
 21
24.9266041525
  0
LINE
  8
___SYMBOL
 62
2
  6
CONTINUOUS
 10
9.5087559401
 20
24.3406905031
 11
9.5087559401
 21
24.9266041525
  0
LINE
  8
___SYMBOL
 62
2
  6
CONTINUOUS
 10
9.5087559401
 20
24.3406905031
 11
9.6594117627
 21
24.3406905031
  0
LINE
  8
___SYMBOL
 62
2
  6
CONTINUOUS
 10
9.6594117627
 20
24.537646874
 11
9.6594117627
 21
24.3406905031
  0
LINE
  8
___SYMBOL
 62
2
  6
CONTINUOUS
 10
9.7842351918
 20
24.3406905031
 11
9.6594117627
 21
24.537646874
  0
LINE
  8
___SYMBOL
 62
2
  6
CONTINUOUS
 10
9.7842351918
 20
24.3406905031
 11
9.9741861314
 21
24.3406905031
  0
LINE
  8
___SYMBOL
 62
2
  6
CONTINUOUS
 10
9.6594117627
 20
24.6769221846
 11
9.7117515129
 21
24.6769221846
  0
ARC
  8
___SYMBOL
 62
2
  6
CONTINUOUS
 10
9.7153415422
 20
24.7304135841
 40
0.053611735
 50
266.1604009902
 51
89.9998910512
  0
LINE
  8
___SYMBOL
 62
2
  6
CONTINUOUS
 10
9.7153416441
 20
24.7840253192
 11
9.6594117627
 21
24.7840253192
  0
LINE
  8
___SYMBOL
 62
2
  6
CONTINUOUS
 10
9.6594117627
 20
24.7840253192
 11
9.6594117627
 21
24.6769221846
  0
SOLID
  8
___SYMBOL
 62
2
  6
CONTINUOUS
 10
9.7423036408
 20
24.9266112581
 11
9.7892366643
 21
24.9202010097
 12
9.5087559401
 22
24.9266041525
 13
9.5087559401
 23
24.9266041525
  0
SOLID
  8
___SYMBOL
 62
2
  6
CONTINUOUS
 10
9.6594117627
 20
24.7840253192
 11
9.9133515038
 21
24.7886546547
 12
9.7153416441
 22
24.7840253192
 13
9.7153416441
 23
24.7840253192
  0
SOLID
  8
___SYMBOL
 62
2
  6
CONTINUOUS
 10
9.7153416441
 20
24.7840253192
 11
9.9133515038
 21
24.7886546547
 12
9.7390642257
 22
24.7784911508
 13
9.7390642257
 23
24.7784911508
  0
SOLID
  8
___SYMBOL
 62
2
  6
CONTINUOUS
 10
9.7390642257
 20
24.7784911508
 11
9.9133515038
 21
24.7886546547
 12
9.7578892134
 22
24.7630312758
 13
9.7578892134
 23
24.7630312758
  0
SOLID
  8
___SYMBOL
 62
2
  6
CONTINUOUS
 10
9.9133515038
 20
24.7886546547
 11
9.9170247502
 21
24.7414285259
 12
9.7578892134
 22
24.7630312758
 13
9.7578892134
 23
24.7630312758
  0
SOLID
  8
___SYMBOL
 62
2
  6
CONTINUOUS
 10
9.767930152
 20
24.7408374152
 11
9.7578892134
 21
24.7630312758
 12
9.9170247502
 22
24.7414285259
 13
9.9170247502
 23
24.7414285259
  0
SOLID
  8
___SYMBOL
 62
2
  6
CONTINUOUS
 10
9.767930152
 20
24.7408374152
 11
9.9170247502
 21
24.7414285259
 12
9.7671140703
 22
24.7164915345
 13
9.7671140703
 23
24.7164915345
  0
SOLID
  8
___SYMBOL
 62
2
  6
CONTINUOUS
 10
9.7671140703
 20
24.7164915345
 11
9.9170247502
 21
24.7414285259
 12
9.75560945
 22
24.6950198879
 13
9.75560945
 23
24.6950198879
  0
SOLID
  8
___SYMBOL
 62
2
  6
CONTINUOUS
 10
9.9170247502
 20
24.7414285259
 11
9.9078991465
 21
24.6949470958
 12
9.75560945
 22
24.6950198879
 13
9.75560945
 23
24.6950198879
  0
SOLID
  8
___SYMBOL
 62
2
  6
CONTINUOUS
 10
9.7357914421
 20
24.6808553384
 11
9.75560945
 21
24.6950198879
 12
9.9078991465
 22
24.6949470958
 13
9.9078991465
 23
24.6949470958
  0
SOLID
  8
___SYMBOL
 62
2
  6
CONTINUOUS
 10
9.7357914421
 20
24.6808553384
 11
9.9078991465
 21
24.6949470958
 12
9.7117515129
 22
24.6769221846
 13
9.7117515129
 23
24.6769221846
  0
SOLID
  8
___SYMBOL
 62
2
  6
CONTINUOUS
 10
9.9078991465
 20
24.6949470958
 11
9.8866431708
 21
24.6526152699
 12
9.7117515129
 22
24.6769221846
 13
9.7117515129
 23
24.6769221846
  0
SOLID
  8
___SYMBOL
 62
2
  6
CONTINUOUS
 10
9.8147428884
 20
24.5922730444
 11
9.6594117627
 21
24.537646874
 12
9.8548138877
 22
24.6175339827
 13
9.8548138877
 23
24.6175339827
  0
SOLID
  8
___SYMBOL
 62
2
  6
CONTINUOUS
 10
9.8548138877
 20
24.6175339827
 11
9.6594117627
 21
24.537646874
 12
9.8866431708
 22
24.6526152699
 13
9.8866431708
 23
24.6526152699
  0
SOLID
  8
___SYMBOL
 62
2
  6
CONTINUOUS
 10
9.8866431708
 20
24.6526152699
 11
9.6594117627
 21
24.537646874
 12
9.7117515129
 22
24.6769221846
 13
9.7117515129
 23
24.6769221846
  0
SOLID
  8
___SYMBOL
 62
2
  6
CONTINUOUS
 10
9.6594117627
 20
24.537646874
 11
9.5087559401
 21
24.3406905031
 12
9.7117515129
 22
24.6769221846
 13
9.7117515129
 23
24.6769221846
  0
SOLID
  8
___SYMBOL
 62
2
  6
CONTINUOUS
 10
9.7117515129
 20
24.6769221846
 11
9.5087559401
 21
24.3406905031
 12
9.6594117627
 22
24.6769221846
 13
9.6594117627
 23
24.6769221846
  0
SOLID
  8
___SYMBOL
 62
2
  6
CONTINUOUS
 10
9.6594117627
 20
24.6769221846
 11
9.5087559401
 21
24.3406905031
 12
9.6594117627
 22
24.7840253192
 13
9.6594117627
 23
24.7840253192
  0
SOLID
  8
___SYMBOL
 62
2
  6
CONTINUOUS
 10
9.9133515038
 20
24.7886546547
 11
9.6594117627
 21
24.7840253192
 12
9.8971484837
 22
24.8331660254
 13
9.8971484837
 23
24.8331660254
  0
SOLID
  8
___SYMBOL
 62
2
  6
CONTINUOUS
 10
9.8971484837
 20
24.8331660254
 11
9.6594117627
 21
24.7840253192
 12
9.8696026101
 22
24.8717020453
 13
9.8696026101
 23
24.8717020453
  0
SOLID
  8
___SYMBOL
 62
2
  6
CONTINUOUS
 10
9.8696026101
 20
24.8717020453
 11
9.6594117627
 21
24.7840253192
 12
9.8327317018
 22
24.9014398345
 13
9.8327317018
 23
24.9014398345
  0
SOLID
  8
___SYMBOL
 62
2
  6
CONTINUOUS
 10
9.8327317018
 20
24.9014398345
 11
9.6594117627
 21
24.7840253192
 12
9.7892366643
 22
24.9202010097
 13
9.7892366643
 23
24.9202010097
  0
SOLID
  8
___SYMBOL
 62
2
  6
CONTINUOUS
 10
9.7892366643
 20
24.9202010097
 11
9.6594117627
 21
24.7840253192
 12
9.5087559401
 22
24.9266041525
 13
9.5087559401
 23
24.9266041525
  0
SOLID
  8
___SYMBOL
 62
2
  6
CONTINUOUS
 10
9.5087559401
 20
24.3406905031
 11
9.5087559401
 21
24.9266041525
 12
9.6594117627
 22
24.7840253192
 13
9.6594117627
 23
24.7840253192
  0
SOLID
  8
___SYMBOL
 62
2
  6
CONTINUOUS
 10
9.6594117627
 20
24.537646874
 11
9.6594117627
 21
24.3406905031
 12
9.5087559401
 22
24.3406905031
 13
9.5087559401
 23
24.3406905031
  0
SOLID
  8
___SYMBOL
 62
2
  6
CONTINUOUS
 10
9.6594117627
 20
24.537646874
 11
9.8147428884
 21
24.5922730444
 12
9.7842351918
 22
24.3406905031
 13
9.7842351918
 23
24.3406905031
  0
SOLID
  8
___SYMBOL
 62
2
  6
CONTINUOUS
 10
9.8147428884
 20
24.5922730444
 11
9.9741861314
 21
24.3406905031
 12
9.7842351918
 22
24.3406905031
 13
9.7842351918
 23
24.3406905031
  0
CIRCLE
  8
___SYMBOL
 62
2
  6
CONTINUOUS
 10
10.1149561061
 20
24.3406905031
 40
0.0653578721
  0
LINE
  8
___SYMBOL
 62
2
  6
CONTINUOUS
 10
10.1106680828
 20
24.3401527537
 11
10.1425360956
 21
24.3078498124
  0
LINE
  8
___SYMBOL
 62
2
  6
CONTINUOUS
 10
10.0990701066
 20
24.3078498124
 11
10.0990701066
 21
24.3738160112
  0
LINE
  8
___SYMBOL
 62
2
  6
CONTINUOUS
 10
10.0990701066
 20
24.3738160112
 11
10.1233494396
 21
24.3738160112
  0
ARC
  8
___SYMBOL
 62
2
  6
CONTINUOUS
 10
10.1233494396
 20
24.3569845616
 40
0.0168314496
 50
270.0
 51
90.0
  0
LINE
  8
___SYMBOL
 62
2
  6
CONTINUOUS
 10
10.1233494396
 20
24.3401527537
 11
10.0990701066
 21
24.3401527537
  0
TEXT
  8
___SYMBOL
 62
2
  6
CONTINUOUS
 10
7.2323812355
 20
23.8762263799
  7
STANDARD
 40
0.25
  1
CUT-OUT TEMPLATE
 41
0.8
 72
0
  0
TEXT
  8
___SYMBOL
 62
2
  6
CONTINUOUS
 10
7.2323812355
 20
23.5012263799
  7
STANDARD
 40
0.25
  1
SELF-RIMMING/UNDERCOUNTER SINK
 41
0.8
 72
0
  0
TEXT
  8
___SYMBOL
 62
2
  6
CONTINUOUS
 10
7.2323812355
 20
23.1262263799
  7
STANDARD
 40
0.25
  1
GABARIT DE DÉCOUPE
 41
0.8
 72
0
  0
TEXT
  8
___SYMBOL
 62
2
  6
CONTINUOUS
 10
7.2323812355
 20
22.7512263799
  7
STANDARD
 40
0.25
  1
ÉVIER À REBORD INTÉGRÉ/SOUS COMPTOIR
 41
0.8
 72
0
  0
TEXT
  8
___SYMBOL
 62
2
  6
CONTINUOUS
 10
7.2323812355
 20
22.3762263799
  7
STANDARD
 40
0.25
  1
PLANTILLA DE CORTE
 41
0.8
 72
0
  0
TEXT
  8
___SYMBOL
 62
2
  6
CONTINUOUS
 10
7.2323812355
 20
22.0012263799
  7
STANDARD
 40
0.25
  1
FREGADERO DE BORDE TERMINADO/INSTALACIÓN
 41
0.8
 72
0
  0
TEXT
  8
___SYMBOL
 62
2
  6
CONTINUOUS
 10
7.2323812355
 20
21.6262263799
  7
STANDARD
 40
0.25
  1
 BAJO CUBIERTA
 41
0.8
 72
0
  0
TEXT
  8
___SYMBOL
 62
2
  6
CONTINUOUS
 10
7.2323812355
 20
21.2512263799
  7
STANDARD
 40
0.25
  1
VAULT
 41
0.8
 72
0
  0
TEXT
  8
___SYMBOL
 62
2
  6
CONTINUOUS
 10
8.8323812355
 20
21.2512263799
  7
STANDARD
 40
0.25
  1
3823
 41
0.8
 72
0
  0
TEXT
  8
___SYMBOL
 62
2
  6
CONTINUOUS
 10
9.6323812355
 20
21.2512263799
  7
STANDARD
 40
0.25
  1
-**-
 41
0.8
 72
0
  0
TEXT
  8
___SYMBOL
 62
2
  6
CONTINUOUS
 10
10.4323812355
 20
21.2512263799
  7
STANDARD
 40
0.25
  1
-
 41
0.8
 72
0
  0
TEXT
  8
___SYMBOL
 62
2
  6
CONTINUOUS
 10
7.2362722398
 20
20.4348533062
  7
STANDARD
 40
0.25
  1
VAULT
 41
0.8
 72
0
  0
TEXT
  8
___SYMBOL
 62
2
  6
CONTINUOUS
 10
8.8362722398
 20
20.4348533062
  7
STANDARD
 40
0.25
  1
3839
 41
0.8
 72
0
  0
TEXT
  8
___SYMBOL
 62
2
  6
CONTINUOUS
 10
9.6362722398
 20
20.4348533062
  7
STANDARD
 40
0.25
  1
-**-
 41
0.8
 72
0
  0
TEXT
  8
___SYMBOL
 62
2
  6
CONTINUOUS
 10
10.4362722398
 20
20.4348533062
  7
STANDARD
 40
0.25
  1
-
 41
0.8
 72
0
  0
ENDBLK
  8
0
  6
BYBLOCK
 62
0
  0
BLOCK
  8
___SYMBOL
 62
2
  6
CONTINUOUS
  2
PLOTTING_TEMPLATE_NOTE_BL1
 70
64
 10
28.2537657699
 20
11.9580600493
  0
TEXT
  8
___SYMBOL
 62
2
  6
CONTINUOUS
 10
24.9412657699
 20
13.1689975493
  7
STANDARD
 40
0.15625
  1
WHEN PLOTTING TEMPLATE FULL SIZE:
 41
0.8
 72
0
  0
TEXT
  8
___SYMBOL
 62
2
  6
CONTINUOUS
 10
24.9412657699
 20
12.9346225493
  7
STANDARD
 40
0.15625
  1
Make sure horizontal and vertical dimensions
 41
0.8
 72
0
  0
TEXT
  8
___SYMBOL
 62
2
  6
CONTINUOUS
 10
24.9412657699
 20
12.7002475493
  7
STANDARD
 40
0.15625
  1
match the dimensions labeled on the template.
 41
0.8
 72
0
  0
TEXT
  8
___SYMBOL
 62
2
  6
CONTINUOUS
 10
24.9412657699
 20
12.2314975493
  7
STANDARD
 40
0.15625
  1
AL TRAZAR LA PLANTILLA A ESCALA,
 41
0.8
 72
0
  0
TEXT
  8
___SYMBOL
 62
2
  6
CONTINUOUS
 10
24.9412657699
 20
11.9971225493
  7
STANDARD
 40
0.15625
  1
asegúrese de que las dimensiones horizontales
 41
0.8
 72
0
  0
TEXT
  8
___SYMBOL
 62
2
  6
CONTINUOUS
 10
24.9412657699
 20
11.7627475493
  7
STANDARD
 40
0.15625
  1
y verticales concuerden con las dimensiones marcadas
 41
0.8
 72
0
  0
TEXT
  8
___SYMBOL
 62
2
  6
CONTINUOUS
 10
24.9412657699
 20
11.5283725493
  7
STANDARD
 40
0.15625
  1
en la plantilla.
 41
0.8
 72
0
  0
TEXT
  8
___SYMBOL
 62
2
  6
CONTINUOUS
 10
24.9412657699
 20
11.0596225493
  7
STANDARD
 40
0.15625
  1
AU MOMENT DE TRACER LA DÉCOUPE À L'ÉCHELLE,
 41
0.8
 72
0
  0
TEXT
  8
___SYMBOL
 62
2
  6
CONTINUOUS
 10
24.9412657699
 20
10.8252475493
  7
STANDARD
 40
0.15625
  1
Assurez vos que les dimensions horizotales et
 41
0.8
 72
0
  0
TEXT
  8
___SYMBOL
 62
2
  6
CONTINUOUS
 10
24.9412657699
 20
10.5908725493
  7
STANDARD
 40
0.15625
  1
verticales correspondent avec les dimensions du plan.
 41
0.8
 72
0
  0
ENDBLK
  8
0
  6
BYBLOCK
 62
0
  0
BLOCK
  8
___SYMBOL
 62
2
  6
CONTINUOUS
  2
COPYRIGHT_YEAR_BL0
 70
64
 10
35.6689450456
 20
9.3010799392
  0
CIRCLE
  8
___SYMBOL
 62
7
  6
CONTINUOUS
 10
35.2294626708
 20
9.3035275644
 40
0.0328259996
  0
TEXT
  8
___SYMBOL
 62
2
  6
CONTINUOUS
 10
35.29525342
 20
9.2658063144
  7
STANDARD
 40
0.0705
  1
2009
 41
0.8
 72
0
  0
TEXT
  8
___SYMBOL
 62
2
  6
CONTINUOUS
 10
35.52085342
 20
9.2658063144
  7
STANDARD
 40
0.0705
  1
 KOHLER CO.
 41
0.8
 72
0
  0
TEXT
  8
___SYMBOL
 62
2
  6
CONTINUOUS
 10
35.215227671
 20
9.2822913146
  7
TEXTSTYLE_2
 40
0.0421874995
  1
C
 41
1.0
 72
0
  0
ENDBLK
  8
0
  6
BYBLOCK
 62
0
  0
BLOCK
  8
0
  2
_FILLED
 70
64
 10
0.0
 20
0.0
  0
SOLID
  8
0
  6
BYBLOCK
 62
0
 10
0.0
 20
0.0
 11
-1.0
 21
0.1666666667
 12
-1.0
 22
-0.1666666667
 13
-1.0
 23
-0.1666666667
  0
ENDBLK
  8
0
  6
BYBLOCK
 62
0
  0
BLOCK
  8
0
 62
2
  6
CONTINUOUS
  2
*D0
 70
65
 10
0.0
 20
0.0
  0
TEXT
  8
0
 62
2
  6
CONTINUOUS
 10
18.3121040509
 20
15.7164881325
  7
STANDARD
 40
0.15625
  1
21-1/2
 41
0.8
 72
1
 11
18.6871040509
 21
15.7164881325
  0
TEXT
  8
0
 62
2
  6
CONTINUOUS
 10
19.0621040509
 20
15.7164881325
  7
STANDARD
 40
0.15625
  1
"
 41
0.8
 72
1
 11
19.1246040509
 21
15.7164881325
  0
TEXT
  8
0
 62
2
  6
CONTINUOUS
 10
18.1246040509
 20
15.4821131325
  7
STANDARD
 40
0.15625
  1
[54,61 cm]
 41
0.8
 72
1
 11
18.7496040509
 21
15.4821131325
  0
TEXT
  8
0
 62
2
  6
CONTINUOUS
 10
17.9996040509
 20
15.2477381325
  7
STANDARD
 40
0.15625
  1
SELF RIMMING
 41
0.8
 72
1
 11
18.7496040509
 21
15.2477381325
  0
LINE
  8
0
 62
2
  6
CONTINUOUS
 10
18.6246040509
 20
29.4684003052
 11
18.9482278703
 21
29.4684003052
  0
LINE
  8
0
 62
2
  6
CONTINUOUS
 10
18.6246040509
 20
7.9684003052
 11
18.9688974584
 21
7.9684003052
  0
LINE
  8
0
 62
2
  6
CONTINUOUS
 10
18.7496040509
 20
29.4684003052
 11
18.7496040509
 21
15.9508631325
  0
LINE
  8
0
 62
2
  6
CONTINUOUS
 10
18.7496040509
 20
7.9684003052
 11
18.7496040509
 21
15.1696131325
  0
INSERT
  8
0
 62
2
  6
CONTINUOUS
  2
_FILLED
 10
18.7496040509
 20
29.4684003052
 41
0.1875
 42
0.1875
 43
0.1875
 50
90.0
  0
INSERT
  8
0
 62
2
  6
CONTINUOUS
  2
_FILLED
 10
18.7496040509
 20
7.9684003052
 41
0.1875
 42
0.1875
 43
0.1875
 50
270.0
  0
ENDBLK
  8
0
  6
BYBLOCK
 62
0
  0
BLOCK
  8
0
 62
2
  6
CONTINUOUS
  2
*D1
 70
65
 10
0.0
 20
0.0
  0
TEXT
  8
0
 62
2
  6
CONTINUOUS
 10
15.1775688523
 20
15.8183585511
  7
STANDARD
 40
0.15625
  1
16-9/16
 41
0.8
 72
1
 11
15.6150688523
 21
15.8183585511
  0
TEXT
  8
0
 62
2
  6
CONTINUOUS
 10
16.0525688523
 20
15.8183585511
  7
STANDARD
 40
0.15625
  1
"
 41
0.8
 72
1
 11
16.1150688523
 21
15.8183585511
  0
TEXT
  8
0
 62
2
  6
CONTINUOUS
 10
15.0525688523
 20
15.5839835511
  7
STANDARD
 40
0.15625
  1
[42,23 cm]
 41
0.8
 72
1
 11
15.6775688523
 21
15.5839835511
  0
TEXT
  8
0
 62
2
  6
CONTINUOUS
 10
14.9275688523
 20
15.3496085511
  7
STANDARD
 40
0.15625
  1
UNDERCOUNTER
 41
0.8
 72
1
 11
15.6775688523
 21
15.3496085511
  0
LINE
  8
0
 62
2
  6
CONTINUOUS
 10
15.5525688523
 20
25.6434003052
 11
15.9085644172
 21
25.6434003052
  0
LINE
  8
0
 62
2
  6
CONTINUOUS
 10
15.5525688523
 20
9.0934003052
 11
15.8592042068
 21
9.0934003052
  0
LINE
  8
0
 62
2
  6
CONTINUOUS
 10
15.6775688523
 20
25.6434003052
 11
15.6775688523
 21
16.0527335511
  0
LINE
  8
0
 62
2
  6
CONTINUOUS
 10
15.6775688523
 20
9.0934003052
 11
15.6775688523
 21
15.2714835511
  0
INSERT
  8
0
 62
2
  6
CONTINUOUS
  2
_FILLED
 10
15.6775688523
 20
25.6434003052
 41
0.1875
 42
0.1875
 43
0.1875
 50
90.0
  0
INSERT
  8
0
 62
2
  6
CONTINUOUS
  2
_FILLED
 10
15.6775688523
 20
9.0934003052
 41
0.1875
 42
0.1875
 43
0.1875
 50
270.0
  0
ENDBLK
  8
0
  6
BYBLOCK
 62
0
  0
BLOCK
  8
0
 62
2
  6
CONTINUOUS
  2
*D2
 70
65
 10
0.0
 20
0.0
  0
TEXT
  8
0
 62
2
  6
CONTINUOUS
 10
16.9053730145
 20
14.5588756668
  7
STANDARD
 40
0.15625
  1
32-1/2
 41
0.8
 72
1
 11
17.2803730145
 21
14.5588756668
  0
TEXT
  8
0
 62
2
  6
CONTINUOUS
 10
17.6553730145
 20
14.5588756668
  7
STANDARD
 40
0.15625
  1
"
 41
0.8
 72
1
 11
17.7178730145
 21
14.5588756668
  0
TEXT
  8
0
 62
2
  6
CONTINUOUS
 10
16.7178730145
 20
14.3245006668
  7
STANDARD
 40
0.15625
  1
[82,55 cm]
 41
0.8
 72
1
 11
17.3428730145
 21
14.3245006668
  0
TEXT
  8
0
 62
2
  6
CONTINUOUS
 10
16.5928730145
 20
14.0901256668
  7
STANDARD
 40
0.15625
  1
SELF RIMMING
 41
0.8
 72
1
 11
17.3428730145
 21
14.0901256668
  0
LINE
  8
0
 62
2
  6
CONTINUOUS
 10
37.7590284842
 20
14.5120006668
 11
37.7590284842
 21
14.792015986
  0
LINE
  8
0
 62
2
  6
CONTINUOUS
 10
5.2590284842
 20
14.5120006668
 11
5.2590284842
 21
14.7952367397
  0
LINE
  8
0
 62
2
  6
CONTINUOUS
 10
37.7590284842
 20
14.6370006668
 11
18.1709980145
 21
14.6370006668
  0
LINE
  8
0
 62
2
  6
CONTINUOUS
 10
5.2590284842
 20
14.6370006668
 11
16.5147480145
 21
14.6370006668
  0
INSERT
  8
0
 62
2
  6
CONTINUOUS
  2
_FILLED
 10
37.7590284842
 20
14.6370006668
 41
0.1875
 42
0.1875
 43
0.1875
  0
INSERT
  8
0
 62
2
  6
CONTINUOUS
  2
_FILLED
 10
5.2590284842
 20
14.6370006668
 41
0.1875
 42
0.1875
 43
0.1875
 50
180.0
  0
ENDBLK
  8
0
  6
BYBLOCK
 62
0
  0
BLOCK
  8
0
 62
2
  6
CONTINUOUS
  2
*D3
 70
65
 10
0.0
 20
0.0
  0
TEXT
  8
0
 62
2
  6
CONTINUOUS
 10
16.9747012187
 20
16.5730050388
  7
STANDARD
 40
0.15625
  1
30-1/4
 41
0.8
 72
1
 11
17.3497012187
 21
16.5730050388
  0
TEXT
  8
0
 62
2
  6
CONTINUOUS
 10
17.7247012187
 20
16.5730050388
  7
STANDARD
 40
0.15625
  1
"
 41
0.8
 72
1
 11
17.7872012187
 21
16.5730050388
  0
TEXT
  8
0
 62
2
  6
CONTINUOUS
 10
16.7872012187
 20
16.3386300388
  7
STANDARD
 40
0.15625
  1
[76,84 cm]
 41
0.8
 72
1
 11
17.4122012187
 21
16.3386300388
  0
TEXT
  8
0
 62
2
  6
CONTINUOUS
 10
16.6622012187
 20
16.1042550388
  7
STANDARD
 40
0.15625
  1
UNDERCOUNTER
 41
0.8
 72
1
 11
17.4122012187
 21
16.1042550388
  0
LINE
  8
0
 62
2
  6
CONTINUOUS
 10
36.6340284842
 20
16.5261300388
 11
36.6340284842
 21
16.7885377739
  0
LINE
  8
0
 62
2
  6
CONTINUOUS
 10
6.3840284842
 20
16.5261300388
 11
6.3840284842
 21
16.7664860999
  0
LINE
  8
0
 62
2
  6
CONTINUOUS
 10
36.6340284842
 20
16.6511300388
 11
18.2403262187
 21
16.6511300388
  0
LINE
  8
0
 62
2
  6
CONTINUOUS
 10
6.3840284842
 20
16.6511300388
 11
16.5840762187
 21
16.6511300388
  0
INSERT
  8
0
 62
2
  6
CONTINUOUS
  2
_FILLED
 10
36.6340284842
 20
16.6511300388
 41
0.1875
 42
0.1875
 43
0.1875
  0
INSERT
  8
0
 62
2
  6
CONTINUOUS
  2
_FILLED
 10
6.3840284842
 20
16.6511300388
 41
0.1875
 42
0.1875
 43
0.1875
 50
180.0
  0
ENDBLK
  8
0
  6
BYBLOCK
 62
0
  0
BLOCK
  8
0
 62
2
  6
CONTINUOUS
  2
*D4
 70
65
 10
0.0
 20
0.0
  0
TEXT
  8
0
 62
2
  6
CONTINUOUS
 10
35.6455720264
 20
13.7841183782
  7
STANDARD
 40
0.15625
  1
1/4
 41
0.8
 72
2
 11
36.0205720264
 21
13.7841183782
  0
TEXT
  8
0
 62
2
  6
CONTINUOUS
 10
36.0205720264
 20
13.7841183782
  7
STANDARD
 40
0.15625
  1
"
 41
0.8
 72
2
 11
36.1455720264
 21
13.7841183782
  0
TEXT
  8
0
 62
2
  6
CONTINUOUS
 10
35.0205720264
 20
13.5497433782
  7
STANDARD
 40
0.15625
  1
(0,64 cm)
 41
0.8
 72
2
 11
36.1455720264
 21
13.5497433782
  0
LINE
  8
0
 62
2
  6
CONTINUOUS
 10
38.0090284842
 20
13.7372433782
 11
38.0090284842
 21
14.0338431551
  0
LINE
  8
0
 62
2
  6
CONTINUOUS
 10
37.7590284842
 20
13.7372433782
 11
37.7590284842
 21
13.9832982997
  0
LINE
  8
0
 62
2
  6
CONTINUOUS
 10
38.0090284842
 20
13.8622433782
 11
38.5090284842
 21
13.8622433782
  0
LINE
  8
0
 62
2
  6
CONTINUOUS
 10
37.7590284842
 20
13.8622433782
 11
36.2236970264
 21
13.8622433782
  0
INSERT
  8
0
 62
2
  6
CONTINUOUS
  2
_FILLED
 10
38.0090284842
 20
13.8622433782
 41
0.1875
 42
0.1875
 43
0.1875
 50
180.0
  0
INSERT
  8
0
 62
2
  6
CONTINUOUS
  2
_FILLED
 10
37.7590284842
 20
13.8622433782
 41
0.1875
 42
0.1875
 43
0.1875
  0
ENDBLK
  8
0
  6
BYBLOCK
 62
0
  0
BLOCK
  8
0
 62
2
  6
CONTINUOUS
  2
*D5
 70
65
 10
0.0
 20
0.0
  0
TEXT
  8
0
 62
2
  6
CONTINUOUS
 10
35.7153337351
 20
28.5073740359
  7
STANDARD
 40
0.15625
  1
4X 
 41
0.8
 72
2
 11
36.0903337351
 21
28.5073740359
  0
TEXT
  8
0
 62
2
  6
CONTINUOUS
 10
36.0903337351
 20
28.5073740359
  7
STANDARD
 40
0.15625
  1
R
 41
0.8
 72
2
 11
36.2153337351
 21
28.5073740359
  0
TEXT
  8
0
 62
2
  6
CONTINUOUS
 10
36.2153337351
 20
28.5073740359
  7
STANDARD
 40
0.15625
  1
1/2
 41
0.8
 72
2
 11
36.5903337351
 21
28.5073740359
  0
TEXT
  8
0
 62
2
  6
CONTINUOUS
 10
36.5903337351
 20
28.5073740359
  7
STANDARD
 40
0.15625
  1
"
 41
0.8
 72
2
 11
36.7153337351
 21
28.5073740359
  0
TEXT
  8
0
 62
2
  6
CONTINUOUS
 10
35.7153337351
 20
28.2729990359
  7
STANDARD
 40
0.15625
  1
(1,27cm)
 41
0.8
 72
2
 11
36.7153337351
 21
28.2729990359
  0
LINE
  8
0
 62
2
  6
CONTINUOUS
 10
37.5633337211
 20
29.36513488
 11
36.9653337351
 21
28.5854990359
  0
LINE
  8
0
 62
2
  6
CONTINUOUS
 10
36.9653337351
 20
28.5854990359
 11
36.7934587351
 21
28.5854990359
  0
INSERT
  8
0
 62
2
  6
CONTINUOUS
  2
_FILLED
 10
37.5633337211
 20
29.36513488
 41
0.1875
 42
0.1875
 43
0.1875
 50
52.510901158
  0
ENDBLK
  8
0
  6
BYBLOCK
 62
0
  0
BLOCK
  8
0
 62
2
  6
CONTINUOUS
  2
*D6
 70
65
 10
0.0
 20
0.0
  0
TEXT
  8
0
 62
2
  6
CONTINUOUS
 10
34.3710104696
 20
24.422834636
  7
STANDARD
 40
0.15625
  1
4X 
 41
0.8
 72
2
 11
34.7460104696
 21
24.422834636
  0
TEXT
  8
0
 62
2
  6
CONTINUOUS
 10
34.7460104696
 20
24.422834636
  7
STANDARD
 40
0.15625
  1
R
 41
0.8
 72
2
 11
34.8710104696
 21
24.422834636
  0
TEXT
  8
0
 62
2
  6
CONTINUOUS
 10
34.8710104696
 20
24.422834636
  7
STANDARD
 40
0.15625
  1
1/2
 41
0.8
 72
2
 11
35.2460104696
 21
24.422834636
  0
TEXT
  8
0
 62
2
  6
CONTINUOUS
 10
35.2460104696
 20
24.422834636
  7
STANDARD
 40
0.15625
  1
"
 41
0.8
 72
2
 11
35.3710104696
 21
24.422834636
  0
TEXT
  8
0
 62
2
  6
CONTINUOUS
 10
34.3710104696
 20
24.188459636
  7
STANDARD
 40
0.15625
  1
[1.27cm]
 41
0.8
 72
2
 11
35.3710104696
 21
24.188459636
  0
LINE
  8
0
 62
2
  6
CONTINUOUS
 10
36.4460293331
 20
25.5341117976
 11
35.6210104696
 21
24.500959636
  0
LINE
  8
0
 62
2
  6
CONTINUOUS
 10
35.6210104696
 20
24.500959636
 11
35.4491354696
 21
24.500959636
  0
INSERT
  8
0
 62
2
  6
CONTINUOUS
  2
_FILLED
 10
36.4460293331
 20
25.5341117976
 41
0.1875
 42
0.1875
 43
0.1875
 50
51.3910478251
  0
ENDBLK
  8
0
  6
BYBLOCK
 62
0
  0
ENDSEC
  0
SECTION
  2
ENTITIES
  0
DIMENSION
  8
0
 62
2
  6
CONTINUOUS
  2
*D0
 10
18.7496040509
 20
7.9684003052
 11
18.1871040509
 21
15.5602381325
 70
128
 13
18.9482278703
 23
29.4684003052
 14
18.9688974584
 24
7.9684003052
 50
270.0
  0
DIMENSION
  8
0
 62
2
  6
CONTINUOUS
  2
*D1
 10
15.6775688523
 20
9.0934003052
 11
15.1463188523
 21
15.6621085511
 70
128
 13
15.9085644172
 23
25.6434003052
 14
15.8592042068
 24
9.0934003052
 50
270.0
  0
DIMENSION
  8
0
 62
2
  6
CONTINUOUS
  2
*D2
 10
5.2590284842
 20
14.6370006668
 11
16.7803730145
 21
14.4026256668
 70
128
 13
37.7590284842
 23
14.792015986
 14
5.2590284842
 24
14.7952367397
 50
180.0
  0
DIMENSION
  8
0
 62
2
  6
CONTINUOUS
  2
*D3
 10
6.3840284842
 20
16.6511300388
 11
16.8497012187
 21
16.4167550388
 70
128
 13
36.6340284842
 23
16.7885377739
 14
6.3840284842
 24
16.5261300388
 50
180.0
  0
DIMENSION
  8
0
 62
2
  6
CONTINUOUS
  2
*D4
 10
37.7590284842
 20
13.8622433782
 11
34.9580720264
 21
13.7450558782
 70
128
 13
38.0090284842
 23
14.0338431551
 14
37.7590284842
 24
13.7372433782
 50
180.0
  0
DIMENSION
  8
0
 62
2
  6
CONTINUOUS
  2
*D5
 10
37.2590284842
 20
28.9684003052
 11
35.6528337351
 21
28.4683115359
 70
132
 15
37.5633337211
 25
29.36513488
  0
DIMENSION
  8
0
 62
2
  6
CONTINUOUS
  2
*D6
 10
36.1340284842
 20
25.1434003052
 11
34.3085104696
 21
24.383772136
 70
132
 15
36.4460293331
 25
25.5341117976
  0
TEXT
  8
___NOTE
 62
2
  6
CONTINUOUS
 10
7.1637519134
 20
9.1554607826
  7
STANDARD
 40
0.125
  1
1130823-7-C
 41
0.8
 72
0
  0
TEXT
  8
___NOTE
 62
2
  6
CONTINUOUS
 10
6.8505583351
 20
7.5274353061
  7
STANDARD
 40
0.125
  1
1130823-7-C
 41
0.8
 72
0
  0
TEXT
  8
___NOTE
 62
2
  6
CONTINUOUS
 10
34.490432403
 20
22.6757171092
  7
STANDARD
 40
0.15625
  1
RIM OF SINK
 41
0.8
 72
2
 11
35.865432403
 21
22.6757171092
  0
TEXT
  8
___NOTE
 62
2
  6
CONTINUOUS
 10
33.740432403
 20
22.4413421092
  7
STANDARD
 40
0.15625
  1
REBORD DE L'ÉVIER
 41
0.8
 72
2
 11
35.865432403
 21
22.4413421092
  0
TEXT
  8
___NOTE
 62
2
  6
CONTINUOUS
 10
33.490432403
 20
22.2069671092
  7
STANDARD
 40
0.15625
  1
BORDE DEL FREGADERO
 41
0.8
 72
2
 11
35.865432403
 21
22.2069671092
  0
LINE
  8
___NOTE
 62
2
  6
CONTINUOUS
 10
38.0090284842
 20
23.5243068679
 11
36.115432403
 21
22.7538421092
  0
LINE
  8
___NOTE
 62
2
  6
CONTINUOUS
 10
36.115432403
 20
22.7538421092
 11
35.865432403
 21
22.7538421092
  0
SOLID
  8
___NOTE
 62
2
  6
CONTINUOUS
 10
37.8471315401
 20
23.4246966678
 11
38.0090284842
 21
23.5243068679
 12
37.8235767154
 22
23.4825881199
 13
37.8235767154
 23
23.4825881199
  0
TEXT
  8
___NOTE
 62
2
  6
CONTINUOUS
 10
23.9989266874
 20
22.6800146776
  7
TEXTSTYLE_1
 40
0.15625
  1
n
 41
1.0
 72
0
  0
TEXT
  8
___NOTE
 62
2
  6
CONTINUOUS
 10
24.2333016874
 20
22.6800146776
  7
STANDARD
 40
0.15625
  1
1-7/16
 41
0.8
 72
0
  0
TEXT
  8
___NOTE
 62
2
  6
CONTINUOUS
 10
24.9833016874
 20
22.6800146776
  7
STANDARD
 40
0.15625
  1
 - STANDARD 3 HOLE FITTING
 41
0.8
 72
0
  0
TEXT
  8
___NOTE
 62
2
  6
CONTINUOUS
 10
23.9989266874
 20
22.4456396776
  7
STANDARD
 40
0.15625
  1
(TO BE DRILLED IN COUNTERTOP FOR UNDERMOUNT INSTALLATION ONLY)
 41
0.8
 72
0
  0
TEXT
  8
___NOTE
 62
2
  6
CONTINUOUS
 10
23.9989266874
 20
22.2112646776
  7
STANDARD
 40
0.15625
  1
3,7 cm DIAMÈTRE - RACCORD RÉGULIER À 3 TROUS
 41
0.8
 72
0
  0
TEXT
  8
___NOTE
 62
2
  6
CONTINUOUS
 10
23.9989266874
 20
21.9768896776
  7
STANDARD
 40
0.15625
  1
(À PERCER DANS LE COMPTOIR POUR INSTALLATION PAR DESSOUS SEULEMENT)
 41
0.8
 72
0
  0
TEXT
  8
___NOTE
 62
2
  6
CONTINUOUS
 10
23.9989266874
 20
21.7425146776
  7
STANDARD
 40
0.15625
  1
3,7 cm DIÁMETRO - CONEXIÓN ESTÁNDAR DE 3 ORIFICIOS
 41
0.8
 72
0
  0
TEXT
  8
___NOTE
 62
2
  6
CONTINUOUS
 10
23.9989266874
 20
21.5081396776
  7
STANDARD
 40
0.15625
  1
(A TALADRAR EN LA CUBIERTA PARA INSTALACIÓN BAJO CUBIERTA SOLAMENTE)
 41
0.8
 72
0
  0
LINE
  8
___NOTE
 62
2
  6
CONTINUOUS
 10
24.1709964129
 20
26.6032070418
 11
23.4044321637
 21
22.7581396776
  0
LINE
  8
___NOTE
 62
2
  6
CONTINUOUS
 10
23.4044321637
 20
22.7581396776
 11
23.9989266874
 21
22.7581396776
  0
SOLID
  8
___NOTE
 62
2
  6
CONTINUOUS
 10
24.1649841624
 20
26.4132158174
 11
24.1709964129
 21
26.6032070418
 12
24.1036903735
 22
26.4254355324
 13
24.1036903735
 23
26.4254355324
  0
LINE
  8
___NOTE
 62
2
  6
CONTINUOUS
 10
27.8753140792
 20
26.8300920763
 11
23.4044321637
 21
22.7581396776
  0
LINE
  8
___NOTE
 62
2
  6
CONTINUOUS
 10
23.4044321637
 20
22.7581396776
 11
23.9989266874
 21
22.7581396776
  0
SOLID
  8
___NOTE
 62
2
  6
CONTINUOUS
 10
27.7577336162
 20
26.6807346285
 11
27.8753140792
 21
26.8300920763
 12
27.7156490636
 22
26.7269422083
 13
27.7156490636
 23
26.7269422083
  0
LINE
  8
___NOTE
 62
2
  6
CONTINUOUS
 10
20.7220605555
 20
26.6032070418
 11
23.4044321637
 21
22.7581396776
  0
LINE
  8
___NOTE
 62
2
  6
CONTINUOUS
 10
23.4044321637
 20
22.7581396776
 11
23.9989266874
 21
22.7581396776
  0
SOLID
  8
___NOTE
 62
2
  6
CONTINUOUS
 10
20.8549680205
 20
26.4673084831
 11
20.7220605555
 21
26.6032070418
 12
20.803708625
 22
26.4315492273
 13
20.803708625
 23
26.4315492273
  0
TEXT
  8
___NOTE
 62
2
  6
CONTINUOUS
 10
30.0894000261
 20
24.7843721197
  7
TEXTSTYLE_1
 40
0.15625
  1
n
 41
1.0
 72
2
 11
30.3237750261
 21
24.7843721197
  0
TEXT
  8
___NOTE
 62
2
  6
CONTINUOUS
 10
30.3237750261
 20
24.7843721197
  7
STANDARD
 40
0.15625
  1
1-7/16
 41
0.8
 72
2
 11
31.0737750261
 21
24.7843721197
  0
TEXT
  8
___NOTE
 62
2
  6
CONTINUOUS
 10
31.0737750261
 20
24.7843721197
  7
STANDARD
 40
0.15625
  1
 - OPTIONAL FITTING HOLE
 41
0.8
 72
2
 11
34.0737750261
 21
24.7843721197
  0
TEXT
  8
___NOTE
 62
2
  6
CONTINUOUS
 10
26.3237750261
 20
24.5499971197
  7
STANDARD
 40
0.15625
  1
(TO BE DRILLED IN COUNTERTOP FOR UNDERMOUNT INSTALLATION ONLY)
 41
0.8
 72
2
 11
34.0737750261
 21
24.5499971197
  0
TEXT
  8
___NOTE
 62
2
  6
CONTINUOUS
 10
28.0737750261
 20
24.3156221197
  7
STANDARD
 40
0.15625
  1
3,7 cm DIÁMETRO - ORIFICIO DEL CONECTOR OPCIONAL
 41
0.8
 72
2
 11
34.0737750261
 21
24.3156221197
  0
TEXT
  8
___NOTE
 62
2
  6
CONTINUOUS
 10
25.6987750261
 20
24.0812471197
  7
STANDARD
 40
0.15625
  1
(À PERCER DANS LE COMPTOIR POUR INSTALLATION PAR DESSOUS SEULEMENT)
 41
0.8
 72
2
 11
34.0737750261
 21
24.0812471197
  0
TEXT
  8
___NOTE
 62
2
  6
CONTINUOUS
 10
28.3237750261
 20
23.8468721197
  7
STANDARD
 40
0.15625
  1
3,7 cm DIAMÈTRE - ORIFICE DU RACCORD OPTIONNEL
 41
0.8
 72
2
 11
34.0737750261
 21
23.8468721197
  0
TEXT
  8
___NOTE
 62
2
  6
CONTINUOUS
 10
25.5737750261
 20
23.6124971197
  7
STANDARD
 40
0.15625
  1
(A TALADRAR EN LA CUBIERTA PARA INSTALACIÓN BAJO CUBIERTA SOLAMENTE)
 41
0.8
 72
2
 11
34.0737750261
 21
23.6124971197
  0
LINE
  8
___NOTE
 62
2
  6
CONTINUOUS
 10
34.7601787718
 20
26.5729337103
 11
34.4438767827
 21
24.8624971197
  0
LINE
  8
___NOTE
 62
2
  6
CONTINUOUS
 10
34.4438767827
 20
24.8624971197
 11
34.0737750261
 21
24.8624971197
  0
SOLID
  8
___NOTE
 62
2
  6
CONTINUOUS
 10
34.756812464
 20
26.3828771911
 11
34.7601787718
 21
26.5729337103
 12
34.6953544744
 22
26.394242292
 13
34.6953544744
 23
26.394242292
  0
TEXT
  8
___NOTE
 62
2
  6
CONTINUOUS
 10
28.2718053352
 20
19.8778420212
  7
STANDARD
 40
0.15625
  1
FOR UNDERCOUNTER INSTALLATION CUT ALONG THIS LINE
 41
0.8
 72
2
 11
34.3968053352
 21
19.8778420212
  0
TEXT
  8
___NOTE
 62
2
  6
CONTINUOUS
 10
26.5218053352
 20
19.6434670212
  7
STANDARD
 40
0.15625
  1
POUR INSTALLATION SOUS COMPTOIR DÉCOUPER LE LONG DE CETTE LIGNE
 41
0.8
 72
2
 11
34.3968053352
 21
19.6434670212
  0
TEXT
  8
___NOTE
 62
2
  6
CONTINUOUS
 10
27.8968053352
 20
19.4090920212
  7
STANDARD
 40
0.15625
  1
PARA INSTALACIÓN BAJO CUBIERTA, CORTE POR ESTA LÍNEA
 41
0.8
 72
2
 11
34.3968053352
 21
19.4090920212
  0
LINE
  8
___NOTE
 62
2
  6
CONTINUOUS
 10
36.6340284842
 20
20.5020613629
 11
34.6468053352
 21
19.9559670212
  0
LINE
  8
___NOTE
 62
2
  6
CONTINUOUS
 10
34.6468053352
 20
19.9559670212
 11
34.3968053352
 21
19.9559670212
  0
SOLID
  8
___NOTE
 62
2
  6
CONTINUOUS
 10
36.461511471
 20
20.4222447442
 11
36.6340284842
 21
20.5020613629
 12
36.444950244
 22
20.4825106198
 13
36.444950244
 23
20.4825106198
  0
TEXT
  8
___NOTE
 62
2
  6
CONTINUOUS
 10
28.5659446678
 20
17.8411039457
  7
STANDARD
 40
0.15625
  1
FOR SELF-RIMMING INSTALLATION CUT ALONG THIS LINE
 41
0.8
 72
2
 11
34.6909446678
 21
17.8411039457
  0
TEXT
  8
___NOTE
 62
2
  6
CONTINUOUS
 10
26.4409446678
 20
17.6067289457
  7
STANDARD
 40
0.15625
  1
POUR INSTALLATION À REBORD INTÉGRÉ DÉCOUPER LE LONG DE CETTE LIGNE
 41
0.8
 72
2
 11
34.6909446678
 21
17.6067289457
  0
TEXT
  8
___NOTE
 62
2
  6
CONTINUOUS
 10
27.5659446678
 20
17.3723539457
  7
STANDARD
 40
0.15625
  1
PARA INSTALACIÓN DE BORDE TERMINADO, CORTE POR ESTA LÍNEA
 41
0.8
 72
2
 11
34.6909446678
 21
17.3723539457
  0
LINE
  8
___NOTE
 62
2
  6
CONTINUOUS
 10
37.7590284842
 20
17.2736605882
 11
34.9409446678
 21
17.9192289457
  0
LINE
  8
___NOTE
 62
2
  6
CONTINUOUS
 10
34.9409446678
 20
17.9192289457
 11
34.6909446678
 21
17.9192289457
  0
SOLID
  8
___NOTE
 62
2
  6
CONTINUOUS
 10
37.5692847363
 20
17.2850677182
 11
37.7590284842
 21
17.2736605882
 12
37.5832407648
 22
17.3459896295
 13
37.5832407648
 23
17.3459896295
  0
INSERT
  8
___SYMBOL
 62
2
  6
CONTINUOUS
  2
COPYRIGHT_YEAR_BL0
 10
35.6689450456
 20
9.3010799392
  0
INSERT
  8
___SYMBOL
 62
2
  6
CONTINUOUS
  2
PLOTTING_TEMPLATE_NOTE_BL1
 10
28.2537657699
 20
11.9580600493
  0
INSERT
  8
___SYMBOL
 62
2
  6
CONTINUOUS
  2
SKU_SINK_KOHLER_BL2
 10
11.2323812355
 20
22.6827179866
  0
LINE
  8
DEFAULT_1
 62
2
  6
CENTER
 10
20.4465284842
 20
26.1309003052
 11
20.4465284842
 21
28.5059003052
  0
LINE
  8
DEFAULT_1
 62
2
  6
CENTER
 10
24.4465284842
 20
26.1309003052
 11
24.4465284842
 21
28.5059003052
  0
LINE
  8
DEFAULT_1
 62
2
  6
CENTER
 10
28.4465284842
 20
26.1309003052
 11
28.4465284842
 21
28.5059003052
  0
LINE
  8
DEFAULT_1
 62
2
  6
CENTER
 10
19.2590284842
 20
27.2684003052
 11
29.6340284842
 21
27.2684003052
  0
LINE
  8
DEFAULT_1
 62
2
  6
CENTER
 10
33.7590284842
 20
27.2684003052
 11
36.1340284842
 21
27.2684003052
  0
LINE
  8
DEFAULT_1
 62
2
  6
CENTER
 10
34.9465284842
 20
26.1309003052
 11
34.9465284842
 21
28.5059003052
  0
LINE
  8
_CURVE
 62
8
  6
HIDDEN
 10
5.0090284842
 20
29.4684003052
 11
5.0090284842
 21
7.9684003052
  0
LINE
  8
_CURVE
 62
7
  6
CONTINUOUS
 10
5.2590284842
 20
28.9684003052
 11
5.2590284842
 21
8.4684003052
  0
LINE
  8
_CURVE
 62
7
  6
CONTINUOUS
 10
6.3840284842
 20
9.5934003052
 11
6.3840284842
 21
25.1434003052
  0
LINE
  8
_CURVE
 62
8
  6
HIDDEN
 10
5.2590284842
 20
7.7184003052
 11
37.7590284842
 21
7.7184003052
  0
LINE
  8
_CURVE
 62
7
  6
CONTINUOUS
 10
5.7590284842
 20
7.9684003052
 11
37.2590284842
 21
7.9684003052
  0
LINE
  8
_CURVE
 62
7
  6
CONTINUOUS
 10
36.1340284842
 20
9.0934003052
 11
6.8840284842
 21
9.0934003052
  0
LINE
  8
_CURVE
 62
2
  6
CENTER
 10
21.5090284842
 20
30.7184003052
 11
21.5090284842
 21
6.7184003052
  0
LINE
  8
_CURVE
 62
2
  6
CENTER
 10
4.0090284842
 20
18.7184003052
 11
39.0090284842
 21
18.7184003052
  0
LINE
  8
_CURVE
 62
7
  6
CONTINUOUS
 10
6.8840284842
 20
25.6434003052
 11
36.1340284842
 21
25.6434003052
  0
LINE
  8
_CURVE
 62
7
  6
CONTINUOUS
 10
37.2590284842
 20
29.4684003052
 11
5.7590284842
 21
29.4684003052
  0
LINE
  8
_CURVE
 62
8
  6
HIDDEN
 10
37.7590284842
 20
29.7184003052
 11
5.2590284842
 21
29.7184003052
  0
LINE
  8
_CURVE
 62
7
  6
CONTINUOUS
 10
36.6340284842
 20
25.1434003052
 11
36.6340284842
 21
9.5934003052
  0
LINE
  8
_CURVE
 62
7
  6
CONTINUOUS
 10
37.7590284842
 20
8.4684003052
 11
37.7590284842
 21
28.9684003052
  0
LINE
  8
_CURVE
 62
8
  6
HIDDEN
 10
38.0090284842
 20
7.9684003052
 11
38.0090284842
 21
29.4684003052
  0
CIRCLE
  8
_CURVE
 62
7
  6
CONTINUOUS
 10
20.4465284842
 20
27.2684003052
 40
0.72
  0
CIRCLE
  8
_CURVE
 62
7
  6
CONTINUOUS
 10
24.4465284842
 20
27.2684003052
 40
0.72
  0
CIRCLE
  8
_CURVE
 62
7
  6
CONTINUOUS
 10
28.4465284842
 20
27.2684003052
 40
0.72
  0
CIRCLE
  8
_CURVE
 62
7
  6
CONTINUOUS
 10
34.9465284842
 20
27.2684003052
 40
0.72
  0
ARC
  8
_CURVE
 62
7
  6
CONTINUOUS
 10
6.8840284842
 20
25.1434003052
 40
0.5
 50
90.0
 51
180.0
  0
ARC
  8
_CURVE
 62
7
  6
CONTINUOUS
 10
6.8840284842
 20
9.5934003052
 40
0.5
 50
180.0
 51
270.0
  0
ARC
  8
_CURVE
 62
7
  6
CONTINUOUS
 10
36.1340284842
 20
9.5934003052
 40
0.5
 50
270.0
 51
360.0
  0
ARC
  8
_CURVE
 62
7
  6
CONTINUOUS
 10
36.1340284842
 20
25.1434003052
 40
0.5
 50
0.0
 51
90.0
  0
ARC
  8
_CURVE
 62
7
  6
CONTINUOUS
 10
5.7590284842
 20
28.9684003052
 40
0.5
 50
90.0
 51
180.0
  0
ARC
  8
_CURVE
 62
7
  6
CONTINUOUS
 10
5.7590284842
 20
8.4684003052
 40
0.5
 50
180.0
 51
270.0
  0
ARC
  8
_CURVE
 62
7
  6
CONTINUOUS
 10
37.2590284842
 20
8.4684003052
 40
0.5
 50
270.0
 51
360.0
  0
ARC
  8
_CURVE
 62
7
  6
CONTINUOUS
 10
37.2590284842
 20
28.9684003052
 40
0.5
 50
0.0
 51
90.0
  0
ARC
  8
0
 62
2
  6
CONTINUOUS
 10
36.1340284842
 20
25.1434003052
 40
0.5
 50
45.9357391186
 51
58.5160641741
  0
ARC
  8
_CURVE
 62
8
  6
HIDDEN
 10
5.2590284842
 20
29.4684003052
 40
0.25
 50
90.0
 51
180.0
  0
ARC
  8
_CURVE
 62
8
  6
HIDDEN
 10
5.2590284842
 20
7.9684003052
 40
0.25
 50
180.0
 51
270.0
  0
ARC
  8
_CURVE
 62
8
  6
HIDDEN
 10
37.7590284842
 20
7.9684003052
 40
0.25
 50
270.0
 51
360.0
  0
ARC
  8
_CURVE
 62
8
  6
HIDDEN
 10
37.7590284842
 20
29.4684003052
 40
0.25
 50
0.0
 51
90.0
  0
ENDSEC
  0
EOF
