999
DXF file: 1130821_7_d.dxf
999
Pro/ENGINEER 2013150 by Parametric Technology Corporation
  0
SECTION
  2
HEADER
  9
$EXTMAX
 10
44.0
 20
34.0
 30
0.0
  9
$EXTMIN
 10
0.0
 20
0.0
 30
0.0
  9
$LIMMIN
 10
0.0
 20
0.0
  9
$LIMMAX
 10
44.0
 20
34.0
  9
$VIEWCTR
 10
22.0
 20
17.0
  9
$VIEWSIZE
 40
34.0
  9
$CLAYER
  8
0
  9
$LTSCALE
 40
2.42
  9
$CELTYPE
  6
BYLAYER
  9
$DIMSCALE
 40
1.0
  9
$DIMASZ
 40
0.1875
  9
$DIMEXO
 40
0.0625
  9
$DIMDLI
 40
1.672
  9
$DIMEXE
 40
0.125
  9
$DIMCEN
 40
0.396
  9
$DIMLFAC
 40
1.0
  9
$DIMBLK
  1
_FILLED
  9
$DIMTXT
 40
0.15625
  9
$PDMODE
 70
3
  9
$PDSIZE
 40
0.3125
  9
$TILEMODE
 70
1
  0
ENDSEC
  0
SECTION
  2
TABLES
  0
TABLE
  2
LTYPE
 70
6
  0
LTYPE
  2
BYBLOCK
 70
0
  3

 72
65
 73
0
 40
0.0
  0
LTYPE
  2
BYLAYER
 70
0
  3

 72
65
 73
0
 40
0.0
  0
LTYPE
  2
CONTINUOUS
 70
64
  3
Solid line
 72
65
 73
0
 40
0.0
  0
LTYPE
  2
CENTER
 70
64
  3
____ _ ____ _ ____ _ ____ _ ____ _ ____ _ ____
 72
65
 73
4
 40
0.6
 49
0.375
 49
-0.075
 49
0.075
 49
-0.075
  0
LTYPE
  2
HIDDEN
 70
64
  3
- - - - - - - - - - - - - - - - - - - -
 72
65
 73
2
 40
0.2
 49
0.1
 49
-0.1
  0
LTYPE
  2
PHANTOM
 70
64
  3
_____ _ _ _____ _ _ _____ _ _ _____
 72
65
 73
6
 40
0.8
 49
0.45
 49
-0.05
 49
0.1
 49
-0.05
 49
0.1
 49
-0.05
  0
LTYPE
  2
DOT
 70
64
  3
. . . . . . . . . . . . . . . . . . . .
 72
65
 73
2
 40
0.2
 49
0.1
 49
-0.1
  0
LTYPE
  2
DASHED
 70
64
  3
- - - - - - - - - - - - - - - - - - - -
 72
65
 73
2
 40
0.2
 49
0.1
 49
-0.1
  0
ENDTAB
  0
TABLE
  2
LAYER
 70
36
  0
LAYER
  2
0
 70
0
 62
7
  6
CONTINUOUS
  0
LAYER
  2
DEFAULT_1
 70
0
 62
7
  6
CENTER
  0
LAYER
  2
DEFAULT_2
 70
0
 62
8
  6
HIDDEN
  0
LAYER
  2
DEFAULT_3
 70
0
 62
7
  6
PHANTOM
  0
LAYER
  2
DATUMS
 70
0
 62
7
  6
CONTINUOUS
  0
LAYER
  2
DATUM_AXIS
 70
0
 62
7
  6
CONTINUOUS
  0
LAYER
  2
DATUM_CSYS
 70
0
 62
7
  6
CONTINUOUS
  0
LAYER
  2
DATUM_PLANE
 70
0
 62
7
  6
CONTINUOUS
  0
LAYER
  2
DATUM_POINT
 70
0
 62
7
  6
CONTINUOUS
  0
LAYER
  2
_CURVE
 70
0
 62
7
  6
CONTINUOUS
  0
LAYER
  2
_SURFACE
 70
0
 62
7
  6
CONTINUOUS
  0
LAYER
  2
__REF_CURVE
 70
0
 62
7
  6
CONTINUOUS
  0
LAYER
  2
__REF_SURFACE
 70
0
 62
7
  6
CONTINUOUS
  0
LAYER
  2
___NOTE
 70
0
 62
7
  6
CONTINUOUS
  0
LAYER
  2
___SYMBOL
 70
0
 62
7
  6
CONTINUOUS
  0
ENDTAB
  0
TABLE
  2
STYLE
 70
1
  0
STYLE
  2
STANDARD
 70
0
 40
0.0
 41
0.8
 50
0.0
 71
0
 42
0.2
  3
txt
  4

  0
STYLE
  2
TEXTSTYLE_1
 70
0
 40
0.0
 41
0.8
 50
0.0
 71
0
 42
0.2
  3
gdt
  4

  0
STYLE
  2
TEXTSTYLE_2
 70
0
 40
0.0
 41
1.0
 50
0.0
 71
0
 42
0.2
  3
txt
  4

  0
ENDTAB
  0
ENDSEC
  0
SECTION
  2
BLOCKS
  0
BLOCK
  8
___SYMBOL
 62
2
  6
CONTINUOUS
  2
SYMBOL_17_BL2
 70
64
 10
9.9546447166
 20
22.0362926674
  0
TEXT
  8
___SYMBOL
 62
2
  6
CONTINUOUS
 10
7.5546447166
 20
24.1364281616
  7
STANDARD
 40
0.25
  1
CUT-OUT TEMPLATE
 41
0.8
 72
0
  0
TEXT
  8
___SYMBOL
 62
2
  6
CONTINUOUS
 10
7.5546447166
 20
23.7614281616
  7
STANDARD
 40
0.25
  1
UNDERCOUNTER SINK
 41
0.8
 72
0
  0
TEXT
  8
___SYMBOL
 62
2
  6
CONTINUOUS
 10
7.5546447166
 20
23.3864281616
  7
STANDARD
 40
0.25
  1
GABARIT DE DÉCOUPE
 41
0.8
 72
0
  0
TEXT
  8
___SYMBOL
 62
2
  6
CONTINUOUS
 10
7.5546447166
 20
23.0114281616
  7
STANDARD
 40
0.25
  1
ÉVIER SOUS COMPTOIR
 41
0.8
 72
0
  0
TEXT
  8
___SYMBOL
 62
2
  6
CONTINUOUS
 10
7.5546447166
 20
22.6364281616
  7
STANDARD
 40
0.25
  1
PLANTILLA DE CORTE
 41
0.8
 72
0
  0
TEXT
  8
___SYMBOL
 62
2
  6
CONTINUOUS
 10
7.5546447166
 20
22.2614281616
  7
STANDARD
 40
0.25
  1
FREGADERO DE INSTALACIÓN
 41
0.8
 72
0
  0
TEXT
  8
___SYMBOL
 62
2
  6
CONTINUOUS
 10
7.5546447166
 20
21.8864281616
  7
STANDARD
 40
0.25
  1
 BAJO CUBIERTA
 41
0.8
 72
0
  0
TEXT
  8
___SYMBOL
 62
2
  6
CONTINUOUS
 10
7.5546447166
 20
21.5114281616
  7
STANDARD
 40
0.25
  1
VAULT   3820-**--
 41
0.8
 72
0
  0
TEXT
  8
___SYMBOL
 62
2
  6
CONTINUOUS
 10
7.5623840319
 20
20.6514362372
  7
STANDARD
 40
0.25
  1
VAULT   3821-**--
 41
0.8
 72
0
  0
TEXT
  8
___SYMBOL
 62
2
  6
CONTINUOUS
 10
7.5630181066
 20
18.8802654211
  7
STANDARD
 40
0.25
  1
VAULT   3996-**--
 41
0.8
 72
0
  0
TEXT
  8
___SYMBOL
 62
2
  6
CONTINUOUS
 10
7.5655203357
 20
19.7589114125
  7
STANDARD
 40
0.25
  1
VAULT   3838-**--
 41
0.8
 72
0
  0
LINE
  8
___SYMBOL
 62
2
  6
CONTINUOUS
 10
8.0812164927
 20
25.1883413994
 11
7.8679130409
 21
24.9346931264
  0
LINE
  8
___SYMBOL
 62
2
  6
CONTINUOUS
 10
7.8891546807
 20
25.1883413994
 11
8.0812164927
 21
25.1883413994
  0
LINE
  8
___SYMBOL
 62
2
  6
CONTINUOUS
 10
7.8891546807
 20
25.1883413994
 11
7.751390514
 21
25.0245202097
  0
LINE
  8
___SYMBOL
 62
2
  6
CONTINUOUS
 10
7.751390514
 20
25.1883413994
 11
7.751390514
 21
25.0245202097
  0
LINE
  8
___SYMBOL
 62
2
  6
CONTINUOUS
 10
7.576890287
 20
25.1883413994
 11
7.751390514
 21
25.1883413994
  0
LINE
  8
___SYMBOL
 62
2
  6
CONTINUOUS
 10
7.576890287
 20
25.1883413994
 11
7.576890287
 21
24.6024037466
  0
LINE
  8
___SYMBOL
 62
2
  6
CONTINUOUS
 10
7.751390514
 20
24.60242775
 11
7.576890287
 21
24.6024037466
  0
LINE
  8
___SYMBOL
 62
2
  6
CONTINUOUS
 10
7.751390514
 20
24.803927584
 11
7.751390514
 21
24.60242775
  0
LINE
  8
___SYMBOL
 62
2
  6
CONTINUOUS
 10
7.905128454
 20
24.60242775
 11
7.751390514
 21
24.803927584
  0
LINE
  8
___SYMBOL
 62
2
  6
CONTINUOUS
 10
7.905128454
 20
24.60242775
 11
8.1214208756
 21
24.60242775
  0
LINE
  8
___SYMBOL
 62
2
  6
CONTINUOUS
 10
8.1214208756
 20
24.60242775
 11
7.8679130409
 21
24.9346931264
  0
SOLID
  8
___SYMBOL
 62
2
  6
CONTINUOUS
 10
7.751390514
 20
25.0245202097
 11
7.8891546807
 21
25.1883413994
 12
8.0812164927
 22
25.1883413994
 13
8.0812164927
 23
25.1883413994
  0
SOLID
  8
___SYMBOL
 62
2
  6
CONTINUOUS
 10
8.0812164927
 20
25.1883413994
 11
7.8679130409
 21
24.9346931264
 12
7.751390514
 22
25.0245202097
 13
7.751390514
 23
25.0245202097
  0
SOLID
  8
___SYMBOL
 62
2
  6
CONTINUOUS
 10
7.751390514
 20
24.803927584
 11
7.8679130409
 21
24.9346931264
 12
7.905128454
 22
24.60242775
 13
7.905128454
 23
24.60242775
  0
SOLID
  8
___SYMBOL
 62
2
  6
CONTINUOUS
 10
7.8679130409
 20
24.9346931264
 11
8.1214208756
 21
24.60242775
 12
7.905128454
 22
24.60242775
 13
7.905128454
 23
24.60242775
  0
SOLID
  8
___SYMBOL
 62
2
  6
CONTINUOUS
 10
7.751390514
 20
24.60242775
 11
7.576890287
 21
24.6024037466
 12
7.751390514
 22
24.803927584
 13
7.751390514
 23
24.803927584
  0
SOLID
  8
___SYMBOL
 62
2
  6
CONTINUOUS
 10
7.8679130409
 20
24.9346931264
 11
7.751390514
 21
24.803927584
 12
7.751390514
 22
25.0245202097
 13
7.751390514
 23
25.0245202097
  0
SOLID
  8
___SYMBOL
 62
2
  6
CONTINUOUS
 10
7.751390514
 20
24.803927584
 11
7.576890287
 21
24.6024037466
 12
7.751390514
 22
25.0245202097
 13
7.751390514
 23
25.0245202097
  0
SOLID
  8
___SYMBOL
 62
2
  6
CONTINUOUS
 10
7.751390514
 20
25.0245202097
 11
7.576890287
 21
24.6024037466
 12
7.751390514
 22
25.1883413994
 13
7.751390514
 23
25.1883413994
  0
SOLID
  8
___SYMBOL
 62
2
  6
CONTINUOUS
 10
7.576890287
 20
24.6024037466
 11
7.576890287
 21
25.1883413994
 12
7.751390514
 22
25.1883413994
 13
7.751390514
 23
25.1883413994
  0
CIRCLE
  8
___SYMBOL
 62
2
  6
CONTINUOUS
 10
8.2979297122
 20
24.8942633228
 40
0.298056591
  0
CIRCLE
  8
___SYMBOL
 62
2
  6
CONTINUOUS
 10
8.2979297122
 20
24.8942633228
 40
0.1247694151
  0
SOLID
  8
___SYMBOL
 62
2
  6
CONTINUOUS
 10
8.2058251603
 20
25.1777319859
 11
8.2667743148
 21
25.1906871286
 12
8.3290851096
 22
25.1906871286
 13
8.3290851096
 23
25.1906871286
  0
SOLID
  8
___SYMBOL
 62
2
  6
CONTINUOUS
 10
8.3290851096
 20
25.1906871286
 11
8.3900342641
 21
25.1777319859
 12
8.2058251603
 22
25.1777319859
 13
8.2058251603
 23
25.1777319859
  0
SOLID
  8
___SYMBOL
 62
2
  6
CONTINUOUS
 10
8.1489014167
 20
25.1523879024
 11
8.2058251603
 21
25.1777319859
 12
8.3900342641
 22
25.1777319859
 13
8.3900342641
 23
25.1777319859
  0
SOLID
  8
___SYMBOL
 62
2
  6
CONTINUOUS
 10
8.3900342641
 20
25.1777319859
 11
8.4469580077
 21
25.1523879024
 12
8.1489014167
 22
25.1523879024
 13
8.1489014167
 23
25.1523879024
  0
SOLID
  8
___SYMBOL
 62
2
  6
CONTINUOUS
 10
8.0984909248
 20
25.1157625361
 11
8.1489014167
 21
25.1523879024
 12
8.4469580077
 22
25.1523879024
 13
8.4469580077
 23
25.1523879024
  0
SOLID
  8
___SYMBOL
 62
2
  6
CONTINUOUS
 10
8.4469580077
 20
25.1523879024
 11
8.4973684997
 21
25.1157625361
 12
8.0984909248
 22
25.1157625361
 13
8.0984909248
 23
25.1157625361
  0
SOLID
  8
___SYMBOL
 62
2
  6
CONTINUOUS
 10
8.0567968648
 20
25.0694565914
 11
8.0984909248
 21
25.1157625361
 12
8.4973684997
 22
25.1157625361
 13
8.4973684997
 23
25.1157625361
  0
SOLID
  8
___SYMBOL
 62
2
  6
CONTINUOUS
 10
8.4973684997
 20
25.1157625361
 11
8.5390625596
 21
25.0694565914
 12
8.0567968648
 22
25.0694565914
 13
8.0567968648
 23
25.0694565914
  0
SOLID
  8
___SYMBOL
 62
2
  6
CONTINUOUS
 10
8.2979297122
 20
25.0190327379
 11
8.0256414674
 21
25.0154938601
 12
8.5390625596
 22
25.0694565914
 13
8.5390625596
 23
25.0694565914
  0
SOLID
  8
___SYMBOL
 62
2
  6
CONTINUOUS
 10
8.0256414674
 20
25.0154938601
 11
8.0567968648
 21
25.0694565914
 12
8.5390625596
 22
25.0694565914
 13
8.5390625596
 23
25.0694565914
  0
SOLID
  8
___SYMBOL
 62
2
  6
CONTINUOUS
 10
8.5390625596
 20
25.0694565914
 11
8.570217957
 21
25.0154938601
 12
8.2979297122
 22
25.0190327379
 13
8.2979297122
 23
25.0190327379
  0
SOLID
  8
___SYMBOL
 62
2
  6
CONTINUOUS
 10
8.2979297122
 20
25.0190327379
 11
8.2593738426
 21
25.0129260881
 12
8.0256414674
 22
25.0154938601
 13
8.0256414674
 23
25.0154938601
  0
SOLID
  8
___SYMBOL
 62
2
  6
CONTINUOUS
 10
8.3364855819
 20
25.0129260881
 11
8.2979297122
 21
25.0190327379
 12
8.570217957
 22
25.0154938601
 13
8.570217957
 23
25.0154938601
  0
SOLID
  8
___SYMBOL
 62
2
  6
CONTINUOUS
 10
8.1969891351
 20
24.967600945
 11
8.0063863729
 21
24.9562327726
 12
8.2245920901
 22
24.9952039
 13
8.2245920901
 23
24.9952039
  0
SOLID
  8
___SYMBOL
 62
2
  6
CONTINUOUS
 10
8.2245920901
 20
24.9952039
 11
8.0063863729
 21
24.9562327726
 12
8.2593738426
 22
25.0129260881
 13
8.2593738426
 23
25.0129260881
  0
SOLID
  8
___SYMBOL
 62
2
  6
CONTINUOUS
 10
8.0063863729
 20
24.9562327726
 11
8.0256414674
 21
25.0154938601
 12
8.2593738426
 22
25.0129260881
 13
8.2593738426
 23
25.0129260881
  0
SOLID
  8
___SYMBOL
 62
2
  6
CONTINUOUS
 10
8.3364855819
 20
25.0129260881
 11
8.570217957
 21
25.0154938601
 12
8.3712673343
 22
24.9952039
 13
8.3712673343
 23
24.9952039
  0
SOLID
  8
___SYMBOL
 62
2
  6
CONTINUOUS
 10
8.3712673343
 20
24.9952039
 11
8.570217957
 21
25.0154938601
 12
8.3988702894
 22
24.967600945
 13
8.3988702894
 23
24.967600945
  0
SOLID
  8
___SYMBOL
 62
2
  6
CONTINUOUS
 10
8.570217957
 20
25.0154938601
 11
8.5894730516
 21
24.9562327726
 12
8.3988702894
 22
24.967600945
 13
8.3988702894
 23
24.967600945
  0
SOLID
  8
___SYMBOL
 62
2
  6
CONTINUOUS
 10
8.1969891351
 20
24.967600945
 11
8.179266947
 21
24.9328191925
 12
8.0063863729
 22
24.9562327726
 13
8.0063863729
 23
24.9562327726
  0
SOLID
  8
___SYMBOL
 62
2
  6
CONTINUOUS
 10
8.4165924775
 20
24.9328191925
 11
8.3988702894
 21
24.967600945
 12
8.5894730516
 22
24.9562327726
 13
8.5894730516
 23
24.9562327726
  0
SOLID
  8
___SYMBOL
 62
2
  6
CONTINUOUS
 10
7.9998731212
 20
24.8942633228
 11
8.0063863729
 21
24.9562327726
 12
8.179266947
 22
24.9328191925
 13
8.179266947
 23
24.9328191925
  0
SOLID
  8
___SYMBOL
 62
2
  6
CONTINUOUS
 10
8.179266947
 20
24.9328191925
 11
8.1731602972
 21
24.8942633228
 12
7.9998731212
 22
24.8942633228
 13
7.9998731212
 23
24.8942633228
  0
SOLID
  8
___SYMBOL
 62
2
  6
CONTINUOUS
 10
8.4165924775
 20
24.9328191925
 11
8.5894730516
 21
24.9562327726
 12
8.4226991273
 22
24.8942633228
 13
8.4226991273
 23
24.8942633228
  0
SOLID
  8
___SYMBOL
 62
2
  6
CONTINUOUS
 10
8.5894730516
 20
24.9562327726
 11
8.5959863032
 21
24.8942633228
 12
8.4226991273
 22
24.8942633228
 13
8.4226991273
 23
24.8942633228
  0
SOLID
  8
___SYMBOL
 62
2
  6
CONTINUOUS
 10
8.4165924775
 20
24.8557074532
 11
8.4226991273
 21
24.8942633228
 12
8.5959863032
 22
24.8942633228
 13
8.5959863032
 23
24.8942633228
  0
SOLID
  8
___SYMBOL
 62
2
  6
CONTINUOUS
 10
8.179266947
 20
24.8557074532
 11
8.0063863729
 21
24.832293873
 12
8.1731602972
 22
24.8942633228
 13
8.1731602972
 23
24.8942633228
  0
SOLID
  8
___SYMBOL
 62
2
  6
CONTINUOUS
 10
8.0063863729
 20
24.832293873
 11
7.9998731212
 21
24.8942633228
 12
8.1731602972
 22
24.8942633228
 13
8.1731602972
 23
24.8942633228
  0
SOLID
  8
___SYMBOL
 62
2
  6
CONTINUOUS
 10
8.5959863032
 20
24.8942633228
 11
8.5894730516
 21
24.832293873
 12
8.4165924775
 22
24.8557074532
 13
8.4165924775
 23
24.8557074532
  0
SOLID
  8
___SYMBOL
 62
2
  6
CONTINUOUS
 10
8.179266947
 20
24.8557074532
 11
8.1969891351
 21
24.8209257007
 12
8.0063863729
 22
24.832293873
 13
8.0063863729
 23
24.832293873
  0
SOLID
  8
___SYMBOL
 62
2
  6
CONTINUOUS
 10
8.3988702894
 20
24.8209257007
 11
8.4165924775
 21
24.8557074532
 12
8.5894730516
 22
24.832293873
 13
8.5894730516
 23
24.832293873
  0
SOLID
  8
___SYMBOL
 62
2
  6
CONTINUOUS
 10
8.2593738426
 20
24.7756005576
 11
8.0256414674
 21
24.7730327856
 12
8.2245920901
 22
24.7933227457
 13
8.2245920901
 23
24.7933227457
  0
SOLID
  8
___SYMBOL
 62
2
  6
CONTINUOUS
 10
8.2245920901
 20
24.7933227457
 11
8.0256414674
 21
24.7730327856
 12
8.1969891351
 22
24.8209257007
 13
8.1969891351
 23
24.8209257007
  0
SOLID
  8
___SYMBOL
 62
2
  6
CONTINUOUS
 10
8.0256414674
 20
24.7730327856
 11
8.0063863729
 21
24.832293873
 12
8.1969891351
 22
24.8209257007
 13
8.1969891351
 23
24.8209257007
  0
SOLID
  8
___SYMBOL
 62
2
  6
CONTINUOUS
 10
8.3988702894
 20
24.8209257007
 11
8.5894730516
 21
24.832293873
 12
8.3712673343
 22
24.7933227457
 13
8.3712673343
 23
24.7933227457
  0
SOLID
  8
___SYMBOL
 62
2
  6
CONTINUOUS
 10
8.3712673343
 20
24.7933227457
 11
8.5894730516
 21
24.832293873
 12
8.3364855819
 22
24.7756005576
 13
8.3364855819
 23
24.7756005576
  0
SOLID
  8
___SYMBOL
 62
2
  6
CONTINUOUS
 10
8.5894730516
 20
24.832293873
 11
8.570217957
 21
24.7730327856
 12
8.3364855819
 22
24.7756005576
 13
8.3364855819
 23
24.7756005576
  0
SOLID
  8
___SYMBOL
 62
2
  6
CONTINUOUS
 10
8.2593738426
 20
24.7756005576
 11
8.2979297122
 21
24.7694939078
 12
8.0256414674
 22
24.7730327856
 13
8.0256414674
 23
24.7730327856
  0
SOLID
  8
___SYMBOL
 62
2
  6
CONTINUOUS
 10
8.2979297122
 20
24.7694939078
 11
8.3364855819
 21
24.7756005576
 12
8.570217957
 22
24.7730327856
 13
8.570217957
 23
24.7730327856
  0
SOLID
  8
___SYMBOL
 62
2
  6
CONTINUOUS
 10
8.0567968648
 20
24.7190700543
 11
8.0256414674
 21
24.7730327856
 12
8.2979297122
 22
24.7694939078
 13
8.2979297122
 23
24.7694939078
  0
SOLID
  8
___SYMBOL
 62
2
  6
CONTINUOUS
 10
8.2979297122
 20
24.7694939078
 11
8.570217957
 21
24.7730327856
 12
8.0567968648
 22
24.7190700543
 13
8.0567968648
 23
24.7190700543
  0
SOLID
  8
___SYMBOL
 62
2
  6
CONTINUOUS
 10
8.570217957
 20
24.7730327856
 11
8.5390625596
 21
24.7190700543
 12
8.0567968648
 22
24.7190700543
 13
8.0567968648
 23
24.7190700543
  0
SOLID
  8
___SYMBOL
 62
2
  6
CONTINUOUS
 10
8.0984909248
 20
24.6727641095
 11
8.0567968648
 21
24.7190700543
 12
8.5390625596
 22
24.7190700543
 13
8.5390625596
 23
24.7190700543
  0
SOLID
  8
___SYMBOL
 62
2
  6
CONTINUOUS
 10
8.5390625596
 20
24.7190700543
 11
8.4973684997
 21
24.6727641095
 12
8.0984909248
 22
24.6727641095
 13
8.0984909248
 23
24.6727641095
  0
SOLID
  8
___SYMBOL
 62
2
  6
CONTINUOUS
 10
8.1489014167
 20
24.6361387433
 11
8.0984909248
 21
24.6727641095
 12
8.4973684997
 22
24.6727641095
 13
8.4973684997
 23
24.6727641095
  0
SOLID
  8
___SYMBOL
 62
2
  6
CONTINUOUS
 10
8.4973684997
 20
24.6727641095
 11
8.4469580077
 21
24.6361387433
 12
8.1489014167
 22
24.6361387433
 13
8.1489014167
 23
24.6361387433
  0
SOLID
  8
___SYMBOL
 62
2
  6
CONTINUOUS
 10
8.2058251603
 20
24.6107946598
 11
8.1489014167
 21
24.6361387433
 12
8.4469580077
 22
24.6361387433
 13
8.4469580077
 23
24.6361387433
  0
SOLID
  8
___SYMBOL
 62
2
  6
CONTINUOUS
 10
8.4469580077
 20
24.6361387433
 11
8.3900342641
 21
24.6107946598
 12
8.2058251603
 22
24.6107946598
 13
8.2058251603
 23
24.6107946598
  0
SOLID
  8
___SYMBOL
 62
2
  6
CONTINUOUS
 10
8.2667743148
 20
24.597839517
 11
8.2058251603
 21
24.6107946598
 12
8.3900342641
 22
24.6107946598
 13
8.3900342641
 23
24.6107946598
  0
SOLID
  8
___SYMBOL
 62
2
  6
CONTINUOUS
 10
8.3900342641
 20
24.6107946598
 11
8.3290851096
 21
24.597839517
 12
8.2667743148
 22
24.597839517
 13
8.2667743148
 23
24.597839517
  0
LINE
  8
___SYMBOL
 62
2
  6
CONTINUOUS
 10
9.0905657214
 20
25.1883413994
 11
9.0905657214
 21
24.60242775
  0
LINE
  8
___SYMBOL
 62
2
  6
CONTINUOUS
 10
9.0905657214
 20
24.60242775
 11
8.9258320416
 21
24.60242775
  0
LINE
  8
___SYMBOL
 62
2
  6
CONTINUOUS
 10
8.9258320416
 20
24.8307523598
 11
8.9258320416
 21
24.60242775
  0
LINE
  8
___SYMBOL
 62
2
  6
CONTINUOUS
 10
8.7778352305
 20
24.8307523598
 11
8.9258320416
 21
24.8307523598
  0
LINE
  8
___SYMBOL
 62
2
  6
CONTINUOUS
 10
8.7778352305
 20
24.8307523598
 11
8.7778352305
 21
24.60242775
  0
LINE
  8
___SYMBOL
 62
2
  6
CONTINUOUS
 10
8.7778352305
 20
24.60242775
 11
8.6131015506
 21
24.60242775
  0
LINE
  8
___SYMBOL
 62
2
  6
CONTINUOUS
 10
8.6131015506
 20
25.1883413994
 11
8.6131015506
 21
24.60242775
  0
LINE
  8
___SYMBOL
 62
2
  6
CONTINUOUS
 10
8.6131015506
 20
25.1883413994
 11
8.7778352305
 21
25.1883413994
  0
LINE
  8
___SYMBOL
 62
2
  6
CONTINUOUS
 10
8.7778352305
 20
25.1883413994
 11
8.7778352305
 21
24.9679576397
  0
LINE
  8
___SYMBOL
 62
2
  6
CONTINUOUS
 10
8.7778352305
 20
24.9679576397
 11
8.9258320416
 21
24.9679576397
  0
LINE
  8
___SYMBOL
 62
2
  6
CONTINUOUS
 10
8.9258320416
 20
25.1883413994
 11
8.9258320416
 21
24.9679576397
  0
LINE
  8
___SYMBOL
 62
2
  6
CONTINUOUS
 10
8.9258320416
 20
25.1883413994
 11
9.0905657214
 21
25.1883413994
  0
SOLID
  8
___SYMBOL
 62
2
  6
CONTINUOUS
 10
8.9258320416
 20
24.9679576397
 11
8.9258320416
 21
25.1883413994
 12
9.0905657214
 22
25.1883413994
 13
9.0905657214
 23
25.1883413994
  0
SOLID
  8
___SYMBOL
 62
2
  6
CONTINUOUS
 10
8.9258320416
 20
24.9679576397
 11
8.7778352305
 21
24.8307523598
 12
8.7778352305
 22
24.9679576397
 13
8.7778352305
 23
24.9679576397
  0
SOLID
  8
___SYMBOL
 62
2
  6
CONTINUOUS
 10
8.7778352305
 20
24.8307523598
 11
8.6131015506
 21
24.60242775
 12
8.7778352305
 22
24.9679576397
 13
8.7778352305
 23
24.9679576397
  0
SOLID
  8
___SYMBOL
 62
2
  6
CONTINUOUS
 10
8.7778352305
 20
24.9679576397
 11
8.6131015506
 21
24.60242775
 12
8.7778352305
 22
25.1883413994
 13
8.7778352305
 23
25.1883413994
  0
SOLID
  8
___SYMBOL
 62
2
  6
CONTINUOUS
 10
8.6131015506
 20
24.60242775
 11
8.6131015506
 21
25.1883413994
 12
8.7778352305
 22
25.1883413994
 13
8.7778352305
 23
25.1883413994
  0
SOLID
  8
___SYMBOL
 62
2
  6
CONTINUOUS
 10
8.7778352305
 20
24.8307523598
 11
8.7778352305
 21
24.60242775
 12
8.6131015506
 22
24.60242775
 13
8.6131015506
 23
24.60242775
  0
SOLID
  8
___SYMBOL
 62
2
  6
CONTINUOUS
 10
8.7778352305
 20
24.8307523598
 11
8.9258320416
 21
24.9679576397
 12
8.9258320416
 22
24.8307523598
 13
8.9258320416
 23
24.8307523598
  0
SOLID
  8
___SYMBOL
 62
2
  6
CONTINUOUS
 10
8.9258320416
 20
24.9679576397
 11
9.0905657214
 21
25.1883413994
 12
8.9258320416
 22
24.8307523598
 13
8.9258320416
 23
24.8307523598
  0
SOLID
  8
___SYMBOL
 62
2
  6
CONTINUOUS
 10
8.9258320416
 20
24.8307523598
 11
9.0905657214
 21
25.1883413994
 12
8.9258320416
 22
24.60242775
 13
8.9258320416
 23
24.60242775
  0
SOLID
  8
___SYMBOL
 62
2
  6
CONTINUOUS
 10
9.0905657214
 20
25.1883413994
 11
9.0905657214
 21
24.60242775
 12
8.9258320416
 22
24.60242775
 13
8.9258320416
 23
24.60242775
  0
LINE
  8
___SYMBOL
 62
2
  6
CONTINUOUS
 10
9.2856566284
 20
24.60242775
 11
9.4483406983
 21
24.60242775
  0
LINE
  8
___SYMBOL
 62
2
  6
CONTINUOUS
 10
9.2856566284
 20
24.60242775
 11
9.1356105656
 21
24.60242775
  0
LINE
  8
___SYMBOL
 62
2
  6
CONTINUOUS
 10
9.1356105656
 20
24.60242775
 11
9.1356105656
 21
25.1883413994
  0
LINE
  8
___SYMBOL
 62
2
  6
CONTINUOUS
 10
9.1356105656
 20
25.1883413994
 11
9.2856566284
 21
25.1883413994
  0
LINE
  8
___SYMBOL
 62
2
  6
CONTINUOUS
 10
9.2856566284
 20
25.1883413994
 11
9.2856566284
 21
24.7436545072
  0
LINE
  8
___SYMBOL
 62
2
  6
CONTINUOUS
 10
9.2856566284
 20
24.7436545072
 11
9.4483406983
 21
24.7436545072
  0
LINE
  8
___SYMBOL
 62
2
  6
CONTINUOUS
 10
9.4483406983
 20
24.7436545072
 11
9.4483406983
 21
24.60242775
  0
SOLID
  8
___SYMBOL
 62
2
  6
CONTINUOUS
 10
9.4483406983
 20
24.7436545072
 11
9.1356105656
 21
24.60242775
 12
9.2856566284
 22
24.7436545072
 13
9.2856566284
 23
24.7436545072
  0
SOLID
  8
___SYMBOL
 62
2
  6
CONTINUOUS
 10
9.2856566284
 20
24.7436545072
 11
9.1356105656
 21
24.60242775
 12
9.2856566284
 22
25.1883413994
 13
9.2856566284
 23
25.1883413994
  0
SOLID
  8
___SYMBOL
 62
2
  6
CONTINUOUS
 10
9.1356105656
 20
24.60242775
 11
9.1356105656
 21
25.1883413994
 12
9.2856566284
 22
25.1883413994
 13
9.2856566284
 23
25.1883413994
  0
SOLID
  8
___SYMBOL
 62
2
  6
CONTINUOUS
 10
9.1356105656
 20
24.60242775
 11
9.4483406983
 21
24.7436545072
 12
9.2856566284
 22
24.60242775
 13
9.2856566284
 23
24.60242775
  0
SOLID
  8
___SYMBOL
 62
2
  6
CONTINUOUS
 10
9.4483406983
 20
24.7436545072
 11
9.4483406983
 21
24.60242775
 12
9.2856566284
 22
24.60242775
 13
9.2856566284
 23
24.60242775
  0
LINE
  8
___SYMBOL
 62
2
  6
CONTINUOUS
 10
9.7865926124
 20
24.8235760382
 11
9.7865926124
 21
24.9679576397
  0
LINE
  8
___SYMBOL
 62
2
  6
CONTINUOUS
 10
9.635735089
 20
24.9679576397
 11
9.7865926124
 21
24.9679576397
  0
LINE
  8
___SYMBOL
 62
2
  6
CONTINUOUS
 10
9.635735089
 20
25.0455820026
 11
9.635735089
 21
24.9679576397
  0
LINE
  8
___SYMBOL
 62
2
  6
CONTINUOUS
 10
9.635735089
 20
25.0455820026
 11
9.7865926124
 21
25.0455820026
  0
LINE
  8
___SYMBOL
 62
2
  6
CONTINUOUS
 10
9.7865926124
 20
25.0455820026
 11
9.7865926124
 21
25.1883413994
  0
LINE
  8
___SYMBOL
 62
2
  6
CONTINUOUS
 10
9.6499394123
 20
25.1883413994
 11
9.7865926124
 21
25.1883413994
  0
LINE
  8
___SYMBOL
 62
2
  6
CONTINUOUS
 10
9.477488437
 20
25.1883413994
 11
9.6499394123
 21
25.1883413994
  0
LINE
  8
___SYMBOL
 62
2
  6
CONTINUOUS
 10
9.477488437
 20
24.60242775
 11
9.477488437
 21
25.1883413994
  0
LINE
  8
___SYMBOL
 62
2
  6
CONTINUOUS
 10
9.477488437
 20
24.60242775
 11
9.7865926124
 21
24.60242775
  0
LINE
  8
___SYMBOL
 62
2
  6
CONTINUOUS
 10
9.7865926124
 20
24.60242775
 11
9.7865926124
 21
24.7436545072
  0
LINE
  8
___SYMBOL
 62
2
  6
CONTINUOUS
 10
9.635735089
 20
24.7436545072
 11
9.7865926124
 21
24.7436545072
  0
LINE
  8
___SYMBOL
 62
2
  6
CONTINUOUS
 10
9.635735089
 20
24.8235760382
 11
9.635735089
 21
24.7436545072
  0
LINE
  8
___SYMBOL
 62
2
  6
CONTINUOUS
 10
9.635735089
 20
24.8235760382
 11
9.7865926124
 21
24.8235760382
  0
SOLID
  8
___SYMBOL
 62
2
  6
CONTINUOUS
 10
9.7865926124
 20
25.1883413994
 11
9.7865926124
 21
25.0455820026
 12
9.635735089
 22
25.0455820026
 13
9.635735089
 23
25.0455820026
  0
SOLID
  8
___SYMBOL
 62
2
  6
CONTINUOUS
 10
9.7865926124
 20
24.9679576397
 11
9.7865926124
 21
24.8235760382
 12
9.635735089
 22
24.8235760382
 13
9.635735089
 23
24.8235760382
  0
SOLID
  8
___SYMBOL
 62
2
  6
CONTINUOUS
 10
9.7865926124
 20
24.7436545072
 11
9.477488437
 21
24.60242775
 12
9.635735089
 22
24.7436545072
 13
9.635735089
 23
24.7436545072
  0
SOLID
  8
___SYMBOL
 62
2
  6
CONTINUOUS
 10
9.635735089
 20
24.7436545072
 11
9.477488437
 21
24.60242775
 12
9.635735089
 22
24.8235760382
 13
9.635735089
 23
24.8235760382
  0
SOLID
  8
___SYMBOL
 62
2
  6
CONTINUOUS
 10
9.7865926124
 20
24.9679576397
 11
9.635735089
 21
24.8235760382
 12
9.635735089
 22
24.9679576397
 13
9.635735089
 23
24.9679576397
  0
SOLID
  8
___SYMBOL
 62
2
  6
CONTINUOUS
 10
9.635735089
 20
24.8235760382
 11
9.477488437
 21
24.60242775
 12
9.635735089
 22
24.9679576397
 13
9.635735089
 23
24.9679576397
  0
SOLID
  8
___SYMBOL
 62
2
  6
CONTINUOUS
 10
9.635735089
 20
24.9679576397
 11
9.477488437
 21
24.60242775
 12
9.635735089
 22
25.0455820026
 13
9.635735089
 23
25.0455820026
  0
SOLID
  8
___SYMBOL
 62
2
  6
CONTINUOUS
 10
9.7865926124
 20
25.1883413994
 11
9.635735089
 21
25.0455820026
 12
9.6499394123
 22
25.1883413994
 13
9.6499394123
 23
25.1883413994
  0
SOLID
  8
___SYMBOL
 62
2
  6
CONTINUOUS
 10
9.635735089
 20
25.0455820026
 11
9.477488437
 21
24.60242775
 12
9.6499394123
 22
25.1883413994
 13
9.6499394123
 23
25.1883413994
  0
SOLID
  8
___SYMBOL
 62
2
  6
CONTINUOUS
 10
9.477488437
 20
24.60242775
 11
9.477488437
 21
25.1883413994
 12
9.6499394123
 22
25.1883413994
 13
9.6499394123
 23
25.1883413994
  0
SOLID
  8
___SYMBOL
 62
2
  6
CONTINUOUS
 10
9.7865926124
 20
24.7436545072
 11
9.7865926124
 21
24.60242775
 12
9.477488437
 22
24.60242775
 13
9.477488437
 23
24.60242775
  0
LINE
  8
___SYMBOL
 62
2
  6
CONTINUOUS
 10
10.2968430183
 20
24.60242775
 11
10.1373997754
 21
24.8540102913
  0
ARC
  8
___SYMBOL
 62
2
  6
CONTINUOUS
 10
10.0649605277
 20
25.0133318887
 40
0.1750166163
 50
294.4500166359
 51
90.0
  0
LINE
  8
___SYMBOL
 62
2
  6
CONTINUOUS
 10
9.8314128271
 20
25.1883413994
 11
10.0649605277
 21
25.1883413994
  0
LINE
  8
___SYMBOL
 62
2
  6
CONTINUOUS
 10
9.8314128271
 20
24.60242775
 11
9.8314128271
 21
25.1883413994
  0
LINE
  8
___SYMBOL
 62
2
  6
CONTINUOUS
 10
9.8314128271
 20
24.60242775
 11
9.9820686496
 21
24.60242775
  0
LINE
  8
___SYMBOL
 62
2
  6
CONTINUOUS
 10
9.9820686496
 20
24.7993841208
 11
9.9820686496
 21
24.60242775
  0
LINE
  8
___SYMBOL
 62
2
  6
CONTINUOUS
 10
10.1068920788
 20
24.60242775
 11
9.9820686496
 21
24.7993841208
  0
LINE
  8
___SYMBOL
 62
2
  6
CONTINUOUS
 10
10.1068920788
 20
24.60242775
 11
10.2968430183
 21
24.60242775
  0
LINE
  8
___SYMBOL
 62
2
  6
CONTINUOUS
 10
9.9820686496
 20
24.9386594315
 11
10.0344083998
 21
24.9386594315
  0
ARC
  8
___SYMBOL
 62
2
  6
CONTINUOUS
 10
10.0379984291
 20
24.992150831
 40
0.053611735
 50
266.1604009902
 51
89.9998910512
  0
LINE
  8
___SYMBOL
 62
2
  6
CONTINUOUS
 10
10.0379985311
 20
25.045762566
 11
9.9820686496
 21
25.045762566
  0
LINE
  8
___SYMBOL
 62
2
  6
CONTINUOUS
 10
9.9820686496
 20
25.045762566
 11
9.9820686496
 21
24.9386594315
  0
SOLID
  8
___SYMBOL
 62
2
  6
CONTINUOUS
 10
10.0649605277
 20
25.188348505
 11
10.1118935512
 21
25.1819382566
 12
9.8314128271
 22
25.1883413994
 13
9.8314128271
 23
25.1883413994
  0
SOLID
  8
___SYMBOL
 62
2
  6
CONTINUOUS
 10
9.9820686496
 20
25.045762566
 11
10.2360083907
 21
25.0503919016
 12
10.0379985311
 22
25.045762566
 13
10.0379985311
 23
25.045762566
  0
SOLID
  8
___SYMBOL
 62
2
  6
CONTINUOUS
 10
10.0379985311
 20
25.045762566
 11
10.2360083907
 21
25.0503919016
 12
10.0617211127
 22
25.0402283977
 13
10.0617211127
 23
25.0402283977
  0
SOLID
  8
___SYMBOL
 62
2
  6
CONTINUOUS
 10
10.0617211127
 20
25.0402283977
 11
10.2360083907
 21
25.0503919016
 12
10.0805461003
 22
25.0247685227
 13
10.0805461003
 23
25.0247685227
  0
SOLID
  8
___SYMBOL
 62
2
  6
CONTINUOUS
 10
10.2360083907
 20
25.0503919016
 11
10.2396816371
 21
25.0031657727
 12
10.0805461003
 22
25.0247685227
 13
10.0805461003
 23
25.0247685227
  0
SOLID
  8
___SYMBOL
 62
2
  6
CONTINUOUS
 10
10.0905870389
 20
25.0025746621
 11
10.0805461003
 21
25.0247685227
 12
10.2396816371
 22
25.0031657727
 13
10.2396816371
 23
25.0031657727
  0
SOLID
  8
___SYMBOL
 62
2
  6
CONTINUOUS
 10
10.0905870389
 20
25.0025746621
 11
10.2396816371
 21
25.0031657727
 12
10.0897709572
 22
24.9782287813
 13
10.0897709572
 23
24.9782287813
  0
SOLID
  8
___SYMBOL
 62
2
  6
CONTINUOUS
 10
10.0897709572
 20
24.9782287813
 11
10.2396816371
 21
25.0031657727
 12
10.0782663369
 22
24.9567571347
 13
10.0782663369
 23
24.9567571347
  0
SOLID
  8
___SYMBOL
 62
2
  6
CONTINUOUS
 10
10.2396816371
 20
25.0031657727
 11
10.2305560335
 21
24.9566843427
 12
10.0782663369
 22
24.9567571347
 13
10.0782663369
 23
24.9567571347
  0
SOLID
  8
___SYMBOL
 62
2
  6
CONTINUOUS
 10
10.0584483291
 20
24.9425925853
 11
10.0782663369
 21
24.9567571347
 12
10.2305560335
 22
24.9566843427
 13
10.2305560335
 23
24.9566843427
  0
SOLID
  8
___SYMBOL
 62
2
  6
CONTINUOUS
 10
10.0584483291
 20
24.9425925853
 11
10.2305560335
 21
24.9566843427
 12
10.0344083998
 22
24.9386594315
 13
10.0344083998
 23
24.9386594315
  0
SOLID
  8
___SYMBOL
 62
2
  6
CONTINUOUS
 10
10.2305560335
 20
24.9566843427
 11
10.2093000578
 21
24.9143525168
 12
10.0344083998
 22
24.9386594315
 13
10.0344083998
 23
24.9386594315
  0
SOLID
  8
___SYMBOL
 62
2
  6
CONTINUOUS
 10
10.1373997754
 20
24.8540102913
 11
9.9820686496
 21
24.7993841208
 12
10.1774707746
 22
24.8792712295
 13
10.1774707746
 23
24.8792712295
  0
SOLID
  8
___SYMBOL
 62
2
  6
CONTINUOUS
 10
10.1774707746
 20
24.8792712295
 11
9.9820686496
 21
24.7993841208
 12
10.2093000578
 22
24.9143525168
 13
10.2093000578
 23
24.9143525168
  0
SOLID
  8
___SYMBOL
 62
2
  6
CONTINUOUS
 10
10.2093000578
 20
24.9143525168
 11
9.9820686496
 21
24.7993841208
 12
10.0344083998
 22
24.9386594315
 13
10.0344083998
 23
24.9386594315
  0
SOLID
  8
___SYMBOL
 62
2
  6
CONTINUOUS
 10
9.9820686496
 20
24.7993841208
 11
9.8314128271
 21
24.60242775
 12
10.0344083998
 22
24.9386594315
 13
10.0344083998
 23
24.9386594315
  0
SOLID
  8
___SYMBOL
 62
2
  6
CONTINUOUS
 10
10.0344083998
 20
24.9386594315
 11
9.8314128271
 21
24.60242775
 12
9.9820686496
 22
24.9386594315
 13
9.9820686496
 23
24.9386594315
  0
SOLID
  8
___SYMBOL
 62
2
  6
CONTINUOUS
 10
9.9820686496
 20
24.9386594315
 11
9.8314128271
 21
24.60242775
 12
9.9820686496
 22
25.045762566
 13
9.9820686496
 23
25.045762566
  0
SOLID
  8
___SYMBOL
 62
2
  6
CONTINUOUS
 10
10.2360083907
 20
25.0503919016
 11
9.9820686496
 21
25.045762566
 12
10.2198053706
 22
25.0949032723
 13
10.2198053706
 23
25.0949032723
  0
SOLID
  8
___SYMBOL
 62
2
  6
CONTINUOUS
 10
10.2198053706
 20
25.0949032723
 11
9.9820686496
 21
25.045762566
 12
10.1922594971
 22
25.1334392922
 13
10.1922594971
 23
25.1334392922
  0
SOLID
  8
___SYMBOL
 62
2
  6
CONTINUOUS
 10
10.1922594971
 20
25.1334392922
 11
9.9820686496
 21
25.045762566
 12
10.1553885887
 22
25.1631770813
 13
10.1553885887
 23
25.1631770813
  0
SOLID
  8
___SYMBOL
 62
2
  6
CONTINUOUS
 10
10.1553885887
 20
25.1631770813
 11
9.9820686496
 21
25.045762566
 12
10.1118935512
 22
25.1819382566
 13
10.1118935512
 23
25.1819382566
  0
SOLID
  8
___SYMBOL
 62
2
  6
CONTINUOUS
 10
10.1118935512
 20
25.1819382566
 11
9.9820686496
 21
25.045762566
 12
9.8314128271
 22
25.1883413994
 13
9.8314128271
 23
25.1883413994
  0
SOLID
  8
___SYMBOL
 62
2
  6
CONTINUOUS
 10
9.8314128271
 20
24.60242775
 11
9.8314128271
 21
25.1883413994
 12
9.9820686496
 22
25.045762566
 13
9.9820686496
 23
25.045762566
  0
SOLID
  8
___SYMBOL
 62
2
  6
CONTINUOUS
 10
9.9820686496
 20
24.7993841208
 11
9.9820686496
 21
24.60242775
 12
9.8314128271
 22
24.60242775
 13
9.8314128271
 23
24.60242775
  0
SOLID
  8
___SYMBOL
 62
2
  6
CONTINUOUS
 10
9.9820686496
 20
24.7993841208
 11
10.1373997754
 21
24.8540102913
 12
10.1068920788
 22
24.60242775
 13
10.1068920788
 23
24.60242775
  0
SOLID
  8
___SYMBOL
 62
2
  6
CONTINUOUS
 10
10.1373997754
 20
24.8540102913
 11
10.2968430183
 21
24.60242775
 12
10.1068920788
 22
24.60242775
 13
10.1068920788
 23
24.60242775
  0
CIRCLE
  8
___SYMBOL
 62
2
  6
CONTINUOUS
 10
10.437612993
 20
24.60242775
 40
0.0653578721
  0
LINE
  8
___SYMBOL
 62
2
  6
CONTINUOUS
 10
10.4333249697
 20
24.6018900006
 11
10.4651929825
 21
24.5695870592
  0
LINE
  8
___SYMBOL
 62
2
  6
CONTINUOUS
 10
10.4217269936
 20
24.5695870592
 11
10.4217269936
 21
24.6355532581
  0
LINE
  8
___SYMBOL
 62
2
  6
CONTINUOUS
 10
10.4217269936
 20
24.6355532581
 11
10.4460063265
 21
24.6355532581
  0
ARC
  8
___SYMBOL
 62
2
  6
CONTINUOUS
 10
10.4460063265
 20
24.6187218085
 40
0.0168314496
 50
270.0
 51
90.0
  0
LINE
  8
___SYMBOL
 62
2
  6
CONTINUOUS
 10
10.4460063265
 20
24.6018900006
 11
10.4217269936
 21
24.6018900006
  0
ENDBLK
  8
0
  6
BYBLOCK
 62
0
  0
BLOCK
  8
___SYMBOL
 62
2
  6
CONTINUOUS
  2
SYMBOL_10_BL1
 70
64
 10
30.115300687
 20
13.5118771872
  0
TEXT
  8
___SYMBOL
 62
2
  6
CONTINUOUS
 10
26.802800687
 20
14.7228146872
  7
STANDARD
 40
0.15625
  1
WHEN PLOTTING TEMPLATE FULL SIZE:
 41
0.8
 72
0
  0
TEXT
  8
___SYMBOL
 62
2
  6
CONTINUOUS
 10
26.802800687
 20
14.4884396872
  7
STANDARD
 40
0.15625
  1
Make sure horizontal and vertical dimensions
 41
0.8
 72
0
  0
TEXT
  8
___SYMBOL
 62
2
  6
CONTINUOUS
 10
26.802800687
 20
14.2540646872
  7
STANDARD
 40
0.15625
  1
match the dimensions labeled on the template.
 41
0.8
 72
0
  0
TEXT
  8
___SYMBOL
 62
2
  6
CONTINUOUS
 10
26.802800687
 20
14.0196896872
  7
STANDARD
 40
0.15625
  1
 
 41
0.8
 72
0
  0
TEXT
  8
___SYMBOL
 62
2
  6
CONTINUOUS
 10
26.802800687
 20
13.7853146872
  7
STANDARD
 40
0.15625
  1
AL TRAZAR LA PLANTILLA A ESCALA,
 41
0.8
 72
0
  0
TEXT
  8
___SYMBOL
 62
2
  6
CONTINUOUS
 10
26.802800687
 20
13.5509396872
  7
STANDARD
 40
0.15625
  1
asegúrese de que las dimensiones horizontales
 41
0.8
 72
0
  0
TEXT
  8
___SYMBOL
 62
2
  6
CONTINUOUS
 10
26.802800687
 20
13.3165646872
  7
STANDARD
 40
0.15625
  1
y verticales concuerden con las dimensiones marcadas
 41
0.8
 72
0
  0
TEXT
  8
___SYMBOL
 62
2
  6
CONTINUOUS
 10
26.802800687
 20
13.0821896872
  7
STANDARD
 40
0.15625
  1
en la plantilla.
 41
0.8
 72
0
  0
TEXT
  8
___SYMBOL
 62
2
  6
CONTINUOUS
 10
26.802800687
 20
12.8478146872
  7
STANDARD
 40
0.15625
  1
 
 41
0.8
 72
0
  0
TEXT
  8
___SYMBOL
 62
2
  6
CONTINUOUS
 10
26.802800687
 20
12.6134396872
  7
STANDARD
 40
0.15625
  1
AU MOMENT DE TRACER LA DÉCOUPE À L'ÉCHELLE,
 41
0.8
 72
0
  0
TEXT
  8
___SYMBOL
 62
2
  6
CONTINUOUS
 10
26.802800687
 20
12.3790646872
  7
STANDARD
 40
0.15625
  1
Assurez vos que les dimensions horizotales et
 41
0.8
 72
0
  0
TEXT
  8
___SYMBOL
 62
2
  6
CONTINUOUS
 10
26.802800687
 20
12.1446896872
  7
STANDARD
 40
0.15625
  1
verticales correspondent avec les dimensions du plan.
 41
0.8
 72
0
  0
ENDBLK
  8
0
  6
BYBLOCK
 62
0
  0
BLOCK
  8
___SYMBOL
 62
2
  6
CONTINUOUS
  2
SYMBOL_6_BL0
 70
64
 10
35.3116085104
 20
9.335111426
  0
TEXT
  8
___SYMBOL
 62
2
  6
CONTINUOUS
 10
34.9379168848
 20
9.2998378013
  7
STANDARD
 40
0.0705
  1
2009 KOHLER CO.
 41
0.8
 72
0
  0
TEXT
  8
___SYMBOL
 62
7
  6
CONTINUOUS
 10
34.8578911358
 20
9.3163228015
  7
TEXTSTYLE_2
 40
0.0421874995
  1
C
 41
1.0
 72
0
  0
CIRCLE
  8
___SYMBOL
 62
7
  6
CONTINUOUS
 10
34.8721261356
 20
9.3375590512
 40
0.0328259996
  0
ENDBLK
  8
0
  6
BYBLOCK
 62
0
  0
BLOCK
  8
0
  2
_FILLED
 70
64
 10
0.0
 20
0.0
  0
SOLID
  8
0
  6
BYBLOCK
 62
0
 10
0.0
 20
0.0
 11
-1.0
 21
0.1666666667
 12
-1.0
 22
-0.1666666667
 13
-1.0
 23
-0.1666666667
  0
ENDBLK
  8
0
  6
BYBLOCK
 62
0
  0
BLOCK
  8
0
 62
2
  6
CONTINUOUS
  2
*D0
 70
65
 10
0.0
 20
0.0
  0
TEXT
  8
0
 62
2
  6
CONTINUOUS
 10
17.865754386
 20
17.2902753052
  7
STANDARD
 40
0.15625
  1
16-9/16
 41
0.8
 72
1
 11
18.303254386
 21
17.2902753052
  0
TEXT
  8
0
 62
2
  6
CONTINUOUS
 10
18.740754386
 20
17.2902753052
  7
STANDARD
 40
0.15625
  1
"
 41
0.8
 72
1
 11
18.803254386
 21
17.2902753052
  0
TEXT
  8
0
 62
2
  6
CONTINUOUS
 10
17.740754386
 20
17.0559003052
  7
STANDARD
 40
0.15625
  1
[42,07 cm]
 41
0.8
 72
1
 11
18.365754386
 21
17.0559003052
  0
TEXT
  8
0
 62
2
  6
CONTINUOUS
 10
17.553254386
 20
16.8215253052
  7
STANDARD
 40
0.15625
  1
UNDER COUNTER
 41
0.8
 72
1
 11
18.365754386
 21
16.8215253052
  0
LINE
  8
0
 62
2
  6
CONTINUOUS
 10
18.240754386
 20
25.6434003052
 11
18.6257728532
 21
25.6434003052
  0
LINE
  8
0
 62
2
  6
CONTINUOUS
 10
18.240754386
 20
9.0934003052
 11
18.528265928
 21
9.0934003052
  0
LINE
  8
0
 62
2
  6
CONTINUOUS
 10
18.365754386
 20
25.6434003052
 11
18.365754386
 21
17.5246503052
  0
LINE
  8
0
 62
2
  6
CONTINUOUS
 10
18.365754386
 20
9.0934003052
 11
18.365754386
 21
16.7434003052
  0
INSERT
  8
0
 62
2
  6
CONTINUOUS
  2
_FILLED
 10
18.365754386
 20
25.6434003052
 41
0.1875
 42
0.1875
 43
0.1875
 50
90.0
  0
INSERT
  8
0
 62
2
  6
CONTINUOUS
  2
_FILLED
 10
18.365754386
 20
9.0934003052
 41
0.1875
 42
0.1875
 43
0.1875
 50
270.0
  0
ENDBLK
  8
0
  6
BYBLOCK
 62
0
  0
BLOCK
  8
0
 62
2
  6
CONTINUOUS
  2
*D1
 70
65
 10
0.0
 20
0.0
  0
TEXT
  8
0
 62
2
  6
CONTINUOUS
 10
15.9023571973
 20
18.0804197864
  7
STANDARD
 40
0.15625
  1
30-1/4
 41
0.8
 72
1
 11
16.2773571973
 21
18.0804197864
  0
TEXT
  8
0
 62
2
  6
CONTINUOUS
 10
16.6523571973
 20
18.0804197864
  7
STANDARD
 40
0.15625
  1
"
 41
0.8
 72
1
 11
16.7148571973
 21
18.0804197864
  0
TEXT
  8
0
 62
2
  6
CONTINUOUS
 10
15.7148571973
 20
17.8460447864
  7
STANDARD
 40
0.15625
  1
[76,84 cm]
 41
0.8
 72
1
 11
16.3398571973
 21
17.8460447864
  0
TEXT
  8
0
 62
2
  6
CONTINUOUS
 10
15.5273571973
 20
17.6116697864
  7
STANDARD
 40
0.15625
  1
UNDER COUNTER
 41
0.8
 72
1
 11
16.3398571973
 21
17.6116697864
  0
LINE
  8
0
 62
2
  6
CONTINUOUS
 10
36.6340284842
 20
18.0260737596
 11
36.6340284842
 21
18.2835447864
  0
LINE
  8
0
 62
2
  6
CONTINUOUS
 10
6.3840284842
 20
18.0248113699
 11
6.3840284842
 21
18.2835447864
  0
LINE
  8
0
 62
2
  6
CONTINUOUS
 10
36.6340284842
 20
18.1585447864
 11
17.2304821973
 21
18.1585447864
  0
LINE
  8
0
 62
2
  6
CONTINUOUS
 10
6.3840284842
 20
18.1585447864
 11
15.4492321973
 21
18.1585447864
  0
INSERT
  8
0
 62
2
  6
CONTINUOUS
  2
_FILLED
 10
36.6340284842
 20
18.1585447864
 41
0.1875
 42
0.1875
 43
0.1875
  0
INSERT
  8
0
 62
2
  6
CONTINUOUS
  2
_FILLED
 10
6.3840284842
 20
18.1585447864
 41
0.1875
 42
0.1875
 43
0.1875
 50
180.0
  0
ENDBLK
  8
0
  6
BYBLOCK
 62
0
  0
BLOCK
  8
0
 62
2
  6
CONTINUOUS
  2
*D2
 70
65
 10
0.0
 20
0.0
  0
TEXT
  8
0
 62
2
  6
CONTINUOUS
 10
35.7098954249
 20
14.8466513608
  7
STANDARD
 40
0.15625
  1
1/4
 41
0.8
 72
2
 11
36.0848954249
 21
14.8466513608
  0
TEXT
  8
0
 62
2
  6
CONTINUOUS
 10
36.0848954249
 20
14.8466513608
  7
STANDARD
 40
0.15625
  1
"
 41
0.8
 72
2
 11
36.2098954249
 21
14.8466513608
  0
TEXT
  8
0
 62
2
  6
CONTINUOUS
 10
34.9598954249
 20
14.6122763608
  7
STANDARD
 40
0.15625
  1
(0, 64 cm)
 41
0.8
 72
2
 11
36.2098954249
 21
14.6122763608
  0
LINE
  8
0
 62
2
  6
CONTINUOUS
 10
38.0090284842
 20
15.1487040441
 11
38.0090284842
 21
14.7997763608
  0
LINE
  8
0
 62
2
  6
CONTINUOUS
 10
37.7590284842
 20
15.0969393382
 11
37.7590284842
 21
14.7997763608
  0
LINE
  8
0
 62
2
  6
CONTINUOUS
 10
38.0090284842
 20
14.9247763608
 11
38.5090284842
 21
14.9247763608
  0
LINE
  8
0
 62
2
  6
CONTINUOUS
 10
37.7590284842
 20
14.9247763608
 11
36.2880204249
 21
14.9247763608
  0
INSERT
  8
0
 62
2
  6
CONTINUOUS
  2
_FILLED
 10
38.0090284842
 20
14.9247763608
 41
0.1875
 42
0.1875
 43
0.1875
 50
180.0
  0
INSERT
  8
0
 62
2
  6
CONTINUOUS
  2
_FILLED
 10
37.7590284842
 20
14.9247763608
 41
0.1875
 42
0.1875
 43
0.1875
  0
ENDBLK
  8
0
  6
BYBLOCK
 62
0
  0
BLOCK
  8
0
 62
2
  6
CONTINUOUS
  2
*D3
 70
65
 10
0.0
 20
0.0
  0
TEXT
  8
0
 62
2
  6
CONTINUOUS
 10
35.6352088515
 20
28.5504327455
  7
STANDARD
 40
0.15625
  1
4X 
 41
0.8
 72
2
 11
36.0102088515
 21
28.5504327455
  0
TEXT
  8
0
 62
2
  6
CONTINUOUS
 10
36.0102088515
 20
28.5504327455
  7
STANDARD
 40
0.15625
  1
R
 41
0.8
 72
2
 11
36.1352088515
 21
28.5504327455
  0
TEXT
  8
0
 62
2
  6
CONTINUOUS
 10
36.1352088515
 20
28.5504327455
  7
STANDARD
 40
0.15625
  1
1/2
 41
0.8
 72
2
 11
36.5102088515
 21
28.5504327455
  0
TEXT
  8
0
 62
2
  6
CONTINUOUS
 10
36.5102088515
 20
28.5504327455
  7
STANDARD
 40
0.15625
  1
"
 41
0.8
 72
2
 11
36.6352088515
 21
28.5504327455
  0
TEXT
  8
0
 62
2
  6
CONTINUOUS
 10
35.5102088515
 20
28.3160577455
  7
STANDARD
 40
0.15625
  1
(1,27 cm)
 41
0.8
 72
2
 11
36.6352088515
 21
28.3160577455
  0
LINE
  8
0
 62
2
  6
CONTINUOUS
 10
37.6289953042
 20
29.3047402405
 11
36.8852088515
 21
28.6285577455
  0
LINE
  8
0
 62
2
  6
CONTINUOUS
 10
36.8852088515
 20
28.6285577455
 11
36.7133338515
 21
28.6285577455
  0
INSERT
  8
0
 62
2
  6
CONTINUOUS
  2
_FILLED
 10
37.6289953042
 20
29.3047402405
 41
0.1875
 42
0.1875
 43
0.1875
 50
42.2742369786
  0
ENDBLK
  8
0
  6
BYBLOCK
 62
0
  0
BLOCK
  8
0
 62
2
  6
CONTINUOUS
  2
*D4
 70
65
 10
0.0
 20
0.0
  0
TEXT
  8
0
 62
2
  6
CONTINUOUS
 10
13.5418222658
 20
17.2855728398
  7
STANDARD
 40
0.15625
  1
21-1/2
 41
0.8
 72
1
 11
13.9168222658
 21
17.2855728398
  0
TEXT
  8
0
 62
2
  6
CONTINUOUS
 10
14.2918222658
 20
17.2855728398
  7
STANDARD
 40
0.15625
  1
"
 41
0.8
 72
1
 11
14.3543222658
 21
17.2855728398
  0
TEXT
  8
0
 62
2
  6
CONTINUOUS
 10
13.3543222658
 20
17.0511978398
  7
STANDARD
 40
0.15625
  1
(54,61 cm)
 41
0.8
 72
1
 11
13.9793222658
 21
17.0511978398
  0
TEXT
  8
0
 62
2
  6
CONTINUOUS
 10
13.2293222658
 20
16.8168228398
  7
STANDARD
 40
0.15625
  1
SELF RIMMING
 41
0.8
 72
1
 11
13.9793222658
 21
16.8168228398
  0
LINE
  8
0
 62
2
  6
CONTINUOUS
 10
13.8543222658
 20
29.4684003052
 11
14.1872576177
 21
29.4684003052
  0
LINE
  8
0
 62
2
  6
CONTINUOUS
 10
13.8543222658
 20
7.9684003052
 11
14.1872576177
 21
7.9684003052
  0
LINE
  8
0
 62
2
  6
CONTINUOUS
 10
13.9793222658
 20
29.4684003052
 11
13.9793222658
 21
17.5199478398
  0
LINE
  8
0
 62
2
  6
CONTINUOUS
 10
13.9793222658
 20
7.9684003052
 11
13.9793222658
 21
16.7386978398
  0
INSERT
  8
0
 62
2
  6
CONTINUOUS
  2
_FILLED
 10
13.9793222658
 20
29.4684003052
 41
0.1875
 42
0.1875
 43
0.1875
 50
90.0
  0
INSERT
  8
0
 62
2
  6
CONTINUOUS
  2
_FILLED
 10
13.9793222658
 20
7.9684003052
 41
0.1875
 42
0.1875
 43
0.1875
 50
270.0
  0
ENDBLK
  8
0
  6
BYBLOCK
 62
0
  0
BLOCK
  8
0
 62
2
  6
CONTINUOUS
  2
*D5
 70
65
 10
0.0
 20
0.0
  0
TEXT
  8
0
 62
2
  6
CONTINUOUS
 10
15.5981645684
 20
16.0292896067
  7
STANDARD
 40
0.15625
  1
32-1/2
 41
0.8
 72
1
 11
15.9731645684
 21
16.0292896067
  0
TEXT
  8
0
 62
2
  6
CONTINUOUS
 10
16.3481645684
 20
16.0292896067
  7
STANDARD
 40
0.15625
  1
"
 41
0.8
 72
1
 11
16.4106645684
 21
16.0292896067
  0
TEXT
  8
0
 62
2
  6
CONTINUOUS
 10
15.4106645684
 20
15.7949146067
  7
STANDARD
 40
0.15625
  1
(82,55 cm)
 41
0.8
 72
1
 11
16.0356645684
 21
15.7949146067
  0
TEXT
  8
0
 62
2
  6
CONTINUOUS
 10
15.2856645684
 20
15.5605396067
  7
STANDARD
 40
0.15625
  1
SELF RIMMING
 41
0.8
 72
1
 11
16.0356645684
 21
15.5605396067
  0
LINE
  8
0
 62
2
  6
CONTINUOUS
 10
37.7590284842
 20
15.9824146067
 11
37.7590284842
 21
16.2197733112
  0
LINE
  8
0
 62
2
  6
CONTINUOUS
 10
5.2590284842
 20
15.9824146067
 11
5.2590284842
 21
16.3672016482
  0
LINE
  8
0
 62
2
  6
CONTINUOUS
 10
37.7590284842
 20
16.1074146067
 11
16.8637895684
 21
16.1074146067
  0
LINE
  8
0
 62
2
  6
CONTINUOUS
 10
5.2590284842
 20
16.1074146067
 11
15.2075395684
 21
16.1074146067
  0
INSERT
  8
0
 62
2
  6
CONTINUOUS
  2
_FILLED
 10
37.7590284842
 20
16.1074146067
 41
0.1875
 42
0.1875
 43
0.1875
  0
INSERT
  8
0
 62
2
  6
CONTINUOUS
  2
_FILLED
 10
5.2590284842
 20
16.1074146067
 41
0.1875
 42
0.1875
 43
0.1875
 50
180.0
  0
ENDBLK
  8
0
  6
BYBLOCK
 62
0
  0
BLOCK
  8
0
 62
2
  6
CONTINUOUS
  2
*D6
 70
65
 10
0.0
 20
0.0
  0
TEXT
  8
0
 62
2
  6
CONTINUOUS
 10
34.2823991324
 20
24.3633102941
  7
STANDARD
 40
0.15625
  1
4X 
 41
0.8
 72
2
 11
34.6573991324
 21
24.3633102941
  0
TEXT
  8
0
 62
2
  6
CONTINUOUS
 10
34.6573991324
 20
24.3633102941
  7
STANDARD
 40
0.15625
  1
R
 41
0.8
 72
2
 11
34.7823991324
 21
24.3633102941
  0
TEXT
  8
0
 62
2
  6
CONTINUOUS
 10
34.7823991324
 20
24.3633102941
  7
STANDARD
 40
0.15625
  1
1/2
 41
0.8
 72
2
 11
35.1573991324
 21
24.3633102941
  0
TEXT
  8
0
 62
2
  6
CONTINUOUS
 10
35.1573991324
 20
24.3633102941
  7
STANDARD
 40
0.15625
  1
"
 41
0.8
 72
2
 11
35.2823991324
 21
24.3633102941
  0
TEXT
  8
0
 62
2
  6
CONTINUOUS
 10
34.2823991324
 20
24.1289352941
  7
STANDARD
 40
0.15625
  1
[1,27cm]
 41
0.8
 72
2
 11
35.2823991324
 21
24.1289352941
  0
LINE
  8
0
 62
2
  6
CONTINUOUS
 10
36.4594070408
 20
25.5230432887
 11
35.5323991324
 21
24.4414352941
  0
LINE
  8
0
 62
2
  6
CONTINUOUS
 10
35.5323991324
 20
24.4414352941
 11
35.3605241324
 21
24.4414352941
  0
INSERT
  8
0
 62
2
  6
CONTINUOUS
  2
_FILLED
 10
36.4594070408
 20
25.5230432887
 41
0.1875
 42
0.1875
 43
0.1875
 50
49.4012906854
  0
ENDBLK
  8
0
  6
BYBLOCK
 62
0
  0
ENDSEC
  0
SECTION
  2
ENTITIES
  0
DIMENSION
  8
0
 62
2
  6
CONTINUOUS
  2
*D0
 10
18.365754386
 20
9.0934003052
 11
18.365754386
 21
17.1340253052
 70
128
 13
18.6882728532
 23
25.6434003052
 14
18.590765928
 24
9.0934003052
 50
270.0
  0
DIMENSION
  8
0
 62
2
  6
CONTINUOUS
  2
*D1
 10
6.3840284842
 20
18.1585447864
 11
16.3398571973
 21
17.9241697864
 70
128
 13
36.6340284842
 23
17.9635737596
 14
6.3840284842
 24
17.9623113699
 50
180.0
  0
DIMENSION
  8
0
 62
2
  6
CONTINUOUS
  2
*D2
 10
37.7590284842
 20
14.9247763608
 11
35.5848954249
 21
14.8075888608
 70
128
 13
38.0090284842
 23
15.2112040441
 14
37.7590284842
 24
15.1594393382
 50
180.0
  0
DIMENSION
  8
0
 62
2
  6
CONTINUOUS
  2
*D3
 10
37.2590284842
 20
28.9684003052
 11
36.0727088515
 21
28.5113702455
 70
132
 15
37.6289953042
 25
29.3047402405
  0
DIMENSION
  8
0
 62
2
  6
CONTINUOUS
  2
*D4
 10
13.9793222658
 20
7.9684003052
 11
13.9793222658
 21
17.1293228398
 70
128
 13
14.2497576177
 23
29.4684003052
 14
14.2497576177
 24
7.9684003052
 50
270.0
  0
DIMENSION
  8
0
 62
2
  6
CONTINUOUS
  2
*D5
 10
5.2590284842
 20
16.1074146067
 11
16.0356645684
 21
15.8730396067
 70
128
 13
37.7590284842
 23
15.9199146067
 14
5.2590284842
 24
16.4297016482
 50
180.0
  0
DIMENSION
  8
0
 62
2
  6
CONTINUOUS
  2
*D6
 10
36.1340284842
 20
25.1434003052
 11
34.7823991324
 21
24.3242477941
 70
132
 15
36.4594070408
 25
25.5230432887
  0
TEXT
  8
___NOTE
 62
2
  6
CONTINUOUS
 10
7.0744343727
 20
9.2510167822
  7
STANDARD
 40
0.125
  1
1130821-7
 41
0.8
 72
1
 11
7.5244343727
 21
9.2510167822
  0
TEXT
  8
___NOTE
 62
2
  6
CONTINUOUS
 10
7.9744343727
 20
9.2510167822
  7
STANDARD
 40
0.125
  1
-D
 41
0.8
 72
1
 11
8.0744343727
 21
9.2510167822
  0
TEXT
  8
___NOTE
 62
2
  6
CONTINUOUS
 10
7.0161586214
 20
7.457773645
  7
STANDARD
 40
0.125
  1
1130821-7
 41
0.8
 72
1
 11
7.4661586214
 21
7.457773645
  0
TEXT
  8
___NOTE
 62
2
  6
CONTINUOUS
 10
7.9161586214
 20
7.457773645
  7
STANDARD
 40
0.125
  1
-D
 41
0.8
 72
1
 11
8.0161586214
 21
7.457773645
  0
TEXT
  8
___NOTE
 62
2
  6
CONTINUOUS
 10
34.2887921831
 20
22.8428655225
  7
STANDARD
 40
0.15625
  1
RIM OF SINK
 41
0.8
 72
2
 11
35.6637921831
 21
22.8428655225
  0
TEXT
  8
___NOTE
 62
2
  6
CONTINUOUS
 10
33.5387921831
 20
22.6084905225
  7
STANDARD
 40
0.15625
  1
REBORD DE L'ÉVIER
 41
0.8
 72
2
 11
35.6637921831
 21
22.6084905225
  0
TEXT
  8
___NOTE
 62
2
  6
CONTINUOUS
 10
33.2887921831
 20
22.3741155225
  7
STANDARD
 40
0.15625
  1
BORDE DEL FREGADERO
 41
0.8
 72
2
 11
35.6637921831
 21
22.3741155225
  0
LINE
  8
___NOTE
 62
2
  6
CONTINUOUS
 10
38.0090284842
 20
23.4888306205
 11
35.9137921831
 21
22.9209905225
  0
LINE
  8
___NOTE
 62
2
  6
CONTINUOUS
 10
35.9137921831
 20
22.9209905225
 11
35.6637921831
 21
22.9209905225
  0
SOLID
  8
___NOTE
 62
2
  6
CONTINUOUS
 10
37.8362311632
 20
23.4096226769
 11
38.0090284842
 21
23.4888306205
 12
37.8198824961
 22
23.4699465618
 13
37.8198824961
 23
23.4699465618
  0
TEXT
  8
___NOTE
 62
2
  6
CONTINUOUS
 10
23.8392586018
 20
23.3326368586
  7
STANDARD
 40
0.15625
  1
1-7/16" DIAMETER - STANDARD 3 HOLE FITTING
 41
0.8
 72
0
  0
TEXT
  8
___NOTE
 62
2
  6
CONTINUOUS
 10
23.8392586018
 20
23.0982618586
  7
STANDARD
 40
0.15625
  1
(TO BE DRILLED IN COUNTERTOP FOR UNDERMOUNT INSTALLATION ONLY)
 41
0.8
 72
0
  0
TEXT
  8
___NOTE
 62
2
  6
CONTINUOUS
 10
23.8392586018
 20
22.8638868586
  7
STANDARD
 40
0.15625
  1
3,7 cm DIAMÈTRE - RACCORD RÉGULIER À 3 TROUS
 41
0.8
 72
0
  0
TEXT
  8
___NOTE
 62
2
  6
CONTINUOUS
 10
23.8392586018
 20
22.6295118586
  7
STANDARD
 40
0.15625
  1
(À PERCER DANS LE COMPTOIR POUR INSTALLATION PAR DESSOUS SEULEMENT)
 41
0.8
 72
0
  0
TEXT
  8
___NOTE
 62
2
  6
CONTINUOUS
 10
23.8392586018
 20
22.3951368586
  7
STANDARD
 40
0.15625
  1
3,7 cm DIÁMETRO - CONEXIÓN ESTÁNDAR DE 3 ORIFICIOS
 41
0.8
 72
0
  0
TEXT
  8
___NOTE
 62
2
  6
CONTINUOUS
 10
23.8392586018
 20
22.1607618586
  7
STANDARD
 40
0.15625
  1
(A TALADRAR EN LA CUBIERTA PARA INSTALACIÓN BAJO CUBIERTA SOLAMENTE)
 41
0.8
 72
0
  0
LINE
  8
___NOTE
 62
2
  6
CONTINUOUS
 10
17.7845605555
 20
26.6032070418
 11
23.2447640781
 21
23.4107618586
  0
LINE
  8
___NOTE
 62
2
  6
CONTINUOUS
 10
23.2447640781
 20
23.4107618586
 11
23.8392586018
 21
23.4107618586
  0
SOLID
  8
___NOTE
 62
2
  6
CONTINUOUS
 10
17.9621974605
 20
26.5355465475
 11
17.7845605555
 21
26.6032070418
 12
17.9306515215
 22
26.4815919023
 13
17.9306515215
 23
26.4815919023
  0
LINE
  8
___NOTE
 62
2
  6
CONTINUOUS
 10
21.7845605555
 20
26.6032070418
 11
23.2447640781
 21
23.4107618586
  0
LINE
  8
___NOTE
 62
2
  6
CONTINUOUS
 10
23.2447640781
 20
23.4107618586
 11
23.8392586018
 21
23.4107618586
  0
SOLID
  8
___NOTE
 62
2
  6
CONTINUOUS
 10
21.8909692359
 20
26.4456951208
 11
21.7845605555
 21
26.6032070418
 12
21.834132468
 22
26.4196983553
 13
21.834132468
 23
26.4196983553
  0
LINE
  8
___NOTE
 62
2
  6
CONTINUOUS
 10
24.9999116018
 20
26.7592834227
 11
23.2447640781
 21
23.4107618586
  0
LINE
  8
___NOTE
 62
2
  6
CONTINUOUS
 10
23.2447640781
 20
23.4107618586
 11
23.8392586018
 21
23.4107618586
  0
SOLID
  8
___NOTE
 62
2
  6
CONTINUOUS
 10
24.9405434415
 20
26.5787059213
 11
24.9999116018
 21
26.7592834227
 12
24.8851868551
 22
26.6077214058
 13
24.8851868551
 23
26.6077214058
  0
TEXT
  8
___NOTE
 62
2
  6
CONTINUOUS
 10
28.6768348428
 20
25.223330858
  7
STANDARD
 40
0.15625
  1
1-7/16" DIAMETER - OPTIONAL FITTING HOLE
 41
0.8
 72
2
 11
33.6768348428
 21
25.223330858
  0
TEXT
  8
___NOTE
 62
2
  6
CONTINUOUS
 10
25.9268348428
 20
24.988955858
  7
STANDARD
 40
0.15625
  1
(TO BE DRILLED IN COUNTERTOP FOR UNDERMOUNT INSTALLATION ONLY)
 41
0.8
 72
2
 11
33.6768348428
 21
24.988955858
  0
TEXT
  8
___NOTE
 62
2
  6
CONTINUOUS
 10
27.6768348428
 20
24.754580858
  7
STANDARD
 40
0.15625
  1
3,7 cm DIÁMETRO - ORIFICIO DEL CONECTOR OPCIONAL
 41
0.8
 72
2
 11
33.6768348428
 21
24.754580858
  0
TEXT
  8
___NOTE
 62
2
  6
CONTINUOUS
 10
25.3018348428
 20
24.520205858
  7
STANDARD
 40
0.15625
  1
(À PERCER DANS LE COMPTOIR POUR INSTALLATION PAR DESSOUS SEULEMENT)
 41
0.8
 72
2
 11
33.6768348428
 21
24.520205858
  0
TEXT
  8
___NOTE
 62
2
  6
CONTINUOUS
 10
27.9268348428
 20
24.285830858
  7
STANDARD
 40
0.15625
  1
3,7 cm DIAMÈTRE - ORIFICE DU RACCORD OPTIONNEL
 41
0.8
 72
2
 11
33.6768348428
 21
24.285830858
  0
TEXT
  8
___NOTE
 62
2
  6
CONTINUOUS
 10
25.1768348428
 20
24.051455858
  7
STANDARD
 40
0.15625
  1
(A TALADRAR EN LA CUBIERTA PARA INSTALACIÓN BAJO CUBIERTA SOLAMENTE)
 41
0.8
 72
2
 11
33.6768348428
 21
24.051455858
  0
LINE
  8
___NOTE
 62
2
  6
CONTINUOUS
 10
34.4476787718
 20
26.5729337103
 11
34.0469365994
 21
25.301455858
  0
LINE
  8
___NOTE
 62
2
  6
CONTINUOUS
 10
34.0469365994
 20
25.301455858
 11
33.6768348428
 21
25.301455858
  0
SOLID
  8
___NOTE
 62
2
  6
CONTINUOUS
 10
34.4211207251
 20
26.3847118129
 11
34.4476787718
 21
26.5729337103
 12
34.3615113555
 22
26.40349939
 13
34.3615113555
 23
26.40349939
  0
TEXT
  8
___NOTE
 62
2
  6
CONTINUOUS
 10
28.7468254495
 20
21.4889055405
  7
STANDARD
 40
0.15625
  1
FOR UNDERCOUNTER INSTALLATION CUT ALONG THIS LINE
 41
0.8
 72
2
 11
34.8718254495
 21
21.4889055405
  0
TEXT
  8
___NOTE
 62
2
  6
CONTINUOUS
 10
26.9968254495
 20
21.2545305405
  7
STANDARD
 40
0.15625
  1
POUR INSTALLATION SOUS COMPTOIR DÉCOUPER LE LONG DE CETTE LIGNE
 41
0.8
 72
2
 11
34.8718254495
 21
21.2545305405
  0
TEXT
  8
___NOTE
 62
2
  6
CONTINUOUS
 10
28.3718254495
 20
21.0201555405
  7
STANDARD
 40
0.15625
  1
PARA INSTALACIÓN BAJO CUBIERTA, CORTE POR ESTA LÍNEA
 41
0.8
 72
2
 11
34.8718254495
 21
21.0201555405
  0
LINE
  8
___NOTE
 62
2
  6
CONTINUOUS
 10
36.6340284842
 20
21.0870119829
 11
35.1218254495
 21
21.5670305405
  0
LINE
  8
___NOTE
 62
2
  6
CONTINUOUS
 10
35.1218254495
 20
21.5670305405
 11
34.8718254495
 21
21.5670305405
  0
SOLID
  8
___NOTE
 62
2
  6
CONTINUOUS
 10
36.4458613433
 20
21.1139552485
 11
36.6340284842
 21
21.0870119829
 12
36.4647708965
 22
21.1735260366
 13
36.4647708965
 23
21.1735260366
  0
TEXT
  8
___NOTE
 62
2
  6
CONTINUOUS
 10
28.78163254
 20
20.2115214369
  7
STANDARD
 40
0.15625
  1
FOR SELF-RIMMING INSTALLATION CUT ALONG THIS LINE
 41
0.8
 72
2
 11
34.90663254
 21
20.2115214369
  0
TEXT
  8
___NOTE
 62
2
  6
CONTINUOUS
 10
26.65663254
 20
19.9771464369
  7
STANDARD
 40
0.15625
  1
POUR INSTALLATION À REBORD INTÉGRÉ DÉCOUPER LE LONG DE CETTE LIGNE
 41
0.8
 72
2
 11
34.90663254
 21
19.9771464369
  0
TEXT
  8
___NOTE
 62
2
  6
CONTINUOUS
 10
27.78163254
 20
19.7427714369
  7
STANDARD
 40
0.15625
  1
PARA INSTALACIÓN DE BORDE TERMINADO, CORTE POR ESTA LÍNEA
 41
0.8
 72
2
 11
34.90663254
 21
19.7427714369
  0
LINE
  8
___NOTE
 62
2
  6
CONTINUOUS
 10
37.7590284842
 20
19.7574550137
 11
35.15663254
 21
20.2896464369
  0
LINE
  8
___NOTE
 62
2
  6
CONTINUOUS
 10
35.15663254
 20
20.2896464369
 11
34.90663254
 21
20.2896464369
  0
SOLID
  8
___NOTE
 62
2
  6
CONTINUOUS
 10
37.5690692524
 20
19.7644050303
 11
37.7590284842
 21
19.7574550137
 12
37.5815913784
 22
19.8256377532
 13
37.5815913784
 23
19.8256377532
  0
INSERT
  8
___SYMBOL
 62
2
  6
CONTINUOUS
  2
SYMBOL_6_BL0
 10
35.3116085104
 20
9.335111426
  0
INSERT
  8
___SYMBOL
 62
2
  6
CONTINUOUS
  2
SYMBOL_10_BL1
 10
30.115300687
 20
13.5118771872
  0
INSERT
  8
___SYMBOL
 62
2
  6
CONTINUOUS
  2
SYMBOL_17_BL2
 10
9.9546447166
 20
22.0362926674
  0
LINE
  8
DEFAULT_1
 62
2
  6
CENTER
 10
17.5090284842
 20
26.1309003052
 11
17.5090284842
 21
28.5059003052
  0
LINE
  8
DEFAULT_1
 62
2
  6
CENTER
 10
25.5090284842
 20
26.1309003052
 11
25.5090284842
 21
28.5059003052
  0
LINE
  8
DEFAULT_1
 62
2
  6
CENTER
 10
16.3215284842
 20
27.2684003052
 11
26.6965284842
 21
27.2684003052
  0
LINE
  8
DEFAULT_1
 62
2
  6
CENTER
 10
33.4465284842
 20
27.2684003052
 11
35.8215284842
 21
27.2684003052
  0
LINE
  8
DEFAULT_1
 62
2
  6
CENTER
 10
34.6340284842
 20
26.1309003052
 11
34.6340284842
 21
28.5059003052
  0
LINE
  8
_CURVE
 62
8
  6
HIDDEN
 10
5.0090284842
 20
29.4684003052
 11
5.0090284842
 21
7.9684003052
  0
LINE
  8
_CURVE
 62
7
  6
CONTINUOUS
 10
5.2590284842
 20
28.9684003052
 11
5.2590284842
 21
8.4684003052
  0
LINE
  8
_CURVE
 62
7
  6
CONTINUOUS
 10
6.3840284842
 20
9.5934003052
 11
6.3840284842
 21
25.1434003052
  0
LINE
  8
_CURVE
 62
8
  6
HIDDEN
 10
5.2590284842
 20
7.7184003052
 11
37.7590284842
 21
7.7184003052
  0
LINE
  8
_CURVE
 62
7
  6
CONTINUOUS
 10
5.7590284842
 20
7.9684003052
 11
37.2590284842
 21
7.9684003052
  0
LINE
  8
_CURVE
 62
7
  6
CONTINUOUS
 10
36.1340284842
 20
9.0934003052
 11
6.8840284842
 21
9.0934003052
  0
LINE
  8
_CURVE
 62
2
  6
CENTER
 10
21.5090284842
 20
30.7184003052
 11
21.5090284842
 21
6.7184003052
  0
LINE
  8
_CURVE
 62
2
  6
CENTER
 10
4.0090284842
 20
18.7184003052
 11
39.0090284842
 21
18.7184003052
  0
LINE
  8
_CURVE
 62
7
  6
CONTINUOUS
 10
6.8840284842
 20
25.6434003052
 11
36.1340284842
 21
25.6434003052
  0
LINE
  8
_CURVE
 62
7
  6
CONTINUOUS
 10
37.2590284842
 20
29.4684003052
 11
5.7590284842
 21
29.4684003052
  0
LINE
  8
_CURVE
 62
8
  6
HIDDEN
 10
37.7590284842
 20
29.7184003052
 11
5.2590284842
 21
29.7184003052
  0
LINE
  8
_CURVE
 62
7
  6
CONTINUOUS
 10
36.6340284842
 20
25.1434003052
 11
36.6340284842
 21
9.5934003052
  0
LINE
  8
_CURVE
 62
7
  6
CONTINUOUS
 10
37.7590284842
 20
8.4684003052
 11
37.7590284842
 21
28.9684003052
  0
LINE
  8
_CURVE
 62
8
  6
HIDDEN
 10
38.0090284842
 20
7.9684003052
 11
38.0090284842
 21
29.4684003052
  0
CIRCLE
  8
_CURVE
 62
7
  6
CONTINUOUS
 10
17.5090284842
 20
27.2684003052
 40
0.72
  0
CIRCLE
  8
_CURVE
 62
7
  6
CONTINUOUS
 10
21.5090284842
 20
27.2684003052
 40
0.72
  0
CIRCLE
  8
_CURVE
 62
7
  6
CONTINUOUS
 10
25.5090284842
 20
27.2684003052
 40
0.72
  0
CIRCLE
  8
_CURVE
 62
7
  6
CONTINUOUS
 10
34.6340284842
 20
27.2684003052
 40
0.72
  0
ARC
  8
_CURVE
 62
7
  6
CONTINUOUS
 10
6.8840284842
 20
25.1434003052
 40
0.5
 50
90.0
 51
180.0
  0
ARC
  8
_CURVE
 62
7
  6
CONTINUOUS
 10
6.8840284842
 20
9.5934003052
 40
0.5
 50
180.0
 51
270.0
  0
ARC
  8
_CURVE
 62
7
  6
CONTINUOUS
 10
36.1340284842
 20
9.5934003052
 40
0.5
 50
270.0
 51
360.0
  0
ARC
  8
_CURVE
 62
7
  6
CONTINUOUS
 10
36.1340284842
 20
25.1434003052
 40
0.5
 50
0.0
 51
90.0
  0
ARC
  8
_CURVE
 62
7
  6
CONTINUOUS
 10
5.7590284842
 20
28.9684003052
 40
0.5
 50
90.0
 51
180.0
  0
ARC
  8
_CURVE
 62
7
  6
CONTINUOUS
 10
5.7590284842
 20
8.4684003052
 40
0.5
 50
180.0
 51
270.0
  0
ARC
  8
_CURVE
 62
7
  6
CONTINUOUS
 10
37.2590284842
 20
8.4684003052
 40
0.5
 50
270.0
 51
360.0
  0
ARC
  8
_CURVE
 62
7
  6
CONTINUOUS
 10
37.2590284842
 20
28.9684003052
 40
0.5
 50
0.0
 51
90.0
  0
ARC
  8
_CURVE
 62
8
  6
HIDDEN
 10
5.2590284842
 20
29.4684003052
 40
0.25
 50
90.0
 51
180.0
  0
ARC
  8
_CURVE
 62
8
  6
HIDDEN
 10
5.2590284842
 20
7.9684003052
 40
0.25
 50
180.0
 51
270.0
  0
ARC
  8
_CURVE
 62
8
  6
HIDDEN
 10
37.7590284842
 20
7.9684003052
 40
0.25
 50
270.0
 51
360.0
  0
ARC
  8
_CURVE
 62
8
  6
HIDDEN
 10
37.7590284842
 20
29.4684003052
 40
0.25
 50
0.0
 51
90.0
  0
ENDSEC
  0
EOF
