999
DXF file: 111134-7.dxf
999
Pro/ENGINEER 2004030 by Parametric Technology Corporation
0
SECTION
2
HEADER
9
$ACADVER
1
AC1014
9
$EXTMAX
10
34.0000000000
20
22.0000000000
30
0.0000000000
9
$EXTMIN
10
0.0000000000
20
0.0000000000
30
0.0000000000
9
$LIMMIN
10
0.0000000000
20
0.0000000000
9
$LIMMAX
10
34.0000000000
20
22.0000000000
9
$VIEWCTR
10
17.0000000000
20
11.0000000000
9
$VIEWSIZE
40
22.0000000000
9
$CLAYER
8
0
9
$LTSCALE
40
1.8700000000
9
$CELTYPE
6
BYLAYER
9
$DIMSCALE
40
1
9
$DIMASZ
40
0.1875000000
9
$DIMEXO
40
0.2125000000
9
$DIMDLI
40
1.2920000000
9
$DIMEXE
40
0.6120000000
9
$DIMCEN
40
0.3060000000
9
$DIMLFAC
40
1.0000000000
9
$DIMBLK
1
_FILLED
9
$DIMTXT
40
0.1562500000
9
$DIMTOL
70
1
9
$DIMLIM
70
0
9
$DIMTFAC
40
1.0000000000
9
$DIMTP
40
0.0100000000
9
$DIMTM
40
0.0100000000
9
$PDMODE
70
3
9
$PDSIZE
40
0.3125000000
9
$HANDSEED
5
395
9
$MEASUREMENT
70
0
0
ENDSEC
0
SECTION
2
CLASSES
0
ENDSEC
0
SECTION
2
TABLES
0
TABLE
2
VPORT
5
8
100
AcDbSymbolTable
70
2
0
VPORT
5
1F4
100
AcDbSymbolTableRecord
100
AcDbViewportTableRecord
2
*ACTIVE
70
0
10
0.0
20
0.0
11
1.0
21
1.0
12
17.0000000000
22
11.0000000000
13
0.0
23
0.0
14
1.0
24
1.0
15
0.0
25
0.0
16
0.0
26
0.0
36
1.0
17
0.0
27
0.0
37
0.0
40
22.0000000000
41
1.5454545455
42
50.0
43
0.0
44
0.0
50
0.0
51
0.0
71
0
72
100
73
1
74
1
75
0
76
0
77
0
78
0
0
ENDTAB
0
TABLE
2
LTYPE
5
5
100
AcDbSymbolTable
70
6
0
LTYPE
5
14
100
AcDbSymbolTableRecord
100
AcDbLinetypeTableRecord
2
BYBLOCK
70
0
3

72
65
73
0
40
0.0
0
LTYPE
5
15
100
AcDbSymbolTableRecord
100
AcDbLinetypeTableRecord
2
BYLAYER
70
0
3

72
65
73
0
40
0.0
0
LTYPE
5
16
100
AcDbSymbolTableRecord
100
AcDbLinetypeTableRecord
2
CONTINUOUS
70
64
3
Solid line
72
65
73
0
40
0
0
LTYPE
5
1F5
100
AcDbSymbolTableRecord
100
AcDbLinetypeTableRecord
2
CENTER
70
64
3
____ _ ____ _ ____ _ ____ _ ____ _ ____ _ ____
72
65
73
4
40
0.6
49
0.375
74
0
49
-0.075
74
0
49
0.075
74
0
49
-0.075
74
0
0
LTYPE
5
1F6
100
AcDbSymbolTableRecord
100
AcDbLinetypeTableRecord
2
HIDDEN
70
64
3
- - - - - - - - - - - - - - - - - - - -
72
65
73
2
40
0.2
49
0.1
74
0
49
-0.1
74
0
0
LTYPE
5
1F7
100
AcDbSymbolTableRecord
100
AcDbLinetypeTableRecord
2
PHANTOM
70
64
3
_____ _ _ _____ _ _ _____ _ _ _____
72
65
73
6
40
0.8
49
0.45
74
0
49
-0.05
74
0
49
0.1
74
0
49
-0.05
74
0
49
0.1
74
0
49
-0.05
74
0
0
LTYPE
5
1F8
100
AcDbSymbolTableRecord
100
AcDbLinetypeTableRecord
2
DOT
70
64
3
. . . . . . . . . . . . . . . . . . . .
72
65
73
2
40
0.2
49
0.1
74
0
49
-0.1
74
0
0
LTYPE
5
1F9
100
AcDbSymbolTableRecord
100
AcDbLinetypeTableRecord
2
DASHED
70
64
3
- - - - - - - - - - - - - - - - - - - -
72
65
73
2
40
0.2
49
0.1
74
0
49
-0.1
74
0
0
ENDTAB
0
TABLE
2
LAYER
5
2
100
AcDbSymbolTable
70
36
0
LAYER
5
10
100
AcDbSymbolTableRecord
100
AcDbLayerTableRecord
2
0
70
0
62
7
6
CONTINUOUS
0
LAYER
5
1FA
100
AcDbSymbolTableRecord
100
AcDbLayerTableRecord
2
DEFAULT_1
70
0
62
7
6
CENTER
0
LAYER
5
1FB
100
AcDbSymbolTableRecord
100
AcDbLayerTableRecord
2
DEFAULT_2
70
0
62
8
6
HIDDEN
0
LAYER
5
1FC
100
AcDbSymbolTableRecord
100
AcDbLayerTableRecord
2
DEFAULT_3
70
0
62
7
6
PHANTOM
0
LAYER
5
1FD
100
AcDbSymbolTableRecord
100
AcDbLayerTableRecord
2
DATUMS
70
0
62
7
6
CONTINUOUS
0
LAYER
5
1FE
100
AcDbSymbolTableRecord
100
AcDbLayerTableRecord
2
DATUM_AXIS
70
0
62
7
6
CONTINUOUS
0
LAYER
5
1FF
100
AcDbSymbolTableRecord
100
AcDbLayerTableRecord
2
DATUM_CSYS
70
0
62
7
6
CONTINUOUS
0
LAYER
5
200
100
AcDbSymbolTableRecord
100
AcDbLayerTableRecord
2
DATUM_PLANE
70
0
62
7
6
CONTINUOUS
0
LAYER
5
201
100
AcDbSymbolTableRecord
100
AcDbLayerTableRecord
2
DATUM_POINT
70
0
62
7
6
CONTINUOUS
0
LAYER
5
202
100
AcDbSymbolTableRecord
100
AcDbLayerTableRecord
2
_CURVE
70
0
62
7
6
CONTINUOUS
0
LAYER
5
203
100
AcDbSymbolTableRecord
100
AcDbLayerTableRecord
2
_SURFACE
70
0
62
7
6
CONTINUOUS
0
LAYER
5
204
100
AcDbSymbolTableRecord
100
AcDbLayerTableRecord
2
__REF_CURVE
70
0
62
7
6
CONTINUOUS
0
LAYER
5
205
100
AcDbSymbolTableRecord
100
AcDbLayerTableRecord
2
__REF_SURFACE
70
0
62
7
6
CONTINUOUS
0
LAYER
5
206
100
AcDbSymbolTableRecord
100
AcDbLayerTableRecord
2
___NOTE
70
0
62
7
6
CONTINUOUS
0
LAYER
5
207
100
AcDbSymbolTableRecord
100
AcDbLayerTableRecord
2
___SYMBOL
70
0
62
7
6
CONTINUOUS
0
ENDTAB
0
TABLE
2
STYLE
5
3
100
AcDbSymbolTable
70
1
0
STYLE
5
11
100
AcDbSymbolTableRecord
100
AcDbTextStyleTableRecord
2
STANDARD
70
0
40
0.0
41
0.8000000000
50
0.0
71
0
42
0.2
3
txt
4

0
ENDTAB
0
TABLE
2
VIEW
5
6
100
AcDbSymbolTable
70
0
0
ENDTAB
0
TABLE
2
UCS
5
7
100
AcDbSymbolTable
70
0
0
ENDTAB
0
TABLE
2
APPID
5
9
100
AcDbSymbolTable
70
1
0
APPID
5
208
100
AcDbSymbolTableRecord
100
AcDbRegAppTableRecord
2
ACAD
70
0
0
ENDTAB
0
TABLE
2
DIMSTYLE
5
A
100
AcDbSymbolTable
70
1
0
DIMSTYLE
105
209
100
AcDbSymbolTableRecord
100
AcDbDimStyleTableRecord
2
STANDARD
70
0
3

4

5
_FILLED
6
_FILLED
7
_FILLED
40
1.0
41
0.1875000000
42
0.0625
43
0.38
44
0.18
45
0.0
46
0.0
47
0.0100000000
48
0.0100000000
140
0.1562500000
141
0.09
142
0.0
143
25.4
144
1.0000000000
145
0.0
146
1.0000000000
147
0.09
71
1
72
0
73
1
74
1
75
0
76
0
77
0
78
4
170
0
171
2
172
0
173
0
174
0
175
0
176
0
177
0
178
0
270
2
271
3
272
3
273
2
274
2
340
11
275
0
280
0
281
0
282
0
283
1
284
4
285
0
286
0
287
3
288
0
0
DIMSTYLE
105
20A
100
AcDbSymbolTableRecord
100
AcDbDimStyleTableRecord
2
DIMSTYLE_1
70
0
3

4

5
_FILLED
6
_FILLED
7
_FILLED
40
1.0
41
0.1875000000
42
0.0625
43
0.38
44
0.18
45
0.0
46
0.0
47
0.0625000000
48
0.0625000000
140
0.1562500000
141
0.09
142
0.0
143
25.4
144
1.0000000000
145
0.0
146
1.0000000000
147
0.09
71
0
72
0
73
1
74
1
75
0
76
0
77
0
78
4
170
0
171
2
172
0
173
0
174
0
175
0
176
0
177
0
178
0
270
2
271
4
272
4
273
2
274
2
340
11
275
0
280
0
281
0
282
0
283
1
284
4
285
0
286
0
287
3
288
0
0
ENDTAB
0
TABLE
2
BLOCK_RECORD
5
1
100
AcDbSymbolTable
70
0
0
BLOCK_RECORD
5
1B
100
AcDbSymbolTableRecord
100
AcDbBlockTableRecord
2
*MODEL_SPACE
0
BLOCK_RECORD
5
1C
100
AcDbSymbolTableRecord
100
AcDbBlockTableRecord
2
*PAPER_SPACE
0
BLOCK_RECORD
5
20B
100
AcDbSymbolTableRecord
100
AcDbBlockTableRecord
2
_FILLED
0
BLOCK_RECORD
5
20C
100
AcDbSymbolTableRecord
100
AcDbBlockTableRecord
2
*D0
0
BLOCK_RECORD
5
20D
100
AcDbSymbolTableRecord
100
AcDbBlockTableRecord
2
*D1
0
BLOCK_RECORD
5
20E
100
AcDbSymbolTableRecord
100
AcDbBlockTableRecord
2
COPYRIGHT_YEAR_BL0
0
BLOCK_RECORD
5
20F
100
AcDbSymbolTableRecord
100
AcDbBlockTableRecord
2
CUT-OUT_TEMPLATE_SKU_SIN_BL1
0
BLOCK_RECORD
5
210
100
AcDbSymbolTableRecord
100
AcDbBlockTableRecord
2
PACKAGING_UPC_BL2
0
BLOCK_RECORD
5
211
100
AcDbSymbolTableRecord
100
AcDbBlockTableRecord
2
TEMPLATE_NUMBER_BL3
0
BLOCK_RECORD
5
212
100
AcDbSymbolTableRecord
100
AcDbBlockTableRecord
2
TEMPLATE_NUMBER_BL4
0
BLOCK_RECORD
5
213
100
AcDbSymbolTableRecord
100
AcDbBlockTableRecord
2
WHEN_PLOTTING_TEMPLATE_N_BL5
0
ENDTAB
0
ENDSEC
0
SECTION
2
BLOCKS
0
BLOCK
5
1E
100
AcDbEntity
8
0
100
AcDbBlockBegin
2
*MODEL_SPACE
70
0
10
0.0
20
0.0
30
0.0
3
*MODEL_SPACE
1

0
ENDBLK
5
1F
100
AcDbEntity
8
0
100
AcDbBlockEnd
0
BLOCK
5
20
100
AcDbEntity
8
0
100
AcDbBlockBegin
2
*PAPER_SPACE
70
0
10
0.0
20
0.0
30
0.0
3
*PAPER_SPACE
1

0
ENDBLK
5
21
100
AcDbEntity
8
0
100
AcDbBlockEnd
0
BLOCK
5
214
100
AcDbEntity
8
0
100
AcDbBlockBegin
62
2
6
CONTINUOUS
2
*D0
70
65
10
0.0000000000
20
0.0000000000
3
*D0
1

0
TEXT
5
215
100
AcDbEntity
8
0
100
AcDbText
62
2
6
CONTINUOUS
10
13.2328049455
20
11.7449402099
7
STANDARD
40
0.1562500000
1
"
41
0.8000000000
72
0
100
AcDbText
0
TEXT
5
216
100
AcDbEntity
8
0
100
AcDbText
62
2
6
CONTINUOUS
10
12.4828049455
20
11.5105652099
7
STANDARD
40
0.1562500000
1
[40 cm]
41
0.8000000000
72
0
100
AcDbText
0
TEXT
5
217
100
AcDbEntity
8
0
100
AcDbText
62
2
6
CONTINUOUS
10
12.4828049455
20
11.7449402099
7
STANDARD
40
0.1562500000
1
15-3/4
41
0.8000000000
72
0
100
AcDbText
0
LINE
5
218
100
AcDbEntity
8
0
100
AcDbLine
62
2
6
CONTINUOUS
10
12.6420823789
20
18.8753214274
11
13.0453049455
21
18.8753214274
0
LINE
5
219
100
AcDbEntity
8
0
100
AcDbLine
62
2
6
CONTINUOUS
10
12.6811689485
20
3.1253214274
11
13.0453049455
21
3.1253214274
0
LINE
5
21A
100
AcDbEntity
8
0
100
AcDbLine
62
2
6
CONTINUOUS
10
12.9203049455
20
18.8753214274
11
12.9203049455
21
11.9793152099
0
LINE
5
21B
100
AcDbEntity
8
0
100
AcDbLine
62
2
6
CONTINUOUS
10
12.9203049455
20
3.1253214274
11
12.9203049455
21
11.4324402099
0
INSERT
5
21C
100
AcDbEntity
8
0
100
AcDbBlockReference
62
2
6
CONTINUOUS
2
_FILLED
10
12.9203049455
20
18.8753214274
41
  0.187500
42
  0.187500
43
  0.187500
50
 90.000000
0
INSERT
5
21D
100
AcDbEntity
8
0
100
AcDbBlockReference
62
2
6
CONTINUOUS
2
_FILLED
10
12.9203049455
20
3.1253214274
41
  0.187500
42
  0.187500
43
  0.187500
50
270.000000
0
ENDBLK
5
21E
100
AcDbEntity
8
0
6
BYBLOCK
62
0
100
AcDbBlockEnd
0
BLOCK
5
21F
100
AcDbEntity
8
0
100
AcDbBlockBegin
62
2
6
CONTINUOUS
2
*D1
70
65
10
0.0000000000
20
0.0000000000
3
*D1
1

0
TEXT
5
220
100
AcDbEntity
8
0
100
AcDbText
62
2
6
CONTINUOUS
10
11.4494071310
20
10.5150695534
7
STANDARD
40
0.1562500000
1
"
41
0.8000000000
72
0
100
AcDbText
0
TEXT
5
221
100
AcDbEntity
8
0
100
AcDbText
62
2
6
CONTINUOUS
10
11.1994071310
20
10.2806945534
7
STANDARD
40
0.1562500000
1
[35,6 cm]
41
0.8000000000
72
0
100
AcDbText
0
TEXT
5
222
100
AcDbEntity
8
0
100
AcDbText
62
2
6
CONTINUOUS
10
11.1994071310
20
10.5150695534
7
STANDARD
40
0.1562500000
1
14
41
0.8000000000
72
0
100
AcDbText
0
LINE
5
223
100
AcDbEntity
8
0
100
AcDbLine
62
2
6
CONTINUOUS
10
19.9938795413
20
10.1352001040
11
19.9938795413
21
10.7181945534
0
LINE
5
224
100
AcDbEntity
8
0
100
AcDbLine
62
2
6
CONTINUOUS
10
5.9938795413
20
10.0755587318
11
5.9938795413
21
10.7181945534
0
LINE
5
225
100
AcDbEntity
8
0
100
AcDbLine
62
2
6
CONTINUOUS
10
19.9938795413
20
10.5931945534
11
12.4025321310
21
10.5931945534
0
LINE
5
226
100
AcDbEntity
8
0
100
AcDbLine
62
2
6
CONTINUOUS
10
5.9938795413
20
10.5931945534
11
11.1212821310
21
10.5931945534
0
INSERT
5
227
100
AcDbEntity
8
0
100
AcDbBlockReference
62
2
6
CONTINUOUS
2
_FILLED
10
19.9938795413
20
10.5931945534
41
  0.187500
42
  0.187500
43
  0.187500
0
INSERT
5
228
100
AcDbEntity
8
0
100
AcDbBlockReference
62
2
6
CONTINUOUS
2
_FILLED
10
5.9938795413
20
10.5931945534
41
  0.187500
42
  0.187500
43
  0.187500
50
180.000000
0
ENDBLK
5
229
100
AcDbEntity
8
0
6
BYBLOCK
62
0
100
AcDbBlockEnd
0
BLOCK
5
22A
100
AcDbEntity
8
___SYMBOL
100
AcDbBlockBegin
62
2
6
CONTINUOUS
2
COPYRIGHT_YEAR_BL0
70
64
10
17.6265329614
20
3.4414369029
3
COPYRIGHT_YEAR_BL0
1

0
TEXT
5
22B
100
AcDbEntity
8
___SYMBOL
100
AcDbText
62
2
6
CONTINUOUS
10
17.2528426579
20
3.4061634029
7
STANDARD
40
0.0704997506
1
2004
41
0.8000000000
72
0
100
AcDbText
0
TEXT
5
22C
100
AcDbEntity
8
___SYMBOL
100
AcDbText
62
2
6
CONTINUOUS
10
17.4784418597
20
3.4061634029
7
STANDARD
40
0.0704997506
1
 KOHLER CO.
41
0.8000000000
72
0
100
AcDbText
0
TEXT
5
22D
100
AcDbEntity
8
___SYMBOL
100
AcDbText
62
7
6
CONTINUOUS
10
17.1728171919
20
3.4226483448
7
STANDARD
40
0.0421873503
1
C
41
1.0000000000
72
0
100
AcDbText
0
CIRCLE
5
22E
100
AcDbEntity
8
___SYMBOL
100
AcDbCircle
62
7
6
CONTINUOUS
10
17.1870521414
20
3.4438845195
40
0.0328258835
0
ENDBLK
5
22F
100
AcDbEntity
8
0
6
BYBLOCK
62
0
100
AcDbBlockEnd
0
BLOCK
5
230
100
AcDbEntity
8
___SYMBOL
100
AcDbBlockBegin
62
2
6
CONTINUOUS
2
CUT-OUT_TEMPLATE_SKU_SIN_BL1
70
64
10
9.3246569167
20
14.8989049849
3
CUT-OUT_TEMPLATE_SKU_SIN_BL1
1

0
TEXT
5
231
100
AcDbEntity
8
___SYMBOL
100
AcDbText
62
2
6
CONTINUOUS
10
6.9246568314
20
16.9990405536
7
STANDARD
40
0.2500000089
1
CUT-OUT TEMPLATE
41
0.8000000000
72
0
100
AcDbText
0
TEXT
5
232
100
AcDbEntity
8
___SYMBOL
100
AcDbText
62
2
6
CONTINUOUS
10
6.9246568314
20
16.6240405403
7
STANDARD
40
0.2500000089
1
UNDERCOUNTER SINK
41
0.8000000000
72
0
100
AcDbText
0
TEXT
5
233
100
AcDbEntity
8
___SYMBOL
100
AcDbText
62
2
6
CONTINUOUS
10
6.9246568314
20
16.2490405270
7
STANDARD
40
0.2500000089
1
PLANTILLA DE RECORTE
41
0.8000000000
72
0
100
AcDbText
0
TEXT
5
234
100
AcDbEntity
8
___SYMBOL
100
AcDbText
62
2
6
CONTINUOUS
10
6.9246568314
20
15.8740405136
7
STANDARD
40
0.2500000089
1
FREGADERO MONTADO DEBAJO
41
0.8000000000
72
0
100
AcDbText
0
TEXT
5
235
100
AcDbEntity
8
___SYMBOL
100
AcDbText
62
2
6
CONTINUOUS
10
6.9246568314
20
15.4990405003
7
STANDARD
40
0.2500000089
1
  DEL MOSTRADOR
41
0.8000000000
72
0
100
AcDbText
0
TEXT
5
236
100
AcDbEntity
8
___SYMBOL
100
AcDbText
62
2
6
CONTINUOUS
10
6.9246568314
20
15.1240404870
7
STANDARD
40
0.2500000089
1
PLAN DE DÉCOUPE
41
0.8000000000
72
0
100
AcDbText
0
TEXT
5
237
100
AcDbEntity
8
___SYMBOL
100
AcDbText
62
2
6
CONTINUOUS
10
6.9246568314
20
14.7490404736
7
STANDARD
40
0.2500000089
1
ÉVIER SOUS-COMPTOIR
41
0.8000000000
72
0
100
AcDbText
0
TEXT
5
238
100
AcDbEntity
8
___SYMBOL
100
AcDbText
62
2
6
CONTINUOUS
10
6.9246568314
20
14.3740404603
7
STANDARD
40
0.2500000089
1
UNDERTONE
41
0.8000000000
72
0
100
AcDbText
0
TEXT
5
239
100
AcDbEntity
8
___SYMBOL
100
AcDbText
62
2
6
CONTINUOUS
10
8.7246568953
20
14.3740404603
7
STANDARD
40
0.2500000089
1
   
41
0.8000000000
72
0
100
AcDbText
0
TEXT
5
23A
100
AcDbEntity
8
___SYMBOL
100
AcDbText
62
2
6
CONTINUOUS
10
9.3246569167
20
14.3740404603
7
STANDARD
40
0.2500000089
1
3330
41
0.8000000000
72
0
100
AcDbText
0
TEXT
5
23B
100
AcDbEntity
8
___SYMBOL
100
AcDbText
62
2
6
CONTINUOUS
10
10.1246569451
20
14.3740404603
7
STANDARD
40
0.2500000089
1
-**-
41
0.8000000000
72
0
100
AcDbText
0
TEXT
5
23C
100
AcDbEntity
8
___SYMBOL
100
AcDbText
62
2
6
CONTINUOUS
10
10.9246569735
20
14.3740404603
7
STANDARD
40
0.2500000089
1
BB
41
0.8000000000
72
0
100
AcDbText
0
LINE
5
23D
100
AcDbEntity
8
___SYMBOL
100
AcDbLine
62
2
6
CONTINUOUS
10
7.4512286263
20
18.0509538288
11
7.2379251668
21
17.7973055469
0
LINE
5
23E
100
AcDbEntity
8
___SYMBOL
100
AcDbLine
62
2
6
CONTINUOUS
10
7.2591668074
20
18.0509538288
11
7.4512286263
21
18.0509538288
0
LINE
5
23F
100
AcDbEntity
8
___SYMBOL
100
AcDbLine
62
2
6
CONTINUOUS
10
7.2591668074
20
18.0509538288
11
7.1214026357
21
17.8871326334
0
LINE
5
240
100
AcDbEntity
8
___SYMBOL
100
AcDbLine
62
2
6
CONTINUOUS
10
7.1214026357
20
18.0509538288
11
7.1214026357
21
17.8871326334
0
LINE
5
241
100
AcDbEntity
8
___SYMBOL
100
AcDbLine
62
2
6
CONTINUOUS
10
6.9469024026
20
18.0509538288
11
7.1214026357
21
18.0509538288
0
LINE
5
242
100
AcDbEntity
8
___SYMBOL
100
AcDbLine
62
2
6
CONTINUOUS
10
6.9469024026
20
18.0509538288
11
6.9469024026
21
17.4650161552
0
LINE
5
243
100
AcDbEntity
8
___SYMBOL
100
AcDbLine
62
2
6
CONTINUOUS
10
7.1214026357
20
17.4650401587
11
6.9469024026
21
17.4650161552
0
LINE
5
244
100
AcDbEntity
8
___SYMBOL
100
AcDbLine
62
2
6
CONTINUOUS
10
7.1214026357
20
17.6665399998
11
7.1214026357
21
17.4650401587
0
LINE
5
245
100
AcDbEntity
8
___SYMBOL
100
AcDbLine
62
2
6
CONTINUOUS
10
7.2751405813
20
17.4650401587
11
7.1214026357
21
17.6665399998
0
LINE
5
246
100
AcDbEntity
8
___SYMBOL
100
AcDbLine
62
2
6
CONTINUOUS
10
7.2751405813
20
17.4650401587
11
7.4914330105
21
17.4650401587
0
LINE
5
247
100
AcDbEntity
8
___SYMBOL
100
AcDbLine
62
2
6
CONTINUOUS
10
7.4914330105
20
17.4650401587
11
7.2379251668
21
17.7973055469
0
SOLID
5
248
100
AcDbEntity
8
___SYMBOL
100
AcDbTrace
62
2
6
CONTINUOUS
10
7.1214026357
20
17.8871326334
11
7.2591668074
21
18.0509538288
12
7.4512286263
22
18.0509538288
13
7.4512286263
23
18.0509538288
0
SOLID
5
249
100
AcDbEntity
8
___SYMBOL
100
AcDbTrace
62
2
6
CONTINUOUS
10
7.4512286263
20
18.0509538288
11
7.2379251668
21
17.7973055469
12
7.1214026357
22
17.8871326334
13
7.1214026357
23
17.8871326334
0
SOLID
5
24A
100
AcDbEntity
8
___SYMBOL
100
AcDbTrace
62
2
6
CONTINUOUS
10
7.1214026357
20
17.6665399998
11
7.2379251668
21
17.7973055469
12
7.2751405813
22
17.4650401587
13
7.2751405813
23
17.4650401587
0
SOLID
5
24B
100
AcDbEntity
8
___SYMBOL
100
AcDbTrace
62
2
6
CONTINUOUS
10
7.2379251668
20
17.7973055469
11
7.4914330105
21
17.4650401587
12
7.2751405813
22
17.4650401587
13
7.2751405813
23
17.4650401587
0
SOLID
5
24C
100
AcDbEntity
8
___SYMBOL
100
AcDbTrace
62
2
6
CONTINUOUS
10
7.1214026357
20
17.4650401587
11
6.9469024026
21
17.4650161552
12
7.1214026357
22
17.6665399998
13
7.1214026357
23
17.6665399998
0
SOLID
5
24D
100
AcDbEntity
8
___SYMBOL
100
AcDbTrace
62
2
6
CONTINUOUS
10
7.2379251668
20
17.7973055469
11
7.1214026357
21
17.6665399998
12
7.1214026357
22
17.8871326334
13
7.1214026357
23
17.8871326334
0
SOLID
5
24E
100
AcDbEntity
8
___SYMBOL
100
AcDbTrace
62
2
6
CONTINUOUS
10
7.1214026357
20
17.6665399998
11
6.9469024026
21
17.4650161552
12
7.1214026357
22
17.8871326334
13
7.1214026357
23
17.8871326334
0
SOLID
5
24F
100
AcDbEntity
8
___SYMBOL
100
AcDbTrace
62
2
6
CONTINUOUS
10
7.1214026357
20
17.8871326334
11
6.9469024026
21
17.4650161552
12
7.1214026357
22
18.0509538288
13
7.1214026357
23
18.0509538288
0
SOLID
5
250
100
AcDbEntity
8
___SYMBOL
100
AcDbTrace
62
2
6
CONTINUOUS
10
6.9469024026
20
17.4650161552
11
6.9469024026
21
18.0509538288
12
7.1214026357
22
18.0509538288
13
7.1214026357
23
18.0509538288
0
CIRCLE
5
251
100
AcDbEntity
8
___SYMBOL
100
AcDbCircle
62
2
6
CONTINUOUS
10
7.6679418534
20
17.7568757419
40
0.2980566016
0
CIRCLE
5
252
100
AcDbEntity
8
___SYMBOL
100
AcDbCircle
62
2
6
CONTINUOUS
10
7.6679418534
20
17.7568757419
40
0.1247694195
0
SOLID
5
253
100
AcDbEntity
8
___SYMBOL
100
AcDbTrace
62
2
6
CONTINUOUS
10
7.5758372983
20
18.0403444150
11
7.6367864549
21
18.0532995582
12
7.6990972520
22
18.0532995582
13
7.6990972520
23
18.0532995582
0
SOLID
5
254
100
AcDbEntity
8
___SYMBOL
100
AcDbTrace
62
2
6
CONTINUOUS
10
7.6990972520
20
18.0532995582
11
7.7600464086
21
18.0403444150
12
7.5758372983
22
18.0403444150
13
7.5758372983
23
18.0403444150
0
SOLID
5
255
100
AcDbEntity
8
___SYMBOL
100
AcDbTrace
62
2
6
CONTINUOUS
10
7.5189135526
20
18.0150003306
11
7.5758372983
21
18.0403444150
12
7.7600464086
22
18.0403444150
13
7.7600464086
23
18.0403444150
0
SOLID
5
256
100
AcDbEntity
8
___SYMBOL
100
AcDbTrace
62
2
6
CONTINUOUS
10
7.7600464086
20
18.0403444150
11
7.8169701542
21
18.0150003306
12
7.5189135526
22
18.0150003306
13
7.5189135526
23
18.0150003306
0
SOLID
5
257
100
AcDbEntity
8
___SYMBOL
100
AcDbTrace
62
2
6
CONTINUOUS
10
7.4685030589
20
17.9783749630
11
7.5189135526
21
18.0150003306
12
7.8169701542
22
18.0150003306
13
7.8169701542
23
18.0150003306
0
SOLID
5
258
100
AcDbEntity
8
___SYMBOL
100
AcDbTrace
62
2
6
CONTINUOUS
10
7.8169701542
20
18.0150003306
11
7.8673806480
21
17.9783749630
12
7.4685030589
22
17.9783749630
13
7.4685030589
23
17.9783749630
0
SOLID
5
259
100
AcDbEntity
8
___SYMBOL
100
AcDbTrace
62
2
6
CONTINUOUS
10
7.4268089975
20
17.9320690166
11
7.4685030589
21
17.9783749630
12
7.8673806480
22
17.9783749630
13
7.8673806480
23
17.9783749630
0
SOLID
5
25A
100
AcDbEntity
8
___SYMBOL
100
AcDbTrace
62
2
6
CONTINUOUS
10
7.8673806480
20
17.9783749630
11
7.9090747094
21
17.9320690166
12
7.4268089975
22
17.9320690166
13
7.4268089975
23
17.9320690166
0
SOLID
5
25B
100
AcDbEntity
8
___SYMBOL
100
AcDbTrace
62
2
6
CONTINUOUS
10
7.6679418534
20
17.8816451614
11
7.3956535989
21
17.8781062834
12
7.9090747094
22
17.9320690166
13
7.9090747094
23
17.9320690166
0
SOLID
5
25C
100
AcDbEntity
8
___SYMBOL
100
AcDbTrace
62
2
6
CONTINUOUS
10
7.3956535989
20
17.8781062834
11
7.4268089975
21
17.9320690166
12
7.9090747094
22
17.9320690166
13
7.9090747094
23
17.9320690166
0
SOLID
5
25D
100
AcDbEntity
8
___SYMBOL
100
AcDbTrace
62
2
6
CONTINUOUS
10
7.9090747094
20
17.9320690166
11
7.9402301079
21
17.8781062834
12
7.6679418534
22
17.8816451614
13
7.6679418534
23
17.8816451614
0
SOLID
5
25E
100
AcDbEntity
8
___SYMBOL
100
AcDbTrace
62
2
6
CONTINUOUS
10
7.6679418534
20
17.8816451614
11
7.6293859824
21
17.8755385113
12
7.3956535989
22
17.8781062834
13
7.3956535989
23
17.8781062834
0
SOLID
5
25F
100
AcDbEntity
8
___SYMBOL
100
AcDbTrace
62
2
6
CONTINUOUS
10
7.7064977244
20
17.8755385113
11
7.6679418534
21
17.8816451614
12
7.9402301079
22
17.8781062834
13
7.9402301079
23
17.8781062834
0
SOLID
5
260
100
AcDbEntity
8
___SYMBOL
100
AcDbTrace
62
2
6
CONTINUOUS
10
7.5670012727
20
17.8302133666
11
7.3763985037
21
17.8188451939
12
7.5946042287
22
17.8578163226
13
7.5946042287
23
17.8578163226
0
SOLID
5
261
100
AcDbEntity
8
___SYMBOL
100
AcDbTrace
62
2
6
CONTINUOUS
10
7.5946042287
20
17.8578163226
11
7.3763985037
21
17.8188451939
12
7.6293859824
22
17.8755385113
13
7.6293859824
23
17.8755385113
0
SOLID
5
262
100
AcDbEntity
8
___SYMBOL
100
AcDbTrace
62
2
6
CONTINUOUS
10
7.3763985037
20
17.8188451939
11
7.3956535989
21
17.8781062834
12
7.6293859824
22
17.8755385113
13
7.6293859824
23
17.8755385113
0
SOLID
5
263
100
AcDbEntity
8
___SYMBOL
100
AcDbTrace
62
2
6
CONTINUOUS
10
7.7064977244
20
17.8755385113
11
7.9402301079
21
17.8781062834
12
7.7412794782
22
17.8578163226
13
7.7412794782
23
17.8578163226
0
SOLID
5
264
100
AcDbEntity
8
___SYMBOL
100
AcDbTrace
62
2
6
CONTINUOUS
10
7.7412794782
20
17.8578163226
11
7.9402301079
21
17.8781062834
12
7.7688824342
22
17.8302133666
13
7.7688824342
23
17.8302133666
0
SOLID
5
265
100
AcDbEntity
8
___SYMBOL
100
AcDbTrace
62
2
6
CONTINUOUS
10
7.9402301079
20
17.8781062834
11
7.9594852032
21
17.8188451939
12
7.7688824342
22
17.8302133666
13
7.7688824342
23
17.8302133666
0
SOLID
5
266
100
AcDbEntity
8
___SYMBOL
100
AcDbTrace
62
2
6
CONTINUOUS
10
7.5670012727
20
17.8302133666
11
7.5492790840
21
17.7954316129
12
7.3763985037
22
17.8188451939
13
7.3763985037
23
17.8188451939
0
SOLID
5
267
100
AcDbEntity
8
___SYMBOL
100
AcDbTrace
62
2
6
CONTINUOUS
10
7.7866046229
20
17.7954316129
11
7.7688824342
21
17.8302133666
12
7.9594852032
22
17.8188451939
13
7.9594852032
23
17.8188451939
0
SOLID
5
268
100
AcDbEntity
8
___SYMBOL
100
AcDbTrace
62
2
6
CONTINUOUS
10
7.3698852518
20
17.7568757419
11
7.3763985037
21
17.8188451939
12
7.5492790840
22
17.7954316129
13
7.5492790840
23
17.7954316129
0
SOLID
5
269
100
AcDbEntity
8
___SYMBOL
100
AcDbTrace
62
2
6
CONTINUOUS
10
7.5492790840
20
17.7954316129
11
7.5431724339
21
17.7568757419
12
7.3698852518
22
17.7568757419
13
7.3698852518
23
17.7568757419
0
SOLID
5
26A
100
AcDbEntity
8
___SYMBOL
100
AcDbTrace
62
2
6
CONTINUOUS
10
7.7866046229
20
17.7954316129
11
7.9594852032
21
17.8188451939
12
7.7927112729
22
17.7568757419
13
7.7927112729
23
17.7568757419
0
SOLID
5
26B
100
AcDbEntity
8
___SYMBOL
100
AcDbTrace
62
2
6
CONTINUOUS
10
7.9594852032
20
17.8188451939
11
7.9659984550
21
17.7568757419
12
7.7927112729
22
17.7568757419
13
7.7927112729
23
17.7568757419
0
SOLID
5
26C
100
AcDbEntity
8
___SYMBOL
100
AcDbTrace
62
2
6
CONTINUOUS
10
7.7866046229
20
17.7183198708
11
7.7927112729
21
17.7568757419
12
7.9659984550
22
17.7568757419
13
7.9659984550
23
17.7568757419
0
SOLID
5
26D
100
AcDbEntity
8
___SYMBOL
100
AcDbTrace
62
2
6
CONTINUOUS
10
7.5492790840
20
17.7183198708
11
7.3763985037
21
17.6949062899
12
7.5431724339
22
17.7568757419
13
7.5431724339
23
17.7568757419
0
SOLID
5
26E
100
AcDbEntity
8
___SYMBOL
100
AcDbTrace
62
2
6
CONTINUOUS
10
7.3763985037
20
17.6949062899
11
7.3698852518
21
17.7568757419
12
7.5431724339
22
17.7568757419
13
7.5431724339
23
17.7568757419
0
SOLID
5
26F
100
AcDbEntity
8
___SYMBOL
100
AcDbTrace
62
2
6
CONTINUOUS
10
7.9659984550
20
17.7568757419
11
7.9594852032
21
17.6949062899
12
7.7866046229
22
17.7183198708
13
7.7866046229
23
17.7183198708
0
SOLID
5
270
100
AcDbEntity
8
___SYMBOL
100
AcDbTrace
62
2
6
CONTINUOUS
10
7.5492790840
20
17.7183198708
11
7.5670012727
21
17.6835381171
12
7.3763985037
22
17.6949062899
13
7.3763985037
23
17.6949062899
0
SOLID
5
271
100
AcDbEntity
8
___SYMBOL
100
AcDbTrace
62
2
6
CONTINUOUS
10
7.7688824342
20
17.6835381171
11
7.7866046229
21
17.7183198708
12
7.9594852032
22
17.6949062899
13
7.9594852032
23
17.6949062899
0
SOLID
5
272
100
AcDbEntity
8
___SYMBOL
100
AcDbTrace
62
2
6
CONTINUOUS
10
7.6293859824
20
17.6382129724
11
7.3956535989
21
17.6356452003
12
7.5946042287
22
17.6559351611
13
7.5946042287
23
17.6559351611
0
SOLID
5
273
100
AcDbEntity
8
___SYMBOL
100
AcDbTrace
62
2
6
CONTINUOUS
10
7.5946042287
20
17.6559351611
11
7.3956535989
21
17.6356452003
12
7.5670012727
22
17.6835381171
13
7.5670012727
23
17.6835381171
0
SOLID
5
274
100
AcDbEntity
8
___SYMBOL
100
AcDbTrace
62
2
6
CONTINUOUS
10
7.3956535989
20
17.6356452003
11
7.3763985037
21
17.6949062899
12
7.5670012727
22
17.6835381171
13
7.5670012727
23
17.6835381171
0
SOLID
5
275
100
AcDbEntity
8
___SYMBOL
100
AcDbTrace
62
2
6
CONTINUOUS
10
7.7688824342
20
17.6835381171
11
7.9594852032
21
17.6949062899
12
7.7412794782
22
17.6559351611
13
7.7412794782
23
17.6559351611
0
SOLID
5
276
100
AcDbEntity
8
___SYMBOL
100
AcDbTrace
62
2
6
CONTINUOUS
10
7.7412794782
20
17.6559351611
11
7.9594852032
21
17.6949062899
12
7.7064977244
22
17.6382129724
13
7.7064977244
23
17.6382129724
0
SOLID
5
277
100
AcDbEntity
8
___SYMBOL
100
AcDbTrace
62
2
6
CONTINUOUS
10
7.9594852032
20
17.6949062899
11
7.9402301079
21
17.6356452003
12
7.7064977244
22
17.6382129724
13
7.7064977244
23
17.6382129724
0
SOLID
5
278
100
AcDbEntity
8
___SYMBOL
100
AcDbTrace
62
2
6
CONTINUOUS
10
7.6293859824
20
17.6382129724
11
7.6679418534
21
17.6321063223
12
7.3956535989
22
17.6356452003
13
7.3956535989
23
17.6356452003
0
SOLID
5
279
100
AcDbEntity
8
___SYMBOL
100
AcDbTrace
62
2
6
CONTINUOUS
10
7.6679418534
20
17.6321063223
11
7.7064977244
21
17.6382129724
12
7.9402301079
22
17.6356452003
13
7.9402301079
23
17.6356452003
0
SOLID
5
27A
100
AcDbEntity
8
___SYMBOL
100
AcDbTrace
62
2
6
CONTINUOUS
10
7.4268089975
20
17.5816824671
11
7.3956535989
21
17.6356452003
12
7.6679418534
22
17.6321063223
13
7.6679418534
23
17.6321063223
0
SOLID
5
27B
100
AcDbEntity
8
___SYMBOL
100
AcDbTrace
62
2
6
CONTINUOUS
10
7.6679418534
20
17.6321063223
11
7.9402301079
21
17.6356452003
12
7.4268089975
22
17.5816824671
13
7.4268089975
23
17.5816824671
0
SOLID
5
27C
100
AcDbEntity
8
___SYMBOL
100
AcDbTrace
62
2
6
CONTINUOUS
10
7.9402301079
20
17.6356452003
11
7.9090747094
21
17.5816824671
12
7.4268089975
22
17.5816824671
13
7.4268089975
23
17.5816824671
0
SOLID
5
27D
100
AcDbEntity
8
___SYMBOL
100
AcDbTrace
62
2
6
CONTINUOUS
10
7.4685030589
20
17.5353765207
11
7.4268089975
21
17.5816824671
12
7.9090747094
22
17.5816824671
13
7.9090747094
23
17.5816824671
0
SOLID
5
27E
100
AcDbEntity
8
___SYMBOL
100
AcDbTrace
62
2
6
CONTINUOUS
10
7.9090747094
20
17.5816824671
11
7.8673806480
21
17.5353765207
12
7.4685030589
22
17.5353765207
13
7.4685030589
23
17.5353765207
0
SOLID
5
27F
100
AcDbEntity
8
___SYMBOL
100
AcDbTrace
62
2
6
CONTINUOUS
10
7.5189135526
20
17.4987511531
11
7.4685030589
21
17.5353765207
12
7.8673806480
22
17.5353765207
13
7.8673806480
23
17.5353765207
0
SOLID
5
280
100
AcDbEntity
8
___SYMBOL
100
AcDbTrace
62
2
6
CONTINUOUS
10
7.8673806480
20
17.5353765207
11
7.8169701542
21
17.4987511531
12
7.5189135526
22
17.4987511531
13
7.5189135526
23
17.4987511531
0
SOLID
5
281
100
AcDbEntity
8
___SYMBOL
100
AcDbTrace
62
2
6
CONTINUOUS
10
7.5758372983
20
17.4734070687
11
7.5189135526
21
17.4987511531
12
7.8169701542
22
17.4987511531
13
7.8169701542
23
17.4987511531
0
SOLID
5
282
100
AcDbEntity
8
___SYMBOL
100
AcDbTrace
62
2
6
CONTINUOUS
10
7.8169701542
20
17.4987511531
11
7.7600464086
21
17.4734070687
12
7.5758372983
22
17.4734070687
13
7.5758372983
23
17.4734070687
0
SOLID
5
283
100
AcDbEntity
8
___SYMBOL
100
AcDbTrace
62
2
6
CONTINUOUS
10
7.6367864549
20
17.4604519255
11
7.5758372983
21
17.4734070687
12
7.7600464086
22
17.4734070687
13
7.7600464086
23
17.4734070687
0
SOLID
5
284
100
AcDbEntity
8
___SYMBOL
100
AcDbTrace
62
2
6
CONTINUOUS
10
7.7600464086
20
17.4734070687
11
7.6990972520
21
17.4604519255
12
7.6367864549
22
17.4604519255
13
7.6367864549
23
17.4604519255
0
LINE
5
285
100
AcDbEntity
8
___SYMBOL
100
AcDbLine
62
2
6
CONTINUOUS
10
8.4605778908
20
18.0509538288
11
8.4605778908
21
17.4650401587
0
LINE
5
286
100
AcDbEntity
8
___SYMBOL
100
AcDbLine
62
2
6
CONTINUOUS
10
8.4605778908
20
17.4650401587
11
8.2958442051
21
17.4650401587
0
LINE
5
287
100
AcDbEntity
8
___SYMBOL
100
AcDbLine
62
2
6
CONTINUOUS
10
8.2958442051
20
17.6933647766
11
8.2958442051
21
17.4650401587
0
LINE
5
288
100
AcDbEntity
8
___SYMBOL
100
AcDbLine
62
2
6
CONTINUOUS
10
8.1478473887
20
17.6933647766
11
8.2958442051
21
17.6933647766
0
LINE
5
289
100
AcDbEntity
8
___SYMBOL
100
AcDbLine
62
2
6
CONTINUOUS
10
8.1478473887
20
17.6933647766
11
8.1478473887
21
17.4650401587
0
LINE
5
28A
100
AcDbEntity
8
___SYMBOL
100
AcDbLine
62
2
6
CONTINUOUS
10
8.1478473887
20
17.4650401587
11
7.9831137030
21
17.4650401587
0
LINE
5
28B
100
AcDbEntity
8
___SYMBOL
100
AcDbLine
62
2
6
CONTINUOUS
10
7.9831137030
20
18.0509538288
11
7.9831137030
21
17.4650401587
0
LINE
5
28C
100
AcDbEntity
8
___SYMBOL
100
AcDbLine
62
2
6
CONTINUOUS
10
7.9831137030
20
18.0509538288
11
8.1478473887
21
18.0509538288
0
LINE
5
28D
100
AcDbEntity
8
___SYMBOL
100
AcDbLine
62
2
6
CONTINUOUS
10
8.1478473887
20
18.0509538288
11
8.1478473887
21
17.8305700614
0
LINE
5
28E
100
AcDbEntity
8
___SYMBOL
100
AcDbLine
62
2
6
CONTINUOUS
10
8.1478473887
20
17.8305700614
11
8.2958442051
21
17.8305700614
0
LINE
5
28F
100
AcDbEntity
8
___SYMBOL
100
AcDbLine
62
2
6
CONTINUOUS
10
8.2958442051
20
18.0509538288
11
8.2958442051
21
17.8305700614
0
LINE
5
290
100
AcDbEntity
8
___SYMBOL
100
AcDbLine
62
2
6
CONTINUOUS
10
8.2958442051
20
18.0509538288
11
8.4605778908
21
18.0509538288
0
SOLID
5
291
100
AcDbEntity
8
___SYMBOL
100
AcDbTrace
62
2
6
CONTINUOUS
10
8.2958442051
20
17.8305700614
11
8.2958442051
21
18.0509538288
12
8.4605778908
22
18.0509538288
13
8.4605778908
23
18.0509538288
0
SOLID
5
292
100
AcDbEntity
8
___SYMBOL
100
AcDbTrace
62
2
6
CONTINUOUS
10
8.2958442051
20
17.8305700614
11
8.1478473887
21
17.6933647766
12
8.1478473887
22
17.8305700614
13
8.1478473887
23
17.8305700614
0
SOLID
5
293
100
AcDbEntity
8
___SYMBOL
100
AcDbTrace
62
2
6
CONTINUOUS
10
8.1478473887
20
17.6933647766
11
7.9831137030
21
17.4650401587
12
8.1478473887
22
17.8305700614
13
8.1478473887
23
17.8305700614
0
SOLID
5
294
100
AcDbEntity
8
___SYMBOL
100
AcDbTrace
62
2
6
CONTINUOUS
10
8.1478473887
20
17.8305700614
11
7.9831137030
21
17.4650401587
12
8.1478473887
22
18.0509538288
13
8.1478473887
23
18.0509538288
0
SOLID
5
295
100
AcDbEntity
8
___SYMBOL
100
AcDbTrace
62
2
6
CONTINUOUS
10
7.9831137030
20
17.4650401587
11
7.9831137030
21
18.0509538288
12
8.1478473887
22
18.0509538288
13
8.1478473887
23
18.0509538288
0
SOLID
5
296
100
AcDbEntity
8
___SYMBOL
100
AcDbTrace
62
2
6
CONTINUOUS
10
8.1478473887
20
17.6933647766
11
8.1478473887
21
17.4650401587
12
7.9831137030
22
17.4650401587
13
7.9831137030
23
17.4650401587
0
SOLID
5
297
100
AcDbEntity
8
___SYMBOL
100
AcDbTrace
62
2
6
CONTINUOUS
10
8.1478473887
20
17.6933647766
11
8.2958442051
21
17.8305700614
12
8.2958442051
22
17.6933647766
13
8.2958442051
23
17.6933647766
0
SOLID
5
298
100
AcDbEntity
8
___SYMBOL
100
AcDbTrace
62
2
6
CONTINUOUS
10
8.2958442051
20
17.8305700614
11
8.4605778908
21
18.0509538288
12
8.2958442051
22
17.6933647766
13
8.2958442051
23
17.6933647766
0
SOLID
5
299
100
AcDbEntity
8
___SYMBOL
100
AcDbTrace
62
2
6
CONTINUOUS
10
8.2958442051
20
17.6933647766
11
8.4605778908
21
18.0509538288
12
8.2958442051
22
17.4650401587
13
8.2958442051
23
17.4650401587
0
SOLID
5
29A
100
AcDbEntity
8
___SYMBOL
100
AcDbTrace
62
2
6
CONTINUOUS
10
8.4605778908
20
18.0509538288
11
8.4605778908
21
17.4650401587
12
8.2958442051
22
17.4650401587
13
8.2958442051
23
17.4650401587
0
LINE
5
29B
100
AcDbEntity
8
___SYMBOL
100
AcDbLine
62
2
6
CONTINUOUS
10
8.6556688047
20
17.4650401587
11
8.8183528804
21
17.4650401587
0
LINE
5
29C
100
AcDbEntity
8
___SYMBOL
100
AcDbLine
62
2
6
CONTINUOUS
10
8.6556688047
20
17.4650401587
11
8.5056227366
21
17.4650401587
0
LINE
5
29D
100
AcDbEntity
8
___SYMBOL
100
AcDbLine
62
2
6
CONTINUOUS
10
8.5056227366
20
17.4650401587
11
8.5056227366
21
18.0509538288
0
LINE
5
29E
100
AcDbEntity
8
___SYMBOL
100
AcDbLine
62
2
6
CONTINUOUS
10
8.5056227366
20
18.0509538288
11
8.6556688047
21
18.0509538288
0
LINE
5
29F
100
AcDbEntity
8
___SYMBOL
100
AcDbLine
62
2
6
CONTINUOUS
10
8.6556688047
20
18.0509538288
11
8.6556688047
21
17.6062669208
0
LINE
5
2A0
100
AcDbEntity
8
___SYMBOL
100
AcDbLine
62
2
6
CONTINUOUS
10
8.6556688047
20
17.6062669208
11
8.8183528804
21
17.6062669208
0
LINE
5
2A1
100
AcDbEntity
8
___SYMBOL
100
AcDbLine
62
2
6
CONTINUOUS
10
8.8183528804
20
17.6062669208
11
8.8183528804
21
17.4650401587
0
SOLID
5
2A2
100
AcDbEntity
8
___SYMBOL
100
AcDbTrace
62
2
6
CONTINUOUS
10
8.8183528804
20
17.6062669208
11
8.5056227366
21
17.4650401587
12
8.6556688047
22
17.6062669208
13
8.6556688047
23
17.6062669208
0
SOLID
5
2A3
100
AcDbEntity
8
___SYMBOL
100
AcDbTrace
62
2
6
CONTINUOUS
10
8.6556688047
20
17.6062669208
11
8.5056227366
21
17.4650401587
12
8.6556688047
22
18.0509538288
13
8.6556688047
23
18.0509538288
0
SOLID
5
2A4
100
AcDbEntity
8
___SYMBOL
100
AcDbTrace
62
2
6
CONTINUOUS
10
8.5056227366
20
17.4650401587
11
8.5056227366
21
18.0509538288
12
8.6556688047
22
18.0509538288
13
8.6556688047
23
18.0509538288
0
SOLID
5
2A5
100
AcDbEntity
8
___SYMBOL
100
AcDbTrace
62
2
6
CONTINUOUS
10
8.5056227366
20
17.4650401587
11
8.8183528804
21
17.6062669208
12
8.6556688047
22
17.4650401587
13
8.6556688047
23
17.4650401587
0
SOLID
5
2A6
100
AcDbEntity
8
___SYMBOL
100
AcDbTrace
62
2
6
CONTINUOUS
10
8.8183528804
20
17.6062669208
11
8.8183528804
21
17.4650401587
12
8.6556688047
22
17.4650401587
13
8.6556688047
23
17.4650401587
0
LINE
5
2A7
100
AcDbEntity
8
___SYMBOL
100
AcDbLine
62
2
6
CONTINUOUS
10
9.1566048065
20
17.6861884547
11
9.1566048065
21
17.8305700614
0
LINE
5
2A8
100
AcDbEntity
8
___SYMBOL
100
AcDbLine
62
2
6
CONTINUOUS
10
9.0057472777
20
17.8305700614
11
9.1566048065
21
17.8305700614
0
LINE
5
2A9
100
AcDbEntity
8
___SYMBOL
100
AcDbLine
62
2
6
CONTINUOUS
10
9.0057472777
20
17.9081944270
11
9.0057472777
21
17.8305700614
0
LINE
5
2AA
100
AcDbEntity
8
___SYMBOL
100
AcDbLine
62
2
6
CONTINUOUS
10
9.0057472777
20
17.9081944270
11
9.1566048065
21
17.9081944270
0
LINE
5
2AB
100
AcDbEntity
8
___SYMBOL
100
AcDbLine
62
2
6
CONTINUOUS
10
9.1566048065
20
17.9081944270
11
9.1566048065
21
18.0509538288
0
LINE
5
2AC
100
AcDbEntity
8
___SYMBOL
100
AcDbLine
62
2
6
CONTINUOUS
10
9.0199516016
20
18.0509538288
11
9.1566048065
21
18.0509538288
0
LINE
5
2AD
100
AcDbEntity
8
___SYMBOL
100
AcDbLine
62
2
6
CONTINUOUS
10
8.8475006201
20
18.0509538288
11
9.0199516016
21
18.0509538288
0
LINE
5
2AE
100
AcDbEntity
8
___SYMBOL
100
AcDbLine
62
2
6
CONTINUOUS
10
8.8475006201
20
17.4650401587
11
8.8475006201
21
18.0509538288
0
LINE
5
2AF
100
AcDbEntity
8
___SYMBOL
100
AcDbLine
62
2
6
CONTINUOUS
10
8.8475006201
20
17.4650401587
11
9.1566048065
21
17.4650401587
0
LINE
5
2B0
100
AcDbEntity
8
___SYMBOL
100
AcDbLine
62
2
6
CONTINUOUS
10
9.1566048065
20
17.4650401587
11
9.1566048065
21
17.6062669208
0
LINE
5
2B1
100
AcDbEntity
8
___SYMBOL
100
AcDbLine
62
2
6
CONTINUOUS
10
9.0057472777
20
17.6062669208
11
9.1566048065
21
17.6062669208
0
LINE
5
2B2
100
AcDbEntity
8
___SYMBOL
100
AcDbLine
62
2
6
CONTINUOUS
10
9.0057472777
20
17.6861884547
11
9.0057472777
21
17.6062669208
0
LINE
5
2B3
100
AcDbEntity
8
___SYMBOL
100
AcDbLine
62
2
6
CONTINUOUS
10
9.0057472777
20
17.6861884547
11
9.1566048065
21
17.6861884547
0
SOLID
5
2B4
100
AcDbEntity
8
___SYMBOL
100
AcDbTrace
62
2
6
CONTINUOUS
10
9.1566048065
20
18.0509538288
11
9.1566048065
21
17.9081944270
12
9.0057472777
22
17.9081944270
13
9.0057472777
23
17.9081944270
0
SOLID
5
2B5
100
AcDbEntity
8
___SYMBOL
100
AcDbTrace
62
2
6
CONTINUOUS
10
9.1566048065
20
17.8305700614
11
9.1566048065
21
17.6861884547
12
9.0057472777
22
17.6861884547
13
9.0057472777
23
17.6861884547
0
SOLID
5
2B6
100
AcDbEntity
8
___SYMBOL
100
AcDbTrace
62
2
6
CONTINUOUS
10
9.1566048065
20
17.6062669208
11
8.8475006201
21
17.4650401587
12
9.0057472777
22
17.6062669208
13
9.0057472777
23
17.6062669208
0
SOLID
5
2B7
100
AcDbEntity
8
___SYMBOL
100
AcDbTrace
62
2
6
CONTINUOUS
10
9.0057472777
20
17.6062669208
11
8.8475006201
21
17.4650401587
12
9.0057472777
22
17.6861884547
13
9.0057472777
23
17.6861884547
0
SOLID
5
2B8
100
AcDbEntity
8
___SYMBOL
100
AcDbTrace
62
2
6
CONTINUOUS
10
9.1566048065
20
17.8305700614
11
9.0057472777
21
17.6861884547
12
9.0057472777
22
17.8305700614
13
9.0057472777
23
17.8305700614
0
SOLID
5
2B9
100
AcDbEntity
8
___SYMBOL
100
AcDbTrace
62
2
6
CONTINUOUS
10
9.0057472777
20
17.6861884547
11
8.8475006201
21
17.4650401587
12
9.0057472777
22
17.8305700614
13
9.0057472777
23
17.8305700614
0
SOLID
5
2BA
100
AcDbEntity
8
___SYMBOL
100
AcDbTrace
62
2
6
CONTINUOUS
10
9.0057472777
20
17.8305700614
11
8.8475006201
21
17.4650401587
12
9.0057472777
22
17.9081944270
13
9.0057472777
23
17.9081944270
0
SOLID
5
2BB
100
AcDbEntity
8
___SYMBOL
100
AcDbTrace
62
2
6
CONTINUOUS
10
9.1566048065
20
18.0509538288
11
9.0057472777
21
17.9081944270
12
9.0199516016
22
18.0509538288
13
9.0199516016
23
18.0509538288
0
SOLID
5
2BC
100
AcDbEntity
8
___SYMBOL
100
AcDbTrace
62
2
6
CONTINUOUS
10
9.0057472777
20
17.9081944270
11
8.8475006201
21
17.4650401587
12
9.0199516016
22
18.0509538288
13
9.0199516016
23
18.0509538288
0
SOLID
5
2BD
100
AcDbEntity
8
___SYMBOL
100
AcDbTrace
62
2
6
CONTINUOUS
10
8.8475006201
20
17.4650401587
11
8.8475006201
21
18.0509538288
12
9.0199516016
22
18.0509538288
13
9.0199516016
23
18.0509538288
0
SOLID
5
2BE
100
AcDbEntity
8
___SYMBOL
100
AcDbTrace
62
2
6
CONTINUOUS
10
9.1566048065
20
17.6062669208
11
9.1566048065
21
17.4650401587
12
8.8475006201
22
17.4650401587
13
8.8475006201
23
17.4650401587
0
LINE
5
2BF
100
AcDbEntity
8
___SYMBOL
100
AcDbLine
62
2
6
CONTINUOUS
10
9.6668552306
20
17.4650401587
11
9.5074119820
21
17.7166227089
0
ARC
5
2C0
100
AcDbEntity
8
___SYMBOL
100
AcDbCircle
62
2
6
CONTINUOUS
10
9.4349727317
20
17.8759443119
40
0.1750166225
100
AcDbArc
50
294.4500166359
51
90.0000000000
0
LINE
5
2C1
100
AcDbEntity
8
___SYMBOL
100
AcDbLine
62
2
6
CONTINUOUS
10
9.2014250228
20
18.0509538288
11
9.4349727317
21
18.0509538288
0
LINE
5
2C2
100
AcDbEntity
8
___SYMBOL
100
AcDbLine
62
2
6
CONTINUOUS
10
9.2014250228
20
17.4650401587
11
9.2014250228
21
18.0509538288
0
LINE
5
2C3
100
AcDbEntity
8
___SYMBOL
100
AcDbLine
62
2
6
CONTINUOUS
10
9.2014250228
20
17.4650401587
11
9.3520808507
21
17.4650401587
0
LINE
5
2C4
100
AcDbEntity
8
___SYMBOL
100
AcDbLine
62
2
6
CONTINUOUS
10
9.3520808507
20
17.6619965365
11
9.3520808507
21
17.4650401587
0
LINE
5
2C5
100
AcDbEntity
8
___SYMBOL
100
AcDbLine
62
2
6
CONTINUOUS
10
9.4769042843
20
17.4650401587
11
9.3520808507
21
17.6619965365
0
LINE
5
2C6
100
AcDbEntity
8
___SYMBOL
100
AcDbLine
62
2
6
CONTINUOUS
10
9.4769042843
20
17.4650401587
11
9.6668552306
21
17.4650401587
0
LINE
5
2C7
100
AcDbEntity
8
___SYMBOL
100
AcDbLine
62
2
6
CONTINUOUS
10
9.3520808507
20
17.8012718521
11
9.4044206027
21
17.8012718521
0
ARC
5
2C8
100
AcDbEntity
8
___SYMBOL
100
AcDbCircle
62
2
6
CONTINUOUS
10
9.4080106322
20
17.8547632535
40
0.0536117369
100
AcDbArc
50
266.1604009902
51
89.9998910512
0
LINE
5
2C9
100
AcDbEntity
8
___SYMBOL
100
AcDbLine
62
2
6
CONTINUOUS
10
9.4080107341
20
17.9083749904
11
9.3520808507
21
17.9083749904
0
LINE
5
2CA
100
AcDbEntity
8
___SYMBOL
100
AcDbLine
62
2
6
CONTINUOUS
10
9.3520808507
20
17.9083749904
11
9.3520808507
21
17.8012718521
0
SOLID
5
2CB
100
AcDbEntity
8
___SYMBOL
100
AcDbTrace
62
2
6
CONTINUOUS
10
9.4349727317
20
18.0509609345
11
9.4819057569
21
18.0445506858
12
9.2014250228
22
18.0509538288
13
9.2014250228
23
18.0509538288
0
SOLID
5
2CC
100
AcDbEntity
8
___SYMBOL
100
AcDbTrace
62
2
6
CONTINUOUS
10
9.3520808507
20
17.9083749904
11
9.6060206008
21
17.9130043261
12
9.4080107341
22
17.9083749904
13
9.4080107341
23
17.9083749904
0
SOLID
5
2CD
100
AcDbEntity
8
___SYMBOL
100
AcDbTrace
62
2
6
CONTINUOUS
10
9.4080107341
20
17.9083749904
11
9.6060206008
21
17.9130043261
12
9.4317333166
22
17.9028408219
13
9.4317333166
23
17.9028408219
0
SOLID
5
2CE
100
AcDbEntity
8
___SYMBOL
100
AcDbTrace
62
2
6
CONTINUOUS
10
9.4317333166
20
17.9028408219
11
9.6060206008
21
17.9130043261
12
9.4505583049
22
17.8873809463
13
9.4505583049
23
17.8873809463
0
SOLID
5
2CF
100
AcDbEntity
8
___SYMBOL
100
AcDbTrace
62
2
6
CONTINUOUS
10
9.6060206008
20
17.9130043261
11
9.6096938474
21
17.8657781956
12
9.4505583049
22
17.8873809463
13
9.4505583049
23
17.8873809463
0
SOLID
5
2D0
100
AcDbEntity
8
___SYMBOL
100
AcDbTrace
62
2
6
CONTINUOUS
10
9.4605992438
20
17.8651870849
11
9.4505583049
21
17.8873809463
12
9.6096938474
22
17.8657781956
13
9.6096938474
23
17.8657781956
0
SOLID
5
2D1
100
AcDbEntity
8
___SYMBOL
100
AcDbTrace
62
2
6
CONTINUOUS
10
9.4605992438
20
17.8651870849
11
9.6096938474
21
17.8657781956
12
9.4597831621
22
17.8408412034
13
9.4597831621
23
17.8408412034
0
SOLID
5
2D2
100
AcDbEntity
8
___SYMBOL
100
AcDbTrace
62
2
6
CONTINUOUS
10
9.4597831621
20
17.8408412034
11
9.6096938474
21
17.8657781956
12
9.4482785414
22
17.8193695560
13
9.4482785414
23
17.8193695560
0
SOLID
5
2D3
100
AcDbEntity
8
___SYMBOL
100
AcDbTrace
62
2
6
CONTINUOUS
10
9.6096938474
20
17.8657781956
11
9.6005682434
21
17.8192967639
12
9.4482785414
22
17.8193695560
13
9.4482785414
23
17.8193695560
0
SOLID
5
2D4
100
AcDbEntity
8
___SYMBOL
100
AcDbTrace
62
2
6
CONTINUOUS
10
9.4284605329
20
17.8052050060
11
9.4482785414
21
17.8193695560
12
9.6005682434
22
17.8192967639
13
9.6005682434
23
17.8192967639
0
SOLID
5
2D5
100
AcDbEntity
8
___SYMBOL
100
AcDbTrace
62
2
6
CONTINUOUS
10
9.4284605329
20
17.8052050060
11
9.6005682434
21
17.8192967639
12
9.4044206027
22
17.8012718521
13
9.4044206027
23
17.8012718521
0
SOLID
5
2D6
100
AcDbEntity
8
___SYMBOL
100
AcDbTrace
62
2
6
CONTINUOUS
10
9.6005682434
20
17.8192967639
11
9.5793122669
21
17.7769649366
12
9.4044206027
22
17.8012718521
13
9.4044206027
23
17.8012718521
0
SOLID
5
2D7
100
AcDbEntity
8
___SYMBOL
100
AcDbTrace
62
2
6
CONTINUOUS
10
9.5074119820
20
17.7166227089
11
9.3520808507
21
17.6619965365
12
9.5474829827
22
17.7418836480
13
9.5474829827
23
17.7418836480
0
SOLID
5
2D8
100
AcDbEntity
8
___SYMBOL
100
AcDbTrace
62
2
6
CONTINUOUS
10
9.5474829827
20
17.7418836480
11
9.3520808507
21
17.6619965365
12
9.5793122669
22
17.7769649366
13
9.5793122669
23
17.7769649366
0
SOLID
5
2D9
100
AcDbEntity
8
___SYMBOL
100
AcDbTrace
62
2
6
CONTINUOUS
10
9.5793122669
20
17.7769649366
11
9.3520808507
21
17.6619965365
12
9.4044206027
22
17.8012718521
13
9.4044206027
23
17.8012718521
0
SOLID
5
2DA
100
AcDbEntity
8
___SYMBOL
100
AcDbTrace
62
2
6
CONTINUOUS
10
9.3520808507
20
17.6619965365
11
9.2014250228
21
17.4650401587
12
9.4044206027
22
17.8012718521
13
9.4044206027
23
17.8012718521
0
SOLID
5
2DB
100
AcDbEntity
8
___SYMBOL
100
AcDbTrace
62
2
6
CONTINUOUS
10
9.4044206027
20
17.8012718521
11
9.2014250228
21
17.4650401587
12
9.3520808507
22
17.8012718521
13
9.3520808507
23
17.8012718521
0
SOLID
5
2DC
100
AcDbEntity
8
___SYMBOL
100
AcDbTrace
62
2
6
CONTINUOUS
10
9.3520808507
20
17.8012718521
11
9.2014250228
21
17.4650401587
12
9.3520808507
22
17.9083749904
13
9.3520808507
23
17.9083749904
0
SOLID
5
2DD
100
AcDbEntity
8
___SYMBOL
100
AcDbTrace
62
2
6
CONTINUOUS
10
9.6060206008
20
17.9130043261
11
9.3520808507
21
17.9083749904
12
9.5898175801
22
17.9575156984
13
9.5898175801
23
17.9575156984
0
SOLID
5
2DE
100
AcDbEntity
8
___SYMBOL
100
AcDbTrace
62
2
6
CONTINUOUS
10
9.5898175801
20
17.9575156984
11
9.3520808507
21
17.9083749904
12
9.5622717056
22
17.9960517197
13
9.5622717056
23
17.9960517197
0
SOLID
5
2DF
100
AcDbEntity
8
___SYMBOL
100
AcDbTrace
62
2
6
CONTINUOUS
10
9.5622717056
20
17.9960517197
11
9.3520808507
21
17.9083749904
12
9.5254007960
22
18.0257895099
13
9.5254007960
23
18.0257895099
0
SOLID
5
2E0
100
AcDbEntity
8
___SYMBOL
100
AcDbTrace
62
2
6
CONTINUOUS
10
9.5254007960
20
18.0257895099
11
9.3520808507
21
17.9083749904
12
9.4819057569
22
18.0445506858
13
9.4819057569
23
18.0445506858
0
SOLID
5
2E1
100
AcDbEntity
8
___SYMBOL
100
AcDbTrace
62
2
6
CONTINUOUS
10
9.4819057569
20
18.0445506858
11
9.3520808507
21
17.9083749904
12
9.2014250228
22
18.0509538288
13
9.2014250228
23
18.0509538288
0
SOLID
5
2E2
100
AcDbEntity
8
___SYMBOL
100
AcDbTrace
62
2
6
CONTINUOUS
10
9.2014250228
20
17.4650401587
11
9.2014250228
21
18.0509538288
12
9.3520808507
22
17.9083749904
13
9.3520808507
23
17.9083749904
0
SOLID
5
2E3
100
AcDbEntity
8
___SYMBOL
100
AcDbTrace
62
2
6
CONTINUOUS
10
9.3520808507
20
17.6619965365
11
9.3520808507
21
17.4650401587
12
9.2014250228
22
17.4650401587
13
9.2014250228
23
17.4650401587
0
SOLID
5
2E4
100
AcDbEntity
8
___SYMBOL
100
AcDbTrace
62
2
6
CONTINUOUS
10
9.3520808507
20
17.6619965365
11
9.5074119820
21
17.7166227089
12
9.4769042843
22
17.4650401587
13
9.4769042843
23
17.4650401587
0
SOLID
5
2E5
100
AcDbEntity
8
___SYMBOL
100
AcDbTrace
62
2
6
CONTINUOUS
10
9.5074119820
20
17.7166227089
11
9.6668552306
21
17.4650401587
12
9.4769042843
22
17.4650401587
13
9.4769042843
23
17.4650401587
0
CIRCLE
5
2E6
100
AcDbEntity
8
___SYMBOL
100
AcDbCircle
62
2
6
CONTINUOUS
10
9.8076252103
20
17.4650401587
40
0.0653578744
0
LINE
5
2E7
100
AcDbEntity
8
___SYMBOL
100
AcDbLine
62
2
6
CONTINUOUS
10
9.8033371868
20
17.4645024092
11
9.8352052007
21
17.4321994667
0
LINE
5
2E8
100
AcDbEntity
8
___SYMBOL
100
AcDbLine
62
2
6
CONTINUOUS
10
9.7917392103
20
17.4321994667
11
9.7917392103
21
17.4981656679
0
LINE
5
2E9
100
AcDbEntity
8
___SYMBOL
100
AcDbLine
62
2
6
CONTINUOUS
10
9.7917392103
20
17.4981656679
11
9.8160185441
21
17.4981656679
0
ARC
5
2EA
100
AcDbEntity
8
___SYMBOL
100
AcDbCircle
62
2
6
CONTINUOUS
10
9.8160185441
20
17.4813342177
40
0.0168314502
100
AcDbArc
50
270.0000000000
51
90.0000000000
0
LINE
5
2EB
100
AcDbEntity
8
___SYMBOL
100
AcDbLine
62
2
6
CONTINUOUS
10
9.8160185441
20
17.4645024092
11
9.7917392103
21
17.4645024092
0
TEXT
5
2EC
100
AcDbEntity
8
___SYMBOL
100
AcDbText
62
2
6
CONTINUOUS
10
6.9323961470
20
13.5140485054
7
STANDARD
40
0.2500000089
1
UNDERTONE
41
0.8000000000
72
0
100
AcDbText
0
TEXT
5
2ED
100
AcDbEntity
8
___SYMBOL
100
AcDbText
62
2
6
CONTINUOUS
10
8.7323962110
20
13.5140485054
7
STANDARD
40
0.2500000089
1
   
41
0.8000000000
72
0
100
AcDbText
0
TEXT
5
2EE
100
AcDbEntity
8
___SYMBOL
100
AcDbText
62
2
6
CONTINUOUS
10
9.3323962323
20
13.5140485054
7
STANDARD
40
0.2500000089
1
3331
41
0.8000000000
72
0
100
AcDbText
0
TEXT
5
2EF
100
AcDbEntity
8
___SYMBOL
100
AcDbText
62
2
6
CONTINUOUS
10
10.1323962607
20
13.5140485054
7
STANDARD
40
0.2500000089
1
-**-
41
0.8000000000
72
0
100
AcDbText
0
TEXT
5
2F0
100
AcDbEntity
8
___SYMBOL
100
AcDbText
62
2
6
CONTINUOUS
10
10.9323962892
20
13.5140485054
7
STANDARD
40
0.2500000089
1
BB
41
0.8000000000
72
0
100
AcDbText
0
TEXT
5
2F1
100
AcDbEntity
8
___SYMBOL
100
AcDbText
62
2
6
CONTINUOUS
10
6.9330302217
20
11.7428776263
7
STANDARD
40
0.2500000089
1
ICEROCK  
41
0.8000000000
72
0
100
AcDbText
0
TEXT
5
2F2
100
AcDbEntity
8
___SYMBOL
100
AcDbText
62
2
6
CONTINUOUS
10
8.7330302857
20
11.7428776263
7
STANDARD
40
0.2500000089
1
   
41
0.8000000000
72
0
100
AcDbText
0
TEXT
5
2F3
100
AcDbEntity
8
___SYMBOL
100
AcDbText
62
2
6
CONTINUOUS
10
9.3330303070
20
11.7428776263
7
STANDARD
40
0.2500000089
1
3331W
41
0.8000000000
72
0
100
AcDbText
0
TEXT
5
2F4
100
AcDbEntity
8
___SYMBOL
100
AcDbText
62
2
6
CONTINUOUS
10
10.3330303426
20
11.7428776263
7
STANDARD
40
0.2500000089
1
-**-
41
0.8000000000
72
0
100
AcDbText
0
TEXT
5
2F5
100
AcDbEntity
8
___SYMBOL
100
AcDbText
62
2
6
CONTINUOUS
10
11.1330303710
20
11.7428776263
7
STANDARD
40
0.2500000089
1
AA
41
0.8000000000
72
0
100
AcDbText
0
TEXT
5
2F6
100
AcDbEntity
8
___SYMBOL
100
AcDbText
62
2
6
CONTINUOUS
10
6.9355324509
20
12.6215236489
7
STANDARD
40
0.2500000089
1
ICEROCK  
41
0.8000000000
72
0
100
AcDbText
0
TEXT
5
2F7
100
AcDbEntity
8
___SYMBOL
100
AcDbText
62
2
6
CONTINUOUS
10
8.7355325148
20
12.6215236489
7
STANDARD
40
0.2500000089
1
   
41
0.8000000000
72
0
100
AcDbText
0
TEXT
5
2F8
100
AcDbEntity
8
___SYMBOL
100
AcDbText
62
2
6
CONTINUOUS
10
9.3355325362
20
12.6215236489
7
STANDARD
40
0.2500000089
1
3330W
41
0.8000000000
72
0
100
AcDbText
0
TEXT
5
2F9
100
AcDbEntity
8
___SYMBOL
100
AcDbText
62
2
6
CONTINUOUS
10
10.3355325717
20
12.6215236489
7
STANDARD
40
0.2500000089
1
-**-
41
0.8000000000
72
0
100
AcDbText
0
TEXT
5
2FA
100
AcDbEntity
8
___SYMBOL
100
AcDbText
62
2
6
CONTINUOUS
10
11.1355326002
20
12.6215236489
7
STANDARD
40
0.2500000089
1
AA
41
0.8000000000
72
0
100
AcDbText
0
ENDBLK
5
2FB
100
AcDbEntity
8
0
6
BYBLOCK
62
0
100
AcDbBlockEnd
0
BLOCK
5
2FC
100
AcDbEntity
8
___SYMBOL
100
AcDbBlockBegin
62
2
6
CONTINUOUS
2
PACKAGING_UPC_BL2
70
64
10
9.6489992576
20
7.1207027305
3
PACKAGING_UPC_BL2
1

0
TEXT
5
2FD
100
AcDbEntity
8
___SYMBOL
100
AcDbText
62
7
6
CONTINUOUS
10
8.1149983744
20
7.6477060314
7
STANDARD
40
0.0593587494
1
XXXXX-XX-X-XX
41
0.8258950207
72
0
100
AcDbText
0
TEXT
5
2FE
100
AcDbEntity
8
___SYMBOL
100
AcDbText
62
7
6
CONTINUOUS
10
9.7489783584
20
7.5185410327
7
STANDARD
40
0.0445192496
1
xxxxxx-xx
41
0.6740211618
72
0
100
AcDbText
0
TEXT
5
2FF
100
AcDbEntity
8
___SYMBOL
100
AcDbText
62
2
6
CONTINUOUS
10
6.9846540769
20
9.1913346962
7
STANDARD
40
0.1562500055
1
PACKAGING/UPC LABEL ON BOX
41
0.7999999985
72
0
100
AcDbText
0
TEXT
5
300
100
AcDbEntity
8
___SYMBOL
100
AcDbText
62
2
6
CONTINUOUS
10
6.9846540769
20
8.9569596884
7
STANDARD
40
0.1562500055
1
ETIQUETA DE EMBALAJE/UPC EN LA CAJA
41
0.7999999985
72
0
100
AcDbText
0
TEXT
5
301
100
AcDbEntity
8
___SYMBOL
100
AcDbText
62
2
6
CONTINUOUS
10
6.9846540769
20
8.7225846871
7
STANDARD
40
0.1562500003
1
ETIQUETTE D'EMBALLAGE/UPC SUR LA BOÎTE
41
0.7999999985
72
0
100
AcDbText
0
TEXT
5
302
100
AcDbEntity
8
___SYMBOL
100
AcDbText
62
2
6
CONTINUOUS
10
6.9614991677
20
7.0031957763
7
STANDARD
40
0.1562500055
1
The template and the label suffixes circled
41
0.7999999985
72
0
100
AcDbText
0
TEXT
5
303
100
AcDbEntity
8
___SYMBOL
100
AcDbText
62
2
6
CONTINUOUS
10
6.9614991677
20
6.7688207685
7
STANDARD
40
0.1562500055
1
must match for proper cut-out.
41
0.7999999985
72
0
100
AcDbText
0
TEXT
5
304
100
AcDbEntity
8
___SYMBOL
100
AcDbText
62
2
6
CONTINUOUS
10
6.9614991677
20
6.5344457672
7
STANDARD
40
0.1562500003
1
 
41
0.7999999985
72
0
100
AcDbText
0
TEXT
5
305
100
AcDbEntity
8
___SYMBOL
100
AcDbText
62
2
6
CONTINUOUS
10
6.9614991677
20
6.3000707606
7
STANDARD
40
0.1562500055
1
A fin de realizar el corte apropiado, la
41
0.7999999985
72
0
100
AcDbText
0
TEXT
5
306
100
AcDbEntity
8
___SYMBOL
100
AcDbText
62
2
6
CONTINUOUS
10
6.9614991677
20
6.0656957593
7
STANDARD
40
0.1562500003
1
plantilla y los sufijos de la etiqueta
41
0.7999999985
72
0
100
AcDbText
0
TEXT
5
307
100
AcDbEntity
8
___SYMBOL
100
AcDbText
62
2
6
CONTINUOUS
10
6.9614991677
20
5.8313207593
7
STANDARD
40
0.1562500003
1
demarcados deben concordar.
41
0.7999999985
72
0
100
AcDbText
0
TEXT
5
308
100
AcDbEntity
8
___SYMBOL
100
AcDbText
62
2
6
CONTINUOUS
10
6.9614991677
20
5.5969457593
7
STANDARD
40
0.1562500003
1
 
41
0.7999999985
72
0
100
AcDbText
0
TEXT
5
309
100
AcDbEntity
8
___SYMBOL
100
AcDbText
62
2
6
CONTINUOUS
10
6.9614991677
20
5.3625707593
7
STANDARD
40
0.1562500003
1
Afin de découper l'ouverture correctement,
41
0.7999999985
72
0
100
AcDbText
0
TEXT
5
30A
100
AcDbEntity
8
___SYMBOL
100
AcDbText
62
2
6
CONTINUOUS
10
6.9614991677
20
5.1281957593
7
STANDARD
40
0.1562500003
1
le gabarit et les suffixes encerclés
41
0.7999999985
72
0
100
AcDbText
0
TEXT
5
30B
100
AcDbEntity
8
___SYMBOL
100
AcDbText
62
2
6
CONTINUOUS
10
6.9614991677
20
4.8938207593
7
STANDARD
40
0.1562500003
1
doivent correspondre
41
0.7999999985
72
0
100
AcDbText
0
LINE
5
30C
100
AcDbEntity
8
___SYMBOL
100
AcDbLine
62
7
6
CONTINUOUS
10
10.1038033550
20
7.4918110329
11
7.9187608763
21
7.4918110329
0
LINE
5
30D
100
AcDbEntity
8
___SYMBOL
100
AcDbLine
62
7
6
CONTINUOUS
10
7.9187608763
20
7.4918110329
11
7.9187608763
21
8.4848410232
0
LINE
5
30E
100
AcDbEntity
8
___SYMBOL
100
AcDbLine
62
7
6
CONTINUOUS
10
7.9187608763
20
8.4848410232
11
10.1038033550
21
8.4848410232
0
LINE
5
30F
100
AcDbEntity
8
___SYMBOL
100
AcDbLine
62
7
6
CONTINUOUS
10
10.1038033550
20
8.4848410232
11
10.1038033550
21
7.4918110329
0
LINE
5
310
100
AcDbEntity
8
___SYMBOL
100
AcDbLine
62
7
6
CONTINUOUS
10
7.8853933766
20
8.5173010229
11
10.1379583547
21
8.5173010229
0
LINE
5
311
100
AcDbEntity
8
___SYMBOL
100
AcDbLine
62
7
6
CONTINUOUS
10
10.1379583547
20
8.5173010229
11
10.1379583547
21
7.4243935336
0
LINE
5
312
100
AcDbEntity
8
___SYMBOL
100
AcDbLine
62
7
6
CONTINUOUS
10
10.1379583547
20
7.4243935336
11
7.8853933766
21
7.4243935336
0
LINE
5
313
100
AcDbEntity
8
___SYMBOL
100
AcDbLine
62
7
6
CONTINUOUS
10
7.8853933766
20
7.4243935336
11
7.8853933766
21
8.5173010229
0
LINE
5
314
100
AcDbEntity
8
___SYMBOL
100
AcDbLine
62
7
6
CONTINUOUS
10
9.8986183570
20
7.9234810287
11
9.8986183570
21
7.8018460299
0
LINE
5
315
100
AcDbEntity
8
___SYMBOL
100
AcDbLine
62
7
6
CONTINUOUS
10
9.8986183570
20
7.8018460299
11
9.5556658603
21
7.8018460299
0
LINE
5
316
100
AcDbEntity
8
___SYMBOL
100
AcDbLine
62
7
6
CONTINUOUS
10
9.5556658603
20
7.8018460299
11
9.5556658603
21
7.9234810287
0
LINE
5
317
100
AcDbEntity
8
___SYMBOL
100
AcDbLine
62
7
6
CONTINUOUS
10
9.5556658603
20
7.9234810287
11
9.8986183570
21
7.9234810287
0
SOLID
5
318
100
AcDbEntity
8
___SYMBOL
100
AcDbTrace
62
7
6
CONTINUOUS
10
9.5556658603
20
7.8018460208
11
9.5556658603
21
7.9234810211
12
9.8986183570
22
7.9234810211
13
9.8986183570
23
7.9234810211
0
SOLID
5
319
100
AcDbEntity
8
___SYMBOL
100
AcDbTrace
62
7
6
CONTINUOUS
10
9.8986183570
20
7.9234810211
11
9.8986183570
21
7.8018460208
12
9.5556658603
22
7.8018460208
13
9.5556658603
23
7.8018460208
0
LINE
5
31A
100
AcDbEntity
8
___SYMBOL
100
AcDbLine
62
7
6
CONTINUOUS
10
8.8231633675
20
7.9234810287
11
8.8231633675
21
7.8018460299
0
LINE
5
31B
100
AcDbEntity
8
___SYMBOL
100
AcDbLine
62
7
6
CONTINUOUS
10
8.8231633675
20
7.8018460299
11
7.9674583758
21
7.8018460299
0
LINE
5
31C
100
AcDbEntity
8
___SYMBOL
100
AcDbLine
62
7
6
CONTINUOUS
10
7.9674583758
20
7.8018460299
11
7.9674583758
21
7.9234810287
0
LINE
5
31D
100
AcDbEntity
8
___SYMBOL
100
AcDbLine
62
7
6
CONTINUOUS
10
7.9674583758
20
7.9234810287
11
8.8231633675
21
7.9234810287
0
SOLID
5
31E
100
AcDbEntity
8
___SYMBOL
100
AcDbTrace
62
7
6
CONTINUOUS
10
7.9674583758
20
7.8018460208
11
7.9674583758
21
7.9234810211
12
8.8231633675
22
7.9234810211
13
8.8231633675
23
7.9234810211
0
SOLID
5
31F
100
AcDbEntity
8
___SYMBOL
100
AcDbTrace
62
7
6
CONTINUOUS
10
8.8231633675
20
7.9234810211
11
8.8231633675
21
7.8018460208
12
7.9674583758
22
7.8018460208
13
7.9674583758
23
7.8018460208
0
LINE
5
320
100
AcDbEntity
8
___SYMBOL
100
AcDbLine
62
7
6
CONTINUOUS
10
8.8231633675
20
7.5502135324
11
8.8231633675
21
7.5152335327
0
LINE
5
321
100
AcDbEntity
8
___SYMBOL
100
AcDbLine
62
7
6
CONTINUOUS
10
8.8231633675
20
7.5152335327
11
7.9674583758
21
7.5152335327
0
LINE
5
322
100
AcDbEntity
8
___SYMBOL
100
AcDbLine
62
7
6
CONTINUOUS
10
7.9674583758
20
7.5152335327
11
7.9674583758
21
7.5502135324
0
LINE
5
323
100
AcDbEntity
8
___SYMBOL
100
AcDbLine
62
7
6
CONTINUOUS
10
7.9674583758
20
7.5502135324
11
8.8231633675
21
7.5502135324
0
SOLID
5
324
100
AcDbEntity
8
___SYMBOL
100
AcDbTrace
62
7
6
CONTINUOUS
10
7.9674583758
20
7.5152335343
11
7.9674583758
21
7.5502135163
12
8.8231633675
22
7.5502135163
13
8.8231633675
23
7.5502135163
0
SOLID
5
325
100
AcDbEntity
8
___SYMBOL
100
AcDbTrace
62
7
6
CONTINUOUS
10
8.8231633675
20
7.5502135163
11
8.8231633675
21
7.5152335343
12
7.9674583758
22
7.5152335343
13
7.9674583758
23
7.5152335343
0
SPLINE
5
326
100
AcDbEntity
8
___SYMBOL
100
AcDbSpline
62
7
6
CONTINUOUS
70
0
71
2
72
8
73
5
74
295
42
0.0000001000
43
0.0000001000
44
0.0000000001
12
-0.3204212141
22
-0.0753823492
32
0.0000000000
13
-0.3214221905
23
-0.0709927505
33
0.0000000000
40
0.0000000000
40
0.0000000000
40
0.0000000000
40
1.0000000000
40
1.0000000000
40
2.0000000000
40
2.0000000000
40
2.0000000000
41
1.0000000000
41
0.0034195132
41
1.0000000000
41
0.0034195132
41
1.0000000000
10
8.6891683208
20
7.7619911505
30
0.0000000000
10
-14.7367693002
20
2.2508010924
30
0.0000000000
10
8.7263076334
20
7.6016548995
30
0.0000000000
10
32.1893845670
20
12.9525087066
30
0.0000000000
10
8.6902657425
20
7.7622414222
30
0.0000000000
11
8.6891683208
21
7.7619911505
31
0.0000000000
11
8.6879092685
21
7.7616844643
31
0.0000000000
11
8.6866355658
21
7.7613527110
31
0.0000000000
11
8.6853474864
21
7.7609949460
31
0.0000000000
11
8.6840453443
21
7.7606102047
31
0.0000000000
11
8.6827294955
21
7.7601975030
31
0.0000000000
11
8.6814003409
21
7.7597558386
31
0.0000000000
11
8.6800583285
21
7.7592841920
31
0.0000000000
11
8.6787039567
21
7.7587815284
31
0.0000000000
11
8.6773377758
21
7.7582467987
31
0.0000000000
11
8.6759603918
21
7.7576789421
31
0.0000000000
11
8.6745724682
21
7.7570768874
31
0.0000000000
11
8.6731747292
21
7.7564395561
31
0.0000000000
11
8.6717679620
21
7.7557658644
31
0.0000000000
11
8.6703530197
21
7.7550547263
31
0.0000000000
11
8.6689308237
21
7.7543050570
31
0.0000000000
11
8.6675023665
21
7.7535157759
31
0.0000000000
11
8.6660687135
21
7.7526858107
31
0.0000000000
11
8.6646310061
21
7.7518141012
31
0.0000000000
11
8.6631904631
21
7.7508996040
31
0.0000000000
11
8.6617483829
21
7.7499412970
31
0.0000000000
11
8.6603061456
21
7.7489381844
31
0.0000000000
11
8.6588652137
21
7.7478893024
31
0.0000000000
11
8.6574271339
21
7.7467937246
31
0.0000000000
11
8.6559935376
21
7.7456505681
31
0.0000000000
11
8.6545661416
21
7.7444589998
31
0.0000000000
11
8.6531467479
21
7.7432182431
31
0.0000000000
11
8.6517372434
21
7.7419275848
31
0.0000000000
11
8.6503395989
21
7.7405863820
31
0.0000000000
11
8.6489558678
21
7.7391940699
31
0.0000000000
11
8.6475881835
21
7.7377501688
31
0.0000000000
11
8.6462387575
21
7.7362542921
31
0.0000000000
11
8.6449098754
21
7.7347061539
31
0.0000000000
11
8.6436038929
21
7.7331055768
31
0.0000000000
11
8.6423232311
21
7.7314524995
31
0.0000000000
11
8.6410703709
21
7.7297469848
31
0.0000000000
11
8.6398478464
21
7.7279892265
31
0.0000000000
11
8.6386582380
21
7.7261795569
31
0.0000000000
11
8.6375041641
21
7.7243184536
31
0.0000000000
11
8.6363882725
21
7.7224065461
31
0.0000000000
11
8.6353132306
21
7.7204446211
31
0.0000000000
11
8.6342817151
21
7.7184336283
31
0.0000000000
11
8.6332964010
21
7.7163746848
31
0.0000000000
11
8.6323599495
21
7.7142690787
31
0.0000000000
11
8.6314749959
21
7.7121182719
31
0.0000000000
11
8.6306441362
21
7.7099239022
31
0.0000000000
11
8.6298699142
21
7.7076877835
31
0.0000000000
11
8.6291548069
21
7.7054119062
31
0.0000000000
11
8.6285012110
21
7.7030984345
31
0.0000000000
11
8.6279114285
21
7.7007497044
31
0.0000000000
11
8.6273876522
21
7.6983682190
31
0.0000000000
11
8.6269319517
21
7.6959566427
31
0.0000000000
11
8.6265462596
21
7.6935177946
31
0.0000000000
11
8.6262323579
21
7.6910546400
31
0.0000000000
11
8.6259918651
21
7.6885702805
31
0.0000000000
11
8.6258262241
21
7.6860679433
31
0.0000000000
11
8.6257366911
21
7.6835509685
31
0.0000000000
11
8.6257243249
21
7.6810227961
31
0.0000000000
11
8.6257899779
21
7.6784869513
31
0.0000000000
11
8.6259342887
21
7.6759470291
31
0.0000000000
11
8.6261576750
21
7.6734066779
31
0.0000000000
11
8.6264603292
21
7.6708695826
31
0.0000000000
11
8.6268422145
21
7.6683394475
31
0.0000000000
11
8.6273030636
21
7.6658199779
31
0.0000000000
11
8.6278423785
21
7.6633148626
31
0.0000000000
11
8.6284594316
21
7.6608277557
31
0.0000000000
11
8.6291532697
21
7.6583622590
31
0.0000000000
11
8.6299227183
21
7.6559219046
31
0.0000000000
11
8.6307663883
21
7.6535101380
31
0.0000000000
11
8.6316826841
21
7.6511303023
31
0.0000000000
11
8.6326698128
21
7.6487856225
31
0.0000000000
11
8.6337257950
21
7.6464791918
31
0.0000000000
11
8.6348484766
21
7.6442139582
31
0.0000000000
11
8.6360355420
21
7.6419927129
31
0.0000000000
11
8.6372845278
21
7.6398180801
31
0.0000000000
11
8.6385928372
21
7.6376925074
31
0.0000000000
11
8.6399577554
21
7.6356182587
31
0.0000000000
11
8.6413764650
21
7.6335974081
31
0.0000000000
11
8.6428460616
21
7.6316318353
31
0.0000000000
11
8.6443635702
21
7.6297232223
31
0.0000000000
11
8.6459259603
21
7.6278730524
31
0.0000000000
11
8.6475301620
21
7.6260826093
31
0.0000000000
11
8.6491730807
21
7.6243529789
31
0.0000000000
11
8.6508516123
21
7.6226850513
31
0.0000000000
11
8.6525626568
21
7.6210795247
31
0.0000000000
11
8.6543031321
21
7.6195369099
31
0.0000000000
11
8.6560699864
21
7.6180575363
31
0.0000000000
11
8.6578602102
21
7.6166415582
31
0.0000000000
11
8.6596708469
21
7.6152889624
31
0.0000000000
11
8.6614990028
21
7.6139995758
31
0.0000000000
11
8.6633418564
21
7.6127730744
31
0.0000000000
11
8.6651966658
21
7.6116089920
31
0.0000000000
11
8.6670607764
21
7.6105067297
31
0.0000000000
11
8.6689316263
21
7.6094655650
31
0.0000000000
11
8.6708067520
21
7.6084846618
31
0.0000000000
11
8.6726837922
21
7.6075630799
31
0.0000000000
11
8.6745604910
21
7.6066997847
31
0.0000000000
11
8.6764347011
21
7.6058936567
31
0.0000000000
11
8.6783043844
21
7.6051435007
31
0.0000000000
11
8.6801676139
21
7.6044480548
31
0.0000000000
11
8.6820225736
21
7.6038059995
31
0.0000000000
11
8.6838675579
21
7.6032159658
31
0.0000000000
11
8.6857009712
21
7.6026765435
31
0.0000000000
11
8.6875213259
21
7.6021862885
31
0.0000000000
11
8.6893272409
21
7.6017437308
31
0.0000000000
11
8.6911174392
21
7.6013473802
31
0.0000000000
11
8.6928907452
21
7.6009957339
31
0.0000000000
11
8.6946460818
21
7.6006872814
31
0.0000000000
11
8.6963824672
21
7.6004205106
31
0.0000000000
11
8.6980990115
21
7.6001939127
31
0.0000000000
11
8.6997949131
21
7.6000059865
31
0.0000000000
11
8.7014694553
21
7.5998552431
31
0.0000000000
11
8.7031220020
21
7.5997402094
31
0.0000000000
11
8.7047519945
21
7.5996594315
31
0.0000000000
11
8.7063589470
21
7.5996114776
31
0.0000000000
11
8.7079424434
21
7.5995949409
31
0.0000000000
11
8.7095021332
21
7.5996084419
31
0.0000000000
11
8.7110377276
21
7.5996506300
31
0.0000000000
11
8.7125489960
21
7.5997201857
31
0.0000000000
11
8.7140357623
21
7.5998158219
31
0.0000000000
11
8.7154979013
21
7.5999362849
31
0.0000000000
11
8.7169353356
21
7.6000803552
31
0.0000000000
11
8.7183480317
21
7.6002468488
31
0.0000000000
11
8.7190451038
21
7.6003381440
31
0.0000000000
11
8.7197359973
21
7.6004346171
31
0.0000000000
11
8.7204207190
21
7.6005361301
31
0.0000000000
11
8.7210992781
21
7.6006425474
31
0.0000000000
11
8.7217716856
21
7.6007537355
31
0.0000000000
11
8.7224379548
21
7.6008695633
31
0.0000000000
11
8.7230981006
21
7.6009899017
31
0.0000000000
11
8.7234258826
21
7.6010517228
31
0.0000000000
11
8.7237521401
21
7.6011146242
31
0.0000000000
11
8.7240768758
21
7.6011785905
31
0.0000000000
11
8.7244000920
21
7.6012436064
31
0.0000000000
11
8.7247217914
21
7.6013096565
31
0.0000000000
11
8.7250419766
21
7.6013767259
31
0.0000000000
11
8.7252015023
21
7.6014106381
31
0.0000000000
11
8.7253606505
21
7.6014447996
31
0.0000000000
11
8.7255194215
21
7.6014792084
31
0.0000000000
11
8.7256778159
21
7.6015138628
31
0.0000000000
11
8.7258358339
21
7.6015487610
31
0.0000000000
11
8.7259147018
21
7.6015663008
31
0.0000000000
11
8.7259934758
21
7.6015839010
31
0.0000000000
11
8.7260721560
21
7.6016015611
31
0.0000000000
11
8.7261507422
21
7.6016192811
31
0.0000000000
11
8.7262292347
21
7.6016370606
31
0.0000000000
11
8.7262684458
21
7.6016459726
31
0.0000000000
11
8.7263076334
21
7.6016548995
31
0.0000000000
11
8.7263468167
21
7.6016638455
31
0.0000000000
11
8.7263860147
21
7.6016728149
31
0.0000000000
11
8.7264644547
21
7.6016908245
31
0.0000000000
11
8.7265429534
21
7.6017089285
31
0.0000000000
11
8.7266215107
21
7.6017271270
31
0.0000000000
11
8.7267001267
21
7.6017454203
31
0.0000000000
11
8.7267788012
21
7.6017638086
31
0.0000000000
11
8.7269363256
21
7.6018008713
31
0.0000000000
11
8.7270940835
21
7.6018383167
31
0.0000000000
11
8.7272520744
21
7.6018761468
31
0.0000000000
11
8.7274102979
21
7.6019143633
31
0.0000000000
11
8.7275687535
21
7.6019529680
31
0.0000000000
11
8.7278863592
21
7.6020313496
31
0.0000000000
11
8.7282048875
21
7.6021113060
31
0.0000000000
11
8.7285243342
21
7.6021928522
31
0.0000000000
11
8.7288446951
21
7.6022760029
31
0.0000000000
11
8.7291659659
21
7.6023607731
31
0.0000000000
11
8.7294881420
21
7.6024471777
31
0.0000000000
11
8.7301351909
21
7.6026249505
31
0.0000000000
11
8.7307858022
21
7.6028094429
31
0.0000000000
11
8.7314399336
21
7.6030007776
31
0.0000000000
11
8.7320975401
21
7.6031990785
31
0.0000000000
11
8.7327585739
21
7.6034044707
31
0.0000000000
11
8.7334229843
21
7.6036170804
31
0.0000000000
11
8.7340907178
21
7.6038370349
31
0.0000000000
11
8.7354359241
21
7.6042994926
31
0.0000000000
11
8.7367937018
21
7.6047928821
31
0.0000000000
11
8.7381635075
21
7.6053182561
31
0.0000000000
11
8.7395447426
21
7.6058766798
31
0.0000000000
11
8.7409367510
21
7.6064692285
31
0.0000000000
11
8.7423388158
21
7.6070969860
31
0.0000000000
11
8.7437501573
21
7.6077610413
31
0.0000000000
11
8.7451699298
21
7.6084624862
31
0.0000000000
11
8.7465972192
21
7.6092024118
31
0.0000000000
11
8.7480310408
21
7.6099819054
31
0.0000000000
11
8.7494703361
21
7.6108020468
31
0.0000000000
11
8.7509139713
21
7.6116639036
31
0.0000000000
11
8.7523607347
21
7.6125685278
31
0.0000000000
11
8.7538093347
21
7.6135169504
31
0.0000000000
11
8.7552583984
21
7.6145101763
31
0.0000000000
11
8.7567064697
21
7.6155491795
31
0.0000000000
11
8.7581520084
21
7.6166348969
31
0.0000000000
11
8.7595933890
21
7.6177682227
31
0.0000000000
11
8.7610289005
21
7.6189500015
31
0.0000000000
11
8.7624567463
21
7.6201810222
31
0.0000000000
11
8.7638750445
21
7.6214620111
31
0.0000000000
11
8.7652818286
21
7.6227936243
31
0.0000000000
11
8.7666750493
21
7.6241764409
31
0.0000000000
11
8.7680525762
21
7.6256109550
31
0.0000000000
11
8.7694122007
21
7.6270975683
31
0.0000000000
11
8.7707516393
21
7.6286365824
31
0.0000000000
11
8.7720685375
21
7.6302281909
31
0.0000000000
11
8.7733604746
21
7.6318724714
31
0.0000000000
11
8.7746249694
21
7.6335693783
31
0.0000000000
11
8.7758594864
21
7.6353187351
31
0.0000000000
11
8.7770614432
21
7.6371202271
31
0.0000000000
11
8.7782282180
21
7.6389733945
31
0.0000000000
11
8.7793571590
21
7.6408776261
31
0.0000000000
11
8.7804455932
21
7.6428321535
31
0.0000000000
11
8.7814908377
21
7.6448360451
31
0.0000000000
11
8.7824902098
21
7.6468882023
31
0.0000000000
11
8.7834410396
21
7.6489873552
31
0.0000000000
11
8.7843406818
21
7.6511320599
31
0.0000000000
11
8.7851865293
21
7.6533206966
31
0.0000000000
11
8.7859760260
21
7.6555514685
31
0.0000000000
11
8.7867066813
21
7.6578224024
31
0.0000000000
11
8.7873760836
21
7.6601313505
31
0.0000000000
11
8.7879819153
21
7.6624759926
31
0.0000000000
11
8.7885219664
21
7.6648538407
31
0.0000000000
11
8.7889941490
21
7.6672622445
31
0.0000000000
11
8.7893965114
21
7.6696983983
31
0.0000000000
11
8.7897272514
21
7.6721593490
31
0.0000000000
11
8.7899847292
21
7.6746420060
31
0.0000000000
11
8.7901674798
21
7.6771431524
31
0.0000000000
11
8.7902742244
21
7.6796594565
31
0.0000000000
11
8.7903038806
21
7.6821874856
31
0.0000000000
11
8.7902555719
21
7.6847237205
31
0.0000000000
11
8.7901286351
21
7.6872645707
31
0.0000000000
11
8.7899226276
21
7.6898063907
31
0.0000000000
11
8.7896373319
21
7.6923454969
31
0.0000000000
11
8.7892727593
21
7.6948781850
31
0.0000000000
11
8.7888291518
21
7.6974007478
31
0.0000000000
11
8.7883069823
21
7.6999094933
31
0.0000000000
11
8.7877069531
21
7.7024007625
31
0.0000000000
11
8.7870299930
21
7.7048709471
31
0.0000000000
11
8.7862772522
21
7.7073165070
31
0.0000000000
11
8.7854500962
21
7.7097339874
31
0.0000000000
11
8.7845500978
21
7.7121200344
31
0.0000000000
11
8.7835790278
21
7.7144714107
31
0.0000000000
11
8.7825388443
21
7.7167850097
31
0.0000000000
11
8.7814316811
21
7.7190578686
31
0.0000000000
11
8.7802598348
21
7.7212871806
31
0.0000000000
11
8.7790257509
21
7.7234703046
31
0.0000000000
11
8.7777320092
21
7.7256047754
31
0.0000000000
11
8.7763813091
21
7.7276883106
31
0.0000000000
11
8.7749764536
21
7.7297188167
31
0.0000000000
11
8.7735203342
21
7.7316943944
31
0.0000000000
11
8.7720159145
21
7.7336133412
31
0.0000000000
11
8.7704662146
21
7.7354741532
31
0.0000000000
11
8.7688742956
21
7.7372755258
31
0.0000000000
11
8.7672432446
21
7.7390163518
31
0.0000000000
11
8.7655761596
21
7.7406957201
31
0.0000000000
11
8.7638761357
21
7.7423129112
31
0.0000000000
11
8.7621462514
21
7.7438673931
31
0.0000000000
11
8.7603895562
21
7.7453588158
31
0.0000000000
11
8.7586090585
21
7.7467870042
31
0.0000000000
11
8.7568077150
21
7.7481519515
31
0.0000000000
11
8.7549884203
21
7.7494538108
31
0.0000000000
11
8.7531539983
21
7.7506928869
31
0.0000000000
11
8.7513071938
21
7.7518696271
31
0.0000000000
11
8.7494506656
21
7.7529846124
31
0.0000000000
11
8.7475869803
21
7.7540385475
31
0.0000000000
11
8.7457186072
21
7.7550322518
31
0.0000000000
11
8.7438479140
21
7.7559666493
31
0.0000000000
11
8.7419771634
21
7.7568427590
31
0.0000000000
11
8.7401085107
21
7.7576616859
31
0.0000000000
11
8.7382440018
21
7.7584246111
31
0.0000000000
11
8.7363855723
21
7.7591327833
31
0.0000000000
11
8.7345350474
21
7.7597875097
31
0.0000000000
11
8.7326941418
21
7.7603901474
31
0.0000000000
11
8.7308644609
21
7.7609420958
31
0.0000000000
11
8.7290475020
21
7.7614447886
31
0.0000000000
11
8.7272446562
21
7.7618996867
31
0.0000000000
11
8.7254572108
21
7.7623082710
31
0.0000000000
11
8.7236863515
21
7.7626720367
31
0.0000000000
11
8.7219331657
21
7.7629924867
31
0.0000000000
11
8.7201986457
21
7.7632711263
31
0.0000000000
11
8.7184836916
21
7.7635094583
31
0.0000000000
11
8.7167891151
21
7.7637089783
31
0.0000000000
11
8.7151156433
21
7.7638711702
31
0.0000000000
11
8.7134639222
21
7.7639975029
31
0.0000000000
11
8.7118345207
21
7.7640894264
31
0.0000000000
11
8.7102279340
21
7.7641483690
31
0.0000000000
11
8.7086445879
21
7.7641757347
31
0.0000000000
11
8.7070848425
21
7.7641729007
31
0.0000000000
11
8.7055489958
21
7.7641412154
31
0.0000000000
11
8.7040372873
21
7.7640819967
31
0.0000000000
11
8.7025499020
21
7.7639965306
31
0.0000000000
11
8.7010869736
21
7.7638860699
31
0.0000000000
11
8.6996485879
21
7.7637518334
31
0.0000000000
11
8.6982347864
21
7.7635950050
31
0.0000000000
11
8.6968455694
21
7.7634167333
31
0.0000000000
11
8.6954808986
21
7.7632181312
31
0.0000000000
11
8.6941407009
21
7.7630002757
31
0.0000000000
11
8.6928248705
21
7.7627642081
31
0.0000000000
11
8.6915332720
21
7.7625109336
31
0.0000000000
11
8.6902657425
21
7.7622414222
31
0.0000000000
0
LINE
5
327
100
AcDbEntity
8
___SYMBOL
100
AcDbLine
62
7
6
CONTINUOUS
10
8.8698133670
20
8.4567160235
11
8.8698133670
21
8.3950660241
0
LINE
5
328
100
AcDbEntity
8
___SYMBOL
100
AcDbLine
62
7
6
CONTINUOUS
10
8.8698133670
20
8.3950660241
11
8.0141083754
21
8.3950660241
0
LINE
5
329
100
AcDbEntity
8
___SYMBOL
100
AcDbLine
62
7
6
CONTINUOUS
10
8.0141083754
20
8.3950660241
11
8.0141083754
21
8.4567160235
0
LINE
5
32A
100
AcDbEntity
8
___SYMBOL
100
AcDbLine
62
7
6
CONTINUOUS
10
8.0141083754
20
8.4567160235
11
8.8698133670
21
8.4567160235
0
SOLID
5
32B
100
AcDbEntity
8
___SYMBOL
100
AcDbTrace
62
7
6
CONTINUOUS
10
8.0141083754
20
8.3950660200
11
8.0141083754
21
8.4567160101
12
8.8698133670
22
8.4567160101
13
8.8698133670
23
8.4567160101
0
SOLID
5
32C
100
AcDbEntity
8
___SYMBOL
100
AcDbTrace
62
7
6
CONTINUOUS
10
8.8698133670
20
8.4567160101
11
8.8698133670
21
8.3950660200
12
8.0141083754
22
8.3950660200
13
8.0141083754
23
8.3950660200
0
LINE
5
32D
100
AcDbEntity
8
___SYMBOL
100
AcDbLine
62
7
6
CONTINUOUS
10
8.8698133670
20
8.3567335245
11
8.8698133670
21
8.2950835251
0
LINE
5
32E
100
AcDbEntity
8
___SYMBOL
100
AcDbLine
62
7
6
CONTINUOUS
10
8.8698133670
20
8.2950835251
11
8.0141083754
21
8.2950835251
0
LINE
5
32F
100
AcDbEntity
8
___SYMBOL
100
AcDbLine
62
7
6
CONTINUOUS
10
8.0141083754
20
8.2950835251
11
8.0141083754
21
8.3567335245
0
LINE
5
330
100
AcDbEntity
8
___SYMBOL
100
AcDbLine
62
7
6
CONTINUOUS
10
8.0141083754
20
8.3567335245
11
8.8698133670
21
8.3567335245
0
SOLID
5
331
100
AcDbEntity
8
___SYMBOL
100
AcDbTrace
62
7
6
CONTINUOUS
10
8.0141083754
20
8.2950835118
11
8.0141083754
21
8.3567335359
12
8.8698133670
22
8.3567335359
13
8.8698133670
23
8.3567335359
0
SOLID
5
332
100
AcDbEntity
8
___SYMBOL
100
AcDbTrace
62
7
6
CONTINUOUS
10
8.8698133670
20
8.3567335359
11
8.8698133670
21
8.2950835118
12
8.0141083754
22
8.2950835118
13
8.0141083754
23
8.2950835118
0
LINE
5
333
100
AcDbEntity
8
___SYMBOL
100
AcDbLine
62
7
6
CONTINUOUS
10
8.8698133670
20
8.2567510255
11
8.8698133670
21
8.1951085261
0
LINE
5
334
100
AcDbEntity
8
___SYMBOL
100
AcDbLine
62
7
6
CONTINUOUS
10
8.8698133670
20
8.1951085261
11
8.0141083754
21
8.1951085261
0
LINE
5
335
100
AcDbEntity
8
___SYMBOL
100
AcDbLine
62
7
6
CONTINUOUS
10
8.0141083754
20
8.1951085261
11
8.0141083754
21
8.2567510255
0
LINE
5
336
100
AcDbEntity
8
___SYMBOL
100
AcDbLine
62
7
6
CONTINUOUS
10
8.0141083754
20
8.2567510255
11
8.8698133670
21
8.2567510255
0
SOLID
5
337
100
AcDbEntity
8
___SYMBOL
100
AcDbTrace
62
7
6
CONTINUOUS
10
8.0141083754
20
8.1951085176
11
8.0141083754
21
8.2567510277
12
8.8698133670
22
8.2567510277
13
8.8698133670
23
8.2567510277
0
SOLID
5
338
100
AcDbEntity
8
___SYMBOL
100
AcDbTrace
62
7
6
CONTINUOUS
10
8.8698133670
20
8.2567510277
11
8.8698133670
21
8.1951085176
12
8.0141083754
22
8.1951085176
13
8.0141083754
23
8.1951085176
0
LINE
5
339
100
AcDbEntity
8
___SYMBOL
100
AcDbLine
62
7
6
CONTINUOUS
10
8.8698133670
20
8.1567685264
11
8.8698133670
21
8.0951260270
0
LINE
5
33A
100
AcDbEntity
8
___SYMBOL
100
AcDbLine
62
7
6
CONTINUOUS
10
8.8698133670
20
8.0951260270
11
8.0141083754
21
8.0951260270
0
LINE
5
33B
100
AcDbEntity
8
___SYMBOL
100
AcDbLine
62
7
6
CONTINUOUS
10
8.0141083754
20
8.0951260270
11
8.0141083754
21
8.1567685264
0
LINE
5
33C
100
AcDbEntity
8
___SYMBOL
100
AcDbLine
62
7
6
CONTINUOUS
10
8.0141083754
20
8.1567685264
11
8.8698133670
21
8.1567685264
0
SOLID
5
33D
100
AcDbEntity
8
___SYMBOL
100
AcDbTrace
62
7
6
CONTINUOUS
10
8.0141083754
20
8.0951260434
11
8.0141083754
21
8.1567685195
12
8.8698133670
22
8.1567685195
13
8.8698133670
23
8.1567685195
0
SOLID
5
33E
100
AcDbEntity
8
___SYMBOL
100
AcDbTrace
62
7
6
CONTINUOUS
10
8.8698133670
20
8.1567685195
11
8.8698133670
21
8.0951260434
12
8.0141083754
22
8.0951260434
13
8.0141083754
23
8.0951260434
0
LINE
5
33F
100
AcDbEntity
8
___SYMBOL
100
AcDbLine
62
7
6
CONTINUOUS
10
8.8698133670
20
8.0301310277
11
8.8698133670
21
7.9684810283
0
LINE
5
340
100
AcDbEntity
8
___SYMBOL
100
AcDbLine
62
7
6
CONTINUOUS
10
8.8698133670
20
7.9684810283
11
8.0141083754
21
7.9684810283
0
LINE
5
341
100
AcDbEntity
8
___SYMBOL
100
AcDbLine
62
7
6
CONTINUOUS
10
8.0141083754
20
7.9684810283
11
8.0141083754
21
8.0301310277
0
LINE
5
342
100
AcDbEntity
8
___SYMBOL
100
AcDbLine
62
7
6
CONTINUOUS
10
8.0141083754
20
8.0301310277
11
8.8698133670
21
8.0301310277
0
SOLID
5
343
100
AcDbEntity
8
___SYMBOL
100
AcDbTrace
62
7
6
CONTINUOUS
10
8.0141083754
20
7.9684810411
11
8.0141083754
21
8.0301310313
12
8.8698133670
22
8.0301310313
13
8.8698133670
23
8.0301310313
0
SOLID
5
344
100
AcDbEntity
8
___SYMBOL
100
AcDbTrace
62
7
6
CONTINUOUS
10
8.8698133670
20
8.0301310313
11
8.8698133670
21
7.9684810411
12
8.0141083754
22
7.9684810411
13
8.0141083754
23
7.9684810411
0
ENDBLK
5
345
100
AcDbEntity
8
0
6
BYBLOCK
62
0
100
AcDbBlockEnd
0
BLOCK
5
346
100
AcDbEntity
8
___SYMBOL
100
AcDbBlockBegin
62
2
6
CONTINUOUS
2
TEMPLATE_NUMBER_BL3
70
64
10
8.1187886920
20
3.3242822778
3
TEMPLATE_NUMBER_BL3
1

0
TEXT
5
347
100
AcDbEntity
8
___SYMBOL
100
AcDbText
62
2
6
CONTINUOUS
10
7.8085887895
20
3.2890322889
7
STANDARD
40
0.0704999778
1
111134-7
41
0.8000000000
72
0
100
AcDbText
0
TEXT
5
348
100
AcDbEntity
8
___SYMBOL
100
AcDbText
62
2
6
CONTINUOUS
10
8.2597886477
20
3.2890322889
7
STANDARD
40
0.0704999778
1
-
41
0.8000000000
72
0
100
AcDbText
0
TEXT
5
349
100
AcDbEntity
8
___SYMBOL
100
AcDbText
62
2
6
CONTINUOUS
10
8.3161886300
20
3.2890322889
7
STANDARD
40
0.0704999778
1
CD
41
0.8000000000
72
0
100
AcDbText
0
ENDBLK
5
34A
100
AcDbEntity
8
0
6
BYBLOCK
62
0
100
AcDbBlockEnd
0
BLOCK
5
34B
100
AcDbEntity
8
___SYMBOL
100
AcDbBlockBegin
62
2
6
CONTINUOUS
2
TEMPLATE_NUMBER_BL4
70
64
10
8.1110911585
20
2.0893503751
3
TEMPLATE_NUMBER_BL4
1

0
TEXT
5
34C
100
AcDbEntity
8
___SYMBOL
100
AcDbText
62
2
6
CONTINUOUS
10
7.8008912561
20
2.0541003861
7
STANDARD
40
0.0704999778
1
111134-7
41
0.8000000000
72
0
100
AcDbText
0
TEXT
5
34D
100
AcDbEntity
8
___SYMBOL
100
AcDbText
62
2
6
CONTINUOUS
10
8.2520911142
20
2.0541003861
7
STANDARD
40
0.0704999778
1
-
41
0.8000000000
72
0
100
AcDbText
0
TEXT
5
34E
100
AcDbEntity
8
___SYMBOL
100
AcDbText
62
2
6
CONTINUOUS
10
8.3084910965
20
2.0541003861
7
STANDARD
40
0.0704999778
1
CD
41
0.8000000000
72
0
100
AcDbText
0
ENDBLK
5
34F
100
AcDbEntity
8
0
6
BYBLOCK
62
0
100
AcDbBlockEnd
0
BLOCK
5
350
100
AcDbEntity
8
___SYMBOL
100
AcDbBlockBegin
62
2
6
CONTINUOUS
2
WHEN_PLOTTING_TEMPLATE_N_BL5
70
64
10
16.4908915831
20
7.1019730704
3
WHEN_PLOTTING_TEMPLATE_N_BL5
1

0
TEXT
5
351
100
AcDbEntity
8
___SYMBOL
100
AcDbText
62
2
6
CONTINUOUS
10
13.1783913507
20
8.3129106553
7
STANDARD
40
0.1562500110
1
WHEN PLOTTING TEMPLATE FULL SIZE:
41
0.8000000000
72
0
100
AcDbText
0
TEXT
5
352
100
AcDbEntity
8
___SYMBOL
100
AcDbText
62
2
6
CONTINUOUS
10
13.1783913507
20
8.0785356389
7
STANDARD
40
0.1562500110
1
Make sure horizontal and vertical dimensions
41
0.8000000000
72
0
100
AcDbText
0
TEXT
5
353
100
AcDbEntity
8
___SYMBOL
100
AcDbText
62
2
6
CONTINUOUS
10
13.1783913507
20
7.8441606224
7
STANDARD
40
0.1562500110
1
match the dimensions labeled on the template.
41
0.8000000000
72
0
100
AcDbText
0
TEXT
5
354
100
AcDbEntity
8
___SYMBOL
100
AcDbText
62
2
6
CONTINUOUS
10
13.1783913507
20
7.6097856060
7
STANDARD
40
0.1562500110
1
 
41
0.8000000000
72
0
100
AcDbText
0
TEXT
5
355
100
AcDbEntity
8
___SYMBOL
100
AcDbText
62
2
6
CONTINUOUS
10
13.1783913507
20
7.3754105896
7
STANDARD
40
0.1562500110
1
AL TRAZAR LA PLANTILLA A ESCALA,
41
0.8000000000
72
0
100
AcDbText
0
TEXT
5
356
100
AcDbEntity
8
___SYMBOL
100
AcDbText
62
2
6
CONTINUOUS
10
13.1783913507
20
7.1410355731
7
STANDARD
40
0.1562500110
1
asegúrese de que las dimensiones horizontales
41
0.8000000000
72
0
100
AcDbText
0
TEXT
5
357
100
AcDbEntity
8
___SYMBOL
100
AcDbText
62
2
6
CONTINUOUS
10
13.1783913507
20
6.9066605567
7
STANDARD
40
0.1562500110
1
y verticales concuerden con las dimensiones marcadas
41
0.8000000000
72
0
100
AcDbText
0
TEXT
5
358
100
AcDbEntity
8
___SYMBOL
100
AcDbText
62
2
6
CONTINUOUS
10
13.1783913507
20
6.6722855402
7
STANDARD
40
0.1562500110
1
en la plantilla.
41
0.8000000000
72
0
100
AcDbText
0
TEXT
5
359
100
AcDbEntity
8
___SYMBOL
100
AcDbText
62
2
6
CONTINUOUS
10
13.1783913507
20
6.4379105238
7
STANDARD
40
0.1562500110
1
 
41
0.8000000000
72
0
100
AcDbText
0
TEXT
5
35A
100
AcDbEntity
8
___SYMBOL
100
AcDbText
62
2
6
CONTINUOUS
10
13.1783913507
20
6.2035355073
7
STANDARD
40
0.1562500110
1
AU MOMENT DE TRACER LA DÉCOUPE À L'ÉCHELLE,
41
0.8000000000
72
0
100
AcDbText
0
TEXT
5
35B
100
AcDbEntity
8
___SYMBOL
100
AcDbText
62
2
6
CONTINUOUS
10
13.1783913507
20
5.9691604909
7
STANDARD
40
0.1562500110
1
Assurez vos que les dimensions horizotales et
41
0.8000000000
72
0
100
AcDbText
0
TEXT
5
35C
100
AcDbEntity
8
___SYMBOL
100
AcDbText
62
2
6
CONTINUOUS
10
13.1783913507
20
5.7347854744
7
STANDARD
40
0.1562500110
1
verticales correspondent avec les dimensions du plan.
41
0.8000000000
72
0
100
AcDbText
0
ENDBLK
5
35D
100
AcDbEntity
8
0
6
BYBLOCK
62
0
100
AcDbBlockEnd
0
BLOCK
5
35E
100
AcDbEntity
8
0
100
AcDbBlockBegin
2
_FILLED
70
64
10
0.0000000000
20
0.0000000000
3
_FILLED
1

0
SOLID
5
35F
100
AcDbEntity
8
0
6
BYBLOCK
62
0
100
AcDbTrace
10
0.0000000000
20
0.0000000000
11
-1.0000000000
21
0.1666666667
12
-1.0000000000
22
-0.1666666667
13
-1.0000000000
23
-0.1666666667
0
ENDBLK
5
360
100
AcDbEntity
8
0
6
BYBLOCK
62
0
100
AcDbBlockEnd
0
ENDSEC
0
SECTION
2
ENTITIES
0
DIMENSION
5
361
100
AcDbEntity
8
0
100
AcDbDimension
62
2
6
CONTINUOUS
2
*D0
10
12.9203049455
20
3.1253214274
11
12.9203049455
21
11.7058777099
70
160
1
<>"\P[40 cm]
3
DIMSTYLE_1
100
AcDbAlignedDimension
13
12.6420823789
23
18.8753214274
14
12.6811689485
24
3.1253214274
50
270.000000
100
AcDbRotatedDimension
0
DIMENSION
5
362
100
AcDbEntity
8
0
100
AcDbDimension
62
2
6
CONTINUOUS
2
*D1
10
5.9938795413
20
10.5931945534
11
11.7619071310
21
10.4760070534
70
160
1
<>"\P[35,6 cm]
3
DIMSTYLE_1
100
AcDbAlignedDimension
13
19.9938795413
23
10.1352001040
14
5.9938795413
24
10.0755587318
50
180.000000
100
AcDbRotatedDimension
0
TEXT
5
363
100
AcDbEntity
8
___NOTE
100
AcDbText
62
2
6
CONTINUOUS
10
8.7725759610
20
13.6898759822
7
STANDARD
40
0.0940000000
1
TM
41
1.0000000000
72
0
100
AcDbText
0
TEXT
5
364
100
AcDbEntity
8
___NOTE
100
AcDbText
62
2
6
CONTINUOUS
10
8.7526857027
20
14.5542545913
7
STANDARD
40
0.0940000000
1
TM
41
1.0000000000
72
0
100
AcDbText
0
SOLID
5
365
100
AcDbEntity
8
___NOTE
100
AcDbTrace
62
2
6
CONTINUOUS
10
20.8688795413
20
15.7324331732
11
20.6893419233
21
15.7948755965
12
20.7192982561
22
15.8497287470
13
20.7192982561
23
15.8497287470
0
TEXT
5
366
100
AcDbEntity
8
___NOTE
100
AcDbText
62
2
6
CONTINUOUS
10
16.9905890838
20
16.8848722941
7
STANDARD
40
0.1562500000
1
RIM OF SINK
41
0.8000000000
72
0
100
AcDbText
0
TEXT
5
367
100
AcDbEntity
8
___NOTE
100
AcDbText
62
2
6
CONTINUOUS
10
15.8655890838
20
16.6504972941
7
STANDARD
40
0.1562500000
1
REBORDE DE FREGADERO
41
0.8000000000
72
0
100
AcDbText
0
TEXT
5
368
100
AcDbEntity
8
___NOTE
100
AcDbText
62
2
6
CONTINUOUS
10
16.6155890838
20
16.4161222941
7
STANDARD
40
0.1562500000
1
REBORD D'ÉVIER
41
0.8000000000
72
0
100
AcDbText
0
SOLID
5
369
100
AcDbEntity
8
___NOTE
100
AcDbTrace
62
2
6
CONTINUOUS
10
19.9938795413
20
13.8910420923
11
19.8140800630
21
13.9527264510
12
19.8438046917
22
14.0077055057
13
19.8438046917
23
14.0077055057
0
TEXT
5
36A
100
AcDbEntity
8
___NOTE
100
AcDbText
62
2
6
CONTINUOUS
10
15.8555188377
20
14.6311211393
7
STANDARD
40
0.1562500000
1
CUT ALONG THIS LINE
41
0.8000000000
72
0
100
AcDbText
0
TEXT
5
36B
100
AcDbEntity
8
___NOTE
100
AcDbText
62
2
6
CONTINUOUS
10
14.4805188377
20
14.3967461393
7
STANDARD
40
0.1562500000
1
CORTE A LO LARGO DE ESTA LÍNEA
41
0.8000000000
72
0
100
AcDbText
0
TEXT
5
36C
100
AcDbEntity
8
___NOTE
100
AcDbText
62
2
6
CONTINUOUS
10
14.3555188377
20
14.1623711393
7
STANDARD
40
0.1562500000
1
DÉCOUPER AU LONG DE CETTE LIGNE
41
0.8000000000
72
0
100
AcDbText
0
TEXT
5
36D
100
AcDbEntity
8
0
100
AcDbText
62
2
6
CONTINUOUS
10
8.3759252617
20
12.8402934688
7
STANDARD
40
0.0940000000
1
TM
41
1.0000000000
72
0
100
AcDbText
0
TEXT
5
36E
100
AcDbEntity
8
0
100
AcDbText
62
2
6
CONTINUOUS
10
8.3749590417
20
11.9574779529
7
STANDARD
40
0.0940000000
1
TM
41
1.0000000000
72
0
100
AcDbText
0
INSERT
5
36F
100
AcDbEntity
8
___SYMBOL
100
AcDbBlockReference
62
2
6
CONTINUOUS
2
COPYRIGHT_YEAR_BL0
10
17.6265329614
20
3.4414369029
0
INSERT
5
370
100
AcDbEntity
8
___SYMBOL
100
AcDbBlockReference
62
2
6
CONTINUOUS
2
CUT-OUT_TEMPLATE_SKU_SIN_BL1
10
9.3246569167
20
14.8989049849
0
INSERT
5
371
100
AcDbEntity
8
___SYMBOL
100
AcDbBlockReference
62
2
6
CONTINUOUS
2
PACKAGING_UPC_BL2
10
9.6489992576
20
7.1207027305
0
INSERT
5
372
100
AcDbEntity
8
___SYMBOL
100
AcDbBlockReference
62
2
6
CONTINUOUS
2
TEMPLATE_NUMBER_BL3
10
8.1187886920
20
3.3242822778
0
INSERT
5
373
100
AcDbEntity
8
___SYMBOL
100
AcDbBlockReference
62
2
6
CONTINUOUS
2
TEMPLATE_NUMBER_BL4
10
8.1110911585
20
2.0893503751
0
INSERT
5
374
100
AcDbEntity
8
___SYMBOL
100
AcDbBlockReference
62
2
6
CONTINUOUS
2
WHEN_PLOTTING_TEMPLATE_N_BL5
10
16.4908915831
20
7.1019730704
0
LINE
5
375
100
AcDbEntity
8
0
100
AcDbLine
62
7
6
CONTINUOUS
10
0.0000000000
20
0.0000000000
11
0.0000000000
21
22.0000000000
0
LINE
5
376
100
AcDbEntity
8
0
100
AcDbLine
62
7
6
CONTINUOUS
10
0.0000000000
20
0.0000000000
11
34.0000000000
21
0.0000000000
0
LINE
5
377
100
AcDbEntity
8
0
100
AcDbLine
62
7
6
CONTINUOUS
10
0.0000000000
20
22.0000000000
11
34.0000000000
21
22.0000000000
0
LINE
5
378
100
AcDbEntity
8
0
100
AcDbLine
62
7
6
CONTINUOUS
10
34.0000000000
20
0.0000000000
11
34.0000000000
21
22.0000000000
0
LINE
5
379
100
AcDbEntity
8
_CURVE
100
AcDbLine
62
8
6
HIDDEN
10
5.9988795413
20
19.7503214274
11
5.1188795413
21
18.8703214274
0
LINE
5
37A
100
AcDbEntity
8
_CURVE
100
AcDbLine
62
8
6
HIDDEN
10
5.1188795413
20
3.1303214274
11
5.9988795413
21
2.2503214274
0
LINE
5
37B
100
AcDbEntity
8
_CURVE
100
AcDbLine
62
8
6
HIDDEN
10
19.9888795413
20
2.2503214274
11
5.9988795413
21
2.2503214274
0
LINE
5
37C
100
AcDbEntity
8
_CURVE
100
AcDbLine
62
8
6
HIDDEN
10
5.1188795413
20
3.1303214274
11
5.1188795413
21
18.8703214274
0
LINE
5
37D
100
AcDbEntity
8
_CURVE
100
AcDbLine
62
7
6
CONTINUOUS
10
7.7438795413
20
3.1253214274
11
18.2438795413
21
3.1253214274
0
LINE
5
37E
100
AcDbEntity
8
_CURVE
100
AcDbLine
62
7
6
CONTINUOUS
10
5.9938795413
20
17.1253214274
11
5.9938795413
21
4.8753214274
0
LINE
5
37F
100
AcDbEntity
8
___NOTE
100
AcDbLine
62
2
6
CONTINUOUS
10
18.4805188377
20
14.7092461393
11
18.2305188377
21
14.7092461393
0
LINE
5
380
100
AcDbEntity
8
___NOTE
100
AcDbLine
62
2
6
CONTINUOUS
10
18.6155890838
20
16.9629972941
11
18.3655890838
21
16.9629972941
0
LINE
5
381
100
AcDbEntity
8
___NOTE
100
AcDbLine
62
2
6
CONTINUOUS
10
19.9938795413
20
13.8910420923
11
18.4805188377
21
14.7092461393
0
LINE
5
382
100
AcDbEntity
8
_CURVE
100
AcDbLine
62
7
6
CONTINUOUS
10
19.9938795413
20
4.8753214274
11
19.9938795413
21
17.1253214274
0
LINE
5
383
100
AcDbEntity
8
_CURVE
100
AcDbLine
62
8
6
HIDDEN
10
20.8688795413
20
18.8703214274
11
20.8688795413
21
3.1303214274
0
LINE
5
384
100
AcDbEntity
8
_CURVE
100
AcDbLine
62
7
6
CONTINUOUS
10
18.2438795413
20
18.8753214274
11
7.7438795413
21
18.8753214274
0
LINE
5
385
100
AcDbEntity
8
___NOTE
100
AcDbLine
62
2
6
CONTINUOUS
10
20.8688795413
20
15.7324331732
11
18.6155890838
21
16.9629972941
0
LINE
5
386
100
AcDbEntity
8
_CURVE
100
AcDbLine
62
8
6
HIDDEN
10
5.9988795413
20
19.7503214274
11
19.9888795413
21
19.7503214274
0
LINE
5
387
100
AcDbEntity
8
_CURVE
100
AcDbLine
62
8
6
HIDDEN
10
19.9888795413
20
2.2503214274
11
20.8688795413
21
3.1303214274
0
LINE
5
388
100
AcDbEntity
8
_CURVE
100
AcDbLine
62
8
6
HIDDEN
10
20.8688795413
20
18.8703214274
11
19.9888795413
21
19.7503214274
0
CIRCLE
5
389
100
AcDbEntity
8
0
100
AcDbCircle
62
2
6
CONTINUOUS
10
11.1180026041
20
14.5076963252
40
0.2513022906
0
CIRCLE
5
38A
100
AcDbEntity
8
0
100
AcDbCircle
62
2
6
CONTINUOUS
10
11.1213773386
20
13.6389441571
40
0.2513022906
0
CIRCLE
5
38B
100
AcDbEntity
8
0
100
AcDbCircle
62
2
6
CONTINUOUS
10
11.3467243449
20
12.7270528410
40
0.2513022906
0
CIRCLE
5
38C
100
AcDbEntity
8
0
100
AcDbCircle
62
2
6
CONTINUOUS
10
11.3376187376
20
11.8512134960
40
0.2513022906
0
ARC
5
38D
100
AcDbEntity
8
_CURVE
100
AcDbCircle
62
7
6
CONTINUOUS
10
18.2438795413
20
17.1253214274
40
1.7500000000
100
AcDbArc
50
0.0000000000
51
90.0000000000
0
ARC
5
38E
100
AcDbEntity
8
_CURVE
100
AcDbCircle
62
7
6
CONTINUOUS
10
7.7438795413
20
17.1253214274
40
1.7500000000
100
AcDbArc
50
90.0000000000
51
180.0000000000
0
ARC
5
38F
100
AcDbEntity
8
_CURVE
100
AcDbCircle
62
7
6
CONTINUOUS
10
7.7438795413
20
4.8753214274
40
1.7500000000
100
AcDbArc
50
180.0000000000
51
270.0000000000
0
ARC
5
390
100
AcDbEntity
8
_CURVE
100
AcDbCircle
62
7
6
CONTINUOUS
10
18.2438795413
20
4.8753214274
40
1.7500000000
100
AcDbArc
50
270.0000000000
51
360.0000000000
0
ENDSEC
0
SECTION
2
OBJECTS
0
DICTIONARY
5
391
100
AcDbDictionary
3
ACAD_GROUP
350
392
3
ACAD_MLINESTYLE
350
393
0
DICTIONARY
5
392
102
{ACAD_REACTORS
330
391
102
}
100
AcDbDictionary
0
DICTIONARY
5
393
102
{ACAD_REACTORS
330
391
102
}
100
AcDbDictionary
3
STANDARD
350
394
0
MLINESTYLE
5
394
102
{ACAD_REACTORS
330
393
102
}
100
AcDbMlineStyle
2
STANDARD
70
0
3

62
256
51
90.0
52
90.0
71
2
49
0.5
62
256
6
BYLAYER
49
-0.5
62
256
6
BYLAYER
0
ENDSEC
0
EOF
