999
DXF file: 1109793-7_A3.dxf
999
Pro/ENGINEER 2009220 by Parametric Technology Corporation
  0
SECTION
  2
HEADER
  9
$ACADVER
  1
AC1015
  9
$DWGCODEPAGE
  3
ANSI_1252
  9
$EXTMAX
 10
44.0
 20
34.0
 30
0.0
  9
$EXTMIN
 10
0.0
 20
0.0
 30
0.0
  9
$LIMMIN
 10
0.0
 20
0.0
  9
$LIMMAX
 10
44.0
 20
34.0
  9
$VIEWCTR
 10
22.0
 20
17.0
  9
$VIEWSIZE
 40
34.0
  9
$CLAYER
  8
0
  9
$LTSCALE
 40
2.42
  9
$CELTYPE
  6
BYLAYER
  9
$DIMSCALE
 40
1.0
  9
$DIMASZ
 40
0.1875
  9
$DIMEXO
 40
0.275
  9
$DIMDLI
 40
1.672
  9
$DIMEXE
 40
0.792
  9
$DIMCEN
 40
0.396
  9
$DIMLFAC
 40
1.0
  9
$DIMBLK
  1
_FILLED
  9
$DIMTXT
 40
0.15625
  9
$DIMTOL
 70
1
  9
$DIMLIM
 70
0
  9
$DIMTFAC
 40
1.0
  9
$DIMTP
 40
0.01
  9
$DIMTM
 40
0.01
  9
$PDMODE
 70
3
  9
$PDSIZE
 40
0.3125
  9
$HANDSEED
  5
33C
  9
$TILEMODE
 70
1
  9
$MEASUREMENT
 70
0
  9
$INSUNITS
 70
1
  0
ENDSEC
  0
SECTION
  2
CLASSES
  0
CLASS
  1
ACDBDICTIONARYWDFLT
  2
AcDbDictionaryWithDefault
  3
AutoCAD 2000
 90
0
280
0
281
0
  0
CLASS
  1
ACDBPLACEHOLDER
  2
AcDbPlaceHolder
  3
AutoCAD 2000
 90
0
280
0
281
0
  0
CLASS
  1
LAYOUT
  2
AcDbLayout
  3
AutoCAD 2000
 90
0
280
0
281
0
  0
ENDSEC
  0
SECTION
  2
TABLES
  0
TABLE
  2
VPORT
  5
8
100
AcDbSymbolTable
 70
2
  0
VPORT
  5
1F4
100
AcDbSymbolTableRecord
100
AcDbViewportTableRecord
  2
*ACTIVE
 70
0
 10
0.0
 20
0.0
 11
1.0
 21
1.0
 12
22.0
 22
17.0
 13
0.0
 23
0.0
 14
1.0
 24
1.0
 15
0.0
 25
0.0
 16
0.0
 26
0.0
 36
1.0
 17
0.0
 27
0.0
 37
0.0
 40
34.0
 41
1.2941176471
 42
50.0
 43
0.0
 44
0.0
 50
0.0
 51
0.0
 71
0
 72
100
 73
1
 74
1
 75
0
 76
0
 77
0
 78
0
  0
ENDTAB
  0
TABLE
  2
LTYPE
  5
5
100
AcDbSymbolTable
 70
6
  0
LTYPE
  5
14
100
AcDbSymbolTableRecord
100
AcDbLinetypeTableRecord
  2
BYBLOCK
 70
0
  3

 72
65
 73
0
 40
0.0
  0
LTYPE
  5
15
100
AcDbSymbolTableRecord
100
AcDbLinetypeTableRecord
  2
BYLAYER
 70
0
  3

 72
65
 73
0
 40
0.0
  0
LTYPE
  5
16
100
AcDbSymbolTableRecord
100
AcDbLinetypeTableRecord
  2
CONTINUOUS
 70
64
  3
Solid line
 72
65
 73
0
 40
0.0
  0
LTYPE
  5
1F5
100
AcDbSymbolTableRecord
100
AcDbLinetypeTableRecord
  2
CENTER
 70
64
  3
____ _ ____ _ ____ _ ____ _ ____ _ ____ _ ____
 72
65
 73
4
 40
0.6
 49
0.375
 74
0
 49
-0.075
 74
0
 49
0.075
 74
0
 49
-0.075
 74
0
  0
LTYPE
  5
1F6
100
AcDbSymbolTableRecord
100
AcDbLinetypeTableRecord
  2
HIDDEN
 70
64
  3
- - - - - - - - - - - - - - - - - - - -
 72
65
 73
2
 40
0.2
 49
0.1
 74
0
 49
-0.1
 74
0
  0
LTYPE
  5
1F7
100
AcDbSymbolTableRecord
100
AcDbLinetypeTableRecord
  2
PHANTOM
 70
64
  3
_____ _ _ _____ _ _ _____ _ _ _____
 72
65
 73
6
 40
0.8
 49
0.45
 74
0
 49
-0.05
 74
0
 49
0.1
 74
0
 49
-0.05
 74
0
 49
0.1
 74
0
 49
-0.05
 74
0
  0
LTYPE
  5
1F8
100
AcDbSymbolTableRecord
100
AcDbLinetypeTableRecord
  2
DOT
 70
64
  3
. . . . . . . . . . . . . . . . . . . .
 72
65
 73
2
 40
0.2
 49
0.1
 74
0
 49
-0.1
 74
0
  0
LTYPE
  5
1F9
100
AcDbSymbolTableRecord
100
AcDbLinetypeTableRecord
  2
DASHED
 70
64
  3
- - - - - - - - - - - - - - - - - - - -
 72
65
 73
2
 40
0.2
 49
0.1
 74
0
 49
-0.1
 74
0
  0
ENDTAB
  0
TABLE
  2
LAYER
  5
2
100
AcDbSymbolTable
 70
36
  0
LAYER
  5
10
100
AcDbSymbolTableRecord
100
AcDbLayerTableRecord
  2
0
 70
0
 62
7
  6
CONTINUOUS
370
-3
390
F
  0
LAYER
  5
1FA
100
AcDbSymbolTableRecord
100
AcDbLayerTableRecord
  2
DEFAULT_1
 70
0
 62
7
  6
CENTER
370
-3
390
F
  0
LAYER
  5
1FB
100
AcDbSymbolTableRecord
100
AcDbLayerTableRecord
  2
DEFAULT_2
 70
0
 62
8
  6
HIDDEN
370
-3
390
F
  0
LAYER
  5
1FC
100
AcDbSymbolTableRecord
100
AcDbLayerTableRecord
  2
DEFAULT_3
 70
0
 62
7
  6
PHANTOM
370
-3
390
F
  0
LAYER
  5
1FD
100
AcDbSymbolTableRecord
100
AcDbLayerTableRecord
  2
DATUMS
 70
0
 62
7
  6
CONTINUOUS
370
-3
390
F
  0
LAYER
  5
1FE
100
AcDbSymbolTableRecord
100
AcDbLayerTableRecord
  2
DATUM_AXIS
 70
0
 62
7
  6
CONTINUOUS
370
-3
390
F
  0
LAYER
  5
1FF
100
AcDbSymbolTableRecord
100
AcDbLayerTableRecord
  2
DATUM_CSYS
 70
0
 62
7
  6
CONTINUOUS
370
-3
390
F
  0
LAYER
  5
200
100
AcDbSymbolTableRecord
100
AcDbLayerTableRecord
  2
DATUM_PLANE
 70
0
 62
7
  6
CONTINUOUS
370
-3
390
F
  0
LAYER
  5
201
100
AcDbSymbolTableRecord
100
AcDbLayerTableRecord
  2
DATUM_POINT
 70
0
 62
7
  6
CONTINUOUS
370
-3
390
F
  0
LAYER
  5
202
100
AcDbSymbolTableRecord
100
AcDbLayerTableRecord
  2
_CURVE
 70
0
 62
7
  6
CONTINUOUS
370
-3
390
F
  0
LAYER
  5
203
100
AcDbSymbolTableRecord
100
AcDbLayerTableRecord
  2
_SURFACE
 70
0
 62
7
  6
CONTINUOUS
370
-3
390
F
  0
LAYER
  5
204
100
AcDbSymbolTableRecord
100
AcDbLayerTableRecord
  2
__REF_CURVE
 70
0
 62
7
  6
CONTINUOUS
370
-3
390
F
  0
LAYER
  5
205
100
AcDbSymbolTableRecord
100
AcDbLayerTableRecord
  2
__REF_SURFACE
 70
0
 62
7
  6
CONTINUOUS
370
-3
390
F
  0
LAYER
  5
206
100
AcDbSymbolTableRecord
100
AcDbLayerTableRecord
  2
___NOTE
 70
0
 62
7
  6
CONTINUOUS
370
-3
390
F
  0
LAYER
  5
207
100
AcDbSymbolTableRecord
100
AcDbLayerTableRecord
  2
___SYMBOL
 70
0
 62
7
  6
CONTINUOUS
370
-3
390
F
  0
ENDTAB
  0
TABLE
  2
STYLE
  5
3
100
AcDbSymbolTable
 70
1
  0
STYLE
  5
11
100
AcDbSymbolTableRecord
100
AcDbTextStyleTableRecord
  2
STANDARD
 70
0
 40
0.0
 41
0.8
 50
0.0
 71
0
 42
0.2
  3
txt
  4

  0
STYLE
  5
208
100
AcDbSymbolTableRecord
100
AcDbTextStyleTableRecord
  2
TEXTSTYLE_1
 70
0
 40
0.0
 41
0.8
 50
0.0
 71
0
 42
0.2
  3
gdt
  4

  0
STYLE
  5
209
100
AcDbSymbolTableRecord
100
AcDbTextStyleTableRecord
  2
TEXTSTYLE_2
 70
0
 40
0.0
 41
0.8258950223
 50
0.0
 71
0
 42
0.2
  3
txt
  4

  0
STYLE
  5
20A
100
AcDbSymbolTableRecord
100
AcDbTextStyleTableRecord
  2
TEXTSTYLE_3
 70
0
 40
0.0
 41
0.6740211631
 50
0.0
 71
0
 42
0.2
  3
txt
  4

  0
STYLE
  5
20B
100
AcDbSymbolTableRecord
100
AcDbTextStyleTableRecord
  2
TEXTSTYLE_4
 70
0
 40
0.0
 41
1.0
 50
0.0
 71
0
 42
0.2
  3
txt
  4

  0
ENDTAB
  0
TABLE
  2
VIEW
  5
6
100
AcDbSymbolTable
 70
0
  0
ENDTAB
  0
TABLE
  2
UCS
  5
7
100
AcDbSymbolTable
 70
0
  0
ENDTAB
  0
TABLE
  2
APPID
  5
9
100
AcDbSymbolTable
 70
1
  0
APPID
  5
20C
100
AcDbSymbolTableRecord
100
AcDbRegAppTableRecord
  2
ACAD
 70
0
  0
ENDTAB
  0
TABLE
  2
BLOCK_RECORD
  5
1
100
AcDbSymbolTable
 70
0
  0
BLOCK_RECORD
  5
20D
100
AcDbSymbolTableRecord
100
AcDbBlockTableRecord
  2
*Model_Space
  0
BLOCK_RECORD
  5
20E
100
AcDbSymbolTableRecord
100
AcDbBlockTableRecord
  2
*Paper_Space
  0
BLOCK_RECORD
  5
20F
100
AcDbSymbolTableRecord
100
AcDbBlockTableRecord
  2
_FILLED
  0
BLOCK_RECORD
  5
210
100
AcDbSymbolTableRecord
100
AcDbBlockTableRecord
  2
*D0
  0
BLOCK_RECORD
  5
211
100
AcDbSymbolTableRecord
100
AcDbBlockTableRecord
  2
*D1
  0
BLOCK_RECORD
  5
212
100
AcDbSymbolTableRecord
100
AcDbBlockTableRecord
  2
COPYRIGHT_YEAR_BL2
  0
BLOCK_RECORD
  5
213
100
AcDbSymbolTableRecord
100
AcDbBlockTableRecord
  2
TEMPLATE_NUMBER_BL1
  0
BLOCK_RECORD
  5
214
100
AcDbSymbolTableRecord
100
AcDbBlockTableRecord
  2
TEMPLATE_NUMBER_BL0
  0
ENDTAB
  0
TABLE
  2
DIMSTYLE
  5
A
100
AcDbSymbolTable
 70
1
100
AcDbDimStyleTable
 71
0
  0
DIMSTYLE
105
215
100
AcDbSymbolTableRecord
100
AcDbDimStyleTableRecord
  2
STANDARD
 70
0
  3

  4

 40
1.0
 41
0.1875
 42
0.0625
 43
0.38
 44
0.18
 45
0.0
 46
0.0
 47
0.01
 48
0.01
140
0.15625
141
0.09
142
0.0
143
25.4
144
1.0
145
0.0
146
1.0
147
0.09
 71
1.0
 72
0.0
 73
1
 74
1
 75
0
 76
0
 77
0
 78
4
170
0
171
2
172
0
173
0
174
0
175
0
176
0
177
0
178
0
270
2
271
3
272
3
273
2
274
2
275
0
280
0
281
0
282
0
283
1
284
4
285
0
286
0
287
3
288
0
340
11
341
20F
342
20F
343
20F
344
20F
  0
DIMSTYLE
105
216
100
AcDbSymbolTableRecord
100
AcDbDimStyleTableRecord
  2
DIMSTYLE_1
 70
0
  3

  4

 40
1.0
 41
0.1875
 42
0.0625
 43
0.38
 44
0.18
 45
0.0
 46
0.0
 47
0.03125
 48
0.03125
140
0.15625
141
0.09
142
0.0
143
25.4
144
1.0
145
0.0
146
1.0
147
0.09
 71
0.0
 72
0.0
 73
1
 74
1
 75
0
 76
0
 77
0
 78
4
170
0
171
2
172
0
173
0
174
0
175
0
176
0
177
0
178
0
270
2
271
5
272
5
273
2
274
2
275
0
280
0
281
0
282
0
283
1
284
4
285
0
286
0
287
3
288
0
340
11
341
20F
342
20F
343
20F
344
20F
  0
ENDTAB
  0
ENDSEC
  0
SECTION
  2
BLOCKS
  0
BLOCK
  5
20
100
AcDbEntity
  8
0
100
AcDbBlockBegin
  2
*Model_Space
 70
0
 10
0.0
 20
0.0
 30
0.0
  3
*Model_Space
  1

  0
ENDBLK
  5
21
100
AcDbEntity
  8
0
100
AcDbBlockEnd
  0
BLOCK
  5
1C
100
AcDbEntity
  8
0
100
AcDbBlockBegin
  2
*Paper_Space
 70
0
 10
0.0
 20
0.0
 30
0.0
  3
*Paper_Space
  1

  0
ENDBLK
  5
1D
100
AcDbEntity
  8
0
100
AcDbBlockEnd
  0
BLOCK
  5
217
100
AcDbEntity
  8
___SYMBOL
100
AcDbBlockBegin
 62
2
  6
CONTINUOUS
  2
COPYRIGHT_YEAR_BL2
 70
64
 10
33.0534263643
 20
11.7525725185
  3
COPYRIGHT_YEAR_BL2
  1

  0
CIRCLE
  5
218
100
AcDbEntity
  8
___SYMBOL
100
AcDbCircle
 62
7
  6
CONTINUOUS
 10
32.6139455443
 20
11.755020135
 40
0.0328258835
  0
MTEXT
  5
219
100
AcDbEntity
  8
___SYMBOL
100
AcDbMText
 62
2
  6
CONTINUOUS
  7
STANDARD
 71
1
 72
1
 10
32.6797360608
 20
11.7877987691
 30
0.0
 11
1.0
 21
0.0
 31
0.0
 44
0.9
  1
2008
 40
0.0704997506
 41
0.2255992019
  0
MTEXT
  5
21A
100
AcDbEntity
  8
___SYMBOL
100
AcDbMText
 62
2
  6
CONTINUOUS
  7
STANDARD
 71
1
 72
1
 10
32.9053352627
 20
11.7877987691
 30
0.0
 11
1.0
 21
0.0
 31
0.0
 44
0.9
  1
 KOHLER CO.
 40
0.0704997506
 41
0.6203978051
  0
MTEXT
  5
21B
100
AcDbEntity
  8
___SYMBOL
100
AcDbMText
 62
2
  6
CONTINUOUS
  7
TEXTSTYLE_4
 71
1
 72
1
 10
32.5997105949
 20
11.7759713106
 30
0.0
 11
1.0
 21
0.0
 31
0.0
 44
0.9
  1
C
 40
0.0421873503
 41
0.0421873503
  0
ENDBLK
  5
21C
100
AcDbEntity
  8
0
  6
BYBLOCK
 62
0
100
AcDbBlockEnd
  0
BLOCK
  5
21D
100
AcDbEntity
  8
___SYMBOL
100
AcDbBlockBegin
 62
2
  6
CONTINUOUS
  2
TEMPLATE_NUMBER_BL1
 70
64
 10
8.7007912037
 20
10.6910737628
  3
TEMPLATE_NUMBER_BL1
  1

  0
MTEXT
  5
21E
100
AcDbEntity
  8
___SYMBOL
100
AcDbMText
 62
2
  6
CONTINUOUS
  7
STANDARD
 71
1
 72
1
 10
8.3905913012
 20
10.7263237518
 30
0.0
 11
1.0
 21
0.0
 31
0.0
 44
0.9
  1
1109793-7-A
 40
0.0704999778
 41
0.620399805
  0
ENDBLK
  5
21F
100
AcDbEntity
  8
0
  6
BYBLOCK
 62
0
100
AcDbBlockEnd
  0
BLOCK
  5
220
100
AcDbEntity
  8
___SYMBOL
100
AcDbBlockBegin
 62
2
  6
CONTINUOUS
  2
TEMPLATE_NUMBER_BL0
 70
64
 10
8.6882869412
 20
11.7133620767
  3
TEMPLATE_NUMBER_BL0
  1

  0
MTEXT
  5
221
100
AcDbEntity
  8
___SYMBOL
100
AcDbMText
 62
2
  6
CONTINUOUS
  7
STANDARD
 71
1
 72
1
 10
8.3780870387
 20
11.7486120657
 30
0.0
 11
1.0
 21
0.0
 31
0.0
 44
0.9
  1
1109793-7-A
 40
0.0704999778
 41
0.620399805
  0
ENDBLK
  5
222
100
AcDbEntity
  8
0
  6
BYBLOCK
 62
0
100
AcDbBlockEnd
  0
BLOCK
  5
223
100
AcDbEntity
  8
0
100
AcDbBlockBegin
  2
_FILLED
 70
64
 10
0.0
 20
0.0
  3
_FILLED
  1

  0
SOLID
  5
224
100
AcDbEntity
  8
0
  6
BYBLOCK
 62
0
100
AcDbTrace
 10
0.0
 20
0.0
 11
-1.0
 21
0.1666666667
 12
-1.0
 22
-0.1666666667
 13
-1.0
 23
-0.1666666667
  0
ENDBLK
  5
225
100
AcDbEntity
  8
0
  6
BYBLOCK
 62
0
100
AcDbBlockEnd
  0
BLOCK
  5
226
100
AcDbEntity
  8
0
100
AcDbBlockBegin
 62
2
  6
CONTINUOUS
  2
*D0
 70
65
 10
0.0
 20
0.0
  3
*D0
  1

  0
MTEXT
  5
227
100
AcDbEntity
  8
0
100
AcDbMText
 62
2
  6
CONTINUOUS
  7
STANDARD
 71
2
 72
1
 10
21.2730313646
 20
21.3323326651
 30
0.0
 11
1.0
 21
0.0
 31
0.0
 44
0.9
  1
17-1/8\P[43,48 cm]
 40
0.15625
 41
1.25
  0
LINE
  5
228
100
AcDbEntity
  8
0
100
AcDbLine
 62
2
  6
CONTINUOUS
 10
21.1989977512
 20
28.6674090525
 11
21.3980313646
 21
28.6674090525
  0
LINE
  5
229
100
AcDbEntity
  8
0
100
AcDbLine
 62
2
  6
CONTINUOUS
 10
21.2270754823
 20
11.5474090525
 11
21.3980313646
 21
11.5474090525
  0
LINE
  5
22A
100
AcDbEntity
  8
0
100
AcDbLine
 62
2
  6
CONTINUOUS
 10
21.2730313646
 20
28.6674090525
 11
21.2730313646
 21
21.4104576651
  0
LINE
  5
22B
100
AcDbEntity
  8
0
100
AcDbLine
 62
2
  6
CONTINUOUS
 10
21.2730313646
 20
11.5474090525
 11
21.2730313646
 21
20.8635826651
  0
INSERT
  5
22C
100
AcDbEntity
  8
0
100
AcDbBlockReference
 62
2
  6
CONTINUOUS
  2
_FILLED
 10
21.2730313646
 20
28.6674090525
 41
0.1875
 42
0.1875
 43
0.1875
 50
90.0
  0
INSERT
  5
22D
100
AcDbEntity
  8
0
100
AcDbBlockReference
 62
2
  6
CONTINUOUS
  2
_FILLED
 10
21.2730313646
 20
11.5474090525
 41
0.1875
 42
0.1875
 43
0.1875
 50
270.0
  0
ENDBLK
  5
22E
100
AcDbEntity
  8
0
  6
BYBLOCK
 62
0
100
AcDbBlockEnd
  0
BLOCK
  5
22F
100
AcDbEntity
  8
0
100
AcDbBlockBegin
 62
2
  6
CONTINUOUS
  2
*D1
 70
65
 10
0.0
 20
0.0
  3
*D1
  1

  0
MTEXT
  5
230
100
AcDbEntity
  8
0
100
AcDbMText
 62
2
  6
CONTINUOUS
  7
STANDARD
 71
2
 72
1
 10
22.7449394851
 20
20.3566327263
 30
0.0
 11
1.0
 21
0.0
 31
0.0
 44
0.9
  1
31-5/8\P[80,31 cm]
 40
0.15625
 41
1.25
  0
LINE
  5
231
100
AcDbEntity
  8
0
100
AcDbLine
 62
2
  6
CONTINUOUS
 10
5.5949933938
 20
20.1535077263
 11
5.5949933938
 21
20.3489768135
  0
LINE
  5
232
100
AcDbEntity
  8
0
100
AcDbLine
 62
2
  6
CONTINUOUS
 10
37.2149933938
 20
20.2504140375
 11
37.2149933938
 21
20.4035077263
  0
LINE
  5
233
100
AcDbEntity
  8
0
100
AcDbLine
 62
2
  6
CONTINUOUS
 10
5.5949933938
 20
20.2785077263
 11
22.0418144851
 21
20.2785077263
  0
LINE
  5
234
100
AcDbEntity
  8
0
100
AcDbLine
 62
2
  6
CONTINUOUS
 10
37.2149933938
 20
20.2785077263
 11
23.4480644851
 21
20.2785077263
  0
INSERT
  5
235
100
AcDbEntity
  8
0
100
AcDbBlockReference
 62
2
  6
CONTINUOUS
  2
_FILLED
 10
5.5949933938
 20
20.2785077263
 41
0.1875
 42
0.1875
 43
0.1875
 50
180.0
  0
INSERT
  5
236
100
AcDbEntity
  8
0
100
AcDbBlockReference
 62
2
  6
CONTINUOUS
  2
_FILLED
 10
37.2149933938
 20
20.2785077263
 41
0.1875
 42
0.1875
 43
0.1875
  0
ENDBLK
  5
237
100
AcDbEntity
  8
0
  6
BYBLOCK
 62
0
100
AcDbBlockEnd
  0
ENDSEC
  0
SECTION
  2
ENTITIES
  0
SOLID
  5
238
100
AcDbEntity
  8
0
100
AcDbTrace
 62
2
  6
CONTINUOUS
 10
7.4257435545
 20
27.4272648288
 11
7.5635077212
 21
27.5910860184
 12
7.7555695333
 22
27.5910860184
 13
7.7555695333
 23
27.5910860184
  0
SOLID
  5
239
100
AcDbEntity
  8
0
100
AcDbTrace
 62
2
  6
CONTINUOUS
 10
7.7555695333
 20
27.5910860184
 11
7.5422660814
 21
27.3374377455
 12
7.4257435545
 22
27.4272648288
 13
7.4257435545
 23
27.4272648288
  0
SOLID
  5
23A
100
AcDbEntity
  8
0
100
AcDbTrace
 62
2
  6
CONTINUOUS
 10
7.4257435545
 20
27.2066722031
 11
7.5422660814
 21
27.3374377455
 12
7.5794814946
 22
27.0051723691
 13
7.5794814946
 23
27.0051723691
  0
SOLID
  5
23B
100
AcDbEntity
  8
0
100
AcDbTrace
 62
2
  6
CONTINUOUS
 10
7.5422660814
 20
27.3374377455
 11
7.7957739161
 21
27.0051723691
 12
7.5794814946
 22
27.0051723691
 13
7.5794814946
 23
27.0051723691
  0
SOLID
  5
23C
100
AcDbEntity
  8
0
100
AcDbTrace
 62
2
  6
CONTINUOUS
 10
7.4257435545
 20
27.0051723691
 11
7.2512433275
 21
27.0051483656
 12
7.4257435545
 22
27.2066722031
 13
7.4257435545
 23
27.2066722031
  0
SOLID
  5
23D
100
AcDbEntity
  8
0
100
AcDbTrace
 62
2
  6
CONTINUOUS
 10
7.5422660814
 20
27.3374377455
 11
7.4257435545
 21
27.2066722031
 12
7.4257435545
 22
27.4272648288
 13
7.4257435545
 23
27.4272648288
  0
SOLID
  5
23E
100
AcDbEntity
  8
0
100
AcDbTrace
 62
2
  6
CONTINUOUS
 10
7.4257435545
 20
27.2066722031
 11
7.2512433275
 21
27.0051483656
 12
7.4257435545
 22
27.4272648288
 13
7.4257435545
 23
27.4272648288
  0
SOLID
  5
23F
100
AcDbEntity
  8
0
100
AcDbTrace
 62
2
  6
CONTINUOUS
 10
7.4257435545
 20
27.4272648288
 11
7.2512433275
 21
27.0051483656
 12
7.4257435545
 22
27.5910860184
 13
7.4257435545
 23
27.5910860184
  0
SOLID
  5
240
100
AcDbEntity
  8
0
100
AcDbTrace
 62
2
  6
CONTINUOUS
 10
7.2512433275
 20
27.0051483656
 11
7.2512433275
 21
27.5910860184
 12
7.4257435545
 22
27.5910860184
 13
7.4257435545
 23
27.5910860184
  0
SOLID
  5
241
100
AcDbEntity
  8
0
100
AcDbTrace
 62
2
  6
CONTINUOUS
 10
7.8801782009
 20
27.580476605
 11
7.9411273553
 21
27.5934317477
 12
8.0034381502
 22
27.5934317477
 13
8.0034381502
 23
27.5934317477
  0
SOLID
  5
242
100
AcDbEntity
  8
0
100
AcDbTrace
 62
2
  6
CONTINUOUS
 10
8.0034381502
 20
27.5934317477
 11
8.0643873047
 21
27.580476605
 12
7.8801782009
 22
27.580476605
 13
7.8801782009
 23
27.580476605
  0
SOLID
  5
243
100
AcDbEntity
  8
0
100
AcDbTrace
 62
2
  6
CONTINUOUS
 10
7.8232544573
 20
27.5551325215
 11
7.8801782009
 21
27.580476605
 12
8.0643873047
 22
27.580476605
 13
8.0643873047
 23
27.580476605
  0
SOLID
  5
244
100
AcDbEntity
  8
0
100
AcDbTrace
 62
2
  6
CONTINUOUS
 10
8.0643873047
 20
27.580476605
 11
8.1213110483
 21
27.5551325215
 12
7.8232544573
 22
27.5551325215
 13
7.8232544573
 23
27.5551325215
  0
SOLID
  5
245
100
AcDbEntity
  8
0
100
AcDbTrace
 62
2
  6
CONTINUOUS
 10
7.7728439653
 20
27.5185071552
 11
7.8232544573
 21
27.5551325215
 12
8.1213110483
 22
27.5551325215
 13
8.1213110483
 23
27.5551325215
  0
SOLID
  5
246
100
AcDbEntity
  8
0
100
AcDbTrace
 62
2
  6
CONTINUOUS
 10
8.1213110483
 20
27.5551325215
 11
8.1717215402
 21
27.5185071552
 12
7.7728439653
 22
27.5185071552
 13
7.7728439653
 23
27.5185071552
  0
SOLID
  5
247
100
AcDbEntity
  8
0
100
AcDbTrace
 62
2
  6
CONTINUOUS
 10
7.7311499054
 20
27.4722012104
 11
7.7728439653
 21
27.5185071552
 12
8.1717215402
 22
27.5185071552
 13
8.1717215402
 23
27.5185071552
  0
SOLID
  5
248
100
AcDbEntity
  8
0
100
AcDbTrace
 62
2
  6
CONTINUOUS
 10
8.1717215402
 20
27.5185071552
 11
8.2134156002
 21
27.4722012104
 12
7.7311499054
 22
27.4722012104
 13
7.7311499054
 23
27.4722012104
  0
SOLID
  5
249
100
AcDbEntity
  8
0
100
AcDbTrace
 62
2
  6
CONTINUOUS
 10
7.9722827528
 20
27.421777357
 11
7.6999945079
 21
27.4182384792
 12
8.2134156002
 22
27.4722012104
 13
8.2134156002
 23
27.4722012104
  0
SOLID
  5
24A
100
AcDbEntity
  8
0
100
AcDbTrace
 62
2
  6
CONTINUOUS
 10
7.6999945079
 20
27.4182384792
 11
7.7311499054
 21
27.4722012104
 12
8.2134156002
 22
27.4722012104
 13
8.2134156002
 23
27.4722012104
  0
SOLID
  5
24B
100
AcDbEntity
  8
0
100
AcDbTrace
 62
2
  6
CONTINUOUS
 10
8.2134156002
 20
27.4722012104
 11
8.2445709976
 21
27.4182384792
 12
7.9722827528
 22
27.421777357
 13
7.9722827528
 23
27.421777357
  0
SOLID
  5
24C
100
AcDbEntity
  8
0
100
AcDbTrace
 62
2
  6
CONTINUOUS
 10
7.9722827528
 20
27.421777357
 11
7.9337268831
 21
27.4156707071
 12
7.6999945079
 22
27.4182384792
 13
7.6999945079
 23
27.4182384792
  0
SOLID
  5
24D
100
AcDbEntity
  8
0
100
AcDbTrace
 62
2
  6
CONTINUOUS
 10
8.0108386224
 20
27.4156707071
 11
7.9722827528
 21
27.421777357
 12
8.2445709976
 22
27.4182384792
 13
8.2445709976
 23
27.4182384792
  0
SOLID
  5
24E
100
AcDbEntity
  8
0
100
AcDbTrace
 62
2
  6
CONTINUOUS
 10
7.8713421756
 20
27.370345564
 11
7.6807394134
 21
27.3589773917
 12
7.8989451306
 22
27.3979485191
 13
7.8989451306
 23
27.3979485191
  0
SOLID
  5
24F
100
AcDbEntity
  8
0
100
AcDbTrace
 62
2
  6
CONTINUOUS
 10
7.8989451306
 20
27.3979485191
 11
7.6807394134
 21
27.3589773917
 12
7.9337268831
 22
27.4156707071
 13
7.9337268831
 23
27.4156707071
  0
SOLID
  5
250
100
AcDbEntity
  8
0
100
AcDbTrace
 62
2
  6
CONTINUOUS
 10
7.6807394134
 20
27.3589773917
 11
7.6999945079
 21
27.4182384792
 12
7.9337268831
 22
27.4156707071
 13
7.9337268831
 23
27.4156707071
  0
SOLID
  5
251
100
AcDbEntity
  8
0
100
AcDbTrace
 62
2
  6
CONTINUOUS
 10
8.0108386224
 20
27.4156707071
 11
8.2445709976
 21
27.4182384792
 12
8.0456203749
 22
27.3979485191
 13
8.0456203749
 23
27.3979485191
  0
SOLID
  5
252
100
AcDbEntity
  8
0
100
AcDbTrace
 62
2
  6
CONTINUOUS
 10
8.0456203749
 20
27.3979485191
 11
8.2445709976
 21
27.4182384792
 12
8.0732233299
 22
27.370345564
 13
8.0732233299
 23
27.370345564
  0
SOLID
  5
253
100
AcDbEntity
  8
0
100
AcDbTrace
 62
2
  6
CONTINUOUS
 10
8.2445709976
 20
27.4182384792
 11
8.2638260921
 21
27.3589773917
 12
8.0732233299
 22
27.370345564
 13
8.0732233299
 23
27.370345564
  0
SOLID
  5
254
100
AcDbEntity
  8
0
100
AcDbTrace
 62
2
  6
CONTINUOUS
 10
7.8713421756
 20
27.370345564
 11
7.8536199875
 21
27.3355638115
 12
7.6807394134
 22
27.3589773917
 13
7.6807394134
 23
27.3589773917
  0
SOLID
  5
255
100
AcDbEntity
  8
0
100
AcDbTrace
 62
2
  6
CONTINUOUS
 10
8.090945518
 20
27.3355638115
 11
8.0732233299
 21
27.370345564
 12
8.2638260921
 22
27.3589773917
 13
8.2638260921
 23
27.3589773917
  0
SOLID
  5
256
100
AcDbEntity
  8
0
100
AcDbTrace
 62
2
  6
CONTINUOUS
 10
7.6742261618
 20
27.2970079419
 11
7.6807394134
 21
27.3589773917
 12
7.8536199875
 22
27.3355638115
 13
7.8536199875
 23
27.3355638115
  0
SOLID
  5
257
100
AcDbEntity
  8
0
100
AcDbTrace
 62
2
  6
CONTINUOUS
 10
7.8536199875
 20
27.3355638115
 11
7.8475133377
 21
27.2970079419
 12
7.6742261618
 22
27.2970079419
 13
7.6742261618
 23
27.2970079419
  0
SOLID
  5
258
100
AcDbEntity
  8
0
100
AcDbTrace
 62
2
  6
CONTINUOUS
 10
8.090945518
 20
27.3355638115
 11
8.2638260921
 21
27.3589773917
 12
8.0970521678
 22
27.2970079419
 13
8.0970521678
 23
27.2970079419
  0
SOLID
  5
259
100
AcDbEntity
  8
0
100
AcDbTrace
 62
2
  6
CONTINUOUS
 10
8.2638260921
 20
27.3589773917
 11
8.2703393437
 21
27.2970079419
 12
8.0970521678
 22
27.2970079419
 13
8.0970521678
 23
27.2970079419
  0
SOLID
  5
25A
100
AcDbEntity
  8
0
100
AcDbTrace
 62
2
  6
CONTINUOUS
 10
8.090945518
 20
27.2584520723
 11
8.0970521678
 21
27.2970079419
 12
8.2703393437
 22
27.2970079419
 13
8.2703393437
 23
27.2970079419
  0
SOLID
  5
25B
100
AcDbEntity
  8
0
100
AcDbTrace
 62
2
  6
CONTINUOUS
 10
7.8536199875
 20
27.2584520723
 11
7.6807394134
 21
27.2350384921
 12
7.8475133377
 22
27.2970079419
 13
7.8475133377
 23
27.2970079419
  0
SOLID
  5
25C
100
AcDbEntity
  8
0
100
AcDbTrace
 62
2
  6
CONTINUOUS
 10
7.6807394134
 20
27.2350384921
 11
7.6742261618
 21
27.2970079419
 12
7.8475133377
 22
27.2970079419
 13
7.8475133377
 23
27.2970079419
  0
SOLID
  5
25D
100
AcDbEntity
  8
0
100
AcDbTrace
 62
2
  6
CONTINUOUS
 10
8.2703393437
 20
27.2970079419
 11
8.2638260921
 21
27.2350384921
 12
8.090945518
 22
27.2584520723
 13
8.090945518
 23
27.2584520723
  0
SOLID
  5
25E
100
AcDbEntity
  8
0
100
AcDbTrace
 62
2
  6
CONTINUOUS
 10
7.8536199875
 20
27.2584520723
 11
7.8713421756
 21
27.2236703198
 12
7.6807394134
 22
27.2350384921
 13
7.6807394134
 23
27.2350384921
  0
SOLID
  5
25F
100
AcDbEntity
  8
0
100
AcDbTrace
 62
2
  6
CONTINUOUS
 10
8.0732233299
 20
27.2236703198
 11
8.090945518
 21
27.2584520723
 12
8.2638260921
 22
27.2350384921
 13
8.2638260921
 23
27.2350384921
  0
SOLID
  5
260
100
AcDbEntity
  8
0
100
AcDbTrace
 62
2
  6
CONTINUOUS
 10
7.9337268831
 20
27.1783451767
 11
7.6999945079
 21
27.1757774046
 12
7.8989451306
 22
27.1960673647
 13
7.8989451306
 23
27.1960673647
  0
SOLID
  5
261
100
AcDbEntity
  8
0
100
AcDbTrace
 62
2
  6
CONTINUOUS
 10
7.8989451306
 20
27.1960673647
 11
7.6999945079
 21
27.1757774046
 12
7.8713421756
 22
27.2236703198
 13
7.8713421756
 23
27.2236703198
  0
SOLID
  5
262
100
AcDbEntity
  8
0
100
AcDbTrace
 62
2
  6
CONTINUOUS
 10
7.6999945079
 20
27.1757774046
 11
7.6807394134
 21
27.2350384921
 12
7.8713421756
 22
27.2236703198
 13
7.8713421756
 23
27.2236703198
  0
SOLID
  5
263
100
AcDbEntity
  8
0
100
AcDbTrace
 62
2
  6
CONTINUOUS
 10
8.0732233299
 20
27.2236703198
 11
8.2638260921
 21
27.2350384921
 12
8.0456203749
 22
27.1960673647
 13
8.0456203749
 23
27.1960673647
  0
SOLID
  5
264
100
AcDbEntity
  8
0
100
AcDbTrace
 62
2
  6
CONTINUOUS
 10
8.0456203749
 20
27.1960673647
 11
8.2638260921
 21
27.2350384921
 12
8.0108386224
 22
27.1783451767
 13
8.0108386224
 23
27.1783451767
  0
SOLID
  5
265
100
AcDbEntity
  8
0
100
AcDbTrace
 62
2
  6
CONTINUOUS
 10
8.2638260921
 20
27.2350384921
 11
8.2445709976
 21
27.1757774046
 12
8.0108386224
 22
27.1783451767
 13
8.0108386224
 23
27.1783451767
  0
SOLID
  5
266
100
AcDbEntity
  8
0
100
AcDbTrace
 62
2
  6
CONTINUOUS
 10
7.9337268831
 20
27.1783451767
 11
7.9722827528
 21
27.1722385268
 12
7.6999945079
 22
27.1757774046
 13
7.6999945079
 23
27.1757774046
  0
SOLID
  5
267
100
AcDbEntity
  8
0
100
AcDbTrace
 62
2
  6
CONTINUOUS
 10
7.9722827528
 20
27.1722385268
 11
8.0108386224
 21
27.1783451767
 12
8.2445709976
 22
27.1757774046
 13
8.2445709976
 23
27.1757774046
  0
SOLID
  5
268
100
AcDbEntity
  8
0
100
AcDbTrace
 62
2
  6
CONTINUOUS
 10
7.7311499054
 20
27.1218146734
 11
7.6999945079
 21
27.1757774046
 12
7.9722827528
 22
27.1722385268
 13
7.9722827528
 23
27.1722385268
  0
SOLID
  5
269
100
AcDbEntity
  8
0
100
AcDbTrace
 62
2
  6
CONTINUOUS
 10
7.9722827528
 20
27.1722385268
 11
8.2445709976
 21
27.1757774046
 12
7.7311499054
 22
27.1218146734
 13
7.7311499054
 23
27.1218146734
  0
SOLID
  5
26A
100
AcDbEntity
  8
0
100
AcDbTrace
 62
2
  6
CONTINUOUS
 10
8.2445709976
 20
27.1757774046
 11
8.2134156002
 21
27.1218146734
 12
7.7311499054
 22
27.1218146734
 13
7.7311499054
 23
27.1218146734
  0
SOLID
  5
26B
100
AcDbEntity
  8
0
100
AcDbTrace
 62
2
  6
CONTINUOUS
 10
7.7728439653
 20
27.0755087286
 11
7.7311499054
 21
27.1218146734
 12
8.2134156002
 22
27.1218146734
 13
8.2134156002
 23
27.1218146734
  0
SOLID
  5
26C
100
AcDbEntity
  8
0
100
AcDbTrace
 62
2
  6
CONTINUOUS
 10
8.2134156002
 20
27.1218146734
 11
8.1717215402
 21
27.0755087286
 12
7.7728439653
 22
27.0755087286
 13
7.7728439653
 23
27.0755087286
  0
SOLID
  5
26D
100
AcDbEntity
  8
0
100
AcDbTrace
 62
2
  6
CONTINUOUS
 10
7.8232544573
 20
27.0388833623
 11
7.7728439653
 21
27.0755087286
 12
8.1717215402
 22
27.0755087286
 13
8.1717215402
 23
27.0755087286
  0
SOLID
  5
26E
100
AcDbEntity
  8
0
100
AcDbTrace
 62
2
  6
CONTINUOUS
 10
8.1717215402
 20
27.0755087286
 11
8.1213110483
 21
27.0388833623
 12
7.8232544573
 22
27.0388833623
 13
7.8232544573
 23
27.0388833623
  0
SOLID
  5
26F
100
AcDbEntity
  8
0
100
AcDbTrace
 62
2
  6
CONTINUOUS
 10
7.8801782009
 20
27.0135392788
 11
7.8232544573
 21
27.0388833623
 12
8.1213110483
 22
27.0388833623
 13
8.1213110483
 23
27.0388833623
  0
SOLID
  5
270
100
AcDbEntity
  8
0
100
AcDbTrace
 62
2
  6
CONTINUOUS
 10
8.1213110483
 20
27.0388833623
 11
8.0643873047
 21
27.0135392788
 12
7.8801782009
 22
27.0135392788
 13
7.8801782009
 23
27.0135392788
  0
SOLID
  5
271
100
AcDbEntity
  8
0
100
AcDbTrace
 62
2
  6
CONTINUOUS
 10
7.9411273553
 20
27.0005841361
 11
7.8801782009
 21
27.0135392788
 12
8.0643873047
 22
27.0135392788
 13
8.0643873047
 23
27.0135392788
  0
SOLID
  5
272
100
AcDbEntity
  8
0
100
AcDbTrace
 62
2
  6
CONTINUOUS
 10
8.0643873047
 20
27.0135392788
 11
8.0034381502
 21
27.0005841361
 12
7.9411273553
 22
27.0005841361
 13
7.9411273553
 23
27.0005841361
  0
SOLID
  5
273
100
AcDbEntity
  8
0
100
AcDbTrace
 62
2
  6
CONTINUOUS
 10
8.6001850821
 20
27.3707022588
 11
8.6001850821
 21
27.5910860184
 12
8.764918762
 22
27.5910860184
 13
8.764918762
 23
27.5910860184
  0
SOLID
  5
274
100
AcDbEntity
  8
0
100
AcDbTrace
 62
2
  6
CONTINUOUS
 10
8.6001850821
 20
27.3707022588
 11
8.452188271
 21
27.2334969789
 12
8.452188271
 22
27.3707022588
 13
8.452188271
 23
27.3707022588
  0
SOLID
  5
275
100
AcDbEntity
  8
0
100
AcDbTrace
 62
2
  6
CONTINUOUS
 10
8.452188271
 20
27.2334969789
 11
8.2874545911
 21
27.0051723691
 12
8.452188271
 22
27.3707022588
 13
8.452188271
 23
27.3707022588
  0
SOLID
  5
276
100
AcDbEntity
  8
0
100
AcDbTrace
 62
2
  6
CONTINUOUS
 10
8.452188271
 20
27.3707022588
 11
8.2874545911
 21
27.0051723691
 12
8.452188271
 22
27.5910860184
 13
8.452188271
 23
27.5910860184
  0
SOLID
  5
277
100
AcDbEntity
  8
0
100
AcDbTrace
 62
2
  6
CONTINUOUS
 10
8.2874545911
 20
27.0051723691
 11
8.2874545911
 21
27.5910860184
 12
8.452188271
 22
27.5910860184
 13
8.452188271
 23
27.5910860184
  0
SOLID
  5
278
100
AcDbEntity
  8
0
100
AcDbTrace
 62
2
  6
CONTINUOUS
 10
8.452188271
 20
27.2334969789
 11
8.452188271
 21
27.0051723691
 12
8.2874545911
 22
27.0051723691
 13
8.2874545911
 23
27.0051723691
  0
SOLID
  5
279
100
AcDbEntity
  8
0
100
AcDbTrace
 62
2
  6
CONTINUOUS
 10
8.452188271
 20
27.2334969789
 11
8.6001850821
 21
27.3707022588
 12
8.6001850821
 22
27.2334969789
 13
8.6001850821
 23
27.2334969789
  0
SOLID
  5
27A
100
AcDbEntity
  8
0
100
AcDbTrace
 62
2
  6
CONTINUOUS
 10
8.6001850821
 20
27.3707022588
 11
8.764918762
 21
27.5910860184
 12
8.6001850821
 22
27.2334969789
 13
8.6001850821
 23
27.2334969789
  0
SOLID
  5
27B
100
AcDbEntity
  8
0
100
AcDbTrace
 62
2
  6
CONTINUOUS
 10
8.6001850821
 20
27.2334969789
 11
8.764918762
 21
27.5910860184
 12
8.6001850821
 22
27.0051723691
 13
8.6001850821
 23
27.0051723691
  0
SOLID
  5
27C
100
AcDbEntity
  8
0
100
AcDbTrace
 62
2
  6
CONTINUOUS
 10
8.764918762
 20
27.5910860184
 11
8.764918762
 21
27.0051723691
 12
8.6001850821
 22
27.0051723691
 13
8.6001850821
 23
27.0051723691
  0
SOLID
  5
27D
100
AcDbEntity
  8
0
100
AcDbTrace
 62
2
  6
CONTINUOUS
 10
9.1226937389
 20
27.1463991262
 11
8.8099636062
 21
27.0051723691
 12
8.9600096689
 22
27.1463991262
 13
8.9600096689
 23
27.1463991262
  0
SOLID
  5
27E
100
AcDbEntity
  8
0
100
AcDbTrace
 62
2
  6
CONTINUOUS
 10
8.9600096689
 20
27.1463991262
 11
8.8099636062
 21
27.0051723691
 12
8.9600096689
 22
27.5910860184
 13
8.9600096689
 23
27.5910860184
  0
SOLID
  5
27F
100
AcDbEntity
  8
0
100
AcDbTrace
 62
2
  6
CONTINUOUS
 10
8.8099636062
 20
27.0051723691
 11
8.8099636062
 21
27.5910860184
 12
8.9600096689
 22
27.5910860184
 13
8.9600096689
 23
27.5910860184
  0
SOLID
  5
280
100
AcDbEntity
  8
0
100
AcDbTrace
 62
2
  6
CONTINUOUS
 10
8.8099636062
 20
27.0051723691
 11
9.1226937389
 21
27.1463991262
 12
8.9600096689
 22
27.0051723691
 13
8.9600096689
 23
27.0051723691
  0
SOLID
  5
281
100
AcDbEntity
  8
0
100
AcDbTrace
 62
2
  6
CONTINUOUS
 10
9.1226937389
 20
27.1463991262
 11
9.1226937389
 21
27.0051723691
 12
8.9600096689
 22
27.0051723691
 13
8.9600096689
 23
27.0051723691
  0
SOLID
  5
282
100
AcDbEntity
  8
0
100
AcDbTrace
 62
2
  6
CONTINUOUS
 10
9.4609456529
 20
27.5910860184
 11
9.4609456529
 21
27.4483266217
 12
9.3100881295
 22
27.4483266217
 13
9.3100881295
 23
27.4483266217
  0
SOLID
  5
283
100
AcDbEntity
  8
0
100
AcDbTrace
 62
2
  6
CONTINUOUS
 10
9.4609456529
 20
27.3707022588
 11
9.4609456529
 21
27.2263206572
 12
9.3100881295
 22
27.2263206572
 13
9.3100881295
 23
27.2263206572
  0
SOLID
  5
284
100
AcDbEntity
  8
0
100
AcDbTrace
 62
2
  6
CONTINUOUS
 10
9.4609456529
 20
27.1463991262
 11
9.1518414775
 21
27.0051723691
 12
9.3100881295
 22
27.1463991262
 13
9.3100881295
 23
27.1463991262
  0
SOLID
  5
285
100
AcDbEntity
  8
0
100
AcDbTrace
 62
2
  6
CONTINUOUS
 10
9.3100881295
 20
27.1463991262
 11
9.1518414775
 21
27.0051723691
 12
9.3100881295
 22
27.2263206572
 13
9.3100881295
 23
27.2263206572
  0
SOLID
  5
286
100
AcDbEntity
  8
0
100
AcDbTrace
 62
2
  6
CONTINUOUS
 10
9.4609456529
 20
27.3707022588
 11
9.3100881295
 21
27.2263206572
 12
9.3100881295
 22
27.3707022588
 13
9.3100881295
 23
27.3707022588
  0
SOLID
  5
287
100
AcDbEntity
  8
0
100
AcDbTrace
 62
2
  6
CONTINUOUS
 10
9.3100881295
 20
27.2263206572
 11
9.1518414775
 21
27.0051723691
 12
9.3100881295
 22
27.3707022588
 13
9.3100881295
 23
27.3707022588
  0
SOLID
  5
288
100
AcDbEntity
  8
0
100
AcDbTrace
 62
2
  6
CONTINUOUS
 10
9.3100881295
 20
27.3707022588
 11
9.1518414775
 21
27.0051723691
 12
9.3100881295
 22
27.4483266217
 13
9.3100881295
 23
27.4483266217
  0
SOLID
  5
289
100
AcDbEntity
  8
0
100
AcDbTrace
 62
2
  6
CONTINUOUS
 10
9.4609456529
 20
27.5910860184
 11
9.3100881295
 21
27.4483266217
 12
9.3242924528
 22
27.5910860184
 13
9.3242924528
 23
27.5910860184
  0
SOLID
  5
28A
100
AcDbEntity
  8
0
100
AcDbTrace
 62
2
  6
CONTINUOUS
 10
9.3100881295
 20
27.4483266217
 11
9.1518414775
 21
27.0051723691
 12
9.3242924528
 22
27.5910860184
 13
9.3242924528
 23
27.5910860184
  0
SOLID
  5
28B
100
AcDbEntity
  8
0
100
AcDbTrace
 62
2
  6
CONTINUOUS
 10
9.1518414775
 20
27.0051723691
 11
9.1518414775
 21
27.5910860184
 12
9.3242924528
 22
27.5910860184
 13
9.3242924528
 23
27.5910860184
  0
SOLID
  5
28C
100
AcDbEntity
  8
0
100
AcDbTrace
 62
2
  6
CONTINUOUS
 10
9.4609456529
 20
27.1463991262
 11
9.4609456529
 21
27.0051723691
 12
9.1518414775
 22
27.0051723691
 13
9.1518414775
 23
27.0051723691
  0
SOLID
  5
28D
100
AcDbEntity
  8
0
100
AcDbTrace
 62
2
  6
CONTINUOUS
 10
9.7393135683
 20
27.591093124
 11
9.7862465918
 21
27.5846828756
 12
9.5057658676
 22
27.5910860184
 13
9.5057658676
 23
27.5910860184
  0
SOLID
  5
28E
100
AcDbEntity
  8
0
100
AcDbTrace
 62
2
  6
CONTINUOUS
 10
9.6564216902
 20
27.4485071851
 11
9.9103614312
 21
27.4531365206
 12
9.7123515716
 22
27.4485071851
 13
9.7123515716
 23
27.4485071851
  0
SOLID
  5
28F
100
AcDbEntity
  8
0
100
AcDbTrace
 62
2
  6
CONTINUOUS
 10
9.7123515716
 20
27.4485071851
 11
9.9103614312
 21
27.4531365206
 12
9.7360741532
 22
27.4429730168
 13
9.7360741532
 23
27.4429730168
  0
SOLID
  5
290
100
AcDbEntity
  8
0
100
AcDbTrace
 62
2
  6
CONTINUOUS
 10
9.7360741532
 20
27.4429730168
 11
9.9103614312
 21
27.4531365206
 12
9.7548991409
 22
27.4275131417
 13
9.7548991409
 23
27.4275131417
  0
SOLID
  5
291
100
AcDbEntity
  8
0
100
AcDbTrace
 62
2
  6
CONTINUOUS
 10
9.9103614312
 20
27.4531365206
 11
9.9140346777
 21
27.4059103918
 12
9.7548991409
 22
27.4275131417
 13
9.7548991409
 23
27.4275131417
  0
SOLID
  5
292
100
AcDbEntity
  8
0
100
AcDbTrace
 62
2
  6
CONTINUOUS
 10
9.7649400794
 20
27.4053192811
 11
9.7548991409
 21
27.4275131417
 12
9.9140346777
 22
27.4059103918
 13
9.9140346777
 23
27.4059103918
  0
SOLID
  5
293
100
AcDbEntity
  8
0
100
AcDbTrace
 62
2
  6
CONTINUOUS
 10
9.7649400794
 20
27.4053192811
 11
9.9140346777
 21
27.4059103918
 12
9.7641239977
 22
27.3809734004
 13
9.7641239977
 23
27.3809734004
  0
SOLID
  5
294
100
AcDbEntity
  8
0
100
AcDbTrace
 62
2
  6
CONTINUOUS
 10
9.7641239977
 20
27.3809734004
 11
9.9140346777
 21
27.4059103918
 12
9.7526193774
 22
27.3595017538
 13
9.7526193774
 23
27.3595017538
  0
SOLID
  5
295
100
AcDbEntity
  8
0
100
AcDbTrace
 62
2
  6
CONTINUOUS
 10
9.9140346777
 20
27.4059103918
 11
9.904909074
 21
27.3594289617
 12
9.7526193774
 22
27.3595017538
 13
9.7526193774
 23
27.3595017538
  0
SOLID
  5
296
100
AcDbEntity
  8
0
100
AcDbTrace
 62
2
  6
CONTINUOUS
 10
9.7328013696
 20
27.3453372043
 11
9.7526193774
 21
27.3595017538
 12
9.904909074
 22
27.3594289617
 13
9.904909074
 23
27.3594289617
  0
SOLID
  5
297
100
AcDbEntity
  8
0
100
AcDbTrace
 62
2
  6
CONTINUOUS
 10
9.7328013696
 20
27.3453372043
 11
9.904909074
 21
27.3594289617
 12
9.7087614403
 22
27.3414040506
 13
9.7087614403
 23
27.3414040506
  0
SOLID
  5
298
100
AcDbEntity
  8
0
100
AcDbTrace
 62
2
  6
CONTINUOUS
 10
9.904909074
 20
27.3594289617
 11
9.8836530983
 21
27.3170971359
 12
9.7087614403
 22
27.3414040506
 13
9.7087614403
 23
27.3414040506
  0
SOLID
  5
299
100
AcDbEntity
  8
0
100
AcDbTrace
 62
2
  6
CONTINUOUS
 10
9.8117528159
 20
27.2567549104
 11
9.6564216902
 21
27.2021287399
 12
9.8518238152
 22
27.2820158486
 13
9.8518238152
 23
27.2820158486
  0
SOLID
  5
29A
100
AcDbEntity
  8
0
100
AcDbTrace
 62
2
  6
CONTINUOUS
 10
9.8518238152
 20
27.2820158486
 11
9.6564216902
 21
27.2021287399
 12
9.8836530983
 22
27.3170971359
 13
9.8836530983
 23
27.3170971359
  0
SOLID
  5
29B
100
AcDbEntity
  8
0
100
AcDbTrace
 62
2
  6
CONTINUOUS
 10
9.8836530983
 20
27.3170971359
 11
9.6564216902
 21
27.2021287399
 12
9.7087614403
 22
27.3414040506
 13
9.7087614403
 23
27.3414040506
  0
SOLID
  5
29C
100
AcDbEntity
  8
0
100
AcDbTrace
 62
2
  6
CONTINUOUS
 10
9.6564216902
 20
27.2021287399
 11
9.5057658676
 21
27.0051723691
 12
9.7087614403
 22
27.3414040506
 13
9.7087614403
 23
27.3414040506
  0
SOLID
  5
29D
100
AcDbEntity
  8
0
100
AcDbTrace
 62
2
  6
CONTINUOUS
 10
9.7087614403
 20
27.3414040506
 11
9.5057658676
 21
27.0051723691
 12
9.6564216902
 22
27.3414040506
 13
9.6564216902
 23
27.3414040506
  0
SOLID
  5
29E
100
AcDbEntity
  8
0
100
AcDbTrace
 62
2
  6
CONTINUOUS
 10
9.6564216902
 20
27.3414040506
 11
9.5057658676
 21
27.0051723691
 12
9.6564216902
 22
27.4485071851
 13
9.6564216902
 23
27.4485071851
  0
SOLID
  5
29F
100
AcDbEntity
  8
0
100
AcDbTrace
 62
2
  6
CONTINUOUS
 10
9.9103614312
 20
27.4531365206
 11
9.6564216902
 21
27.4485071851
 12
9.8941584111
 22
27.4976478913
 13
9.8941584111
 23
27.4976478913
  0
SOLID
  5
2A0
100
AcDbEntity
  8
0
100
AcDbTrace
 62
2
  6
CONTINUOUS
 10
9.8941584111
 20
27.4976478913
 11
9.6564216902
 21
27.4485071851
 12
9.8666125376
 22
27.5361839113
 13
9.8666125376
 23
27.5361839113
  0
SOLID
  5
2A1
100
AcDbEntity
  8
0
100
AcDbTrace
 62
2
  6
CONTINUOUS
 10
9.8666125376
 20
27.5361839113
 11
9.6564216902
 21
27.4485071851
 12
9.8297416293
 22
27.5659217004
 13
9.8297416293
 23
27.5659217004
  0
SOLID
  5
2A2
100
AcDbEntity
  8
0
100
AcDbTrace
 62
2
  6
CONTINUOUS
 10
9.8297416293
 20
27.5659217004
 11
9.6564216902
 21
27.4485071851
 12
9.7862465918
 22
27.5846828756
 13
9.7862465918
 23
27.5846828756
  0
SOLID
  5
2A3
100
AcDbEntity
  8
0
100
AcDbTrace
 62
2
  6
CONTINUOUS
 10
9.7862465918
 20
27.5846828756
 11
9.6564216902
 21
27.4485071851
 12
9.5057658676
 22
27.5910860184
 13
9.5057658676
 23
27.5910860184
  0
SOLID
  5
2A4
100
AcDbEntity
  8
0
100
AcDbTrace
 62
2
  6
CONTINUOUS
 10
9.5057658676
 20
27.0051723691
 11
9.5057658676
 21
27.5910860184
 12
9.6564216902
 22
27.4485071851
 13
9.6564216902
 23
27.4485071851
  0
SOLID
  5
2A5
100
AcDbEntity
  8
0
100
AcDbTrace
 62
2
  6
CONTINUOUS
 10
9.6564216902
 20
27.2021287399
 11
9.6564216902
 21
27.0051723691
 12
9.5057658676
 22
27.0051723691
 13
9.5057658676
 23
27.0051723691
  0
SOLID
  5
2A6
100
AcDbEntity
  8
0
100
AcDbTrace
 62
2
  6
CONTINUOUS
 10
9.6564216902
 20
27.2021287399
 11
9.8117528159
 21
27.2567549104
 12
9.7812451193
 22
27.0051723691
 13
9.7812451193
 23
27.0051723691
  0
SOLID
  5
2A7
100
AcDbEntity
  8
0
100
AcDbTrace
 62
2
  6
CONTINUOUS
 10
9.8117528159
 20
27.2567549104
 11
9.9711960589
 21
27.0051723691
 12
9.7812451193
 22
27.0051723691
 13
9.7812451193
 23
27.0051723691
  0
SOLID
  5
2A8
100
AcDbEntity
  8
0
100
AcDbTrace
 62
7
  6
CONTINUOUS
 10
9.5924326714
 20
16.0962427973
 11
9.5924326714
 21
16.2178777975
 12
9.9353851681
 22
16.2178777975
 13
9.9353851681
 23
16.2178777975
  0
SOLID
  5
2A9
100
AcDbEntity
  8
0
100
AcDbTrace
 62
7
  6
CONTINUOUS
 10
9.9353851681
 20
16.2178777975
 11
9.9353851681
 21
16.0962427973
 12
9.5924326714
 22
16.0962427973
 13
9.5924326714
 23
16.0962427973
  0
SOLID
  5
2AA
100
AcDbEntity
  8
0
100
AcDbTrace
 62
7
  6
CONTINUOUS
 10
8.0042251869
 20
16.0962427973
 11
8.0042251869
 21
16.2178777975
 12
8.8599301786
 22
16.2178777975
 13
8.8599301786
 23
16.2178777975
  0
SOLID
  5
2AB
100
AcDbEntity
  8
0
100
AcDbTrace
 62
7
  6
CONTINUOUS
 10
8.8599301786
 20
16.2178777975
 11
8.8599301786
 21
16.0962427973
 12
8.0042251869
 22
16.0962427973
 13
8.0042251869
 23
16.0962427973
  0
SOLID
  5
2AC
100
AcDbEntity
  8
0
100
AcDbTrace
 62
7
  6
CONTINUOUS
 10
8.0042251869
 20
15.8096303107
 11
8.0042251869
 21
15.8446102928
 12
8.8599301786
 22
15.8446102928
 13
8.8599301786
 23
15.8446102928
  0
SOLID
  5
2AD
100
AcDbEntity
  8
0
100
AcDbTrace
 62
7
  6
CONTINUOUS
 10
8.8599301786
 20
15.8446102928
 11
8.8599301786
 21
15.8096303107
 12
8.0042251869
 22
15.8096303107
 13
8.0042251869
 23
15.8096303107
  0
SOLID
  5
2AE
100
AcDbEntity
  8
0
100
AcDbTrace
 62
7
  6
CONTINUOUS
 10
8.0508751865
 20
16.6894627964
 11
8.0508751865
 21
16.7511127865
 12
8.9065801781
 22
16.7511127865
 13
8.9065801781
 23
16.7511127865
  0
SOLID
  5
2AF
100
AcDbEntity
  8
0
100
AcDbTrace
 62
7
  6
CONTINUOUS
 10
8.9065801781
 20
16.7511127865
 11
8.9065801781
 21
16.6894627964
 12
8.0508751865
 22
16.6894627964
 13
8.0508751865
 23
16.6894627964
  0
SOLID
  5
2B0
100
AcDbEntity
  8
0
100
AcDbTrace
 62
7
  6
CONTINUOUS
 10
8.0508751865
 20
16.5894802882
 11
8.0508751865
 21
16.6511303123
 12
8.9065801781
 22
16.6511303123
 13
8.9065801781
 23
16.6511303123
  0
SOLID
  5
2B1
100
AcDbEntity
  8
0
100
AcDbTrace
 62
7
  6
CONTINUOUS
 10
8.9065801781
 20
16.6511303123
 11
8.9065801781
 21
16.5894802882
 12
8.0508751865
 22
16.5894802882
 13
8.0508751865
 23
16.5894802882
  0
SOLID
  5
2B2
100
AcDbEntity
  8
0
100
AcDbTrace
 62
7
  6
CONTINUOUS
 10
8.0508751865
 20
16.489505294
 11
8.0508751865
 21
16.5511478041
 12
8.9065801781
 22
16.5511478041
 13
8.9065801781
 23
16.5511478041
  0
SOLID
  5
2B3
100
AcDbEntity
  8
0
100
AcDbTrace
 62
7
  6
CONTINUOUS
 10
8.9065801781
 20
16.5511478041
 11
8.9065801781
 21
16.489505294
 12
8.0508751865
 22
16.489505294
 13
8.0508751865
 23
16.489505294
  0
SOLID
  5
2B4
100
AcDbEntity
  8
0
100
AcDbTrace
 62
7
  6
CONTINUOUS
 10
8.0508751865
 20
16.3895228198
 11
8.0508751865
 21
16.4511652959
 12
8.9065801781
 22
16.4511652959
 13
8.9065801781
 23
16.4511652959
  0
SOLID
  5
2B5
100
AcDbEntity
  8
0
100
AcDbTrace
 62
7
  6
CONTINUOUS
 10
8.9065801781
 20
16.4511652959
 11
8.9065801781
 21
16.3895228198
 12
8.0508751865
 22
16.3895228198
 13
8.0508751865
 23
16.3895228198
  0
SOLID
  5
2B6
100
AcDbEntity
  8
0
100
AcDbTrace
 62
7
  6
CONTINUOUS
 10
8.0508751865
 20
16.2628778176
 11
8.0508751865
 21
16.3245278077
 12
8.9065801781
 22
16.3245278077
 13
8.9065801781
 23
16.3245278077
  0
SOLID
  5
2B7
100
AcDbEntity
  8
0
100
AcDbTrace
 62
7
  6
CONTINUOUS
 10
8.9065801781
 20
16.3245278077
 11
8.9065801781
 21
16.2628778176
 12
8.0508751865
 22
16.2628778176
 13
8.0508751865
 23
16.2628778176
  0
DIMENSION
  5
2B8
100
AcDbEntity
  8
0
100
AcDbDimension
 62
2
  6
CONTINUOUS
  2
*D0
 10
21.2730313646
 20
11.5474090525
 11
20.6480313646
 21
21.1370201651
 70
160
 71
2
 42
17.12
  1
<>\P[43,48 cm]
  3
DIMSTYLE_1
100
AcDbAlignedDimension
 13
21.3980313646
 23
28.6674090525
 14
21.3980313646
 24
11.5474090525
 50
270.0
100
AcDbRotatedDimension
  0
DIMENSION
  5
2B9
100
AcDbEntity
  8
0
100
AcDbDimension
 62
2
  6
CONTINUOUS
  2
*D1
 10
37.2149933938
 20
20.2785077263
 11
22.1199394851
 21
20.1613202263
 70
160
 71
2
 42
31.62
  1
<>\P[80,31 cm]
  3
DIMSTYLE_1
100
AcDbAlignedDimension
 13
5.5949933938
 23
20.1535077263
 14
37.2149933938
 24
20.4035077263
100
AcDbRotatedDimension
  0
MTEXT
  5
2BA
100
AcDbEntity
  8
___NOTE
100
AcDbMText
 62
2
  6
CONTINUOUS
  7
STANDARD
 71
1
 72
1
 10
7.2094478646
 20
26.7757748523
 30
0.0
 11
1.0
 21
0.0
 31
0.0
 44
0.9
  1
CUT-OUT TEMPLATE\PUNDERCOUNTER SINK\PPLANTILLA DE RECORTE\PFREGADERO MONTADO DEBAJO \PDEL MONTRADOR\PPLAN DE DÉCOUPE\PÉVIER SOUS-COMPTOIR\P33" FABRICATED SS SINK  K-3760-**-AA
 40
0.25
 41
7.2
  0
MTEXT
  5
2BB
100
AcDbEntity
  8
___NOTE
100
AcDbMText
 62
7
  6
CONTINUOUS
  7
TEXTSTYLE_2
 71
1
 72
1
 10
8.1517651855
 20
16.0014615573
 30
0.0
 11
1.0
 21
0.0
 31
0.0
 44
0.9
  1
XXXXX-XX-X-XX
 40
0.0593587494
 41
0.6373132438
  0
MTEXT
  5
2BC
100
AcDbEntity
  8
___NOTE
100
AcDbMText
 62
7
  6
CONTINUOUS
  7
TEXTSTYLE_3
 71
1
 72
1
 10
9.7857451695
 20
15.8574570587
 30
0.0
 11
1.0
 21
0.0
 31
0.0
 44
0.9
  1
xxxxxx-xx
 40
0.0445192496
 41
0.2700622474
  0
MTEXT
  5
2BD
100
AcDbEntity
  8
___NOTE
100
AcDbMText
 62
2
  6
CONTINUOUS
  7
STANDARD
 71
1
 72
1
 10
7.021420888
 20
17.6419814782
 30
0.0
 11
1.0
 21
0.0
 31
0.0
 44
0.9
  1
PACKAGING/UPC LABEL ON BOX\PETIQUETA DE EMBALAJE/UPC EN LA CAJA\P\H0.1562500003;ETIQUETTE D'EMBALLAGE/UPC SUR LA BOÎTE\P\H0.1562500055; 
 40
0.1562500055
 41
4.75
  0
MTEXT
  5
2BE
100
AcDbEntity
  8
___NOTE
100
AcDbMText
 62
2
  6
CONTINUOUS
  7
STANDARD
 71
1
 72
1
 10
6.9982659788
 20
15.4538425583
 30
0.0
 11
1.0
 21
0.0
 31
0.0
 44
0.9
  3
The template and the label suffixes circled\Pmust match for proper cut-out.\P\H0.1562500003; \P\H0.1562500055;A fin de realizar el corte apropiado, la\P\H0.1562500003;plantilla y los sufijos de la etiqueta\Pdemarcados deben concordar.\P \PAfin de déc
  1
ouper l'ouverture correctement,\Ple gabarit et les suffixes encerclés\Pdoivent correspondre
 40
0.1562500055
 41
5.3750001901
  0
MTEXT
  5
2BF
100
AcDbEntity
  8
___NOTE
100
AcDbMText
 62
2
  6
CONTINUOUS
  7
STANDARD
 71
1
 72
1
 10
29.5533494052
 20
16.4391646566
 30
0.0
 11
1.0
 21
0.0
 31
0.0
 44
0.9
  3
WHEN PLOTTING TEMPLATE FULL SIZE:\PMake sure horizontal and vertical dimensions\Pmatch the dimensions labeled on the template.\P \PAL TRAZAR LA PLANTILLA A ESCALA,\Pasegúrese de que las dimensiones horizontales\Py verticales concuerden con las dimens
  1
iones marcadas\Pen la plantilla.\P \PAU MOMENT DE TRACER LA DÉCOUPE À L'ÉCHELLE,\PAssurez vos que les dimensions horizotales et\Pverticales correspondent avec les dimensions du plan.\P \P 
 40
0.15625
 41
6.625
  0
LEADER
  5
2C0
100
AcDbEntity
  8
___NOTE
100
AcDbLeader
 62
2
  6
CONTINUOUS
  3
STANDARD
 71
1
 72
0
 73
0
 75
0
 40
0.15625
 41
1.375
 76
3
 10
37.9049933938
 20
25.530893651
 30
0.0
 10
35.699766998
 20
26.8622357745
 30
0.0
 10
35.449766998
 20
26.8622357745
 30
0.0
340
2C1
1001
ACAD
1000
DSTYLE
1002
{
1070
77
1070
0
1002
}
  0
MTEXT
  5
2C1
102
{ACAD_REACTORS
330
2C0
102
}
100
AcDbEntity
  8
___NOTE
100
AcDbMText
 62
2
  6
CONTINUOUS
  7
STANDARD
 71
3
 72
1
 10
35.449766998
 20
26.9403607745
 30
0.0
 11
1.0
 21
0.0
 31
0.0
 44
0.9
  1
RIM OF SINK\PREBORDE DE FREGADERO\PREBORD D'ÉVIER\P 
 40
0.15625
 41
2.5
  0
LEADER
  5
2C2
100
AcDbEntity
  8
___NOTE
100
AcDbLeader
 62
2
  6
CONTINUOUS
  3
STANDARD
 71
1
 72
0
 73
0
 75
0
 40
0.15625
 41
3.625
 76
3
 10
37.2149933938
 20
22.5793161027
 30
0.0
 10
35.1225308288
 20
24.3016696763
 30
0.0
 10
34.8725308288
 20
24.3016696763
 30
0.0
340
2C3
1001
ACAD
1000
DSTYLE
1002
{
1070
77
1070
0
1002
}
  0
MTEXT
  5
2C3
102
{ACAD_REACTORS
330
2C2
102
}
100
AcDbEntity
  8
___NOTE
100
AcDbMText
 62
2
  6
CONTINUOUS
  7
STANDARD
 71
3
 72
1
 10
34.8725308288
 20
24.3797946763
 30
0.0
 11
1.0
 21
0.0
 31
0.0
 44
0.9
  1
FOR UNDERCOUNTER INSTALLATION\PCUT ALONG THIS LINE\PPARA INSTALACIONES DEBAJO DEL MOSTRADOR,\PCORTE A LO LARGO DE ESTA LÍNEA\PPOUR DES INSTALLATIONS SOUS COMPTOIR,\PDÉCOUPER AU LONG DE CETTE LIGNE\P 
 40
0.15625
 41
5.0
  0
INSERT
  5
2C4
100
AcDbEntity
  8
___SYMBOL
100
AcDbBlockReference
 62
2
  6
CONTINUOUS
  2
TEMPLATE_NUMBER_BL0
 10
8.6882869412
 20
11.7133620767
  0
INSERT
  5
2C5
100
AcDbEntity
  8
___SYMBOL
100
AcDbBlockReference
 62
2
  6
CONTINUOUS
  2
TEMPLATE_NUMBER_BL1
 10
8.7007912037
 20
10.6910737628
  0
INSERT
  5
2C6
100
AcDbEntity
  8
___SYMBOL
100
AcDbBlockReference
 62
2
  6
CONTINUOUS
  2
COPYRIGHT_YEAR_BL2
 10
33.0534263643
 20
11.7525725185
  0
LINE
  5
2C7
100
AcDbEntity
  8
0
100
AcDbLine
 62
2
  6
CONTINUOUS
 10
7.5635077212
 20
27.5910860184
 11
7.4257435545
 21
27.4272648288
  0
LINE
  5
2C8
100
AcDbEntity
  8
0
100
AcDbLine
 62
2
  6
CONTINUOUS
 10
7.7555695333
 20
27.5910860184
 11
7.5422660814
 21
27.3374377455
  0
LINE
  5
2C9
100
AcDbEntity
  8
0
100
AcDbLine
 62
2
  6
CONTINUOUS
 10
7.2512433275
 20
27.5910860184
 11
7.2512433275
 21
27.0051483656
  0
LINE
  5
2CA
100
AcDbEntity
  8
0
100
AcDbLine
 62
2
  6
CONTINUOUS
 10
7.4257435545
 20
27.5910860184
 11
7.4257435545
 21
27.4272648288
  0
LINE
  5
2CB
100
AcDbEntity
  8
0
100
AcDbLine
 62
2
  6
CONTINUOUS
 10
7.4257435545
 20
27.2066722031
 11
7.4257435545
 21
27.0051723691
  0
LINE
  5
2CC
100
AcDbEntity
  8
0
100
AcDbLine
 62
7
  6
CONTINUOUS
 10
7.9221601877
 20
15.71879031
 11
7.9221601877
 21
16.8116977994
  0
LINE
  5
2CD
100
AcDbEntity
  8
0
100
AcDbLine
 62
7
  6
CONTINUOUS
 10
7.9555276874
 20
15.7862078094
 11
7.9555276874
 21
16.7792377997
  0
LINE
  5
2CE
100
AcDbEntity
  8
0
100
AcDbLine
 62
7
  6
CONTINUOUS
 10
8.0042251869
 20
15.8096303091
 11
8.0042251869
 21
15.8446103088
  0
LINE
  5
2CF
100
AcDbEntity
  8
0
100
AcDbLine
 62
7
  6
CONTINUOUS
 10
8.0042251869
 20
16.0962428063
 11
8.0042251869
 21
16.2178778052
  0
LINE
  5
2D0
100
AcDbEntity
  8
0
100
AcDbLine
 62
7
  6
CONTINUOUS
 10
8.0508751865
 20
16.2628778047
 11
8.0508751865
 21
16.3245278041
  0
LINE
  5
2D1
100
AcDbEntity
  8
0
100
AcDbLine
 62
7
  6
CONTINUOUS
 10
8.0508751865
 20
16.3895228035
 11
8.0508751865
 21
16.4511653029
  0
LINE
  5
2D2
100
AcDbEntity
  8
0
100
AcDbLine
 62
7
  6
CONTINUOUS
 10
8.0508751865
 20
16.4895053025
 11
8.0508751865
 21
16.5511478019
  0
LINE
  5
2D3
100
AcDbEntity
  8
0
100
AcDbLine
 62
7
  6
CONTINUOUS
 10
8.0508751865
 20
16.5894803015
 11
8.0508751865
 21
16.6511303009
  0
LINE
  5
2D4
100
AcDbEntity
  8
0
100
AcDbLine
 62
7
  6
CONTINUOUS
 10
8.0508751865
 20
16.6894628005
 11
8.0508751865
 21
16.7511127999
  0
LINE
  5
2D5
100
AcDbEntity
  8
0
100
AcDbLine
 62
2
  6
CONTINUOUS
 10
8.2874545911
 20
27.5910860184
 11
8.2874545911
 21
27.0051723691
  0
LINE
  5
2D6
100
AcDbEntity
  8
0
100
AcDbLine
 62
2
  6
CONTINUOUS
 10
8.452188271
 20
27.5910860184
 11
8.452188271
 21
27.3707022588
  0
LINE
  5
2D7
100
AcDbEntity
  8
0
100
AcDbLine
 62
2
  6
CONTINUOUS
 10
8.452188271
 20
27.2334969789
 11
8.452188271
 21
27.0051723691
  0
LINE
  5
2D8
100
AcDbEntity
  8
0
100
AcDbLine
 62
2
  6
CONTINUOUS
 10
8.6001850821
 20
27.5910860184
 11
8.6001850821
 21
27.3707022588
  0
LINE
  5
2D9
100
AcDbEntity
  8
0
100
AcDbLine
 62
2
  6
CONTINUOUS
 10
8.6001850821
 20
27.2334969789
 11
8.6001850821
 21
27.0051723691
  0
LINE
  5
2DA
100
AcDbEntity
  8
0
100
AcDbLine
 62
2
  6
CONTINUOUS
 10
8.764918762
 20
27.5910860184
 11
8.764918762
 21
27.0051723691
  0
LINE
  5
2DB
100
AcDbEntity
  8
0
100
AcDbLine
 62
2
  6
CONTINUOUS
 10
8.8099636062
 20
27.0051723691
 11
8.8099636062
 21
27.5910860184
  0
LINE
  5
2DC
100
AcDbEntity
  8
0
100
AcDbLine
 62
7
  6
CONTINUOUS
 10
8.8599301786
 20
16.2178778052
 11
8.8599301786
 21
16.0962428063
  0
LINE
  5
2DD
100
AcDbEntity
  8
0
100
AcDbLine
 62
7
  6
CONTINUOUS
 10
8.8599301786
 20
15.8446103088
 11
8.8599301786
 21
15.8096303091
  0
LINE
  5
2DE
100
AcDbEntity
  8
0
100
AcDbLine
 62
7
  6
CONTINUOUS
 10
8.9065801781
 20
16.7511127999
 11
8.9065801781
 21
16.6894628005
  0
LINE
  5
2DF
100
AcDbEntity
  8
0
100
AcDbLine
 62
7
  6
CONTINUOUS
 10
8.9065801781
 20
16.6511303009
 11
8.9065801781
 21
16.5894803015
  0
LINE
  5
2E0
100
AcDbEntity
  8
0
100
AcDbLine
 62
7
  6
CONTINUOUS
 10
8.9065801781
 20
16.5511478019
 11
8.9065801781
 21
16.4895053025
  0
LINE
  5
2E1
100
AcDbEntity
  8
0
100
AcDbLine
 62
7
  6
CONTINUOUS
 10
8.9065801781
 20
16.4511653029
 11
8.9065801781
 21
16.3895228035
  0
LINE
  5
2E2
100
AcDbEntity
  8
0
100
AcDbLine
 62
7
  6
CONTINUOUS
 10
8.9065801781
 20
16.3245278041
 11
8.9065801781
 21
16.2628778047
  0
LINE
  5
2E3
100
AcDbEntity
  8
0
100
AcDbLine
 62
2
  6
CONTINUOUS
 10
8.9600096689
 20
27.5910860184
 11
8.9600096689
 21
27.1463991262
  0
LINE
  5
2E4
100
AcDbEntity
  8
0
100
AcDbLine
 62
2
  6
CONTINUOUS
 10
9.1226937389
 20
27.1463991262
 11
9.1226937389
 21
27.0051723691
  0
LINE
  5
2E5
100
AcDbEntity
  8
0
100
AcDbLine
 62
2
  6
CONTINUOUS
 10
9.1518414775
 20
27.0051723691
 11
9.1518414775
 21
27.5910860184
  0
LINE
  5
2E6
100
AcDbEntity
  8
0
100
AcDbLine
 62
2
  6
CONTINUOUS
 10
9.3100881295
 20
27.4483266217
 11
9.3100881295
 21
27.3707022588
  0
LINE
  5
2E7
100
AcDbEntity
  8
0
100
AcDbLine
 62
2
  6
CONTINUOUS
 10
9.3100881295
 20
27.2263206572
 11
9.3100881295
 21
27.1463991262
  0
LINE
  5
2E8
100
AcDbEntity
  8
0
100
AcDbLine
 62
2
  6
CONTINUOUS
 10
9.4609456529
 20
27.0051723691
 11
9.4609456529
 21
27.1463991262
  0
LINE
  5
2E9
100
AcDbEntity
  8
0
100
AcDbLine
 62
2
  6
CONTINUOUS
 10
9.4609456529
 20
27.2263206572
 11
9.4609456529
 21
27.3707022588
  0
LINE
  5
2EA
100
AcDbEntity
  8
0
100
AcDbLine
 62
2
  6
CONTINUOUS
 10
9.4609456529
 20
27.4483266217
 11
9.4609456529
 21
27.5910860184
  0
LINE
  5
2EB
100
AcDbEntity
  8
0
100
AcDbLine
 62
2
  6
CONTINUOUS
 10
9.5057658676
 20
27.0051723691
 11
9.5057658676
 21
27.5910860184
  0
LINE
  5
2EC
100
AcDbEntity
  8
0
100
AcDbLine
 62
7
  6
CONTINUOUS
 10
9.5924326714
 20
16.0962428063
 11
9.5924326714
 21
16.2178778052
  0
LINE
  5
2ED
100
AcDbEntity
  8
0
100
AcDbLine
 62
2
  6
CONTINUOUS
 10
9.6564216902
 20
27.4485071851
 11
9.6564216902
 21
27.3414040506
  0
LINE
  5
2EE
100
AcDbEntity
  8
0
100
AcDbLine
 62
2
  6
CONTINUOUS
 10
9.6564216902
 20
27.2021287399
 11
9.6564216902
 21
27.0051723691
  0
LINE
  5
2EF
100
AcDbEntity
  8
0
100
AcDbLine
 62
7
  6
CONTINUOUS
 10
9.9353851681
 20
16.2178778052
 11
9.9353851681
 21
16.0962428063
  0
LINE
  5
2F0
100
AcDbEntity
  8
0
100
AcDbLine
 62
2
  6
CONTINUOUS
 10
10.0960800341
 20
26.9723316783
 11
10.0960800341
 21
27.0382978772
  0
LINE
  5
2F1
100
AcDbEntity
  8
0
100
AcDbLine
 62
7
  6
CONTINUOUS
 10
10.1405701661
 20
16.7792377997
 11
10.1405701661
 21
15.7862078094
  0
LINE
  5
2F2
100
AcDbEntity
  8
0
100
AcDbLine
 62
7
  6
CONTINUOUS
 10
10.1747251657
 20
16.8116977994
 11
10.1747251657
 21
15.71879031
  0
LINE
  5
2F3
100
AcDbEntity
  8
0
100
AcDbLine
 62
2
  6
CONTINUOUS
 10
7.5794814946
 20
27.0051723691
 11
7.4257435545
 21
27.2066722031
  0
LINE
  5
2F4
100
AcDbEntity
  8
0
100
AcDbLine
 62
2
  6
CONTINUOUS
 10
7.7957739161
 20
27.0051723691
 11
7.5422660814
 21
27.3374377455
  0
LINE
  5
2F5
100
AcDbEntity
  8
0
100
AcDbLine
 62
2
  6
CONTINUOUS
 10
9.7812451193
 20
27.0051723691
 11
9.6564216902
 21
27.2021287399
  0
LINE
  5
2F6
100
AcDbEntity
  8
0
100
AcDbLine
 62
2
  6
CONTINUOUS
 10
9.9711960589
 20
27.0051723691
 11
9.8117528159
 21
27.2567549104
  0
LINE
  5
2F7
100
AcDbEntity
  8
0
100
AcDbLine
 62
2
  6
CONTINUOUS
 10
10.1076780103
 20
27.0046346196
 11
10.139546023
 21
26.9723316783
  0
LINE
  5
2F8
100
AcDbEntity
  8
0
100
AcDbLine
 62
7
  6
CONTINUOUS
 10
10.1747251657
 20
15.71879031
 11
7.9221601877
 21
15.71879031
  0
LINE
  5
2F9
100
AcDbEntity
  8
0
100
AcDbLine
 62
7
  6
CONTINUOUS
 10
10.1405701661
 20
15.7862078094
 11
7.9555276874
 21
15.7862078094
  0
LINE
  5
2FA
100
AcDbEntity
  8
0
100
AcDbLine
 62
7
  6
CONTINUOUS
 10
8.8599301786
 20
15.8096303091
 11
8.0042251869
 21
15.8096303091
  0
LINE
  5
2FB
100
AcDbEntity
  8
0
100
AcDbLine
 62
7
  6
CONTINUOUS
 10
8.0042251869
 20
15.8446103088
 11
8.8599301786
 21
15.8446103088
  0
LINE
  5
2FC
100
AcDbEntity
  8
0
100
AcDbLine
 62
7
  6
CONTINUOUS
 10
9.9353851681
 20
16.0962428063
 11
9.5924326714
 21
16.0962428063
  0
LINE
  5
2FD
100
AcDbEntity
  8
0
100
AcDbLine
 62
7
  6
CONTINUOUS
 10
8.8599301786
 20
16.0962428063
 11
8.0042251869
 21
16.0962428063
  0
LINE
  5
2FE
100
AcDbEntity
  8
0
100
AcDbLine
 62
7
  6
CONTINUOUS
 10
8.0042251869
 20
16.2178778052
 11
8.8599301786
 21
16.2178778052
  0
LINE
  5
2FF
100
AcDbEntity
  8
0
100
AcDbLine
 62
7
  6
CONTINUOUS
 10
9.5924326714
 20
16.2178778052
 11
9.9353851681
 21
16.2178778052
  0
LINE
  5
300
100
AcDbEntity
  8
0
100
AcDbLine
 62
7
  6
CONTINUOUS
 10
8.9065801781
 20
16.2628778047
 11
8.0508751865
 21
16.2628778047
  0
LINE
  5
301
100
AcDbEntity
  8
0
100
AcDbLine
 62
7
  6
CONTINUOUS
 10
8.0508751865
 20
16.3245278041
 11
8.9065801781
 21
16.3245278041
  0
LINE
  5
302
100
AcDbEntity
  8
0
100
AcDbLine
 62
7
  6
CONTINUOUS
 10
8.9065801781
 20
16.3895228035
 11
8.0508751865
 21
16.3895228035
  0
LINE
  5
303
100
AcDbEntity
  8
0
100
AcDbLine
 62
7
  6
CONTINUOUS
 10
8.0508751865
 20
16.4511653029
 11
8.9065801781
 21
16.4511653029
  0
LINE
  5
304
100
AcDbEntity
  8
0
100
AcDbLine
 62
7
  6
CONTINUOUS
 10
8.9065801781
 20
16.4895053025
 11
8.0508751865
 21
16.4895053025
  0
LINE
  5
305
100
AcDbEntity
  8
0
100
AcDbLine
 62
7
  6
CONTINUOUS
 10
8.0508751865
 20
16.5511478019
 11
8.9065801781
 21
16.5511478019
  0
LINE
  5
306
100
AcDbEntity
  8
0
100
AcDbLine
 62
7
  6
CONTINUOUS
 10
8.9065801781
 20
16.5894803015
 11
8.0508751865
 21
16.5894803015
  0
LINE
  5
307
100
AcDbEntity
  8
0
100
AcDbLine
 62
7
  6
CONTINUOUS
 10
8.0508751865
 20
16.6511303009
 11
8.9065801781
 21
16.6511303009
  0
LINE
  5
308
100
AcDbEntity
  8
0
100
AcDbLine
 62
7
  6
CONTINUOUS
 10
8.9065801781
 20
16.6894628005
 11
8.0508751865
 21
16.6894628005
  0
LINE
  5
309
100
AcDbEntity
  8
0
100
AcDbLine
 62
7
  6
CONTINUOUS
 10
8.0508751865
 20
16.7511127999
 11
8.9065801781
 21
16.7511127999
  0
LINE
  5
30A
100
AcDbEntity
  8
0
100
AcDbLine
 62
7
  6
CONTINUOUS
 10
7.9555276874
 20
16.7792377997
 11
10.1405701661
 21
16.7792377997
  0
LINE
  5
30B
100
AcDbEntity
  8
0
100
AcDbLine
 62
7
  6
CONTINUOUS
 10
7.9221601877
 20
16.8116977994
 11
10.1747251657
 21
16.8116977994
  0
LINE
  5
30C
100
AcDbEntity
  8
0
100
AcDbLine
 62
2
  6
CONTINUOUS
 10
7.4257435545
 20
27.0051723691
 11
7.2512433275
 21
27.0051483656
  0
LINE
  5
30D
100
AcDbEntity
  8
0
100
AcDbLine
 62
2
  6
CONTINUOUS
 10
10.120359367
 20
27.0046346196
 11
10.0960800341
 21
27.0046346196
  0
LINE
  5
30E
100
AcDbEntity
  8
0
100
AcDbLine
 62
2
  6
CONTINUOUS
 10
8.764918762
 20
27.0051723691
 11
8.6001850821
 21
27.0051723691
  0
LINE
  5
30F
100
AcDbEntity
  8
0
100
AcDbLine
 62
2
  6
CONTINUOUS
 10
8.452188271
 20
27.0051723691
 11
8.2874545911
 21
27.0051723691
  0
LINE
  5
310
100
AcDbEntity
  8
0
100
AcDbLine
 62
2
  6
CONTINUOUS
 10
7.5794814946
 20
27.0051723691
 11
7.7957739161
 21
27.0051723691
  0
LINE
  5
311
100
AcDbEntity
  8
0
100
AcDbLine
 62
2
  6
CONTINUOUS
 10
8.8099636062
 20
27.0051723691
 11
9.1226937389
 21
27.0051723691
  0
LINE
  5
312
100
AcDbEntity
  8
0
100
AcDbLine
 62
2
  6
CONTINUOUS
 10
9.1518414775
 20
27.0051723691
 11
9.4609456529
 21
27.0051723691
  0
LINE
  5
313
100
AcDbEntity
  8
0
100
AcDbLine
 62
2
  6
CONTINUOUS
 10
9.5057658676
 20
27.0051723691
 11
9.6564216902
 21
27.0051723691
  0
LINE
  5
314
100
AcDbEntity
  8
0
100
AcDbLine
 62
2
  6
CONTINUOUS
 10
9.7812451193
 20
27.0051723691
 11
9.9711960589
 21
27.0051723691
  0
LINE
  5
315
100
AcDbEntity
  8
0
100
AcDbLine
 62
2
  6
CONTINUOUS
 10
10.0960800341
 20
27.0382978772
 11
10.120359367
 21
27.0382978772
  0
LINE
  5
316
100
AcDbEntity
  8
0
100
AcDbLine
 62
2
  6
CONTINUOUS
 10
8.9600096689
 20
27.1463991262
 11
9.1226937389
 21
27.1463991262
  0
LINE
  5
317
100
AcDbEntity
  8
0
100
AcDbLine
 62
2
  6
CONTINUOUS
 10
9.3100881295
 20
27.1463991262
 11
9.4609456529
 21
27.1463991262
  0
LINE
  5
318
100
AcDbEntity
  8
0
100
AcDbLine
 62
2
  6
CONTINUOUS
 10
9.3100881295
 20
27.2263206572
 11
9.4609456529
 21
27.2263206572
  0
LINE
  5
319
100
AcDbEntity
  8
0
100
AcDbLine
 62
2
  6
CONTINUOUS
 10
8.452188271
 20
27.2334969789
 11
8.6001850821
 21
27.2334969789
  0
LINE
  5
31A
100
AcDbEntity
  8
0
100
AcDbLine
 62
2
  6
CONTINUOUS
 10
9.6564216902
 20
27.3414040506
 11
9.7087614403
 21
27.3414040506
  0
LINE
  5
31B
100
AcDbEntity
  8
0
100
AcDbLine
 62
2
  6
CONTINUOUS
 10
8.452188271
 20
27.3707022588
 11
8.6001850821
 21
27.3707022588
  0
LINE
  5
31C
100
AcDbEntity
  8
0
100
AcDbLine
 62
2
  6
CONTINUOUS
 10
9.3100881295
 20
27.3707022588
 11
9.4609456529
 21
27.3707022588
  0
LINE
  5
31D
100
AcDbEntity
  8
0
100
AcDbLine
 62
2
  6
CONTINUOUS
 10
9.3100881295
 20
27.4483266217
 11
9.4609456529
 21
27.4483266217
  0
LINE
  5
31E
100
AcDbEntity
  8
0
100
AcDbLine
 62
2
  6
CONTINUOUS
 10
9.7123515716
 20
27.4485071851
 11
9.6564216902
 21
27.4485071851
  0
LINE
  5
31F
100
AcDbEntity
  8
0
100
AcDbLine
 62
2
  6
CONTINUOUS
 10
7.2512433275
 20
27.5910860184
 11
7.4257435545
 21
27.5910860184
  0
LINE
  5
320
100
AcDbEntity
  8
0
100
AcDbLine
 62
2
  6
CONTINUOUS
 10
7.5635077212
 20
27.5910860184
 11
7.7555695333
 21
27.5910860184
  0
LINE
  5
321
100
AcDbEntity
  8
0
100
AcDbLine
 62
2
  6
CONTINUOUS
 10
8.2874545911
 20
27.5910860184
 11
8.452188271
 21
27.5910860184
  0
LINE
  5
322
100
AcDbEntity
  8
0
100
AcDbLine
 62
2
  6
CONTINUOUS
 10
8.6001850821
 20
27.5910860184
 11
8.764918762
 21
27.5910860184
  0
LINE
  5
323
100
AcDbEntity
  8
0
100
AcDbLine
 62
2
  6
CONTINUOUS
 10
8.8099636062
 20
27.5910860184
 11
8.9600096689
 21
27.5910860184
  0
LINE
  5
324
100
AcDbEntity
  8
0
100
AcDbLine
 62
2
  6
CONTINUOUS
 10
9.1518414775
 20
27.5910860184
 11
9.4609456529
 21
27.5910860184
  0
LINE
  5
325
100
AcDbEntity
  8
0
100
AcDbLine
 62
2
  6
CONTINUOUS
 10
9.5057658676
 20
27.5910860184
 11
9.7393135683
 21
27.5910860184
  0
LINE
  5
326
100
AcDbEntity
  8
_CURVE
100
AcDbLine
 62
8
  6
PHANTOM
 10
4.9049933938
 20
29.3574090525
 11
4.9049933938
 21
10.8574090525
  0
LINE
  5
327
100
AcDbEntity
  8
_CURVE
100
AcDbLine
 62
7
  6
CONTINUOUS
 10
5.5949933938
 20
28.1674090525
 11
5.5949933938
 21
12.0474090525
  0
LINE
  5
328
100
AcDbEntity
  8
_CURVE
100
AcDbLine
 62
8
  6
PHANTOM
 10
4.9049933938
 20
10.8574090525
 11
37.9049933938
 21
10.8574090525
  0
LINE
  5
329
100
AcDbEntity
  8
_CURVE
100
AcDbLine
 62
7
  6
CONTINUOUS
 10
36.7149933938
 20
11.5474090525
 11
6.0949933938
 21
11.5474090525
  0
LINE
  5
32A
100
AcDbEntity
  8
_CURVE
100
AcDbLine
 62
7
  6
CONTINUOUS
 10
6.0949933938
 20
28.6674090525
 11
36.7149933938
 21
28.6674090525
  0
LINE
  5
32B
100
AcDbEntity
  8
_CURVE
100
AcDbLine
 62
8
  6
PHANTOM
 10
37.9049933938
 20
29.3574090525
 11
4.9049933938
 21
29.3574090525
  0
LINE
  5
32C
100
AcDbEntity
  8
_CURVE
100
AcDbLine
 62
7
  6
CONTINUOUS
 10
37.2149933938
 20
12.0474090525
 11
37.2149933938
 21
28.1674090525
  0
LINE
  5
32D
100
AcDbEntity
  8
_CURVE
100
AcDbLine
 62
8
  6
PHANTOM
 10
37.9049933938
 20
10.8574090525
 11
37.9049933938
 21
29.3574090525
  0
CIRCLE
  5
32E
100
AcDbEntity
  8
0
100
AcDbCircle
 62
2
  6
CONTINUOUS
 10
7.9722827528
 20
27.2970079419
 40
0.298056591
  0
CIRCLE
  5
32F
100
AcDbEntity
  8
0
100
AcDbCircle
 62
2
  6
CONTINUOUS
 10
14.2202166749
 20
24.0182715212
 40
0.2418117912
  0
ARC
  5
330
100
AcDbEntity
  8
0
100
AcDbCircle
 62
2
  6
CONTINUOUS
 10
9.7393135683
 20
27.4160765077
 40
0.1750166163
100
AcDbArc
 50
294.4500166359
 51
90.0
  0
CIRCLE
  5
331
100
AcDbEntity
  8
0
100
AcDbCircle
 62
2
  6
CONTINUOUS
 10
7.9722827528
 20
27.2970079419
 40
0.1247694151
  0
CIRCLE
  5
332
100
AcDbEntity
  8
0
100
AcDbCircle
 62
2
  6
CONTINUOUS
 10
10.1119660335
 20
27.0051723691
 40
0.0653578721
  0
ARC
  5
333
100
AcDbEntity
  8
0
100
AcDbCircle
 62
2
  6
CONTINUOUS
 10
9.7123514697
 20
27.3948954501
 40
0.053611735
100
AcDbArc
 50
266.1604009902
 51
89.9998910512
  0
ARC
  5
334
100
AcDbEntity
  8
0
100
AcDbCircle
 62
2
  6
CONTINUOUS
 10
10.120359367
 20
27.0214664275
 40
0.0168314496
100
AcDbArc
 50
270.0
 51
90.0
  0
ARC
  5
335
100
AcDbEntity
  8
_CURVE
100
AcDbCircle
 62
7
  6
CONTINUOUS
 10
6.0949933938
 20
28.1674090525
 40
0.5
100
AcDbArc
 50
90.0
 51
180.0
  0
ARC
  5
336
100
AcDbEntity
  8
_CURVE
100
AcDbCircle
 62
7
  6
CONTINUOUS
 10
6.0949933938
 20
12.0474090525
 40
0.5
100
AcDbArc
 50
180.0
 51
270.0
  0
ARC
  5
337
100
AcDbEntity
  8
_CURVE
100
AcDbCircle
 62
7
  6
CONTINUOUS
 10
36.7149933938
 20
12.0474090525
 40
0.5
100
AcDbArc
 50
270.0
 51
360.0
  0
ARC
  5
338
100
AcDbEntity
  8
_CURVE
100
AcDbCircle
 62
7
  6
CONTINUOUS
 10
36.7149933938
 20
28.1674090525
 40
0.5
100
AcDbArc
 50
0.0
 51
90.0
  0
ELLIPSE
  5
339
100
AcDbEntity
  8
0
100
AcDbEllipse
 62
7
  6
CONTINUOUS
 10
8.7447789297
 20
15.9762833075
 30
0.0
 11
0.0665781628
 21
0.0483683571
 31
0.0
 40
0.999973
 41
1.1735611666
 42
7.4430683942
  0
ENDSEC
  0
SECTION
  2
OBJECTS
  0
DICTIONARY
  5
C
100
AcDbDictionary
280
0
281
1
  3
ACAD_GROUP
350
D
  3
ACAD_MLINESTYLE
350
17
  3
ACAD_LAYOUT
350
1A
  3
ACAD_PLOTSETTINGS
350
19
  3
ACAD_PLOTSTYLENAME
350
E
  0
DICTIONARY
  5
D
102
{ACAD_REACTORS
330
C
102
}
100
AcDbDictionary
280
0
281
1
  0
ACDBDICTIONARYWDFLT
  5
E
102
{ACAD_REACTORS
330
C
102
}
100
AcDbDictionary
281
1
  3
Normal
350
F
100
AcDbDictionaryWithDefault
340
F
  0
DICTIONARY
  5
17
102
{ACAD_REACTORS
330
C
102
}
100
AcDbDictionary
280
0
281
1
  3
Standard
350
18
  0
DICTIONARY
  5
19
102
{ACAD_REACTORS
330
C
102
}
100
AcDbDictionary
281
1
  0
DICTIONARY
  5
1A
102
{ACAD_REACTORS
330
C
102
}
100
AcDbDictionary
281
1
  3
Model
350
33A
  3
Layout1
350
33B
  0
ACDBPLACEHOLDER
  5
F
102
{ACAD_REACTORS
330
E
102
}
  0
MLINESTYLE
  5
18
102
{ACAD_REACTORS
330
17
102
}
100
AcDbMlineStyle
  2
STANDARD
 70
0
  3

 62
256
 51
90.0
 52
90.0
 71
2
 49
0.5
 62
256
  6
BYLAYER
 49
-0.5
 62
256
  6
BYLAYER
  0
LAYOUT
  5
33A
102
{ACAD_REACTORS
330
1A
102
}
100
AcDbPlotSettings
  1

  2
none_device
  4
ANSI_E_(44.00_x_34.00_Inches)
  6

 40
0.0
 41
0.0
 42
0.0
 43
0.0
 44
1117.6
 45
863.6
 46
0.0
 47
0.0
 48
0.0
 49
0.0
140
0.0
141
0.0
142
1.0
143
1.0
 70
1024
 72
0
 73
0
 74
0
  7

 75
0
147
1.0
148
0.0
149
0.0
100
AcDbLayout
  1
Model
 70
0
 71
0
 10
0.0
 20
0.0
 11
44.0
 21
34.0
 12
0.0
 22
0.0
 32
0.0
 14
0.0
 24
0.0
 34
0.0
 15
0.0
 25
0.0
 35
0.0
146
0.0
 13
0.0
 23
0.0
 33
0.0
 16
1.0
 26
0.0
 36
0.0
 17
0.0
 27
1.0
 37
0.0
 76
0
330
20D
345
0
346
0
  0
LAYOUT
  5
33B
102
{ACAD_REACTORS
330
1A
102
}
100
AcDbPlotSettings
  1

  2
none_device
  4
ANSI_E_(44.00_x_34.00_Inches)
  6

 40
0.0
 41
0.0
 42
0.0
 43
0.0
 44
1117.6
 45
863.6
 46
0.0
 47
0.0
 48
0.0
 49
0.0
140
0.0
141
0.0
142
1.0
143
1.0
 70
0
 72
0
 73
0
 74
0
  7

 75
0
147
1.0
148
0.0
149
0.0
100
AcDbLayout
  1
Layout1
 70
0
 71
1
 10
0.0
 20
0.0
 11
44.0
 21
34.0
 12
0.0
 22
0.0
 32
0.0
 14
0.0
 24
0.0
 34
0.0
 15
0.0
 25
0.0
 35
0.0
146
0.0
 13
0.0
 23
0.0
 33
0.0
 16
1.0
 26
0.0
 36
0.0
 17
0.0
 27
1.0
 37
0.0
 76
0
330
20E
345
0
346
0
  0
ENDSEC
  0
EOF
