999
DXF file: 1106715-7_A1.dxf
999
Pro/ENGINEER 2009220 by Parametric Technology Corporation
  0
SECTION
  2
HEADER
  9
$ACADVER
  1
AC1015
  9
$DWGCODEPAGE
  3
ANSI_1252
  9
$EXTMAX
 10
44.0
 20
34.0
 30
0.0
  9
$EXTMIN
 10
0.0
 20
0.0
 30
0.0
  9
$LIMMIN
 10
0.0
 20
0.0
  9
$LIMMAX
 10
44.0
 20
34.0
  9
$VIEWCTR
 10
22.0
 20
17.0
  9
$VIEWSIZE
 40
34.0
  9
$CLAYER
  8
0
  9
$LTSCALE
 40
2.42
  9
$CELTYPE
  6
BYLAYER
  9
$DIMSCALE
 40
1.0
  9
$DIMASZ
 40
0.1875
  9
$DIMEXO
 40
0.275
  9
$DIMDLI
 40
1.672
  9
$DIMEXE
 40
0.792
  9
$DIMCEN
 40
0.396
  9
$DIMLFAC
 40
1.0
  9
$DIMBLK
  1
_FILLED
  9
$DIMTXT
 40
0.15625
  9
$DIMTOL
 70
1
  9
$DIMLIM
 70
0
  9
$DIMTFAC
 40
1.0
  9
$DIMTP
 40
0.01
  9
$DIMTM
 40
0.01
  9
$PDMODE
 70
3
  9
$PDSIZE
 40
0.3125
  9
$HANDSEED
  5
42D
  9
$TILEMODE
 70
1
  9
$MEASUREMENT
 70
0
  9
$INSUNITS
 70
1
  0
ENDSEC
  0
SECTION
  2
CLASSES
  0
CLASS
  1
ACDBDICTIONARYWDFLT
  2
AcDbDictionaryWithDefault
  3
AutoCAD 2000
 90
0
280
0
281
0
  0
CLASS
  1
ACDBPLACEHOLDER
  2
AcDbPlaceHolder
  3
AutoCAD 2000
 90
0
280
0
281
0
  0
CLASS
  1
LAYOUT
  2
AcDbLayout
  3
AutoCAD 2000
 90
0
280
0
281
0
  0
ENDSEC
  0
SECTION
  2
TABLES
  0
TABLE
  2
VPORT
  5
8
100
AcDbSymbolTable
 70
2
  0
VPORT
  5
1F4
100
AcDbSymbolTableRecord
100
AcDbViewportTableRecord
  2
*ACTIVE
 70
0
 10
0.0
 20
0.0
 11
1.0
 21
1.0
 12
22.0
 22
17.0
 13
0.0
 23
0.0
 14
1.0
 24
1.0
 15
0.0
 25
0.0
 16
0.0
 26
0.0
 36
1.0
 17
0.0
 27
0.0
 37
0.0
 40
34.0
 41
1.2941176471
 42
50.0
 43
0.0
 44
0.0
 50
0.0
 51
0.0
 71
0
 72
100
 73
1
 74
1
 75
0
 76
0
 77
0
 78
0
  0
ENDTAB
  0
TABLE
  2
LTYPE
  5
5
100
AcDbSymbolTable
 70
6
  0
LTYPE
  5
14
100
AcDbSymbolTableRecord
100
AcDbLinetypeTableRecord
  2
BYBLOCK
 70
0
  3

 72
65
 73
0
 40
0.0
  0
LTYPE
  5
15
100
AcDbSymbolTableRecord
100
AcDbLinetypeTableRecord
  2
BYLAYER
 70
0
  3

 72
65
 73
0
 40
0.0
  0
LTYPE
  5
16
100
AcDbSymbolTableRecord
100
AcDbLinetypeTableRecord
  2
CONTINUOUS
 70
64
  3
Solid line
 72
65
 73
0
 40
0.0
  0
LTYPE
  5
1F5
100
AcDbSymbolTableRecord
100
AcDbLinetypeTableRecord
  2
CENTER
 70
64
  3
____ _ ____ _ ____ _ ____ _ ____ _ ____ _ ____
 72
65
 73
4
 40
0.6
 49
0.375
 74
0
 49
-0.075
 74
0
 49
0.075
 74
0
 49
-0.075
 74
0
  0
LTYPE
  5
1F6
100
AcDbSymbolTableRecord
100
AcDbLinetypeTableRecord
  2
HIDDEN
 70
64
  3
- - - - - - - - - - - - - - - - - - - -
 72
65
 73
2
 40
0.2
 49
0.1
 74
0
 49
-0.1
 74
0
  0
LTYPE
  5
1F7
100
AcDbSymbolTableRecord
100
AcDbLinetypeTableRecord
  2
PHANTOM
 70
64
  3
_____ _ _ _____ _ _ _____ _ _ _____
 72
65
 73
6
 40
0.8
 49
0.45
 74
0
 49
-0.05
 74
0
 49
0.1
 74
0
 49
-0.05
 74
0
 49
0.1
 74
0
 49
-0.05
 74
0
  0
LTYPE
  5
1F8
100
AcDbSymbolTableRecord
100
AcDbLinetypeTableRecord
  2
DOT
 70
64
  3
. . . . . . . . . . . . . . . . . . . .
 72
65
 73
2
 40
0.2
 49
0.1
 74
0
 49
-0.1
 74
0
  0
LTYPE
  5
1F9
100
AcDbSymbolTableRecord
100
AcDbLinetypeTableRecord
  2
DASHED
 70
64
  3
- - - - - - - - - - - - - - - - - - - -
 72
65
 73
2
 40
0.2
 49
0.1
 74
0
 49
-0.1
 74
0
  0
ENDTAB
  0
TABLE
  2
LAYER
  5
2
100
AcDbSymbolTable
 70
36
  0
LAYER
  5
10
100
AcDbSymbolTableRecord
100
AcDbLayerTableRecord
  2
0
 70
0
 62
7
  6
CONTINUOUS
370
-3
390
F
  0
LAYER
  5
1FA
100
AcDbSymbolTableRecord
100
AcDbLayerTableRecord
  2
DEFAULT_1
 70
0
 62
7
  6
CENTER
370
-3
390
F
  0
LAYER
  5
1FB
100
AcDbSymbolTableRecord
100
AcDbLayerTableRecord
  2
DEFAULT_2
 70
0
 62
8
  6
HIDDEN
370
-3
390
F
  0
LAYER
  5
1FC
100
AcDbSymbolTableRecord
100
AcDbLayerTableRecord
  2
DEFAULT_3
 70
0
 62
7
  6
PHANTOM
370
-3
390
F
  0
LAYER
  5
1FD
100
AcDbSymbolTableRecord
100
AcDbLayerTableRecord
  2
DATUMS
 70
0
 62
7
  6
CONTINUOUS
370
-3
390
F
  0
LAYER
  5
1FE
100
AcDbSymbolTableRecord
100
AcDbLayerTableRecord
  2
DATUM_AXIS
 70
0
 62
7
  6
CONTINUOUS
370
-3
390
F
  0
LAYER
  5
1FF
100
AcDbSymbolTableRecord
100
AcDbLayerTableRecord
  2
DATUM_CSYS
 70
0
 62
7
  6
CONTINUOUS
370
-3
390
F
  0
LAYER
  5
200
100
AcDbSymbolTableRecord
100
AcDbLayerTableRecord
  2
DATUM_PLANE
 70
0
 62
7
  6
CONTINUOUS
370
-3
390
F
  0
LAYER
  5
201
100
AcDbSymbolTableRecord
100
AcDbLayerTableRecord
  2
DATUM_POINT
 70
0
 62
7
  6
CONTINUOUS
370
-3
390
F
  0
LAYER
  5
202
100
AcDbSymbolTableRecord
100
AcDbLayerTableRecord
  2
_CURVE
 70
0
 62
7
  6
CONTINUOUS
370
-3
390
F
  0
LAYER
  5
203
100
AcDbSymbolTableRecord
100
AcDbLayerTableRecord
  2
_SURFACE
 70
0
 62
7
  6
CONTINUOUS
370
-3
390
F
  0
LAYER
  5
204
100
AcDbSymbolTableRecord
100
AcDbLayerTableRecord
  2
__REF_CURVE
 70
0
 62
7
  6
CONTINUOUS
370
-3
390
F
  0
LAYER
  5
205
100
AcDbSymbolTableRecord
100
AcDbLayerTableRecord
  2
__REF_SURFACE
 70
0
 62
7
  6
CONTINUOUS
370
-3
390
F
  0
LAYER
  5
206
100
AcDbSymbolTableRecord
100
AcDbLayerTableRecord
  2
___NOTE
 70
0
 62
7
  6
CONTINUOUS
370
-3
390
F
  0
LAYER
  5
207
100
AcDbSymbolTableRecord
100
AcDbLayerTableRecord
  2
___SYMBOL
 70
0
 62
7
  6
CONTINUOUS
370
-3
390
F
  0
ENDTAB
  0
TABLE
  2
STYLE
  5
3
100
AcDbSymbolTable
 70
1
  0
STYLE
  5
11
100
AcDbSymbolTableRecord
100
AcDbTextStyleTableRecord
  2
STANDARD
 70
0
 40
0.0
 41
0.8
 50
0.0
 71
0
 42
0.2
  3
txt
  4

  0
STYLE
  5
208
100
AcDbSymbolTableRecord
100
AcDbTextStyleTableRecord
  2
TEXTSTYLE_1
 70
0
 40
0.0
 41
0.8
 50
0.0
 71
0
 42
0.2
  3
gdt
  4

  0
STYLE
  5
209
100
AcDbSymbolTableRecord
100
AcDbTextStyleTableRecord
  2
TEXTSTYLE_2
 70
0
 40
0.0
 41
1.0
 50
0.0
 71
0
 42
0.2
  3
txt
  4

  0
STYLE
  5
20A
100
AcDbSymbolTableRecord
100
AcDbTextStyleTableRecord
  2
TEXTSTYLE_3
 70
0
 40
0.0
 41
0.8258950223
 50
0.0
 71
0
 42
0.2
  3
txt
  4

  0
STYLE
  5
20B
100
AcDbSymbolTableRecord
100
AcDbTextStyleTableRecord
  2
TEXTSTYLE_4
 70
0
 40
0.0
 41
0.6740211631
 50
0.0
 71
0
 42
0.2
  3
txt
  4

  0
ENDTAB
  0
TABLE
  2
VIEW
  5
6
100
AcDbSymbolTable
 70
0
  0
ENDTAB
  0
TABLE
  2
UCS
  5
7
100
AcDbSymbolTable
 70
0
  0
ENDTAB
  0
TABLE
  2
APPID
  5
9
100
AcDbSymbolTable
 70
1
  0
APPID
  5
20C
100
AcDbSymbolTableRecord
100
AcDbRegAppTableRecord
  2
ACAD
 70
0
  0
ENDTAB
  0
TABLE
  2
BLOCK_RECORD
  5
1
100
AcDbSymbolTable
 70
0
  0
BLOCK_RECORD
  5
20D
100
AcDbSymbolTableRecord
100
AcDbBlockTableRecord
  2
*Model_Space
  0
BLOCK_RECORD
  5
20E
100
AcDbSymbolTableRecord
100
AcDbBlockTableRecord
  2
*Paper_Space
  0
BLOCK_RECORD
  5
20F
100
AcDbSymbolTableRecord
100
AcDbBlockTableRecord
  2
_FILLED
  0
BLOCK_RECORD
  5
210
100
AcDbSymbolTableRecord
100
AcDbBlockTableRecord
  2
*D0
  0
BLOCK_RECORD
  5
211
100
AcDbSymbolTableRecord
100
AcDbBlockTableRecord
  2
*D1
  0
BLOCK_RECORD
  5
212
100
AcDbSymbolTableRecord
100
AcDbBlockTableRecord
  2
*D2
  0
BLOCK_RECORD
  5
213
100
AcDbSymbolTableRecord
100
AcDbBlockTableRecord
  2
*D3
  0
BLOCK_RECORD
  5
214
100
AcDbSymbolTableRecord
100
AcDbBlockTableRecord
  2
*D4
  0
BLOCK_RECORD
  5
215
100
AcDbSymbolTableRecord
100
AcDbBlockTableRecord
  2
CUT-OUT_TEMPLATE_SKU_SIN_BL6
  0
BLOCK_RECORD
  5
216
100
AcDbSymbolTableRecord
100
AcDbBlockTableRecord
  2
WHEN_PLOTTING_TEMPLATE_N_BL5
  0
BLOCK_RECORD
  5
217
100
AcDbSymbolTableRecord
100
AcDbBlockTableRecord
  2
TEMPLATE_NUMBER_BL4
  0
BLOCK_RECORD
  5
218
100
AcDbSymbolTableRecord
100
AcDbBlockTableRecord
  2
TEMPLATE_NUMBER_BL3
  0
BLOCK_RECORD
  5
219
100
AcDbSymbolTableRecord
100
AcDbBlockTableRecord
  2
PACKAGING_UPC_BL2
  0
BLOCK_RECORD
  5
21A
100
AcDbSymbolTableRecord
100
AcDbBlockTableRecord
  2
COPYRIGHT_YEAR_BL1
  0
BLOCK_RECORD
  5
21B
100
AcDbSymbolTableRecord
100
AcDbBlockTableRecord
  2
REVEAL-NOREVEAL_BL0
  0
ENDTAB
  0
TABLE
  2
DIMSTYLE
  5
A
100
AcDbSymbolTable
 70
1
100
AcDbDimStyleTable
 71
0
  0
DIMSTYLE
105
21C
100
AcDbSymbolTableRecord
100
AcDbDimStyleTableRecord
  2
STANDARD
 70
0
  3

  4

 40
1.0
 41
0.1875
 42
0.0625
 43
0.38
 44
0.18
 45
0.0
 46
0.0
 47
0.01
 48
0.01
140
0.15625
141
0.09
142
0.0
143
25.4
144
1.0
145
0.0
146
1.0
147
0.09
 71
1.0
 72
0.0
 73
1
 74
1
 75
0
 76
0
 77
0
 78
4
170
0
171
2
172
0
173
0
174
0
175
0
176
0
177
0
178
0
270
2
271
3
272
3
273
2
274
2
275
0
280
0
281
0
282
0
283
1
284
4
285
0
286
0
287
3
288
0
340
11
341
20F
342
20F
343
20F
344
20F
  0
DIMSTYLE
105
21D
100
AcDbSymbolTableRecord
100
AcDbDimStyleTableRecord
  2
DIMSTYLE_1
 70
0
  3

  4

 40
1.0
 41
0.1875
 42
0.0625
 43
0.38
 44
0.18
 45
0.0
 46
0.0
 47
0.03125
 48
0.03125
140
0.15625
141
0.09
142
0.0
143
25.4
144
1.0
145
0.0
146
1.0
147
0.09
 71
0.0
 72
0.0
 73
1
 74
1
 75
0
 76
0
 77
0
 78
4
170
0
171
2
172
0
173
0
174
0
175
0
176
0
177
0
178
0
270
2
271
5
272
5
273
2
274
2
275
0
280
0
281
0
282
0
283
1
284
4
285
0
286
0
287
3
288
0
340
11
341
20F
342
20F
343
20F
344
20F
  0
DIMSTYLE
105
21E
100
AcDbSymbolTableRecord
100
AcDbDimStyleTableRecord
  2
DIMSTYLE_2
 70
0
  3

  4

 40
1.0
 41
0.1875
 42
0.0625
 43
0.38
 44
0.18
 45
0.0
 46
0.0
 47
0.0625
 48
0.0625
140
0.15625
141
0.09
142
0.0
143
25.4
144
1.0
145
0.0
146
1.0
147
0.09
 71
0.0
 72
0.0
 73
1
 74
1
 75
0
 76
0
 77
0
 78
4
170
0
171
2
172
0
173
0
174
0
175
0
176
0
177
0
178
0
270
2
271
4
272
4
273
2
274
2
275
0
280
0
281
0
282
0
283
1
284
4
285
0
286
0
287
3
288
0
340
11
341
20F
342
20F
343
20F
344
20F
  0
DIMSTYLE
105
21F
100
AcDbSymbolTableRecord
100
AcDbDimStyleTableRecord
  2
DIMSTYLE_3
 70
0
  3

  4

 40
1.0
 41
0.1875
 42
0.0625
 43
0.38
 44
0.18
 45
0.0
 46
0.0
 47
0.0
 48
0.0
140
0.15625
141
0.09
142
0.0
143
25.4
144
1.0
145
0.0
146
1.0
147
0.09
 71
0.0
 72
0.0
 73
1
 74
1
 75
0
 76
0
 77
0
 78
4
170
0
171
2
172
0
173
0
174
0
175
0
176
0
177
0
178
0
270
2
271
4
272
4
273
2
274
2
275
0
280
0
281
0
282
0
283
1
284
4
285
0
286
0
287
3
288
0
340
11
341
20F
342
20F
343
20F
344
20F
  0
ENDTAB
  0
ENDSEC
  0
SECTION
  2
BLOCKS
  0
BLOCK
  5
20
100
AcDbEntity
  8
0
100
AcDbBlockBegin
  2
*Model_Space
 70
0
 10
0.0
 20
0.0
 30
0.0
  3
*Model_Space
  1

  0
ENDBLK
  5
21
100
AcDbEntity
  8
0
100
AcDbBlockEnd
  0
BLOCK
  5
1C
100
AcDbEntity
  8
0
100
AcDbBlockBegin
  2
*Paper_Space
 70
0
 10
0.0
 20
0.0
 30
0.0
  3
*Paper_Space
  1

  0
ENDBLK
  5
1D
100
AcDbEntity
  8
0
100
AcDbBlockEnd
  0
BLOCK
  5
220
100
AcDbEntity
  8
___SYMBOL
100
AcDbBlockBegin
 62
2
  6
CONTINUOUS
  2
CUT-OUT_TEMPLATE_SKU_SIN_BL6
 70
64
 10
10.5492533175
 20
24.5270956907
  3
CUT-OUT_TEMPLATE_SKU_SIN_BL6
  1

  0
LINE
  5
221
100
AcDbEntity
  8
___SYMBOL
100
AcDbLine
 62
2
  6
CONTINUOUS
 10
8.1719553515
 20
26.7935590951
 11
7.9586518921
 21
26.5399108131
  0
LINE
  5
222
100
AcDbEntity
  8
___SYMBOL
100
AcDbLine
 62
2
  6
CONTINUOUS
 10
7.9798935326
 20
26.7935590951
 11
8.1719553515
 21
26.7935590951
  0
LINE
  5
223
100
AcDbEntity
  8
___SYMBOL
100
AcDbLine
 62
2
  6
CONTINUOUS
 10
7.9798935326
 20
26.7935590951
 11
7.842129361
 21
26.6297378996
  0
LINE
  5
224
100
AcDbEntity
  8
___SYMBOL
100
AcDbLine
 62
2
  6
CONTINUOUS
 10
7.842129361
 20
26.7935590951
 11
7.842129361
 21
26.6297378996
  0
LINE
  5
225
100
AcDbEntity
  8
___SYMBOL
100
AcDbLine
 62
2
  6
CONTINUOUS
 10
7.6676291279
 20
26.7935590951
 11
7.842129361
 21
26.7935590951
  0
LINE
  5
226
100
AcDbEntity
  8
___SYMBOL
100
AcDbLine
 62
2
  6
CONTINUOUS
 10
7.6676291279
 20
26.7935590951
 11
7.6676291279
 21
26.2076214214
  0
LINE
  5
227
100
AcDbEntity
  8
___SYMBOL
100
AcDbLine
 62
2
  6
CONTINUOUS
 10
7.842129361
 20
26.2076454249
 11
7.6676291279
 21
26.2076214214
  0
LINE
  5
228
100
AcDbEntity
  8
___SYMBOL
100
AcDbLine
 62
2
  6
CONTINUOUS
 10
7.842129361
 20
26.4091452661
 11
7.842129361
 21
26.2076454249
  0
LINE
  5
229
100
AcDbEntity
  8
___SYMBOL
100
AcDbLine
 62
2
  6
CONTINUOUS
 10
7.9958673065
 20
26.2076454249
 11
7.842129361
 21
26.4091452661
  0
LINE
  5
22A
100
AcDbEntity
  8
___SYMBOL
100
AcDbLine
 62
2
  6
CONTINUOUS
 10
7.9958673065
 20
26.2076454249
 11
8.2121597358
 21
26.2076454249
  0
LINE
  5
22B
100
AcDbEntity
  8
___SYMBOL
100
AcDbLine
 62
2
  6
CONTINUOUS
 10
8.2121597358
 20
26.2076454249
 11
7.9586518921
 21
26.5399108131
  0
SOLID
  5
22C
100
AcDbEntity
  8
___SYMBOL
100
AcDbTrace
 62
2
  6
CONTINUOUS
 10
7.842129361
 20
26.6297378996
 11
7.9798935326
 21
26.7935590951
 12
8.1719553515
 22
26.7935590951
 13
8.1719553515
 23
26.7935590951
  0
SOLID
  5
22D
100
AcDbEntity
  8
___SYMBOL
100
AcDbTrace
 62
2
  6
CONTINUOUS
 10
8.1719553515
 20
26.7935590951
 11
7.9586518921
 21
26.5399108131
 12
7.842129361
 22
26.6297378996
 13
7.842129361
 23
26.6297378996
  0
SOLID
  5
22E
100
AcDbEntity
  8
___SYMBOL
100
AcDbTrace
 62
2
  6
CONTINUOUS
 10
7.842129361
 20
26.4091452661
 11
7.9586518921
 21
26.5399108131
 12
7.9958673065
 22
26.2076454249
 13
7.9958673065
 23
26.2076454249
  0
SOLID
  5
22F
100
AcDbEntity
  8
___SYMBOL
100
AcDbTrace
 62
2
  6
CONTINUOUS
 10
7.9586518921
 20
26.5399108131
 11
8.2121597358
 21
26.2076454249
 12
7.9958673065
 22
26.2076454249
 13
7.9958673065
 23
26.2076454249
  0
SOLID
  5
230
100
AcDbEntity
  8
___SYMBOL
100
AcDbTrace
 62
2
  6
CONTINUOUS
 10
7.842129361
 20
26.2076454249
 11
7.6676291279
 21
26.2076214214
 12
7.842129361
 22
26.4091452661
 13
7.842129361
 23
26.4091452661
  0
SOLID
  5
231
100
AcDbEntity
  8
___SYMBOL
100
AcDbTrace
 62
2
  6
CONTINUOUS
 10
7.9586518921
 20
26.5399108131
 11
7.842129361
 21
26.4091452661
 12
7.842129361
 22
26.6297378996
 13
7.842129361
 23
26.6297378996
  0
SOLID
  5
232
100
AcDbEntity
  8
___SYMBOL
100
AcDbTrace
 62
2
  6
CONTINUOUS
 10
7.842129361
 20
26.4091452661
 11
7.6676291279
 21
26.2076214214
 12
7.842129361
 22
26.6297378996
 13
7.842129361
 23
26.6297378996
  0
SOLID
  5
233
100
AcDbEntity
  8
___SYMBOL
100
AcDbTrace
 62
2
  6
CONTINUOUS
 10
7.842129361
 20
26.6297378996
 11
7.6676291279
 21
26.2076214214
 12
7.842129361
 22
26.7935590951
 13
7.842129361
 23
26.7935590951
  0
SOLID
  5
234
100
AcDbEntity
  8
___SYMBOL
100
AcDbTrace
 62
2
  6
CONTINUOUS
 10
7.6676291279
 20
26.2076214214
 11
7.6676291279
 21
26.7935590951
 12
7.842129361
 22
26.7935590951
 13
7.842129361
 23
26.7935590951
  0
CIRCLE
  5
235
100
AcDbEntity
  8
___SYMBOL
100
AcDbCircle
 62
2
  6
CONTINUOUS
 10
8.3886685787
 20
26.4994810081
 40
0.2980566016
  0
CIRCLE
  5
236
100
AcDbEntity
  8
___SYMBOL
100
AcDbCircle
 62
2
  6
CONTINUOUS
 10
8.3886685787
 20
26.4994810081
 40
0.1247694195
  0
SOLID
  5
237
100
AcDbEntity
  8
___SYMBOL
100
AcDbTrace
 62
2
  6
CONTINUOUS
 10
8.2965640235
 20
26.7829496813
 11
8.3575131802
 21
26.7959048244
 12
8.4198239772
 22
26.7959048244
 13
8.4198239772
 23
26.7959048244
  0
SOLID
  5
238
100
AcDbEntity
  8
___SYMBOL
100
AcDbTrace
 62
2
  6
CONTINUOUS
 10
8.4198239772
 20
26.7959048244
 11
8.4807731339
 21
26.7829496813
 12
8.2965640235
 22
26.7829496813
 13
8.2965640235
 23
26.7829496813
  0
SOLID
  5
239
100
AcDbEntity
  8
___SYMBOL
100
AcDbTrace
 62
2
  6
CONTINUOUS
 10
8.2396402779
 20
26.7576055968
 11
8.2965640235
 21
26.7829496813
 12
8.4807731339
 22
26.7829496813
 13
8.4807731339
 23
26.7829496813
  0
SOLID
  5
23A
100
AcDbEntity
  8
___SYMBOL
100
AcDbTrace
 62
2
  6
CONTINUOUS
 10
8.4807731339
 20
26.7829496813
 11
8.5376968795
 21
26.7576055968
 12
8.2396402779
 22
26.7576055968
 13
8.2396402779
 23
26.7576055968
  0
SOLID
  5
23B
100
AcDbEntity
  8
___SYMBOL
100
AcDbTrace
 62
2
  6
CONTINUOUS
 10
8.1892297842
 20
26.7209802293
 11
8.2396402779
 21
26.7576055968
 12
8.5376968795
 22
26.7576055968
 13
8.5376968795
 23
26.7576055968
  0
SOLID
  5
23C
100
AcDbEntity
  8
___SYMBOL
100
AcDbTrace
 62
2
  6
CONTINUOUS
 10
8.5376968795
 20
26.7576055968
 11
8.5881073733
 21
26.7209802293
 12
8.1892297842
 22
26.7209802293
 13
8.1892297842
 23
26.7209802293
  0
SOLID
  5
23D
100
AcDbEntity
  8
___SYMBOL
100
AcDbTrace
 62
2
  6
CONTINUOUS
 10
8.1475357227
 20
26.6746742829
 11
8.1892297842
 21
26.7209802293
 12
8.5881073733
 22
26.7209802293
 13
8.5881073733
 23
26.7209802293
  0
SOLID
  5
23E
100
AcDbEntity
  8
___SYMBOL
100
AcDbTrace
 62
2
  6
CONTINUOUS
 10
8.5881073733
 20
26.7209802293
 11
8.6298014347
 21
26.6746742829
 12
8.1475357227
 22
26.6746742829
 13
8.1475357227
 23
26.6746742829
  0
SOLID
  5
23F
100
AcDbEntity
  8
___SYMBOL
100
AcDbTrace
 62
2
  6
CONTINUOUS
 10
8.3886685787
 20
26.6242504276
 11
8.1163803242
 21
26.6207115497
 12
8.6298014347
 22
26.6746742829
 13
8.6298014347
 23
26.6746742829
  0
SOLID
  5
240
100
AcDbEntity
  8
___SYMBOL
100
AcDbTrace
 62
2
  6
CONTINUOUS
 10
8.1163803242
 20
26.6207115497
 11
8.1475357227
 21
26.6746742829
 12
8.6298014347
 22
26.6746742829
 13
8.6298014347
 23
26.6746742829
  0
SOLID
  5
241
100
AcDbEntity
  8
___SYMBOL
100
AcDbTrace
 62
2
  6
CONTINUOUS
 10
8.6298014347
 20
26.6746742829
 11
8.6609568332
 21
26.6207115497
 12
8.3886685787
 22
26.6242504276
 13
8.3886685787
 23
26.6242504276
  0
SOLID
  5
242
100
AcDbEntity
  8
___SYMBOL
100
AcDbTrace
 62
2
  6
CONTINUOUS
 10
8.3886685787
 20
26.6242504276
 11
8.3501127077
 21
26.6181437776
 12
8.1163803242
 22
26.6207115497
 13
8.1163803242
 23
26.6207115497
  0
SOLID
  5
243
100
AcDbEntity
  8
___SYMBOL
100
AcDbTrace
 62
2
  6
CONTINUOUS
 10
8.4272244497
 20
26.6181437776
 11
8.3886685787
 21
26.6242504276
 12
8.6609568332
 22
26.6207115497
 13
8.6609568332
 23
26.6207115497
  0
SOLID
  5
244
100
AcDbEntity
  8
___SYMBOL
100
AcDbTrace
 62
2
  6
CONTINUOUS
 10
8.287727998
 20
26.5728186328
 11
8.097125229
 21
26.5614504601
 12
8.315330954
 22
26.6004215889
 13
8.315330954
 23
26.6004215889
  0
SOLID
  5
245
100
AcDbEntity
  8
___SYMBOL
100
AcDbTrace
 62
2
  6
CONTINUOUS
 10
8.315330954
 20
26.6004215889
 11
8.097125229
 21
26.5614504601
 12
8.3501127077
 22
26.6181437776
 13
8.3501127077
 23
26.6181437776
  0
SOLID
  5
246
100
AcDbEntity
  8
___SYMBOL
100
AcDbTrace
 62
2
  6
CONTINUOUS
 10
8.097125229
 20
26.5614504601
 11
8.1163803242
 21
26.6207115497
 12
8.3501127077
 22
26.6181437776
 13
8.3501127077
 23
26.6181437776
  0
SOLID
  5
247
100
AcDbEntity
  8
___SYMBOL
100
AcDbTrace
 62
2
  6
CONTINUOUS
 10
8.4272244497
 20
26.6181437776
 11
8.6609568332
 21
26.6207115497
 12
8.4620062034
 22
26.6004215889
 13
8.4620062034
 23
26.6004215889
  0
SOLID
  5
248
100
AcDbEntity
  8
___SYMBOL
100
AcDbTrace
 62
2
  6
CONTINUOUS
 10
8.4620062034
 20
26.6004215889
 11
8.6609568332
 21
26.6207115497
 12
8.4896091595
 22
26.5728186328
 13
8.4896091595
 23
26.5728186328
  0
SOLID
  5
249
100
AcDbEntity
  8
___SYMBOL
100
AcDbTrace
 62
2
  6
CONTINUOUS
 10
8.6609568332
 20
26.6207115497
 11
8.6802119284
 21
26.5614504601
 12
8.4896091595
 22
26.5728186328
 13
8.4896091595
 23
26.5728186328
  0
SOLID
  5
24A
100
AcDbEntity
  8
___SYMBOL
100
AcDbTrace
 62
2
  6
CONTINUOUS
 10
8.287727998
 20
26.5728186328
 11
8.2700058093
 21
26.5380368791
 12
8.097125229
 22
26.5614504601
 13
8.097125229
 23
26.5614504601
  0
SOLID
  5
24B
100
AcDbEntity
  8
___SYMBOL
100
AcDbTrace
 62
2
  6
CONTINUOUS
 10
8.5073313482
 20
26.5380368791
 11
8.4896091595
 21
26.5728186328
 12
8.6802119284
 22
26.5614504601
 13
8.6802119284
 23
26.5614504601
  0
SOLID
  5
24C
100
AcDbEntity
  8
___SYMBOL
100
AcDbTrace
 62
2
  6
CONTINUOUS
 10
8.0906119771
 20
26.4994810081
 11
8.097125229
 21
26.5614504601
 12
8.2700058093
 22
26.5380368791
 13
8.2700058093
 23
26.5380368791
  0
SOLID
  5
24D
100
AcDbEntity
  8
___SYMBOL
100
AcDbTrace
 62
2
  6
CONTINUOUS
 10
8.2700058093
 20
26.5380368791
 11
8.2638991592
 21
26.4994810081
 12
8.0906119771
 22
26.4994810081
 13
8.0906119771
 23
26.4994810081
  0
SOLID
  5
24E
100
AcDbEntity
  8
___SYMBOL
100
AcDbTrace
 62
2
  6
CONTINUOUS
 10
8.5073313482
 20
26.5380368791
 11
8.6802119284
 21
26.5614504601
 12
8.5134379982
 22
26.4994810081
 13
8.5134379982
 23
26.4994810081
  0
SOLID
  5
24F
100
AcDbEntity
  8
___SYMBOL
100
AcDbTrace
 62
2
  6
CONTINUOUS
 10
8.6802119284
 20
26.5614504601
 11
8.6867251803
 21
26.4994810081
 12
8.5134379982
 22
26.4994810081
 13
8.5134379982
 23
26.4994810081
  0
SOLID
  5
250
100
AcDbEntity
  8
___SYMBOL
100
AcDbTrace
 62
2
  6
CONTINUOUS
 10
8.5073313482
 20
26.4609251371
 11
8.5134379982
 21
26.4994810081
 12
8.6867251803
 22
26.4994810081
 13
8.6867251803
 23
26.4994810081
  0
SOLID
  5
251
100
AcDbEntity
  8
___SYMBOL
100
AcDbTrace
 62
2
  6
CONTINUOUS
 10
8.2700058093
 20
26.4609251371
 11
8.097125229
 21
26.4375115561
 12
8.2638991592
 22
26.4994810081
 13
8.2638991592
 23
26.4994810081
  0
SOLID
  5
252
100
AcDbEntity
  8
___SYMBOL
100
AcDbTrace
 62
2
  6
CONTINUOUS
 10
8.097125229
 20
26.4375115561
 11
8.0906119771
 21
26.4994810081
 12
8.2638991592
 22
26.4994810081
 13
8.2638991592
 23
26.4994810081
  0
SOLID
  5
253
100
AcDbEntity
  8
___SYMBOL
100
AcDbTrace
 62
2
  6
CONTINUOUS
 10
8.6867251803
 20
26.4994810081
 11
8.6802119284
 21
26.4375115561
 12
8.5073313482
 22
26.4609251371
 13
8.5073313482
 23
26.4609251371
  0
SOLID
  5
254
100
AcDbEntity
  8
___SYMBOL
100
AcDbTrace
 62
2
  6
CONTINUOUS
 10
8.2700058093
 20
26.4609251371
 11
8.287727998
 21
26.4261433834
 12
8.097125229
 22
26.4375115561
 13
8.097125229
 23
26.4375115561
  0
SOLID
  5
255
100
AcDbEntity
  8
___SYMBOL
100
AcDbTrace
 62
2
  6
CONTINUOUS
 10
8.4896091595
 20
26.4261433834
 11
8.5073313482
 21
26.4609251371
 12
8.6802119284
 22
26.4375115561
 13
8.6802119284
 23
26.4375115561
  0
SOLID
  5
256
100
AcDbEntity
  8
___SYMBOL
100
AcDbTrace
 62
2
  6
CONTINUOUS
 10
8.3501127077
 20
26.3808182386
 11
8.1163803242
 21
26.3782504665
 12
8.315330954
 22
26.3985404273
 13
8.315330954
 23
26.3985404273
  0
SOLID
  5
257
100
AcDbEntity
  8
___SYMBOL
100
AcDbTrace
 62
2
  6
CONTINUOUS
 10
8.315330954
 20
26.3985404273
 11
8.1163803242
 21
26.3782504665
 12
8.287727998
 22
26.4261433834
 13
8.287727998
 23
26.4261433834
  0
SOLID
  5
258
100
AcDbEntity
  8
___SYMBOL
100
AcDbTrace
 62
2
  6
CONTINUOUS
 10
8.1163803242
 20
26.3782504665
 11
8.097125229
 21
26.4375115561
 12
8.287727998
 22
26.4261433834
 13
8.287727998
 23
26.4261433834
  0
SOLID
  5
259
100
AcDbEntity
  8
___SYMBOL
100
AcDbTrace
 62
2
  6
CONTINUOUS
 10
8.4896091595
 20
26.4261433834
 11
8.6802119284
 21
26.4375115561
 12
8.4620062034
 22
26.3985404273
 13
8.4620062034
 23
26.3985404273
  0
SOLID
  5
25A
100
AcDbEntity
  8
___SYMBOL
100
AcDbTrace
 62
2
  6
CONTINUOUS
 10
8.4620062034
 20
26.3985404273
 11
8.6802119284
 21
26.4375115561
 12
8.4272244497
 22
26.3808182386
 13
8.4272244497
 23
26.3808182386
  0
SOLID
  5
25B
100
AcDbEntity
  8
___SYMBOL
100
AcDbTrace
 62
2
  6
CONTINUOUS
 10
8.6802119284
 20
26.4375115561
 11
8.6609568332
 21
26.3782504665
 12
8.4272244497
 22
26.3808182386
 13
8.4272244497
 23
26.3808182386
  0
SOLID
  5
25C
100
AcDbEntity
  8
___SYMBOL
100
AcDbTrace
 62
2
  6
CONTINUOUS
 10
8.3501127077
 20
26.3808182386
 11
8.3886685787
 21
26.3747115886
 12
8.1163803242
 22
26.3782504665
 13
8.1163803242
 23
26.3782504665
  0
SOLID
  5
25D
100
AcDbEntity
  8
___SYMBOL
100
AcDbTrace
 62
2
  6
CONTINUOUS
 10
8.3886685787
 20
26.3747115886
 11
8.4272244497
 21
26.3808182386
 12
8.6609568332
 22
26.3782504665
 13
8.6609568332
 23
26.3782504665
  0
SOLID
  5
25E
100
AcDbEntity
  8
___SYMBOL
100
AcDbTrace
 62
2
  6
CONTINUOUS
 10
8.1475357227
 20
26.3242877333
 11
8.1163803242
 21
26.3782504665
 12
8.3886685787
 22
26.3747115886
 13
8.3886685787
 23
26.3747115886
  0
SOLID
  5
25F
100
AcDbEntity
  8
___SYMBOL
100
AcDbTrace
 62
2
  6
CONTINUOUS
 10
8.3886685787
 20
26.3747115886
 11
8.6609568332
 21
26.3782504665
 12
8.1475357227
 22
26.3242877333
 13
8.1475357227
 23
26.3242877333
  0
SOLID
  5
260
100
AcDbEntity
  8
___SYMBOL
100
AcDbTrace
 62
2
  6
CONTINUOUS
 10
8.6609568332
 20
26.3782504665
 11
8.6298014347
 21
26.3242877333
 12
8.1475357227
 22
26.3242877333
 13
8.1475357227
 23
26.3242877333
  0
SOLID
  5
261
100
AcDbEntity
  8
___SYMBOL
100
AcDbTrace
 62
2
  6
CONTINUOUS
 10
8.1892297842
 20
26.2779817869
 11
8.1475357227
 21
26.3242877333
 12
8.6298014347
 22
26.3242877333
 13
8.6298014347
 23
26.3242877333
  0
SOLID
  5
262
100
AcDbEntity
  8
___SYMBOL
100
AcDbTrace
 62
2
  6
CONTINUOUS
 10
8.6298014347
 20
26.3242877333
 11
8.5881073733
 21
26.2779817869
 12
8.1892297842
 22
26.2779817869
 13
8.1892297842
 23
26.2779817869
  0
SOLID
  5
263
100
AcDbEntity
  8
___SYMBOL
100
AcDbTrace
 62
2
  6
CONTINUOUS
 10
8.2396402779
 20
26.2413564194
 11
8.1892297842
 21
26.2779817869
 12
8.5881073733
 22
26.2779817869
 13
8.5881073733
 23
26.2779817869
  0
SOLID
  5
264
100
AcDbEntity
  8
___SYMBOL
100
AcDbTrace
 62
2
  6
CONTINUOUS
 10
8.5881073733
 20
26.2779817869
 11
8.5376968795
 21
26.2413564194
 12
8.2396402779
 22
26.2413564194
 13
8.2396402779
 23
26.2413564194
  0
SOLID
  5
265
100
AcDbEntity
  8
___SYMBOL
100
AcDbTrace
 62
2
  6
CONTINUOUS
 10
8.2965640235
 20
26.2160123349
 11
8.2396402779
 21
26.2413564194
 12
8.5376968795
 22
26.2413564194
 13
8.5376968795
 23
26.2413564194
  0
SOLID
  5
266
100
AcDbEntity
  8
___SYMBOL
100
AcDbTrace
 62
2
  6
CONTINUOUS
 10
8.5376968795
 20
26.2413564194
 11
8.4807731339
 21
26.2160123349
 12
8.2965640235
 22
26.2160123349
 13
8.2965640235
 23
26.2160123349
  0
SOLID
  5
267
100
AcDbEntity
  8
___SYMBOL
100
AcDbTrace
 62
2
  6
CONTINUOUS
 10
8.3575131802
 20
26.2030571918
 11
8.2965640235
 21
26.2160123349
 12
8.4807731339
 22
26.2160123349
 13
8.4807731339
 23
26.2160123349
  0
SOLID
  5
268
100
AcDbEntity
  8
___SYMBOL
100
AcDbTrace
 62
2
  6
CONTINUOUS
 10
8.4807731339
 20
26.2160123349
 11
8.4198239772
 21
26.2030571918
 12
8.3575131802
 22
26.2030571918
 13
8.3575131802
 23
26.2030571918
  0
LINE
  5
269
100
AcDbEntity
  8
___SYMBOL
100
AcDbLine
 62
2
  6
CONTINUOUS
 10
9.1813046161
 20
26.7935590951
 11
9.1813046161
 21
26.2076454249
  0
LINE
  5
26A
100
AcDbEntity
  8
___SYMBOL
100
AcDbLine
 62
2
  6
CONTINUOUS
 10
9.1813046161
 20
26.2076454249
 11
9.0165709304
 21
26.2076454249
  0
LINE
  5
26B
100
AcDbEntity
  8
___SYMBOL
100
AcDbLine
 62
2
  6
CONTINUOUS
 10
9.0165709304
 20
26.4359700428
 11
9.0165709304
 21
26.2076454249
  0
LINE
  5
26C
100
AcDbEntity
  8
___SYMBOL
100
AcDbLine
 62
2
  6
CONTINUOUS
 10
8.868574114
 20
26.4359700428
 11
9.0165709304
 21
26.4359700428
  0
LINE
  5
26D
100
AcDbEntity
  8
___SYMBOL
100
AcDbLine
 62
2
  6
CONTINUOUS
 10
8.868574114
 20
26.4359700428
 11
8.868574114
 21
26.2076454249
  0
LINE
  5
26E
100
AcDbEntity
  8
___SYMBOL
100
AcDbLine
 62
2
  6
CONTINUOUS
 10
8.868574114
 20
26.2076454249
 11
8.7038404283
 21
26.2076454249
  0
LINE
  5
26F
100
AcDbEntity
  8
___SYMBOL
100
AcDbLine
 62
2
  6
CONTINUOUS
 10
8.7038404283
 20
26.7935590951
 11
8.7038404283
 21
26.2076454249
  0
LINE
  5
270
100
AcDbEntity
  8
___SYMBOL
100
AcDbLine
 62
2
  6
CONTINUOUS
 10
8.7038404283
 20
26.7935590951
 11
8.868574114
 21
26.7935590951
  0
LINE
  5
271
100
AcDbEntity
  8
___SYMBOL
100
AcDbLine
 62
2
  6
CONTINUOUS
 10
8.868574114
 20
26.7935590951
 11
8.868574114
 21
26.5731753276
  0
LINE
  5
272
100
AcDbEntity
  8
___SYMBOL
100
AcDbLine
 62
2
  6
CONTINUOUS
 10
8.868574114
 20
26.5731753276
 11
9.0165709304
 21
26.5731753276
  0
LINE
  5
273
100
AcDbEntity
  8
___SYMBOL
100
AcDbLine
 62
2
  6
CONTINUOUS
 10
9.0165709304
 20
26.7935590951
 11
9.0165709304
 21
26.5731753276
  0
LINE
  5
274
100
AcDbEntity
  8
___SYMBOL
100
AcDbLine
 62
2
  6
CONTINUOUS
 10
9.0165709304
 20
26.7935590951
 11
9.1813046161
 21
26.7935590951
  0
SOLID
  5
275
100
AcDbEntity
  8
___SYMBOL
100
AcDbTrace
 62
2
  6
CONTINUOUS
 10
9.0165709304
 20
26.5731753276
 11
9.0165709304
 21
26.7935590951
 12
9.1813046161
 22
26.7935590951
 13
9.1813046161
 23
26.7935590951
  0
SOLID
  5
276
100
AcDbEntity
  8
___SYMBOL
100
AcDbTrace
 62
2
  6
CONTINUOUS
 10
9.0165709304
 20
26.5731753276
 11
8.868574114
 21
26.4359700428
 12
8.868574114
 22
26.5731753276
 13
8.868574114
 23
26.5731753276
  0
SOLID
  5
277
100
AcDbEntity
  8
___SYMBOL
100
AcDbTrace
 62
2
  6
CONTINUOUS
 10
8.868574114
 20
26.4359700428
 11
8.7038404283
 21
26.2076454249
 12
8.868574114
 22
26.5731753276
 13
8.868574114
 23
26.5731753276
  0
SOLID
  5
278
100
AcDbEntity
  8
___SYMBOL
100
AcDbTrace
 62
2
  6
CONTINUOUS
 10
8.868574114
 20
26.5731753276
 11
8.7038404283
 21
26.2076454249
 12
8.868574114
 22
26.7935590951
 13
8.868574114
 23
26.7935590951
  0
SOLID
  5
279
100
AcDbEntity
  8
___SYMBOL
100
AcDbTrace
 62
2
  6
CONTINUOUS
 10
8.7038404283
 20
26.2076454249
 11
8.7038404283
 21
26.7935590951
 12
8.868574114
 22
26.7935590951
 13
8.868574114
 23
26.7935590951
  0
SOLID
  5
27A
100
AcDbEntity
  8
___SYMBOL
100
AcDbTrace
 62
2
  6
CONTINUOUS
 10
8.868574114
 20
26.4359700428
 11
8.868574114
 21
26.2076454249
 12
8.7038404283
 22
26.2076454249
 13
8.7038404283
 23
26.2076454249
  0
SOLID
  5
27B
100
AcDbEntity
  8
___SYMBOL
100
AcDbTrace
 62
2
  6
CONTINUOUS
 10
8.868574114
 20
26.4359700428
 11
9.0165709304
 21
26.5731753276
 12
9.0165709304
 22
26.4359700428
 13
9.0165709304
 23
26.4359700428
  0
SOLID
  5
27C
100
AcDbEntity
  8
___SYMBOL
100
AcDbTrace
 62
2
  6
CONTINUOUS
 10
9.0165709304
 20
26.5731753276
 11
9.1813046161
 21
26.7935590951
 12
9.0165709304
 22
26.4359700428
 13
9.0165709304
 23
26.4359700428
  0
SOLID
  5
27D
100
AcDbEntity
  8
___SYMBOL
100
AcDbTrace
 62
2
  6
CONTINUOUS
 10
9.0165709304
 20
26.4359700428
 11
9.1813046161
 21
26.7935590951
 12
9.0165709304
 22
26.2076454249
 13
9.0165709304
 23
26.2076454249
  0
SOLID
  5
27E
100
AcDbEntity
  8
___SYMBOL
100
AcDbTrace
 62
2
  6
CONTINUOUS
 10
9.1813046161
 20
26.7935590951
 11
9.1813046161
 21
26.2076454249
 12
9.0165709304
 22
26.2076454249
 13
9.0165709304
 23
26.2076454249
  0
LINE
  5
27F
100
AcDbEntity
  8
___SYMBOL
100
AcDbLine
 62
2
  6
CONTINUOUS
 10
9.37639553
 20
26.2076454249
 11
9.5390796057
 21
26.2076454249
  0
LINE
  5
280
100
AcDbEntity
  8
___SYMBOL
100
AcDbLine
 62
2
  6
CONTINUOUS
 10
9.37639553
 20
26.2076454249
 11
9.2263494619
 21
26.2076454249
  0
LINE
  5
281
100
AcDbEntity
  8
___SYMBOL
100
AcDbLine
 62
2
  6
CONTINUOUS
 10
9.2263494619
 20
26.2076454249
 11
9.2263494619
 21
26.7935590951
  0
LINE
  5
282
100
AcDbEntity
  8
___SYMBOL
100
AcDbLine
 62
2
  6
CONTINUOUS
 10
9.2263494619
 20
26.7935590951
 11
9.37639553
 21
26.7935590951
  0
LINE
  5
283
100
AcDbEntity
  8
___SYMBOL
100
AcDbLine
 62
2
  6
CONTINUOUS
 10
9.37639553
 20
26.7935590951
 11
9.37639553
 21
26.3488721871
  0
LINE
  5
284
100
AcDbEntity
  8
___SYMBOL
100
AcDbLine
 62
2
  6
CONTINUOUS
 10
9.37639553
 20
26.3488721871
 11
9.5390796057
 21
26.3488721871
  0
LINE
  5
285
100
AcDbEntity
  8
___SYMBOL
100
AcDbLine
 62
2
  6
CONTINUOUS
 10
9.5390796057
 20
26.3488721871
 11
9.5390796057
 21
26.2076454249
  0
SOLID
  5
286
100
AcDbEntity
  8
___SYMBOL
100
AcDbTrace
 62
2
  6
CONTINUOUS
 10
9.5390796057
 20
26.3488721871
 11
9.2263494619
 21
26.2076454249
 12
9.37639553
 22
26.3488721871
 13
9.37639553
 23
26.3488721871
  0
SOLID
  5
287
100
AcDbEntity
  8
___SYMBOL
100
AcDbTrace
 62
2
  6
CONTINUOUS
 10
9.37639553
 20
26.3488721871
 11
9.2263494619
 21
26.2076454249
 12
9.37639553
 22
26.7935590951
 13
9.37639553
 23
26.7935590951
  0
SOLID
  5
288
100
AcDbEntity
  8
___SYMBOL
100
AcDbTrace
 62
2
  6
CONTINUOUS
 10
9.2263494619
 20
26.2076454249
 11
9.2263494619
 21
26.7935590951
 12
9.37639553
 22
26.7935590951
 13
9.37639553
 23
26.7935590951
  0
SOLID
  5
289
100
AcDbEntity
  8
___SYMBOL
100
AcDbTrace
 62
2
  6
CONTINUOUS
 10
9.2263494619
 20
26.2076454249
 11
9.5390796057
 21
26.3488721871
 12
9.37639553
 22
26.2076454249
 13
9.37639553
 23
26.2076454249
  0
SOLID
  5
28A
100
AcDbEntity
  8
___SYMBOL
100
AcDbTrace
 62
2
  6
CONTINUOUS
 10
9.5390796057
 20
26.3488721871
 11
9.5390796057
 21
26.2076454249
 12
9.37639553
 22
26.2076454249
 13
9.37639553
 23
26.2076454249
  0
LINE
  5
28B
100
AcDbEntity
  8
___SYMBOL
100
AcDbLine
 62
2
  6
CONTINUOUS
 10
9.8773315318
 20
26.4287937209
 11
9.8773315318
 21
26.5731753276
  0
LINE
  5
28C
100
AcDbEntity
  8
___SYMBOL
100
AcDbLine
 62
2
  6
CONTINUOUS
 10
9.726474003
 20
26.5731753276
 11
9.8773315318
 21
26.5731753276
  0
LINE
  5
28D
100
AcDbEntity
  8
___SYMBOL
100
AcDbLine
 62
2
  6
CONTINUOUS
 10
9.726474003
 20
26.6507996932
 11
9.726474003
 21
26.5731753276
  0
LINE
  5
28E
100
AcDbEntity
  8
___SYMBOL
100
AcDbLine
 62
2
  6
CONTINUOUS
 10
9.726474003
 20
26.6507996932
 11
9.8773315318
 21
26.6507996932
  0
LINE
  5
28F
100
AcDbEntity
  8
___SYMBOL
100
AcDbLine
 62
2
  6
CONTINUOUS
 10
9.8773315318
 20
26.6507996932
 11
9.8773315318
 21
26.7935590951
  0
LINE
  5
290
100
AcDbEntity
  8
___SYMBOL
100
AcDbLine
 62
2
  6
CONTINUOUS
 10
9.7406783269
 20
26.7935590951
 11
9.8773315318
 21
26.7935590951
  0
LINE
  5
291
100
AcDbEntity
  8
___SYMBOL
100
AcDbLine
 62
2
  6
CONTINUOUS
 10
9.5682273454
 20
26.7935590951
 11
9.7406783269
 21
26.7935590951
  0
LINE
  5
292
100
AcDbEntity
  8
___SYMBOL
100
AcDbLine
 62
2
  6
CONTINUOUS
 10
9.5682273454
 20
26.2076454249
 11
9.5682273454
 21
26.7935590951
  0
LINE
  5
293
100
AcDbEntity
  8
___SYMBOL
100
AcDbLine
 62
2
  6
CONTINUOUS
 10
9.5682273454
 20
26.2076454249
 11
9.8773315318
 21
26.2076454249
  0
LINE
  5
294
100
AcDbEntity
  8
___SYMBOL
100
AcDbLine
 62
2
  6
CONTINUOUS
 10
9.8773315318
 20
26.2076454249
 11
9.8773315318
 21
26.3488721871
  0
LINE
  5
295
100
AcDbEntity
  8
___SYMBOL
100
AcDbLine
 62
2
  6
CONTINUOUS
 10
9.726474003
 20
26.3488721871
 11
9.8773315318
 21
26.3488721871
  0
LINE
  5
296
100
AcDbEntity
  8
___SYMBOL
100
AcDbLine
 62
2
  6
CONTINUOUS
 10
9.726474003
 20
26.4287937209
 11
9.726474003
 21
26.3488721871
  0
LINE
  5
297
100
AcDbEntity
  8
___SYMBOL
100
AcDbLine
 62
2
  6
CONTINUOUS
 10
9.726474003
 20
26.4287937209
 11
9.8773315318
 21
26.4287937209
  0
SOLID
  5
298
100
AcDbEntity
  8
___SYMBOL
100
AcDbTrace
 62
2
  6
CONTINUOUS
 10
9.8773315318
 20
26.7935590951
 11
9.8773315318
 21
26.6507996932
 12
9.726474003
 22
26.6507996932
 13
9.726474003
 23
26.6507996932
  0
SOLID
  5
299
100
AcDbEntity
  8
___SYMBOL
100
AcDbTrace
 62
2
  6
CONTINUOUS
 10
9.8773315318
 20
26.5731753276
 11
9.8773315318
 21
26.4287937209
 12
9.726474003
 22
26.4287937209
 13
9.726474003
 23
26.4287937209
  0
SOLID
  5
29A
100
AcDbEntity
  8
___SYMBOL
100
AcDbTrace
 62
2
  6
CONTINUOUS
 10
9.8773315318
 20
26.3488721871
 11
9.5682273454
 21
26.2076454249
 12
9.726474003
 22
26.3488721871
 13
9.726474003
 23
26.3488721871
  0
SOLID
  5
29B
100
AcDbEntity
  8
___SYMBOL
100
AcDbTrace
 62
2
  6
CONTINUOUS
 10
9.726474003
 20
26.3488721871
 11
9.5682273454
 21
26.2076454249
 12
9.726474003
 22
26.4287937209
 13
9.726474003
 23
26.4287937209
  0
SOLID
  5
29C
100
AcDbEntity
  8
___SYMBOL
100
AcDbTrace
 62
2
  6
CONTINUOUS
 10
9.8773315318
 20
26.5731753276
 11
9.726474003
 21
26.4287937209
 12
9.726474003
 22
26.5731753276
 13
9.726474003
 23
26.5731753276
  0
SOLID
  5
29D
100
AcDbEntity
  8
___SYMBOL
100
AcDbTrace
 62
2
  6
CONTINUOUS
 10
9.726474003
 20
26.4287937209
 11
9.5682273454
 21
26.2076454249
 12
9.726474003
 22
26.5731753276
 13
9.726474003
 23
26.5731753276
  0
SOLID
  5
29E
100
AcDbEntity
  8
___SYMBOL
100
AcDbTrace
 62
2
  6
CONTINUOUS
 10
9.726474003
 20
26.5731753276
 11
9.5682273454
 21
26.2076454249
 12
9.726474003
 22
26.6507996932
 13
9.726474003
 23
26.6507996932
  0
SOLID
  5
29F
100
AcDbEntity
  8
___SYMBOL
100
AcDbTrace
 62
2
  6
CONTINUOUS
 10
9.8773315318
 20
26.7935590951
 11
9.726474003
 21
26.6507996932
 12
9.7406783269
 22
26.7935590951
 13
9.7406783269
 23
26.7935590951
  0
SOLID
  5
2A0
100
AcDbEntity
  8
___SYMBOL
100
AcDbTrace
 62
2
  6
CONTINUOUS
 10
9.726474003
 20
26.6507996932
 11
9.5682273454
 21
26.2076454249
 12
9.7406783269
 22
26.7935590951
 13
9.7406783269
 23
26.7935590951
  0
SOLID
  5
2A1
100
AcDbEntity
  8
___SYMBOL
100
AcDbTrace
 62
2
  6
CONTINUOUS
 10
9.5682273454
 20
26.2076454249
 11
9.5682273454
 21
26.7935590951
 12
9.7406783269
 22
26.7935590951
 13
9.7406783269
 23
26.7935590951
  0
SOLID
  5
2A2
100
AcDbEntity
  8
___SYMBOL
100
AcDbTrace
 62
2
  6
CONTINUOUS
 10
9.8773315318
 20
26.3488721871
 11
9.8773315318
 21
26.2076454249
 12
9.5682273454
 22
26.2076454249
 13
9.5682273454
 23
26.2076454249
  0
LINE
  5
2A3
100
AcDbEntity
  8
___SYMBOL
100
AcDbLine
 62
2
  6
CONTINUOUS
 10
10.3875819559
 20
26.2076454249
 11
10.2281387073
 21
26.4592279751
  0
ARC
  5
2A4
100
AcDbEntity
  8
___SYMBOL
100
AcDbCircle
 62
2
  6
CONTINUOUS
 10
10.155699457
 20
26.6185495782
 40
0.1750166225
100
AcDbArc
 50
294.4500166359
 51
90.0
  0
LINE
  5
2A5
100
AcDbEntity
  8
___SYMBOL
100
AcDbLine
 62
2
  6
CONTINUOUS
 10
9.9221517481
 20
26.7935590951
 11
10.155699457
 21
26.7935590951
  0
LINE
  5
2A6
100
AcDbEntity
  8
___SYMBOL
100
AcDbLine
 62
2
  6
CONTINUOUS
 10
9.9221517481
 20
26.2076454249
 11
9.9221517481
 21
26.7935590951
  0
LINE
  5
2A7
100
AcDbEntity
  8
___SYMBOL
100
AcDbLine
 62
2
  6
CONTINUOUS
 10
9.9221517481
 20
26.2076454249
 11
10.072807576
 21
26.2076454249
  0
LINE
  5
2A8
100
AcDbEntity
  8
___SYMBOL
100
AcDbLine
 62
2
  6
CONTINUOUS
 10
10.072807576
 20
26.4046018027
 11
10.072807576
 21
26.2076454249
  0
LINE
  5
2A9
100
AcDbEntity
  8
___SYMBOL
100
AcDbLine
 62
2
  6
CONTINUOUS
 10
10.1976310096
 20
26.2076454249
 11
10.072807576
 21
26.4046018027
  0
LINE
  5
2AA
100
AcDbEntity
  8
___SYMBOL
100
AcDbLine
 62
2
  6
CONTINUOUS
 10
10.1976310096
 20
26.2076454249
 11
10.3875819559
 21
26.2076454249
  0
LINE
  5
2AB
100
AcDbEntity
  8
___SYMBOL
100
AcDbLine
 62
2
  6
CONTINUOUS
 10
10.072807576
 20
26.5438771184
 11
10.125147328
 21
26.5438771184
  0
ARC
  5
2AC
100
AcDbEntity
  8
___SYMBOL
100
AcDbCircle
 62
2
  6
CONTINUOUS
 10
10.1287373575
 20
26.5973685198
 40
0.0536117369
100
AcDbArc
 50
266.1604009902
 51
89.9998910512
  0
LINE
  5
2AD
100
AcDbEntity
  8
___SYMBOL
100
AcDbLine
 62
2
  6
CONTINUOUS
 10
10.1287374594
 20
26.6509802567
 11
10.072807576
 21
26.6509802567
  0
LINE
  5
2AE
100
AcDbEntity
  8
___SYMBOL
100
AcDbLine
 62
2
  6
CONTINUOUS
 10
10.072807576
 20
26.6509802567
 11
10.072807576
 21
26.5438771184
  0
SOLID
  5
2AF
100
AcDbEntity
  8
___SYMBOL
100
AcDbTrace
 62
2
  6
CONTINUOUS
 10
10.155699457
 20
26.7935662007
 11
10.2026324822
 21
26.787155952
 12
9.9221517481
 22
26.7935590951
 13
9.9221517481
 23
26.7935590951
  0
SOLID
  5
2B0
100
AcDbEntity
  8
___SYMBOL
100
AcDbTrace
 62
2
  6
CONTINUOUS
 10
10.072807576
 20
26.6509802567
 11
10.3267473261
 21
26.6556095924
 12
10.1287374594
 22
26.6509802567
 13
10.1287374594
 23
26.6509802567
  0
SOLID
  5
2B1
100
AcDbEntity
  8
___SYMBOL
100
AcDbTrace
 62
2
  6
CONTINUOUS
 10
10.1287374594
 20
26.6509802567
 11
10.3267473261
 21
26.6556095924
 12
10.1524600419
 22
26.6454460881
 13
10.1524600419
 23
26.6454460881
  0
SOLID
  5
2B2
100
AcDbEntity
  8
___SYMBOL
100
AcDbTrace
 62
2
  6
CONTINUOUS
 10
10.1524600419
 20
26.6454460881
 11
10.3267473261
 21
26.6556095924
 12
10.1712850302
 22
26.6299862126
 13
10.1712850302
 23
26.6299862126
  0
SOLID
  5
2B3
100
AcDbEntity
  8
___SYMBOL
100
AcDbTrace
 62
2
  6
CONTINUOUS
 10
10.3267473261
 20
26.6556095924
 11
10.3304205726
 21
26.6083834619
 12
10.1712850302
 22
26.6299862126
 13
10.1712850302
 23
26.6299862126
  0
SOLID
  5
2B4
100
AcDbEntity
  8
___SYMBOL
100
AcDbTrace
 62
2
  6
CONTINUOUS
 10
10.1813259691
 20
26.6077923512
 11
10.1712850302
 21
26.6299862126
 12
10.3304205726
 22
26.6083834619
 13
10.3304205726
 23
26.6083834619
  0
SOLID
  5
2B5
100
AcDbEntity
  8
___SYMBOL
100
AcDbTrace
 62
2
  6
CONTINUOUS
 10
10.1813259691
 20
26.6077923512
 11
10.3304205726
 21
26.6083834619
 12
10.1805098874
 22
26.5834464696
 13
10.1805098874
 23
26.5834464696
  0
SOLID
  5
2B6
100
AcDbEntity
  8
___SYMBOL
100
AcDbTrace
 62
2
  6
CONTINUOUS
 10
10.1805098874
 20
26.5834464696
 11
10.3304205726
 21
26.6083834619
 12
10.1690052667
 22
26.5619748222
 13
10.1690052667
 23
26.5619748222
  0
SOLID
  5
2B7
100
AcDbEntity
  8
___SYMBOL
100
AcDbTrace
 62
2
  6
CONTINUOUS
 10
10.3304205726
 20
26.6083834619
 11
10.3212949687
 21
26.5619020302
 12
10.1690052667
 22
26.5619748222
 13
10.1690052667
 23
26.5619748222
  0
SOLID
  5
2B8
100
AcDbEntity
  8
___SYMBOL
100
AcDbTrace
 62
2
  6
CONTINUOUS
 10
10.1491872581
 20
26.5478102722
 11
10.1690052667
 21
26.5619748222
 12
10.3212949687
 22
26.5619020302
 13
10.3212949687
 23
26.5619020302
  0
SOLID
  5
2B9
100
AcDbEntity
  8
___SYMBOL
100
AcDbTrace
 62
2
  6
CONTINUOUS
 10
10.1491872581
 20
26.5478102722
 11
10.3212949687
 21
26.5619020302
 12
10.125147328
 22
26.5438771184
 13
10.125147328
 23
26.5438771184
  0
SOLID
  5
2BA
100
AcDbEntity
  8
___SYMBOL
100
AcDbTrace
 62
2
  6
CONTINUOUS
 10
10.3212949687
 20
26.5619020302
 11
10.3000389922
 21
26.5195702028
 12
10.125147328
 22
26.5438771184
 13
10.125147328
 23
26.5438771184
  0
SOLID
  5
2BB
100
AcDbEntity
  8
___SYMBOL
100
AcDbTrace
 62
2
  6
CONTINUOUS
 10
10.2281387073
 20
26.4592279751
 11
10.072807576
 21
26.4046018027
 12
10.2682097079
 22
26.4844889143
 13
10.2682097079
 23
26.4844889143
  0
SOLID
  5
2BC
100
AcDbEntity
  8
___SYMBOL
100
AcDbTrace
 62
2
  6
CONTINUOUS
 10
10.2682097079
 20
26.4844889143
 11
10.072807576
 21
26.4046018027
 12
10.3000389922
 22
26.5195702028
 13
10.3000389922
 23
26.5195702028
  0
SOLID
  5
2BD
100
AcDbEntity
  8
___SYMBOL
100
AcDbTrace
 62
2
  6
CONTINUOUS
 10
10.3000389922
 20
26.5195702028
 11
10.072807576
 21
26.4046018027
 12
10.125147328
 22
26.5438771184
 13
10.125147328
 23
26.5438771184
  0
SOLID
  5
2BE
100
AcDbEntity
  8
___SYMBOL
100
AcDbTrace
 62
2
  6
CONTINUOUS
 10
10.072807576
 20
26.4046018027
 11
9.9221517481
 21
26.2076454249
 12
10.125147328
 22
26.5438771184
 13
10.125147328
 23
26.5438771184
  0
SOLID
  5
2BF
100
AcDbEntity
  8
___SYMBOL
100
AcDbTrace
 62
2
  6
CONTINUOUS
 10
10.125147328
 20
26.5438771184
 11
9.9221517481
 21
26.2076454249
 12
10.072807576
 22
26.5438771184
 13
10.072807576
 23
26.5438771184
  0
SOLID
  5
2C0
100
AcDbEntity
  8
___SYMBOL
100
AcDbTrace
 62
2
  6
CONTINUOUS
 10
10.072807576
 20
26.5438771184
 11
9.9221517481
 21
26.2076454249
 12
10.072807576
 22
26.6509802567
 13
10.072807576
 23
26.6509802567
  0
SOLID
  5
2C1
100
AcDbEntity
  8
___SYMBOL
100
AcDbTrace
 62
2
  6
CONTINUOUS
 10
10.3267473261
 20
26.6556095924
 11
10.072807576
 21
26.6509802567
 12
10.3105443054
 22
26.7001209647
 13
10.3105443054
 23
26.7001209647
  0
SOLID
  5
2C2
100
AcDbEntity
  8
___SYMBOL
100
AcDbTrace
 62
2
  6
CONTINUOUS
 10
10.3105443054
 20
26.7001209647
 11
10.072807576
 21
26.6509802567
 12
10.2829984309
 22
26.738656986
 13
10.2829984309
 23
26.738656986
  0
SOLID
  5
2C3
100
AcDbEntity
  8
___SYMBOL
100
AcDbTrace
 62
2
  6
CONTINUOUS
 10
10.2829984309
 20
26.738656986
 11
10.072807576
 21
26.6509802567
 12
10.2461275213
 22
26.7683947762
 13
10.2461275213
 23
26.7683947762
  0
SOLID
  5
2C4
100
AcDbEntity
  8
___SYMBOL
100
AcDbTrace
 62
2
  6
CONTINUOUS
 10
10.2461275213
 20
26.7683947762
 11
10.072807576
 21
26.6509802567
 12
10.2026324822
 22
26.787155952
 13
10.2026324822
 23
26.787155952
  0
SOLID
  5
2C5
100
AcDbEntity
  8
___SYMBOL
100
AcDbTrace
 62
2
  6
CONTINUOUS
 10
10.2026324822
 20
26.787155952
 11
10.072807576
 21
26.6509802567
 12
9.9221517481
 22
26.7935590951
 13
9.9221517481
 23
26.7935590951
  0
SOLID
  5
2C6
100
AcDbEntity
  8
___SYMBOL
100
AcDbTrace
 62
2
  6
CONTINUOUS
 10
9.9221517481
 20
26.2076454249
 11
9.9221517481
 21
26.7935590951
 12
10.072807576
 22
26.6509802567
 13
10.072807576
 23
26.6509802567
  0
SOLID
  5
2C7
100
AcDbEntity
  8
___SYMBOL
100
AcDbTrace
 62
2
  6
CONTINUOUS
 10
10.072807576
 20
26.4046018027
 11
10.072807576
 21
26.2076454249
 12
9.9221517481
 22
26.2076454249
 13
9.9221517481
 23
26.2076454249
  0
SOLID
  5
2C8
100
AcDbEntity
  8
___SYMBOL
100
AcDbTrace
 62
2
  6
CONTINUOUS
 10
10.072807576
 20
26.4046018027
 11
10.2281387073
 21
26.4592279751
 12
10.1976310096
 22
26.2076454249
 13
10.1976310096
 23
26.2076454249
  0
SOLID
  5
2C9
100
AcDbEntity
  8
___SYMBOL
100
AcDbTrace
 62
2
  6
CONTINUOUS
 10
10.2281387073
 20
26.4592279751
 11
10.3875819559
 21
26.2076454249
 12
10.1976310096
 22
26.2076454249
 13
10.1976310096
 23
26.2076454249
  0
CIRCLE
  5
2CA
100
AcDbEntity
  8
___SYMBOL
100
AcDbCircle
 62
2
  6
CONTINUOUS
 10
10.5283519355
 20
26.2076454249
 40
0.0653578744
  0
LINE
  5
2CB
100
AcDbEntity
  8
___SYMBOL
100
AcDbLine
 62
2
  6
CONTINUOUS
 10
10.5240639121
 20
26.2071076755
 11
10.555931926
 21
26.174804733
  0
LINE
  5
2CC
100
AcDbEntity
  8
___SYMBOL
100
AcDbLine
 62
2
  6
CONTINUOUS
 10
10.5124659355
 20
26.174804733
 11
10.5124659355
 21
26.2407709342
  0
LINE
  5
2CD
100
AcDbEntity
  8
___SYMBOL
100
AcDbLine
 62
2
  6
CONTINUOUS
 10
10.5124659355
 20
26.2407709342
 11
10.5367452694
 21
26.2407709342
  0
ARC
  5
2CE
100
AcDbEntity
  8
___SYMBOL
100
AcDbCircle
 62
2
  6
CONTINUOUS
 10
10.5367452694
 20
26.223939484
 40
0.0168314502
100
AcDbArc
 50
270.0
 51
90.0
  0
LINE
  5
2CF
100
AcDbEntity
  8
___SYMBOL
100
AcDbLine
 62
2
  6
CONTINUOUS
 10
10.5367452694
 20
26.2071076755
 11
10.5124659355
 21
26.2071076755
  0
MTEXT
  5
2D0
100
AcDbEntity
  8
___SYMBOL
100
AcDbMText
 62
2
  6
CONTINUOUS
  7
STANDARD
 71
1
 72
1
 10
7.6453835566
 20
25.9916458288
 30
0.0
 11
1.0
 21
0.0
 31
0.0
 44
0.9
  1
CUT-OUT TEMPLATE
 40
0.2500000089
 41
3.2000001138
  0
MTEXT
  5
2D1
100
AcDbEntity
  8
___SYMBOL
100
AcDbMText
 62
2
  6
CONTINUOUS
  7
STANDARD
 71
1
 72
1
 10
7.6453835566
 20
25.6166458154
 30
0.0
 11
1.0
 21
0.0
 31
0.0
 44
0.9
  1
UNDERCOUNTER SINK
 40
0.2500000089
 41
3.4000001209
  0
MTEXT
  5
2D2
100
AcDbEntity
  8
___SYMBOL
100
AcDbMText
 62
2
  6
CONTINUOUS
  7
STANDARD
 71
1
 72
1
 10
7.6453835566
 20
25.2416458021
 30
0.0
 11
1.0
 21
0.0
 31
0.0
 44
0.9
  1
PLANTILLA DE RECORTE
 40
0.2500000089
 41
4.0000001422
  0
MTEXT
  5
2D3
100
AcDbEntity
  8
___SYMBOL
100
AcDbMText
 62
2
  6
CONTINUOUS
  7
STANDARD
 71
1
 72
1
 10
7.6453835566
 20
24.8666457888
 30
0.0
 11
1.0
 21
0.0
 31
0.0
 44
0.9
  1
FREGADERO MONTADO DEBAJO
 40
0.2500000089
 41
4.8000001706
  0
MTEXT
  5
2D4
100
AcDbEntity
  8
___SYMBOL
100
AcDbMText
 62
2
  6
CONTINUOUS
  7
STANDARD
 71
1
 72
1
 10
7.6453835566
 20
24.4916457754
 30
0.0
 11
1.0
 21
0.0
 31
0.0
 44
0.9
  1
  DEL MOSTRADOR
 40
0.2500000089
 41
3.0000001066
  0
MTEXT
  5
2D5
100
AcDbEntity
  8
___SYMBOL
100
AcDbMText
 62
2
  6
CONTINUOUS
  7
STANDARD
 71
1
 72
1
 10
7.6453835566
 20
24.1166457621
 30
0.0
 11
1.0
 21
0.0
 31
0.0
 44
0.9
  1
PLAN DE DÉCOUPE
 40
0.2500000089
 41
3.0000001066
  0
MTEXT
  5
2D6
100
AcDbEntity
  8
___SYMBOL
100
AcDbMText
 62
2
  6
CONTINUOUS
  7
STANDARD
 71
1
 72
1
 10
7.6453835566
 20
23.7416457488
 30
0.0
 11
1.0
 21
0.0
 31
0.0
 44
0.9
  1
ÉVIER SOUS-COMPTOIR
 40
0.2500000089
 41
3.8000001351
  0
MTEXT
  5
2D7
100
AcDbEntity
  8
___SYMBOL
100
AcDbMText
 62
2
  6
CONTINUOUS
  7
STANDARD
 71
1
 72
1
 10
7.6453835566
 20
23.3666457354
 30
0.0
 11
1.0
 21
0.0
 31
0.0
 44
0.9
  1
PRODUCT NAME
 40
0.2500000089
 41
2.4000000853
  0
MTEXT
  5
2D8
100
AcDbEntity
  8
___SYMBOL
100
AcDbMText
 62
2
  6
CONTINUOUS
  7
STANDARD
 71
1
 72
1
 10
10.6453836633
 20
23.3666457354
 30
0.0
 11
1.0
 21
0.0
 31
0.0
 44
0.9
  1
6410
 40
0.2500000089
 41
0.8000000284
  0
MTEXT
  5
2D9
100
AcDbEntity
  8
___SYMBOL
100
AcDbMText
 62
2
  6
CONTINUOUS
  7
STANDARD
 71
1
 72
1
 10
11.4453836917
 20
23.3666457354
 30
0.0
 11
1.0
 21
0.0
 31
0.0
 44
0.9
  1
-**-
 40
0.2500000089
 41
0.8000000284
  0
MTEXT
  5
2DA
100
AcDbEntity
  8
___SYMBOL
100
AcDbMText
 62
2
  6
CONTINUOUS
  7
STANDARD
 71
1
 72
1
 10
12.2453837202
 20
23.3666457354
 30
0.0
 11
1.0
 21
0.0
 31
0.0
 44
0.9
  1
AA
 40
0.2500000089
 41
0.4000000142
  0
MTEXT
  5
2DB
100
AcDbEntity
  8
___SYMBOL
100
AcDbMText
 62
2
  6
CONTINUOUS
  7
STANDARD
 71
1
 72
1
 10
7.6531228723
 20
22.5066537806
 30
0.0
 11
1.0
 21
0.0
 31
0.0
 44
0.9
  1
2ND_PRODUCT_NAME
 40
0.2500000089
 41
3.2000001138
  0
MTEXT
  5
2DC
100
AcDbEntity
  8
___SYMBOL
100
AcDbMText
 62
2
  6
CONTINUOUS
  7
STANDARD
 71
1
 72
1
 10
11.4531230074
 20
22.5066537806
 30
0.0
 11
1.0
 21
0.0
 31
0.0
 44
0.9
  1
6411
 40
0.2500000089
 41
0.8000000284
  0
MTEXT
  5
2DD
100
AcDbEntity
  8
___SYMBOL
100
AcDbMText
 62
2
  6
CONTINUOUS
  7
STANDARD
 71
1
 72
1
 10
12.2531230358
 20
22.5066537806
 30
0.0
 11
1.0
 21
0.0
 31
0.0
 44
0.9
  1
-**-
 40
0.2500000089
 41
0.8000000284
  0
MTEXT
  5
2DE
100
AcDbEntity
  8
___SYMBOL
100
AcDbMText
 62
2
  6
CONTINUOUS
  7
STANDARD
 71
1
 72
1
 10
13.0531230642
 20
22.5066537806
 30
0.0
 11
1.0
 21
0.0
 31
0.0
 44
0.9
  1
AA
 40
0.2500000089
 41
0.4000000142
  0
ENDBLK
  5
2DF
100
AcDbEntity
  8
0
  6
BYBLOCK
 62
0
100
AcDbBlockEnd
  0
BLOCK
  5
2E0
100
AcDbEntity
  8
___SYMBOL
100
AcDbBlockBegin
 62
2
  6
CONTINUOUS
  2
WHEN_PLOTTING_TEMPLATE_N_BL5
 70
64
 10
26.2993815692
 20
14.8410471187
  3
WHEN_PLOTTING_TEMPLATE_N_BL5
  1

  0
MTEXT
  5
2E1
100
AcDbEntity
  8
___SYMBOL
100
AcDbMText
 62
2
  6
CONTINUOUS
  7
STANDARD
 71
1
 72
1
 10
22.9868813368
 20
16.2082347146
 30
0.0
 11
1.0
 21
0.0
 31
0.0
 44
0.9
  1
WHEN PLOTTING TEMPLATE FULL SIZE:
 40
0.156250011
 41
4.1250002894
  0
MTEXT
  5
2E2
100
AcDbEntity
  8
___SYMBOL
100
AcDbMText
 62
2
  6
CONTINUOUS
  7
STANDARD
 71
1
 72
1
 10
22.9868813368
 20
15.9738596982
 30
0.0
 11
1.0
 21
0.0
 31
0.0
 44
0.9
  1
Make sure horizontal and vertical dimensions
 40
0.156250011
 41
5.5000003859
  0
MTEXT
  5
2E3
100
AcDbEntity
  8
___SYMBOL
100
AcDbMText
 62
2
  6
CONTINUOUS
  7
STANDARD
 71
1
 72
1
 10
22.9868813368
 20
15.7394846818
 30
0.0
 11
1.0
 21
0.0
 31
0.0
 44
0.9
  1
match the dimensions labeled on the template.
 40
0.156250011
 41
5.6250003947
  0
MTEXT
  5
2E4
100
AcDbEntity
  8
___SYMBOL
100
AcDbMText
 62
2
  6
CONTINUOUS
  7
STANDARD
 71
1
 72
1
 10
22.9868813368
 20
15.2707346489
 30
0.0
 11
1.0
 21
0.0
 31
0.0
 44
0.9
  1
AL TRAZAR LA PLANTILLA A ESCALA,
 40
0.156250011
 41
4.0000002806
  0
MTEXT
  5
2E5
100
AcDbEntity
  8
___SYMBOL
100
AcDbMText
 62
2
  6
CONTINUOUS
  7
STANDARD
 71
1
 72
1
 10
22.9868813368
 20
15.0363596324
 30
0.0
 11
1.0
 21
0.0
 31
0.0
 44
0.9
  1
asegúrese de que las dimensiones horizontales
 40
0.156250011
 41
5.6250003947
  0
MTEXT
  5
2E6
100
AcDbEntity
  8
___SYMBOL
100
AcDbMText
 62
2
  6
CONTINUOUS
  7
STANDARD
 71
1
 72
1
 10
22.9868813368
 20
14.801984616
 30
0.0
 11
1.0
 21
0.0
 31
0.0
 44
0.9
  1
y verticales concuerden con las dimensiones marcadas
 40
0.156250011
 41
6.500000456
  0
MTEXT
  5
2E7
100
AcDbEntity
  8
___SYMBOL
100
AcDbMText
 62
2
  6
CONTINUOUS
  7
STANDARD
 71
1
 72
1
 10
22.9868813368
 20
14.5676095995
 30
0.0
 11
1.0
 21
0.0
 31
0.0
 44
0.9
  1
en la plantilla.
 40
0.156250011
 41
2.0000001403
  0
MTEXT
  5
2E8
100
AcDbEntity
  8
___SYMBOL
100
AcDbMText
 62
2
  6
CONTINUOUS
  7
STANDARD
 71
1
 72
1
 10
22.9868813368
 20
14.0988595667
 30
0.0
 11
1.0
 21
0.0
 31
0.0
 44
0.9
  1
AU MOMENT DE TRACER LA DÉCOUPE À L'ÉCHELLE,
 40
0.156250011
 41
5.3750003771
  0
MTEXT
  5
2E9
100
AcDbEntity
  8
___SYMBOL
100
AcDbMText
 62
2
  6
CONTINUOUS
  7
STANDARD
 71
1
 72
1
 10
22.9868813368
 20
13.8644845502
 30
0.0
 11
1.0
 21
0.0
 31
0.0
 44
0.9
  1
Assurez vos que les dimensions horizotales et
 40
0.156250011
 41
5.6250003947
  0
MTEXT
  5
2EA
100
AcDbEntity
  8
___SYMBOL
100
AcDbMText
 62
2
  6
CONTINUOUS
  7
STANDARD
 71
1
 72
1
 10
22.9868813368
 20
13.6301095338
 30
0.0
 11
1.0
 21
0.0
 31
0.0
 44
0.9
  1
verticales correspondent avec les dimensions du plan.
 40
0.156250011
 41
6.6250004648
  0
ENDBLK
  5
2EB
100
AcDbEntity
  8
0
  6
BYBLOCK
 62
0
100
AcDbBlockEnd
  0
BLOCK
  5
2EC
100
AcDbEntity
  8
___SYMBOL
100
AcDbBlockBegin
 62
2
  6
CONTINUOUS
  2
TEMPLATE_NUMBER_BL4
 70
64
 10
5.7188780381
 20
8.5004905878
  3
TEMPLATE_NUMBER_BL4
  1

  0
MTEXT
  5
2ED
100
AcDbEntity
  8
___SYMBOL
100
AcDbMText
 62
2
  6
CONTINUOUS
  7
STANDARD
 71
1
 72
1
 10
5.4086781356
 20
8.5357405767
 30
0.0
 11
1.0
 21
0.0
 31
0.0
 44
0.9
  1
1106715-7-A
 40
0.0704999778
 41
0.620399805
  0
ENDBLK
  5
2EE
100
AcDbEntity
  8
0
  6
BYBLOCK
 62
0
100
AcDbBlockEnd
  0
BLOCK
  5
2EF
100
AcDbEntity
  8
___SYMBOL
100
AcDbBlockBegin
 62
2
  6
CONTINUOUS
  2
TEMPLATE_NUMBER_BL3
 70
64
 10
5.6846422363
 20
10.4330995778
  3
TEMPLATE_NUMBER_BL3
  1

  0
MTEXT
  5
2F0
100
AcDbEntity
  8
___SYMBOL
100
AcDbMText
 62
2
  6
CONTINUOUS
  7
STANDARD
 71
1
 72
1
 10
5.3744423338
 20
10.4683495667
 30
0.0
 11
1.0
 21
0.0
 31
0.0
 44
0.9
  1
1106715-7-A
 40
0.0704999778
 41
0.620399805
  0
ENDBLK
  5
2F1
100
AcDbEntity
  8
0
  6
BYBLOCK
 62
0
100
AcDbBlockEnd
  0
BLOCK
  5
2F2
100
AcDbEntity
  8
___SYMBOL
100
AcDbBlockBegin
 62
2
  6
CONTINUOUS
  2
PACKAGING_UPC_BL2
 70
64
 10
10.3708993928
 20
14.9633306825
  3
PACKAGING_UPC_BL2
  1

  0
LINE
  5
2F3
100
AcDbEntity
  8
___SYMBOL
100
AcDbLine
 62
7
  6
CONTINUOUS
 10
10.8257034851
 20
15.3344389854
 11
8.6406610064
 21
15.3344389854
  0
LINE
  5
2F4
100
AcDbEntity
  8
___SYMBOL
100
AcDbLine
 62
7
  6
CONTINUOUS
 10
8.6406610064
 20
15.3344389854
 11
8.6406610064
 21
16.3274689757
  0
LINE
  5
2F5
100
AcDbEntity
  8
___SYMBOL
100
AcDbLine
 62
7
  6
CONTINUOUS
 10
8.6406610064
 20
16.3274689757
 11
10.8257034851
 21
16.3274689757
  0
LINE
  5
2F6
100
AcDbEntity
  8
___SYMBOL
100
AcDbLine
 62
7
  6
CONTINUOUS
 10
10.8257034851
 20
16.3274689757
 11
10.8257034851
 21
15.3344389854
  0
LINE
  5
2F7
100
AcDbEntity
  8
___SYMBOL
100
AcDbLine
 62
7
  6
CONTINUOUS
 10
8.6072935067
 20
16.3599289753
 11
10.8598584847
 21
16.3599289753
  0
LINE
  5
2F8
100
AcDbEntity
  8
___SYMBOL
100
AcDbLine
 62
7
  6
CONTINUOUS
 10
10.8598584847
 20
16.3599289753
 11
10.8598584847
 21
15.267021486
  0
LINE
  5
2F9
100
AcDbEntity
  8
___SYMBOL
100
AcDbLine
 62
7
  6
CONTINUOUS
 10
10.8598584847
 20
15.267021486
 11
8.6072935067
 21
15.267021486
  0
LINE
  5
2FA
100
AcDbEntity
  8
___SYMBOL
100
AcDbLine
 62
7
  6
CONTINUOUS
 10
8.6072935067
 20
15.267021486
 11
8.6072935067
 21
16.3599289753
  0
LINE
  5
2FB
100
AcDbEntity
  8
___SYMBOL
100
AcDbLine
 62
7
  6
CONTINUOUS
 10
10.6205184871
 20
15.7661089811
 11
10.6205184871
 21
15.6444739823
  0
LINE
  5
2FC
100
AcDbEntity
  8
___SYMBOL
100
AcDbLine
 62
7
  6
CONTINUOUS
 10
10.6205184871
 20
15.6444739823
 11
10.2775659904
 21
15.6444739823
  0
LINE
  5
2FD
100
AcDbEntity
  8
___SYMBOL
100
AcDbLine
 62
7
  6
CONTINUOUS
 10
10.2775659904
 20
15.6444739823
 11
10.2775659904
 21
15.7661089811
  0
LINE
  5
2FE
100
AcDbEntity
  8
___SYMBOL
100
AcDbLine
 62
7
  6
CONTINUOUS
 10
10.2775659904
 20
15.7661089811
 11
10.6205184871
 21
15.7661089811
  0
SOLID
  5
2FF
100
AcDbEntity
  8
___SYMBOL
100
AcDbTrace
 62
7
  6
CONTINUOUS
 10
10.2775659904
 20
15.6444739733
 11
10.2775659904
 21
15.7661089735
 12
10.6205184871
 22
15.7661089735
 13
10.6205184871
 23
15.7661089735
  0
SOLID
  5
300
100
AcDbEntity
  8
___SYMBOL
100
AcDbTrace
 62
7
  6
CONTINUOUS
 10
10.6205184871
 20
15.7661089735
 11
10.6205184871
 21
15.6444739733
 12
10.2775659904
 22
15.6444739733
 13
10.2775659904
 23
15.6444739733
  0
LINE
  5
301
100
AcDbEntity
  8
___SYMBOL
100
AcDbLine
 62
7
  6
CONTINUOUS
 10
9.5450634976
 20
15.7661089811
 11
9.5450634976
 21
15.6444739823
  0
LINE
  5
302
100
AcDbEntity
  8
___SYMBOL
100
AcDbLine
 62
7
  6
CONTINUOUS
 10
9.5450634976
 20
15.6444739823
 11
8.6893585059
 21
15.6444739823
  0
LINE
  5
303
100
AcDbEntity
  8
___SYMBOL
100
AcDbLine
 62
7
  6
CONTINUOUS
 10
8.6893585059
 20
15.6444739823
 11
8.6893585059
 21
15.7661089811
  0
LINE
  5
304
100
AcDbEntity
  8
___SYMBOL
100
AcDbLine
 62
7
  6
CONTINUOUS
 10
8.6893585059
 20
15.7661089811
 11
9.5450634976
 21
15.7661089811
  0
SOLID
  5
305
100
AcDbEntity
  8
___SYMBOL
100
AcDbTrace
 62
7
  6
CONTINUOUS
 10
8.6893585059
 20
15.6444739733
 11
8.6893585059
 21
15.7661089735
 12
9.5450634976
 22
15.7661089735
 13
9.5450634976
 23
15.7661089735
  0
SOLID
  5
306
100
AcDbEntity
  8
___SYMBOL
100
AcDbTrace
 62
7
  6
CONTINUOUS
 10
9.5450634976
 20
15.7661089735
 11
9.5450634976
 21
15.6444739733
 12
8.6893585059
 22
15.6444739733
 13
8.6893585059
 23
15.6444739733
  0
LINE
  5
307
100
AcDbEntity
  8
___SYMBOL
100
AcDbLine
 62
7
  6
CONTINUOUS
 10
9.5450634976
 20
15.3928414848
 11
9.5450634976
 21
15.3578614851
  0
LINE
  5
308
100
AcDbEntity
  8
___SYMBOL
100
AcDbLine
 62
7
  6
CONTINUOUS
 10
9.5450634976
 20
15.3578614851
 11
8.6893585059
 21
15.3578614851
  0
LINE
  5
309
100
AcDbEntity
  8
___SYMBOL
100
AcDbLine
 62
7
  6
CONTINUOUS
 10
8.6893585059
 20
15.3578614851
 11
8.6893585059
 21
15.3928414848
  0
LINE
  5
30A
100
AcDbEntity
  8
___SYMBOL
100
AcDbLine
 62
7
  6
CONTINUOUS
 10
8.6893585059
 20
15.3928414848
 11
9.5450634976
 21
15.3928414848
  0
SOLID
  5
30B
100
AcDbEntity
  8
___SYMBOL
100
AcDbTrace
 62
7
  6
CONTINUOUS
 10
8.6893585059
 20
15.3578614867
 11
8.6893585059
 21
15.3928414688
 12
9.5450634976
 22
15.3928414688
 13
9.5450634976
 23
15.3928414688
  0
SOLID
  5
30C
100
AcDbEntity
  8
___SYMBOL
100
AcDbTrace
 62
7
  6
CONTINUOUS
 10
9.5450634976
 20
15.3928414688
 11
9.5450634976
 21
15.3578614867
 12
8.6893585059
 22
15.3578614867
 13
8.6893585059
 23
15.3578614867
  0
ELLIPSE
  5
30D
100
AcDbEntity
  8
___SYMBOL
100
AcDbEllipse
 62
7
  6
CONTINUOUS
 10
9.4299122487
 20
15.5245144835
 30
0.0
 11
0.0665781628
 21
0.0483683571
 31
0.0
 40
0.999973
 41
1.1735611666
 42
7.4430683942
  0
LINE
  5
30E
100
AcDbEntity
  8
___SYMBOL
100
AcDbLine
 62
7
  6
CONTINUOUS
 10
9.5917134971
 20
16.2993439759
 11
9.5917134971
 21
16.2376939765
  0
LINE
  5
30F
100
AcDbEntity
  8
___SYMBOL
100
AcDbLine
 62
7
  6
CONTINUOUS
 10
9.5917134971
 20
16.2376939765
 11
8.7360085055
 21
16.2376939765
  0
LINE
  5
310
100
AcDbEntity
  8
___SYMBOL
100
AcDbLine
 62
7
  6
CONTINUOUS
 10
8.7360085055
 20
16.2376939765
 11
8.7360085055
 21
16.2993439759
  0
LINE
  5
311
100
AcDbEntity
  8
___SYMBOL
100
AcDbLine
 62
7
  6
CONTINUOUS
 10
8.7360085055
 20
16.2993439759
 11
9.5917134971
 21
16.2993439759
  0
SOLID
  5
312
100
AcDbEntity
  8
___SYMBOL
100
AcDbTrace
 62
7
  6
CONTINUOUS
 10
8.7360085055
 20
16.2376939724
 11
8.7360085055
 21
16.2993439625
 12
9.5917134971
 22
16.2993439625
 13
9.5917134971
 23
16.2993439625
  0
SOLID
  5
313
100
AcDbEntity
  8
___SYMBOL
100
AcDbTrace
 62
7
  6
CONTINUOUS
 10
9.5917134971
 20
16.2993439625
 11
9.5917134971
 21
16.2376939724
 12
8.7360085055
 22
16.2376939724
 13
8.7360085055
 23
16.2376939724
  0
LINE
  5
314
100
AcDbEntity
  8
___SYMBOL
100
AcDbLine
 62
7
  6
CONTINUOUS
 10
9.5917134971
 20
16.1993614769
 11
9.5917134971
 21
16.1377114775
  0
LINE
  5
315
100
AcDbEntity
  8
___SYMBOL
100
AcDbLine
 62
7
  6
CONTINUOUS
 10
9.5917134971
 20
16.1377114775
 11
8.7360085055
 21
16.1377114775
  0
LINE
  5
316
100
AcDbEntity
  8
___SYMBOL
100
AcDbLine
 62
7
  6
CONTINUOUS
 10
8.7360085055
 20
16.1377114775
 11
8.7360085055
 21
16.1993614769
  0
LINE
  5
317
100
AcDbEntity
  8
___SYMBOL
100
AcDbLine
 62
7
  6
CONTINUOUS
 10
8.7360085055
 20
16.1993614769
 11
9.5917134971
 21
16.1993614769
  0
SOLID
  5
318
100
AcDbEntity
  8
___SYMBOL
100
AcDbTrace
 62
7
  6
CONTINUOUS
 10
8.7360085055
 20
16.1377114642
 11
8.7360085055
 21
16.1993614883
 12
9.5917134971
 22
16.1993614883
 13
9.5917134971
 23
16.1993614883
  0
SOLID
  5
319
100
AcDbEntity
  8
___SYMBOL
100
AcDbTrace
 62
7
  6
CONTINUOUS
 10
9.5917134971
 20
16.1993614883
 11
9.5917134971
 21
16.1377114642
 12
8.7360085055
 22
16.1377114642
 13
8.7360085055
 23
16.1377114642
  0
LINE
  5
31A
100
AcDbEntity
  8
___SYMBOL
100
AcDbLine
 62
7
  6
CONTINUOUS
 10
9.5917134971
 20
16.0993789779
 11
9.5917134971
 21
16.0377364785
  0
LINE
  5
31B
100
AcDbEntity
  8
___SYMBOL
100
AcDbLine
 62
7
  6
CONTINUOUS
 10
9.5917134971
 20
16.0377364785
 11
8.7360085055
 21
16.0377364785
  0
LINE
  5
31C
100
AcDbEntity
  8
___SYMBOL
100
AcDbLine
 62
7
  6
CONTINUOUS
 10
8.7360085055
 20
16.0377364785
 11
8.7360085055
 21
16.0993789779
  0
LINE
  5
31D
100
AcDbEntity
  8
___SYMBOL
100
AcDbLine
 62
7
  6
CONTINUOUS
 10
8.7360085055
 20
16.0993789779
 11
9.5917134971
 21
16.0993789779
  0
SOLID
  5
31E
100
AcDbEntity
  8
___SYMBOL
100
AcDbTrace
 62
7
  6
CONTINUOUS
 10
8.7360085055
 20
16.03773647
 11
8.7360085055
 21
16.0993789801
 12
9.5917134971
 22
16.0993789801
 13
9.5917134971
 23
16.0993789801
  0
SOLID
  5
31F
100
AcDbEntity
  8
___SYMBOL
100
AcDbTrace
 62
7
  6
CONTINUOUS
 10
9.5917134971
 20
16.0993789801
 11
9.5917134971
 21
16.03773647
 12
8.7360085055
 22
16.03773647
 13
8.7360085055
 23
16.03773647
  0
LINE
  5
320
100
AcDbEntity
  8
___SYMBOL
100
AcDbLine
 62
7
  6
CONTINUOUS
 10
9.5917134971
 20
15.9993964789
 11
9.5917134971
 21
15.9377539795
  0
LINE
  5
321
100
AcDbEntity
  8
___SYMBOL
100
AcDbLine
 62
7
  6
CONTINUOUS
 10
9.5917134971
 20
15.9377539795
 11
8.7360085055
 21
15.9377539795
  0
LINE
  5
322
100
AcDbEntity
  8
___SYMBOL
100
AcDbLine
 62
7
  6
CONTINUOUS
 10
8.7360085055
 20
15.9377539795
 11
8.7360085055
 21
15.9993964789
  0
LINE
  5
323
100
AcDbEntity
  8
___SYMBOL
100
AcDbLine
 62
7
  6
CONTINUOUS
 10
8.7360085055
 20
15.9993964789
 11
9.5917134971
 21
15.9993964789
  0
SOLID
  5
324
100
AcDbEntity
  8
___SYMBOL
100
AcDbTrace
 62
7
  6
CONTINUOUS
 10
8.7360085055
 20
15.9377539958
 11
8.7360085055
 21
15.9993964719
 12
9.5917134971
 22
15.9993964719
 13
9.5917134971
 23
15.9993964719
  0
SOLID
  5
325
100
AcDbEntity
  8
___SYMBOL
100
AcDbTrace
 62
7
  6
CONTINUOUS
 10
9.5917134971
 20
15.9993964719
 11
9.5917134971
 21
15.9377539958
 12
8.7360085055
 22
15.9377539958
 13
8.7360085055
 23
15.9377539958
  0
LINE
  5
326
100
AcDbEntity
  8
___SYMBOL
100
AcDbLine
 62
7
  6
CONTINUOUS
 10
9.5917134971
 20
15.8727589801
 11
9.5917134971
 21
15.8111089807
  0
LINE
  5
327
100
AcDbEntity
  8
___SYMBOL
100
AcDbLine
 62
7
  6
CONTINUOUS
 10
9.5917134971
 20
15.8111089807
 11
8.7360085055
 21
15.8111089807
  0
LINE
  5
328
100
AcDbEntity
  8
___SYMBOL
100
AcDbLine
 62
7
  6
CONTINUOUS
 10
8.7360085055
 20
15.8111089807
 11
8.7360085055
 21
15.8727589801
  0
LINE
  5
329
100
AcDbEntity
  8
___SYMBOL
100
AcDbLine
 62
7
  6
CONTINUOUS
 10
8.7360085055
 20
15.8727589801
 11
9.5917134971
 21
15.8727589801
  0
SOLID
  5
32A
100
AcDbEntity
  8
___SYMBOL
100
AcDbTrace
 62
7
  6
CONTINUOUS
 10
8.7360085055
 20
15.8111089936
 11
8.7360085055
 21
15.8727589837
 12
9.5917134971
 22
15.8727589837
 13
9.5917134971
 23
15.8727589837
  0
SOLID
  5
32B
100
AcDbEntity
  8
___SYMBOL
100
AcDbTrace
 62
7
  6
CONTINUOUS
 10
9.5917134971
 20
15.8727589837
 11
9.5917134971
 21
15.8111089936
 12
8.7360085055
 22
15.8111089936
 13
8.7360085055
 23
15.8111089936
  0
MTEXT
  5
32C
100
AcDbEntity
  8
___SYMBOL
100
AcDbMText
 62
2
  6
CONTINUOUS
  7
TEXTSTYLE_3
 71
1
 72
1
 10
8.8368985045
 20
15.5496927333
 30
0.0
 11
1.0
 21
0.0
 31
0.0
 44
0.9
  1
XXXXX-XX-X-XX
 40
0.0593587494
 41
0.6373132438
  0
MTEXT
  5
32D
100
AcDbEntity
  8
___SYMBOL
100
AcDbMText
 62
2
  6
CONTINUOUS
  7
TEXTSTYLE_4
 71
1
 72
1
 10
10.4708784885
 20
15.4056882347
 30
0.0
 11
1.0
 21
0.0
 31
0.0
 44
0.9
  1
xxxxxx-xx
 40
0.0445192496
 41
0.2700622474
  0
MTEXT
  5
32E
100
AcDbEntity
  8
___SYMBOL
100
AcDbMText
 62
2
  6
CONTINUOUS
  7
STANDARD
 71
1
 72
1
 10
7.706554207
 20
17.1902126541
 30
0.0
 11
1.0
 21
0.0
 31
0.0
 44
0.9
  1
PACKAGING/UPC LABEL ON BOX
 40
0.1562500055
 41
3.2500001149
  0
MTEXT
  5
32F
100
AcDbEntity
  8
___SYMBOL
100
AcDbMText
 62
2
  6
CONTINUOUS
  7
STANDARD
 71
1
 72
1
 10
7.706554207
 20
16.9558376459
 30
0.0
 11
1.0
 21
0.0
 31
0.0
 44
0.9
  1
ETIQUETA DE EMBALAJE/UPC EN LA CAJA
 40
0.1562500055
 41
4.3750001547
  0
MTEXT
  5
330
100
AcDbEntity
  8
___SYMBOL
100
AcDbMText
 62
2
  6
CONTINUOUS
  7
STANDARD
 71
1
 72
1
 10
7.706554207
 20
16.7214626392
 30
0.0
 11
1.0
 21
0.0
 31
0.0
 44
0.9
  1
ETIQUETTE D'EMBALLAGE/UPC SUR LA BOÎTE
 40
0.1562500003
 41
4.75
  0
MTEXT
  5
331
100
AcDbEntity
  8
___SYMBOL
100
AcDbMText
 62
2
  6
CONTINUOUS
  7
STANDARD
 71
1
 72
1
 10
7.6833992978
 20
15.0020737343
 30
0.0
 11
1.0
 21
0.0
 31
0.0
 44
0.9
  1
The template and the label suffixes circled
 40
0.1562500055
 41
5.3750001901
  0
MTEXT
  5
332
100
AcDbEntity
  8
___SYMBOL
100
AcDbMText
 62
2
  6
CONTINUOUS
  7
STANDARD
 71
1
 72
1
 10
7.6833992978
 20
14.767698726
 30
0.0
 11
1.0
 21
0.0
 31
0.0
 44
0.9
  1
must match for proper cut-out.
 40
0.1562500055
 41
3.7500001326
  0
MTEXT
  5
333
100
AcDbEntity
  8
___SYMBOL
100
AcDbMText
 62
2
  6
CONTINUOUS
  7
STANDARD
 71
1
 72
1
 10
7.6833992978
 20
14.2989487177
 30
0.0
 11
1.0
 21
0.0
 31
0.0
 44
0.9
  1
A fin de realizar el corte apropiado, la
 40
0.1562500055
 41
5.0000001768
  0
MTEXT
  5
334
100
AcDbEntity
  8
___SYMBOL
100
AcDbMText
 62
2
  6
CONTINUOUS
  7
STANDARD
 71
1
 72
1
 10
7.6833992978
 20
14.0645737111
 30
0.0
 11
1.0
 21
0.0
 31
0.0
 44
0.9
  1
plantilla y los sufijos de la etiqueta
 40
0.1562500003
 41
4.75
  0
MTEXT
  5
335
100
AcDbEntity
  8
___SYMBOL
100
AcDbMText
 62
2
  6
CONTINUOUS
  7
STANDARD
 71
1
 72
1
 10
7.6833992978
 20
13.8301987111
 30
0.0
 11
1.0
 21
0.0
 31
0.0
 44
0.9
  1
demarcados deben concordar.
 40
0.1562500003
 41
3.375
  0
MTEXT
  5
336
100
AcDbEntity
  8
___SYMBOL
100
AcDbMText
 62
2
  6
CONTINUOUS
  7
STANDARD
 71
1
 72
1
 10
7.6833992978
 20
13.3614487111
 30
0.0
 11
1.0
 21
0.0
 31
0.0
 44
0.9
  1
Afin de découper l'ouverture correctement,
 40
0.1562500003
 41
5.25
  0
MTEXT
  5
337
100
AcDbEntity
  8
___SYMBOL
100
AcDbMText
 62
2
  6
CONTINUOUS
  7
STANDARD
 71
1
 72
1
 10
7.6833992978
 20
13.1270737111
 30
0.0
 11
1.0
 21
0.0
 31
0.0
 44
0.9
  1
le gabarit et les suffixes encerclés
 40
0.1562500003
 41
4.5
  0
MTEXT
  5
338
100
AcDbEntity
  8
___SYMBOL
100
AcDbMText
 62
2
  6
CONTINUOUS
  7
STANDARD
 71
1
 72
1
 10
7.6833992978
 20
12.8926987111
 30
0.0
 11
1.0
 21
0.0
 31
0.0
 44
0.9
  1
doivent correspondre
 40
0.1562500003
 41
2.5
  0
ENDBLK
  5
339
100
AcDbEntity
  8
0
  6
BYBLOCK
 62
0
100
AcDbBlockEnd
  0
BLOCK
  5
33A
100
AcDbEntity
  8
___SYMBOL
100
AcDbBlockBegin
 62
2
  6
CONTINUOUS
  2
COPYRIGHT_YEAR_BL1
 70
64
 10
31.7311996849
 20
10.6378965454
  3
COPYRIGHT_YEAR_BL1
  1

  0
CIRCLE
  5
33B
100
AcDbEntity
  8
___SYMBOL
100
AcDbCircle
 62
7
  6
CONTINUOUS
 10
31.291718865
 20
10.640344162
 40
0.0328258835
  0
MTEXT
  5
33C
100
AcDbEntity
  8
___SYMBOL
100
AcDbMText
 62
2
  6
CONTINUOUS
  7
STANDARD
 71
1
 72
1
 10
31.3575093814
 20
10.673122796
 30
0.0
 11
1.0
 21
0.0
 31
0.0
 44
0.9
  1
XXXX
 40
0.0704997506
 41
0.2255992019
  0
MTEXT
  5
33D
100
AcDbEntity
  8
___SYMBOL
100
AcDbMText
 62
2
  6
CONTINUOUS
  7
STANDARD
 71
1
 72
1
 10
31.5831085833
 20
10.673122796
 30
0.0
 11
1.0
 21
0.0
 31
0.0
 44
0.9
  1
 KOHLER CO.
 40
0.0704997506
 41
0.6203978051
  0
MTEXT
  5
33E
100
AcDbEntity
  8
___SYMBOL
100
AcDbMText
 62
2
  6
CONTINUOUS
  7
TEXTSTYLE_2
 71
1
 72
1
 10
31.2774839155
 20
10.6612953376
 30
0.0
 11
1.0
 21
0.0
 31
0.0
 44
0.9
  1
C
 40
0.0421873503
 41
0.0421873503
  0
ENDBLK
  5
33F
100
AcDbEntity
  8
0
  6
BYBLOCK
 62
0
100
AcDbBlockEnd
  0
BLOCK
  5
340
100
AcDbEntity
  8
___SYMBOL
100
AcDbBlockBegin
 62
2
  6
CONTINUOUS
  2
REVEAL-NOREVEAL_BL0
 70
64
 10
28.6016196042
 20
21.0211982323
  3
REVEAL-NOREVEAL_BL0
  1

  0
LINE
  5
341
100
AcDbEntity
  8
___SYMBOL
100
AcDbLine
 62
7
  6
CONTINUOUS
 10
29.4729182263
 20
20.3486982323
 11
29.4729182263
 21
21.0496382323
  0
LWPOLYLINE
  5
342
100
AcDbEntity
  8
___SYMBOL
100
AcDbPolyline
 62
7
  6
CONTINUOUS
 90
50
 70
0
 10
29.4729209821
 20
21.0496373648
 10
29.4728576346
 20
21.0537771719
 10
29.4726683107
 20
21.0579104951
 10
29.4723540536
 20
21.0620331205
 10
29.4719159061
 20
21.0661408341
 10
29.4713549114
 20
21.0702294221
 10
29.4706721125
 20
21.0742946706
 10
29.4698685525
 20
21.0783323657
 10
29.4689452744
 20
21.0823382933
 10
29.4679033213
 20
21.0863082397
 10
29.4667437362
 20
21.0902379909
 10
29.4654675622
 20
21.094123333
 10
29.4640758424
 20
21.0979600521
 10
29.4625696197
 20
21.1017439342
 10
29.4609499373
 20
21.1054707655
 10
29.4592178381
 20
21.1091363321
 10
29.4573743653
 20
21.11273642
 10
29.4554208661
 20
21.1162670005
 10
29.453359905
 20
21.1197247857
 10
29.4511943508
 20
21.1231066727
 10
29.448927072
 20
21.1264095589
 10
29.4465609374
 20
21.1296303414
 10
29.4440988158
 20
21.1327659174
 10
29.4415435758
 20
21.1358131843
 10
29.4388980861
 20
21.1387690392
 10
29.4361652154
 20
21.1416303794
 10
29.4333478325
 20
21.144394102
 10
29.430448806
 20
21.1470571044
 10
29.4274710047
 20
21.1496162837
 10
29.4244172972
 20
21.1520685372
 10
29.4212905523
 20
21.154410762
 10
29.4180936387
 20
21.1566398556
 10
29.414829425
 20
21.158752715
 10
29.4116984575
 20
21.1606326048
 10
29.4085136641
 20
21.162405844
 10
29.4052782927
 20
21.1640714919
 10
29.4019955914
 20
21.1656286082
 10
29.3986688084
 20
21.1670762523
 10
29.3953011918
 20
21.1684134837
 10
29.3918959895
 20
21.1696393619
 10
29.3884564498
 20
21.1707529465
 10
29.3849858207
 20
21.1717532969
 10
29.3814873502
 20
21.1726394726
 10
29.3779642866
 20
21.1734105332
 10
29.3744198778
 20
21.1740655381
 10
29.3708573719
 20
21.1746035469
 10
29.3672800172
 20
21.1750236191
 10
29.3636910615
 20
21.1753248141
 10
29.3600937531
 20
21.1755061914
 10
29.35649134
 20
21.1755668106
  0
LWPOLYLINE
  5
343
100
AcDbEntity
  8
___SYMBOL
100
AcDbPolyline
 62
7
  6
CONTINUOUS
 90
61
 70
0
 10
29.3564952916
 20
21.1755672505
 10
29.3578209182
 20
21.1759295964
 10
29.3591622616
 20
21.1763466713
 10
29.3605170481
 20
21.1768174043
 10
29.3618830037
 20
21.1773407246
 10
29.3632578545
 20
21.1779155613
 10
29.3646393268
 20
21.1785408437
 10
29.3660251465
 20
21.179215501
 10
29.3674130399
 20
21.1799384623
 10
29.3688007332
 20
21.1807086569
 10
29.3701859523
 20
21.1815250138
 10
29.3715664235
 20
21.1823864624
 10
29.3729398729
 20
21.1832919317
 10
29.3744275364
 20
21.1843284839
 10
29.3759013977
 20
21.1854136811
 10
29.3773587168
 20
21.1865450542
 10
29.3787967543
 20
21.1877201343
 10
29.3802127703
 20
21.1889364523
 10
29.3816040251
 20
21.1901915391
 10
29.3829677791
 20
21.1914829259
 10
29.3843012925
 20
21.1928081434
 10
29.3856018257
 20
21.1941647228
 10
29.3868666388
 20
21.195550195
 10
29.3880929923
 20
21.196962091
 10
29.3892782914
 20
21.1983978581
 10
29.3904205213
 20
21.19985461
 10
29.3915178121
 20
21.2013293765
 10
29.3925682941
 20
21.2028191876
 10
29.3935700975
 20
21.2043210733
 10
29.3945213524
 20
21.2058320635
 10
29.3954201891
 20
21.2073491881
 10
29.3962647376
 20
21.2088694772
 10
29.3970531283
 20
21.2103899606
 10
29.3977834912
 20
21.2119076683
 10
29.3984539566
 20
21.2134196303
 10
29.3990145013
 20
21.2147980345
 10
29.3995227044
 20
21.216166966
 10
29.3999781259
 20
21.2175242759
 10
29.4003803259
 20
21.2188678152
 10
29.4007288645
 20
21.2201954348
 10
29.4010233018
 20
21.2215049858
 10
29.4012322829
 20
21.222611448
 10
29.4014009159
 20
21.2237017031
 10
29.4015289236
 20
21.2247743979
 10
29.4016160292
 20
21.2258281791
 10
29.4016619555
 20
21.2268616933
 10
29.4016664256
 20
21.2278735872
 10
29.4016291623
 20
21.2288625077
 10
29.4015421859
 20
21.2299003389
 10
29.401407001
 20
21.2309087738
 10
29.4012241211
 20
21.2318866295
 10
29.4009940596
 20
21.2328327232
 10
29.4007173302
 20
21.2337458717
 10
29.4003944463
 20
21.2346248924
 10
29.4000259215
 20
21.2354686021
 10
29.3996122692
 20
21.2362758181
 10
29.399154003
 20
21.2370453575
 10
29.3986516364
 20
21.2377760372
 10
29.3981056829
 20
21.2384666744
 10
29.397516656
 20
21.2391160861
 10
29.3968850693
 20
21.2397230895
  0
LINE
  5
344
100
AcDbEntity
  8
___SYMBOL
100
AcDbLine
 62
7
  6
CONTINUOUS
 10
29.4325282263
 20
20.3353582323
 11
29.4325282263
 21
21.0472582323
  0
LWPOLYLINE
  5
345
100
AcDbEntity
  8
___SYMBOL
100
AcDbPolyline
 62
7
  6
CONTINUOUS
 90
50
 70
0
 10
29.4325281064
 20
21.047259392
 10
29.4324869477
 20
21.050087879
 10
29.4323639362
 20
21.052910421
 10
29.4321597348
 20
21.0557242131
 10
29.4318750062
 20
21.0585264509
 10
29.4315104135
 20
21.0613143294
 10
29.4310666193
 20
21.0640850442
 10
29.4305442864
 20
21.0668357905
 10
29.4299440778
 20
21.0695637636
 10
29.4292666562
 20
21.0722661588
 10
29.4285126845
 20
21.0749401715
 10
29.4276828255
 20
21.0775829969
 10
29.426777742
 20
21.0801918305
 10
29.4257980968
 20
21.0827638675
 10
29.4247445529
 20
21.0852963032
 10
29.4236177729
 20
21.0877863329
 10
29.4224184197
 20
21.0902311521
 10
29.4211473502
 20
21.0926280808
 10
29.4198061969
 20
21.0949749391
 10
29.4183967867
 20
21.0972696718
 10
29.4169209462
 20
21.0995102239
 10
29.415380502
 20
21.1016945402
 10
29.4137772808
 20
21.1038205655
 10
29.4121131093
 20
21.1058862447
 10
29.4103898141
 20
21.1078895228
 10
29.408609222
 20
21.1098283445
 10
29.4067731595
 20
21.1117006549
 10
29.4048834535
 20
21.1135043986
 10
29.4029419305
 20
21.1152375207
 10
29.4009504172
 20
21.116897966
 10
29.3989107403
 20
21.1184836794
 10
29.3968247265
 20
21.1199926057
 10
29.3946942024
 20
21.1214226898
 10
29.3926500718
 20
21.1226949708
 10
29.39057021
 20
21.1238949701
 10
29.3884566954
 20
21.1250220659
 10
29.3863116064
 20
21.1260756365
 10
29.3841370214
 20
21.1270550599
 10
29.3819350189
 20
21.1279597144
 10
29.3797076773
 20
21.1287889782
 10
29.3774570749
 20
21.1295422296
 10
29.3751852904
 20
21.1302188466
 10
29.372894402
 20
21.1308182075
 10
29.3705864882
 20
21.1313396906
 10
29.3682636274
 20
21.1317826739
 10
29.3659278982
 20
21.1321465358
 10
29.3635813788
 20
21.1324306543
 10
29.3612261477
 20
21.1326344078
 10
29.3588642834
 20
21.1327571743
 10
29.3564978643
 20
21.1327983321
  0
LINE
  5
346
100
AcDbEntity
  8
___SYMBOL
100
AcDbLine
 62
7
  6
CONTINUOUS
 10
29.3564982263
 20
21.1327982323
 11
28.9430582263
 21
21.1327982323
  0
LINE
  5
347
100
AcDbEntity
  8
___SYMBOL
100
AcDbLine
 62
7
  6
CONTINUOUS
 10
28.9430582263
 20
21.1327982323
 11
28.9430582263
 21
21.1755682323
  0
LINE
  5
348
100
AcDbEntity
  8
___SYMBOL
100
AcDbLine
 62
7
  6
CONTINUOUS
 10
28.9430582263
 20
21.1755682323
 11
29.3564982263
 21
21.1755682323
  0
LINE
  5
349
100
AcDbEntity
  8
___SYMBOL
100
AcDbLine
 62
7
  6
CONTINUOUS
 10
29.4193167053
 20
21.0957904958
 11
29.3160982263
 21
21.0246882323
  0
LINE
  5
34A
100
AcDbEntity
  8
___SYMBOL
100
AcDbLine
 62
7
  6
CONTINUOUS
 10
29.3160982263
 20
21.0246882323
 11
28.0033282263
 21
21.1221082323
  0
LINE
  5
34B
100
AcDbEntity
  8
___SYMBOL
100
AcDbLine
 62
7
  6
CONTINUOUS
 10
28.0033282263
 20
21.1221082323
 11
27.9320482263
 21
21.2207082323
  0
LINE
  5
34C
100
AcDbEntity
  8
___SYMBOL
100
AcDbLine
 62
7
  6
CONTINUOUS
 10
27.9320482263
 20
21.2207082323
 11
27.9712482263
 21
21.2397182323
  0
LINE
  5
34D
100
AcDbEntity
  8
___SYMBOL
100
AcDbLine
 62
7
  6
CONTINUOUS
 10
27.9712482263
 20
21.2397182323
 11
28.0294682263
 21
21.1541782323
  0
LINE
  5
34E
100
AcDbEntity
  8
___SYMBOL
100
AcDbLine
 62
7
  6
CONTINUOUS
 10
28.0294682263
 20
21.1541782323
 11
29.2994682263
 21
21.0662682323
  0
LINE
  5
34F
100
AcDbEntity
  8
___SYMBOL
100
AcDbLine
 62
7
  6
CONTINUOUS
 10
29.2994682263
 20
21.0662682323
 11
29.3902349753
 21
21.1240798261
  0
LINE
  5
350
100
AcDbEntity
  8
___SYMBOL
100
AcDbLine
 62
2
  6
CONTINUOUS
 10
29.38990999
 20
21.1242568151
 11
29.4220088119
 21
21.1538872533
  0
LINE
  5
351
100
AcDbEntity
  8
___SYMBOL
100
AcDbLine
 62
7
  6
CONTINUOUS
 10
28.9803982263
 20
21.1826982323
 11
28.9773382263
 21
21.1888082323
  0
LINE
  5
352
100
AcDbEntity
  8
___SYMBOL
100
AcDbLine
 62
7
  6
CONTINUOUS
 10
28.9773382263
 20
21.1888082323
 11
28.9732682263
 21
21.1898182323
  0
LINE
  5
353
100
AcDbEntity
  8
___SYMBOL
100
AcDbLine
 62
7
  6
CONTINUOUS
 10
28.9732682263
 20
21.1898182323
 11
28.9691982263
 21
21.1918582323
  0
LINE
  5
354
100
AcDbEntity
  8
___SYMBOL
100
AcDbLine
 62
7
  6
CONTINUOUS
 10
28.9691982263
 20
21.1918582323
 11
28.9651182263
 21
21.1959382323
  0
LINE
  5
355
100
AcDbEntity
  8
___SYMBOL
100
AcDbLine
 62
7
  6
CONTINUOUS
 10
28.9651182263
 20
21.1959382323
 11
28.9600282263
 21
21.1949182323
  0
LINE
  5
356
100
AcDbEntity
  8
___SYMBOL
100
AcDbLine
 62
7
  6
CONTINUOUS
 10
29.0852882263
 20
21.1857482323
 11
29.0893582263
 21
21.1877882323
  0
LINE
  5
357
100
AcDbEntity
  8
___SYMBOL
100
AcDbLine
 62
7
  6
CONTINUOUS
 10
29.0893582263
 20
21.1877882323
 11
29.0934282263
 21
21.1888082323
  0
LINE
  5
358
100
AcDbEntity
  8
___SYMBOL
100
AcDbLine
 62
7
  6
CONTINUOUS
 10
29.0934282263
 20
21.1888082323
 11
29.1015782263
 21
21.1847282323
  0
LINE
  5
359
100
AcDbEntity
  8
___SYMBOL
100
AcDbLine
 62
7
  6
CONTINUOUS
 10
29.1015782263
 20
21.1847282323
 11
29.1056482263
 21
21.1847282323
  0
LINE
  5
35A
100
AcDbEntity
  8
___SYMBOL
100
AcDbLine
 62
7
  6
CONTINUOUS
 10
29.2410882263
 20
21.1867682323
 11
29.2471982263
 21
21.1898182323
  0
LINE
  5
35B
100
AcDbEntity
  8
___SYMBOL
100
AcDbLine
 62
7
  6
CONTINUOUS
 10
29.2471982263
 20
21.1898182323
 11
29.2573782263
 21
21.1867682323
  0
LINE
  5
35C
100
AcDbEntity
  8
___SYMBOL
100
AcDbLine
 62
7
  6
CONTINUOUS
 10
29.2441382263
 20
21.2244482323
 11
29.2400682263
 21
21.2244482323
  0
LINE
  5
35D
100
AcDbEntity
  8
___SYMBOL
100
AcDbLine
 62
7
  6
CONTINUOUS
 10
29.2400682263
 20
21.2244482323
 11
29.2288682263
 21
21.2325982323
  0
LINE
  5
35E
100
AcDbEntity
  8
___SYMBOL
100
AcDbLine
 62
7
  6
CONTINUOUS
 10
29.2288682263
 20
21.2325982323
 11
29.2207182263
 21
21.2325982323
  0
LINE
  5
35F
100
AcDbEntity
  8
___SYMBOL
100
AcDbLine
 62
7
  6
CONTINUOUS
 10
29.2207182263
 20
21.2325982323
 11
29.2207182263
 21
21.2264782323
  0
LINE
  5
360
100
AcDbEntity
  8
___SYMBOL
100
AcDbLine
 62
7
  6
CONTINUOUS
 10
29.0883382263
 20
21.2264782323
 11
29.0883382263
 21
21.2315782323
  0
LINE
  5
361
100
AcDbEntity
  8
___SYMBOL
100
AcDbLine
 62
7
  6
CONTINUOUS
 10
29.0883382263
 20
21.2315782323
 11
29.0924082263
 21
21.2325982323
  0
LINE
  5
362
100
AcDbEntity
  8
___SYMBOL
100
AcDbLine
 62
7
  6
CONTINUOUS
 10
29.0924082263
 20
21.2325982323
 11
29.0964882263
 21
21.2315782323
  0
LINE
  5
363
100
AcDbEntity
  8
___SYMBOL
100
AcDbLine
 62
7
  6
CONTINUOUS
 10
29.0964882263
 20
21.2315782323
 11
29.1015782263
 21
21.2244482323
  0
LINE
  5
364
100
AcDbEntity
  8
___SYMBOL
100
AcDbLine
 62
7
  6
CONTINUOUS
 10
29.1015782263
 20
21.2244482323
 11
29.1066682263
 21
21.2224082323
  0
LINE
  5
365
100
AcDbEntity
  8
___SYMBOL
100
AcDbLine
 62
7
  6
CONTINUOUS
 10
29.1066682263
 20
21.2224082323
 11
29.1117582263
 21
21.2224082323
  0
LWPOLYLINE
  5
366
100
AcDbEntity
  8
___SYMBOL
100
AcDbPolyline
 62
7
  6
CONTINUOUS
 90
60
 70
0
 10
28.95188108
 20
21.1765893022
 10
28.9502057963
 20
21.1780649418
 10
28.9485763172
 20
21.1795224269
 10
28.9469923725
 20
21.1809619222
 10
28.9454536921
 20
21.1823835924
 10
28.9439600058
 20
21.1837876025
 10
28.9425110435
 20
21.1851741173
 10
28.941106535
 20
21.1865433014
 10
28.9397462103
 20
21.1878953197
 10
28.9384297992
 20
21.1892303371
 10
28.9371570314
 20
21.1905485183
 10
28.935927637
 20
21.1918500281
 10
28.9347413457
 20
21.1931350314
 10
28.9335978874
 20
21.1944036929
 10
28.9324969919
 20
21.1956561774
 10
28.9314383892
 20
21.1968926498
 10
28.9304218091
 20
21.1981132748
 10
28.9294469814
 20
21.1993182172
 10
28.928513636
 20
21.2005076419
 10
28.9276215028
 20
21.2016817137
 10
28.9267703115
 20
21.2028405973
 10
28.9259597922
 20
21.2039844576
 10
28.9251897035
 20
21.2051134479
 10
28.9244599204
 20
21.2062276762
 10
28.9237703464
 20
21.2073272389
 10
28.9231208854
 20
21.2084122326
 10
28.9225114411
 20
21.2094827537
 10
28.9219419173
 20
21.2105388987
 10
28.9214122176
 20
21.2115807641
 10
28.9209222458
 20
21.2126084465
 10
28.9204719056
 20
21.2136220422
 10
28.9200611009
 20
21.2146216479
 10
28.9196897353
 20
21.2156073599
 10
28.9193577125
 20
21.2165792748
 10
28.9190649364
 20
21.2175374891
 10
28.9188113106
 20
21.2184820993
 10
28.9185647671
 20
21.2195670791
 10
28.9183712277
 20
21.2206338267
 10
28.9182305395
 20
21.2216824954
 10
28.9181425498
 20
21.2227132384
 10
28.9181071055
 20
21.2237262089
 10
28.9181240539
 20
21.2247215602
 10
28.9181932818
 20
21.225699432
 10
28.9183148353
 20
21.2266599106
 10
28.9184887998
 20
21.2276030687
 10
28.918715261
 20
21.2285289793
 10
28.9189943047
 20
21.2294377151
 10
28.9193260164
 20
21.230329349
 10
28.9197104817
 20
21.2312039537
 10
28.9201477865
 20
21.232061602
 10
28.9206380162
 20
21.2329023668
 10
28.9211812565
 20
21.2337263209
 10
28.9217775931
 20
21.2345335371
 10
28.9224271116
 20
21.2353240883
 10
28.9231298978
 20
21.2360980471
 10
28.9238860371
 20
21.2368554865
 10
28.9246956153
 20
21.2375964792
 10
28.925558718
 20
21.2383210981
 10
28.9264754309
 20
21.239029416
 10
28.9274458396
 20
21.2397215056
  0
LINE
  5
367
100
AcDbEntity
  8
___SYMBOL
100
AcDbLine
 62
7
  6
CONTINUOUS
 10
28.8301982263
 20
21.2397182323
 11
28.8301982263
 21
21.4998982323
  0
LINE
  5
368
100
AcDbEntity
  8
___SYMBOL
100
AcDbLine
 62
7
  6
CONTINUOUS
 10
28.8301982263
 20
21.4998982323
 11
28.6306082263
 21
21.4998982323
  0
LINE
  5
369
100
AcDbEntity
  8
___SYMBOL
100
AcDbLine
 62
7
  6
CONTINUOUS
 10
28.6876382263
 20
21.108619394
 11
28.6876382263
 21
21.4621182323
  0
LINE
  5
36A
100
AcDbEntity
  8
___SYMBOL
100
AcDbLine
 62
7
  6
CONTINUOUS
 10
28.6876382263
 20
21.4621182323
 11
28.7311182263
 21
21.4998982323
  0
LINE
  5
36B
100
AcDbEntity
  8
___SYMBOL
100
AcDbLine
 62
7
  6
CONTINUOUS
 10
28.7311182263
 20
21.4998982323
 11
28.7781582263
 21
21.4621182323
  0
LINE
  5
36C
100
AcDbEntity
  8
___SYMBOL
100
AcDbLine
 62
7
  6
CONTINUOUS
 10
28.7781582263
 20
21.1023535568
 11
28.7781582263
 21
21.4621182323
  0
LINE
  5
36D
100
AcDbEntity
  8
___SYMBOL
100
AcDbLine
 62
7
  6
CONTINUOUS
 10
28.7781582263
 20
21.4621182323
 11
28.6876382263
 21
21.4621182323
  0
LINE
  5
36E
100
AcDbEntity
  8
___SYMBOL
100
AcDbLine
 62
7
  6
CONTINUOUS
 10
28.6876382263
 20
21.3637482323
 11
28.7781582263
 21
21.3637482323
  0
LINE
  5
36F
100
AcDbEntity
  8
___SYMBOL
100
AcDbLine
 62
7
  6
CONTINUOUS
 10
28.7781682263
 20
21.3637482323
 11
28.7311182263
 21
21.4015282323
  0
LINE
  5
370
100
AcDbEntity
  8
___SYMBOL
100
AcDbLine
 62
7
  6
CONTINUOUS
 10
28.7311182263
 20
21.4015282323
 11
28.6876382263
 21
21.3637482323
  0
LINE
  5
371
100
AcDbEntity
  8
___SYMBOL
100
AcDbLine
 62
2
  6
CONTINUOUS
 10
29.4681682263
 20
21.3694582323
 11
29.3236114403
 21
21.2397182323
  0
LINE
  5
372
100
AcDbEntity
  8
___SYMBOL
100
AcDbLine
 62
7
  6
CONTINUOUS
 10
29.3286815488
 20
21.2397182323
 11
29.3449482263
 21
21.2315782323
  0
LINE
  5
373
100
AcDbEntity
  8
___SYMBOL
100
AcDbLine
 62
7
  6
CONTINUOUS
 10
29.3449482263
 20
21.2315782323
 11
29.3480082263
 21
21.2274982323
  0
LINE
  5
374
100
AcDbEntity
  8
___SYMBOL
100
AcDbLine
 62
7
  6
CONTINUOUS
 10
29.3480082263
 20
21.2274982323
 11
29.3500482263
 21
21.2193582323
  0
LINE
  5
375
100
AcDbEntity
  8
___SYMBOL
100
AcDbLine
 62
7
  6
CONTINUOUS
 10
29.3500482263
 20
21.2193582323
 11
29.3500482263
 21
21.2132482323
  0
LINE
  5
376
100
AcDbEntity
  8
___SYMBOL
100
AcDbLine
 62
7
  6
CONTINUOUS
 10
29.3500482263
 20
21.2132482323
 11
29.3490282263
 21
21.2081582323
  0
LINE
  5
377
100
AcDbEntity
  8
___SYMBOL
100
AcDbLine
 62
7
  6
CONTINUOUS
 10
29.3490282263
 20
21.2081582323
 11
29.3408782263
 21
21.2030582323
  0
LINE
  5
378
100
AcDbEntity
  8
___SYMBOL
100
AcDbLine
 62
7
  6
CONTINUOUS
 10
29.3408782263
 20
21.2030582323
 11
29.3286582263
 21
21.2020382323
  0
LINE
  5
379
100
AcDbEntity
  8
___SYMBOL
100
AcDbLine
 62
7
  6
CONTINUOUS
 10
29.3286582263
 20
21.2020382323
 11
29.3164382263
 21
21.1989882323
  0
LINE
  5
37A
100
AcDbEntity
  8
___SYMBOL
100
AcDbLine
 62
7
  6
CONTINUOUS
 10
29.3164382263
 20
21.1989882323
 11
29.3093082263
 21
21.1989882323
  0
LINE
  5
37B
100
AcDbEntity
  8
___SYMBOL
100
AcDbLine
 62
7
  6
CONTINUOUS
 10
29.3093082263
 20
21.1989882323
 11
29.3011682263
 21
21.1969482323
  0
LINE
  5
37C
100
AcDbEntity
  8
___SYMBOL
100
AcDbLine
 62
7
  6
CONTINUOUS
 10
29.3011682263
 20
21.1969482323
 11
29.2736682263
 21
21.1969482323
  0
LINE
  5
37D
100
AcDbEntity
  8
___SYMBOL
100
AcDbLine
 62
7
  6
CONTINUOUS
 10
29.2736682263
 20
21.1969482323
 11
29.2645082263
 21
21.2000082323
  0
LINE
  5
37E
100
AcDbEntity
  8
___SYMBOL
100
AcDbLine
 62
7
  6
CONTINUOUS
 10
29.2645082263
 20
21.2000082323
 11
29.2614482263
 21
21.2030582323
  0
LINE
  5
37F
100
AcDbEntity
  8
___SYMBOL
100
AcDbLine
 62
7
  6
CONTINUOUS
 10
29.2614482263
 20
21.2030582323
 11
29.2573782263
 21
21.2040782323
  0
LINE
  5
380
100
AcDbEntity
  8
___SYMBOL
100
AcDbLine
 62
7
  6
CONTINUOUS
 10
29.2573782263
 20
21.2040782323
 11
29.2512682263
 21
21.2040782323
  0
LINE
  5
381
100
AcDbEntity
  8
___SYMBOL
100
AcDbLine
 62
7
  6
CONTINUOUS
 10
29.2512682263
 20
21.2040782323
 11
29.2400682263
 21
21.2061182323
  0
LINE
  5
382
100
AcDbEntity
  8
___SYMBOL
100
AcDbLine
 62
7
  6
CONTINUOUS
 10
29.2400682263
 20
21.2061182323
 11
29.2319182263
 21
21.2061182323
  0
LINE
  5
383
100
AcDbEntity
  8
___SYMBOL
100
AcDbLine
 62
7
  6
CONTINUOUS
 10
29.2319182263
 20
21.2061182323
 11
29.2227582263
 21
21.2040782323
  0
LINE
  5
384
100
AcDbEntity
  8
___SYMBOL
100
AcDbLine
 62
7
  6
CONTINUOUS
 10
29.2227582263
 20
21.2040782323
 11
29.2176682263
 21
21.2000082323
  0
LINE
  5
385
100
AcDbEntity
  8
___SYMBOL
100
AcDbLine
 62
7
  6
CONTINUOUS
 10
29.2176682263
 20
21.2000082323
 11
29.2135882263
 21
21.1989882323
  0
LINE
  5
386
100
AcDbEntity
  8
___SYMBOL
100
AcDbLine
 62
7
  6
CONTINUOUS
 10
29.2135882263
 20
21.1989882323
 11
29.1494382263
 21
21.1969482323
  0
LINE
  5
387
100
AcDbEntity
  8
___SYMBOL
100
AcDbLine
 62
7
  6
CONTINUOUS
 10
29.1494382263
 20
21.1969482323
 11
29.1402682263
 21
21.1989882323
  0
LINE
  5
388
100
AcDbEntity
  8
___SYMBOL
100
AcDbLine
 62
7
  6
CONTINUOUS
 10
29.1402682263
 20
21.1989882323
 11
29.1015782263
 21
21.2030582323
  0
LINE
  5
389
100
AcDbEntity
  8
___SYMBOL
100
AcDbLine
 62
7
  6
CONTINUOUS
 10
29.1015782263
 20
21.2030582323
 11
29.0924082263
 21
21.1969482323
  0
LINE
  5
38A
100
AcDbEntity
  8
___SYMBOL
100
AcDbLine
 62
7
  6
CONTINUOUS
 10
29.0924082263
 20
21.1969482323
 11
29.0873182263
 21
21.1949182323
  0
LINE
  5
38B
100
AcDbEntity
  8
___SYMBOL
100
AcDbLine
 62
7
  6
CONTINUOUS
 10
29.0873182263
 20
21.1949182323
 11
29.0537182263
 21
21.1918582323
  0
LINE
  5
38C
100
AcDbEntity
  8
___SYMBOL
100
AcDbLine
 62
7
  6
CONTINUOUS
 10
29.0537182263
 20
21.1918582323
 11
29.0058582263
 21
21.1938982323
  0
LINE
  5
38D
100
AcDbEntity
  8
___SYMBOL
100
AcDbLine
 62
7
  6
CONTINUOUS
 10
29.0058582263
 20
21.1938982323
 11
28.9956782263
 21
21.1938982323
  0
LINE
  5
38E
100
AcDbEntity
  8
___SYMBOL
100
AcDbLine
 62
7
  6
CONTINUOUS
 10
28.9956782263
 20
21.1938982323
 11
28.9854882263
 21
21.1959382323
  0
LINE
  5
38F
100
AcDbEntity
  8
___SYMBOL
100
AcDbLine
 62
7
  6
CONTINUOUS
 10
28.9854882263
 20
21.1959382323
 11
28.9712282263
 21
21.2040782323
  0
LINE
  5
390
100
AcDbEntity
  8
___SYMBOL
100
AcDbLine
 62
7
  6
CONTINUOUS
 10
28.9712282263
 20
21.2040782323
 11
28.9702182263
 21
21.2081582323
  0
LINE
  5
391
100
AcDbEntity
  8
___SYMBOL
100
AcDbLine
 62
7
  6
CONTINUOUS
 10
28.9702182263
 20
21.2081582323
 11
28.9600282263
 21
21.2112082323
  0
LINE
  5
392
100
AcDbEntity
  8
___SYMBOL
100
AcDbLine
 62
7
  6
CONTINUOUS
 10
28.9600282263
 20
21.2112082323
 11
28.9478082263
 21
21.2213882323
  0
LINE
  5
393
100
AcDbEntity
  8
___SYMBOL
100
AcDbLine
 62
7
  6
CONTINUOUS
 10
28.9478082263
 20
21.2213882323
 11
28.9447582263
 21
21.2254682323
  0
LINE
  5
394
100
AcDbEntity
  8
___SYMBOL
100
AcDbLine
 62
7
  6
CONTINUOUS
 10
28.9447582263
 20
21.2254682323
 11
28.9447582263
 21
21.2315782323
  0
LINE
  5
395
100
AcDbEntity
  8
___SYMBOL
100
AcDbLine
 62
7
  6
CONTINUOUS
 10
28.9447582263
 20
21.2315782323
 11
28.9467882263
 21
21.2356482323
  0
LINE
  5
396
100
AcDbEntity
  8
___SYMBOL
100
AcDbLine
 62
7
  6
CONTINUOUS
 10
28.9467882263
 20
21.2356482323
 11
28.9518882263
 21
21.2397182323
  0
LINE
  5
397
100
AcDbEntity
  8
___SYMBOL
100
AcDbLine
 62
7
  6
CONTINUOUS
 10
28.7781582263
 20
21.0646084886
 11
28.7781582263
 21
20.9878582323
  0
LINE
  5
398
100
AcDbEntity
  8
___SYMBOL
100
AcDbLine
 62
7
  6
CONTINUOUS
 10
28.7781582263
 20
20.9878582323
 11
28.8230682263
 21
20.9284582323
  0
LINE
  5
399
100
AcDbEntity
  8
___SYMBOL
100
AcDbLine
 62
7
  6
CONTINUOUS
 10
28.8230682263
 20
20.9284582323
 11
28.6412982263
 21
20.9284582323
  0
LINE
  5
39A
100
AcDbEntity
  8
___SYMBOL
100
AcDbLine
 62
7
  6
CONTINUOUS
 10
28.6412982263
 20
20.9284582323
 11
28.6876382263
 21
20.9878582323
  0
LINE
  5
39B
100
AcDbEntity
  8
___SYMBOL
100
AcDbLine
 62
7
  6
CONTINUOUS
 10
28.6876382263
 20
20.9878582323
 11
28.6876382263
 21
21.0713259322
  0
LWPOLYLINE
  5
39C
100
AcDbEntity
  8
___SYMBOL
100
AcDbPolyline
 62
7
  6
CONTINUOUS
 90
49
 70
0
 10
29.1565620099
 20
21.2173229584
 10
29.1563582552
 20
21.2175525484
 10
29.1561469918
 20
21.2177752437
 10
29.1559284926
 20
21.2179908583
 10
29.1557030302
 20
21.2181992061
 10
29.1554708773
 20
21.218400101
 10
29.1552323065
 20
21.218593357
 10
29.1549875906
 20
21.218778788
 10
29.1547370021
 20
21.218956208
 10
29.1544808139
 20
21.219125431
 10
29.1542192986
 20
21.2192862709
 10
29.1539527288
 20
21.2194385415
 10
29.1536813772
 20
21.219582057
 10
29.1534055166
 20
21.2197166312
 10
29.1531254195
 20
21.219842078
 10
29.1528413588
 20
21.2199582115
 10
29.152553607
 20
21.2200648456
 10
29.1522624468
 20
21.2201618209
 10
29.1519682005
 20
21.2202490852
 10
29.1516712005
 20
21.220326613
 10
29.151371779
 20
21.2203943787
 10
29.1510702683
 20
21.2204523569
 10
29.1507670007
 20
21.220500522
 10
29.1504623086
 20
21.2205388484
 10
29.1501565242
 20
21.2205673106
 10
29.1498499798
 20
21.2205858832
 10
29.1495430077
 20
21.2205945406
 10
29.1492359402
 20
21.2205932573
 10
29.1489291095
 20
21.2205820077
 10
29.1486228481
 20
21.2205607663
 10
29.1483174882
 20
21.2205295076
 10
29.1480133621
 20
21.2204882061
 10
29.147710802
 20
21.2204368362
 10
29.1474101346
 20
21.2203754004
 10
29.1471116635
 20
21.220304013
 10
29.1468156866
 20
21.2202228162
 10
29.1465225018
 20
21.2201319521
 10
29.146232407
 20
21.220031563
 10
29.1459457001
 20
21.2199217912
 10
29.145662679
 20
21.2198027789
 10
29.1453836417
 20
21.2196746682
 10
29.145108886
 20
21.2195376015
 10
29.1448387099
 20
21.2193917209
 10
29.1445734112
 20
21.2192371686
 10
29.1443132879
 20
21.219074087
 10
29.1440586378
 20
21.2189026181
 10
29.1438097589
 20
21.2187229043
 10
29.1435669492
 20
21.2185350877
 10
29.1433305064
 20
21.2183393106
  0
LWPOLYLINE
  5
39D
100
AcDbEntity
  8
___SYMBOL
100
AcDbPolyline
 62
7
  6
CONTINUOUS
 90
49
 70
0
 10
29.0221492861
 20
21.2173181385
 10
29.0219094493
 20
21.2177140289
 10
29.0216566019
 20
21.2181017254
 10
29.0213910981
 20
21.2184808779
 10
29.0211132919
 20
21.2188511362
 10
29.0208235374
 20
21.2192121502
 10
29.0205221886
 20
21.2195635696
 10
29.0202095996
 20
21.2199050444
 10
29.0198861246
 20
21.2202362245
 10
29.0195521175
 20
21.2205567595
 10
29.0192079324
 20
21.2208662995
 10
29.0188539235
 20
21.2211644942
 10
29.0184904447
 20
21.2214509935
 10
29.0181178503
 20
21.2217254472
 10
29.0177364942
 20
21.2219875053
 10
29.0173467305
 20
21.2222368174
 10
29.0169489133
 20
21.2224730336
 10
29.0165434187
 20
21.2226958406
 10
29.0161307108
 20
21.2229050735
 10
29.0157112758
 20
21.2231006042
 10
29.0152855998
 20
21.2232823047
 10
29.0148541689
 20
21.2234500472
 10
29.0144174692
 20
21.2236037035
 10
29.013975987
 20
21.2237431457
 10
29.0135302084
 20
21.2238682458
 10
29.0130806194
 20
21.2239788759
 10
29.0126277063
 20
21.2240749078
 10
29.0121719551
 20
21.2241562137
 10
29.0117138521
 20
21.2242226656
 10
29.0112538833
 20
21.2242741354
 10
29.0107925349
 20
21.2243104951
 10
29.0103302931
 20
21.2243316169
 10
29.0098676439
 20
21.2243373726
 10
29.0094050726
 20
21.2243276773
 10
29.0089430608
 20
21.2243026185
 10
29.008482089
 20
21.2242623265
 10
29.0080226379
 20
21.2242069316
 10
29.007565188
 20
21.2241365644
 10
29.00711022
 20
21.2240513551
 10
29.0066582146
 20
21.2239514342
 10
29.0062096522
 20
21.223836932
 10
29.0057650136
 20
21.2237079791
 10
29.0053247794
 20
21.2235647057
 10
29.0048894301
 20
21.2234072423
 10
29.0044594464
 20
21.2232357192
 10
29.0040353089
 20
21.2230502669
 10
29.0036174982
 20
21.2228510158
 10
29.0032064949
 20
21.2226380962
 10
29.0028027796
 20
21.2224116386
  0
LINE
  5
39E
100
AcDbEntity
  8
___SYMBOL
100
AcDbLine
 62
7
  6
CONTINUOUS
 10
29.1514782263
 20
21.1837182323
 11
29.1484182263
 21
21.1877882323
  0
LINE
  5
39F
100
AcDbEntity
  8
___SYMBOL
100
AcDbLine
 62
7
  6
CONTINUOUS
 10
29.1484182263
 20
21.1877882323
 11
29.1443482263
 21
21.1888082323
  0
LINE
  5
3A0
100
AcDbEntity
  8
___SYMBOL
100
AcDbLine
 62
7
  6
CONTINUOUS
 10
29.1443482263
 20
21.1888082323
 11
29.1341582263
 21
21.1888082323
  0
LWPOLYLINE
  5
3A1
100
AcDbEntity
  8
___SYMBOL
100
AcDbPolyline
 62
7
  6
CONTINUOUS
 90
49
 70
0
 10
29.2064603646
 20
21.186770538
 10
29.2066295827
 20
21.1866067362
 10
29.2068041648
 20
21.1864486472
 10
29.2069838902
 20
21.1862963979
 10
29.2071685386
 20
21.1861501154
 10
29.2073578896
 20
21.1860099266
 10
29.2075517226
 20
21.1858759584
 10
29.2077498173
 20
21.1857483379
 10
29.2079519531
 20
21.1856271921
 10
29.2081579098
 20
21.1855126477
 10
29.2083674667
 20
21.185404832
 10
29.2085804036
 20
21.1853038717
 10
29.2087964998
 20
21.185209894
 10
29.2090155351
 20
21.1851230257
 10
29.2092372889
 20
21.1850433939
 10
29.2094615408
 20
21.1849711255
 10
29.2096880704
 20
21.1849063474
 10
29.2099166511
 20
21.1848491655
 10
29.2101470321
 20
21.1847996011
 10
29.2103789565
 20
21.184757654
 10
29.2106121671
 20
21.1847233245
 10
29.2108464072
 20
21.1846966126
 10
29.2110814198
 20
21.1846775183
 10
29.2113169479
 20
21.1846660416
 10
29.2115527345
 20
21.1846621827
 10
29.2117885227
 20
21.1846659416
 10
29.2120240555
 20
21.1846773183
 10
29.2122590761
 20
21.1846963129
 10
29.2124933274
 20
21.1847229254
 10
29.2127265525
 20
21.1847571559
 10
29.2129584944
 20
21.1847990045
 10
29.2131888962
 20
21.1848484712
 10
29.2134175009
 20
21.1849055561
 10
29.2136440577
 20
21.184970238
 10
29.21386834
 20
21.1850424113
 10
29.2140901272
 20
21.185121949
 10
29.2143091989
 20
21.1852087243
 10
29.2145253347
 20
21.1853026103
 10
29.2147383139
 20
21.1854034802
 10
29.2149479161
 20
21.185511207
 10
29.2151539208
 20
21.1856256639
 10
29.2153561076
 20
21.185746724
 10
29.2155542558
 20
21.1858742604
 10
29.2157481451
 20
21.1860081463
 10
29.2159375549
 20
21.1861482548
 10
29.2161222647
 20
21.1862944589
 10
29.2163020541
 20
21.1864466319
 10
29.2164767025
 20
21.1866046468
 10
29.2166459895
 20
21.1867683768
  0
LWPOLYLINE
  5
3A2
100
AcDbEntity
  8
___SYMBOL
100
AcDbPolyline
 62
7
  6
CONTINUOUS
 90
49
 70
0
 10
28.9427198562
 20
21.1989892711
 10
28.9426640312
 20
21.1993380393
 10
28.9425966369
 20
21.1996847748
 10
28.9425178237
 20
21.2000291272
 10
28.9424277419
 20
21.200370746
 10
28.9423265417
 20
21.2007092807
 10
28.9422143734
 20
21.2010443809
 10
28.9420913875
 20
21.2013756961
 10
28.9419577341
 20
21.2017028759
 10
28.9418135636
 20
21.2020255698
 10
28.9416590263
 20
21.2023434274
 10
28.9414942725
 20
21.2026560983
 10
28.9413194525
 20
21.2029632318
 10
28.9411347166
 20
21.2032644777
 10
28.9409402151
 20
21.2035594854
 10
28.9407360984
 20
21.2038479044
 10
28.9405225167
 20
21.2041293844
 10
28.9402996466
 20
21.2044035948
 10
28.94006777
 20
21.2046702846
 10
28.9398271949
 20
21.2049292227
 10
28.9395782295
 20
21.2051801781
 10
28.9393211818
 20
21.2054229196
 10
28.93905636
 20
21.2056572163
 10
28.9387840722
 20
21.205882837
 10
28.9385046265
 20
21.2060995507
 10
28.9382183309
 20
21.2063071263
 10
28.9379254936
 20
21.2065053328
 10
28.9376264227
 20
21.206693939
 10
28.9373214263
 20
21.206872714
 10
28.9370108126
 20
21.2070414265
 10
28.9366948895
 20
21.2071998457
 10
28.9363739652
 20
21.2073477403
 10
28.9360483479
 20
21.2074848793
 10
28.9357183573
 20
21.2076110625
 10
28.9353843601
 20
21.207726213
 10
28.935046735
 20
21.2078302847
 10
28.9347058601
 20
21.2079232313
 10
28.9343621142
 20
21.208005007
 10
28.9340158755
 20
21.2080755655
 10
28.9336675225
 20
21.2081348608
 10
28.9333174337
 20
21.2081828468
 10
28.9329659876
 20
21.2082194774
 10
28.9326135625
 20
21.2082447064
 10
28.932260537
 20
21.2082584878
 10
28.9319072895
 20
21.2082607755
 10
28.9315541984
 20
21.2082515234
 10
28.9312016422
 20
21.2082306854
 10
28.9308499993
 20
21.2081982154
 10
28.9304996483
 20
21.2081540673
  0
LWPOLYLINE
  5
3A3
100
AcDbEntity
  8
___SYMBOL
100
AcDbPolyline
 62
7
  6
CONTINUOUS
 90
49
 70
0
 10
29.0628824975
 20
21.2152768891
 10
29.0628301424
 20
21.2154260738
 10
29.0627728636
 20
21.2155734336
 10
29.0627107548
 20
21.2157188266
 10
29.0626439099
 20
21.2158621108
 10
29.0625724225
 20
21.2160031443
 10
29.0624963865
 20
21.2161417851
 10
29.0624158955
 20
21.2162778914
 10
29.0623310433
 20
21.2164113211
 10
29.0622419238
 20
21.2165419324
 10
29.0621486306
 20
21.2166695833
 10
29.0620512574
 20
21.2167941319
 10
29.0619498982
 20
21.2169154363
 10
29.0618446465
 20
21.2170333545
 10
29.0617355962
 20
21.2171477445
 10
29.061622841
 20
21.2172584646
 10
29.0615064746
 20
21.2173653726
 10
29.0613866008
 20
21.2174683376
 10
29.0612633632
 20
21.2175672717
 10
29.0611369152
 20
21.217662098
 10
29.0610074102
 20
21.2177527396
 10
29.0608750019
 20
21.2178391195
 10
29.0607398437
 20
21.2179211607
 10
29.0606020891
 20
21.2179987865
 10
29.0604618916
 20
21.2180719197
 10
29.0603194047
 20
21.2181404835
 10
29.0601747819
 20
21.2182044009
 10
29.0600281766
 20
21.218263595
 10
29.0598797425
 20
21.2183179888
 10
29.0597296329
 20
21.2183675054
 10
29.0595780014
 20
21.2184120678
 10
29.0594250015
 20
21.2184515992
 10
29.0592707867
 20
21.2184860226
 10
29.0591155131
 20
21.2185152754
 10
29.0589593479
 20
21.2185393531
 10
29.0588024609
 20
21.2185582655
 10
29.0586450218
 20
21.2185720224
 10
29.0584872004
 20
21.2185806337
 10
29.0583291666
 20
21.2185841091
 10
29.0581710901
 20
21.2185824586
 10
29.0580131407
 20
21.2185756918
 10
29.0578554882
 20
21.2185638188
 10
29.0576983024
 20
21.2185468492
 10
29.0575417531
 20
21.218524793
 10
29.05738601
 20
21.2184976599
 10
29.057231243
 20
21.2184654599
 10
29.0570776219
 20
21.2184282026
 10
29.0569253165
 20
21.218385898
 10
29.0567744964
 20
21.2183385558
  0
LWPOLYLINE
  5
3A4
100
AcDbEntity
  8
___SYMBOL
100
AcDbPolyline
 62
7
  6
CONTINUOUS
 90
49
 70
0
 10
29.3683743737
 20
21.2142629647
 10
29.3684545845
 20
21.2144475344
 10
29.3685286193
 20
21.2146346629
 10
29.3685964429
 20
21.2148241368
 10
29.36865802
 20
21.2150157423
 10
29.3687133153
 20
21.215209266
 10
29.3687622935
 20
21.2154044942
 10
29.3688049194
 20
21.2156012135
 10
29.3688411578
 20
21.2157992101
 10
29.3688709732
 20
21.2159982706
 10
29.3688943305
 20
21.2161981814
 10
29.3689111943
 20
21.2163987288
 10
29.3689215295
 20
21.2165996993
 10
29.3689253007
 20
21.2168008794
 10
29.3689224726
 20
21.2170020555
 10
29.36891301
 20
21.2172030139
 10
29.3688968777
 20
21.2174035412
 10
29.3688740589
 20
21.2176034252
 10
29.3688446117
 20
21.2178024598
 10
29.3688086129
 20
21.2180004404
 10
29.3687661391
 20
21.2181971622
 10
29.3687172671
 20
21.2183924207
 10
29.3686620735
 20
21.2185860113
 10
29.3686006351
 20
21.2187777292
 10
29.3685330285
 20
21.2189673698
 10
29.3684593305
 20
21.2191547285
 10
29.3683796177
 20
21.2193396007
 10
29.3682939669
 20
21.2195217816
 10
29.3682024548
 20
21.2197010667
 10
29.3681051581
 20
21.2198772512
 10
29.3680021535
 20
21.2200501307
 10
29.3678935176
 20
21.2202195003
 10
29.3677793272
 20
21.2203851555
 10
29.3676596741
 20
21.2205469028
 10
29.3675347101
 20
21.2207045932
 10
29.3674046023
 20
21.2208580888
 10
29.3672695176
 20
21.221007252
 10
29.367129623
 20
21.2211519448
 10
29.3669850854
 20
21.2212920295
 10
29.366836072
 20
21.2214273683
 10
29.3666827495
 20
21.2215578234
 10
29.3665252851
 20
21.2216832569
 10
29.3663638457
 20
21.221803531
 10
29.3661985982
 20
21.2219185079
 10
29.3660297097
 20
21.2220280499
 10
29.3658573471
 20
21.2221320191
 10
29.3656816774
 20
21.2222302777
 10
29.3655028676
 20
21.2223226879
 10
29.3653210846
 20
21.2224091119
  0
LINE
  5
3A5
100
AcDbEntity
  8
___SYMBOL
100
AcDbLine
 62
7
  6
CONTINUOUS
 10
29.3704082263
 20
21.1928782323
 11
29.3551382263
 21
21.1949182323
  0
LINE
  5
3A6
100
AcDbEntity
  8
___SYMBOL
100
AcDbLine
 62
7
  6
CONTINUOUS
 10
29.3551382263
 20
21.1949182323
 11
29.3490282263
 21
21.1969482323
  0
LINE
  5
3A7
100
AcDbEntity
  8
___SYMBOL
100
AcDbLine
 62
7
  6
CONTINUOUS
 10
29.3490282263
 20
21.1969482323
 11
29.3418982263
 21
21.1969482323
  0
LWPOLYLINE
  5
3A8
100
AcDbEntity
  8
___SYMBOL
100
AcDbPolyline
 62
7
  6
CONTINUOUS
 90
50
 70
0
 10
29.4681682263
 20
21.6466182323
 10
29.4682370635
 20
21.6483878911
 10
29.4682382517
 20
21.6501583982
 10
29.4681722316
 20
21.6519281052
 10
29.468039444
 20
21.6536953635
 10
29.4678403296
 20
21.6554585246
 10
29.4675753291
 20
21.65721594
 10
29.4672448833
 20
21.658965961
 10
29.4668494329
 20
21.6607069393
 10
29.4663894187
 20
21.6624372263
 10
29.4658652814
 20
21.6641551733
 10
29.4652774617
 20
21.665859132
 10
29.4646264003
 20
21.6675474538
 10
29.4639125381
 20
21.66921849
 10
29.4631363157
 20
21.6708705923
 10
29.4622981739
 20
21.6725021121
 10
29.4613985535
 20
21.6741114008
 10
29.460437895
 20
21.6756968099
 10
29.4594167993
 20
21.6772567555
 10
29.4583365064
 20
21.6787899126
 10
29.4571984164
 20
21.6802950207
 10
29.4560039293
 20
21.6817708193
 10
29.4547544452
 20
21.6832160479
 10
29.4534513642
 20
21.6846294462
 10
29.4520960863
 20
21.6860097537
 10
29.4506900114
 20
21.6873557099
 10
29.4492345398
 20
21.6886660545
 10
29.4477310714
 20
21.6899395268
 10
29.4461810063
 20
21.6911748666
 10
29.4445857446
 20
21.6923708133
 10
29.4429466862
 20
21.6935261064
 10
29.4412652312
 20
21.6946394857
 10
29.4395427798
 20
21.6957096905
 10
29.4377807318
 20
21.6967354605
 10
29.4359804875
 20
21.6977155352
 10
29.4340246181
 20
21.6987069687
 10
29.4320294505
 20
21.6996446145
 10
29.4299973498
 20
21.7005278515
 10
29.427930681
 20
21.7013560584
 10
29.4258318095
 20
21.702128614
 10
29.4237031002
 20
21.7028448972
 10
29.4215469183
 20
21.7035042869
 10
29.419365629
 20
21.7041061618
 10
29.4171615973
 20
21.7046499008
 10
29.4149371885
 20
21.7051348827
 10
29.4126947677
 20
21.7055604863
 10
29.4104366999
 20
21.7059260904
 10
29.4081653504
 20
21.706231074
 10
29.4058830842
 20
21.7064748157
 10
29.404149442
 20
21.7066182323
  0
LINE
  5
3A9
100
AcDbEntity
  8
___SYMBOL
100
AcDbLine
 62
7
  6
CONTINUOUS
 10
28.6876382263
 20
21.2397182323
 11
27.7545582263
 21
21.2397182323
  0
LINE
  5
3AA
100
AcDbEntity
  8
___SYMBOL
100
AcDbLine
 62
7
  6
CONTINUOUS
 10
27.7545582263
 20
21.2397182323
 11
27.7303182263
 21
21.3480682323
  0
LINE
  5
3AB
100
AcDbEntity
  8
___SYMBOL
100
AcDbLine
 62
7
  6
CONTINUOUS
 10
27.7303182263
 20
21.3480682323
 11
27.7830682263
 21
21.4050982323
  0
LINE
  5
3AC
100
AcDbEntity
  8
___SYMBOL
100
AcDbLine
 62
7
  6
CONTINUOUS
 10
27.7830682263
 20
21.4050982323
 11
27.7545582263
 21
21.5219982323
  0
LINE
  5
3AD
100
AcDbEntity
  8
___SYMBOL
100
AcDbLine
 62
7
  6
CONTINUOUS
 10
27.7545582263
 20
21.5219982323
 11
27.8272582263
 21
21.5676182323
  0
LINE
  5
3AE
100
AcDbEntity
  8
___SYMBOL
100
AcDbLine
 62
7
  6
CONTINUOUS
 10
27.8272582263
 20
21.5676182323
 11
27.8301082263
 21
21.6602882323
  0
LINE
  5
3AF
100
AcDbEntity
  8
___SYMBOL
100
AcDbLine
 62
7
  6
CONTINUOUS
 10
27.8301082263
 20
21.6602882323
 11
27.9213582263
 21
21.7066182323
  0
LINE
  5
3B0
100
AcDbEntity
  8
___SYMBOL
100
AcDbLine
 62
7
  6
CONTINUOUS
 10
27.9213582263
 20
21.7066182323
 11
29.404149442
 21
21.7066182323
  0
LINE
  5
3B1
100
AcDbEntity
  8
___SYMBOL
100
AcDbLine
 62
7
  6
CONTINUOUS
 10
28.7781582263
 20
21.2397182323
 11
29.4681682263
 21
21.2397182323
  0
LINE
  5
3B2
100
AcDbEntity
  8
___SYMBOL
100
AcDbLine
 62
7
  6
CONTINUOUS
 10
29.4681682263
 20
21.2397182323
 11
29.4681682263
 21
21.6466182323
  0
LINE
  5
3B3
100
AcDbEntity
  8
___SYMBOL
100
AcDbLine
 62
2
  6
CONTINUOUS
 10
29.4125682263
 20
21.2397182323
 11
29.4681682263
 21
21.2896182323
  0
LINE
  5
3B4
100
AcDbEntity
  8
___SYMBOL
100
AcDbLine
 62
2
  6
CONTINUOUS
 10
29.2251122849
 20
21.2397182323
 11
29.4681682263
 21
21.4578482323
  0
LINE
  5
3B5
100
AcDbEntity
  8
___SYMBOL
100
AcDbLine
 62
2
  6
CONTINUOUS
 10
29.1170902263
 20
21.2397182323
 11
29.4681682263
 21
21.5547882323
  0
LINE
  5
3B6
100
AcDbEntity
  8
___SYMBOL
100
AcDbLine
 62
2
  6
CONTINUOUS
 10
29.0170165127
 20
21.2397182323
 11
29.4681682263
 21
21.6445982323
  0
LINE
  5
3B7
100
AcDbEntity
  8
___SYMBOL
100
AcDbLine
 62
2
  6
CONTINUOUS
 10
28.9073184081
 20
21.2397182323
 11
29.4316754233
 21
21.6998035761
  0
LINE
  5
3B8
100
AcDbEntity
  8
___SYMBOL
100
AcDbLine
 62
2
  6
CONTINUOUS
 10
28.8301982263
 20
21.2729682323
 11
29.313413376
 21
21.7066182323
  0
LINE
  5
3B9
100
AcDbEntity
  8
___SYMBOL
100
AcDbLine
 62
2
  6
CONTINUOUS
 10
28.8301982263
 20
21.3797482323
 11
29.1944285411
 21
21.7066182323
  0
LINE
  5
3BA
100
AcDbEntity
  8
___SYMBOL
100
AcDbLine
 62
2
  6
CONTINUOUS
 10
28.8301982263
 20
21.4799382323
 11
29.0827802343
 21
21.7066182323
  0
LINE
  5
3BB
100
AcDbEntity
  8
___SYMBOL
100
AcDbLine
 62
2
  6
CONTINUOUS
 10
28.3434162267
 20
21.2397182323
 11
28.6306082263
 21
21.4974535039
  0
LINE
  5
3BC
100
AcDbEntity
  8
___SYMBOL
100
AcDbLine
 62
2
  6
CONTINUOUS
 10
28.2317736863
 20
21.2397182323
 11
28.7520302294
 21
21.7066182323
  0
LINE
  5
3BD
100
AcDbEntity
  8
___SYMBOL
100
AcDbLine
 62
2
  6
CONTINUOUS
 10
28.1234279335
 20
21.2397182323
 11
28.643689092
 21
21.7066182323
  0
LINE
  5
3BE
100
AcDbEntity
  8
___SYMBOL
100
AcDbLine
 62
2
  6
CONTINUOUS
 10
28.7442282263
 20
21.5000282323
 11
28.9744265037
 21
21.7066182323
  0
LINE
  5
3BF
100
AcDbEntity
  8
___SYMBOL
100
AcDbLine
 62
2
  6
CONTINUOUS
 10
28.5625130524
 20
21.2397182323
 11
28.6306082263
 21
21.3008282323
  0
LINE
  5
3C0
100
AcDbEntity
  8
___SYMBOL
100
AcDbLine
 62
2
  6
CONTINUOUS
 10
28.0140962267
 20
21.2397182323
 11
28.5343585246
 21
21.7066182323
  0
LINE
  5
3C1
100
AcDbEntity
  8
___SYMBOL
100
AcDbLine
 62
2
  6
CONTINUOUS
 10
27.9024372939
 20
21.2397182323
 11
28.4231782263
 21
21.7070382323
  0
LINE
  5
3C2
100
AcDbEntity
  8
___SYMBOL
100
AcDbLine
 62
2
  6
CONTINUOUS
 10
27.7940979335
 20
21.2397182323
 11
28.314359092
 21
21.7066182323
  0
LINE
  5
3C3
100
AcDbEntity
  8
___SYMBOL
100
AcDbLine
 62
2
  6
CONTINUOUS
 10
27.7419351499
 20
21.2961419257
 11
28.1993285462
 21
21.7066182323
  0
LINE
  5
3C4
100
AcDbEntity
  8
___SYMBOL
100
AcDbLine
 62
2
  6
CONTINUOUS
 10
27.7774354876
 20
21.4281942394
 11
28.087680225
 21
21.7066182323
  0
LINE
  5
3C5
100
AcDbEntity
  8
___SYMBOL
100
AcDbLine
 62
2
  6
CONTINUOUS
 10
27.8273379268
 20
21.5702097569
 11
27.9793391643
 21
21.7066182323
  0
LINE
  5
3C6
100
AcDbEntity
  8
___SYMBOL
100
AcDbLine
 62
2
  6
CONTINUOUS
 10
28.9763282263
 20
21.1327982323
 11
29.0226582263
 21
21.1755682323
  0
LINE
  5
3C7
100
AcDbEntity
  8
___SYMBOL
100
AcDbLine
 62
2
  6
CONTINUOUS
 10
29.0309782263
 20
21.1327982323
 11
29.0773082263
 21
21.1755682323
  0
LINE
  5
3C8
100
AcDbEntity
  8
___SYMBOL
100
AcDbLine
 62
2
  6
CONTINUOUS
 10
29.0986882263
 20
21.1327982323
 11
29.1450282263
 21
21.1755682323
  0
LINE
  5
3C9
100
AcDbEntity
  8
___SYMBOL
100
AcDbLine
 62
2
  6
CONTINUOUS
 10
29.1580982263
 20
21.1327982323
 11
29.2044282263
 21
21.1755682323
  0
LINE
  5
3CA
100
AcDbEntity
  8
___SYMBOL
100
AcDbLine
 62
2
  6
CONTINUOUS
 10
29.2163082263
 20
21.1327982323
 11
29.2626382263
 21
21.1755682323
  0
LINE
  5
3CB
100
AcDbEntity
  8
___SYMBOL
100
AcDbLine
 62
2
  6
CONTINUOUS
 10
29.2733282263
 20
21.1327982323
 11
29.3196682263
 21
21.1755682323
  0
LINE
  5
3CC
100
AcDbEntity
  8
___SYMBOL
100
AcDbLine
 62
2
  6
CONTINUOUS
 10
29.3374882263
 20
21.1327982323
 11
29.3808182765
 21
21.1727952017
  0
LINE
  5
3CD
100
AcDbEntity
  8
___SYMBOL
100
AcDbLine
 62
2
  6
CONTINUOUS
 10
29.4239899582
 20
21.0869862761
 11
29.4555176211
 21
21.1160982822
  0
LINE
  5
3CE
100
AcDbEntity
  8
___SYMBOL
100
AcDbLine
 62
2
  6
CONTINUOUS
 10
29.4325282263
 20
21.0221296073
 11
29.4729182263
 21
21.0594182323
  0
LINE
  5
3CF
100
AcDbEntity
  8
___SYMBOL
100
AcDbLine
 62
2
  6
CONTINUOUS
 10
29.4325282263
 20
20.9600782323
 11
29.4729182263
 21
20.9973582323
  0
LINE
  5
3D0
100
AcDbEntity
  8
___SYMBOL
100
AcDbLine
 62
2
  6
CONTINUOUS
 10
29.4325282263
 20
20.8899882323
 11
29.4729182263
 21
20.9272682323
  0
LINE
  5
3D1
100
AcDbEntity
  8
___SYMBOL
100
AcDbLine
 62
2
  6
CONTINUOUS
 10
29.4325282263
 20
20.8198882323
 11
29.4729182263
 21
20.8571782323
  0
LINE
  5
3D2
100
AcDbEntity
  8
___SYMBOL
100
AcDbLine
 62
2
  6
CONTINUOUS
 10
29.4325282263
 20
20.7438582323
 11
29.4729182263
 21
20.7811382323
  0
LINE
  5
3D3
100
AcDbEntity
  8
___SYMBOL
100
AcDbLine
 62
2
  6
CONTINUOUS
 10
29.4325282263
 20
20.6785182323
 11
29.4729182263
 21
20.7157982323
  0
LINE
  5
3D4
100
AcDbEntity
  8
___SYMBOL
100
AcDbLine
 62
2
  6
CONTINUOUS
 10
29.4325282263
 20
20.6119882323
 11
29.4729182263
 21
20.6492682323
  0
LINE
  5
3D5
100
AcDbEntity
  8
___SYMBOL
100
AcDbLine
 62
2
  6
CONTINUOUS
 10
29.4325282263
 20
20.5347682323
 11
29.4729182263
 21
20.5720482323
  0
LINE
  5
3D6
100
AcDbEntity
  8
___SYMBOL
100
AcDbLine
 62
2
  6
CONTINUOUS
 10
29.4325282263
 20
20.4658582323
 11
29.4729182263
 21
20.5031382323
  0
LINE
  5
3D7
100
AcDbEntity
  8
___SYMBOL
100
AcDbLine
 62
2
  6
CONTINUOUS
 10
29.4325282263
 20
20.3957682323
 11
29.4729182263
 21
20.4330482323
  0
LINE
  5
3D8
100
AcDbEntity
  8
___SYMBOL
100
AcDbLine
 62
2
  6
CONTINUOUS
 10
29.4325282263
 20
20.3375551554
 11
29.4729182263
 21
20.3748382323
  0
LINE
  5
3D9
100
AcDbEntity
  8
___SYMBOL
100
AcDbLine
 62
7
  6
CONTINUOUS
 10
28.6876382263
 20
20.9878582323
 11
28.7781582263
 21
20.9878582323
  0
LINE
  5
3DA
100
AcDbEntity
  8
___SYMBOL
100
AcDbLine
 62
2
  6
CONTINUOUS
 10
28.4543370681
 20
21.2397182323
 11
28.6306082263
 21
21.3979082323
  0
LINE
  5
3DB
100
AcDbEntity
  8
___SYMBOL
100
AcDbLine
 62
2
  6
CONTINUOUS
 10
28.6333323643
 20
21.4998982323
 11
28.8636785246
 21
21.7066182323
  0
LINE
  5
3DC
100
AcDbEntity
  8
___SYMBOL
100
AcDbLine
 62
7
  6
CONTINUOUS
 10
28.6306082263
 20
21.4998982323
 11
28.6306082263
 21
21.2397182323
  0
ENDBLK
  5
3DD
100
AcDbEntity
  8
0
  6
BYBLOCK
 62
0
100
AcDbBlockEnd
  0
BLOCK
  5
3DE
100
AcDbEntity
  8
0
100
AcDbBlockBegin
  2
_FILLED
 70
64
 10
0.0
 20
0.0
  3
_FILLED
  1

  0
SOLID
  5
3DF
100
AcDbEntity
  8
0
  6
BYBLOCK
 62
0
100
AcDbTrace
 10
0.0
 20
0.0
 11
-1.0
 21
0.1666666667
 12
-1.0
 22
-0.1666666667
 13
-1.0
 23
-0.1666666667
  0
ENDBLK
  5
3E0
100
AcDbEntity
  8
0
  6
BYBLOCK
 62
0
100
AcDbBlockEnd
  0
BLOCK
  5
3E1
100
AcDbEntity
  8
0
100
AcDbBlockBegin
 62
2
  6
CONTINUOUS
  2
*D0
 70
65
 10
0.0
 20
0.0
  3
*D0
  1

  0
MTEXT
  5
3E2
100
AcDbEntity
  8
0
100
AcDbMText
 62
2
  6
CONTINUOUS
  7
STANDARD
 71
3
 72
1
 10
34.1618943361
 20
11.0775616284
 30
0.0
 11
1.0
 21
0.0
 31
0.0
 44
0.9
  1
(R1/2)
 40
0.15625
 41
0.75
  0
LINE
  5
3E3
100
AcDbEntity
  8
0
100
AcDbLine
 62
2
  6
CONTINUOUS
 10
35.1019987848
 20
10.3582240913
 11
34.4118943361
 21
10.9994366284
  0
LINE
  5
3E4
100
AcDbEntity
  8
0
100
AcDbLine
 62
2
  6
CONTINUOUS
 10
34.4118943361
 20
10.9994366284
 11
34.2400193361
 21
10.9994366284
  0
INSERT
  5
3E5
100
AcDbEntity
  8
0
100
AcDbBlockReference
 62
2
  6
CONTINUOUS
  2
_FILLED
 10
35.1019987848
 20
10.3582240913
 41
0.1875
 42
0.1875
 43
0.1875
 50
317.1032119906
  0
ENDBLK
  5
3E6
100
AcDbEntity
  8
0
  6
BYBLOCK
 62
0
100
AcDbBlockEnd
  0
BLOCK
  5
3E7
100
AcDbEntity
  8
0
100
AcDbBlockBegin
 62
2
  6
CONTINUOUS
  2
*D1
 70
65
 10
0.0
 20
0.0
  3
*D1
  1

  0
MTEXT
  5
3E8
100
AcDbEntity
  8
0
100
AcDbMText
 62
2
  6
CONTINUOUS
  7
STANDARD
 71
1
 72
1
 10
17.6578680038
 20
17.9536629663
 30
0.0
 11
1.0
 21
0.0
 31
0.0
 44
0.9
  1
21-1/8"\P[53,7 cm]
 40
0.15625
 41
1.125
  0
LINE
  5
3E9
100
AcDbEntity
  8
0
100
AcDbLine
 62
2
  6
CONTINUOUS
 10
18.7622168113
 20
8.8835639922
 11
17.9703680038
 21
8.8835639922
  0
LINE
  5
3EA
100
AcDbEntity
  8
0
100
AcDbLine
 62
2
  6
CONTINUOUS
 10
18.8020798807
 20
30.0135639922
 11
17.9703680038
 21
30.0135639922
  0
LINE
  5
3EB
100
AcDbEntity
  8
0
100
AcDbLine
 62
2
  6
CONTINUOUS
 10
18.0953680038
 20
8.8835639922
 11
18.0953680038
 21
17.4849129663
  0
LINE
  5
3EC
100
AcDbEntity
  8
0
100
AcDbLine
 62
2
  6
CONTINUOUS
 10
18.0953680038
 20
30.0135639922
 11
18.0953680038
 21
18.0317879663
  0
INSERT
  5
3ED
100
AcDbEntity
  8
0
100
AcDbBlockReference
 62
2
  6
CONTINUOUS
  2
_FILLED
 10
18.0953680038
 20
8.8835639922
 41
0.1875
 42
0.1875
 43
0.1875
 50
270.0
  0
INSERT
  5
3EE
100
AcDbEntity
  8
0
100
AcDbBlockReference
 62
2
  6
CONTINUOUS
  2
_FILLED
 10
18.0953680038
 20
30.0135639922
 41
0.1875
 42
0.1875
 43
0.1875
 50
90.0
  0
ENDBLK
  5
3EF
100
AcDbEntity
  8
0
  6
BYBLOCK
 62
0
100
AcDbBlockEnd
  0
BLOCK
  5
3F0
100
AcDbEntity
  8
0
100
AcDbBlockBegin
 62
2
  6
CONTINUOUS
  2
*D2
 70
65
 10
0.0
 20
0.0
  3
*D2
  1

  0
MTEXT
  5
3F1
100
AcDbEntity
  8
0
100
AcDbMText
 62
2
  6
CONTINUOUS
  7
STANDARD
 71
1
 72
1
 10
18.8306005154
 20
21.5854394589
 30
0.0
 11
1.0
 21
0.0
 31
0.0
 44
0.9
  1
18-1/2"\P[47,0 cm]
 40
0.15625
 41
1.125
  0
LINE
  5
3F2
100
AcDbEntity
  8
0
100
AcDbLine
 62
2
  6
CONTINUOUS
 10
19.3931005154
 20
10.1985639922
 11
18.1179256405
 21
10.1985639922
  0
LINE
  5
3F3
100
AcDbEntity
  8
0
100
AcDbLine
 62
2
  6
CONTINUOUS
 10
19.3931005154
 20
28.6985639922
 11
18.2157713564
 21
28.6985639922
  0
LINE
  5
3F4
100
AcDbEntity
  8
0
100
AcDbLine
 62
2
  6
CONTINUOUS
 10
19.2681005154
 20
10.1985639922
 11
19.2681005154
 21
21.1166894589
  0
LINE
  5
3F5
100
AcDbEntity
  8
0
100
AcDbLine
 62
2
  6
CONTINUOUS
 10
19.2681005154
 20
28.6985639922
 11
19.2681005154
 21
21.6635644589
  0
INSERT
  5
3F6
100
AcDbEntity
  8
0
100
AcDbBlockReference
 62
2
  6
CONTINUOUS
  2
_FILLED
 10
19.2681005154
 20
10.1985639922
 41
0.1875
 42
0.1875
 43
0.1875
 50
270.0
  0
INSERT
  5
3F7
100
AcDbEntity
  8
0
100
AcDbBlockReference
 62
2
  6
CONTINUOUS
  2
_FILLED
 10
19.2681005154
 20
28.6985639922
 41
0.1875
 42
0.1875
 43
0.1875
 50
90.0
  0
ENDBLK
  5
3F8
100
AcDbEntity
  8
0
  6
BYBLOCK
 62
0
100
AcDbBlockEnd
  0
BLOCK
  5
3F9
100
AcDbEntity
  8
0
100
AcDbBlockBegin
 62
2
  6
CONTINUOUS
  2
*D3
 70
65
 10
0.0
 20
0.0
  3
*D3
  1

  0
MTEXT
  5
3FA
100
AcDbEntity
  8
0
100
AcDbMText
 62
2
  6
CONTINUOUS
  7
STANDARD
 71
1
 72
1
 10
20.0923817756
 20
19.0136780332
 30
0.0
 11
1.0
 21
0.0
 31
0.0
 44
0.9
  1
31-1/4"\P[79,4 cm]
 40
0.15625
 41
1.125
  0
LINE
  5
3FB
100
AcDbEntity
  8
0
100
AcDbLine
 62
2
  6
CONTINUOUS
 10
35.2357082554
 20
19.2145754236
 11
35.2357082554
 21
18.8105530332
  0
LINE
  5
3FC
100
AcDbEntity
  8
0
100
AcDbLine
 62
2
  6
CONTINUOUS
 10
3.9857082554
 20
19.1743096969
 11
3.9857082554
 21
18.8105530332
  0
LINE
  5
3FD
100
AcDbEntity
  8
0
100
AcDbLine
 62
2
  6
CONTINUOUS
 10
35.2357082554
 20
18.9355530332
 11
21.2955067756
 21
18.9355530332
  0
LINE
  5
3FE
100
AcDbEntity
  8
0
100
AcDbLine
 62
2
  6
CONTINUOUS
 10
3.9857082554
 20
18.9355530332
 11
20.0142567756
 21
18.9355530332
  0
INSERT
  5
3FF
100
AcDbEntity
  8
0
100
AcDbBlockReference
 62
2
  6
CONTINUOUS
  2
_FILLED
 10
35.2357082554
 20
18.9355530332
 41
0.1875
 42
0.1875
 43
0.1875
  0
INSERT
  5
400
100
AcDbEntity
  8
0
100
AcDbBlockReference
 62
2
  6
CONTINUOUS
  2
_FILLED
 10
3.9857082554
 20
18.9355530332
 41
0.1875
 42
0.1875
 43
0.1875
 50
180.0
  0
ENDBLK
  5
401
100
AcDbEntity
  8
0
  6
BYBLOCK
 62
0
100
AcDbBlockEnd
  0
BLOCK
  5
402
100
AcDbEntity
  8
0
100
AcDbBlockBegin
 62
2
  6
CONTINUOUS
  2
*D4
 70
65
 10
0.0
 20
0.0
  3
*D4
  1

  0
MTEXT
  5
403
100
AcDbEntity
  8
0
100
AcDbMText
 62
2
  6
CONTINUOUS
  7
STANDARD
 71
1
 72
1
 10
16.0331216575
 20
20.0368314765
 30
0.0
 11
1.0
 21
0.0
 31
0.0
 44
0.9
  1
33"\P[83,8 cm]
 40
0.15625
 41
1.125
  0
LINE
  5
404
100
AcDbEntity
  8
0
100
AcDbLine
 62
2
  6
CONTINUOUS
 10
36.1107082554
 20
20.2615238612
 11
36.1107082554
 21
19.8337064765
  0
LINE
  5
405
100
AcDbEntity
  8
0
100
AcDbLine
 62
2
  6
CONTINUOUS
 10
3.1107082554
 20
20.3420553145
 11
3.1107082554
 21
19.8337064765
  0
LINE
  5
406
100
AcDbEntity
  8
0
100
AcDbLine
 62
2
  6
CONTINUOUS
 10
36.1107082554
 20
19.9587064765
 11
17.2362466575
 21
19.9587064765
  0
LINE
  5
407
100
AcDbEntity
  8
0
100
AcDbLine
 62
2
  6
CONTINUOUS
 10
3.1107082554
 20
19.9587064765
 11
15.9549966575
 21
19.9587064765
  0
INSERT
  5
408
100
AcDbEntity
  8
0
100
AcDbBlockReference
 62
2
  6
CONTINUOUS
  2
_FILLED
 10
36.1107082554
 20
19.9587064765
 41
0.1875
 42
0.1875
 43
0.1875
  0
INSERT
  5
409
100
AcDbEntity
  8
0
100
AcDbBlockReference
 62
2
  6
CONTINUOUS
  2
_FILLED
 10
3.1107082554
 20
19.9587064765
 41
0.1875
 42
0.1875
 43
0.1875
 50
180.0
  0
ENDBLK
  5
40A
100
AcDbEntity
  8
0
  6
BYBLOCK
 62
0
100
AcDbBlockEnd
  0
ENDSEC
  0
SECTION
  2
ENTITIES
  0
DIMENSION
  5
40B
100
AcDbEntity
  8
0
100
AcDbDimension
 62
2
  6
CONTINUOUS
  2
*D0
 10
34.7357082554
 20
10.6985639922
 11
33.6618943361
 21
10.9994366284
 70
164
 71
3
 42
0.5
  1
(<>)
  3
DIMSTYLE_1
100
AcDbRadialDimension
 15
35.1019987848
 25
10.3582240913
  0
DIMENSION
  5
40C
100
AcDbEntity
  8
0
100
AcDbDimension
 62
2
  6
CONTINUOUS
  2
*D1
 10
18.0953680038
 20
30.0135639922
 11
18.2203680038
 21
17.7583504663
 70
160
 71
1
 42
21.13
  1
<>"\P[53,7 cm]
  3
DIMSTYLE_2
100
AcDbAlignedDimension
 13
18.7622168113
 23
8.8835639922
 14
18.8020798807
 24
30.0135639922
 50
90.0
100
AcDbRotatedDimension
  0
DIMENSION
  5
40D
100
AcDbEntity
  8
0
100
AcDbDimension
 62
2
  6
CONTINUOUS
  2
*D2
 10
19.2681005154
 20
28.6985639922
 11
19.3931005154
 21
21.3901269589
 70
160
 71
1
 42
18.5
  1
<>"\P[47,0 cm]
  3
DIMSTYLE_2
100
AcDbAlignedDimension
 13
18.1179256405
 23
10.1985639922
 14
18.2157713564
 24
28.6985639922
 50
90.0
100
AcDbRotatedDimension
  0
DIMENSION
  5
40E
100
AcDbEntity
  8
0
100
AcDbDimension
 62
2
  6
CONTINUOUS
  2
*D3
 10
3.9857082554
 20
18.9355530332
 11
20.6548817756
 21
18.8183655332
 70
160
 71
1
 42
31.25
  1
<>"\P[79,4 cm]
  3
DIMSTYLE_3
100
AcDbAlignedDimension
 13
35.2357082554
 23
19.2145754236
 14
3.9857082554
 24
19.1743096969
 50
180.0
100
AcDbRotatedDimension
  0
DIMENSION
  5
40F
100
AcDbEntity
  8
0
100
AcDbDimension
 62
2
  6
CONTINUOUS
  2
*D4
 10
3.1107082554
 20
19.9587064765
 11
16.5956216575
 21
19.8415189765
 70
160
 71
1
 42
33.0
  1
<>"\P[83,8 cm]
  3
DIMSTYLE_2
100
AcDbAlignedDimension
 13
36.1107082554
 23
20.2615238612
 14
3.1107082554
 24
20.3420553145
 50
180.0
100
AcDbRotatedDimension
  0
MTEXT
  5
410
100
AcDbEntity
  8
___NOTE
100
AcDbMText
 62
2
  6
CONTINUOUS
  7
TEXTSTYLE_2
 71
1
 72
1
 10
10.0831892307
 20
23.3865699219
 30
0.0
 11
1.0
 21
0.0
 31
0.0
 44
0.9
  1
TM
 40
0.094
 41
0.188
  0
LEADER
  5
411
100
AcDbEntity
  8
___NOTE
100
AcDbLeader
 62
2
  6
CONTINUOUS
  3
STANDARD
 71
1
 72
0
 73
0
 75
0
 40
0.15625
 41
1.375
 76
3
 10
36.1107082554
 20
25.7467667706
 30
0.0
 10
34.6029964593
 20
24.8691641927
 30
0.0
 10
34.3529964593
 20
24.8691641927
 30
0.0
340
412
1001
ACAD
1000
DSTYLE
1002
{
1070
77
1070
0
1002
}
  0
MTEXT
  5
412
102
{ACAD_REACTORS
330
411
102
}
100
AcDbEntity
  8
___NOTE
100
AcDbMText
 62
2
  6
CONTINUOUS
  7
STANDARD
 71
3
 72
1
 10
34.3529964593
 20
24.9472891927
 30
0.0
 11
1.0
 21
0.0
 31
0.0
 44
0.9
  1
RIM OF SINK\PREBORDE DE FREGADERO\PREBORD D'ÉVIER
 40
0.15625
 41
2.5
  0
LEADER
  5
413
100
AcDbEntity
  8
___NOTE
100
AcDbLeader
 62
2
  6
CONTINUOUS
  3
STANDARD
 71
1
 72
0
 73
0
 75
0
 40
0.15625
 41
3.375
 76
3
 10
35.2357082554
 20
22.3364141785
 30
0.0
 10
34.2629045657
 20
21.56402024
 30
0.0
 10
34.0129045657
 20
21.56402024
 30
0.0
340
414
1001
ACAD
1000
DSTYLE
1002
{
1070
77
1070
0
1002
}
  0
MTEXT
  5
414
102
{ACAD_REACTORS
330
413
102
}
100
AcDbEntity
  8
___NOTE
100
AcDbMText
 62
2
  6
CONTINUOUS
  7
STANDARD
 71
3
 72
1
 10
34.0129045657
 20
21.64214524
 30
0.0
 11
1.0
 21
0.0
 31
0.0
 44
0.9
  1
CUT OUT LINE FOR NO REVEAL\PLÍNEA DE CORTE SIN BATIENTE\PLINGE DE COUPE SANS ÉBRASEMENTS
 40
0.15625
 41
4.0
  0
MTEXT
  5
415
100
AcDbEntity
  8
___NOTE
100
AcDbMText
 62
2
  6
CONTINUOUS
  7
TEXTSTYLE_2
 71
1
 72
1
 10
10.8243353515
 20
22.5666681293
 30
0.0
 11
1.0
 21
0.0
 31
0.0
 44
0.9
  1
TM
 40
0.094
 41
0.188
  0
INSERT
  5
416
100
AcDbEntity
  8
___SYMBOL
100
AcDbBlockReference
 62
2
  6
CONTINUOUS
  2
REVEAL-NOREVEAL_BL0
 10
28.6016196042
 20
21.0211982323
  0
INSERT
  5
417
100
AcDbEntity
  8
___SYMBOL
100
AcDbBlockReference
 62
2
  6
CONTINUOUS
  2
COPYRIGHT_YEAR_BL1
 10
31.7311996849
 20
10.6378965454
  0
INSERT
  5
418
100
AcDbEntity
  8
___SYMBOL
100
AcDbBlockReference
 62
2
  6
CONTINUOUS
  2
PACKAGING_UPC_BL2
 10
10.3708993928
 20
14.9633306825
  0
INSERT
  5
419
100
AcDbEntity
  8
___SYMBOL
100
AcDbBlockReference
 62
2
  6
CONTINUOUS
  2
TEMPLATE_NUMBER_BL3
 10
5.6846422363
 20
10.4330995778
  0
INSERT
  5
41A
100
AcDbEntity
  8
___SYMBOL
100
AcDbBlockReference
 62
2
  6
CONTINUOUS
  2
TEMPLATE_NUMBER_BL4
 10
5.7188780381
 20
8.5004905878
  0
INSERT
  5
41B
100
AcDbEntity
  8
___SYMBOL
100
AcDbBlockReference
 62
2
  6
CONTINUOUS
  2
WHEN_PLOTTING_TEMPLATE_N_BL5
 10
26.2993815692
 20
14.8410471187
  0
INSERT
  5
41C
100
AcDbEntity
  8
___SYMBOL
100
AcDbBlockReference
 62
2
  6
CONTINUOUS
  2
CUT-OUT_TEMPLATE_SKU_SIN_BL6
 10
10.5492533175
 20
24.5270956907
  0
LINE
  5
41D
100
AcDbEntity
  8
_CURVE
100
AcDbLine
 62
8
  6
PHANTOM
 10
3.1107082554
 20
30.0135639922
 11
3.1107082554
 21
8.8835639922
  0
LINE
  5
41E
100
AcDbEntity
  8
_CURVE
100
AcDbLine
 62
7
  6
CONTINUOUS
 10
3.9857082554
 20
10.6985639922
 11
3.9857082554
 21
28.1985639922
  0
LINE
  5
41F
100
AcDbEntity
  8
_CURVE
100
AcDbLine
 62
8
  6
PHANTOM
 10
3.1107082554
 20
8.8835639922
 11
36.1107082554
 21
8.8835639922
  0
LINE
  5
420
100
AcDbEntity
  8
_CURVE
100
AcDbLine
 62
7
  6
CONTINUOUS
 10
34.7357082554
 20
10.1985639922
 11
4.4857082554
 21
10.1985639922
  0
LINE
  5
421
100
AcDbEntity
  8
_CURVE
100
AcDbLine
 62
7
  6
CONTINUOUS
 10
4.4857082554
 20
28.6985639922
 11
34.7357082554
 21
28.6985639922
  0
LINE
  5
422
100
AcDbEntity
  8
_CURVE
100
AcDbLine
 62
8
  6
PHANTOM
 10
36.1107082554
 20
30.0135639922
 11
3.1107082554
 21
30.0135639922
  0
LINE
  5
423
100
AcDbEntity
  8
_CURVE
100
AcDbLine
 62
7
  6
CONTINUOUS
 10
35.2357082554
 20
28.1985639922
 11
35.2357082554
 21
10.6985639922
  0
LINE
  5
424
100
AcDbEntity
  8
_CURVE
100
AcDbLine
 62
8
  6
PHANTOM
 10
36.1107082554
 20
8.8835639922
 11
36.1107082554
 21
30.0135639922
  0
CIRCLE
  5
425
100
AcDbEntity
  8
0
100
AcDbCircle
 62
2
  6
CONTINUOUS
 10
11.8330193967
 20
23.2350953049
 40
0.2513022906
  0
CIRCLE
  5
426
100
AcDbEntity
  8
0
100
AcDbCircle
 62
2
  6
CONTINUOUS
 10
12.6605189067
 20
22.3785599004
 40
0.2513022906
  0
ARC
  5
427
100
AcDbEntity
  8
_CURVE
100
AcDbCircle
 62
7
  6
CONTINUOUS
 10
4.4857082554
 20
28.1985639922
 40
0.5
100
AcDbArc
 50
90.0
 51
180.0
  0
ARC
  5
428
100
AcDbEntity
  8
_CURVE
100
AcDbCircle
 62
7
  6
CONTINUOUS
 10
4.4857082554
 20
10.6985639922
 40
0.5
100
AcDbArc
 50
180.0
 51
270.0
  0
ARC
  5
429
100
AcDbEntity
  8
_CURVE
100
AcDbCircle
 62
7
  6
CONTINUOUS
 10
34.7357082554
 20
10.6985639922
 40
0.5
100
AcDbArc
 50
270.0
 51
360.0
  0
ARC
  5
42A
100
AcDbEntity
  8
_CURVE
100
AcDbCircle
 62
7
  6
CONTINUOUS
 10
34.7357082554
 20
28.1985639922
 40
0.5
100
AcDbArc
 50
0.0
 51
90.0
  0
ENDSEC
  0
SECTION
  2
OBJECTS
  0
DICTIONARY
  5
C
100
AcDbDictionary
280
0
281
1
  3
ACAD_GROUP
350
D
  3
ACAD_MLINESTYLE
350
17
  3
ACAD_LAYOUT
350
1A
  3
ACAD_PLOTSETTINGS
350
19
  3
ACAD_PLOTSTYLENAME
350
E
  0
DICTIONARY
  5
D
102
{ACAD_REACTORS
330
C
102
}
100
AcDbDictionary
280
0
281
1
  0
ACDBDICTIONARYWDFLT
  5
E
102
{ACAD_REACTORS
330
C
102
}
100
AcDbDictionary
281
1
  3
Normal
350
F
100
AcDbDictionaryWithDefault
340
F
  0
DICTIONARY
  5
17
102
{ACAD_REACTORS
330
C
102
}
100
AcDbDictionary
280
0
281
1
  3
Standard
350
18
  0
DICTIONARY
  5
19
102
{ACAD_REACTORS
330
C
102
}
100
AcDbDictionary
281
1
  0
DICTIONARY
  5
1A
102
{ACAD_REACTORS
330
C
102
}
100
AcDbDictionary
281
1
  3
Model
350
42B
  3
Layout1
350
42C
  0
ACDBPLACEHOLDER
  5
F
102
{ACAD_REACTORS
330
E
102
}
  0
MLINESTYLE
  5
18
102
{ACAD_REACTORS
330
17
102
}
100
AcDbMlineStyle
  2
STANDARD
 70
0
  3

 62
256
 51
90.0
 52
90.0
 71
2
 49
0.5
 62
256
  6
BYLAYER
 49
-0.5
 62
256
  6
BYLAYER
  0
LAYOUT
  5
42B
102
{ACAD_REACTORS
330
1A
102
}
100
AcDbPlotSettings
  1

  2
none_device
  4
ANSI_E_(44.00_x_34.00_Inches)
  6

 40
0.0
 41
0.0
 42
0.0
 43
0.0
 44
1117.6
 45
863.6
 46
0.0
 47
0.0
 48
0.0
 49
0.0
140
0.0
141
0.0
142
1.0
143
1.0
 70
1024
 72
0
 73
0
 74
0
  7

 75
0
147
1.0
148
0.0
149
0.0
100
AcDbLayout
  1
Model
 70
0
 71
0
 10
0.0
 20
0.0
 11
44.0
 21
34.0
 12
0.0
 22
0.0
 32
0.0
 14
0.0
 24
0.0
 34
0.0
 15
0.0
 25
0.0
 35
0.0
146
0.0
 13
0.0
 23
0.0
 33
0.0
 16
1.0
 26
0.0
 36
0.0
 17
0.0
 27
1.0
 37
0.0
 76
0
330
20D
345
0
346
0
  0
LAYOUT
  5
42C
102
{ACAD_REACTORS
330
1A
102
}
100
AcDbPlotSettings
  1

  2
none_device
  4
ANSI_E_(44.00_x_34.00_Inches)
  6

 40
0.0
 41
0.0
 42
0.0
 43
0.0
 44
1117.6
 45
863.6
 46
0.0
 47
0.0
 48
0.0
 49
0.0
140
0.0
141
0.0
142
1.0
143
1.0
 70
0
 72
0
 73
0
 74
0
  7

 75
0
147
1.0
148
0.0
149
0.0
100
AcDbLayout
  1
Layout1
 70
0
 71
1
 10
0.0
 20
0.0
 11
44.0
 21
34.0
 12
0.0
 22
0.0
 32
0.0
 14
0.0
 24
0.0
 34
0.0
 15
0.0
 25
0.0
 35
0.0
146
0.0
 13
0.0
 23
0.0
 33
0.0
 16
1.0
 26
0.0
 36
0.0
 17
0.0
 27
1.0
 37
0.0
 76
0
330
20E
345
0
346
0
  0
ENDSEC
  0
EOF
