999
DXF file: 1043168_7_B.dxf
999
Pro/ENGINEER 2016130 by Parametric Technology Corporation
  0
SECTION
  2
HEADER
  9
$EXTMAX
 10
44.0
 20
34.0
 30
0.0
  9
$EXTMIN
 10
0.0
 20
0.0
 30
0.0
  9
$LIMMIN
 10
0.0
 20
0.0
  9
$LIMMAX
 10
44.0
 20
34.0
  9
$VIEWCTR
 10
22.0
 20
17.0
  9
$VIEWSIZE
 40
34.0
  9
$CLAYER
  8
0
  9
$LTSCALE
 40
2.42
  9
$CELTYPE
  6
BYLAYER
  9
$DIMSCALE
 40
1.0
  9
$DIMASZ
 40
0.1875
  9
$DIMEXO
 40
0.0625
  9
$DIMDLI
 40
1.672
  9
$DIMEXE
 40
0.125
  9
$DIMCEN
 40
0.396
  9
$DIMLFAC
 40
1.0
  9
$DIMBLK
  1
_FILLED
  9
$DIMALT
 70
0
  9
$DIMALTF
 40
25.4
  9
$DIMTXT
 40
0.15625
  9
$AUNITS
 70
0
  9
$PDMODE
 70
3
  9
$PDSIZE
 40
0.3125
  9
$TILEMODE
 70
1
  0
ENDSEC
  0
SECTION
  2
TABLES
  0
TABLE
  2
LTYPE
 70
6
  0
LTYPE
  2
BYBLOCK
 70
0
  3

 72
65
 73
0
 40
0.0
  0
LTYPE
  2
BYLAYER
 70
0
  3

 72
65
 73
0
 40
0.0
  0
LTYPE
  2
CONTINUOUS
 70
64
  3
Solid line
 72
65
 73
0
 40
0.0
  0
LTYPE
  2
CENTER
 70
64
  3
____ _ ____ _ ____ _ ____ _ ____ _ ____ _ ____
 72
65
 73
4
 40
0.6
 49
0.375
 49
-0.075
 49
0.075
 49
-0.075
  0
LTYPE
  2
HIDDEN
 70
64
  3
- - - - - - - - - - - - - - - - - - - -
 72
65
 73
2
 40
0.2
 49
0.1
 49
-0.1
  0
LTYPE
  2
PHANTOM
 70
64
  3
_____ _ _ _____ _ _ _____ _ _ _____
 72
65
 73
6
 40
0.8
 49
0.45
 49
-0.05
 49
0.1
 49
-0.05
 49
0.1
 49
-0.05
  0
LTYPE
  2
DOT
 70
64
  3
. . . . . . . . . . . . . . . . . . . .
 72
65
 73
2
 40
0.2
 49
0.1
 49
-0.1
  0
LTYPE
  2
DASHED
 70
64
  3
- - - - - - - - - - - - - - - - - - - -
 72
65
 73
2
 40
0.2
 49
0.1
 49
-0.1
  0
ENDTAB
  0
TABLE
  2
LAYER
 70
36
  0
LAYER
  2
0
 70
0
 62
7
  6
CONTINUOUS
  0
LAYER
  2
DEFAULT_1
 70
0
 62
7
  6
CENTER
  0
LAYER
  2
DEFAULT_2
 70
0
 62
8
  6
HIDDEN
  0
LAYER
  2
DEFAULT_3
 70
0
 62
7
  6
PHANTOM
  0
LAYER
  2
DATUMS
 70
0
 62
7
  6
CONTINUOUS
  0
LAYER
  2
DATUM_AXIS
 70
0
 62
7
  6
CONTINUOUS
  0
LAYER
  2
DATUM_CSYS
 70
0
 62
7
  6
CONTINUOUS
  0
LAYER
  2
DATUM_PLANE
 70
0
 62
7
  6
CONTINUOUS
  0
LAYER
  2
DATUM_POINT
 70
0
 62
7
  6
CONTINUOUS
  0
LAYER
  2
_CURVE
 70
0
 62
7
  6
CONTINUOUS
  0
LAYER
  2
_SURFACE
 70
0
 62
7
  6
CONTINUOUS
  0
LAYER
  2
__REF_CURVE
 70
0
 62
7
  6
CONTINUOUS
  0
LAYER
  2
__REF_SURFACE
 70
0
 62
7
  6
CONTINUOUS
  0
LAYER
  2
___NOTE
 70
0
 62
7
  6
CONTINUOUS
  0
LAYER
  2
___SYMBOL
 70
0
 62
7
  6
CONTINUOUS
  0
ENDTAB
  0
TABLE
  2
STYLE
 70
1
  0
STYLE
  2
STANDARD
 70
0
 40
0.0
 41
0.8
 50
0.0
 71
0
 42
0.2
  3
txt
  4

  0
STYLE
  2
TEXTSTYLE_1
 70
0
 40
0.0
 41
0.8
 50
0.0
 71
0
 42
0.2
  3
gdt
  4

  0
STYLE
  2
TEXTSTYLE_2
 70
0
 40
0.0
 41
1.0
 50
0.0
 71
0
 42
0.2
  3
txt
  4

  0
ENDTAB
  0
ENDSEC
  0
SECTION
  2
BLOCKS
  0
BLOCK
  8
___SYMBOL
 62
2
  6
CONTINUOUS
  2
CUT-OUT_TEMPLATE_SKU_SIN_BL2
 70
64
 10
14.6565928659
 20
22.6342554509
  0
TEXT
  8
___SYMBOL
 62
2
  6
CONTINUOUS
 10
9.2565928659
 20
24.2740262567
  7
STANDARD
 40
0.25
  1
CUT-OUT TEMPLATE
 41
0.8
 72
0
  0
TEXT
  8
___SYMBOL
 62
2
  6
CONTINUOUS
 10
9.2565928659
 20
23.8990262567
  7
STANDARD
 40
0.25
  1
TOP-MOUNT / UNDER-MOUNT SINK
 41
0.8
 72
0
  0
TEXT
  8
___SYMBOL
 62
2
  6
CONTINUOUS
 10
9.2565928659
 20
23.5240262567
  7
STANDARD
 40
0.25
  1
PLANTILLA DE CORTE
 41
0.8
 72
0
  0
TEXT
  8
___SYMBOL
 62
2
  6
CONTINUOUS
 10
9.2565928659
 20
23.1490262567
  7
STANDARD
 40
0.25
  1
FREGADERO DE MONTAJE POR ARRIBA / DE MONTAJE POR ABAJO
 41
0.8
 72
0
  0
TEXT
  8
___SYMBOL
 62
2
  6
CONTINUOUS
 10
9.2565928659
 20
22.7740262567
  7
STANDARD
 40
0.25
  1
GABARIT DE DÉCOUPE
 41
0.8
 72
0
  0
TEXT
  8
___SYMBOL
 62
2
  6
CONTINUOUS
 10
9.2565928659
 20
22.3990262567
  7
STANDARD
 40
0.25
  1
ÉVIER À MONTAGE EN SURFACE/À MONTAGE SOUS PLAN
 41
0.8
 72
0
  0
TEXT
  8
___SYMBOL
 62
2
  6
CONTINUOUS
 10
9.2565928659
 20
22.0240262567
  7
STANDARD
 40
0.25
  1
 
 41
0.8
 72
0
  0
TEXT
  8
___SYMBOL
 62
2
  6
CONTINUOUS
 10
9.2565928659
 20
21.6490262567
  7
STANDARD
 40
0.25
  1
6625
 41
0.8
 72
0
  0
TEXT
  8
___SYMBOL
 62
2
  6
CONTINUOUS
 10
9.2604838702
 20
20.832653183
  7
STANDARD
 40
0.25
  1
5312
 41
0.8
 72
0
  0
TEXT
  8
___SYMBOL
 62
2
  6
CONTINUOUS
 10
9.263620174
 20
19.9401283582
  7
STANDARD
 40
0.25
  1
5707
 41
0.8
 72
0
  0
LINE
  8
___SYMBOL
 62
2
  6
CONTINUOUS
 10
9.7827712362
 20
25.3244040292
 11
9.5694677844
 21
25.0707557563
  0
LINE
  8
___SYMBOL
 62
2
  6
CONTINUOUS
 10
9.5907094242
 20
25.3244040292
 11
9.7827712362
 21
25.3244040292
  0
LINE
  8
___SYMBOL
 62
2
  6
CONTINUOUS
 10
9.5907094242
 20
25.3244040292
 11
9.4529452575
 21
25.1605828396
  0
LINE
  8
___SYMBOL
 62
2
  6
CONTINUOUS
 10
9.4529452575
 20
25.3244040292
 11
9.4529452575
 21
25.1605828396
  0
LINE
  8
___SYMBOL
 62
2
  6
CONTINUOUS
 10
9.2784450305
 20
25.3244040292
 11
9.4529452575
 21
25.3244040292
  0
LINE
  8
___SYMBOL
 62
2
  6
CONTINUOUS
 10
9.2784450305
 20
25.3244040292
 11
9.2784450305
 21
24.7384663764
  0
LINE
  8
___SYMBOL
 62
2
  6
CONTINUOUS
 10
9.4529452575
 20
24.7384903799
 11
9.2784450305
 21
24.7384663764
  0
LINE
  8
___SYMBOL
 62
2
  6
CONTINUOUS
 10
9.4529452575
 20
24.9399902139
 11
9.4529452575
 21
24.7384903799
  0
LINE
  8
___SYMBOL
 62
2
  6
CONTINUOUS
 10
9.6066831975
 20
24.7384903799
 11
9.4529452575
 21
24.9399902139
  0
LINE
  8
___SYMBOL
 62
2
  6
CONTINUOUS
 10
9.6066831975
 20
24.7384903799
 11
9.8229756191
 21
24.7384903799
  0
LINE
  8
___SYMBOL
 62
2
  6
CONTINUOUS
 10
9.8229756191
 20
24.7384903799
 11
9.5694677844
 21
25.0707557563
  0
SOLID
  8
___SYMBOL
 62
2
  6
CONTINUOUS
 10
9.4529452575
 20
25.1605828396
 11
9.5907094242
 21
25.3244040292
 12
9.7827712362
 22
25.3244040292
 13
9.7827712362
 23
25.3244040292
  0
SOLID
  8
___SYMBOL
 62
2
  6
CONTINUOUS
 10
9.7827712362
 20
25.3244040292
 11
9.5694677844
 21
25.0707557563
 12
9.4529452575
 22
25.1605828396
 13
9.4529452575
 23
25.1605828396
  0
SOLID
  8
___SYMBOL
 62
2
  6
CONTINUOUS
 10
9.4529452575
 20
24.9399902139
 11
9.5694677844
 21
25.0707557563
 12
9.6066831975
 22
24.7384903799
 13
9.6066831975
 23
24.7384903799
  0
SOLID
  8
___SYMBOL
 62
2
  6
CONTINUOUS
 10
9.5694677844
 20
25.0707557563
 11
9.8229756191
 21
24.7384903799
 12
9.6066831975
 22
24.7384903799
 13
9.6066831975
 23
24.7384903799
  0
SOLID
  8
___SYMBOL
 62
2
  6
CONTINUOUS
 10
9.4529452575
 20
24.7384903799
 11
9.2784450305
 21
24.7384663764
 12
9.4529452575
 22
24.9399902139
 13
9.4529452575
 23
24.9399902139
  0
SOLID
  8
___SYMBOL
 62
2
  6
CONTINUOUS
 10
9.5694677844
 20
25.0707557563
 11
9.4529452575
 21
24.9399902139
 12
9.4529452575
 22
25.1605828396
 13
9.4529452575
 23
25.1605828396
  0
SOLID
  8
___SYMBOL
 62
2
  6
CONTINUOUS
 10
9.4529452575
 20
24.9399902139
 11
9.2784450305
 21
24.7384663764
 12
9.4529452575
 22
25.1605828396
 13
9.4529452575
 23
25.1605828396
  0
SOLID
  8
___SYMBOL
 62
2
  6
CONTINUOUS
 10
9.4529452575
 20
25.1605828396
 11
9.2784450305
 21
24.7384663764
 12
9.4529452575
 22
25.3244040292
 13
9.4529452575
 23
25.3244040292
  0
SOLID
  8
___SYMBOL
 62
2
  6
CONTINUOUS
 10
9.2784450305
 20
24.7384663764
 11
9.2784450305
 21
25.3244040292
 12
9.4529452575
 22
25.3244040292
 13
9.4529452575
 23
25.3244040292
  0
CIRCLE
  8
___SYMBOL
 62
2
  6
CONTINUOUS
 10
9.9994844557
 20
25.0303259527
 40
0.298056591
  0
CIRCLE
  8
___SYMBOL
 62
2
  6
CONTINUOUS
 10
9.9994844557
 20
25.0303259527
 40
0.1247694151
  0
SOLID
  8
___SYMBOL
 62
2
  6
CONTINUOUS
 10
9.9073799038
 20
25.3137946158
 11
9.9683290583
 21
25.3267497585
 12
10.0306398531
 22
25.3267497585
 13
10.0306398531
 23
25.3267497585
  0
SOLID
  8
___SYMBOL
 62
2
  6
CONTINUOUS
 10
10.0306398531
 20
25.3267497585
 11
10.0915890076
 21
25.3137946158
 12
9.9073799038
 22
25.3137946158
 13
9.9073799038
 23
25.3137946158
  0
SOLID
  8
___SYMBOL
 62
2
  6
CONTINUOUS
 10
9.8504561602
 20
25.2884505323
 11
9.9073799038
 21
25.3137946158
 12
10.0915890076
 22
25.3137946158
 13
10.0915890076
 23
25.3137946158
  0
SOLID
  8
___SYMBOL
 62
2
  6
CONTINUOUS
 10
10.0915890076
 20
25.3137946158
 11
10.1485127512
 21
25.2884505323
 12
9.8504561602
 22
25.2884505323
 13
9.8504561602
 23
25.2884505323
  0
SOLID
  8
___SYMBOL
 62
2
  6
CONTINUOUS
 10
9.8000456683
 20
25.251825166
 11
9.8504561602
 21
25.2884505323
 12
10.1485127512
 22
25.2884505323
 13
10.1485127512
 23
25.2884505323
  0
SOLID
  8
___SYMBOL
 62
2
  6
CONTINUOUS
 10
10.1485127512
 20
25.2884505323
 11
10.1989232432
 21
25.251825166
 12
9.8000456683
 22
25.251825166
 13
9.8000456683
 23
25.251825166
  0
SOLID
  8
___SYMBOL
 62
2
  6
CONTINUOUS
 10
9.7583516083
 20
25.2055192212
 11
9.8000456683
 21
25.251825166
 12
10.1989232432
 22
25.251825166
 13
10.1989232432
 23
25.251825166
  0
SOLID
  8
___SYMBOL
 62
2
  6
CONTINUOUS
 10
10.1989232432
 20
25.251825166
 11
10.2406173031
 21
25.2055192212
 12
9.7583516083
 22
25.2055192212
 13
9.7583516083
 23
25.2055192212
  0
SOLID
  8
___SYMBOL
 62
2
  6
CONTINUOUS
 10
9.9994844557
 20
25.1550953678
 11
9.7271962109
 21
25.15155649
 12
10.2406173031
 22
25.2055192212
 13
10.2406173031
 23
25.2055192212
  0
SOLID
  8
___SYMBOL
 62
2
  6
CONTINUOUS
 10
9.7271962109
 20
25.15155649
 11
9.7583516083
 21
25.2055192212
 12
10.2406173031
 22
25.2055192212
 13
10.2406173031
 23
25.2055192212
  0
SOLID
  8
___SYMBOL
 62
2
  6
CONTINUOUS
 10
10.2406173031
 20
25.2055192212
 11
10.2717727005
 21
25.15155649
 12
9.9994844557
 22
25.1550953678
 13
9.9994844557
 23
25.1550953678
  0
SOLID
  8
___SYMBOL
 62
2
  6
CONTINUOUS
 10
9.9994844557
 20
25.1550953678
 11
9.9609285861
 21
25.1489887179
 12
9.7271962109
 22
25.15155649
 13
9.7271962109
 23
25.15155649
  0
SOLID
  8
___SYMBOL
 62
2
  6
CONTINUOUS
 10
10.0380403253
 20
25.1489887179
 11
9.9994844557
 21
25.1550953678
 12
10.2717727005
 22
25.15155649
 13
10.2717727005
 23
25.15155649
  0
SOLID
  8
___SYMBOL
 62
2
  6
CONTINUOUS
 10
9.8985438785
 20
25.1036635748
 11
9.7079411164
 21
25.0922954025
 12
9.9261468336
 22
25.1312665299
 13
9.9261468336
 23
25.1312665299
  0
SOLID
  8
___SYMBOL
 62
2
  6
CONTINUOUS
 10
9.9261468336
 20
25.1312665299
 11
9.7079411164
 21
25.0922954025
 12
9.9609285861
 22
25.1489887179
 13
9.9609285861
 23
25.1489887179
  0
SOLID
  8
___SYMBOL
 62
2
  6
CONTINUOUS
 10
9.7079411164
 20
25.0922954025
 11
9.7271962109
 21
25.15155649
 12
9.9609285861
 22
25.1489887179
 13
9.9609285861
 23
25.1489887179
  0
SOLID
  8
___SYMBOL
 62
2
  6
CONTINUOUS
 10
10.0380403253
 20
25.1489887179
 11
10.2717727005
 21
25.15155649
 12
10.0728220778
 22
25.1312665299
 13
10.0728220778
 23
25.1312665299
  0
SOLID
  8
___SYMBOL
 62
2
  6
CONTINUOUS
 10
10.0728220778
 20
25.1312665299
 11
10.2717727005
 21
25.15155649
 12
10.1004250329
 22
25.1036635748
 13
10.1004250329
 23
25.1036635748
  0
SOLID
  8
___SYMBOL
 62
2
  6
CONTINUOUS
 10
10.2717727005
 20
25.15155649
 11
10.2910277951
 21
25.0922954025
 12
10.1004250329
 22
25.1036635748
 13
10.1004250329
 23
25.1036635748
  0
SOLID
  8
___SYMBOL
 62
2
  6
CONTINUOUS
 10
9.8985438785
 20
25.1036635748
 11
9.8808216905
 21
25.0688818223
 12
9.7079411164
 22
25.0922954025
 13
9.7079411164
 23
25.0922954025
  0
SOLID
  8
___SYMBOL
 62
2
  6
CONTINUOUS
 10
10.118147221
 20
25.0688818223
 11
10.1004250329
 21
25.1036635748
 12
10.2910277951
 22
25.0922954025
 13
10.2910277951
 23
25.0922954025
  0
SOLID
  8
___SYMBOL
 62
2
  6
CONTINUOUS
 10
9.7014278647
 20
25.0303259527
 11
9.7079411164
 21
25.0922954025
 12
9.8808216905
 22
25.0688818223
 13
9.8808216905
 23
25.0688818223
  0
SOLID
  8
___SYMBOL
 62
2
  6
CONTINUOUS
 10
9.8808216905
 20
25.0688818223
 11
9.8747150406
 21
25.0303259527
 12
9.7014278647
 22
25.0303259527
 13
9.7014278647
 23
25.0303259527
  0
SOLID
  8
___SYMBOL
 62
2
  6
CONTINUOUS
 10
10.118147221
 20
25.0688818223
 11
10.2910277951
 21
25.0922954025
 12
10.1242538708
 22
25.0303259527
 13
10.1242538708
 23
25.0303259527
  0
SOLID
  8
___SYMBOL
 62
2
  6
CONTINUOUS
 10
10.2910277951
 20
25.0922954025
 11
10.2975410467
 21
25.0303259527
 12
10.1242538708
 22
25.0303259527
 13
10.1242538708
 23
25.0303259527
  0
SOLID
  8
___SYMBOL
 62
2
  6
CONTINUOUS
 10
10.118147221
 20
24.9917700831
 11
10.1242538708
 21
25.0303259527
 12
10.2975410467
 22
25.0303259527
 13
10.2975410467
 23
25.0303259527
  0
SOLID
  8
___SYMBOL
 62
2
  6
CONTINUOUS
 10
9.8808216905
 20
24.9917700831
 11
9.7079411164
 21
24.9683565029
 12
9.8747150406
 22
25.0303259527
 13
9.8747150406
 23
25.0303259527
  0
SOLID
  8
___SYMBOL
 62
2
  6
CONTINUOUS
 10
9.7079411164
 20
24.9683565029
 11
9.7014278647
 21
25.0303259527
 12
9.8747150406
 22
25.0303259527
 13
9.8747150406
 23
25.0303259527
  0
SOLID
  8
___SYMBOL
 62
2
  6
CONTINUOUS
 10
10.2975410467
 20
25.0303259527
 11
10.2910277951
 21
24.9683565029
 12
10.118147221
 22
24.9917700831
 13
10.118147221
 23
24.9917700831
  0
SOLID
  8
___SYMBOL
 62
2
  6
CONTINUOUS
 10
9.8808216905
 20
24.9917700831
 11
9.8985438785
 21
24.9569883306
 12
9.7079411164
 22
24.9683565029
 13
9.7079411164
 23
24.9683565029
  0
SOLID
  8
___SYMBOL
 62
2
  6
CONTINUOUS
 10
10.1004250329
 20
24.9569883306
 11
10.118147221
 21
24.9917700831
 12
10.2910277951
 22
24.9683565029
 13
10.2910277951
 23
24.9683565029
  0
SOLID
  8
___SYMBOL
 62
2
  6
CONTINUOUS
 10
9.9609285861
 20
24.9116631874
 11
9.7271962109
 21
24.9090954154
 12
9.9261468336
 22
24.9293853755
 13
9.9261468336
 23
24.9293853755
  0
SOLID
  8
___SYMBOL
 62
2
  6
CONTINUOUS
 10
9.9261468336
 20
24.9293853755
 11
9.7271962109
 21
24.9090954154
 12
9.8985438785
 22
24.9569883306
 13
9.8985438785
 23
24.9569883306
  0
SOLID
  8
___SYMBOL
 62
2
  6
CONTINUOUS
 10
9.7271962109
 20
24.9090954154
 11
9.7079411164
 21
24.9683565029
 12
9.8985438785
 22
24.9569883306
 13
9.8985438785
 23
24.9569883306
  0
SOLID
  8
___SYMBOL
 62
2
  6
CONTINUOUS
 10
10.1004250329
 20
24.9569883306
 11
10.2910277951
 21
24.9683565029
 12
10.0728220778
 22
24.9293853755
 13
10.0728220778
 23
24.9293853755
  0
SOLID
  8
___SYMBOL
 62
2
  6
CONTINUOUS
 10
10.0728220778
 20
24.9293853755
 11
10.2910277951
 21
24.9683565029
 12
10.0380403253
 22
24.9116631874
 13
10.0380403253
 23
24.9116631874
  0
SOLID
  8
___SYMBOL
 62
2
  6
CONTINUOUS
 10
10.2910277951
 20
24.9683565029
 11
10.2717727005
 21
24.9090954154
 12
10.0380403253
 22
24.9116631874
 13
10.0380403253
 23
24.9116631874
  0
SOLID
  8
___SYMBOL
 62
2
  6
CONTINUOUS
 10
9.9609285861
 20
24.9116631874
 11
9.9994844557
 21
24.9055565376
 12
9.7271962109
 22
24.9090954154
 13
9.7271962109
 23
24.9090954154
  0
SOLID
  8
___SYMBOL
 62
2
  6
CONTINUOUS
 10
9.9994844557
 20
24.9055565376
 11
10.0380403253
 21
24.9116631874
 12
10.2717727005
 22
24.9090954154
 13
10.2717727005
 23
24.9090954154
  0
SOLID
  8
___SYMBOL
 62
2
  6
CONTINUOUS
 10
9.7583516083
 20
24.8551326842
 11
9.7271962109
 21
24.9090954154
 12
9.9994844557
 22
24.9055565376
 13
9.9994844557
 23
24.9055565376
  0
SOLID
  8
___SYMBOL
 62
2
  6
CONTINUOUS
 10
9.9994844557
 20
24.9055565376
 11
10.2717727005
 21
24.9090954154
 12
9.7583516083
 22
24.8551326842
 13
9.7583516083
 23
24.8551326842
  0
SOLID
  8
___SYMBOL
 62
2
  6
CONTINUOUS
 10
10.2717727005
 20
24.9090954154
 11
10.2406173031
 21
24.8551326842
 12
9.7583516083
 22
24.8551326842
 13
9.7583516083
 23
24.8551326842
  0
SOLID
  8
___SYMBOL
 62
2
  6
CONTINUOUS
 10
9.8000456683
 20
24.8088267394
 11
9.7583516083
 21
24.8551326842
 12
10.2406173031
 22
24.8551326842
 13
10.2406173031
 23
24.8551326842
  0
SOLID
  8
___SYMBOL
 62
2
  6
CONTINUOUS
 10
10.2406173031
 20
24.8551326842
 11
10.1989232432
 21
24.8088267394
 12
9.8000456683
 22
24.8088267394
 13
9.8000456683
 23
24.8088267394
  0
SOLID
  8
___SYMBOL
 62
2
  6
CONTINUOUS
 10
9.8504561602
 20
24.7722013731
 11
9.8000456683
 21
24.8088267394
 12
10.1989232432
 22
24.8088267394
 13
10.1989232432
 23
24.8088267394
  0
SOLID
  8
___SYMBOL
 62
2
  6
CONTINUOUS
 10
10.1989232432
 20
24.8088267394
 11
10.1485127512
 21
24.7722013731
 12
9.8504561602
 22
24.7722013731
 13
9.8504561602
 23
24.7722013731
  0
SOLID
  8
___SYMBOL
 62
2
  6
CONTINUOUS
 10
9.9073799038
 20
24.7468572896
 11
9.8504561602
 21
24.7722013731
 12
10.1485127512
 22
24.7722013731
 13
10.1485127512
 23
24.7722013731
  0
SOLID
  8
___SYMBOL
 62
2
  6
CONTINUOUS
 10
10.1485127512
 20
24.7722013731
 11
10.0915890076
 21
24.7468572896
 12
9.9073799038
 22
24.7468572896
 13
9.9073799038
 23
24.7468572896
  0
SOLID
  8
___SYMBOL
 62
2
  6
CONTINUOUS
 10
9.9683290583
 20
24.7339021469
 11
9.9073799038
 21
24.7468572896
 12
10.0915890076
 22
24.7468572896
 13
10.0915890076
 23
24.7468572896
  0
SOLID
  8
___SYMBOL
 62
2
  6
CONTINUOUS
 10
10.0915890076
 20
24.7468572896
 11
10.0306398531
 21
24.7339021469
 12
9.9683290583
 22
24.7339021469
 13
9.9683290583
 23
24.7339021469
  0
LINE
  8
___SYMBOL
 62
2
  6
CONTINUOUS
 10
10.7921204649
 20
25.3244040292
 11
10.7921204649
 21
24.7384903799
  0
LINE
  8
___SYMBOL
 62
2
  6
CONTINUOUS
 10
10.7921204649
 20
24.7384903799
 11
10.6273867851
 21
24.7384903799
  0
LINE
  8
___SYMBOL
 62
2
  6
CONTINUOUS
 10
10.6273867851
 20
24.9668149897
 11
10.6273867851
 21
24.7384903799
  0
LINE
  8
___SYMBOL
 62
2
  6
CONTINUOUS
 10
10.479389974
 20
24.9668149897
 11
10.6273867851
 21
24.9668149897
  0
LINE
  8
___SYMBOL
 62
2
  6
CONTINUOUS
 10
10.479389974
 20
24.9668149897
 11
10.479389974
 21
24.7384903799
  0
LINE
  8
___SYMBOL
 62
2
  6
CONTINUOUS
 10
10.479389974
 20
24.7384903799
 11
10.3146562941
 21
24.7384903799
  0
LINE
  8
___SYMBOL
 62
2
  6
CONTINUOUS
 10
10.3146562941
 20
25.3244040292
 11
10.3146562941
 21
24.7384903799
  0
LINE
  8
___SYMBOL
 62
2
  6
CONTINUOUS
 10
10.3146562941
 20
25.3244040292
 11
10.479389974
 21
25.3244040292
  0
LINE
  8
___SYMBOL
 62
2
  6
CONTINUOUS
 10
10.479389974
 20
25.3244040292
 11
10.479389974
 21
25.1040202696
  0
LINE
  8
___SYMBOL
 62
2
  6
CONTINUOUS
 10
10.479389974
 20
25.1040202696
 11
10.6273867851
 21
25.1040202696
  0
LINE
  8
___SYMBOL
 62
2
  6
CONTINUOUS
 10
10.6273867851
 20
25.3244040292
 11
10.6273867851
 21
25.1040202696
  0
LINE
  8
___SYMBOL
 62
2
  6
CONTINUOUS
 10
10.6273867851
 20
25.3244040292
 11
10.7921204649
 21
25.3244040292
  0
SOLID
  8
___SYMBOL
 62
2
  6
CONTINUOUS
 10
10.6273867851
 20
25.1040202696
 11
10.6273867851
 21
25.3244040292
 12
10.7921204649
 22
25.3244040292
 13
10.7921204649
 23
25.3244040292
  0
SOLID
  8
___SYMBOL
 62
2
  6
CONTINUOUS
 10
10.6273867851
 20
25.1040202696
 11
10.479389974
 21
24.9668149897
 12
10.479389974
 22
25.1040202696
 13
10.479389974
 23
25.1040202696
  0
SOLID
  8
___SYMBOL
 62
2
  6
CONTINUOUS
 10
10.479389974
 20
24.9668149897
 11
10.3146562941
 21
24.7384903799
 12
10.479389974
 22
25.1040202696
 13
10.479389974
 23
25.1040202696
  0
SOLID
  8
___SYMBOL
 62
2
  6
CONTINUOUS
 10
10.479389974
 20
25.1040202696
 11
10.3146562941
 21
24.7384903799
 12
10.479389974
 22
25.3244040292
 13
10.479389974
 23
25.3244040292
  0
SOLID
  8
___SYMBOL
 62
2
  6
CONTINUOUS
 10
10.3146562941
 20
24.7384903799
 11
10.3146562941
 21
25.3244040292
 12
10.479389974
 22
25.3244040292
 13
10.479389974
 23
25.3244040292
  0
SOLID
  8
___SYMBOL
 62
2
  6
CONTINUOUS
 10
10.479389974
 20
24.9668149897
 11
10.479389974
 21
24.7384903799
 12
10.3146562941
 22
24.7384903799
 13
10.3146562941
 23
24.7384903799
  0
SOLID
  8
___SYMBOL
 62
2
  6
CONTINUOUS
 10
10.479389974
 20
24.9668149897
 11
10.6273867851
 21
25.1040202696
 12
10.6273867851
 22
24.9668149897
 13
10.6273867851
 23
24.9668149897
  0
SOLID
  8
___SYMBOL
 62
2
  6
CONTINUOUS
 10
10.6273867851
 20
25.1040202696
 11
10.7921204649
 21
25.3244040292
 12
10.6273867851
 22
24.9668149897
 13
10.6273867851
 23
24.9668149897
  0
SOLID
  8
___SYMBOL
 62
2
  6
CONTINUOUS
 10
10.6273867851
 20
24.9668149897
 11
10.7921204649
 21
25.3244040292
 12
10.6273867851
 22
24.7384903799
 13
10.6273867851
 23
24.7384903799
  0
SOLID
  8
___SYMBOL
 62
2
  6
CONTINUOUS
 10
10.7921204649
 20
25.3244040292
 11
10.7921204649
 21
24.7384903799
 12
10.6273867851
 22
24.7384903799
 13
10.6273867851
 23
24.7384903799
  0
LINE
  8
___SYMBOL
 62
2
  6
CONTINUOUS
 10
10.9872113719
 20
24.7384903799
 11
11.1498954418
 21
24.7384903799
  0
LINE
  8
___SYMBOL
 62
2
  6
CONTINUOUS
 10
10.9872113719
 20
24.7384903799
 11
10.8371653091
 21
24.7384903799
  0
LINE
  8
___SYMBOL
 62
2
  6
CONTINUOUS
 10
10.8371653091
 20
24.7384903799
 11
10.8371653091
 21
25.3244040292
  0
LINE
  8
___SYMBOL
 62
2
  6
CONTINUOUS
 10
10.8371653091
 20
25.3244040292
 11
10.9872113719
 21
25.3244040292
  0
LINE
  8
___SYMBOL
 62
2
  6
CONTINUOUS
 10
10.9872113719
 20
25.3244040292
 11
10.9872113719
 21
24.879717137
  0
LINE
  8
___SYMBOL
 62
2
  6
CONTINUOUS
 10
10.9872113719
 20
24.879717137
 11
11.1498954418
 21
24.879717137
  0
LINE
  8
___SYMBOL
 62
2
  6
CONTINUOUS
 10
11.1498954418
 20
24.879717137
 11
11.1498954418
 21
24.7384903799
  0
SOLID
  8
___SYMBOL
 62
2
  6
CONTINUOUS
 10
11.1498954418
 20
24.879717137
 11
10.8371653091
 21
24.7384903799
 12
10.9872113719
 22
24.879717137
 13
10.9872113719
 23
24.879717137
  0
SOLID
  8
___SYMBOL
 62
2
  6
CONTINUOUS
 10
10.9872113719
 20
24.879717137
 11
10.8371653091
 21
24.7384903799
 12
10.9872113719
 22
25.3244040292
 13
10.9872113719
 23
25.3244040292
  0
SOLID
  8
___SYMBOL
 62
2
  6
CONTINUOUS
 10
10.8371653091
 20
24.7384903799
 11
10.8371653091
 21
25.3244040292
 12
10.9872113719
 22
25.3244040292
 13
10.9872113719
 23
25.3244040292
  0
SOLID
  8
___SYMBOL
 62
2
  6
CONTINUOUS
 10
10.8371653091
 20
24.7384903799
 11
11.1498954418
 21
24.879717137
 12
10.9872113719
 22
24.7384903799
 13
10.9872113719
 23
24.7384903799
  0
SOLID
  8
___SYMBOL
 62
2
  6
CONTINUOUS
 10
11.1498954418
 20
24.879717137
 11
11.1498954418
 21
24.7384903799
 12
10.9872113719
 22
24.7384903799
 13
10.9872113719
 23
24.7384903799
  0
LINE
  8
___SYMBOL
 62
2
  6
CONTINUOUS
 10
11.4881473559
 20
24.959638668
 11
11.4881473559
 21
25.1040202696
  0
LINE
  8
___SYMBOL
 62
2
  6
CONTINUOUS
 10
11.3372898325
 20
25.1040202696
 11
11.4881473559
 21
25.1040202696
  0
LINE
  8
___SYMBOL
 62
2
  6
CONTINUOUS
 10
11.3372898325
 20
25.1816446325
 11
11.3372898325
 21
25.1040202696
  0
LINE
  8
___SYMBOL
 62
2
  6
CONTINUOUS
 10
11.3372898325
 20
25.1816446325
 11
11.4881473559
 21
25.1816446325
  0
LINE
  8
___SYMBOL
 62
2
  6
CONTINUOUS
 10
11.4881473559
 20
25.1816446325
 11
11.4881473559
 21
25.3244040292
  0
LINE
  8
___SYMBOL
 62
2
  6
CONTINUOUS
 10
11.3514941558
 20
25.3244040292
 11
11.4881473559
 21
25.3244040292
  0
LINE
  8
___SYMBOL
 62
2
  6
CONTINUOUS
 10
11.1790431805
 20
25.3244040292
 11
11.3514941558
 21
25.3244040292
  0
LINE
  8
___SYMBOL
 62
2
  6
CONTINUOUS
 10
11.1790431805
 20
24.7384903799
 11
11.1790431805
 21
25.3244040292
  0
LINE
  8
___SYMBOL
 62
2
  6
CONTINUOUS
 10
11.1790431805
 20
24.7384903799
 11
11.4881473559
 21
24.7384903799
  0
LINE
  8
___SYMBOL
 62
2
  6
CONTINUOUS
 10
11.4881473559
 20
24.7384903799
 11
11.4881473559
 21
24.879717137
  0
LINE
  8
___SYMBOL
 62
2
  6
CONTINUOUS
 10
11.3372898325
 20
24.879717137
 11
11.4881473559
 21
24.879717137
  0
LINE
  8
___SYMBOL
 62
2
  6
CONTINUOUS
 10
11.3372898325
 20
24.959638668
 11
11.3372898325
 21
24.879717137
  0
LINE
  8
___SYMBOL
 62
2
  6
CONTINUOUS
 10
11.3372898325
 20
24.959638668
 11
11.4881473559
 21
24.959638668
  0
SOLID
  8
___SYMBOL
 62
2
  6
CONTINUOUS
 10
11.4881473559
 20
25.3244040292
 11
11.4881473559
 21
25.1816446325
 12
11.3372898325
 22
25.1816446325
 13
11.3372898325
 23
25.1816446325
  0
SOLID
  8
___SYMBOL
 62
2
  6
CONTINUOUS
 10
11.4881473559
 20
25.1040202696
 11
11.4881473559
 21
24.959638668
 12
11.3372898325
 22
24.959638668
 13
11.3372898325
 23
24.959638668
  0
SOLID
  8
___SYMBOL
 62
2
  6
CONTINUOUS
 10
11.4881473559
 20
24.879717137
 11
11.1790431805
 21
24.7384903799
 12
11.3372898325
 22
24.879717137
 13
11.3372898325
 23
24.879717137
  0
SOLID
  8
___SYMBOL
 62
2
  6
CONTINUOUS
 10
11.3372898325
 20
24.879717137
 11
11.1790431805
 21
24.7384903799
 12
11.3372898325
 22
24.959638668
 13
11.3372898325
 23
24.959638668
  0
SOLID
  8
___SYMBOL
 62
2
  6
CONTINUOUS
 10
11.4881473559
 20
25.1040202696
 11
11.3372898325
 21
24.959638668
 12
11.3372898325
 22
25.1040202696
 13
11.3372898325
 23
25.1040202696
  0
SOLID
  8
___SYMBOL
 62
2
  6
CONTINUOUS
 10
11.3372898325
 20
24.959638668
 11
11.1790431805
 21
24.7384903799
 12
11.3372898325
 22
25.1040202696
 13
11.3372898325
 23
25.1040202696
  0
SOLID
  8
___SYMBOL
 62
2
  6
CONTINUOUS
 10
11.3372898325
 20
25.1040202696
 11
11.1790431805
 21
24.7384903799
 12
11.3372898325
 22
25.1816446325
 13
11.3372898325
 23
25.1816446325
  0
SOLID
  8
___SYMBOL
 62
2
  6
CONTINUOUS
 10
11.4881473559
 20
25.3244040292
 11
11.3372898325
 21
25.1816446325
 12
11.3514941558
 22
25.3244040292
 13
11.3514941558
 23
25.3244040292
  0
SOLID
  8
___SYMBOL
 62
2
  6
CONTINUOUS
 10
11.3372898325
 20
25.1816446325
 11
11.1790431805
 21
24.7384903799
 12
11.3514941558
 22
25.3244040292
 13
11.3514941558
 23
25.3244040292
  0
SOLID
  8
___SYMBOL
 62
2
  6
CONTINUOUS
 10
11.1790431805
 20
24.7384903799
 11
11.1790431805
 21
25.3244040292
 12
11.3514941558
 22
25.3244040292
 13
11.3514941558
 23
25.3244040292
  0
SOLID
  8
___SYMBOL
 62
2
  6
CONTINUOUS
 10
11.4881473559
 20
24.879717137
 11
11.4881473559
 21
24.7384903799
 12
11.1790431805
 22
24.7384903799
 13
11.1790431805
 23
24.7384903799
  0
LINE
  8
___SYMBOL
 62
2
  6
CONTINUOUS
 10
11.9983977618
 20
24.7384903799
 11
11.8389545189
 21
24.9900729212
  0
ARC
  8
___SYMBOL
 62
2
  6
CONTINUOUS
 10
11.7665152712
 20
25.1493945185
 40
0.1750166163
 50
294.4500166359
 51
90.0
  0
LINE
  8
___SYMBOL
 62
2
  6
CONTINUOUS
 10
11.5329675705
 20
25.3244040292
 11
11.7665152712
 21
25.3244040292
  0
LINE
  8
___SYMBOL
 62
2
  6
CONTINUOUS
 10
11.5329675705
 20
24.7384903799
 11
11.5329675705
 21
25.3244040292
  0
LINE
  8
___SYMBOL
 62
2
  6
CONTINUOUS
 10
11.5329675705
 20
24.7384903799
 11
11.6836233931
 21
24.7384903799
  0
LINE
  8
___SYMBOL
 62
2
  6
CONTINUOUS
 10
11.6836233931
 20
24.9354467507
 11
11.6836233931
 21
24.7384903799
  0
LINE
  8
___SYMBOL
 62
2
  6
CONTINUOUS
 10
11.8084468223
 20
24.7384903799
 11
11.6836233931
 21
24.9354467507
  0
LINE
  8
___SYMBOL
 62
2
  6
CONTINUOUS
 10
11.8084468223
 20
24.7384903799
 11
11.9983977618
 21
24.7384903799
  0
LINE
  8
___SYMBOL
 62
2
  6
CONTINUOUS
 10
11.6836233931
 20
25.0747220614
 11
11.7359631433
 21
25.0747220614
  0
ARC
  8
___SYMBOL
 62
2
  6
CONTINUOUS
 10
11.7395531726
 20
25.1282134609
 40
0.053611735
 50
266.1604009902
 51
89.9998910512
  0
LINE
  8
___SYMBOL
 62
2
  6
CONTINUOUS
 10
11.7395532746
 20
25.1818251959
 11
11.6836233931
 21
25.1818251959
  0
LINE
  8
___SYMBOL
 62
2
  6
CONTINUOUS
 10
11.6836233931
 20
25.1818251959
 11
11.6836233931
 21
25.0747220614
  0
SOLID
  8
___SYMBOL
 62
2
  6
CONTINUOUS
 10
11.7665152712
 20
25.3244111348
 11
11.8134482947
 21
25.3180008864
 12
11.5329675705
 22
25.3244040292
 13
11.5329675705
 23
25.3244040292
  0
SOLID
  8
___SYMBOL
 62
2
  6
CONTINUOUS
 10
11.6836233931
 20
25.1818251959
 11
11.9375631342
 21
25.1864545314
 12
11.7395532746
 22
25.1818251959
 13
11.7395532746
 23
25.1818251959
  0
SOLID
  8
___SYMBOL
 62
2
  6
CONTINUOUS
 10
11.7395532746
 20
25.1818251959
 11
11.9375631342
 21
25.1864545314
 12
11.7632758562
 22
25.1762910276
 13
11.7632758562
 23
25.1762910276
  0
SOLID
  8
___SYMBOL
 62
2
  6
CONTINUOUS
 10
11.7632758562
 20
25.1762910276
 11
11.9375631342
 21
25.1864545314
 12
11.7821008438
 22
25.1608311525
 13
11.7821008438
 23
25.1608311525
  0
SOLID
  8
___SYMBOL
 62
2
  6
CONTINUOUS
 10
11.9375631342
 20
25.1864545314
 11
11.9412363806
 21
25.1392284026
 12
11.7821008438
 22
25.1608311525
 13
11.7821008438
 23
25.1608311525
  0
SOLID
  8
___SYMBOL
 62
2
  6
CONTINUOUS
 10
11.7921417824
 20
25.1386372919
 11
11.7821008438
 21
25.1608311525
 12
11.9412363806
 22
25.1392284026
 13
11.9412363806
 23
25.1392284026
  0
SOLID
  8
___SYMBOL
 62
2
  6
CONTINUOUS
 10
11.7921417824
 20
25.1386372919
 11
11.9412363806
 21
25.1392284026
 12
11.7913257007
 22
25.1142914112
 13
11.7913257007
 23
25.1142914112
  0
SOLID
  8
___SYMBOL
 62
2
  6
CONTINUOUS
 10
11.7913257007
 20
25.1142914112
 11
11.9412363806
 21
25.1392284026
 12
11.7798210804
 22
25.0928197646
 13
11.7798210804
 23
25.0928197646
  0
SOLID
  8
___SYMBOL
 62
2
  6
CONTINUOUS
 10
11.9412363806
 20
25.1392284026
 11
11.9321107769
 21
25.0927469725
 12
11.7798210804
 22
25.0928197646
 13
11.7798210804
 23
25.0928197646
  0
SOLID
  8
___SYMBOL
 62
2
  6
CONTINUOUS
 10
11.7600030726
 20
25.0786552151
 11
11.7798210804
 21
25.0928197646
 12
11.9321107769
 22
25.0927469725
 13
11.9321107769
 23
25.0927469725
  0
SOLID
  8
___SYMBOL
 62
2
  6
CONTINUOUS
 10
11.7600030726
 20
25.0786552151
 11
11.9321107769
 21
25.0927469725
 12
11.7359631433
 22
25.0747220614
 13
11.7359631433
 23
25.0747220614
  0
SOLID
  8
___SYMBOL
 62
2
  6
CONTINUOUS
 10
11.9321107769
 20
25.0927469725
 11
11.9108548013
 21
25.0504151467
 12
11.7359631433
 22
25.0747220614
 13
11.7359631433
 23
25.0747220614
  0
SOLID
  8
___SYMBOL
 62
2
  6
CONTINUOUS
 10
11.8389545189
 20
24.9900729212
 11
11.6836233931
 21
24.9354467507
 12
11.8790255181
 22
25.0153338594
 13
11.8790255181
 23
25.0153338594
  0
SOLID
  8
___SYMBOL
 62
2
  6
CONTINUOUS
 10
11.8790255181
 20
25.0153338594
 11
11.6836233931
 21
24.9354467507
 12
11.9108548013
 22
25.0504151467
 13
11.9108548013
 23
25.0504151467
  0
SOLID
  8
___SYMBOL
 62
2
  6
CONTINUOUS
 10
11.9108548013
 20
25.0504151467
 11
11.6836233931
 21
24.9354467507
 12
11.7359631433
 22
25.0747220614
 13
11.7359631433
 23
25.0747220614
  0
SOLID
  8
___SYMBOL
 62
2
  6
CONTINUOUS
 10
11.6836233931
 20
24.9354467507
 11
11.5329675705
 21
24.7384903799
 12
11.7359631433
 22
25.0747220614
 13
11.7359631433
 23
25.0747220614
  0
SOLID
  8
___SYMBOL
 62
2
  6
CONTINUOUS
 10
11.7359631433
 20
25.0747220614
 11
11.5329675705
 21
24.7384903799
 12
11.6836233931
 22
25.0747220614
 13
11.6836233931
 23
25.0747220614
  0
SOLID
  8
___SYMBOL
 62
2
  6
CONTINUOUS
 10
11.6836233931
 20
25.0747220614
 11
11.5329675705
 21
24.7384903799
 12
11.6836233931
 22
25.1818251959
 13
11.6836233931
 23
25.1818251959
  0
SOLID
  8
___SYMBOL
 62
2
  6
CONTINUOUS
 10
11.9375631342
 20
25.1864545314
 11
11.6836233931
 21
25.1818251959
 12
11.9213601141
 22
25.2309659021
 13
11.9213601141
 23
25.2309659021
  0
SOLID
  8
___SYMBOL
 62
2
  6
CONTINUOUS
 10
11.9213601141
 20
25.2309659021
 11
11.6836233931
 21
25.1818251959
 12
11.8938142406
 22
25.2695019221
 13
11.8938142406
 23
25.2695019221
  0
SOLID
  8
___SYMBOL
 62
2
  6
CONTINUOUS
 10
11.8938142406
 20
25.2695019221
 11
11.6836233931
 21
25.1818251959
 12
11.8569433322
 22
25.2992397112
 13
11.8569433322
 23
25.2992397112
  0
SOLID
  8
___SYMBOL
 62
2
  6
CONTINUOUS
 10
11.8569433322
 20
25.2992397112
 11
11.6836233931
 21
25.1818251959
 12
11.8134482947
 22
25.3180008864
 13
11.8134482947
 23
25.3180008864
  0
SOLID
  8
___SYMBOL
 62
2
  6
CONTINUOUS
 10
11.8134482947
 20
25.3180008864
 11
11.6836233931
 21
25.1818251959
 12
11.5329675705
 22
25.3244040292
 13
11.5329675705
 23
25.3244040292
  0
SOLID
  8
___SYMBOL
 62
2
  6
CONTINUOUS
 10
11.5329675705
 20
24.7384903799
 11
11.5329675705
 21
25.3244040292
 12
11.6836233931
 22
25.1818251959
 13
11.6836233931
 23
25.1818251959
  0
SOLID
  8
___SYMBOL
 62
2
  6
CONTINUOUS
 10
11.6836233931
 20
24.9354467507
 11
11.6836233931
 21
24.7384903799
 12
11.5329675705
 22
24.7384903799
 13
11.5329675705
 23
24.7384903799
  0
SOLID
  8
___SYMBOL
 62
2
  6
CONTINUOUS
 10
11.6836233931
 20
24.9354467507
 11
11.8389545189
 21
24.9900729212
 12
11.8084468223
 22
24.7384903799
 13
11.8084468223
 23
24.7384903799
  0
SOLID
  8
___SYMBOL
 62
2
  6
CONTINUOUS
 10
11.8389545189
 20
24.9900729212
 11
11.9983977618
 21
24.7384903799
 12
11.8084468223
 22
24.7384903799
 13
11.8084468223
 23
24.7384903799
  0
CIRCLE
  8
___SYMBOL
 62
2
  6
CONTINUOUS
 10
12.1391677365
 20
24.7384903799
 40
0.0653578721
  0
LINE
  8
___SYMBOL
 62
2
  6
CONTINUOUS
 10
12.1348797132
 20
24.7379526304
 11
12.166747726
 21
24.7056496891
  0
LINE
  8
___SYMBOL
 62
2
  6
CONTINUOUS
 10
12.123281737
 20
24.7056496891
 11
12.123281737
 21
24.771615888
  0
LINE
  8
___SYMBOL
 62
2
  6
CONTINUOUS
 10
12.123281737
 20
24.771615888
 11
12.14756107
 21
24.771615888
  0
ARC
  8
___SYMBOL
 62
2
  6
CONTINUOUS
 10
12.14756107
 20
24.7547844383
 40
0.0168314496
 50
270.0
 51
90.0
  0
LINE
  8
___SYMBOL
 62
2
  6
CONTINUOUS
 10
12.14756107
 20
24.7379526304
 11
12.123281737
 21
24.7379526304
  0
ENDBLK
  8
0
  6
BYBLOCK
 62
0
  0
BLOCK
  8
___SYMBOL
 62
2
  6
CONTINUOUS
  2
WHEN_PLOTTING_TEMPLATE_N_BL1
 70
64
 10
32.2596298666
 20
12.5482265759
  0
TEXT
  8
___SYMBOL
 62
2
  6
CONTINUOUS
 10
28.9471296341
 20
13.7591641609
  7
STANDARD
 40
0.156250011
  1
WHEN PLOTTING TEMPLATE FULL SIZE:
 41
0.8
 72
0
  0
TEXT
  8
___SYMBOL
 62
2
  6
CONTINUOUS
 10
28.9471296341
 20
13.5247891445
  7
STANDARD
 40
0.156250011
  1
Make sure horizontal and vertical dimensions
 41
0.8
 72
0
  0
TEXT
  8
___SYMBOL
 62
2
  6
CONTINUOUS
 10
28.9471296341
 20
13.290414128
  7
STANDARD
 40
0.156250011
  1
match the dimensions labeled on the template.
 41
0.8
 72
0
  0
TEXT
  8
___SYMBOL
 62
2
  6
CONTINUOUS
 10
28.9471296341
 20
13.0560391116
  7
STANDARD
 40
0.156250011
  1
 
 41
0.8
 72
0
  0
TEXT
  8
___SYMBOL
 62
2
  6
CONTINUOUS
 10
28.9471296341
 20
12.8216640951
  7
STANDARD
 40
0.156250011
  1
AL TRAZAR LA PLANTILLA A ESCALA,
 41
0.8
 72
0
  0
TEXT
  8
___SYMBOL
 62
2
  6
CONTINUOUS
 10
28.9471296341
 20
12.5872890787
  7
STANDARD
 40
0.156250011
  1
asegúrese de que las dimensiones horizontales
 41
0.8
 72
0
  0
TEXT
  8
___SYMBOL
 62
2
  6
CONTINUOUS
 10
28.9471296341
 20
12.3529140622
  7
STANDARD
 40
0.156250011
  1
y verticales concuerden con las dimensiones marcadas
 41
0.8
 72
0
  0
TEXT
  8
___SYMBOL
 62
2
  6
CONTINUOUS
 10
28.9471296341
 20
12.1185390458
  7
STANDARD
 40
0.156250011
  1
en la plantilla.
 41
0.8
 72
0
  0
TEXT
  8
___SYMBOL
 62
2
  6
CONTINUOUS
 10
28.9471296341
 20
11.8841640293
  7
STANDARD
 40
0.156250011
  1
 
 41
0.8
 72
0
  0
TEXT
  8
___SYMBOL
 62
2
  6
CONTINUOUS
 10
28.9471296341
 20
11.6497890129
  7
STANDARD
 40
0.156250011
  1
AU MOMENT DE TRACER LA DÉCOUPE À L'ÉCHELLE,
 41
0.8
 72
0
  0
TEXT
  8
___SYMBOL
 62
2
  6
CONTINUOUS
 10
28.9471296341
 20
11.4154139965
  7
STANDARD
 40
0.156250011
  1
Assurez vos que les dimensions horizotales et
 41
0.8
 72
0
  0
TEXT
  8
___SYMBOL
 62
2
  6
CONTINUOUS
 10
28.9471296341
 20
11.18103898
  7
STANDARD
 40
0.156250011
  1
verticales correspondent avec les dimensions du plan.
 41
0.8
 72
0
  0
ENDBLK
  8
0
  6
BYBLOCK
 62
0
  0
BLOCK
  8
___SYMBOL
 62
2
  6
CONTINUOUS
  2
COPYRIGHT_YEAR_BL0
 70
64
 10
35.351341483
 20
10.3220442164
  0
TEXT
  8
___SYMBOL
 62
2
  6
CONTINUOUS
 10
34.9776511795
 20
10.2867707164
  7
STANDARD
 40
0.0704997506
  1
2004 KOHLER CO.
 41
0.8
 72
0
  0
TEXT
  8
___SYMBOL
 62
7
  6
CONTINUOUS
 10
34.8976257135
 20
10.3032556583
  7
TEXTSTYLE_2
 40
0.0421873503
  1
C
 41
1.0
 72
0
  0
CIRCLE
  8
___SYMBOL
 62
7
  6
CONTINUOUS
 10
34.911860663
 20
10.324491833
 40
0.0328258835
  0
ENDBLK
  8
0
  6
BYBLOCK
 62
0
  0
BLOCK
  8
0
  2
_FILLED
 70
64
 10
0.0
 20
0.0
  0
SOLID
  8
0
  6
BYBLOCK
 62
0
 10
0.0
 20
0.0
 11
-1.0
 21
0.1666666667
 12
-1.0
 22
-0.1666666667
 13
-1.0
 23
-0.1666666667
  0
ENDBLK
  8
0
  6
BYBLOCK
 62
0
  0
BLOCK
  8
0
 62
2
  6
CONTINUOUS
  2
*D0
 70
65
 10
0.0
 20
0.0
  0
TEXT
  8
0
 62
2
  6
CONTINUOUS
 10
26.827099705
 20
18.0948768398
  7
STANDARD
 40
0.15625
  1
16-1/16
 41
0.8
 72
0
  0
TEXT
  8
0
 62
2
  6
CONTINUOUS
 10
27.702099705
 20
18.0948768398
  7
STANDARD
 40
0.15625
  1
"
 41
0.8
 72
0
  0
TEXT
  8
0
 62
2
  6
CONTINUOUS
 10
26.827099705
 20
17.8605018398
  7
STANDARD
 40
0.15625
  1
[40,8 cm]
 41
0.8
 72
0
  0
LINE
  8
0
 62
2
  6
CONTINUOUS
 10
27.327099705
 20
26.1980871373
 11
27.327099705
 21
18.3292518398
  0
LINE
  8
0
 62
2
  6
CONTINUOUS
 10
27.327099705
 20
10.1479165424
 11
27.327099705
 21
17.7823768398
  0
INSERT
  8
0
 62
2
  6
CONTINUOUS
  2
_FILLED
 10
27.327099705
 20
26.1980871373
 41
0.1875
 42
0.1875
 43
0.1875
 50
90.0
  0
INSERT
  8
0
 62
2
  6
CONTINUOUS
  2
_FILLED
 10
27.327099705
 20
10.1479165424
 41
0.1875
 42
0.1875
 43
0.1875
 50
270.0
  0
ENDBLK
  8
0
  6
BYBLOCK
 62
0
  0
BLOCK
  8
0
 62
2
  6
CONTINUOUS
  2
*D1
 70
65
 10
0.0
 20
0.0
  0
TEXT
  8
0
 62
2
  6
CONTINUOUS
 10
25.5554056994
 20
19.1872725804
  7
STANDARD
 40
0.15625
  1
17-1/2
 41
0.8
 72
0
  0
TEXT
  8
0
 62
2
  6
CONTINUOUS
 10
26.3054056994
 20
19.1872725804
  7
STANDARD
 40
0.15625
  1
"
 41
0.8
 72
0
  0
TEXT
  8
0
 62
2
  6
CONTINUOUS
 10
25.5554056994
 20
18.9528975804
  7
STANDARD
 40
0.15625
  1
[44,5 cm]
 41
0.8
 72
0
  0
LINE
  8
0
 62
2
  6
CONTINUOUS
 10
25.9929056994
 20
26.9230018398
 11
25.9929056994
 21
19.4216475804
  0
LINE
  8
0
 62
2
  6
CONTINUOUS
 10
25.9929056994
 20
9.4230018398
 11
25.9929056994
 21
18.8747725804
  0
INSERT
  8
0
 62
2
  6
CONTINUOUS
  2
_FILLED
 10
25.9929056994
 20
26.9230018398
 41
0.1875
 42
0.1875
 43
0.1875
 50
90.0
  0
INSERT
  8
0
 62
2
  6
CONTINUOUS
  2
_FILLED
 10
25.9929056994
 20
9.4230018398
 41
0.1875
 42
0.1875
 43
0.1875
 50
270.0
  0
ENDBLK
  8
0
  6
BYBLOCK
 62
0
  0
BLOCK
  8
0
 62
2
  6
CONTINUOUS
  2
*D2
 70
65
 10
0.0
 20
0.0
  0
TEXT
  8
0
 62
2
  6
CONTINUOUS
 10
21.2730891632
 20
15.307164989
  7
STANDARD
 40
0.15625
  1
30-5/16
 41
0.8
 72
0
  0
TEXT
  8
0
 62
2
  6
CONTINUOUS
 10
22.1480891632
 20
15.307164989
  7
STANDARD
 40
0.15625
  1
"
 41
0.8
 72
0
  0
TEXT
  8
0
 62
2
  6
CONTINUOUS
 10
21.2730891632
 20
15.072789989
  7
STANDARD
 40
0.15625
  1
[77 cm]
 41
0.8
 72
0
  0
LINE
  8
0
 62
2
  6
CONTINUOUS
 10
36.9231744607
 20
15.385289989
 11
22.3512141632
 21
15.385289989
  0
LINE
  8
0
 62
2
  6
CONTINUOUS
 10
6.6230038658
 20
15.385289989
 11
21.1949641632
 21
15.385289989
  0
INSERT
  8
0
 62
2
  6
CONTINUOUS
  2
_FILLED
 10
36.9231744607
 20
15.385289989
 41
0.1875
 42
0.1875
 43
0.1875
  0
INSERT
  8
0
 62
2
  6
CONTINUOUS
  2
_FILLED
 10
6.6230038658
 20
15.385289989
 41
0.1875
 42
0.1875
 43
0.1875
 50
180.0
  0
ENDBLK
  8
0
  6
BYBLOCK
 62
0
  0
BLOCK
  8
0
 62
2
  6
CONTINUOUS
  2
*D3
 70
65
 10
0.0
 20
0.0
  0
TEXT
  8
0
 62
2
  6
CONTINUOUS
 10
23.7367238753
 20
14.4091445698
  7
STANDARD
 40
0.15625
  1
31-3/4
 41
0.8
 72
0
  0
TEXT
  8
0
 62
2
  6
CONTINUOUS
 10
24.4867238753
 20
14.4091445698
  7
STANDARD
 40
0.15625
  1
"
 41
0.8
 72
0
  0
TEXT
  8
0
 62
2
  6
CONTINUOUS
 10
23.7367238753
 20
14.1747695698
  7
STANDARD
 40
0.15625
  1
[80,6 cm]
 41
0.8
 72
0
  0
LINE
  8
0
 62
2
  6
CONTINUOUS
 10
37.6480891632
 20
14.4872695698
 11
24.6898488753
 21
14.4872695698
  0
LINE
  8
0
 62
2
  6
CONTINUOUS
 10
5.8980891632
 20
14.4872695698
 11
23.6585988753
 21
14.4872695698
  0
INSERT
  8
0
 62
2
  6
CONTINUOUS
  2
_FILLED
 10
37.6480891632
 20
14.4872695698
 41
0.1875
 42
0.1875
 43
0.1875
  0
INSERT
  8
0
 62
2
  6
CONTINUOUS
  2
_FILLED
 10
5.8980891632
 20
14.4872695698
 41
0.1875
 42
0.1875
 43
0.1875
 50
180.0
  0
ENDBLK
  8
0
  6
BYBLOCK
 62
0
  0
ENDSEC
  0
SECTION
  2
ENTITIES
  0
DIMENSION
  8
0
 62
2
  6
CONTINUOUS
  2
*D0
 10
27.327099705
 20
10.1479165424
 11
27.389599705
 21
18.0558143398
 70
128
 13
8.067486178
 23
26.1980871373
 14
8.067486178
 24
10.1479165424
 50
270.0
  0
DIMENSION
  8
0
 62
2
  6
CONTINUOUS
  2
*D1
 10
25.9929056994
 20
9.4230018398
 11
26.1179056994
 21
19.1482100804
 70
128
 13
36.7730891632
 23
26.9230018398
 14
36.7730891632
 24
9.4230018398
 50
270.0
  0
DIMENSION
  8
0
 62
2
  6
CONTINUOUS
  2
*D2
 10
6.6230038658
 20
15.385289989
 11
21.7730891632
 21
15.268102489
 70
128
 13
36.9231744607
 23
24.753604825
 14
6.6230038658
 24
24.753604825
 50
180.0
  0
DIMENSION
  8
0
 62
2
  6
CONTINUOUS
  2
*D3
 10
5.8980891632
 20
14.4872695698
 11
24.2992238753
 21
14.3700820698
 70
128
 13
37.6480891632
 23
26.0480018398
 14
5.8980891632
 24
26.0480018398
 50
180.0
  0
TEXT
  8
___NOTE
 62
2
  6
CONTINUOUS
 10
32.6274347716
 20
25.1617755867
  7
STANDARD
 40
0.15625
  1
RIM OF SINK
 41
0.8
 72
2
 11
34.0024347716
 21
25.1617755867
  0
TEXT
  8
___NOTE
 62
2
  6
CONTINUOUS
 10
31.5024347716
 20
24.9274005867
  7
STANDARD
 40
0.15625
  1
REBORDE DE FREGADERO
 41
0.8
 72
2
 11
34.0024347716
 21
24.9274005867
  0
TEXT
  8
___NOTE
 62
2
  6
CONTINUOUS
 10
32.2524347716
 20
24.6930255867
  7
STANDARD
 40
0.15625
  1
REBORD D'ÉVIER
 41
0.8
 72
2
 11
34.0024347716
 21
24.6930255867
  0
LINE
  8
___NOTE
 62
2
  6
CONTINUOUS
 10
38.2730891632
 20
22.8587854718
 11
34.2524347716
 21
25.2399005867
  0
LINE
  8
___NOTE
 62
2
  6
CONTINUOUS
 10
34.2524347716
 20
25.2399005867
 11
34.0024347716
 21
25.2399005867
  0
SOLID
  8
___NOTE
 62
2
  6
CONTINUOUS
 10
38.0958342742
 20
22.9274405286
 11
38.2730891632
 21
22.8587854718
 12
38.1276821244
 22
22.9812175165
 13
38.1276821244
 23
22.9812175165
  0
TEXT
  8
___NOTE
 62
2
  6
CONTINUOUS
 10
30.6043174549
 20
20.9794553944
  7
STANDARD
 40
0.15625
  1
FOR UNDER-MOUNT INSTALLATION
 41
0.8
 72
2
 11
34.1043174549
 21
20.9794553944
  0
TEXT
  8
___NOTE
 62
2
  6
CONTINUOUS
 10
31.7293174549
 20
20.7450803944
  7
STANDARD
 40
0.15625
  1
CUT ALONG THIS LINE
 41
0.8
 72
2
 11
34.1043174549
 21
20.7450803944
  0
TEXT
  8
___NOTE
 62
2
  6
CONTINUOUS
 10
29.4793174549
 20
20.5107053944
  7
STANDARD
 40
0.15625
  1
PARA INSTALACIÓN DE MONTAJE POR ABAJO
 41
0.8
 72
2
 11
34.1043174549
 21
20.5107053944
  0
TEXT
  8
___NOTE
 62
2
  6
CONTINUOUS
 10
30.3543174549
 20
20.2763303944
  7
STANDARD
 40
0.15625
  1
CORTE A LO LARGO DE ESTA LÍNEA
 41
0.8
 72
2
 11
34.1043174549
 21
20.2763303944
  0
TEXT
  8
___NOTE
 62
2
  6
CONTINUOUS
 10
29.4793174549
 20
20.0419553944
  7
STANDARD
 40
0.15625
  1
POUR INSTALLATION À MONTAGE SOUS PLAN
 41
0.8
 72
2
 11
34.1043174549
 21
20.0419553944
  0
TEXT
  8
___NOTE
 62
2
  6
CONTINUOUS
 10
30.4793174549
 20
19.8075803944
  7
STANDARD
 40
0.15625
  1
COUPER LE LONG DE CETTE LIGNE
 41
0.8
 72
2
 11
34.1043174549
 21
19.8075803944
  0
TEXT
  8
___NOTE
 62
2
  6
CONTINUOUS
 10
33.9793174549
 20
19.5732053944
  7
STANDARD
 40
0.15625
  1
 
 41
0.8
 72
2
 11
34.1043174549
 21
19.5732053944
  0
LINE
  8
___NOTE
 62
2
  6
CONTINUOUS
 10
36.9231744607
 20
19.4856119835
 11
34.3543174549
 21
21.0575803944
  0
LINE
  8
___NOTE
 62
2
  6
CONTINUOUS
 10
34.3543174549
 20
21.0575803944
 11
34.1043174549
 21
21.0575803944
  0
SOLID
  8
___NOTE
 62
2
  6
CONTINUOUS
 10
36.7469313718
 20
19.5568242444
 11
36.9231744607
 21
19.4856119835
 12
36.7795538936
 22
19.6101348538
 13
36.7795538936
 23
19.6101348538
  0
TEXT
  8
___NOTE
 62
2
  6
CONTINUOUS
 10
30.8527678774
 20
23.3533161824
  7
STANDARD
 40
0.15625
  1
FOR TOP-MOUNT INSTALLATION
 41
0.8
 72
2
 11
34.1027678774
 21
23.3533161824
  0
TEXT
  8
___NOTE
 62
2
  6
CONTINUOUS
 10
31.7277678774
 20
23.1189411824
  7
STANDARD
 40
0.15625
  1
CUT ALONG THIS LINE
 41
0.8
 72
2
 11
34.1027678774
 21
23.1189411824
  0
TEXT
  8
___NOTE
 62
2
  6
CONTINUOUS
 10
29.1027678774
 20
22.8845661824
  7
STANDARD
 40
0.15625
  1
PARA INSTALACIONES DE MONTAJE POR ARRIBA
 41
0.8
 72
2
 11
34.1027678774
 21
22.8845661824
  0
TEXT
  8
___NOTE
 62
2
  6
CONTINUOUS
 10
30.3527678774
 20
22.6501911824
  7
STANDARD
 40
0.15625
  1
CORTE A LO LARGO DE ESTA LÍNEA
 41
0.8
 72
2
 11
34.1027678774
 21
22.6501911824
  0
TEXT
  8
___NOTE
 62
2
  6
CONTINUOUS
 10
29.3527678774
 20
22.4158161824
  7
STANDARD
 40
0.15625
  1
POUR INSTALLATION À MONTAGE EN SURFACE
 41
0.8
 72
2
 11
34.1027678774
 21
22.4158161824
  0
TEXT
  8
___NOTE
 62
2
  6
CONTINUOUS
 10
30.4777678774
 20
22.1814411824
  7
STANDARD
 40
0.15625
  1
COUPER LE LONG DE CETTE LIGNE
 41
0.8
 72
2
 11
34.1027678774
 21
22.1814411824
  0
TEXT
  8
___NOTE
 62
2
  6
CONTINUOUS
 10
33.9777678774
 20
21.9470661824
  7
STANDARD
 40
0.15625
  1
 
 41
0.8
 72
2
 11
34.1027678774
 21
21.9470661824
  0
LINE
  8
___NOTE
 62
2
  6
CONTINUOUS
 10
37.6480891632
 20
21.374557688
 11
34.3527678774
 21
23.4314411824
  0
LINE
  8
___NOTE
 62
2
  6
CONTINUOUS
 10
34.3527678774
 20
23.4314411824
 11
34.1027678774
 21
23.4314411824
  0
SOLID
  8
___NOTE
 62
2
  6
CONTINUOUS
 10
37.4724842141
 20
21.4473293468
 11
37.6480891632
 21
21.374557688
 12
37.5055779926
 22
21.5003487001
 13
37.5055779926
 23
21.5003487001
  0
TEXT
  8
___NOTE
 62
2
  6
CONTINUOUS
 10
8.7011924239
 20
10.5316991328
  7
STANDARD
 40
0.2
  1
1043168-7
 41
0.8
 72
0
  0
TEXT
  8
___NOTE
 62
2
  6
CONTINUOUS
 10
10.1411924239
 20
10.5316991328
  7
STANDARD
 40
0.2
  1
-
 41
0.8
 72
0
  0
TEXT
  8
___NOTE
 62
2
  6
CONTINUOUS
 10
10.3011924239
 20
10.5316991328
  7
STANDARD
 40
0.2
  1
B
 41
0.8
 72
0
  0
TEXT
  8
___NOTE
 62
2
  6
CONTINUOUS
 10
8.7011924239
 20
10.2316991328
  7
STANDARD
 40
0.2
  1
 
 41
0.8
 72
0
  0
TEXT
  8
___NOTE
 62
2
  6
CONTINUOUS
 10
8.7011924239
 20
9.9316991328
  7
STANDARD
 40
0.2
  1
 
 41
0.8
 72
0
  0
TEXT
  8
___NOTE
 62
2
  6
CONTINUOUS
 10
8.7011924239
 20
9.6316991328
  7
STANDARD
 40
0.2
  1
 
 41
0.8
 72
0
  0
TEXT
  8
___NOTE
 62
2
  6
CONTINUOUS
 10
8.7011924239
 20
9.3316991328
  7
STANDARD
 40
0.2
  1
 
 41
0.8
 72
0
  0
TEXT
  8
___NOTE
 62
2
  6
CONTINUOUS
 10
8.7011924239
 20
9.0316991328
  7
STANDARD
 40
0.2
  1
 
 41
0.8
 72
0
  0
TEXT
  8
___NOTE
 62
2
  6
CONTINUOUS
 10
8.7011924239
 20
8.7316991328
  7
STANDARD
 40
0.2
  1
 
 41
0.8
 72
0
  0
TEXT
  8
___NOTE
 62
2
  6
CONTINUOUS
 10
8.7011924239
 20
8.4316991328
  7
STANDARD
 40
0.2
  1
 
 41
0.8
 72
0
  0
TEXT
  8
___NOTE
 62
2
  6
CONTINUOUS
 10
8.7011924239
 20
8.1316991328
  7
STANDARD
 40
0.2
  1
1043168-7
 41
0.8
 72
0
  0
TEXT
  8
___NOTE
 62
2
  6
CONTINUOUS
 10
10.1411924239
 20
8.1316991328
  7
STANDARD
 40
0.2
  1
-
 41
0.8
 72
0
  0
TEXT
  8
___NOTE
 62
2
  6
CONTINUOUS
 10
10.3011924239
 20
8.1316991328
  7
STANDARD
 40
0.2
  1
B
 41
0.8
 72
0
  0
INSERT
  8
___SYMBOL
 62
2
  6
CONTINUOUS
  2
COPYRIGHT_YEAR_BL0
 10
35.351341483
 20
10.3220442164
  0
INSERT
  8
___SYMBOL
 62
2
  6
CONTINUOUS
  2
WHEN_PLOTTING_TEMPLATE_N_BL1
 10
32.2596298666
 20
12.5482265759
  0
INSERT
  8
___SYMBOL
 62
2
  6
CONTINUOUS
  2
CUT-OUT_TEMPLATE_SKU_SIN_BL2
 10
14.6565928659
 20
22.6342554509
  0
LINE
  8
0
 62
7
  6
CONTINUOUS
 10
0.0
 20
0.0
 11
0.0
 21
34.0
  0
LINE
  8
0
 62
7
  6
CONTINUOUS
 10
0.0
 20
0.0
 11
44.0
 21
0.0
  0
LINE
  8
0
 62
7
  6
CONTINUOUS
 10
0.0
 20
34.0
 11
44.0
 21
34.0
  0
LINE
  8
0
 62
7
  6
CONTINUOUS
 10
44.0
 20
0.0
 11
44.0
 21
34.0
  0
LINE
  8
_CURVE
 62
8
  6
HIDDEN
 10
5.2730891632
 20
26.0480018398
 11
5.2730891632
 21
10.2980018398
  0
LINE
  8
_CURVE
 62
7
  6
CONTINUOUS
 10
5.8980891632
 20
26.0480018398
 11
5.8980891632
 21
10.2980018398
  0
POLYLINE
  8
_CURVE
 62
7
  6
CONTINUOUS
 66
1
 70
0
  0
VERTEX
  8
_CURVE
 62
7
  6
CONTINUOUS
 10
6.6230038658
 20
11.5923988546
  0
VERTEX
  8
_CURVE
 62
7
  6
CONTINUOUS
 10
6.6234139561
 20
11.5388208602
  0
VERTEX
  8
_CURVE
 62
7
  6
CONTINUOUS
 10
6.6248626463
 20
11.485234922
  0
VERTEX
  8
_CURVE
 62
7
  6
CONTINUOUS
 10
6.6274205741
 20
11.4316771225
  0
VERTEX
  8
_CURVE
 62
7
  6
CONTINUOUS
 10
6.631158377
 20
11.3781835442
  0
VERTEX
  8
_CURVE
 62
7
  6
CONTINUOUS
 10
6.6361466924
 20
11.3247902696
  0
VERTEX
  8
_CURVE
 62
7
  6
CONTINUOUS
 10
6.6424561581
 20
11.2715333811
  0
VERTEX
  8
_CURVE
 62
7
  6
CONTINUOUS
 10
6.6501574114
 20
11.2184489612
  0
VERTEX
  8
_CURVE
 62
7
  6
CONTINUOUS
 10
6.6576519877
 20
11.1745891425
  0
VERTEX
  8
_CURVE
 62
7
  6
CONTINUOUS
 10
6.666204891
 20
11.1309201264
  0
VERTEX
  8
_CURVE
 62
7
  6
CONTINUOUS
 10
6.6758687739
 20
11.0874893
  0
VERTEX
  8
_CURVE
 62
7
  6
CONTINUOUS
 10
6.6866962886
 20
11.0443440504
  0
VERTEX
  8
_CURVE
 62
7
  6
CONTINUOUS
 10
6.6987400876
 20
11.0015317646
  0
VERTEX
  8
_CURVE
 62
7
  6
CONTINUOUS
 10
6.7120528232
 20
10.9590998298
  0
VERTEX
  8
_CURVE
 62
7
  6
CONTINUOUS
 10
6.7266871477
 20
10.9170956328
  0
VERTEX
  8
_CURVE
 62
7
  6
CONTINUOUS
 10
6.7398498141
 20
10.8826530915
  0
VERTEX
  8
_CURVE
 62
7
  6
CONTINUOUS
 10
6.7539744246
 20
10.8485853682
  0
VERTEX
  8
_CURVE
 62
7
  6
CONTINUOUS
 10
6.769079434
 20
10.8149410826
  0
VERTEX
  8
_CURVE
 62
7
  6
CONTINUOUS
 10
6.7851832971
 20
10.7817688542
  0
VERTEX
  8
_CURVE
 62
7
  6
CONTINUOUS
 10
6.8023044688
 20
10.7491173027
  0
VERTEX
  8
_CURVE
 62
7
  6
CONTINUOUS
 10
6.8204614039
 20
10.7170350476
  0
VERTEX
  8
_CURVE
 62
7
  6
CONTINUOUS
 10
6.8396725571
 20
10.6855707086
  0
VERTEX
  8
_CURVE
 62
7
  6
CONTINUOUS
 10
6.8606624602
 20
10.6537323296
  0
VERTEX
  8
_CURVE
 62
7
  6
CONTINUOUS
 10
6.8827807197
 20
10.622660314
  0
VERTEX
  8
_CURVE
 62
7
  6
CONTINUOUS
 10
6.9060084217
 20
10.5924081365
  0
VERTEX
  8
_CURVE
 62
7
  6
CONTINUOUS
 10
6.9303266527
 20
10.5630292717
  0
VERTEX
  8
_CURVE
 62
7
  6
CONTINUOUS
 10
6.9557164988
 20
10.5345771945
  0
VERTEX
  8
_CURVE
 62
7
  6
CONTINUOUS
 10
6.9821590463
 20
10.5071053794
  0
VERTEX
  8
_CURVE
 62
7
  6
CONTINUOUS
 10
7.0096298127
 20
10.4806613657
  0
VERTEX
  8
_CURVE
 62
7
  6
CONTINUOUS
 10
7.0380809096
 20
10.4552700264
  0
VERTEX
  8
_CURVE
 62
7
  6
CONTINUOUS
 10
7.0674588654
 20
10.4309502847
  0
VERTEX
  8
_CURVE
 62
7
  6
CONTINUOUS
 10
7.0977102089
 20
10.4077210639
  0
VERTEX
  8
_CURVE
 62
7
  6
CONTINUOUS
 10
7.1287814686
 20
10.3856012874
  0
VERTEX
  8
_CURVE
 62
7
  6
CONTINUOUS
 10
7.1606191731
 20
10.3646098785
  0
VERTEX
  8
_CURVE
 62
7
  6
CONTINUOUS
 10
7.1920857325
 20
10.3453956463
  0
VERTEX
  8
_CURVE
 62
7
  6
CONTINUOUS
 10
7.2241703877
 20
10.3272358393
  0
VERTEX
  8
_CURVE
 62
7
  6
CONTINUOUS
 10
7.2568245024
 20
10.3101120015
  0
VERTEX
  8
_CURVE
 62
7
  6
CONTINUOUS
 10
7.2899994404
 20
10.2940056773
  0
VERTEX
  8
_CURVE
 62
7
  6
CONTINUOUS
 10
7.3236465654
 20
10.2788984107
  0
VERTEX
  8
_CURVE
 62
7
  6
CONTINUOUS
 10
7.357717241
 20
10.2647717458
  0
VERTEX
  8
_CURVE
 62
7
  6
CONTINUOUS
 10
7.3921628311
 20
10.2516072268
  0
VERTEX
  8
_CURVE
 62
7
  6
CONTINUOUS
 10
7.4341677729
 20
10.2369719369
  0
VERTEX
  8
_CURVE
 62
7
  6
CONTINUOUS
 10
7.4766004958
 20
10.2236583237
  0
VERTEX
  8
_CURVE
 62
7
  6
CONTINUOUS
 10
7.5194136085
 20
10.2116137285
  0
VERTEX
  8
_CURVE
 62
7
  6
CONTINUOUS
 10
7.5625597194
 20
10.2007854921
  0
VERTEX
  8
_CURVE
 62
7
  6
CONTINUOUS
 10
7.605991437
 20
10.1911209558
  0
VERTEX
  8
_CURVE
 62
7
  6
CONTINUOUS
 10
7.64966137
 20
10.1825674604
  0
VERTEX
  8
_CURVE
 62
7
  6
CONTINUOUS
 10
7.6935221268
 20
10.1750723471
  0
VERTEX
  8
_CURVE
 62
7
  6
CONTINUOUS
 10
7.7466085207
 20
10.1673704049
  0
VERTEX
  8
_CURVE
 62
7
  6
CONTINUOUS
 10
7.7998674087
 20
10.1610603683
  0
VERTEX
  8
_CURVE
 62
7
  6
CONTINUOUS
 10
7.8532627026
 20
10.1560716023
  0
VERTEX
  8
_CURVE
 62
7
  6
CONTINUOUS
 10
7.9067583145
 20
10.1523334718
  0
VERTEX
  8
_CURVE
 62
7
  6
CONTINUOUS
 10
7.9603181564
 20
10.1497753417
  0
VERTEX
  8
_CURVE
 62
7
  6
CONTINUOUS
 10
8.0139061402
 20
10.1483265769
  0
VERTEX
  8
_CURVE
 62
7
  6
CONTINUOUS
 10
8.067486178
 20
10.1479165424
  0
SEQEND
  0
LINE
  8
_CURVE
 62
7
  6
CONTINUOUS
 10
6.6230038658
 20
24.753604825
 11
6.6230038658
 21
11.5923988546
  0
LINE
  8
_CURVE
 62
8
  6
HIDDEN
 10
6.7730891632
 20
8.7980018398
 11
36.7730891632
 21
8.7980018398
  0
POLYLINE
  8
_CURVE
 62
7
  6
CONTINUOUS
 66
1
 70
0
  0
VERTEX
  8
_CURVE
 62
7
  6
CONTINUOUS
 10
35.4786921485
 20
10.1479165424
  0
VERTEX
  8
_CURVE
 62
7
  6
CONTINUOUS
 10
35.5322701429
 20
10.1483266327
  0
VERTEX
  8
_CURVE
 62
7
  6
CONTINUOUS
 10
35.5858560811
 20
10.1497753229
  0
VERTEX
  8
_CURVE
 62
7
  6
CONTINUOUS
 10
35.6394138805
 20
10.1523332507
  0
VERTEX
  8
_CURVE
 62
7
  6
CONTINUOUS
 10
35.6929074588
 20
10.1560710535
  0
VERTEX
  8
_CURVE
 62
7
  6
CONTINUOUS
 10
35.7463007335
 20
10.161059369
  0
VERTEX
  8
_CURVE
 62
7
  6
CONTINUOUS
 10
35.799557622
 20
10.1673688346
  0
VERTEX
  8
_CURVE
 62
7
  6
CONTINUOUS
 10
35.8526420419
 20
10.175070088
  0
VERTEX
  8
_CURVE
 62
7
  6
CONTINUOUS
 10
35.8965018606
 20
10.1825646642
  0
VERTEX
  8
_CURVE
 62
7
  6
CONTINUOUS
 10
35.9401708767
 20
10.1911175676
  0
VERTEX
  8
_CURVE
 62
7
  6
CONTINUOUS
 10
35.983601703
 20
10.2007814505
  0
VERTEX
  8
_CURVE
 62
7
  6
CONTINUOUS
 10
36.0267469526
 20
10.2116089652
  0
VERTEX
  8
_CURVE
 62
7
  6
CONTINUOUS
 10
36.0695592384
 20
10.2236527642
  0
VERTEX
  8
_CURVE
 62
7
  6
CONTINUOUS
 10
36.1119911733
 20
10.2369654997
  0
VERTEX
  8
_CURVE
 62
7
  6
CONTINUOUS
 10
36.1539953702
 20
10.2515998243
  0
VERTEX
  8
_CURVE
 62
7
  6
CONTINUOUS
 10
36.1884379116
 20
10.2647624907
  0
VERTEX
  8
_CURVE
 62
7
  6
CONTINUOUS
 10
36.2225056348
 20
10.2788871011
  0
VERTEX
  8
_CURVE
 62
7
  6
CONTINUOUS
 10
36.2561499205
 20
10.2939921105
  0
VERTEX
  8
_CURVE
 62
7
  6
CONTINUOUS
 10
36.2893221489
 20
10.3100959737
  0
VERTEX
  8
_CURVE
 62
7
  6
CONTINUOUS
 10
36.3219737004
 20
10.3272171454
  0
VERTEX
  8
_CURVE
 62
7
  6
CONTINUOUS
 10
36.3540559555
 20
10.3453740804
  0
VERTEX
  8
_CURVE
 62
7
  6
CONTINUOUS
 10
36.3855202945
 20
10.3645852337
  0
VERTEX
  8
_CURVE
 62
7
  6
CONTINUOUS
 10
36.4173586735
 20
10.3855751368
  0
VERTEX
  8
_CURVE
 62
7
  6
CONTINUOUS
 10
36.4484306891
 20
10.4076933962
  0
VERTEX
  8
_CURVE
 62
7
  6
CONTINUOUS
 10
36.4786828666
 20
10.4309210983
  0
VERTEX
  8
_CURVE
 62
7
  6
CONTINUOUS
 10
36.5080617313
 20
10.4552393293
  0
VERTEX
  8
_CURVE
 62
7
  6
CONTINUOUS
 10
36.5365138086
 20
10.4806291754
  0
VERTEX
  8
_CURVE
 62
7
  6
CONTINUOUS
 10
36.5639856237
 20
10.5070717229
  0
VERTEX
  8
_CURVE
 62
7
  6
CONTINUOUS
 10
36.5904296373
 20
10.5345424893
  0
VERTEX
  8
_CURVE
 62
7
  6
CONTINUOUS
 10
36.6158209767
 20
10.5629935862
  0
VERTEX
  8
_CURVE
 62
7
  6
CONTINUOUS
 10
36.6401407184
 20
10.592371542
  0
VERTEX
  8
_CURVE
 62
7
  6
CONTINUOUS
 10
36.6633699392
 20
10.6226228854
  0
VERTEX
  8
_CURVE
 62
7
  6
CONTINUOUS
 10
36.6854897157
 20
10.6536941451
  0
VERTEX
  8
_CURVE
 62
7
  6
CONTINUOUS
 10
36.7064811245
 20
10.6855318497
  0
VERTEX
  8
_CURVE
 62
7
  6
CONTINUOUS
 10
36.7256953568
 20
10.7169984091
  0
VERTEX
  8
_CURVE
 62
7
  6
CONTINUOUS
 10
36.7438551638
 20
10.7490830642
  0
VERTEX
  8
_CURVE
 62
7
  6
CONTINUOUS
 10
36.7609790015
 20
10.781737179
  0
VERTEX
  8
_CURVE
 62
7
  6
CONTINUOUS
 10
36.7770853258
 20
10.814912117
  0
VERTEX
  8
_CURVE
 62
7
  6
CONTINUOUS
 10
36.7921925924
 20
10.848559242
  0
VERTEX
  8
_CURVE
 62
7
  6
CONTINUOUS
 10
36.8063192573
 20
10.8826299176
  0
VERTEX
  8
_CURVE
 62
7
  6
CONTINUOUS
 10
36.8194837763
 20
10.9170755076
  0
VERTEX
  8
_CURVE
 62
7
  6
CONTINUOUS
 10
36.8341190662
 20
10.9590804494
  0
VERTEX
  8
_CURVE
 62
7
  6
CONTINUOUS
 10
36.8474326793
 20
11.0015131724
  0
VERTEX
  8
_CURVE
 62
7
  6
CONTINUOUS
 10
36.8594772746
 20
11.0443262851
  0
VERTEX
  8
_CURVE
 62
7
  6
CONTINUOUS
 10
36.8703055109
 20
11.0874723959
  0
VERTEX
  8
_CURVE
 62
7
  6
CONTINUOUS
 10
36.8799700473
 20
11.1309041136
  0
VERTEX
  8
_CURVE
 62
7
  6
CONTINUOUS
 10
36.8885235427
 20
11.1745740465
  0
VERTEX
  8
_CURVE
 62
7
  6
CONTINUOUS
 10
36.8960186559
 20
11.2184348033
  0
VERTEX
  8
_CURVE
 62
7
  6
CONTINUOUS
 10
36.9037205982
 20
11.2715211973
  0
VERTEX
  8
_CURVE
 62
7
  6
CONTINUOUS
 10
36.9100306347
 20
11.3247800852
  0
VERTEX
  8
_CURVE
 62
7
  6
CONTINUOUS
 10
36.9150194007
 20
11.3781753792
  0
VERTEX
  8
_CURVE
 62
7
  6
CONTINUOUS
 10
36.9187575312
 20
11.4316709911
  0
VERTEX
  8
_CURVE
 62
7
  6
CONTINUOUS
 10
36.9213156613
 20
11.485230833
  0
VERTEX
  8
_CURVE
 62
7
  6
CONTINUOUS
 10
36.9227644261
 20
11.5388188168
  0
VERTEX
  8
_CURVE
 62
7
  6
CONTINUOUS
 10
36.9231744607
 20
11.5923988546
  0
SEQEND
  0
LINE
  8
_CURVE
 62
7
  6
CONTINUOUS
 10
6.7730891632
 20
9.4230018398
 11
36.7730891632
 21
9.4230018398
  0
LINE
  8
_CURVE
 62
7
  6
CONTINUOUS
 10
8.067486178
 20
10.1479165424
 11
35.4786921485
 21
10.1479165424
  0
LINE
  8
_CURVE
 62
8
  6
CENTER
 10
21.7730891632
 20
10.4230018398
 11
21.7730891632
 21
8.4230018398
  0
LINE
  8
_CURVE
 62
8
  6
CENTER
 10
21.7730891632
 20
25.9230018398
 11
21.7730891632
 21
27.9230018398
  0
LINE
  8
_CURVE
 62
8
  6
CENTER
 10
38.6480891632
 20
18.1730018398
 11
36.6480891632
 21
18.1730018398
  0
LINE
  8
_CURVE
 62
8
  6
CENTER
 10
6.8980891632
 20
18.1730018398
 11
4.8980891632
 21
18.1730018398
  0
POLYLINE
  8
_CURVE
 62
7
  6
CONTINUOUS
 66
1
 70
0
  0
VERTEX
  8
_CURVE
 62
7
  6
CONTINUOUS
 10
8.067486178
 20
26.1980871373
  0
VERTEX
  8
_CURVE
 62
7
  6
CONTINUOUS
 10
8.0139081836
 20
26.197677047
  0
VERTEX
  8
_CURVE
 62
7
  6
CONTINUOUS
 10
7.9603222454
 20
26.1962283567
  0
VERTEX
  8
_CURVE
 62
7
  6
CONTINUOUS
 10
7.906764446
 20
26.1936704289
  0
VERTEX
  8
_CURVE
 62
7
  6
CONTINUOUS
 10
7.8532708677
 20
26.1899326261
  0
VERTEX
  8
_CURVE
 62
7
  6
CONTINUOUS
 10
7.799877593
 20
26.1849443106
  0
VERTEX
  8
_CURVE
 62
7
  6
CONTINUOUS
 10
7.7466207045
 20
26.178634845
  0
VERTEX
  8
_CURVE
 62
7
  6
CONTINUOUS
 10
7.6935362846
 20
26.1709335917
  0
VERTEX
  8
_CURVE
 62
7
  6
CONTINUOUS
 10
7.6496764659
 20
26.1634390154
  0
VERTEX
  8
_CURVE
 62
7
  6
CONTINUOUS
 10
7.6060074498
 20
26.154886112
  0
VERTEX
  8
_CURVE
 62
7
  6
CONTINUOUS
 10
7.5625766235
 20
26.1452222292
  0
VERTEX
  8
_CURVE
 62
7
  6
CONTINUOUS
 10
7.5194313739
 20
26.1343947144
  0
VERTEX
  8
_CURVE
 62
7
  6
CONTINUOUS
 10
7.4766190881
 20
26.1223509155
  0
VERTEX
  8
_CURVE
 62
7
  6
CONTINUOUS
 10
7.4341871532
 20
26.1090381799
  0
VERTEX
  8
_CURVE
 62
7
  6
CONTINUOUS
 10
7.3921829563
 20
26.0944038554
  0
VERTEX
  8
_CURVE
 62
7
  6
CONTINUOUS
 10
7.3577404149
 20
26.081241189
  0
VERTEX
  8
_CURVE
 62
7
  6
CONTINUOUS
 10
7.3236726917
 20
26.0671165785
  0
VERTEX
  8
_CURVE
 62
7
  6
CONTINUOUS
 10
7.290028406
 20
26.0520115691
  0
VERTEX
  8
_CURVE
 62
7
  6
CONTINUOUS
 10
7.2568561776
 20
26.035907706
  0
VERTEX
  8
_CURVE
 62
7
  6
CONTINUOUS
 10
7.2242046261
 20
26.0187865343
  0
VERTEX
  8
_CURVE
 62
7
  6
CONTINUOUS
 10
7.192122371
 20
26.0006295992
  0
VERTEX
  8
_CURVE
 62
7
  6
CONTINUOUS
 10
7.160658032
 20
25.9814184459
  0
VERTEX
  8
_CURVE
 62
7
  6
CONTINUOUS
 10
7.128819653
 20
25.9604285428
  0
VERTEX
  8
_CURVE
 62
7
  6
CONTINUOUS
 10
7.0977476374
 20
25.9383102834
  0
VERTEX
  8
_CURVE
 62
7
  6
CONTINUOUS
 10
7.0674954599
 20
25.9150825813
  0
VERTEX
  8
_CURVE
 62
7
  6
CONTINUOUS
 10
7.0381165952
 20
25.8907643504
  0
VERTEX
  8
_CURVE
 62
7
  6
CONTINUOUS
 10
7.0096645179
 20
25.8653745043
  0
VERTEX
  8
_CURVE
 62
7
  6
CONTINUOUS
 10
6.9821927028
 20
25.8389319568
  0
VERTEX
  8
_CURVE
 62
7
  6
CONTINUOUS
 10
6.9557486892
 20
25.8114611903
  0
VERTEX
  8
_CURVE
 62
7
  6
CONTINUOUS
 10
6.9303573498
 20
25.7830100935
  0
VERTEX
  8
_CURVE
 62
7
  6
CONTINUOUS
 10
6.9060376081
 20
25.7536321376
  0
VERTEX
  8
_CURVE
 62
7
  6
CONTINUOUS
 10
6.8828083873
 20
25.7233807942
  0
VERTEX
  8
_CURVE
 62
7
  6
CONTINUOUS
 10
6.8606886108
 20
25.6923095345
  0
VERTEX
  8
_CURVE
 62
7
  6
CONTINUOUS
 10
6.839697202
 20
25.6604718299
  0
VERTEX
  8
_CURVE
 62
7
  6
CONTINUOUS
 10
6.8204829697
 20
25.6290052706
  0
VERTEX
  8
_CURVE
 62
7
  6
CONTINUOUS
 10
6.8023231627
 20
25.5969206154
  0
VERTEX
  8
_CURVE
 62
7
  6
CONTINUOUS
 10
6.785199325
 20
25.5642665006
  0
VERTEX
  8
_CURVE
 62
7
  6
CONTINUOUS
 10
6.7690930007
 20
25.5310915626
  0
VERTEX
  8
_CURVE
 62
7
  6
CONTINUOUS
 10
6.7539857341
 20
25.4974444377
  0
VERTEX
  8
_CURVE
 62
7
  6
CONTINUOUS
 10
6.7398590692
 20
25.463373762
  0
VERTEX
  8
_CURVE
 62
7
  6
CONTINUOUS
 10
6.7266945502
 20
25.428928172
  0
VERTEX
  8
_CURVE
 62
7
  6
CONTINUOUS
 10
6.7120592603
 20
25.3869232302
  0
VERTEX
  8
_CURVE
 62
7
  6
CONTINUOUS
 10
6.6987456472
 20
25.3444905072
  0
VERTEX
  8
_CURVE
 62
7
  6
CONTINUOUS
 10
6.6867010519
 20
25.3016773946
  0
VERTEX
  8
_CURVE
 62
7
  6
CONTINUOUS
 10
6.6758728156
 20
25.2585312837
  0
VERTEX
  8
_CURVE
 62
7
  6
CONTINUOUS
 10
6.6662082792
 20
25.2150995661
  0
VERTEX
  8
_CURVE
 62
7
  6
CONTINUOUS
 10
6.6576547838
 20
25.1714296331
  0
VERTEX
  8
_CURVE
 62
7
  6
CONTINUOUS
 10
6.6501596706
 20
25.1275688763
  0
VERTEX
  8
_CURVE
 62
7
  6
CONTINUOUS
 10
6.6424577283
 20
25.0744824823
  0
VERTEX
  8
_CURVE
 62
7
  6
CONTINUOUS
 10
6.6361476918
 20
25.0212235944
  0
VERTEX
  8
_CURVE
 62
7
  6
CONTINUOUS
 10
6.6311589258
 20
24.9678283005
  0
VERTEX
  8
_CURVE
 62
7
  6
CONTINUOUS
 10
6.6274207953
 20
24.9143326886
  0
VERTEX
  8
_CURVE
 62
7
  6
CONTINUOUS
 10
6.6248626652
 20
24.8607728467
  0
VERTEX
  8
_CURVE
 62
7
  6
CONTINUOUS
 10
6.6234139004
 20
24.8071848628
  0
VERTEX
  8
_CURVE
 62
7
  6
CONTINUOUS
 10
6.6230038658
 20
24.753604825
  0
SEQEND
  0
LINE
  8
_CURVE
 62
7
  6
CONTINUOUS
 10
35.4786921485
 20
26.1980871373
 11
8.067486178
 21
26.1980871373
  0
LINE
  8
_CURVE
 62
7
  6
CONTINUOUS
 10
36.7730891632
 20
26.9230018398
 11
6.7730891632
 21
26.9230018398
  0
LINE
  8
_CURVE
 62
8
  6
HIDDEN
 10
36.7730891632
 20
27.5480018398
 11
6.7730891632
 21
27.5480018398
  0
POLYLINE
  8
_CURVE
 62
7
  6
CONTINUOUS
 66
1
 70
0
  0
VERTEX
  8
_CURVE
 62
7
  6
CONTINUOUS
 10
36.9231744607
 20
24.753604825
  0
VERTEX
  8
_CURVE
 62
7
  6
CONTINUOUS
 10
36.9227643704
 20
24.8071828194
  0
VERTEX
  8
_CURVE
 62
7
  6
CONTINUOUS
 10
36.9213156802
 20
24.8607687576
  0
VERTEX
  8
_CURVE
 62
7
  6
CONTINUOUS
 10
36.9187577524
 20
24.9143265571
  0
VERTEX
  8
_CURVE
 62
7
  6
CONTINUOUS
 10
36.9150199495
 20
24.9678201354
  0
VERTEX
  8
_CURVE
 62
7
  6
CONTINUOUS
 10
36.9100316341
 20
25.02121341
  0
VERTEX
  8
_CURVE
 62
7
  6
CONTINUOUS
 10
36.9037221684
 20
25.0744702985
  0
VERTEX
  8
_CURVE
 62
7
  6
CONTINUOUS
 10
36.8960209151
 20
25.1275547184
  0
VERTEX
  8
_CURVE
 62
7
  6
CONTINUOUS
 10
36.8885263388
 20
25.1714145372
  0
VERTEX
  8
_CURVE
 62
7
  6
CONTINUOUS
 10
36.8799734355
 20
25.2150835532
  0
VERTEX
  8
_CURVE
 62
7
  6
CONTINUOUS
 10
36.8703095526
 20
25.2585143796
  0
VERTEX
  8
_CURVE
 62
7
  6
CONTINUOUS
 10
36.8594820379
 20
25.3016596292
  0
VERTEX
  8
_CURVE
 62
7
  6
CONTINUOUS
 10
36.8474382389
 20
25.344471915
  0
VERTEX
  8
_CURVE
 62
7
  6
CONTINUOUS
 10
36.8341255033
 20
25.3869038499
  0
VERTEX
  8
_CURVE
 62
7
  6
CONTINUOUS
 10
36.8194911788
 20
25.4289080468
  0
VERTEX
  8
_CURVE
 62
7
  6
CONTINUOUS
 10
36.8063285124
 20
25.4633505881
  0
VERTEX
  8
_CURVE
 62
7
  6
CONTINUOUS
 10
36.7922039019
 20
25.4974183114
  0
VERTEX
  8
_CURVE
 62
7
  6
CONTINUOUS
 10
36.7770988925
 20
25.531062597
  0
VERTEX
  8
_CURVE
 62
7
  6
CONTINUOUS
 10
36.7609950294
 20
25.5642348254
  0
VERTEX
  8
_CURVE
 62
7
  6
CONTINUOUS
 10
36.7438738577
 20
25.596886377
  0
VERTEX
  8
_CURVE
 62
7
  6
CONTINUOUS
 10
36.7257169226
 20
25.6289686321
  0
VERTEX
  8
_CURVE
 62
7
  6
CONTINUOUS
 10
36.7065057694
 20
25.660432971
  0
VERTEX
  8
_CURVE
 62
7
  6
CONTINUOUS
 10
36.6855158663
 20
25.69227135
  0
VERTEX
  8
_CURVE
 62
7
  6
CONTINUOUS
 10
36.6633976068
 20
25.7233433656
  0
VERTEX
  8
_CURVE
 62
7
  6
CONTINUOUS
 10
36.6401699048
 20
25.7535955431
  0
VERTEX
  8
_CURVE
 62
7
  6
CONTINUOUS
 10
36.6158516738
 20
25.7829744079
  0
VERTEX
  8
_CURVE
 62
7
  6
CONTINUOUS
 10
36.5904618277
 20
25.8114264852
  0
VERTEX
  8
_CURVE
 62
7
  6
CONTINUOUS
 10
36.5640192802
 20
25.8388983003
  0
VERTEX
  8
_CURVE
 62
7
  6
CONTINUOUS
 10
36.5365485138
 20
25.8653423139
  0
VERTEX
  8
_CURVE
 62
7
  6
CONTINUOUS
 10
36.5080974169
 20
25.8907336532
  0
VERTEX
  8
_CURVE
 62
7
  6
CONTINUOUS
 10
36.4787194611
 20
25.915053395
  0
VERTEX
  8
_CURVE
 62
7
  6
CONTINUOUS
 10
36.4484681176
 20
25.9382826157
  0
VERTEX
  8
_CURVE
 62
7
  6
CONTINUOUS
 10
36.4173968579
 20
25.9604023922
  0
VERTEX
  8
_CURVE
 62
7
  6
CONTINUOUS
 10
36.3855591534
 20
25.9813938011
  0
VERTEX
  8
_CURVE
 62
7
  6
CONTINUOUS
 10
36.354092594
 20
26.0006080333
  0
VERTEX
  8
_CURVE
 62
7
  6
CONTINUOUS
 10
36.3220079388
 20
26.0187678404
  0
VERTEX
  8
_CURVE
 62
7
  6
CONTINUOUS
 10
36.2893538241
 20
26.0358916781
  0
VERTEX
  8
_CURVE
 62
7
  6
CONTINUOUS
 10
36.2561788861
 20
26.0519980023
  0
VERTEX
  8
_CURVE
 62
7
  6
CONTINUOUS
 10
36.2225317611
 20
26.067105269
  0
VERTEX
  8
_CURVE
 62
7
  6
CONTINUOUS
 10
36.1884610855
 20
26.0812319338
  0
VERTEX
  8
_CURVE
 62
7
  6
CONTINUOUS
 10
36.1540154954
 20
26.0943964528
  0
VERTEX
  8
_CURVE
 62
7
  6
CONTINUOUS
 10
36.1120105536
 20
26.1090317428
  0
VERTEX
  8
_CURVE
 62
7
  6
CONTINUOUS
 10
36.0695778307
 20
26.1223453559
  0
VERTEX
  8
_CURVE
 62
7
  6
CONTINUOUS
 10
36.026764718
 20
26.1343899512
  0
VERTEX
  8
_CURVE
 62
7
  6
CONTINUOUS
 10
35.9836186071
 20
26.1452181875
  0
VERTEX
  8
_CURVE
 62
7
  6
CONTINUOUS
 10
35.9401868895
 20
26.1548827239
  0
VERTEX
  8
_CURVE
 62
7
  6
CONTINUOUS
 10
35.8965169565
 20
26.1634362192
  0
VERTEX
  8
_CURVE
 62
7
  6
CONTINUOUS
 10
35.8526561997
 20
26.1709313325
  0
VERTEX
  8
_CURVE
 62
7
  6
CONTINUOUS
 10
35.7995698058
 20
26.1786332747
  0
VERTEX
  8
_CURVE
 62
7
  6
CONTINUOUS
 10
35.7463109178
 20
26.1849433113
  0
VERTEX
  8
_CURVE
 62
7
  6
CONTINUOUS
 10
35.6929156239
 20
26.1899320773
  0
VERTEX
  8
_CURVE
 62
7
  6
CONTINUOUS
 10
35.639420012
 20
26.1936702078
  0
VERTEX
  8
_CURVE
 62
7
  6
CONTINUOUS
 10
35.5858601701
 20
26.1962283379
  0
VERTEX
  8
_CURVE
 62
7
  6
CONTINUOUS
 10
35.5322721863
 20
26.1976771027
  0
VERTEX
  8
_CURVE
 62
7
  6
CONTINUOUS
 10
35.4786921485
 20
26.1980871373
  0
SEQEND
  0
LINE
  8
_CURVE
 62
7
  6
CONTINUOUS
 10
36.9231744607
 20
11.5923988546
 11
36.9231744607
 21
24.753604825
  0
LINE
  8
_CURVE
 62
7
  6
CONTINUOUS
 10
37.6480891632
 20
10.2980018398
 11
37.6480891632
 21
26.0480018398
  0
LINE
  8
_CURVE
 62
8
  6
HIDDEN
 10
38.2730891632
 20
10.2980018398
 11
38.2730891632
 21
26.0480018398
  0
ARC
  8
_CURVE
 62
8
  6
HIDDEN
 10
36.7730891632
 20
10.2980018398
 40
1.5
 50
270.0
 51
360.0
  0
ARC
  8
_CURVE
 62
8
  6
HIDDEN
 10
36.7730891632
 20
26.0480018398
 40
1.5
 50
0.0
 51
90.0
  0
ARC
  8
_CURVE
 62
8
  6
HIDDEN
 10
6.7730891632
 20
26.0480018398
 40
1.5
 50
90.0
 51
180.0
  0
ARC
  8
_CURVE
 62
8
  6
HIDDEN
 10
6.7730891632
 20
10.2980018398
 40
1.5
 50
180.0
 51
270.0
  0
ARC
  8
_CURVE
 62
7
  6
CONTINUOUS
 10
6.7730891632
 20
10.2980018398
 40
0.875
 50
180.0
 51
270.0
  0
ARC
  8
_CURVE
 62
7
  6
CONTINUOUS
 10
6.7730891632
 20
26.0480018398
 40
0.875
 50
90.0
 51
180.0
  0
ARC
  8
_CURVE
 62
7
  6
CONTINUOUS
 10
36.7730891632
 20
26.0480018398
 40
0.875
 50
0.0
 51
90.0
  0
ARC
  8
_CURVE
 62
7
  6
CONTINUOUS
 10
36.7730891632
 20
10.2980018398
 40
0.875
 50
270.0
 51
360.0
  0
ENDSEC
  0
EOF
