999
DXF file: 1022026-7.dxf
999
Pro/ENGINEER 2004030 by Parametric Technology Corporation
0
SECTION
2
HEADER
9
$ACADVER
1
AC1014
9
$EXTMAX
10
34.0000000000
20
22.0000000000
30
0.0000000000
9
$EXTMIN
10
0.0000000000
20
0.0000000000
30
0.0000000000
9
$LIMMIN
10
0.0000000000
20
0.0000000000
9
$LIMMAX
10
34.0000000000
20
22.0000000000
9
$VIEWCTR
10
17.0000000000
20
11.0000000000
9
$VIEWSIZE
40
22.0000000000
9
$CLAYER
8
0
9
$LTSCALE
40
1.8700000000
9
$CELTYPE
6
BYLAYER
9
$DIMSCALE
40
1
9
$DIMASZ
40
0.1875000000
9
$DIMEXO
40
0.2125000000
9
$DIMDLI
40
1.2920000000
9
$DIMEXE
40
0.6120000000
9
$DIMCEN
40
0.3060000000
9
$DIMLFAC
40
1.0000000000
9
$DIMBLK
1
_FILLED
9
$DIMTXT
40
0.1562500000
9
$DIMTOL
70
1
9
$DIMLIM
70
0
9
$DIMTFAC
40
1.0000000000
9
$DIMTP
40
0.0100000000
9
$DIMTM
40
0.0100000000
9
$PDMODE
70
3
9
$PDSIZE
40
0.3125000000
9
$HANDSEED
5
383
9
$MEASUREMENT
70
0
0
ENDSEC
0
SECTION
2
CLASSES
0
ENDSEC
0
SECTION
2
TABLES
0
TABLE
2
VPORT
5
8
100
AcDbSymbolTable
70
2
0
VPORT
5
1F4
100
AcDbSymbolTableRecord
100
AcDbViewportTableRecord
2
*ACTIVE
70
0
10
0.0
20
0.0
11
1.0
21
1.0
12
17.0000000000
22
11.0000000000
13
0.0
23
0.0
14
1.0
24
1.0
15
0.0
25
0.0
16
0.0
26
0.0
36
1.0
17
0.0
27
0.0
37
0.0
40
22.0000000000
41
1.5454545455
42
50.0
43
0.0
44
0.0
50
0.0
51
0.0
71
0
72
100
73
1
74
1
75
0
76
0
77
0
78
0
0
ENDTAB
0
TABLE
2
LTYPE
5
5
100
AcDbSymbolTable
70
6
0
LTYPE
5
14
100
AcDbSymbolTableRecord
100
AcDbLinetypeTableRecord
2
BYBLOCK
70
0
3

72
65
73
0
40
0.0
0
LTYPE
5
15
100
AcDbSymbolTableRecord
100
AcDbLinetypeTableRecord
2
BYLAYER
70
0
3

72
65
73
0
40
0.0
0
LTYPE
5
16
100
AcDbSymbolTableRecord
100
AcDbLinetypeTableRecord
2
CONTINUOUS
70
64
3
Solid line
72
65
73
0
40
0
0
LTYPE
5
1F5
100
AcDbSymbolTableRecord
100
AcDbLinetypeTableRecord
2
CENTER
70
64
3
____ _ ____ _ ____ _ ____ _ ____ _ ____ _ ____
72
65
73
4
40
0.6
49
0.375
74
0
49
-0.075
74
0
49
0.075
74
0
49
-0.075
74
0
0
LTYPE
5
1F6
100
AcDbSymbolTableRecord
100
AcDbLinetypeTableRecord
2
HIDDEN
70
64
3
- - - - - - - - - - - - - - - - - - - -
72
65
73
2
40
0.2
49
0.1
74
0
49
-0.1
74
0
0
LTYPE
5
1F7
100
AcDbSymbolTableRecord
100
AcDbLinetypeTableRecord
2
PHANTOM
70
64
3
_____ _ _ _____ _ _ _____ _ _ _____
72
65
73
6
40
0.8
49
0.45
74
0
49
-0.05
74
0
49
0.1
74
0
49
-0.05
74
0
49
0.1
74
0
49
-0.05
74
0
0
LTYPE
5
1F8
100
AcDbSymbolTableRecord
100
AcDbLinetypeTableRecord
2
DOT
70
64
3
. . . . . . . . . . . . . . . . . . . .
72
65
73
2
40
0.2
49
0.1
74
0
49
-0.1
74
0
0
LTYPE
5
1F9
100
AcDbSymbolTableRecord
100
AcDbLinetypeTableRecord
2
DASHED
70
64
3
- - - - - - - - - - - - - - - - - - - -
72
65
73
2
40
0.2
49
0.1
74
0
49
-0.1
74
0
0
ENDTAB
0
TABLE
2
LAYER
5
2
100
AcDbSymbolTable
70
36
0
LAYER
5
10
100
AcDbSymbolTableRecord
100
AcDbLayerTableRecord
2
0
70
0
62
7
6
CONTINUOUS
0
LAYER
5
1FA
100
AcDbSymbolTableRecord
100
AcDbLayerTableRecord
2
DEFAULT_1
70
0
62
7
6
CENTER
0
LAYER
5
1FB
100
AcDbSymbolTableRecord
100
AcDbLayerTableRecord
2
DEFAULT_2
70
0
62
8
6
HIDDEN
0
LAYER
5
1FC
100
AcDbSymbolTableRecord
100
AcDbLayerTableRecord
2
DEFAULT_3
70
0
62
7
6
PHANTOM
0
LAYER
5
1FD
100
AcDbSymbolTableRecord
100
AcDbLayerTableRecord
2
DATUMS
70
0
62
7
6
CONTINUOUS
0
LAYER
5
1FE
100
AcDbSymbolTableRecord
100
AcDbLayerTableRecord
2
DATUM_AXIS
70
0
62
7
6
CONTINUOUS
0
LAYER
5
1FF
100
AcDbSymbolTableRecord
100
AcDbLayerTableRecord
2
DATUM_CSYS
70
0
62
7
6
CONTINUOUS
0
LAYER
5
200
100
AcDbSymbolTableRecord
100
AcDbLayerTableRecord
2
DATUM_PLANE
70
0
62
7
6
CONTINUOUS
0
LAYER
5
201
100
AcDbSymbolTableRecord
100
AcDbLayerTableRecord
2
DATUM_POINT
70
0
62
7
6
CONTINUOUS
0
LAYER
5
202
100
AcDbSymbolTableRecord
100
AcDbLayerTableRecord
2
_CURVE
70
0
62
7
6
CONTINUOUS
0
LAYER
5
203
100
AcDbSymbolTableRecord
100
AcDbLayerTableRecord
2
_SURFACE
70
0
62
7
6
CONTINUOUS
0
LAYER
5
204
100
AcDbSymbolTableRecord
100
AcDbLayerTableRecord
2
__REF_CURVE
70
0
62
7
6
CONTINUOUS
0
LAYER
5
205
100
AcDbSymbolTableRecord
100
AcDbLayerTableRecord
2
__REF_SURFACE
70
0
62
7
6
CONTINUOUS
0
LAYER
5
206
100
AcDbSymbolTableRecord
100
AcDbLayerTableRecord
2
___NOTE
70
0
62
7
6
CONTINUOUS
0
LAYER
5
207
100
AcDbSymbolTableRecord
100
AcDbLayerTableRecord
2
___SYMBOL
70
0
62
7
6
CONTINUOUS
0
ENDTAB
0
TABLE
2
STYLE
5
3
100
AcDbSymbolTable
70
1
0
STYLE
5
11
100
AcDbSymbolTableRecord
100
AcDbTextStyleTableRecord
2
STANDARD
70
0
40
0.0
41
0.8000000000
50
0.0
71
0
42
0.2
3
txt
4

0
ENDTAB
0
TABLE
2
VIEW
5
6
100
AcDbSymbolTable
70
0
0
ENDTAB
0
TABLE
2
UCS
5
7
100
AcDbSymbolTable
70
0
0
ENDTAB
0
TABLE
2
APPID
5
9
100
AcDbSymbolTable
70
1
0
APPID
5
208
100
AcDbSymbolTableRecord
100
AcDbRegAppTableRecord
2
ACAD
70
0
0
ENDTAB
0
TABLE
2
DIMSTYLE
5
A
100
AcDbSymbolTable
70
1
0
DIMSTYLE
105
209
100
AcDbSymbolTableRecord
100
AcDbDimStyleTableRecord
2
STANDARD
70
0
3

4

5
_FILLED
6
_FILLED
7
_FILLED
40
1.0
41
0.1875000000
42
0.0625
43
0.38
44
0.18
45
0.0
46
0.0
47
0.0100000000
48
0.0100000000
140
0.1562500000
141
0.09
142
0.0
143
25.4
144
1.0000000000
145
0.0
146
1.0000000000
147
0.09
71
1
72
0
73
1
74
1
75
0
76
0
77
0
78
4
170
0
171
2
172
0
173
0
174
0
175
0
176
0
177
0
178
0
270
2
271
3
272
3
273
2
274
2
340
11
275
0
280
0
281
0
282
0
283
1
284
4
285
0
286
0
287
3
288
0
0
DIMSTYLE
105
20A
100
AcDbSymbolTableRecord
100
AcDbDimStyleTableRecord
2
DIMSTYLE_1
70
0
3

4

5
_FILLED
6
_FILLED
7
_FILLED
40
1.0
41
0.1875000000
42
0.0625
43
0.38
44
0.18
45
0.0
46
0.0
47
0.0625000000
48
0.0625000000
140
0.1562500000
141
0.09
142
0.0
143
25.4
144
1.0000000000
145
0.0
146
1.0000000000
147
0.09
71
0
72
0
73
1
74
1
75
0
76
0
77
0
78
4
170
0
171
2
172
0
173
0
174
0
175
0
176
0
177
0
178
0
270
2
271
4
272
4
273
2
274
2
340
11
275
0
280
0
281
0
282
0
283
1
284
4
285
0
286
0
287
3
288
0
0
ENDTAB
0
TABLE
2
BLOCK_RECORD
5
1
100
AcDbSymbolTable
70
0
0
BLOCK_RECORD
5
1B
100
AcDbSymbolTableRecord
100
AcDbBlockTableRecord
2
*MODEL_SPACE
0
BLOCK_RECORD
5
1C
100
AcDbSymbolTableRecord
100
AcDbBlockTableRecord
2
*PAPER_SPACE
0
BLOCK_RECORD
5
20B
100
AcDbSymbolTableRecord
100
AcDbBlockTableRecord
2
_FILLED
0
BLOCK_RECORD
5
20C
100
AcDbSymbolTableRecord
100
AcDbBlockTableRecord
2
*D0
0
BLOCK_RECORD
5
20D
100
AcDbSymbolTableRecord
100
AcDbBlockTableRecord
2
*D1
0
BLOCK_RECORD
5
20E
100
AcDbSymbolTableRecord
100
AcDbBlockTableRecord
2
COPYRIGHT_YEAR_BL0
0
BLOCK_RECORD
5
20F
100
AcDbSymbolTableRecord
100
AcDbBlockTableRecord
2
CUT-OUT_TEMPLATE_SKU_SIN_BL1
0
BLOCK_RECORD
5
210
100
AcDbSymbolTableRecord
100
AcDbBlockTableRecord
2
PACKAGING_UPC_BL2
0
BLOCK_RECORD
5
211
100
AcDbSymbolTableRecord
100
AcDbBlockTableRecord
2
TEMPLATE_NUMBER_BL3
0
BLOCK_RECORD
5
212
100
AcDbSymbolTableRecord
100
AcDbBlockTableRecord
2
TEMPLATE_NUMBER_BL4
0
BLOCK_RECORD
5
213
100
AcDbSymbolTableRecord
100
AcDbBlockTableRecord
2
WHEN_PLOTTING_TEMPLATE_N_BL5
0
ENDTAB
0
ENDSEC
0
SECTION
2
BLOCKS
0
BLOCK
5
1E
100
AcDbEntity
8
0
100
AcDbBlockBegin
2
*MODEL_SPACE
70
0
10
0.0
20
0.0
30
0.0
3
*MODEL_SPACE
1

0
ENDBLK
5
1F
100
AcDbEntity
8
0
100
AcDbBlockEnd
0
BLOCK
5
20
100
AcDbEntity
8
0
100
AcDbBlockBegin
2
*PAPER_SPACE
70
0
10
0.0
20
0.0
30
0.0
3
*PAPER_SPACE
1

0
ENDBLK
5
21
100
AcDbEntity
8
0
100
AcDbBlockEnd
0
BLOCK
5
214
100
AcDbEntity
8
0
100
AcDbBlockBegin
62
2
6
CONTINUOUS
2
*D0
70
65
10
0.0000000000
20
0.0000000000
3
*D0
1

0
TEXT
5
215
100
AcDbEntity
8
0
100
AcDbText
62
2
6
CONTINUOUS
10
18.0021214362
20
14.7456347750
7
STANDARD
40
0.1562500000
1
"
41
0.8000000000
72
0
100
AcDbText
0
TEXT
5
216
100
AcDbEntity
8
0
100
AcDbText
62
2
6
CONTINUOUS
10
17.2521214362
20
14.5112597750
7
STANDARD
40
0.1562500000
1
[50,5 cm]
41
0.8000000000
72
0
100
AcDbText
0
TEXT
5
217
100
AcDbEntity
8
0
100
AcDbText
62
2
6
CONTINUOUS
10
17.2521214362
20
14.7456347750
7
STANDARD
40
0.1562500000
1
19-7/8
41
0.8000000000
72
0
100
AcDbText
0
LINE
5
218
100
AcDbEntity
8
0
100
AcDbLine
62
2
6
CONTINUOUS
10
6.9617468878
20
14.0212143382
11
6.9617468878
21
14.9487597750
0
LINE
5
219
100
AcDbEntity
8
0
100
AcDbLine
62
2
6
CONTINUOUS
10
26.8367468878
20
14.1740229449
11
26.8367468878
21
14.9487597750
0
LINE
5
21A
100
AcDbEntity
8
0
100
AcDbLine
62
2
6
CONTINUOUS
10
6.9617468878
20
14.8237597750
11
17.1739964362
21
14.8237597750
0
LINE
5
21B
100
AcDbEntity
8
0
100
AcDbLine
62
2
6
CONTINUOUS
10
26.8367468878
20
14.8237597750
11
18.4552464362
21
14.8237597750
0
INSERT
5
21C
100
AcDbEntity
8
0
100
AcDbBlockReference
62
2
6
CONTINUOUS
2
_FILLED
10
6.9617468878
20
14.8237597750
41
  0.187500
42
  0.187500
43
  0.187500
50
180.000000
0
INSERT
5
21D
100
AcDbEntity
8
0
100
AcDbBlockReference
62
2
6
CONTINUOUS
2
_FILLED
10
26.8367468878
20
14.8237597750
41
  0.187500
42
  0.187500
43
  0.187500
0
ENDBLK
5
21E
100
AcDbEntity
8
0
6
BYBLOCK
62
0
100
AcDbBlockEnd
0
BLOCK
5
21F
100
AcDbEntity
8
0
100
AcDbBlockBegin
62
2
6
CONTINUOUS
2
*D1
70
65
10
0.0000000000
20
0.0000000000
3
*D1
1

0
TEXT
5
220
100
AcDbEntity
8
0
100
AcDbText
62
2
6
CONTINUOUS
10
19.4612662568
20
12.7652226412
7
STANDARD
40
0.1562500000
1
"
41
0.8000000000
72
0
100
AcDbText
0
TEXT
5
221
100
AcDbEntity
8
0
100
AcDbText
62
2
6
CONTINUOUS
10
18.8362662568
20
12.5308476412
7
STANDARD
40
0.1562500000
1
[15,6 cm]
41
0.8000000000
72
0
100
AcDbText
0
TEXT
5
222
100
AcDbEntity
8
0
100
AcDbText
62
2
6
CONTINUOUS
10
18.8362662568
20
12.7652226412
7
STANDARD
40
0.1562500000
1
6-1/8
41
0.8000000000
72
0
100
AcDbText
0
LINE
5
223
100
AcDbEntity
8
0
100
AcDbLine
62
2
6
CONTINUOUS
10
19.3362662568
20
15.2515703909
11
17.3565418668
21
15.2515703909
0
LINE
5
224
100
AcDbEntity
8
0
100
AcDbLine
62
2
6
CONTINUOUS
10
19.3362662568
20
9.1265703909
11
17.5453304207
21
9.1265703909
0
LINE
5
225
100
AcDbEntity
8
0
100
AcDbLine
62
2
6
CONTINUOUS
10
19.2112662568
20
15.2515703909
11
19.2112662568
21
12.9995976412
0
LINE
5
226
100
AcDbEntity
8
0
100
AcDbLine
62
2
6
CONTINUOUS
10
19.2112662568
20
9.1265703909
11
19.2112662568
21
12.4527226412
0
INSERT
5
227
100
AcDbEntity
8
0
100
AcDbBlockReference
62
2
6
CONTINUOUS
2
_FILLED
10
19.2112662568
20
15.2515703909
41
  0.187500
42
  0.187500
43
  0.187500
50
 90.000000
0
INSERT
5
228
100
AcDbEntity
8
0
100
AcDbBlockReference
62
2
6
CONTINUOUS
2
_FILLED
10
19.2112662568
20
9.1265703909
41
  0.187500
42
  0.187500
43
  0.187500
50
270.000000
0
ENDBLK
5
229
100
AcDbEntity
8
0
6
BYBLOCK
62
0
100
AcDbBlockEnd
0
BLOCK
5
22A
100
AcDbEntity
8
___SYMBOL
100
AcDbBlockBegin
62
2
6
CONTINUOUS
2
COPYRIGHT_YEAR_BL0
70
64
10
26.1384951642
20
9.3716651150
3
COPYRIGHT_YEAR_BL0
1

0
TEXT
5
22B
100
AcDbEntity
8
___SYMBOL
100
AcDbText
62
2
6
CONTINUOUS
10
25.7648048607
20
9.3363916150
7
STANDARD
40
0.0704997506
1
2004
41
0.8000000000
72
0
100
AcDbText
0
TEXT
5
22C
100
AcDbEntity
8
___SYMBOL
100
AcDbText
62
2
6
CONTINUOUS
10
25.9904040626
20
9.3363916150
7
STANDARD
40
0.0704997506
1
 KOHLER CO.
41
0.8000000000
72
0
100
AcDbText
0
TEXT
5
22D
100
AcDbEntity
8
___SYMBOL
100
AcDbText
62
7
6
CONTINUOUS
10
25.6847793948
20
9.3528765569
7
STANDARD
40
0.0421873503
1
C
41
1.0000000000
72
0
100
AcDbText
0
CIRCLE
5
22E
100
AcDbEntity
8
___SYMBOL
100
AcDbCircle
62
7
6
CONTINUOUS
10
25.6990143443
20
9.3741127315
40
0.0328258835
0
ENDBLK
5
22F
100
AcDbEntity
8
0
6
BYBLOCK
62
0
100
AcDbBlockEnd
0
BLOCK
5
230
100
AcDbEntity
8
___SYMBOL
100
AcDbBlockBegin
62
2
6
CONTINUOUS
2
CUT-OUT_TEMPLATE_SKU_SIN_BL1
70
64
10
9.5608500991
20
12.3874378649
3
CUT-OUT_TEMPLATE_SKU_SIN_BL1
1

0
TEXT
5
231
100
AcDbEntity
8
___SYMBOL
100
AcDbText
62
2
6
CONTINUOUS
10
7.1608500138
20
13.6019879941
7
STANDARD
40
0.2500000089
1
CUT-OUT TEMPLATE
41
0.8000000000
72
0
100
AcDbText
0
TEXT
5
232
100
AcDbEntity
8
___SYMBOL
100
AcDbText
62
2
6
CONTINUOUS
10
7.1608500138
20
13.2269879807
7
STANDARD
40
0.2500000089
1
UNDERCOUNTER SINK
41
0.8000000000
72
0
100
AcDbText
0
TEXT
5
233
100
AcDbEntity
8
___SYMBOL
100
AcDbText
62
2
6
CONTINUOUS
10
7.1608500138
20
12.8519879674
7
STANDARD
40
0.2500000089
1
PLANTILLA DE RECORTE
41
0.8000000000
72
0
100
AcDbText
0
TEXT
5
234
100
AcDbEntity
8
___SYMBOL
100
AcDbText
62
2
6
CONTINUOUS
10
7.1608500138
20
12.4769879541
7
STANDARD
40
0.2500000089
1
FREGADERO MONTADO DEBAJO
41
0.8000000000
72
0
100
AcDbText
0
TEXT
5
235
100
AcDbEntity
8
___SYMBOL
100
AcDbText
62
2
6
CONTINUOUS
10
7.1608500138
20
12.1019879408
7
STANDARD
40
0.2500000089
1
  DEL MOSTRADOR
41
0.8000000000
72
0
100
AcDbText
0
TEXT
5
236
100
AcDbEntity
8
___SYMBOL
100
AcDbText
62
2
6
CONTINUOUS
10
7.1608500138
20
11.7269879274
7
STANDARD
40
0.2500000089
1
PLAN DE DÉCOUPE
41
0.8000000000
72
0
100
AcDbText
0
TEXT
5
237
100
AcDbEntity
8
___SYMBOL
100
AcDbText
62
2
6
CONTINUOUS
10
7.1608500138
20
11.3519879141
7
STANDARD
40
0.2500000089
1
ÉVIER SOUS-COMPTOIR
41
0.8000000000
72
0
100
AcDbText
0
TEXT
5
238
100
AcDbEntity
8
___SYMBOL
100
AcDbText
62
2
6
CONTINUOUS
10
7.1608500138
20
10.9769879008
7
STANDARD
40
0.2500000089
1
UNDERTONE
41
0.8000000000
72
0
100
AcDbText
0
TEXT
5
239
100
AcDbEntity
8
___SYMBOL
100
AcDbText
62
2
6
CONTINUOUS
10
8.9608500777
20
10.9769879008
7
STANDARD
40
0.2500000089
1
   
41
0.8000000000
72
0
100
AcDbText
0
TEXT
5
23A
100
AcDbEntity
8
___SYMBOL
100
AcDbText
62
2
6
CONTINUOUS
10
9.5608500991
20
10.9769879008
7
STANDARD
40
0.2500000089
1
3179
41
0.8000000000
72
0
100
AcDbText
0
TEXT
5
23B
100
AcDbEntity
8
___SYMBOL
100
AcDbText
62
2
6
CONTINUOUS
10
10.3608501275
20
10.9769879008
7
STANDARD
40
0.2500000089
1
-**-
41
0.8000000000
72
0
100
AcDbText
0
TEXT
5
23C
100
AcDbEntity
8
___SYMBOL
100
AcDbText
62
2
6
CONTINUOUS
10
11.1608501560
20
10.9769879008
7
STANDARD
40
0.2500000089
1
AA
41
0.8000000000
72
0
100
AcDbText
0
LINE
5
23D
100
AcDbEntity
8
___SYMBOL
100
AcDbLine
62
2
6
CONTINUOUS
10
7.6874218087
20
14.6539012693
11
7.4741183492
21
14.4002529873
0
LINE
5
23E
100
AcDbEntity
8
___SYMBOL
100
AcDbLine
62
2
6
CONTINUOUS
10
7.4953599898
20
14.6539012693
11
7.6874218087
21
14.6539012693
0
LINE
5
23F
100
AcDbEntity
8
___SYMBOL
100
AcDbLine
62
2
6
CONTINUOUS
10
7.4953599898
20
14.6539012693
11
7.3575958182
21
14.4900800738
0
LINE
5
240
100
AcDbEntity
8
___SYMBOL
100
AcDbLine
62
2
6
CONTINUOUS
10
7.3575958182
20
14.6539012693
11
7.3575958182
21
14.4900800738
0
LINE
5
241
100
AcDbEntity
8
___SYMBOL
100
AcDbLine
62
2
6
CONTINUOUS
10
7.1830955850
20
14.6539012693
11
7.3575958182
21
14.6539012693
0
LINE
5
242
100
AcDbEntity
8
___SYMBOL
100
AcDbLine
62
2
6
CONTINUOUS
10
7.1830955850
20
14.6539012693
11
7.1830955850
21
14.0679635956
0
LINE
5
243
100
AcDbEntity
8
___SYMBOL
100
AcDbLine
62
2
6
CONTINUOUS
10
7.3575958182
20
14.0679875991
11
7.1830955850
21
14.0679635956
0
LINE
5
244
100
AcDbEntity
8
___SYMBOL
100
AcDbLine
62
2
6
CONTINUOUS
10
7.3575958182
20
14.2694874403
11
7.3575958182
21
14.0679875991
0
LINE
5
245
100
AcDbEntity
8
___SYMBOL
100
AcDbLine
62
2
6
CONTINUOUS
10
7.5113337637
20
14.0679875991
11
7.3575958182
21
14.2694874403
0
LINE
5
246
100
AcDbEntity
8
___SYMBOL
100
AcDbLine
62
2
6
CONTINUOUS
10
7.5113337637
20
14.0679875991
11
7.7276261929
21
14.0679875991
0
LINE
5
247
100
AcDbEntity
8
___SYMBOL
100
AcDbLine
62
2
6
CONTINUOUS
10
7.7276261929
20
14.0679875991
11
7.4741183492
21
14.4002529873
0
SOLID
5
248
100
AcDbEntity
8
___SYMBOL
100
AcDbTrace
62
2
6
CONTINUOUS
10
7.3575958182
20
14.4900800738
11
7.4953599898
21
14.6539012693
12
7.6874218087
22
14.6539012693
13
7.6874218087
23
14.6539012693
0
SOLID
5
249
100
AcDbEntity
8
___SYMBOL
100
AcDbTrace
62
2
6
CONTINUOUS
10
7.6874218087
20
14.6539012693
11
7.4741183492
21
14.4002529873
12
7.3575958182
22
14.4900800738
13
7.3575958182
23
14.4900800738
0
SOLID
5
24A
100
AcDbEntity
8
___SYMBOL
100
AcDbTrace
62
2
6
CONTINUOUS
10
7.3575958182
20
14.2694874403
11
7.4741183492
21
14.4002529873
12
7.5113337637
22
14.0679875991
13
7.5113337637
23
14.0679875991
0
SOLID
5
24B
100
AcDbEntity
8
___SYMBOL
100
AcDbTrace
62
2
6
CONTINUOUS
10
7.4741183492
20
14.4002529873
11
7.7276261929
21
14.0679875991
12
7.5113337637
22
14.0679875991
13
7.5113337637
23
14.0679875991
0
SOLID
5
24C
100
AcDbEntity
8
___SYMBOL
100
AcDbTrace
62
2
6
CONTINUOUS
10
7.3575958182
20
14.0679875991
11
7.1830955850
21
14.0679635956
12
7.3575958182
22
14.2694874403
13
7.3575958182
23
14.2694874403
0
SOLID
5
24D
100
AcDbEntity
8
___SYMBOL
100
AcDbTrace
62
2
6
CONTINUOUS
10
7.4741183492
20
14.4002529873
11
7.3575958182
21
14.2694874403
12
7.3575958182
22
14.4900800738
13
7.3575958182
23
14.4900800738
0
SOLID
5
24E
100
AcDbEntity
8
___SYMBOL
100
AcDbTrace
62
2
6
CONTINUOUS
10
7.3575958182
20
14.2694874403
11
7.1830955850
21
14.0679635956
12
7.3575958182
22
14.4900800738
13
7.3575958182
23
14.4900800738
0
SOLID
5
24F
100
AcDbEntity
8
___SYMBOL
100
AcDbTrace
62
2
6
CONTINUOUS
10
7.3575958182
20
14.4900800738
11
7.1830955850
21
14.0679635956
12
7.3575958182
22
14.6539012693
13
7.3575958182
23
14.6539012693
0
SOLID
5
250
100
AcDbEntity
8
___SYMBOL
100
AcDbTrace
62
2
6
CONTINUOUS
10
7.1830955850
20
14.0679635956
11
7.1830955850
21
14.6539012693
12
7.3575958182
22
14.6539012693
13
7.3575958182
23
14.6539012693
0
CIRCLE
5
251
100
AcDbEntity
8
___SYMBOL
100
AcDbCircle
62
2
6
CONTINUOUS
10
7.9041350358
20
14.3598231823
40
0.2980566016
0
CIRCLE
5
252
100
AcDbEntity
8
___SYMBOL
100
AcDbCircle
62
2
6
CONTINUOUS
10
7.9041350358
20
14.3598231823
40
0.1247694195
0
SOLID
5
253
100
AcDbEntity
8
___SYMBOL
100
AcDbTrace
62
2
6
CONTINUOUS
10
7.8120304807
20
14.6432918555
11
7.8729796373
21
14.6562469986
12
7.9352904344
22
14.6562469986
13
7.9352904344
23
14.6562469986
0
SOLID
5
254
100
AcDbEntity
8
___SYMBOL
100
AcDbTrace
62
2
6
CONTINUOUS
10
7.9352904344
20
14.6562469986
11
7.9962395910
21
14.6432918555
12
7.8120304807
22
14.6432918555
13
7.8120304807
23
14.6432918555
0
SOLID
5
255
100
AcDbEntity
8
___SYMBOL
100
AcDbTrace
62
2
6
CONTINUOUS
10
7.7551067351
20
14.6179477710
11
7.8120304807
21
14.6432918555
12
7.9962395910
22
14.6432918555
13
7.9962395910
23
14.6432918555
0
SOLID
5
256
100
AcDbEntity
8
___SYMBOL
100
AcDbTrace
62
2
6
CONTINUOUS
10
7.9962395910
20
14.6432918555
11
8.0531633366
21
14.6179477710
12
7.7551067351
22
14.6179477710
13
7.7551067351
23
14.6179477710
0
SOLID
5
257
100
AcDbEntity
8
___SYMBOL
100
AcDbTrace
62
2
6
CONTINUOUS
10
7.7046962413
20
14.5813224035
11
7.7551067351
21
14.6179477710
12
8.0531633366
22
14.6179477710
13
8.0531633366
23
14.6179477710
0
SOLID
5
258
100
AcDbEntity
8
___SYMBOL
100
AcDbTrace
62
2
6
CONTINUOUS
10
8.0531633366
20
14.6179477710
11
8.1035738304
21
14.5813224035
12
7.7046962413
22
14.5813224035
13
7.7046962413
23
14.5813224035
0
SOLID
5
259
100
AcDbEntity
8
___SYMBOL
100
AcDbTrace
62
2
6
CONTINUOUS
10
7.6630021799
20
14.5350164571
11
7.7046962413
21
14.5813224035
12
8.1035738304
22
14.5813224035
13
8.1035738304
23
14.5813224035
0
SOLID
5
25A
100
AcDbEntity
8
___SYMBOL
100
AcDbTrace
62
2
6
CONTINUOUS
10
8.1035738304
20
14.5813224035
11
8.1452678918
21
14.5350164571
12
7.6630021799
22
14.5350164571
13
7.6630021799
23
14.5350164571
0
SOLID
5
25B
100
AcDbEntity
8
___SYMBOL
100
AcDbTrace
62
2
6
CONTINUOUS
10
7.9041350358
20
14.4845926018
11
7.6318467813
21
14.4810537239
12
8.1452678918
22
14.5350164571
13
8.1452678918
23
14.5350164571
0
SOLID
5
25C
100
AcDbEntity
8
___SYMBOL
100
AcDbTrace
62
2
6
CONTINUOUS
10
7.6318467813
20
14.4810537239
11
7.6630021799
21
14.5350164571
12
8.1452678918
22
14.5350164571
13
8.1452678918
23
14.5350164571
0
SOLID
5
25D
100
AcDbEntity
8
___SYMBOL
100
AcDbTrace
62
2
6
CONTINUOUS
10
8.1452678918
20
14.5350164571
11
8.1764232903
21
14.4810537239
12
7.9041350358
22
14.4845926018
13
7.9041350358
23
14.4845926018
0
SOLID
5
25E
100
AcDbEntity
8
___SYMBOL
100
AcDbTrace
62
2
6
CONTINUOUS
10
7.9041350358
20
14.4845926018
11
7.8655791648
21
14.4784859518
12
7.6318467813
22
14.4810537239
13
7.6318467813
23
14.4810537239
0
SOLID
5
25F
100
AcDbEntity
8
___SYMBOL
100
AcDbTrace
62
2
6
CONTINUOUS
10
7.9426909069
20
14.4784859518
11
7.9041350358
21
14.4845926018
12
8.1764232903
22
14.4810537239
13
8.1764232903
23
14.4810537239
0
SOLID
5
260
100
AcDbEntity
8
___SYMBOL
100
AcDbTrace
62
2
6
CONTINUOUS
10
7.8031944551
20
14.4331608070
11
7.6125916861
21
14.4217926343
12
7.8307974111
22
14.4607637631
13
7.8307974111
23
14.4607637631
0
SOLID
5
261
100
AcDbEntity
8
___SYMBOL
100
AcDbTrace
62
2
6
CONTINUOUS
10
7.8307974111
20
14.4607637631
11
7.6125916861
21
14.4217926343
12
7.8655791648
22
14.4784859518
13
7.8655791648
23
14.4784859518
0
SOLID
5
262
100
AcDbEntity
8
___SYMBOL
100
AcDbTrace
62
2
6
CONTINUOUS
10
7.6125916861
20
14.4217926343
11
7.6318467813
21
14.4810537239
12
7.8655791648
22
14.4784859518
13
7.8655791648
23
14.4784859518
0
SOLID
5
263
100
AcDbEntity
8
___SYMBOL
100
AcDbTrace
62
2
6
CONTINUOUS
10
7.9426909069
20
14.4784859518
11
8.1764232903
21
14.4810537239
12
7.9774726606
22
14.4607637631
13
7.9774726606
23
14.4607637631
0
SOLID
5
264
100
AcDbEntity
8
___SYMBOL
100
AcDbTrace
62
2
6
CONTINUOUS
10
7.9774726606
20
14.4607637631
11
8.1764232903
21
14.4810537239
12
8.0050756166
22
14.4331608070
13
8.0050756166
23
14.4331608070
0
SOLID
5
265
100
AcDbEntity
8
___SYMBOL
100
AcDbTrace
62
2
6
CONTINUOUS
10
8.1764232903
20
14.4810537239
11
8.1956783856
21
14.4217926343
12
8.0050756166
22
14.4331608070
13
8.0050756166
23
14.4331608070
0
SOLID
5
266
100
AcDbEntity
8
___SYMBOL
100
AcDbTrace
62
2
6
CONTINUOUS
10
7.8031944551
20
14.4331608070
11
7.7854722664
21
14.3983790533
12
7.6125916861
22
14.4217926343
13
7.6125916861
23
14.4217926343
0
SOLID
5
267
100
AcDbEntity
8
___SYMBOL
100
AcDbTrace
62
2
6
CONTINUOUS
10
8.0227978053
20
14.3983790533
11
8.0050756166
21
14.4331608070
12
8.1956783856
22
14.4217926343
13
8.1956783856
23
14.4217926343
0
SOLID
5
268
100
AcDbEntity
8
___SYMBOL
100
AcDbTrace
62
2
6
CONTINUOUS
10
7.6060784343
20
14.3598231823
11
7.6125916861
21
14.4217926343
12
7.7854722664
22
14.3983790533
13
7.7854722664
23
14.3983790533
0
SOLID
5
269
100
AcDbEntity
8
___SYMBOL
100
AcDbTrace
62
2
6
CONTINUOUS
10
7.7854722664
20
14.3983790533
11
7.7793656163
21
14.3598231823
12
7.6060784343
22
14.3598231823
13
7.6060784343
23
14.3598231823
0
SOLID
5
26A
100
AcDbEntity
8
___SYMBOL
100
AcDbTrace
62
2
6
CONTINUOUS
10
8.0227978053
20
14.3983790533
11
8.1956783856
21
14.4217926343
12
8.0289044554
22
14.3598231823
13
8.0289044554
23
14.3598231823
0
SOLID
5
26B
100
AcDbEntity
8
___SYMBOL
100
AcDbTrace
62
2
6
CONTINUOUS
10
8.1956783856
20
14.4217926343
11
8.2021916374
21
14.3598231823
12
8.0289044554
22
14.3598231823
13
8.0289044554
23
14.3598231823
0
SOLID
5
26C
100
AcDbEntity
8
___SYMBOL
100
AcDbTrace
62
2
6
CONTINUOUS
10
8.0227978053
20
14.3212673113
11
8.0289044554
21
14.3598231823
12
8.2021916374
22
14.3598231823
13
8.2021916374
23
14.3598231823
0
SOLID
5
26D
100
AcDbEntity
8
___SYMBOL
100
AcDbTrace
62
2
6
CONTINUOUS
10
7.7854722664
20
14.3212673113
11
7.6125916861
21
14.2978537303
12
7.7793656163
22
14.3598231823
13
7.7793656163
23
14.3598231823
0
SOLID
5
26E
100
AcDbEntity
8
___SYMBOL
100
AcDbTrace
62
2
6
CONTINUOUS
10
7.6125916861
20
14.2978537303
11
7.6060784343
21
14.3598231823
12
7.7793656163
22
14.3598231823
13
7.7793656163
23
14.3598231823
0
SOLID
5
26F
100
AcDbEntity
8
___SYMBOL
100
AcDbTrace
62
2
6
CONTINUOUS
10
8.2021916374
20
14.3598231823
11
8.1956783856
21
14.2978537303
12
8.0227978053
22
14.3212673113
13
8.0227978053
23
14.3212673113
0
SOLID
5
270
100
AcDbEntity
8
___SYMBOL
100
AcDbTrace
62
2
6
CONTINUOUS
10
7.7854722664
20
14.3212673113
11
7.8031944551
21
14.2864855576
12
7.6125916861
22
14.2978537303
13
7.6125916861
23
14.2978537303
0
SOLID
5
271
100
AcDbEntity
8
___SYMBOL
100
AcDbTrace
62
2
6
CONTINUOUS
10
8.0050756166
20
14.2864855576
11
8.0227978053
21
14.3212673113
12
8.1956783856
22
14.2978537303
13
8.1956783856
23
14.2978537303
0
SOLID
5
272
100
AcDbEntity
8
___SYMBOL
100
AcDbTrace
62
2
6
CONTINUOUS
10
7.8655791648
20
14.2411604128
11
7.6318467813
21
14.2385926407
12
7.8307974111
22
14.2588826015
13
7.8307974111
23
14.2588826015
0
SOLID
5
273
100
AcDbEntity
8
___SYMBOL
100
AcDbTrace
62
2
6
CONTINUOUS
10
7.8307974111
20
14.2588826015
11
7.6318467813
21
14.2385926407
12
7.8031944551
22
14.2864855576
13
7.8031944551
23
14.2864855576
0
SOLID
5
274
100
AcDbEntity
8
___SYMBOL
100
AcDbTrace
62
2
6
CONTINUOUS
10
7.6318467813
20
14.2385926407
11
7.6125916861
21
14.2978537303
12
7.8031944551
22
14.2864855576
13
7.8031944551
23
14.2864855576
0
SOLID
5
275
100
AcDbEntity
8
___SYMBOL
100
AcDbTrace
62
2
6
CONTINUOUS
10
8.0050756166
20
14.2864855576
11
8.1956783856
21
14.2978537303
12
7.9774726606
22
14.2588826015
13
7.9774726606
23
14.2588826015
0
SOLID
5
276
100
AcDbEntity
8
___SYMBOL
100
AcDbTrace
62
2
6
CONTINUOUS
10
7.9774726606
20
14.2588826015
11
8.1956783856
21
14.2978537303
12
7.9426909069
22
14.2411604128
13
7.9426909069
23
14.2411604128
0
SOLID
5
277
100
AcDbEntity
8
___SYMBOL
100
AcDbTrace
62
2
6
CONTINUOUS
10
8.1956783856
20
14.2978537303
11
8.1764232903
21
14.2385926407
12
7.9426909069
22
14.2411604128
13
7.9426909069
23
14.2411604128
0
SOLID
5
278
100
AcDbEntity
8
___SYMBOL
100
AcDbTrace
62
2
6
CONTINUOUS
10
7.8655791648
20
14.2411604128
11
7.9041350358
21
14.2350537628
12
7.6318467813
22
14.2385926407
13
7.6318467813
23
14.2385926407
0
SOLID
5
279
100
AcDbEntity
8
___SYMBOL
100
AcDbTrace
62
2
6
CONTINUOUS
10
7.9041350358
20
14.2350537628
11
7.9426909069
21
14.2411604128
12
8.1764232903
22
14.2385926407
13
8.1764232903
23
14.2385926407
0
SOLID
5
27A
100
AcDbEntity
8
___SYMBOL
100
AcDbTrace
62
2
6
CONTINUOUS
10
7.6630021799
20
14.1846299075
11
7.6318467813
21
14.2385926407
12
7.9041350358
22
14.2350537628
13
7.9041350358
23
14.2350537628
0
SOLID
5
27B
100
AcDbEntity
8
___SYMBOL
100
AcDbTrace
62
2
6
CONTINUOUS
10
7.9041350358
20
14.2350537628
11
8.1764232903
21
14.2385926407
12
7.6630021799
22
14.1846299075
13
7.6630021799
23
14.1846299075
0
SOLID
5
27C
100
AcDbEntity
8
___SYMBOL
100
AcDbTrace
62
2
6
CONTINUOUS
10
8.1764232903
20
14.2385926407
11
8.1452678918
21
14.1846299075
12
7.6630021799
22
14.1846299075
13
7.6630021799
23
14.1846299075
0
SOLID
5
27D
100
AcDbEntity
8
___SYMBOL
100
AcDbTrace
62
2
6
CONTINUOUS
10
7.7046962413
20
14.1383239611
11
7.6630021799
21
14.1846299075
12
8.1452678918
22
14.1846299075
13
8.1452678918
23
14.1846299075
0
SOLID
5
27E
100
AcDbEntity
8
___SYMBOL
100
AcDbTrace
62
2
6
CONTINUOUS
10
8.1452678918
20
14.1846299075
11
8.1035738304
21
14.1383239611
12
7.7046962413
22
14.1383239611
13
7.7046962413
23
14.1383239611
0
SOLID
5
27F
100
AcDbEntity
8
___SYMBOL
100
AcDbTrace
62
2
6
CONTINUOUS
10
7.7551067351
20
14.1016985936
11
7.7046962413
21
14.1383239611
12
8.1035738304
22
14.1383239611
13
8.1035738304
23
14.1383239611
0
SOLID
5
280
100
AcDbEntity
8
___SYMBOL
100
AcDbTrace
62
2
6
CONTINUOUS
10
8.1035738304
20
14.1383239611
11
8.0531633366
21
14.1016985936
12
7.7551067351
22
14.1016985936
13
7.7551067351
23
14.1016985936
0
SOLID
5
281
100
AcDbEntity
8
___SYMBOL
100
AcDbTrace
62
2
6
CONTINUOUS
10
7.8120304807
20
14.0763545091
11
7.7551067351
21
14.1016985936
12
8.0531633366
22
14.1016985936
13
8.0531633366
23
14.1016985936
0
SOLID
5
282
100
AcDbEntity
8
___SYMBOL
100
AcDbTrace
62
2
6
CONTINUOUS
10
8.0531633366
20
14.1016985936
11
7.9962395910
21
14.0763545091
12
7.8120304807
22
14.0763545091
13
7.8120304807
23
14.0763545091
0
SOLID
5
283
100
AcDbEntity
8
___SYMBOL
100
AcDbTrace
62
2
6
CONTINUOUS
10
7.8729796373
20
14.0633993660
11
7.8120304807
21
14.0763545091
12
7.9962395910
22
14.0763545091
13
7.9962395910
23
14.0763545091
0
SOLID
5
284
100
AcDbEntity
8
___SYMBOL
100
AcDbTrace
62
2
6
CONTINUOUS
10
7.9962395910
20
14.0763545091
11
7.9352904344
21
14.0633993660
12
7.8729796373
22
14.0633993660
13
7.8729796373
23
14.0633993660
0
LINE
5
285
100
AcDbEntity
8
___SYMBOL
100
AcDbLine
62
2
6
CONTINUOUS
10
8.6967710732
20
14.6539012693
11
8.6967710732
21
14.0679875991
0
LINE
5
286
100
AcDbEntity
8
___SYMBOL
100
AcDbLine
62
2
6
CONTINUOUS
10
8.6967710732
20
14.0679875991
11
8.5320373875
21
14.0679875991
0
LINE
5
287
100
AcDbEntity
8
___SYMBOL
100
AcDbLine
62
2
6
CONTINUOUS
10
8.5320373875
20
14.2963122170
11
8.5320373875
21
14.0679875991
0
LINE
5
288
100
AcDbEntity
8
___SYMBOL
100
AcDbLine
62
2
6
CONTINUOUS
10
8.3840405712
20
14.2963122170
11
8.5320373875
21
14.2963122170
0
LINE
5
289
100
AcDbEntity
8
___SYMBOL
100
AcDbLine
62
2
6
CONTINUOUS
10
8.3840405712
20
14.2963122170
11
8.3840405712
21
14.0679875991
0
LINE
5
28A
100
AcDbEntity
8
___SYMBOL
100
AcDbLine
62
2
6
CONTINUOUS
10
8.3840405712
20
14.0679875991
11
8.2193068854
21
14.0679875991
0
LINE
5
28B
100
AcDbEntity
8
___SYMBOL
100
AcDbLine
62
2
6
CONTINUOUS
10
8.2193068854
20
14.6539012693
11
8.2193068854
21
14.0679875991
0
LINE
5
28C
100
AcDbEntity
8
___SYMBOL
100
AcDbLine
62
2
6
CONTINUOUS
10
8.2193068854
20
14.6539012693
11
8.3840405712
21
14.6539012693
0
LINE
5
28D
100
AcDbEntity
8
___SYMBOL
100
AcDbLine
62
2
6
CONTINUOUS
10
8.3840405712
20
14.6539012693
11
8.3840405712
21
14.4335175018
0
LINE
5
28E
100
AcDbEntity
8
___SYMBOL
100
AcDbLine
62
2
6
CONTINUOUS
10
8.3840405712
20
14.4335175018
11
8.5320373875
21
14.4335175018
0
LINE
5
28F
100
AcDbEntity
8
___SYMBOL
100
AcDbLine
62
2
6
CONTINUOUS
10
8.5320373875
20
14.6539012693
11
8.5320373875
21
14.4335175018
0
LINE
5
290
100
AcDbEntity
8
___SYMBOL
100
AcDbLine
62
2
6
CONTINUOUS
10
8.5320373875
20
14.6539012693
11
8.6967710732
21
14.6539012693
0
SOLID
5
291
100
AcDbEntity
8
___SYMBOL
100
AcDbTrace
62
2
6
CONTINUOUS
10
8.5320373875
20
14.4335175018
11
8.5320373875
21
14.6539012693
12
8.6967710732
22
14.6539012693
13
8.6967710732
23
14.6539012693
0
SOLID
5
292
100
AcDbEntity
8
___SYMBOL
100
AcDbTrace
62
2
6
CONTINUOUS
10
8.5320373875
20
14.4335175018
11
8.3840405712
21
14.2963122170
12
8.3840405712
22
14.4335175018
13
8.3840405712
23
14.4335175018
0
SOLID
5
293
100
AcDbEntity
8
___SYMBOL
100
AcDbTrace
62
2
6
CONTINUOUS
10
8.3840405712
20
14.2963122170
11
8.2193068854
21
14.0679875991
12
8.3840405712
22
14.4335175018
13
8.3840405712
23
14.4335175018
0
SOLID
5
294
100
AcDbEntity
8
___SYMBOL
100
AcDbTrace
62
2
6
CONTINUOUS
10
8.3840405712
20
14.4335175018
11
8.2193068854
21
14.0679875991
12
8.3840405712
22
14.6539012693
13
8.3840405712
23
14.6539012693
0
SOLID
5
295
100
AcDbEntity
8
___SYMBOL
100
AcDbTrace
62
2
6
CONTINUOUS
10
8.2193068854
20
14.0679875991
11
8.2193068854
21
14.6539012693
12
8.3840405712
22
14.6539012693
13
8.3840405712
23
14.6539012693
0
SOLID
5
296
100
AcDbEntity
8
___SYMBOL
100
AcDbTrace
62
2
6
CONTINUOUS
10
8.3840405712
20
14.2963122170
11
8.3840405712
21
14.0679875991
12
8.2193068854
22
14.0679875991
13
8.2193068854
23
14.0679875991
0
SOLID
5
297
100
AcDbEntity
8
___SYMBOL
100
AcDbTrace
62
2
6
CONTINUOUS
10
8.3840405712
20
14.2963122170
11
8.5320373875
21
14.4335175018
12
8.5320373875
22
14.2963122170
13
8.5320373875
23
14.2963122170
0
SOLID
5
298
100
AcDbEntity
8
___SYMBOL
100
AcDbTrace
62
2
6
CONTINUOUS
10
8.5320373875
20
14.4335175018
11
8.6967710732
21
14.6539012693
12
8.5320373875
22
14.2963122170
13
8.5320373875
23
14.2963122170
0
SOLID
5
299
100
AcDbEntity
8
___SYMBOL
100
AcDbTrace
62
2
6
CONTINUOUS
10
8.5320373875
20
14.2963122170
11
8.6967710732
21
14.6539012693
12
8.5320373875
22
14.0679875991
13
8.5320373875
23
14.0679875991
0
SOLID
5
29A
100
AcDbEntity
8
___SYMBOL
100
AcDbTrace
62
2
6
CONTINUOUS
10
8.6967710732
20
14.6539012693
11
8.6967710732
21
14.0679875991
12
8.5320373875
22
14.0679875991
13
8.5320373875
23
14.0679875991
0
LINE
5
29B
100
AcDbEntity
8
___SYMBOL
100
AcDbLine
62
2
6
CONTINUOUS
10
8.8918619871
20
14.0679875991
11
9.0545460628
21
14.0679875991
0
LINE
5
29C
100
AcDbEntity
8
___SYMBOL
100
AcDbLine
62
2
6
CONTINUOUS
10
8.8918619871
20
14.0679875991
11
8.7418159190
21
14.0679875991
0
LINE
5
29D
100
AcDbEntity
8
___SYMBOL
100
AcDbLine
62
2
6
CONTINUOUS
10
8.7418159190
20
14.0679875991
11
8.7418159190
21
14.6539012693
0
LINE
5
29E
100
AcDbEntity
8
___SYMBOL
100
AcDbLine
62
2
6
CONTINUOUS
10
8.7418159190
20
14.6539012693
11
8.8918619871
21
14.6539012693
0
LINE
5
29F
100
AcDbEntity
8
___SYMBOL
100
AcDbLine
62
2
6
CONTINUOUS
10
8.8918619871
20
14.6539012693
11
8.8918619871
21
14.2092143613
0
LINE
5
2A0
100
AcDbEntity
8
___SYMBOL
100
AcDbLine
62
2
6
CONTINUOUS
10
8.8918619871
20
14.2092143613
11
9.0545460628
21
14.2092143613
0
LINE
5
2A1
100
AcDbEntity
8
___SYMBOL
100
AcDbLine
62
2
6
CONTINUOUS
10
9.0545460628
20
14.2092143613
11
9.0545460628
21
14.0679875991
0
SOLID
5
2A2
100
AcDbEntity
8
___SYMBOL
100
AcDbTrace
62
2
6
CONTINUOUS
10
9.0545460628
20
14.2092143613
11
8.7418159190
21
14.0679875991
12
8.8918619871
22
14.2092143613
13
8.8918619871
23
14.2092143613
0
SOLID
5
2A3
100
AcDbEntity
8
___SYMBOL
100
AcDbTrace
62
2
6
CONTINUOUS
10
8.8918619871
20
14.2092143613
11
8.7418159190
21
14.0679875991
12
8.8918619871
22
14.6539012693
13
8.8918619871
23
14.6539012693
0
SOLID
5
2A4
100
AcDbEntity
8
___SYMBOL
100
AcDbTrace
62
2
6
CONTINUOUS
10
8.7418159190
20
14.0679875991
11
8.7418159190
21
14.6539012693
12
8.8918619871
22
14.6539012693
13
8.8918619871
23
14.6539012693
0
SOLID
5
2A5
100
AcDbEntity
8
___SYMBOL
100
AcDbTrace
62
2
6
CONTINUOUS
10
8.7418159190
20
14.0679875991
11
9.0545460628
21
14.2092143613
12
8.8918619871
22
14.0679875991
13
8.8918619871
23
14.0679875991
0
SOLID
5
2A6
100
AcDbEntity
8
___SYMBOL
100
AcDbTrace
62
2
6
CONTINUOUS
10
9.0545460628
20
14.2092143613
11
9.0545460628
21
14.0679875991
12
8.8918619871
22
14.0679875991
13
8.8918619871
23
14.0679875991
0
LINE
5
2A7
100
AcDbEntity
8
___SYMBOL
100
AcDbLine
62
2
6
CONTINUOUS
10
9.3927979889
20
14.2891358951
11
9.3927979889
21
14.4335175018
0
LINE
5
2A8
100
AcDbEntity
8
___SYMBOL
100
AcDbLine
62
2
6
CONTINUOUS
10
9.2419404601
20
14.4335175018
11
9.3927979889
21
14.4335175018
0
LINE
5
2A9
100
AcDbEntity
8
___SYMBOL
100
AcDbLine
62
2
6
CONTINUOUS
10
9.2419404601
20
14.5111418675
11
9.2419404601
21
14.4335175018
0
LINE
5
2AA
100
AcDbEntity
8
___SYMBOL
100
AcDbLine
62
2
6
CONTINUOUS
10
9.2419404601
20
14.5111418675
11
9.3927979889
21
14.5111418675
0
LINE
5
2AB
100
AcDbEntity
8
___SYMBOL
100
AcDbLine
62
2
6
CONTINUOUS
10
9.3927979889
20
14.5111418675
11
9.3927979889
21
14.6539012693
0
LINE
5
2AC
100
AcDbEntity
8
___SYMBOL
100
AcDbLine
62
2
6
CONTINUOUS
10
9.2561447840
20
14.6539012693
11
9.3927979889
21
14.6539012693
0
LINE
5
2AD
100
AcDbEntity
8
___SYMBOL
100
AcDbLine
62
2
6
CONTINUOUS
10
9.0836938026
20
14.6539012693
11
9.2561447840
21
14.6539012693
0
LINE
5
2AE
100
AcDbEntity
8
___SYMBOL
100
AcDbLine
62
2
6
CONTINUOUS
10
9.0836938026
20
14.0679875991
11
9.0836938026
21
14.6539012693
0
LINE
5
2AF
100
AcDbEntity
8
___SYMBOL
100
AcDbLine
62
2
6
CONTINUOUS
10
9.0836938026
20
14.0679875991
11
9.3927979889
21
14.0679875991
0
LINE
5
2B0
100
AcDbEntity
8
___SYMBOL
100
AcDbLine
62
2
6
CONTINUOUS
10
9.3927979889
20
14.0679875991
11
9.3927979889
21
14.2092143613
0
LINE
5
2B1
100
AcDbEntity
8
___SYMBOL
100
AcDbLine
62
2
6
CONTINUOUS
10
9.2419404601
20
14.2092143613
11
9.3927979889
21
14.2092143613
0
LINE
5
2B2
100
AcDbEntity
8
___SYMBOL
100
AcDbLine
62
2
6
CONTINUOUS
10
9.2419404601
20
14.2891358951
11
9.2419404601
21
14.2092143613
0
LINE
5
2B3
100
AcDbEntity
8
___SYMBOL
100
AcDbLine
62
2
6
CONTINUOUS
10
9.2419404601
20
14.2891358951
11
9.3927979889
21
14.2891358951
0
SOLID
5
2B4
100
AcDbEntity
8
___SYMBOL
100
AcDbTrace
62
2
6
CONTINUOUS
10
9.3927979889
20
14.6539012693
11
9.3927979889
21
14.5111418675
12
9.2419404601
22
14.5111418675
13
9.2419404601
23
14.5111418675
0
SOLID
5
2B5
100
AcDbEntity
8
___SYMBOL
100
AcDbTrace
62
2
6
CONTINUOUS
10
9.3927979889
20
14.4335175018
11
9.3927979889
21
14.2891358951
12
9.2419404601
22
14.2891358951
13
9.2419404601
23
14.2891358951
0
SOLID
5
2B6
100
AcDbEntity
8
___SYMBOL
100
AcDbTrace
62
2
6
CONTINUOUS
10
9.3927979889
20
14.2092143613
11
9.0836938026
21
14.0679875991
12
9.2419404601
22
14.2092143613
13
9.2419404601
23
14.2092143613
0
SOLID
5
2B7
100
AcDbEntity
8
___SYMBOL
100
AcDbTrace
62
2
6
CONTINUOUS
10
9.2419404601
20
14.2092143613
11
9.0836938026
21
14.0679875991
12
9.2419404601
22
14.2891358951
13
9.2419404601
23
14.2891358951
0
SOLID
5
2B8
100
AcDbEntity
8
___SYMBOL
100
AcDbTrace
62
2
6
CONTINUOUS
10
9.3927979889
20
14.4335175018
11
9.2419404601
21
14.2891358951
12
9.2419404601
22
14.4335175018
13
9.2419404601
23
14.4335175018
0
SOLID
5
2B9
100
AcDbEntity
8
___SYMBOL
100
AcDbTrace
62
2
6
CONTINUOUS
10
9.2419404601
20
14.2891358951
11
9.0836938026
21
14.0679875991
12
9.2419404601
22
14.4335175018
13
9.2419404601
23
14.4335175018
0
SOLID
5
2BA
100
AcDbEntity
8
___SYMBOL
100
AcDbTrace
62
2
6
CONTINUOUS
10
9.2419404601
20
14.4335175018
11
9.0836938026
21
14.0679875991
12
9.2419404601
22
14.5111418675
13
9.2419404601
23
14.5111418675
0
SOLID
5
2BB
100
AcDbEntity
8
___SYMBOL
100
AcDbTrace
62
2
6
CONTINUOUS
10
9.3927979889
20
14.6539012693
11
9.2419404601
21
14.5111418675
12
9.2561447840
22
14.6539012693
13
9.2561447840
23
14.6539012693
0
SOLID
5
2BC
100
AcDbEntity
8
___SYMBOL
100
AcDbTrace
62
2
6
CONTINUOUS
10
9.2419404601
20
14.5111418675
11
9.0836938026
21
14.0679875991
12
9.2561447840
22
14.6539012693
13
9.2561447840
23
14.6539012693
0
SOLID
5
2BD
100
AcDbEntity
8
___SYMBOL
100
AcDbTrace
62
2
6
CONTINUOUS
10
9.0836938026
20
14.0679875991
11
9.0836938026
21
14.6539012693
12
9.2561447840
22
14.6539012693
13
9.2561447840
23
14.6539012693
0
SOLID
5
2BE
100
AcDbEntity
8
___SYMBOL
100
AcDbTrace
62
2
6
CONTINUOUS
10
9.3927979889
20
14.2092143613
11
9.3927979889
21
14.0679875991
12
9.0836938026
22
14.0679875991
13
9.0836938026
23
14.0679875991
0
LINE
5
2BF
100
AcDbEntity
8
___SYMBOL
100
AcDbLine
62
2
6
CONTINUOUS
10
9.9030484130
20
14.0679875991
11
9.7436051644
21
14.3195701493
0
ARC
5
2C0
100
AcDbEntity
8
___SYMBOL
100
AcDbCircle
62
2
6
CONTINUOUS
10
9.6711659141
20
14.4788917524
40
0.1750166225
100
AcDbArc
50
294.4500166359
51
90.0000000000
0
LINE
5
2C1
100
AcDbEntity
8
___SYMBOL
100
AcDbLine
62
2
6
CONTINUOUS
10
9.4376182052
20
14.6539012693
11
9.6711659141
21
14.6539012693
0
LINE
5
2C2
100
AcDbEntity
8
___SYMBOL
100
AcDbLine
62
2
6
CONTINUOUS
10
9.4376182052
20
14.0679875991
11
9.4376182052
21
14.6539012693
0
LINE
5
2C3
100
AcDbEntity
8
___SYMBOL
100
AcDbLine
62
2
6
CONTINUOUS
10
9.4376182052
20
14.0679875991
11
9.5882740331
21
14.0679875991
0
LINE
5
2C4
100
AcDbEntity
8
___SYMBOL
100
AcDbLine
62
2
6
CONTINUOUS
10
9.5882740331
20
14.2649439769
11
9.5882740331
21
14.0679875991
0
LINE
5
2C5
100
AcDbEntity
8
___SYMBOL
100
AcDbLine
62
2
6
CONTINUOUS
10
9.7130974667
20
14.0679875991
11
9.5882740331
21
14.2649439769
0
LINE
5
2C6
100
AcDbEntity
8
___SYMBOL
100
AcDbLine
62
2
6
CONTINUOUS
10
9.7130974667
20
14.0679875991
11
9.9030484130
21
14.0679875991
0
LINE
5
2C7
100
AcDbEntity
8
___SYMBOL
100
AcDbLine
62
2
6
CONTINUOUS
10
9.5882740331
20
14.4042192926
11
9.6406137852
21
14.4042192926
0
ARC
5
2C8
100
AcDbEntity
8
___SYMBOL
100
AcDbCircle
62
2
6
CONTINUOUS
10
9.6442038146
20
14.4577106940
40
0.0536117369
100
AcDbArc
50
266.1604009902
51
89.9998910512
0
LINE
5
2C9
100
AcDbEntity
8
___SYMBOL
100
AcDbLine
62
2
6
CONTINUOUS
10
9.6442039165
20
14.5113224309
11
9.5882740331
21
14.5113224309
0
LINE
5
2CA
100
AcDbEntity
8
___SYMBOL
100
AcDbLine
62
2
6
CONTINUOUS
10
9.5882740331
20
14.5113224309
11
9.5882740331
21
14.4042192926
0
SOLID
5
2CB
100
AcDbEntity
8
___SYMBOL
100
AcDbTrace
62
2
6
CONTINUOUS
10
9.6711659141
20
14.6539083749
11
9.7180989393
21
14.6474981262
12
9.4376182052
22
14.6539012693
13
9.4376182052
23
14.6539012693
0
SOLID
5
2CC
100
AcDbEntity
8
___SYMBOL
100
AcDbTrace
62
2
6
CONTINUOUS
10
9.5882740331
20
14.5113224309
11
9.8422137832
21
14.5159517666
12
9.6442039165
22
14.5113224309
13
9.6442039165
23
14.5113224309
0
SOLID
5
2CD
100
AcDbEntity
8
___SYMBOL
100
AcDbTrace
62
2
6
CONTINUOUS
10
9.6442039165
20
14.5113224309
11
9.8422137832
21
14.5159517666
12
9.6679264990
22
14.5057882624
13
9.6679264990
23
14.5057882624
0
SOLID
5
2CE
100
AcDbEntity
8
___SYMBOL
100
AcDbTrace
62
2
6
CONTINUOUS
10
9.6679264990
20
14.5057882624
11
9.8422137832
21
14.5159517666
12
9.6867514873
22
14.4903283868
13
9.6867514873
23
14.4903283868
0
SOLID
5
2CF
100
AcDbEntity
8
___SYMBOL
100
AcDbTrace
62
2
6
CONTINUOUS
10
9.8422137832
20
14.5159517666
11
9.8458870298
21
14.4687256361
12
9.6867514873
22
14.4903283868
13
9.6867514873
23
14.4903283868
0
SOLID
5
2D0
100
AcDbEntity
8
___SYMBOL
100
AcDbTrace
62
2
6
CONTINUOUS
10
9.6967924262
20
14.4681345254
11
9.6867514873
21
14.4903283868
12
9.8458870298
22
14.4687256361
13
9.8458870298
23
14.4687256361
0
SOLID
5
2D1
100
AcDbEntity
8
___SYMBOL
100
AcDbTrace
62
2
6
CONTINUOUS
10
9.6967924262
20
14.4681345254
11
9.8458870298
21
14.4687256361
12
9.6959763445
22
14.4437886438
13
9.6959763445
23
14.4437886438
0
SOLID
5
2D2
100
AcDbEntity
8
___SYMBOL
100
AcDbTrace
62
2
6
CONTINUOUS
10
9.6959763445
20
14.4437886438
11
9.8458870298
21
14.4687256361
12
9.6844717238
22
14.4223169964
13
9.6844717238
23
14.4223169964
0
SOLID
5
2D3
100
AcDbEntity
8
___SYMBOL
100
AcDbTrace
62
2
6
CONTINUOUS
10
9.8458870298
20
14.4687256361
11
9.8367614258
21
14.4222442044
12
9.6844717238
22
14.4223169964
13
9.6844717238
23
14.4223169964
0
SOLID
5
2D4
100
AcDbEntity
8
___SYMBOL
100
AcDbTrace
62
2
6
CONTINUOUS
10
9.6646537153
20
14.4081524464
11
9.6844717238
21
14.4223169964
12
9.8367614258
22
14.4222442044
13
9.8367614258
23
14.4222442044
0
SOLID
5
2D5
100
AcDbEntity
8
___SYMBOL
100
AcDbTrace
62
2
6
CONTINUOUS
10
9.6646537153
20
14.4081524464
11
9.8367614258
21
14.4222442044
12
9.6406137852
22
14.4042192926
13
9.6406137852
23
14.4042192926
0
SOLID
5
2D6
100
AcDbEntity
8
___SYMBOL
100
AcDbTrace
62
2
6
CONTINUOUS
10
9.8367614258
20
14.4222442044
11
9.8155054493
21
14.3799123770
12
9.6406137852
22
14.4042192926
13
9.6406137852
23
14.4042192926
0
SOLID
5
2D7
100
AcDbEntity
8
___SYMBOL
100
AcDbTrace
62
2
6
CONTINUOUS
10
9.7436051644
20
14.3195701493
11
9.5882740331
21
14.2649439769
12
9.7836761651
22
14.3448310885
13
9.7836761651
23
14.3448310885
0
SOLID
5
2D8
100
AcDbEntity
8
___SYMBOL
100
AcDbTrace
62
2
6
CONTINUOUS
10
9.7836761651
20
14.3448310885
11
9.5882740331
21
14.2649439769
12
9.8155054493
22
14.3799123770
13
9.8155054493
23
14.3799123770
0
SOLID
5
2D9
100
AcDbEntity
8
___SYMBOL
100
AcDbTrace
62
2
6
CONTINUOUS
10
9.8155054493
20
14.3799123770
11
9.5882740331
21
14.2649439769
12
9.6406137852
22
14.4042192926
13
9.6406137852
23
14.4042192926
0
SOLID
5
2DA
100
AcDbEntity
8
___SYMBOL
100
AcDbTrace
62
2
6
CONTINUOUS
10
9.5882740331
20
14.2649439769
11
9.4376182052
21
14.0679875991
12
9.6406137852
22
14.4042192926
13
9.6406137852
23
14.4042192926
0
SOLID
5
2DB
100
AcDbEntity
8
___SYMBOL
100
AcDbTrace
62
2
6
CONTINUOUS
10
9.6406137852
20
14.4042192926
11
9.4376182052
21
14.0679875991
12
9.5882740331
22
14.4042192926
13
9.5882740331
23
14.4042192926
0
SOLID
5
2DC
100
AcDbEntity
8
___SYMBOL
100
AcDbTrace
62
2
6
CONTINUOUS
10
9.5882740331
20
14.4042192926
11
9.4376182052
21
14.0679875991
12
9.5882740331
22
14.5113224309
13
9.5882740331
23
14.5113224309
0
SOLID
5
2DD
100
AcDbEntity
8
___SYMBOL
100
AcDbTrace
62
2
6
CONTINUOUS
10
9.8422137832
20
14.5159517666
11
9.5882740331
21
14.5113224309
12
9.8260107625
22
14.5604631389
13
9.8260107625
23
14.5604631389
0
SOLID
5
2DE
100
AcDbEntity
8
___SYMBOL
100
AcDbTrace
62
2
6
CONTINUOUS
10
9.8260107625
20
14.5604631389
11
9.5882740331
21
14.5113224309
12
9.7984648880
22
14.5989991602
13
9.7984648880
23
14.5989991602
0
SOLID
5
2DF
100
AcDbEntity
8
___SYMBOL
100
AcDbTrace
62
2
6
CONTINUOUS
10
9.7984648880
20
14.5989991602
11
9.5882740331
21
14.5113224309
12
9.7615939784
22
14.6287369504
13
9.7615939784
23
14.6287369504
0
SOLID
5
2E0
100
AcDbEntity
8
___SYMBOL
100
AcDbTrace
62
2
6
CONTINUOUS
10
9.7615939784
20
14.6287369504
11
9.5882740331
21
14.5113224309
12
9.7180989393
22
14.6474981262
13
9.7180989393
23
14.6474981262
0
SOLID
5
2E1
100
AcDbEntity
8
___SYMBOL
100
AcDbTrace
62
2
6
CONTINUOUS
10
9.7180989393
20
14.6474981262
11
9.5882740331
21
14.5113224309
12
9.4376182052
22
14.6539012693
13
9.4376182052
23
14.6539012693
0
SOLID
5
2E2
100
AcDbEntity
8
___SYMBOL
100
AcDbTrace
62
2
6
CONTINUOUS
10
9.4376182052
20
14.0679875991
11
9.4376182052
21
14.6539012693
12
9.5882740331
22
14.5113224309
13
9.5882740331
23
14.5113224309
0
SOLID
5
2E3
100
AcDbEntity
8
___SYMBOL
100
AcDbTrace
62
2
6
CONTINUOUS
10
9.5882740331
20
14.2649439769
11
9.5882740331
21
14.0679875991
12
9.4376182052
22
14.0679875991
13
9.4376182052
23
14.0679875991
0
SOLID
5
2E4
100
AcDbEntity
8
___SYMBOL
100
AcDbTrace
62
2
6
CONTINUOUS
10
9.5882740331
20
14.2649439769
11
9.7436051644
21
14.3195701493
12
9.7130974667
22
14.0679875991
13
9.7130974667
23
14.0679875991
0
SOLID
5
2E5
100
AcDbEntity
8
___SYMBOL
100
AcDbTrace
62
2
6
CONTINUOUS
10
9.7436051644
20
14.3195701493
11
9.9030484130
21
14.0679875991
12
9.7130974667
22
14.0679875991
13
9.7130974667
23
14.0679875991
0
CIRCLE
5
2E6
100
AcDbEntity
8
___SYMBOL
100
AcDbCircle
62
2
6
CONTINUOUS
10
10.0438183927
20
14.0679875991
40
0.0653578744
0
LINE
5
2E7
100
AcDbEntity
8
___SYMBOL
100
AcDbLine
62
2
6
CONTINUOUS
10
10.0395303693
20
14.0674498497
11
10.0713983832
21
14.0351469072
0
LINE
5
2E8
100
AcDbEntity
8
___SYMBOL
100
AcDbLine
62
2
6
CONTINUOUS
10
10.0279323927
20
14.0351469072
11
10.0279323927
21
14.1011131084
0
LINE
5
2E9
100
AcDbEntity
8
___SYMBOL
100
AcDbLine
62
2
6
CONTINUOUS
10
10.0279323927
20
14.1011131084
11
10.0522117265
21
14.1011131084
0
ARC
5
2EA
100
AcDbEntity
8
___SYMBOL
100
AcDbCircle
62
2
6
CONTINUOUS
10
10.0522117265
20
14.0842816582
40
0.0168314502
100
AcDbArc
50
270.0000000000
51
90.0000000000
0
LINE
5
2EB
100
AcDbEntity
8
___SYMBOL
100
AcDbLine
62
2
6
CONTINUOUS
10
10.0522117265
20
14.0674498497
11
10.0279323927
21
14.0674498497
0
TEXT
5
2EC
100
AcDbEntity
8
___SYMBOL
100
AcDbText
62
2
6
CONTINUOUS
10
7.1685893294
20
10.1169959459
7
STANDARD
40
0.2500000089
1
ICEROCK  
41
0.8000000000
72
0
100
AcDbText
0
TEXT
5
2ED
100
AcDbEntity
8
___SYMBOL
100
AcDbText
62
2
6
CONTINUOUS
10
8.9685893934
20
10.1169959459
7
STANDARD
40
0.2500000089
1
   
41
0.8000000000
72
0
100
AcDbText
0
TEXT
5
2EE
100
AcDbEntity
8
___SYMBOL
100
AcDbText
62
2
6
CONTINUOUS
10
9.5685894147
20
10.1169959459
7
STANDARD
40
0.2500000089
1
3179W
41
0.8000000000
72
0
100
AcDbText
0
TEXT
5
2EF
100
AcDbEntity
8
___SYMBOL
100
AcDbText
62
2
6
CONTINUOUS
10
10.5685894503
20
10.1169959459
7
STANDARD
40
0.2500000089
1
-**-
41
0.8000000000
72
0
100
AcDbText
0
TEXT
5
2F0
100
AcDbEntity
8
___SYMBOL
100
AcDbText
62
2
6
CONTINUOUS
10
11.3685894787
20
10.1169959459
7
STANDARD
40
0.2500000089
1
AA
41
0.8000000000
72
0
100
AcDbText
0
ENDBLK
5
2F1
100
AcDbEntity
8
0
6
BYBLOCK
62
0
100
AcDbBlockEnd
0
BLOCK
5
2F2
100
AcDbEntity
8
___SYMBOL
100
AcDbBlockBegin
62
2
6
CONTINUOUS
2
PACKAGING_UPC_BL2
70
64
10
22.3792189439
20
11.8760805341
3
PACKAGING_UPC_BL2
1

0
TEXT
5
2F3
100
AcDbEntity
8
___SYMBOL
100
AcDbText
62
7
6
CONTINUOUS
10
20.8452180607
20
12.4030838350
7
STANDARD
40
0.0593587494
1
XXXXX-XX-X-XX
41
0.8258950207
72
0
100
AcDbText
0
TEXT
5
2F4
100
AcDbEntity
8
___SYMBOL
100
AcDbText
62
7
6
CONTINUOUS
10
22.4791980448
20
12.2739188362
7
STANDARD
40
0.0445192496
1
xxxxxx-xx
41
0.6740211618
72
0
100
AcDbText
0
TEXT
5
2F5
100
AcDbEntity
8
___SYMBOL
100
AcDbText
62
2
6
CONTINUOUS
10
19.7148737632
20
13.9467124998
7
STANDARD
40
0.1562500055
1
PACKAGING/UPC LABEL ON BOX
41
0.7999999985
72
0
100
AcDbText
0
TEXT
5
2F6
100
AcDbEntity
8
___SYMBOL
100
AcDbText
62
2
6
CONTINUOUS
10
19.7148737632
20
13.7123374919
7
STANDARD
40
0.1562500055
1
ETIQUETA DE EMBALAJE/UPC EN LA CAJA
41
0.7999999985
72
0
100
AcDbText
0
TEXT
5
2F7
100
AcDbEntity
8
___SYMBOL
100
AcDbText
62
2
6
CONTINUOUS
10
19.7148737632
20
13.4779624906
7
STANDARD
40
0.1562500003
1
ETIQUETTE D'EMBALLAGE/UPC SUR LA BOÎTE
41
0.7999999985
72
0
100
AcDbText
0
TEXT
5
2F8
100
AcDbEntity
8
___SYMBOL
100
AcDbText
62
2
6
CONTINUOUS
10
19.6917188540
20
11.7585735799
7
STANDARD
40
0.1562500055
1
The template and the label suffixes circled
41
0.7999999985
72
0
100
AcDbText
0
TEXT
5
2F9
100
AcDbEntity
8
___SYMBOL
100
AcDbText
62
2
6
CONTINUOUS
10
19.6917188540
20
11.5241985721
7
STANDARD
40
0.1562500055
1
must match for proper cut-out.
41
0.7999999985
72
0
100
AcDbText
0
TEXT
5
2FA
100
AcDbEntity
8
___SYMBOL
100
AcDbText
62
2
6
CONTINUOUS
10
19.6917188540
20
11.2898235708
7
STANDARD
40
0.1562500003
1
 
41
0.7999999985
72
0
100
AcDbText
0
TEXT
5
2FB
100
AcDbEntity
8
___SYMBOL
100
AcDbText
62
2
6
CONTINUOUS
10
19.6917188540
20
11.0554485642
7
STANDARD
40
0.1562500055
1
A fin de realizar el corte apropiado, la
41
0.7999999985
72
0
100
AcDbText
0
TEXT
5
2FC
100
AcDbEntity
8
___SYMBOL
100
AcDbText
62
2
6
CONTINUOUS
10
19.6917188540
20
10.8210735629
7
STANDARD
40
0.1562500003
1
plantilla y los sufijos de la etiqueta
41
0.7999999985
72
0
100
AcDbText
0
TEXT
5
2FD
100
AcDbEntity
8
___SYMBOL
100
AcDbText
62
2
6
CONTINUOUS
10
19.6917188540
20
10.5866985629
7
STANDARD
40
0.1562500003
1
demarcados deben concordar.
41
0.7999999985
72
0
100
AcDbText
0
TEXT
5
2FE
100
AcDbEntity
8
___SYMBOL
100
AcDbText
62
2
6
CONTINUOUS
10
19.6917188540
20
10.3523235629
7
STANDARD
40
0.1562500003
1
 
41
0.7999999985
72
0
100
AcDbText
0
TEXT
5
2FF
100
AcDbEntity
8
___SYMBOL
100
AcDbText
62
2
6
CONTINUOUS
10
19.6917188540
20
10.1179485629
7
STANDARD
40
0.1562500003
1
Afin de découper l'ouverture correctement,
41
0.7999999985
72
0
100
AcDbText
0
TEXT
5
300
100
AcDbEntity
8
___SYMBOL
100
AcDbText
62
2
6
CONTINUOUS
10
19.6917188540
20
9.8835735629
7
STANDARD
40
0.1562500003
1
le gabarit et les suffixes encerclés
41
0.7999999985
72
0
100
AcDbText
0
TEXT
5
301
100
AcDbEntity
8
___SYMBOL
100
AcDbText
62
2
6
CONTINUOUS
10
19.6917188540
20
9.6491985629
7
STANDARD
40
0.1562500003
1
doivent correspondre
41
0.7999999985
72
0
100
AcDbText
0
LINE
5
302
100
AcDbEntity
8
___SYMBOL
100
AcDbLine
62
7
6
CONTINUOUS
10
22.8340230413
20
12.2471888365
11
20.6489805627
21
12.2471888365
0
LINE
5
303
100
AcDbEntity
8
___SYMBOL
100
AcDbLine
62
7
6
CONTINUOUS
10
20.6489805627
20
12.2471888365
11
20.6489805627
21
13.2402188268
0
LINE
5
304
100
AcDbEntity
8
___SYMBOL
100
AcDbLine
62
7
6
CONTINUOUS
10
20.6489805627
20
13.2402188268
11
22.8340230413
21
13.2402188268
0
LINE
5
305
100
AcDbEntity
8
___SYMBOL
100
AcDbLine
62
7
6
CONTINUOUS
10
22.8340230413
20
13.2402188268
11
22.8340230413
21
12.2471888365
0
LINE
5
306
100
AcDbEntity
8
___SYMBOL
100
AcDbLine
62
7
6
CONTINUOUS
10
20.6156130630
20
13.2726788265
11
22.8681780410
21
13.2726788265
0
LINE
5
307
100
AcDbEntity
8
___SYMBOL
100
AcDbLine
62
7
6
CONTINUOUS
10
22.8681780410
20
13.2726788265
11
22.8681780410
21
12.1797713372
0
LINE
5
308
100
AcDbEntity
8
___SYMBOL
100
AcDbLine
62
7
6
CONTINUOUS
10
22.8681780410
20
12.1797713372
11
20.6156130630
21
12.1797713372
0
LINE
5
309
100
AcDbEntity
8
___SYMBOL
100
AcDbLine
62
7
6
CONTINUOUS
10
20.6156130630
20
12.1797713372
11
20.6156130630
21
13.2726788265
0
LINE
5
30A
100
AcDbEntity
8
___SYMBOL
100
AcDbLine
62
7
6
CONTINUOUS
10
22.6288380433
20
12.6788588323
11
22.6288380433
21
12.5572238335
0
LINE
5
30B
100
AcDbEntity
8
___SYMBOL
100
AcDbLine
62
7
6
CONTINUOUS
10
22.6288380433
20
12.5572238335
11
22.2858855467
21
12.5572238335
0
LINE
5
30C
100
AcDbEntity
8
___SYMBOL
100
AcDbLine
62
7
6
CONTINUOUS
10
22.2858855467
20
12.5572238335
11
22.2858855467
21
12.6788588323
0
LINE
5
30D
100
AcDbEntity
8
___SYMBOL
100
AcDbLine
62
7
6
CONTINUOUS
10
22.2858855467
20
12.6788588323
11
22.6288380433
21
12.6788588323
0
SOLID
5
30E
100
AcDbEntity
8
___SYMBOL
100
AcDbTrace
62
7
6
CONTINUOUS
10
22.2858855467
20
12.5572238244
11
22.2858855467
21
12.6788588246
12
22.6288380433
22
12.6788588246
13
22.6288380433
23
12.6788588246
0
SOLID
5
30F
100
AcDbEntity
8
___SYMBOL
100
AcDbTrace
62
7
6
CONTINUOUS
10
22.6288380433
20
12.6788588246
11
22.6288380433
21
12.5572238244
12
22.2858855467
22
12.5572238244
13
22.2858855467
23
12.5572238244
0
LINE
5
310
100
AcDbEntity
8
___SYMBOL
100
AcDbLine
62
7
6
CONTINUOUS
10
21.5533830538
20
12.6788588323
11
21.5533830538
21
12.5572238335
0
LINE
5
311
100
AcDbEntity
8
___SYMBOL
100
AcDbLine
62
7
6
CONTINUOUS
10
21.5533830538
20
12.5572238335
11
20.6976780622
21
12.5572238335
0
LINE
5
312
100
AcDbEntity
8
___SYMBOL
100
AcDbLine
62
7
6
CONTINUOUS
10
20.6976780622
20
12.5572238335
11
20.6976780622
21
12.6788588323
0
LINE
5
313
100
AcDbEntity
8
___SYMBOL
100
AcDbLine
62
7
6
CONTINUOUS
10
20.6976780622
20
12.6788588323
11
21.5533830538
21
12.6788588323
0
SOLID
5
314
100
AcDbEntity
8
___SYMBOL
100
AcDbTrace
62
7
6
CONTINUOUS
10
20.6976780622
20
12.5572238244
11
20.6976780622
21
12.6788588246
12
21.5533830538
22
12.6788588246
13
21.5533830538
23
12.6788588246
0
SOLID
5
315
100
AcDbEntity
8
___SYMBOL
100
AcDbTrace
62
7
6
CONTINUOUS
10
21.5533830538
20
12.6788588246
11
21.5533830538
21
12.5572238244
12
20.6976780622
22
12.5572238244
13
20.6976780622
23
12.5572238244
0
LINE
5
316
100
AcDbEntity
8
___SYMBOL
100
AcDbLine
62
7
6
CONTINUOUS
10
21.5533830538
20
12.3055913359
11
21.5533830538
21
12.2706113363
0
LINE
5
317
100
AcDbEntity
8
___SYMBOL
100
AcDbLine
62
7
6
CONTINUOUS
10
21.5533830538
20
12.2706113363
11
20.6976780622
21
12.2706113363
0
LINE
5
318
100
AcDbEntity
8
___SYMBOL
100
AcDbLine
62
7
6
CONTINUOUS
10
20.6976780622
20
12.2706113363
11
20.6976780622
21
12.3055913359
0
LINE
5
319
100
AcDbEntity
8
___SYMBOL
100
AcDbLine
62
7
6
CONTINUOUS
10
20.6976780622
20
12.3055913359
11
21.5533830538
21
12.3055913359
0
SOLID
5
31A
100
AcDbEntity
8
___SYMBOL
100
AcDbTrace
62
7
6
CONTINUOUS
10
20.6976780622
20
12.2706113379
11
20.6976780622
21
12.3055913199
12
21.5533830538
22
12.3055913199
13
21.5533830538
23
12.3055913199
0
SOLID
5
31B
100
AcDbEntity
8
___SYMBOL
100
AcDbTrace
62
7
6
CONTINUOUS
10
21.5533830538
20
12.3055913199
11
21.5533830538
21
12.2706113379
12
20.6976780622
22
12.2706113379
13
20.6976780622
23
12.2706113379
0
SPLINE
5
31C
100
AcDbEntity
8
___SYMBOL
100
AcDbSpline
62
7
6
CONTINUOUS
70
0
71
2
72
8
73
5
74
295
42
0.0000001000
43
0.0000001000
44
0.0000000001
12
-0.3204212141
22
-0.0753823492
32
0.0000000000
13
-0.3214221905
23
-0.0709927505
33
0.0000000000
40
0.0000000000
40
0.0000000000
40
0.0000000000
40
1.0000000000
40
1.0000000000
40
2.0000000000
40
2.0000000000
40
2.0000000000
41
1.0000000000
41
0.0034195132
41
1.0000000000
41
0.0034195132
41
1.0000000000
10
21.4193880072
20
12.5173689541
30
0.0000000000
10
-2.0065496138
20
7.0061788960
30
0.0000000000
10
21.4565273198
20
12.3570327031
30
0.0000000000
10
44.9196042534
20
17.7078865101
30
0.0000000000
10
21.4204854289
20
12.5176192258
30
0.0000000000
11
21.4193880072
21
12.5173689541
31
0.0000000000
11
21.4181289548
21
12.5170622679
31
0.0000000000
11
21.4168552521
21
12.5167305145
31
0.0000000000
11
21.4155671728
21
12.5163727496
31
0.0000000000
11
21.4142650307
21
12.5159880083
31
0.0000000000
11
21.4129491819
21
12.5155753066
31
0.0000000000
11
21.4116200272
21
12.5151336422
31
0.0000000000
11
21.4102780149
21
12.5146619956
31
0.0000000000
11
21.4089236430
21
12.5141593320
31
0.0000000000
11
21.4075574622
21
12.5136246023
31
0.0000000000
11
21.4061800782
21
12.5130567457
31
0.0000000000
11
21.4047921546
21
12.5124546910
31
0.0000000000
11
21.4033944155
21
12.5118173597
31
0.0000000000
11
21.4019876483
21
12.5111436680
31
0.0000000000
11
21.4005727060
21
12.5104325299
31
0.0000000000
11
21.3991505101
21
12.5096828606
31
0.0000000000
11
21.3977220528
21
12.5088935795
31
0.0000000000
11
21.3962883999
21
12.5080636143
31
0.0000000000
11
21.3948506924
21
12.5071919048
31
0.0000000000
11
21.3934101494
21
12.5062774076
31
0.0000000000
11
21.3919680693
21
12.5053191005
31
0.0000000000
11
21.3905258319
21
12.5043159880
31
0.0000000000
11
21.3890849000
21
12.5032671060
31
0.0000000000
11
21.3876468202
21
12.5021715282
31
0.0000000000
11
21.3862132239
21
12.5010283717
31
0.0000000000
11
21.3847858280
21
12.4998368034
31
0.0000000000
11
21.3833664343
21
12.4985960467
31
0.0000000000
11
21.3819569298
21
12.4973053883
31
0.0000000000
11
21.3805592853
21
12.4959641856
31
0.0000000000
11
21.3791755541
21
12.4945718735
31
0.0000000000
11
21.3778078699
21
12.4931279724
31
0.0000000000
11
21.3764584439
21
12.4916320957
31
0.0000000000
11
21.3751295617
21
12.4900839575
31
0.0000000000
11
21.3738235792
21
12.4884833804
31
0.0000000000
11
21.3725429174
21
12.4868303031
31
0.0000000000
11
21.3712900572
21
12.4851247884
31
0.0000000000
11
21.3700675327
21
12.4833670300
31
0.0000000000
11
21.3688779244
21
12.4815573605
31
0.0000000000
11
21.3677238505
21
12.4796962572
31
0.0000000000
11
21.3666079589
21
12.4777843497
31
0.0000000000
11
21.3655329170
21
12.4758224247
31
0.0000000000
11
21.3645014015
21
12.4738114319
31
0.0000000000
11
21.3635160873
21
12.4717524884
31
0.0000000000
11
21.3625796359
21
12.4696468823
31
0.0000000000
11
21.3616946822
21
12.4674960755
31
0.0000000000
11
21.3608638226
21
12.4653017057
31
0.0000000000
11
21.3600896005
21
12.4630655871
31
0.0000000000
11
21.3593744932
21
12.4607897097
31
0.0000000000
11
21.3587208974
21
12.4584762381
31
0.0000000000
11
21.3581311149
21
12.4561275080
31
0.0000000000
11
21.3576073385
21
12.4537460225
31
0.0000000000
11
21.3571516381
21
12.4513344462
31
0.0000000000
11
21.3567659459
21
12.4488955982
31
0.0000000000
11
21.3564520442
21
12.4464324436
31
0.0000000000
11
21.3562115514
21
12.4439480841
31
0.0000000000
11
21.3560459105
21
12.4414457468
31
0.0000000000
11
21.3559563775
21
12.4389287721
31
0.0000000000
11
21.3559440112
21
12.4364005997
31
0.0000000000
11
21.3560096643
21
12.4338647549
31
0.0000000000
11
21.3561539751
21
12.4313248327
31
0.0000000000
11
21.3563773614
21
12.4287844814
31
0.0000000000
11
21.3566800155
21
12.4262473862
31
0.0000000000
11
21.3570619008
21
12.4237172511
31
0.0000000000
11
21.3575227500
21
12.4211977815
31
0.0000000000
11
21.3580620648
21
12.4186926662
31
0.0000000000
11
21.3586791179
21
12.4162055593
31
0.0000000000
11
21.3593729560
21
12.4137400626
31
0.0000000000
11
21.3601424046
21
12.4112997082
31
0.0000000000
11
21.3609860747
21
12.4088879416
31
0.0000000000
11
21.3619023705
21
12.4065081059
31
0.0000000000
11
21.3628894992
21
12.4041634261
31
0.0000000000
11
21.3639454813
21
12.4018569953
31
0.0000000000
11
21.3650681630
21
12.3995917617
31
0.0000000000
11
21.3662552284
21
12.3973705165
31
0.0000000000
11
21.3675042142
21
12.3951958837
31
0.0000000000
11
21.3688125236
21
12.3930703110
31
0.0000000000
11
21.3701774418
21
12.3909960623
31
0.0000000000
11
21.3715961513
21
12.3889752117
31
0.0000000000
11
21.3730657480
21
12.3870096389
31
0.0000000000
11
21.3745832566
21
12.3851010259
31
0.0000000000
11
21.3761456467
21
12.3832508560
31
0.0000000000
11
21.3777498484
21
12.3814604129
31
0.0000000000
11
21.3793927671
21
12.3797307825
31
0.0000000000
11
21.3810712986
21
12.3780628549
31
0.0000000000
11
21.3827823431
21
12.3764573283
31
0.0000000000
11
21.3845228184
21
12.3749147135
31
0.0000000000
11
21.3862896728
21
12.3734353399
31
0.0000000000
11
21.3880798966
21
12.3720193618
31
0.0000000000
11
21.3898905332
21
12.3706667659
31
0.0000000000
11
21.3917186892
21
12.3693773793
31
0.0000000000
11
21.3935615427
21
12.3681508780
31
0.0000000000
11
21.3954163521
21
12.3669867956
31
0.0000000000
11
21.3972804627
21
12.3658845333
31
0.0000000000
11
21.3991513127
21
12.3648433685
31
0.0000000000
11
21.4010264384
21
12.3638624653
31
0.0000000000
11
21.4029034785
21
12.3629408835
31
0.0000000000
11
21.4047801774
21
12.3620775883
31
0.0000000000
11
21.4066543874
21
12.3612714603
31
0.0000000000
11
21.4085240707
21
12.3605213043
31
0.0000000000
11
21.4103873003
21
12.3598258584
31
0.0000000000
11
21.4122422600
21
12.3591838031
31
0.0000000000
11
21.4140872443
21
12.3585937694
31
0.0000000000
11
21.4159206575
21
12.3580543470
31
0.0000000000
11
21.4177410122
21
12.3575640921
31
0.0000000000
11
21.4195469272
21
12.3571215343
31
0.0000000000
11
21.4213371255
21
12.3567251838
31
0.0000000000
11
21.4231104315
21
12.3563735375
31
0.0000000000
11
21.4248657681
21
12.3560650850
31
0.0000000000
11
21.4266021535
21
12.3557983142
31
0.0000000000
11
21.4283186978
21
12.3555717162
31
0.0000000000
11
21.4300145995
21
12.3553837901
31
0.0000000000
11
21.4316891417
21
12.3552330467
31
0.0000000000
11
21.4333416884
21
12.3551180130
31
0.0000000000
11
21.4349716808
21
12.3550372351
31
0.0000000000
11
21.4365786333
21
12.3549892812
31
0.0000000000
11
21.4381621298
21
12.3549727445
31
0.0000000000
11
21.4397218196
21
12.3549862454
31
0.0000000000
11
21.4412574140
21
12.3550284335
31
0.0000000000
11
21.4427686824
21
12.3550979893
31
0.0000000000
11
21.4442554486
21
12.3551936255
31
0.0000000000
11
21.4457175877
21
12.3553140884
31
0.0000000000
11
21.4471550219
21
12.3554581588
31
0.0000000000
11
21.4485677180
21
12.3556246524
31
0.0000000000
11
21.4492647901
21
12.3557159476
31
0.0000000000
11
21.4499556836
21
12.3558124207
31
0.0000000000
11
21.4506404054
21
12.3559139337
31
0.0000000000
11
21.4513189645
21
12.3560203510
31
0.0000000000
11
21.4519913720
21
12.3561315391
31
0.0000000000
11
21.4526576411
21
12.3562473669
31
0.0000000000
11
21.4533177870
21
12.3563677053
31
0.0000000000
11
21.4536455689
21
12.3564295264
31
0.0000000000
11
21.4539718265
21
12.3564924278
31
0.0000000000
11
21.4542965621
21
12.3565563941
31
0.0000000000
11
21.4546197783
21
12.3566214099
31
0.0000000000
11
21.4549414777
21
12.3566874601
31
0.0000000000
11
21.4552616629
21
12.3567545295
31
0.0000000000
11
21.4554211886
21
12.3567884417
31
0.0000000000
11
21.4555803368
21
12.3568226032
31
0.0000000000
11
21.4557391079
21
12.3568570120
31
0.0000000000
11
21.4558975022
21
12.3568916664
31
0.0000000000
11
21.4560555202
21
12.3569265645
31
0.0000000000
11
21.4561343882
21
12.3569441044
31
0.0000000000
11
21.4562131622
21
12.3569617045
31
0.0000000000
11
21.4562918423
21
12.3569793647
31
0.0000000000
11
21.4563704286
21
12.3569970847
31
0.0000000000
11
21.4564489210
21
12.3570148642
31
0.0000000000
11
21.4564881321
21
12.3570237762
31
0.0000000000
11
21.4565273198
21
12.3570327031
31
0.0000000000
11
21.4565665030
21
12.3570416490
31
0.0000000000
11
21.4566057010
21
12.3570506185
31
0.0000000000
11
21.4566841410
21
12.3570686281
31
0.0000000000
11
21.4567626397
21
12.3570867320
31
0.0000000000
11
21.4568411971
21
12.3571049306
31
0.0000000000
11
21.4569198130
21
12.3571232239
31
0.0000000000
11
21.4569984875
21
12.3571416122
31
0.0000000000
11
21.4571560119
21
12.3571786749
31
0.0000000000
11
21.4573137698
21
12.3572161203
31
0.0000000000
11
21.4574717607
21
12.3572539504
31
0.0000000000
11
21.4576299842
21
12.3572921669
31
0.0000000000
11
21.4577884399
21
12.3573307716
31
0.0000000000
11
21.4581060456
21
12.3574091531
31
0.0000000000
11
21.4584245738
21
12.3574891096
31
0.0000000000
11
21.4587440205
21
12.3575706558
31
0.0000000000
11
21.4590643815
21
12.3576538065
31
0.0000000000
11
21.4593856523
21
12.3577385766
31
0.0000000000
11
21.4597078283
21
12.3578249812
31
0.0000000000
11
21.4603548772
21
12.3580027541
31
0.0000000000
11
21.4610054885
21
12.3581872465
31
0.0000000000
11
21.4616596199
21
12.3583785812
31
0.0000000000
11
21.4623172264
21
12.3585768821
31
0.0000000000
11
21.4629782602
21
12.3587822743
31
0.0000000000
11
21.4636426706
21
12.3589948840
31
0.0000000000
11
21.4643104041
21
12.3592148385
31
0.0000000000
11
21.4656556104
21
12.3596772962
31
0.0000000000
11
21.4670133881
21
12.3601706857
31
0.0000000000
11
21.4683831938
21
12.3606960597
31
0.0000000000
11
21.4697644290
21
12.3612544833
31
0.0000000000
11
21.4711564373
21
12.3618470321
31
0.0000000000
11
21.4725585022
21
12.3624747896
31
0.0000000000
11
21.4739698436
21
12.3631388449
31
0.0000000000
11
21.4753896161
21
12.3638402898
31
0.0000000000
11
21.4768169056
21
12.3645802154
31
0.0000000000
11
21.4782507271
21
12.3653597090
31
0.0000000000
11
21.4796900224
21
12.3661798503
31
0.0000000000
11
21.4811336576
21
12.3670417072
31
0.0000000000
11
21.4825804210
21
12.3679463314
31
0.0000000000
11
21.4840290211
21
12.3688947539
31
0.0000000000
11
21.4854780848
21
12.3698879798
31
0.0000000000
11
21.4869261561
21
12.3709269830
31
0.0000000000
11
21.4883716947
21
12.3720127005
31
0.0000000000
11
21.4898130753
21
12.3731460262
31
0.0000000000
11
21.4912485868
21
12.3743278050
31
0.0000000000
11
21.4926764327
21
12.3755588258
31
0.0000000000
11
21.4940947308
21
12.3768398147
31
0.0000000000
11
21.4955015149
21
12.3781714279
31
0.0000000000
11
21.4968947356
21
12.3795542444
31
0.0000000000
11
21.4982722625
21
12.3809887585
31
0.0000000000
11
21.4996318871
21
12.3824753719
31
0.0000000000
11
21.5009713257
21
12.3840143860
31
0.0000000000
11
21.5022882239
21
12.3856059945
31
0.0000000000
11
21.5035801609
21
12.3872502750
31
0.0000000000
11
21.5048446557
21
12.3889471819
31
0.0000000000
11
21.5060791728
21
12.3906965387
31
0.0000000000
11
21.5072811295
21
12.3924980306
31
0.0000000000
11
21.5084479044
21
12.3943511980
31
0.0000000000
11
21.5095768453
21
12.3962554297
31
0.0000000000
11
21.5106652796
21
12.3982099570
31
0.0000000000
11
21.5117105240
21
12.4002138487
31
0.0000000000
11
21.5127098962
21
12.4022660059
31
0.0000000000
11
21.5136607259
21
12.4043651588
31
0.0000000000
11
21.5145603681
21
12.4065098635
31
0.0000000000
11
21.5154062156
21
12.4086985002
31
0.0000000000
11
21.5161957123
21
12.4109292720
31
0.0000000000
11
21.5169263676
21
12.4132002060
31
0.0000000000
11
21.5175957700
21
12.4155091541
31
0.0000000000
11
21.5182016017
21
12.4178537962
31
0.0000000000
11
21.5187416527
21
12.4202316443
31
0.0000000000
11
21.5192138354
21
12.4226400481
31
0.0000000000
11
21.5196161978
21
12.4250762018
31
0.0000000000
11
21.5199469377
21
12.4275371525
31
0.0000000000
11
21.5202044155
21
12.4300198096
31
0.0000000000
11
21.5203871661
21
12.4325209560
31
0.0000000000
11
21.5204939107
21
12.4350372601
31
0.0000000000
11
21.5205235670
21
12.4375652892
31
0.0000000000
11
21.5204752582
21
12.4401015241
31
0.0000000000
11
21.5203483215
21
12.4426423743
31
0.0000000000
11
21.5201423140
21
12.4451841943
31
0.0000000000
11
21.5198570183
21
12.4477233005
31
0.0000000000
11
21.5194924457
21
12.4502559885
31
0.0000000000
11
21.5190488381
21
12.4527785514
31
0.0000000000
11
21.5185266686
21
12.4552872969
31
0.0000000000
11
21.5179266395
21
12.4577785661
31
0.0000000000
11
21.5172496794
21
12.4602487506
31
0.0000000000
11
21.5164969386
21
12.4626943106
31
0.0000000000
11
21.5156697826
21
12.4651117910
31
0.0000000000
11
21.5147697842
21
12.4674978379
31
0.0000000000
11
21.5137987141
21
12.4698492142
31
0.0000000000
11
21.5127585306
21
12.4721628132
31
0.0000000000
11
21.5116513675
21
12.4744356722
31
0.0000000000
11
21.5104795212
21
12.4766649841
31
0.0000000000
11
21.5092454372
21
12.4788481082
31
0.0000000000
11
21.5079516956
21
12.4809825790
31
0.0000000000
11
21.5066009954
21
12.4830661141
31
0.0000000000
11
21.5051961400
21
12.4850966203
31
0.0000000000
11
21.5037400206
21
12.4870721980
31
0.0000000000
11
21.5022356008
21
12.4889911447
31
0.0000000000
11
21.5006859009
21
12.4908519568
31
0.0000000000
11
21.4990939820
21
12.4926533293
31
0.0000000000
11
21.4974629310
21
12.4943941554
31
0.0000000000
11
21.4957958460
21
12.4960735237
31
0.0000000000
11
21.4940958221
21
12.4976907147
31
0.0000000000
11
21.4923659378
21
12.4992451967
31
0.0000000000
11
21.4906092426
21
12.5007366193
31
0.0000000000
11
21.4888287449
21
12.5021648078
31
0.0000000000
11
21.4870274013
21
12.5035297551
31
0.0000000000
11
21.4852081067
21
12.5048316144
31
0.0000000000
11
21.4833736846
21
12.5060706904
31
0.0000000000
11
21.4815268801
21
12.5072474307
31
0.0000000000
11
21.4796703519
21
12.5083624159
31
0.0000000000
11
21.4778066666
21
12.5094163511
31
0.0000000000
11
21.4759382935
21
12.5104100554
31
0.0000000000
11
21.4740676003
21
12.5113444528
31
0.0000000000
11
21.4721968498
21
12.5122205626
31
0.0000000000
11
21.4703281971
21
12.5130394894
31
0.0000000000
11
21.4684636881
21
12.5138024147
31
0.0000000000
11
21.4666052587
21
12.5145105869
31
0.0000000000
11
21.4647547338
21
12.5151653133
31
0.0000000000
11
21.4629138282
21
12.5157679510
31
0.0000000000
11
21.4610841473
21
12.5163198994
31
0.0000000000
11
21.4592671883
21
12.5168225922
31
0.0000000000
11
21.4574643426
21
12.5172774903
31
0.0000000000
11
21.4556768971
21
12.5176860746
31
0.0000000000
11
21.4539060378
21
12.5180498403
31
0.0000000000
11
21.4521528521
21
12.5183702903
31
0.0000000000
11
21.4504183321
21
12.5186489299
31
0.0000000000
11
21.4487033779
21
12.5188872619
31
0.0000000000
11
21.4470088014
21
12.5190867819
31
0.0000000000
11
21.4453353297
21
12.5192489738
31
0.0000000000
11
21.4436836086
21
12.5193753065
31
0.0000000000
11
21.4420542070
21
12.5194672299
31
0.0000000000
11
21.4404476203
21
12.5195261726
31
0.0000000000
11
21.4388642743
21
12.5195535383
31
0.0000000000
11
21.4373045289
21
12.5195507043
31
0.0000000000
11
21.4357686821
21
12.5195190190
31
0.0000000000
11
21.4342569737
21
12.5194598003
31
0.0000000000
11
21.4327695884
21
12.5193743342
31
0.0000000000
11
21.4313066599
21
12.5192638735
31
0.0000000000
11
21.4298682742
21
12.5191296370
31
0.0000000000
11
21.4284544728
21
12.5189728086
31
0.0000000000
11
21.4270652557
21
12.5187945369
31
0.0000000000
11
21.4257005850
21
12.5185959347
31
0.0000000000
11
21.4243603873
21
12.5183780793
31
0.0000000000
11
21.4230445569
21
12.5181420116
31
0.0000000000
11
21.4217529583
21
12.5178887372
31
0.0000000000
11
21.4204854289
21
12.5176192258
31
0.0000000000
0
LINE
5
31D
100
AcDbEntity
8
___SYMBOL
100
AcDbLine
62
7
6
CONTINUOUS
10
21.6000330534
20
13.2120938271
11
21.6000330534
21
13.1504438277
0
LINE
5
31E
100
AcDbEntity
8
___SYMBOL
100
AcDbLine
62
7
6
CONTINUOUS
10
21.6000330534
20
13.1504438277
11
20.7443280617
21
13.1504438277
0
LINE
5
31F
100
AcDbEntity
8
___SYMBOL
100
AcDbLine
62
7
6
CONTINUOUS
10
20.7443280617
20
13.1504438277
11
20.7443280617
21
13.2120938271
0
LINE
5
320
100
AcDbEntity
8
___SYMBOL
100
AcDbLine
62
7
6
CONTINUOUS
10
20.7443280617
20
13.2120938271
11
21.6000330534
21
13.2120938271
0
SOLID
5
321
100
AcDbEntity
8
___SYMBOL
100
AcDbTrace
62
7
6
CONTINUOUS
10
20.7443280617
20
13.1504438235
11
20.7443280617
21
13.2120938137
12
21.6000330534
22
13.2120938137
13
21.6000330534
23
13.2120938137
0
SOLID
5
322
100
AcDbEntity
8
___SYMBOL
100
AcDbTrace
62
7
6
CONTINUOUS
10
21.6000330534
20
13.2120938137
11
21.6000330534
21
13.1504438235
12
20.7443280617
22
13.1504438235
13
20.7443280617
23
13.1504438235
0
LINE
5
323
100
AcDbEntity
8
___SYMBOL
100
AcDbLine
62
7
6
CONTINUOUS
10
21.6000330534
20
13.1121113281
11
21.6000330534
21
13.0504613287
0
LINE
5
324
100
AcDbEntity
8
___SYMBOL
100
AcDbLine
62
7
6
CONTINUOUS
10
21.6000330534
20
13.0504613287
11
20.7443280617
21
13.0504613287
0
LINE
5
325
100
AcDbEntity
8
___SYMBOL
100
AcDbLine
62
7
6
CONTINUOUS
10
20.7443280617
20
13.0504613287
11
20.7443280617
21
13.1121113281
0
LINE
5
326
100
AcDbEntity
8
___SYMBOL
100
AcDbLine
62
7
6
CONTINUOUS
10
20.7443280617
20
13.1121113281
11
21.6000330534
21
13.1121113281
0
SOLID
5
327
100
AcDbEntity
8
___SYMBOL
100
AcDbTrace
62
7
6
CONTINUOUS
10
20.7443280617
20
13.0504613153
11
20.7443280617
21
13.1121113395
12
21.6000330534
22
13.1121113395
13
21.6000330534
23
13.1121113395
0
SOLID
5
328
100
AcDbEntity
8
___SYMBOL
100
AcDbTrace
62
7
6
CONTINUOUS
10
21.6000330534
20
13.1121113395
11
21.6000330534
21
13.0504613153
12
20.7443280617
22
13.0504613153
13
20.7443280617
23
13.0504613153
0
LINE
5
329
100
AcDbEntity
8
___SYMBOL
100
AcDbLine
62
7
6
CONTINUOUS
10
21.6000330534
20
13.0121288290
11
21.6000330534
21
12.9504863296
0
LINE
5
32A
100
AcDbEntity
8
___SYMBOL
100
AcDbLine
62
7
6
CONTINUOUS
10
21.6000330534
20
12.9504863296
11
20.7443280617
21
12.9504863296
0
LINE
5
32B
100
AcDbEntity
8
___SYMBOL
100
AcDbLine
62
7
6
CONTINUOUS
10
20.7443280617
20
12.9504863296
11
20.7443280617
21
13.0121288290
0
LINE
5
32C
100
AcDbEntity
8
___SYMBOL
100
AcDbLine
62
7
6
CONTINUOUS
10
20.7443280617
20
13.0121288290
11
21.6000330534
21
13.0121288290
0
SOLID
5
32D
100
AcDbEntity
8
___SYMBOL
100
AcDbTrace
62
7
6
CONTINUOUS
10
20.7443280617
20
12.9504863212
11
20.7443280617
21
13.0121288313
12
21.6000330534
22
13.0121288313
13
21.6000330534
23
13.0121288313
0
SOLID
5
32E
100
AcDbEntity
8
___SYMBOL
100
AcDbTrace
62
7
6
CONTINUOUS
10
21.6000330534
20
13.0121288313
11
21.6000330534
21
12.9504863212
12
20.7443280617
22
12.9504863212
13
20.7443280617
23
12.9504863212
0
LINE
5
32F
100
AcDbEntity
8
___SYMBOL
100
AcDbLine
62
7
6
CONTINUOUS
10
21.6000330534
20
12.9121463300
11
21.6000330534
21
12.8505038306
0
LINE
5
330
100
AcDbEntity
8
___SYMBOL
100
AcDbLine
62
7
6
CONTINUOUS
10
21.6000330534
20
12.8505038306
11
20.7443280617
21
12.8505038306
0
LINE
5
331
100
AcDbEntity
8
___SYMBOL
100
AcDbLine
62
7
6
CONTINUOUS
10
20.7443280617
20
12.8505038306
11
20.7443280617
21
12.9121463300
0
LINE
5
332
100
AcDbEntity
8
___SYMBOL
100
AcDbLine
62
7
6
CONTINUOUS
10
20.7443280617
20
12.9121463300
11
21.6000330534
21
12.9121463300
0
SOLID
5
333
100
AcDbEntity
8
___SYMBOL
100
AcDbTrace
62
7
6
CONTINUOUS
10
20.7443280617
20
12.8505038470
11
20.7443280617
21
12.9121463231
12
21.6000330534
22
12.9121463231
13
21.6000330534
23
12.9121463231
0
SOLID
5
334
100
AcDbEntity
8
___SYMBOL
100
AcDbTrace
62
7
6
CONTINUOUS
10
21.6000330534
20
12.9121463231
11
21.6000330534
21
12.8505038470
12
20.7443280617
22
12.8505038470
13
20.7443280617
23
12.8505038470
0
LINE
5
335
100
AcDbEntity
8
___SYMBOL
100
AcDbLine
62
7
6
CONTINUOUS
10
21.6000330534
20
12.7855088313
11
21.6000330534
21
12.7238588319
0
LINE
5
336
100
AcDbEntity
8
___SYMBOL
100
AcDbLine
62
7
6
CONTINUOUS
10
21.6000330534
20
12.7238588319
11
20.7443280617
21
12.7238588319
0
LINE
5
337
100
AcDbEntity
8
___SYMBOL
100
AcDbLine
62
7
6
CONTINUOUS
10
20.7443280617
20
12.7238588319
11
20.7443280617
21
12.7855088313
0
LINE
5
338
100
AcDbEntity
8
___SYMBOL
100
AcDbLine
62
7
6
CONTINUOUS
10
20.7443280617
20
12.7855088313
11
21.6000330534
21
12.7855088313
0
SOLID
5
339
100
AcDbEntity
8
___SYMBOL
100
AcDbTrace
62
7
6
CONTINUOUS
10
20.7443280617
20
12.7238588447
11
20.7443280617
21
12.7855088348
12
21.6000330534
22
12.7855088348
13
21.6000330534
23
12.7855088348
0
SOLID
5
33A
100
AcDbEntity
8
___SYMBOL
100
AcDbTrace
62
7
6
CONTINUOUS
10
21.6000330534
20
12.7855088348
11
21.6000330534
21
12.7238588447
12
20.7443280617
22
12.7238588447
13
20.7443280617
23
12.7238588447
0
ENDBLK
5
33B
100
AcDbEntity
8
0
6
BYBLOCK
62
0
100
AcDbBlockEnd
0
BLOCK
5
33C
100
AcDbEntity
8
___SYMBOL
100
AcDbBlockBegin
62
2
6
CONTINUOUS
2
TEMPLATE_NUMBER_BL3
70
64
10
7.5036130764
20
9.3559794189
3
TEMPLATE_NUMBER_BL3
1

0
TEXT
5
33D
100
AcDbEntity
8
___SYMBOL
100
AcDbText
62
2
6
CONTINUOUS
10
7.1934131740
20
9.3207294300
7
STANDARD
40
0.0704999778
1
1022026-7
41
0.8000000000
72
0
100
AcDbText
0
TEXT
5
33E
100
AcDbEntity
8
___SYMBOL
100
AcDbText
62
2
6
CONTINUOUS
10
7.7010130144
20
9.3207294300
7
STANDARD
40
0.0704999778
1
-
41
0.8000000000
72
0
100
AcDbText
0
TEXT
5
33F
100
AcDbEntity
8
___SYMBOL
100
AcDbText
62
2
6
CONTINUOUS
10
7.7574129967
20
9.3207294300
7
STANDARD
40
0.0704999778
1
B
41
0.8000000000
72
0
100
AcDbText
0
ENDBLK
5
340
100
AcDbEntity
8
0
6
BYBLOCK
62
0
100
AcDbBlockEnd
0
BLOCK
5
341
100
AcDbEntity
8
___SYMBOL
100
AcDbBlockBegin
62
2
6
CONTINUOUS
2
TEMPLATE_NUMBER_BL4
70
64
10
7.5114303904
20
7.7829892817
3
TEMPLATE_NUMBER_BL4
1

0
TEXT
5
342
100
AcDbEntity
8
___SYMBOL
100
AcDbText
62
2
6
CONTINUOUS
10
7.2012304879
20
7.7477392928
7
STANDARD
40
0.0704999778
1
1022026-7
41
0.8000000000
72
0
100
AcDbText
0
TEXT
5
343
100
AcDbEntity
8
___SYMBOL
100
AcDbText
62
2
6
CONTINUOUS
10
7.7088303283
20
7.7477392928
7
STANDARD
40
0.0704999778
1
-
41
0.8000000000
72
0
100
AcDbText
0
TEXT
5
344
100
AcDbEntity
8
___SYMBOL
100
AcDbText
62
2
6
CONTINUOUS
10
7.7652303106
20
7.7477392928
7
STANDARD
40
0.0704999778
1
B
41
0.8000000000
72
0
100
AcDbText
0
ENDBLK
5
345
100
AcDbEntity
8
0
6
BYBLOCK
62
0
100
AcDbBlockEnd
0
BLOCK
5
346
100
AcDbEntity
8
___SYMBOL
100
AcDbBlockBegin
62
2
6
CONTINUOUS
2
WHEN_PLOTTING_TEMPLATE_N_BL5
70
64
10
15.8717119938
20
12.1990518710
3
WHEN_PLOTTING_TEMPLATE_N_BL5
1

0
TEXT
5
347
100
AcDbEntity
8
___SYMBOL
100
AcDbText
62
2
6
CONTINUOUS
10
12.5592117614
20
13.4099894560
7
STANDARD
40
0.1562500110
1
WHEN PLOTTING TEMPLATE FULL SIZE:
41
0.8000000000
72
0
100
AcDbText
0
TEXT
5
348
100
AcDbEntity
8
___SYMBOL
100
AcDbText
62
2
6
CONTINUOUS
10
12.5592117614
20
13.1756144395
7
STANDARD
40
0.1562500110
1
Make sure horizontal and vertical dimensions
41
0.8000000000
72
0
100
AcDbText
0
TEXT
5
349
100
AcDbEntity
8
___SYMBOL
100
AcDbText
62
2
6
CONTINUOUS
10
12.5592117614
20
12.9412394231
7
STANDARD
40
0.1562500110
1
match the dimensions labeled on the template.
41
0.8000000000
72
0
100
AcDbText
0
TEXT
5
34A
100
AcDbEntity
8
___SYMBOL
100
AcDbText
62
2
6
CONTINUOUS
10
12.5592117614
20
12.7068644066
7
STANDARD
40
0.1562500110
1
 
41
0.8000000000
72
0
100
AcDbText
0
TEXT
5
34B
100
AcDbEntity
8
___SYMBOL
100
AcDbText
62
2
6
CONTINUOUS
10
12.5592117614
20
12.4724893902
7
STANDARD
40
0.1562500110
1
AL TRAZAR LA PLANTILLA A ESCALA,
41
0.8000000000
72
0
100
AcDbText
0
TEXT
5
34C
100
AcDbEntity
8
___SYMBOL
100
AcDbText
62
2
6
CONTINUOUS
10
12.5592117614
20
12.2381143737
7
STANDARD
40
0.1562500110
1
asegúrese de que las dimensiones horizontales
41
0.8000000000
72
0
100
AcDbText
0
TEXT
5
34D
100
AcDbEntity
8
___SYMBOL
100
AcDbText
62
2
6
CONTINUOUS
10
12.5592117614
20
12.0037393573
7
STANDARD
40
0.1562500110
1
y verticales concuerden con las dimensiones marcadas
41
0.8000000000
72
0
100
AcDbText
0
TEXT
5
34E
100
AcDbEntity
8
___SYMBOL
100
AcDbText
62
2
6
CONTINUOUS
10
12.5592117614
20
11.7693643408
7
STANDARD
40
0.1562500110
1
en la plantilla.
41
0.8000000000
72
0
100
AcDbText
0
TEXT
5
34F
100
AcDbEntity
8
___SYMBOL
100
AcDbText
62
2
6
CONTINUOUS
10
12.5592117614
20
11.5349893244
7
STANDARD
40
0.1562500110
1
 
41
0.8000000000
72
0
100
AcDbText
0
TEXT
5
350
100
AcDbEntity
8
___SYMBOL
100
AcDbText
62
2
6
CONTINUOUS
10
12.5592117614
20
11.3006143080
7
STANDARD
40
0.1562500110
1
AU MOMENT DE TRACER LA DÉCOUPE À L'ÉCHELLE,
41
0.8000000000
72
0
100
AcDbText
0
TEXT
5
351
100
AcDbEntity
8
___SYMBOL
100
AcDbText
62
2
6
CONTINUOUS
10
12.5592117614
20
11.0662392915
7
STANDARD
40
0.1562500110
1
Assurez vos que les dimensions horizotales et
41
0.8000000000
72
0
100
AcDbText
0
TEXT
5
352
100
AcDbEntity
8
___SYMBOL
100
AcDbText
62
2
6
CONTINUOUS
10
12.5592117614
20
10.8318642751
7
STANDARD
40
0.1562500110
1
verticales correspondent avec les dimensions du plan.
41
0.8000000000
72
0
100
AcDbText
0
ENDBLK
5
353
100
AcDbEntity
8
0
6
BYBLOCK
62
0
100
AcDbBlockEnd
0
BLOCK
5
354
100
AcDbEntity
8
0
100
AcDbBlockBegin
2
_FILLED
70
64
10
0.0000000000
20
0.0000000000
3
_FILLED
1

0
SOLID
5
355
100
AcDbEntity
8
0
6
BYBLOCK
62
0
100
AcDbTrace
10
0.0000000000
20
0.0000000000
11
-1.0000000000
21
0.1666666667
12
-1.0000000000
22
-0.1666666667
13
-1.0000000000
23
-0.1666666667
0
ENDBLK
5
356
100
AcDbEntity
8
0
6
BYBLOCK
62
0
100
AcDbBlockEnd
0
ENDSEC
0
SECTION
2
ENTITIES
0
DIMENSION
5
357
100
AcDbEntity
8
0
100
AcDbDimension
62
2
6
CONTINUOUS
2
*D0
10
26.8367468878
20
14.8237597750
11
17.8146214362
21
14.7065722750
70
160
1
<>"\P[50,5 cm]
3
DIMSTYLE_1
100
AcDbAlignedDimension
13
6.9617468878
23
14.0212143382
14
26.8367468878
24
14.1740229449
100
AcDbRotatedDimension
0
DIMENSION
5
358
100
AcDbEntity
8
0
100
AcDbDimension
62
2
6
CONTINUOUS
2
*D1
10
19.2112662568
20
9.1265703909
11
19.3987662568
21
12.7261601412
70
160
1
<>"\P[15,6 cm]
3
DIMSTYLE_1
100
AcDbAlignedDimension
13
17.3565418668
23
15.2515703909
14
17.5453304207
24
9.1265703909
50
270.000000
100
AcDbRotatedDimension
0
TEXT
5
359
100
AcDbEntity
8
0
100
AcDbText
62
2
6
CONTINUOUS
10
8.9849477757
20
11.1694675653
7
STANDARD
40
0.0940000000
1
TM
41
0.8000000000
72
0
100
AcDbText
0
TEXT
5
35A
100
AcDbEntity
8
0
100
AcDbText
62
2
6
CONTINUOUS
10
8.6216310753
20
10.3106535484
7
STANDARD
40
0.0940000000
1
TM
41
0.8000000000
72
0
100
AcDbText
0
SOLID
5
35B
100
AcDbEntity
8
0
100
AcDbTrace
62
2
6
CONTINUOUS
10
27.8992468878
20
12.2300105725
11
27.7168097408
21
12.2833912797
12
27.7439838700
22
12.3396746405
13
27.7439838700
23
12.3396746405
0
TEXT
5
35C
100
AcDbEntity
8
0
100
AcDbText
62
2
6
CONTINUOUS
10
24.9761265585
20
12.7786301211
7
STANDARD
40
0.1562500000
1
RIM OF SINK
41
0.8000000000
72
0
100
AcDbText
0
TEXT
5
35D
100
AcDbEntity
8
0
100
AcDbText
62
2
6
CONTINUOUS
10
23.8511265585
20
12.5442551211
7
STANDARD
40
0.1562500000
1
REBORDE DE FREGADERO
41
0.8000000000
72
0
100
AcDbText
0
TEXT
5
35E
100
AcDbEntity
8
0
100
AcDbText
62
2
6
CONTINUOUS
10
24.6011265585
20
12.3098801211
7
STANDARD
40
0.1562500000
1
REBORD D'ÉVIER
41
0.8000000000
72
0
100
AcDbText
0
SOLID
5
35F
100
AcDbEntity
8
0
100
AcDbTrace
62
2
6
CONTINUOUS
10
17.1186614495
20
9.1265703909
11
17.0095554300
21
9.2822260655
12
17.0659359742
22
9.3091979813
13
17.0659359742
23
9.3091979813
0
TEXT
5
360
100
AcDbEntity
8
0
100
AcDbText
62
2
6
CONTINUOUS
10
14.1046181517
20
9.8616791633
7
STANDARD
40
0.1562500000
1
CUT ALONG THIS LINE
41
0.8000000000
72
0
100
AcDbText
0
TEXT
5
361
100
AcDbEntity
8
0
100
AcDbText
62
2
6
CONTINUOUS
10
12.6046181517
20
9.6273041633
7
STANDARD
40
0.1562500000
1
 CORTE A LO LARGO DE ESTA LÍNEA
41
0.8000000000
72
0
100
AcDbText
0
TEXT
5
362
100
AcDbEntity
8
0
100
AcDbText
62
2
6
CONTINUOUS
10
12.4796181517
20
9.3929291633
7
STANDARD
40
0.1562500000
1
 DÉCOUPER AU LONG DE CETTE LIGNE
41
0.8000000000
72
0
100
AcDbText
0
INSERT
5
363
100
AcDbEntity
8
___SYMBOL
100
AcDbBlockReference
62
2
6
CONTINUOUS
2
COPYRIGHT_YEAR_BL0
10
26.1384951642
20
9.3716651150
0
INSERT
5
364
100
AcDbEntity
8
___SYMBOL
100
AcDbBlockReference
62
2
6
CONTINUOUS
2
CUT-OUT_TEMPLATE_SKU_SIN_BL1
10
9.5608500991
20
12.3874378649
0
INSERT
5
365
100
AcDbEntity
8
___SYMBOL
100
AcDbBlockReference
62
2
6
CONTINUOUS
2
PACKAGING_UPC_BL2
10
22.3792189439
20
11.8760805341
0
INSERT
5
366
100
AcDbEntity
8
___SYMBOL
100
AcDbBlockReference
62
2
6
CONTINUOUS
2
TEMPLATE_NUMBER_BL3
10
7.5036130764
20
9.3559794189
0
INSERT
5
367
100
AcDbEntity
8
___SYMBOL
100
AcDbBlockReference
62
2
6
CONTINUOUS
2
TEMPLATE_NUMBER_BL4
10
7.5114303904
20
7.7829892817
0
INSERT
5
368
100
AcDbEntity
8
___SYMBOL
100
AcDbBlockReference
62
2
6
CONTINUOUS
2
WHEN_PLOTTING_TEMPLATE_N_BL5
10
15.8717119938
20
12.1990518710
0
LINE
5
369
100
AcDbEntity
8
0
100
AcDbLine
62
7
6
CONTINUOUS
10
0.0000000000
20
0.0000000000
11
0.0000000000
21
22.0000000000
0
LINE
5
36A
100
AcDbEntity
8
0
100
AcDbLine
62
7
6
CONTINUOUS
10
0.0000000000
20
0.0000000000
11
34.0000000000
21
0.0000000000
0
LINE
5
36B
100
AcDbEntity
8
0
100
AcDbLine
62
7
6
CONTINUOUS
10
0.0000000000
20
22.0000000000
11
34.0000000000
21
22.0000000000
0
LINE
5
36C
100
AcDbEntity
8
0
100
AcDbLine
62
7
6
CONTINUOUS
10
34.0000000000
20
0.0000000000
11
34.0000000000
21
22.0000000000
0
LINE
5
36D
100
AcDbEntity
8
_CURVE
100
AcDbLine
62
8
6
HIDDEN
10
5.8992468878
20
16.3140703909
11
5.8992468878
21
8.0640703909
0
LINE
5
36E
100
AcDbEntity
8
_CURVE
100
AcDbLine
62
7
6
CONTINUOUS
10
6.9617468878
20
9.3765703909
11
6.9617468878
21
15.0015703909
0
LINE
5
36F
100
AcDbEntity
8
_CURVE
100
AcDbLine
62
8
6
HIDDEN
10
5.8992468878
20
8.0640703909
11
27.8992468878
21
8.0640703909
0
LINE
5
370
100
AcDbEntity
8
_CURVE
100
AcDbLine
62
7
6
CONTINUOUS
10
26.5867468878
20
9.1265703909
11
7.2117468878
21
9.1265703909
0
LINE
5
371
100
AcDbEntity
8
0
100
AcDbLine
62
2
6
CONTINUOUS
10
16.7296181517
20
9.9398041633
11
16.4796181517
21
9.9398041633
0
LINE
5
372
100
AcDbEntity
8
0
100
AcDbLine
62
2
6
CONTINUOUS
10
17.1186614495
20
9.1265703909
11
16.7296181517
21
9.9398041633
0
LINE
5
373
100
AcDbEntity
8
0
100
AcDbLine
62
2
6
CONTINUOUS
10
26.6011265585
20
12.8567551211
11
26.3511265585
21
12.8567551211
0
LINE
5
374
100
AcDbEntity
8
_CURVE
100
AcDbLine
62
7
6
CONTINUOUS
10
7.2117468878
20
15.2515703909
11
26.5867468878
21
15.2515703909
0
LINE
5
375
100
AcDbEntity
8
_CURVE
100
AcDbLine
62
8
6
HIDDEN
10
27.8992468878
20
16.3140703909
11
5.8992468878
21
16.3140703909
0
LINE
5
376
100
AcDbEntity
8
0
100
AcDbLine
62
2
6
CONTINUOUS
10
27.8992468878
20
12.2300105725
11
26.6011265585
21
12.8567551211
0
LINE
5
377
100
AcDbEntity
8
_CURVE
100
AcDbLine
62
7
6
CONTINUOUS
10
26.8367468878
20
15.0015703909
11
26.8367468878
21
9.3765703909
0
LINE
5
378
100
AcDbEntity
8
_CURVE
100
AcDbLine
62
8
6
HIDDEN
10
27.8992468878
20
8.0640703909
11
27.8992468878
21
16.3140703909
0
ARC
5
379
100
AcDbEntity
8
_CURVE
100
AcDbCircle
62
7
6
CONTINUOUS
10
7.2117468878
20
15.0015703909
40
0.2500000000
100
AcDbArc
50
90.0000000000
51
180.0000000000
0
ARC
5
37A
100
AcDbEntity
8
_CURVE
100
AcDbCircle
62
7
6
CONTINUOUS
10
7.2117468878
20
9.3765703909
40
0.2500000000
100
AcDbArc
50
180.0000000000
51
270.0000000000
0
ARC
5
37B
100
AcDbEntity
8
_CURVE
100
AcDbCircle
62
7
6
CONTINUOUS
10
26.5867468878
20
9.3765703909
40
0.2500000000
100
AcDbArc
50
270.0000000000
51
360.0000000000
0
ARC
5
37C
100
AcDbEntity
8
_CURVE
100
AcDbCircle
62
7
6
CONTINUOUS
10
26.5867468878
20
15.0015703909
40
0.2500000000
100
AcDbArc
50
0.0000000000
51
90.0000000000
0
SPLINE
5
37D
100
AcDbEntity
8
0
100
AcDbSpline
62
7
6
CONTINUOUS
70
0
71
3
72
39
73
35
74
33
42
0.0000001000
43
0.0000001000
44
0.0000000001
12
-1.4224693556
22
-0.3347153218
32
0.0000000000
13
-1.4269163010
23
-0.3152254756
33
0.0000000000
40
0.0000000000
40
0.0000000000
40
0.0000000000
40
0.0000000000
40
0.0312500000
40
0.0625000000
40
0.0937500000
40
0.1250000000
40
0.1562500000
40
0.1875000000
40
0.2187500000
40
0.2500000000
40
0.2812500000
40
0.3125000000
40
0.3437500000
40
0.3750000000
40
0.4062500000
40
0.4375000000
40
0.4687500000
40
0.5000000000
40
0.5312500000
40
0.5625000000
40
0.5937500000
40
0.6250000000
40
0.6562500000
40
0.6875000000
40
0.7187500000
40
0.7500000000
40
0.7812500000
40
0.8125000000
40
0.8437500000
40
0.8750000000
40
0.9062500000
40
0.9375000000
40
0.9687500000
40
1.0000000000
40
1.0000000000
40
1.0000000000
40
1.0000000000
10
11.3053653433
20
11.2979159232
30
0.0000000000
10
11.2905479541
20
11.2944293052
30
0.0000000000
10
11.2615990468
20
11.2845440189
30
0.0000000000
10
11.2218932029
20
11.2615469209
30
0.0000000000
10
11.1874245606
20
11.2312606884
30
0.0000000000
10
11.1595118724
20
11.1948441308
30
0.0000000000
10
11.1392231867
20
11.1536906550
30
0.0000000000
10
11.1273347974
20
11.1093749066
30
0.0000000000
10
11.1243015898
20
11.0635925310
30
0.0000000000
10
11.1302396225
20
11.0180952902
30
0.0000000000
10
11.1449216896
20
10.9746240365
30
0.0000000000
10
11.1677860142
20
10.9348421020
30
0.0000000000
10
11.1979577429
20
10.9002716552
30
0.0000000000
10
11.2342824208
20
10.8722354584
30
0.0000000000
10
11.2753701637
20
10.8518062552
30
0.0000000000
10
11.3196488392
20
10.8397657243
30
0.0000000000
10
11.3654242210
20
10.8365745702
30
0.0000000000
10
11.4109448144
20
10.8423548953
30
0.0000000000
10
11.4544688738
20
10.8568855283
30
0.0000000000
10
11.4943310464
20
10.8796104862
30
0.0000000000
10
11.5290060938
20
10.9096602485
30
0.0000000000
10
11.5571672511
20
10.9458850269
30
0.0000000000
10
11.5777369936
20
10.9868987597
30
0.0000000000
10
11.5899282651
20
11.0311321463
30
0.0000000000
10
11.5932745933
20
11.0768926933
30
0.0000000000
10
11.5876479384
20
11.1224294736
30
0.0000000000
10
11.5732635920
20
11.1660001222
30
0.0000000000
10
11.5506719396
20
11.2059375039
30
0.0000000000
10
11.5207374006
20
11.2407135022
30
0.0000000000
10
11.4846053569
20
11.2689974902
30
0.0000000000
10
11.4436583135
20
11.2897072414
30
0.0000000000
10
11.3994630501
20
11.3020503493
30
0.0000000000
10
11.3537104865
20
11.3055545067
30
0.0000000000
10
11.3233379442
20
11.3019086551
30
0.0000000000
10
11.3084742328
20
11.2986250564
30
0.0000000000
11
11.3053653433
21
11.2979159232
31
0.0000000000
11
11.2622186330
21
11.2831824908
31
0.0000000000
11
11.2227660699
21
11.2603320651
31
0.0000000000
11
11.1885172196
21
11.2302389675
31
0.0000000000
11
11.1607825395
21
11.1940546444
31
0.0000000000
11
11.1406232361
21
11.1531636096
31
0.0000000000
11
11.1288106610
21
11.1091304687
31
0.0000000000
11
11.1257967965
21
11.0636400535
31
0.0000000000
11
11.1316969616
21
11.0184329547
31
0.0000000000
11
11.1462853992
21
10.9752389231
31
0.0000000000
11
11.1690039149
21
10.9357106833
31
0.0000000000
11
11.1989832345
21
10.9013606969
31
0.0000000000
11
11.2350762650
21
10.8735032907
31
0.0000000000
11
11.2759019858
21
10.8532043673
31
0.0000000000
11
11.3198982903
21
10.8412406205
31
0.0000000000
11
11.3653817563
21
10.8380698167
31
0.0000000000
11
11.4106120587
21
10.8438132799
31
0.0000000000
11
11.4538585593
21
10.8582512491
31
0.0000000000
11
11.4934665256
21
10.8808312869
31
0.0000000000
11
11.5279204454
21
10.9106894179
31
0.0000000000
11
11.5559020153
21
10.9466831860
31
0.0000000000
11
11.5763405818
21
10.9874353687
31
0.0000000000
11
11.5884541079
21
11.0313866731
31
0.0000000000
11
11.5917790962
21
11.0768553989
31
0.0000000000
11
11.5861883232
21
11.1221017850
31
0.0000000000
11
11.5718957077
21
11.1653945778
31
0.0000000000
11
11.5494481251
21
11.2050772733
31
0.0000000000
11
11.5197044832
21
11.2396315004
31
0.0000000000
11
11.4838028570
21
11.2677351174
31
0.0000000000
11
11.4431169435
21
11.2883128008
31
0.0000000000
11
11.3992035000
21
11.3005771909
31
0.0000000000
11
11.3537427782
21
11.3040590176
31
0.0000000000
11
11.3084742328
21
11.2986250564
31
0.0000000000
0
SPLINE
5
37E
100
AcDbEntity
8
0
100
AcDbSpline
62
7
6
CONTINUOUS
70
0
71
3
72
39
73
35
74
33
42
0.0000001000
43
0.0000001000
44
0.0000000001
12
-1.4224693556
22
-0.3347153218
32
0.0000000000
13
-1.4269163010
23
-0.3152254756
33
0.0000000000
40
0.0000000000
40
0.0000000000
40
0.0000000000
40
0.0000000000
40
0.0312500000
40
0.0625000000
40
0.0937500000
40
0.1250000000
40
0.1562500000
40
0.1875000000
40
0.2187500000
40
0.2500000000
40
0.2812500000
40
0.3125000000
40
0.3437500000
40
0.3750000000
40
0.4062500000
40
0.4375000000
40
0.4687500000
40
0.5000000000
40
0.5312500000
40
0.5625000000
40
0.5937500000
40
0.6250000000
40
0.6562500000
40
0.6875000000
40
0.7187500000
40
0.7500000000
40
0.7812500000
40
0.8125000000
40
0.8437500000
40
0.8750000000
40
0.9062500000
40
0.9375000000
40
0.9687500000
40
1.0000000000
40
1.0000000000
40
1.0000000000
40
1.0000000000
10
11.5255009035
20
10.4423890867
30
0.0000000000
10
11.5106835144
20
10.4389024688
30
0.0000000000
10
11.4817346071
20
10.4290171825
30
0.0000000000
10
11.4420287632
20
10.4060200844
30
0.0000000000
10
11.4075601209
20
10.3757338520
30
0.0000000000
10
11.3796474326
20
10.3393172944
30
0.0000000000
10
11.3593587470
20
10.2981638186
30
0.0000000000
10
11.3474703577
20
10.2538480702
30
0.0000000000
10
11.3444371501
20
10.2080656946
30
0.0000000000
10
11.3503751827
20
10.1625684538
30
0.0000000000
10
11.3650572499
20
10.1190972001
30
0.0000000000
10
11.3879215744
20
10.0793152656
30
0.0000000000
10
11.4180933032
20
10.0447448188
30
0.0000000000
10
11.4544179811
20
10.0167086220
30
0.0000000000
10
11.4955057240
20
9.9962794188
30
0.0000000000
10
11.5397843995
20
9.9842388879
30
0.0000000000
10
11.5855597813
20
9.9810477337
30
0.0000000000
10
11.6310803747
20
9.9868280589
30
0.0000000000
10
11.6746044340
20
10.0013586918
30
0.0000000000
10
11.7144666067
20
10.0240836498
30
0.0000000000
10
11.7491416540
20
10.0541334121
30
0.0000000000
10
11.7773028114
20
10.0903581905
30
0.0000000000
10
11.7978725538
20
10.1313719233
30
0.0000000000
10
11.8100638253
20
10.1756053099
30
0.0000000000
10
11.8134101536
20
10.2213658569
30
0.0000000000
10
11.8077834987
20
10.2669026372
30
0.0000000000
10
11.7933991522
20
10.3104732858
30
0.0000000000
10
11.7708074998
20
10.3504106675
30
0.0000000000
10
11.7408729609
20
10.3851866657
30
0.0000000000
10
11.7047409171
20
10.4134706537
30
0.0000000000
10
11.6637938738
20
10.4341804049
30
0.0000000000
10
11.6195986103
20
10.4465235129
30
0.0000000000
10
11.5738460467
20
10.4500276703
30
0.0000000000
10
11.5434735045
20
10.4463818187
30
0.0000000000
10
11.5286097930
20
10.4430982200
30
0.0000000000
11
11.5255009035
21
10.4423890867
31
0.0000000000
11
11.4823541933
21
10.4276556544
31
0.0000000000
11
11.4429016301
21
10.4048052287
31
0.0000000000
11
11.4086527799
21
10.3747121311
31
0.0000000000
11
11.3809180997
21
10.3385278080
31
0.0000000000
11
11.3607587964
21
10.2976367732
31
0.0000000000
11
11.3489462213
21
10.2536036323
31
0.0000000000
11
11.3459323568
21
10.2081132170
31
0.0000000000
11
11.3518325218
21
10.1629061183
31
0.0000000000
11
11.3664209594
21
10.1197120866
31
0.0000000000
11
11.3891394751
21
10.0801838469
31
0.0000000000
11
11.4191187947
21
10.0458338605
31
0.0000000000
11
11.4552118252
21
10.0179764543
31
0.0000000000
11
11.4960375461
21
9.9976775309
31
0.0000000000
11
11.5400338505
21
9.9857137840
31
0.0000000000
11
11.5855173165
21
9.9825429803
31
0.0000000000
11
11.6307476190
21
9.9882864435
31
0.0000000000
11
11.6739941196
21
10.0027244127
31
0.0000000000
11
11.7136020858
21
10.0253044505
31
0.0000000000
11
11.7480560057
21
10.0551625815
31
0.0000000000
11
11.7760375756
21
10.0911563496
31
0.0000000000
11
11.7964761420
21
10.1319085323
31
0.0000000000
11
11.8085896681
21
10.1758598366
31
0.0000000000
11
11.8119146564
21
10.2213285624
31
0.0000000000
11
11.8063238834
21
10.2665749486
31
0.0000000000
11
11.7920312679
21
10.3098677413
31
0.0000000000
11
11.7695836854
21
10.3495504369
31
0.0000000000
11
11.7398400434
21
10.3841046640
31
0.0000000000
11
11.7039384172
21
10.4122082809
31
0.0000000000
11
11.6632525037
21
10.4327859644
31
0.0000000000
11
11.6193390603
21
10.4450503545
31
0.0000000000
11
11.5738783384
21
10.4485321811
31
0.0000000000
11
11.5286097930
21
10.4430982200
31
0.0000000000
0
ENDSEC
0
SECTION
2
OBJECTS
0
DICTIONARY
5
37F
100
AcDbDictionary
3
ACAD_GROUP
350
380
3
ACAD_MLINESTYLE
350
381
0
DICTIONARY
5
380
102
{ACAD_REACTORS
330
37F
102
}
100
AcDbDictionary
0
DICTIONARY
5
381
102
{ACAD_REACTORS
330
37F
102
}
100
AcDbDictionary
3
STANDARD
350
382
0
MLINESTYLE
5
382
102
{ACAD_REACTORS
330
381
102
}
100
AcDbMlineStyle
2
STANDARD
70
0
3

62
256
51
90.0
52
90.0
71
2
49
0.5
62
256
6
BYLAYER
49
-0.5
62
256
6
BYLAYER
0
ENDSEC
0
EOF
