999
DXF file: 1022025-7.dxf
999
Pro/ENGINEER 2007160 by Parametric Technology Corporation
  0
SECTION
  2
HEADER
  9
$EXTMAX
 10
44.0
 20
34.0
 30
0.0
  9
$EXTMIN
 10
0.0
 20
0.0
 30
0.0
  9
$LIMMIN
 10
0.0
 20
0.0
  9
$LIMMAX
 10
44.0
 20
34.0
  9
$VIEWCTR
 10
22.0
 20
17.0
  9
$VIEWSIZE
 40
34.0
  9
$CLAYER
  8
0
  9
$LTSCALE
 40
2.42
  9
$CELTYPE
  6
BYLAYER
  9
$DIMSCALE
 40
1.0
  9
$DIMASZ
 40
0.1875
  9
$DIMEXO
 40
0.275
  9
$DIMDLI
 40
1.672
  9
$DIMEXE
 40
0.792
  9
$DIMCEN
 40
0.396
  9
$DIMLFAC
 40
1.0
  9
$DIMBLK
  1
_FILLED
  9
$DIMTXT
 40
0.15625
  9
$PDMODE
 70
3
  9
$PDSIZE
 40
0.3125
  0
ENDSEC
  0
SECTION
  2
TABLES
  0
TABLE
  2
LTYPE
 70
6
  0
LTYPE
  2
BYBLOCK
 70
0
  3

 72
65
 73
0
 40
0.0
  0
LTYPE
  2
BYLAYER
 70
0
  3

 72
65
 73
0
 40
0.0
  0
LTYPE
  2
CONTINUOUS
 70
64
  3
Solid line
 72
65
 73
0
 40
0.0
  0
LTYPE
  2
CENTER
 70
64
  3
____ _ ____ _ ____ _ ____ _ ____ _ ____ _ ____
 72
65
 73
4
 40
0.6
 49
0.375
 49
-0.075
 49
0.075
 49
-0.075
  0
LTYPE
  2
HIDDEN
 70
64
  3
- - - - - - - - - - - - - - - - - - - -
 72
65
 73
2
 40
0.2
 49
0.1
 49
-0.1
  0
LTYPE
  2
PHANTOM
 70
64
  3
_____ _ _ _____ _ _ _____ _ _ _____
 72
65
 73
6
 40
0.8
 49
0.45
 49
-0.05
 49
0.1
 49
-0.05
 49
0.1
 49
-0.05
  0
LTYPE
  2
DOT
 70
64
  3
. . . . . . . . . . . . . . . . . . . .
 72
65
 73
2
 40
0.2
 49
0.1
 49
-0.1
  0
LTYPE
  2
DASHED
 70
64
  3
- - - - - - - - - - - - - - - - - - - -
 72
65
 73
2
 40
0.2
 49
0.1
 49
-0.1
  0
ENDTAB
  0
TABLE
  2
LAYER
 70
36
  0
LAYER
  2
0
 70
0
 62
7
  6
CONTINUOUS
  0
LAYER
  2
DEFAULT_1
 70
0
 62
7
  6
CENTER
  0
LAYER
  2
DEFAULT_2
 70
0
 62
8
  6
HIDDEN
  0
LAYER
  2
DEFAULT_3
 70
0
 62
7
  6
PHANTOM
  0
LAYER
  2
_2D_DELETED_OBJS
 70
0
 62
7
  6
CONTINUOUS
  0
LAYER
  2
DATUMS
 70
0
 62
7
  6
CONTINUOUS
  0
LAYER
  2
DATUM_AXIS
 70
0
 62
7
  6
CONTINUOUS
  0
LAYER
  2
DATUM_CSYS
 70
0
 62
7
  6
CONTINUOUS
  0
LAYER
  2
DATUM_PLANE
 70
0
 62
7
  6
CONTINUOUS
  0
LAYER
  2
DATUM_POINT
 70
0
 62
7
  6
CONTINUOUS
  0
LAYER
  2
_CURVE
 70
0
 62
7
  6
CONTINUOUS
  0
LAYER
  2
_SURFACE
 70
0
 62
7
  6
CONTINUOUS
  0
LAYER
  2
__REF_CURVE
 70
0
 62
7
  6
CONTINUOUS
  0
LAYER
  2
__REF_SURFACE
 70
0
 62
7
  6
CONTINUOUS
  0
LAYER
  2
___NOTE
 70
0
 62
7
  6
CONTINUOUS
  0
LAYER
  2
___SYMBOL
 70
0
 62
7
  6
CONTINUOUS
  0
ENDTAB
  0
TABLE
  2
STYLE
 70
1
  0
STYLE
  2
STANDARD
 70
0
 40
0.0
 41
0.8
 50
0.0
 71
0
 42
0.2
  3
txt
  4

  0
ENDTAB
  0
ENDSEC
  0
SECTION
  2
BLOCKS
  0
BLOCK
  8
0
 62
2
  6
CONTINUOUS
  2
*D0
 70
65
 10
0.0
 20
0.0
  0
TEXT
  8
0
 62
2
  6
CONTINUOUS
 10
22.7515769311
 20
17.8443167326
  7
STANDARD
 40
0.15625
  1
"
 41
0.8
 72
0
  0
TEXT
  8
0
 62
2
  6
CONTINUOUS
 10
22.0015769311
 20
17.6099417326
  7
STANDARD
 40
0.15625
  1
[78,4 cm]
 41
0.8
 72
0
  0
TEXT
  8
0
 62
2
  6
CONTINUOUS
 10
22.0015769311
 20
17.8443167326
  7
STANDARD
 40
0.15625
  1
30-7/8
 41
0.8
 72
0
  0
LINE
  8
0
 62
2
  6
CONTINUOUS
 10
6.1934364098
 20
17.3064822161
 11
6.1934364098
 21
18.0474417326
  0
LINE
  8
0
 62
2
  6
CONTINUOUS
 10
37.0684364098
 20
17.3064822161
 11
37.0684364098
 21
18.0474417326
  0
LINE
  8
0
 62
2
  6
CONTINUOUS
 10
6.1934364098
 20
17.9224417326
 11
21.9234519311
 21
17.9224417326
  0
LINE
  8
0
 62
2
  6
CONTINUOUS
 10
37.0684364098
 20
17.9224417326
 11
23.2047019311
 21
17.9224417326
  0
INSERT
  8
0
 62
2
  6
CONTINUOUS
  2
_FILLED
 10
6.1934364098
 20
17.9224417326
 41
0.1875
 42
0.1875
 43
0.1875
 50
180.0
  0
INSERT
  8
0
 62
2
  6
CONTINUOUS
  2
_FILLED
 10
37.0684364098
 20
17.9224417326
 41
0.1875
 42
0.1875
 43
0.1875
  0
ENDBLK
  8
0
  6
BYBLOCK
 62
0
  0
BLOCK
  8
0
 62
2
  6
CONTINUOUS
  2
*D1
 70
65
 10
0.0
 20
0.0
  0
TEXT
  8
0
 62
2
  6
CONTINUOUS
 10
21.7240175438
 20
16.6210056876
  7
STANDARD
 40
0.15625
  1
"
 41
0.8
 72
0
  0
TEXT
  8
0
 62
2
  6
CONTINUOUS
 10
21.0990175438
 20
16.3866306876
  7
STANDARD
 40
0.15625
  1
[15,6 cm]
 41
0.8
 72
0
  0
TEXT
  8
0
 62
2
  6
CONTINUOUS
 10
21.0990175438
 20
16.6210056876
  7
STANDARD
 40
0.15625
  1
6-1/8
 41
0.8
 72
0
  0
LINE
  8
0
 62
2
  6
CONTINUOUS
 10
21.9767759076
 20
20.9995938867
 11
21.3490175438
 21
20.9995938867
  0
LINE
  8
0
 62
2
  6
CONTINUOUS
 10
21.9767759076
 20
14.8745938867
 11
21.3490175438
 21
14.8745938867
  0
LINE
  8
0
 62
2
  6
CONTINUOUS
 10
21.4740175438
 20
20.9995938867
 11
21.4740175438
 21
16.8553806876
  0
LINE
  8
0
 62
2
  6
CONTINUOUS
 10
21.4740175438
 20
14.8745938867
 11
21.4740175438
 21
16.3085056876
  0
INSERT
  8
0
 62
2
  6
CONTINUOUS
  2
_FILLED
 10
21.4740175438
 20
20.9995938867
 41
0.1875
 42
0.1875
 43
0.1875
 50
90.0
  0
INSERT
  8
0
 62
2
  6
CONTINUOUS
  2
_FILLED
 10
21.4740175438
 20
14.8745938867
 41
0.1875
 42
0.1875
 43
0.1875
 50
270.0
  0
ENDBLK
  8
0
  6
BYBLOCK
 62
0
  0
BLOCK
  8
___SYMBOL
 62
2
  6
CONTINUOUS
  2
COPYRIGHT_YEAR_BL0
 70
64
 10
36.2450218254
 20
15.1655988259
  0
TEXT
  8
___SYMBOL
 62
2
  6
CONTINUOUS
 10
35.8713315219
 20
15.1303253259
  7
STANDARD
 40
0.0704997506
  1
2004
 41
0.8
 72
0
  0
TEXT
  8
___SYMBOL
 62
2
  6
CONTINUOUS
 10
36.0969307238
 20
15.1303253259
  7
STANDARD
 40
0.0704997506
  1
 KOHLER CO.
 41
0.8
 72
0
  0
TEXT
  8
___SYMBOL
 62
7
  6
CONTINUOUS
 10
35.791306056
 20
15.1468102678
  7
STANDARD
 40
0.0421873503
  1
C
 41
1.0
 72
0
  0
CIRCLE
  8
___SYMBOL
 62
7
  6
CONTINUOUS
 10
35.8055410055
 20
15.1680464424
 40
0.0328258835
  0
ENDBLK
  8
0
  6
BYBLOCK
 62
0
  0
BLOCK
  8
___SYMBOL
 62
2
  6
CONTINUOUS
  2
CUT-OUT_TEMPLATE_SKU_SIN_BL1
 70
64
 10
14.8973372755
 20
25.1938284185
  0
TEXT
  8
___SYMBOL
 62
2
  6
CONTINUOUS
 10
11.691899352
 20
26.8546409759
  7
STANDARD
 40
0.2500000089
  1
CUT-OUT TEMPLATE
 41
0.8
 72
0
  0
TEXT
  8
___SYMBOL
 62
2
  6
CONTINUOUS
 10
11.691899352
 20
26.4796409626
  7
STANDARD
 40
0.2500000089
  1
UNDERCOUNTER SINK
 41
0.8
 72
0
  0
TEXT
  8
___SYMBOL
 62
2
  6
CONTINUOUS
 10
11.691899352
 20
26.1046409493
  7
STANDARD
 40
0.2500000089
  1
PLANTILLA DE RECORTE
 41
0.8
 72
0
  0
TEXT
  8
___SYMBOL
 62
2
  6
CONTINUOUS
 10
11.691899352
 20
25.7296409359
  7
STANDARD
 40
0.2500000089
  1
FREGADERO MONTADO DEBAJO
 41
0.8
 72
0
  0
TEXT
  8
___SYMBOL
 62
2
  6
CONTINUOUS
 10
11.691899352
 20
25.3546409226
  7
STANDARD
 40
0.2500000089
  1
  DEL MOSTRADOR
 41
0.8
 72
0
  0
TEXT
  8
___SYMBOL
 62
2
  6
CONTINUOUS
 10
11.691899352
 20
24.9796409093
  7
STANDARD
 40
0.2500000089
  1
PLAN DE DÉCOUPE
 41
0.8
 72
0
  0
TEXT
  8
___SYMBOL
 62
2
  6
CONTINUOUS
 10
11.691899352
 20
24.6046408959
  7
STANDARD
 40
0.2500000089
  1
ÉVIER SOUS-COMPTOIR
 41
0.8
 72
0
  0
TEXT
  8
___SYMBOL
 62
2
  6
CONTINUOUS
 10
11.691899352
 20
24.2296408826
  7
STANDARD
 40
0.2500000089
  1
UNDERTONE
 41
0.8
 72
0
  0
TEXT
  8
___SYMBOL
 62
2
  6
CONTINUOUS
 10
13.491899416
 20
24.2296408826
  7
STANDARD
 40
0.2500000089
  1
   
 41
0.8
 72
0
  0
TEXT
  8
___SYMBOL
 62
2
  6
CONTINUOUS
 10
14.0918994373
 20
24.2296408826
  7
STANDARD
 40
0.2500000089
  1
3187
 41
0.8
 72
0
  0
TEXT
  8
___SYMBOL
 62
2
  6
CONTINUOUS
 10
14.8918994658
 20
24.2296408826
  7
STANDARD
 40
0.2500000089
  1
-**-
 41
0.8
 72
0
  0
TEXT
  8
___SYMBOL
 62
2
  6
CONTINUOUS
 10
15.6918994942
 20
24.2296408826
  7
STANDARD
 40
0.2500000089
  1
AA
 41
0.8
 72
0
  0
LINE
  8
___SYMBOL
 62
2
  6
CONTINUOUS
 10
12.2184711469
 20
27.9065542511
 11
12.0051676875
 21
27.6529059692
  0
LINE
  8
___SYMBOL
 62
2
  6
CONTINUOUS
 10
12.026409328
 20
27.9065542511
 11
12.2184711469
 21
27.9065542511
  0
LINE
  8
___SYMBOL
 62
2
  6
CONTINUOUS
 10
12.026409328
 20
27.9065542511
 11
11.8886451564
 21
27.7427330556
  0
LINE
  8
___SYMBOL
 62
2
  6
CONTINUOUS
 10
11.8886451564
 20
27.9065542511
 11
11.8886451564
 21
27.7427330556
  0
LINE
  8
___SYMBOL
 62
2
  6
CONTINUOUS
 10
11.7141449233
 20
27.9065542511
 11
11.8886451564
 21
27.9065542511
  0
LINE
  8
___SYMBOL
 62
2
  6
CONTINUOUS
 10
11.7141449233
 20
27.9065542511
 11
11.7141449233
 21
27.3206165775
  0
LINE
  8
___SYMBOL
 62
2
  6
CONTINUOUS
 10
11.8886451564
 20
27.320640581
 11
11.7141449233
 21
27.3206165775
  0
LINE
  8
___SYMBOL
 62
2
  6
CONTINUOUS
 10
11.8886451564
 20
27.5221404221
 11
11.8886451564
 21
27.320640581
  0
LINE
  8
___SYMBOL
 62
2
  6
CONTINUOUS
 10
12.0423831019
 20
27.320640581
 11
11.8886451564
 21
27.5221404221
  0
LINE
  8
___SYMBOL
 62
2
  6
CONTINUOUS
 10
12.0423831019
 20
27.320640581
 11
12.2586755312
 21
27.320640581
  0
LINE
  8
___SYMBOL
 62
2
  6
CONTINUOUS
 10
12.2586755312
 20
27.320640581
 11
12.0051676875
 21
27.6529059692
  0
SOLID
  8
___SYMBOL
 62
2
  6
CONTINUOUS
 10
11.8886451564
 20
27.7427330556
 11
12.026409328
 21
27.9065542511
 12
12.2184711469
 22
27.9065542511
 13
12.2184711469
 23
27.9065542511
  0
SOLID
  8
___SYMBOL
 62
2
  6
CONTINUOUS
 10
12.2184711469
 20
27.9065542511
 11
12.0051676875
 21
27.6529059692
 12
11.8886451564
 22
27.7427330556
 13
11.8886451564
 23
27.7427330556
  0
SOLID
  8
___SYMBOL
 62
2
  6
CONTINUOUS
 10
11.8886451564
 20
27.5221404221
 11
12.0051676875
 21
27.6529059692
 12
12.0423831019
 22
27.320640581
 13
12.0423831019
 23
27.320640581
  0
SOLID
  8
___SYMBOL
 62
2
  6
CONTINUOUS
 10
12.0051676875
 20
27.6529059692
 11
12.2586755312
 21
27.320640581
 12
12.0423831019
 22
27.320640581
 13
12.0423831019
 23
27.320640581
  0
SOLID
  8
___SYMBOL
 62
2
  6
CONTINUOUS
 10
11.8886451564
 20
27.320640581
 11
11.7141449233
 21
27.3206165775
 12
11.8886451564
 22
27.5221404221
 13
11.8886451564
 23
27.5221404221
  0
SOLID
  8
___SYMBOL
 62
2
  6
CONTINUOUS
 10
12.0051676875
 20
27.6529059692
 11
11.8886451564
 21
27.5221404221
 12
11.8886451564
 22
27.7427330556
 13
11.8886451564
 23
27.7427330556
  0
SOLID
  8
___SYMBOL
 62
2
  6
CONTINUOUS
 10
11.8886451564
 20
27.5221404221
 11
11.7141449233
 21
27.3206165775
 12
11.8886451564
 22
27.7427330556
 13
11.8886451564
 23
27.7427330556
  0
SOLID
  8
___SYMBOL
 62
2
  6
CONTINUOUS
 10
11.8886451564
 20
27.7427330556
 11
11.7141449233
 21
27.3206165775
 12
11.8886451564
 22
27.9065542511
 13
11.8886451564
 23
27.9065542511
  0
SOLID
  8
___SYMBOL
 62
2
  6
CONTINUOUS
 10
11.7141449233
 20
27.3206165775
 11
11.7141449233
 21
27.9065542511
 12
11.8886451564
 22
27.9065542511
 13
11.8886451564
 23
27.9065542511
  0
CIRCLE
  8
___SYMBOL
 62
2
  6
CONTINUOUS
 10
12.4351843741
 20
27.6124761642
 40
0.2980566016
  0
CIRCLE
  8
___SYMBOL
 62
2
  6
CONTINUOUS
 10
12.4351843741
 20
27.6124761642
 40
0.1247694195
  0
SOLID
  8
___SYMBOL
 62
2
  6
CONTINUOUS
 10
12.3430798189
 20
27.8959448373
 11
12.4040289756
 21
27.9088999805
 12
12.4663397726
 22
27.9088999805
 13
12.4663397726
 23
27.9088999805
  0
SOLID
  8
___SYMBOL
 62
2
  6
CONTINUOUS
 10
12.4663397726
 20
27.9088999805
 11
12.5272889293
 21
27.8959448373
 12
12.3430798189
 22
27.8959448373
 13
12.3430798189
 23
27.8959448373
  0
SOLID
  8
___SYMBOL
 62
2
  6
CONTINUOUS
 10
12.2861560733
 20
27.8706007529
 11
12.3430798189
 21
27.8959448373
 12
12.5272889293
 22
27.8959448373
 13
12.5272889293
 23
27.8959448373
  0
SOLID
  8
___SYMBOL
 62
2
  6
CONTINUOUS
 10
12.5272889293
 20
27.8959448373
 11
12.5842126749
 21
27.8706007529
 12
12.2861560733
 22
27.8706007529
 13
12.2861560733
 23
27.8706007529
  0
SOLID
  8
___SYMBOL
 62
2
  6
CONTINUOUS
 10
12.2357455796
 20
27.8339753853
 11
12.2861560733
 21
27.8706007529
 12
12.5842126749
 22
27.8706007529
 13
12.5842126749
 23
27.8706007529
  0
SOLID
  8
___SYMBOL
 62
2
  6
CONTINUOUS
 10
12.5842126749
 20
27.8706007529
 11
12.6346231687
 21
27.8339753853
 12
12.2357455796
 22
27.8339753853
 13
12.2357455796
 23
27.8339753853
  0
SOLID
  8
___SYMBOL
 62
2
  6
CONTINUOUS
 10
12.1940515181
 20
27.7876694389
 11
12.2357455796
 21
27.8339753853
 12
12.6346231687
 22
27.8339753853
 13
12.6346231687
 23
27.8339753853
  0
SOLID
  8
___SYMBOL
 62
2
  6
CONTINUOUS
 10
12.6346231687
 20
27.8339753853
 11
12.6763172301
 21
27.7876694389
 12
12.1940515181
 22
27.7876694389
 13
12.1940515181
 23
27.7876694389
  0
SOLID
  8
___SYMBOL
 62
2
  6
CONTINUOUS
 10
12.4351843741
 20
27.7372455837
 11
12.1628961196
 21
27.7337067057
 12
12.6763172301
 22
27.7876694389
 13
12.6763172301
 23
27.7876694389
  0
SOLID
  8
___SYMBOL
 62
2
  6
CONTINUOUS
 10
12.1628961196
 20
27.7337067057
 11
12.1940515181
 21
27.7876694389
 12
12.6763172301
 22
27.7876694389
 13
12.6763172301
 23
27.7876694389
  0
SOLID
  8
___SYMBOL
 62
2
  6
CONTINUOUS
 10
12.6763172301
 20
27.7876694389
 11
12.7074726286
 21
27.7337067057
 12
12.4351843741
 22
27.7372455837
 13
12.4351843741
 23
27.7372455837
  0
SOLID
  8
___SYMBOL
 62
2
  6
CONTINUOUS
 10
12.4351843741
 20
27.7372455837
 11
12.3966285031
 21
27.7311389336
 12
12.1628961196
 22
27.7337067057
 13
12.1628961196
 23
27.7337067057
  0
SOLID
  8
___SYMBOL
 62
2
  6
CONTINUOUS
 10
12.4737402451
 20
27.7311389336
 11
12.4351843741
 21
27.7372455837
 12
12.7074726286
 22
27.7337067057
 13
12.7074726286
 23
27.7337067057
  0
SOLID
  8
___SYMBOL
 62
2
  6
CONTINUOUS
 10
12.3342437934
 20
27.6858137889
 11
12.1436410244
 21
27.6744456161
 12
12.3618467494
 22
27.7134167449
 13
12.3618467494
 23
27.7134167449
  0
SOLID
  8
___SYMBOL
 62
2
  6
CONTINUOUS
 10
12.3618467494
 20
27.7134167449
 11
12.1436410244
 21
27.6744456161
 12
12.3966285031
 22
27.7311389336
 13
12.3966285031
 23
27.7311389336
  0
SOLID
  8
___SYMBOL
 62
2
  6
CONTINUOUS
 10
12.1436410244
 20
27.6744456161
 11
12.1628961196
 21
27.7337067057
 12
12.3966285031
 22
27.7311389336
 13
12.3966285031
 23
27.7311389336
  0
SOLID
  8
___SYMBOL
 62
2
  6
CONTINUOUS
 10
12.4737402451
 20
27.7311389336
 11
12.7074726286
 21
27.7337067057
 12
12.5085219988
 22
27.7134167449
 13
12.5085219988
 23
27.7134167449
  0
SOLID
  8
___SYMBOL
 62
2
  6
CONTINUOUS
 10
12.5085219988
 20
27.7134167449
 11
12.7074726286
 21
27.7337067057
 12
12.5361249549
 22
27.6858137889
 13
12.5361249549
 23
27.6858137889
  0
SOLID
  8
___SYMBOL
 62
2
  6
CONTINUOUS
 10
12.7074726286
 20
27.7337067057
 11
12.7267277238
 21
27.6744456161
 12
12.5361249549
 22
27.6858137889
 13
12.5361249549
 23
27.6858137889
  0
SOLID
  8
___SYMBOL
 62
2
  6
CONTINUOUS
 10
12.3342437934
 20
27.6858137889
 11
12.3165216047
 21
27.6510320352
 12
12.1436410244
 22
27.6744456161
 13
12.1436410244
 23
27.6744456161
  0
SOLID
  8
___SYMBOL
 62
2
  6
CONTINUOUS
 10
12.5538471436
 20
27.6510320352
 11
12.5361249549
 21
27.6858137889
 12
12.7267277238
 22
27.6744456161
 13
12.7267277238
 23
27.6744456161
  0
SOLID
  8
___SYMBOL
 62
2
  6
CONTINUOUS
 10
12.1371277725
 20
27.6124761642
 11
12.1436410244
 21
27.6744456161
 12
12.3165216047
 22
27.6510320352
 13
12.3165216047
 23
27.6510320352
  0
SOLID
  8
___SYMBOL
 62
2
  6
CONTINUOUS
 10
12.3165216047
 20
27.6510320352
 11
12.3104149546
 21
27.6124761642
 12
12.1371277725
 22
27.6124761642
 13
12.1371277725
 23
27.6124761642
  0
SOLID
  8
___SYMBOL
 62
2
  6
CONTINUOUS
 10
12.5538471436
 20
27.6510320352
 11
12.7267277238
 21
27.6744456161
 12
12.5599537936
 22
27.6124761642
 13
12.5599537936
 23
27.6124761642
  0
SOLID
  8
___SYMBOL
 62
2
  6
CONTINUOUS
 10
12.7267277238
 20
27.6744456161
 11
12.7332409757
 21
27.6124761642
 12
12.5599537936
 22
27.6124761642
 13
12.5599537936
 23
27.6124761642
  0
SOLID
  8
___SYMBOL
 62
2
  6
CONTINUOUS
 10
12.5538471436
 20
27.5739202931
 11
12.5599537936
 21
27.6124761642
 12
12.7332409757
 22
27.6124761642
 13
12.7332409757
 23
27.6124761642
  0
SOLID
  8
___SYMBOL
 62
2
  6
CONTINUOUS
 10
12.3165216047
 20
27.5739202931
 11
12.1436410244
 21
27.5505067122
 12
12.3104149546
 22
27.6124761642
 13
12.3104149546
 23
27.6124761642
  0
SOLID
  8
___SYMBOL
 62
2
  6
CONTINUOUS
 10
12.1436410244
 20
27.5505067122
 11
12.1371277725
 21
27.6124761642
 12
12.3104149546
 22
27.6124761642
 13
12.3104149546
 23
27.6124761642
  0
SOLID
  8
___SYMBOL
 62
2
  6
CONTINUOUS
 10
12.7332409757
 20
27.6124761642
 11
12.7267277238
 21
27.5505067122
 12
12.5538471436
 22
27.5739202931
 13
12.5538471436
 23
27.5739202931
  0
SOLID
  8
___SYMBOL
 62
2
  6
CONTINUOUS
 10
12.3165216047
 20
27.5739202931
 11
12.3342437934
 21
27.5391385394
 12
12.1436410244
 22
27.5505067122
 13
12.1436410244
 23
27.5505067122
  0
SOLID
  8
___SYMBOL
 62
2
  6
CONTINUOUS
 10
12.5361249549
 20
27.5391385394
 11
12.5538471436
 21
27.5739202931
 12
12.7267277238
 22
27.5505067122
 13
12.7267277238
 23
27.5505067122
  0
SOLID
  8
___SYMBOL
 62
2
  6
CONTINUOUS
 10
12.3966285031
 20
27.4938133947
 11
12.1628961196
 21
27.4912456226
 12
12.3618467494
 22
27.5115355834
 13
12.3618467494
 23
27.5115355834
  0
SOLID
  8
___SYMBOL
 62
2
  6
CONTINUOUS
 10
12.3618467494
 20
27.5115355834
 11
12.1628961196
 21
27.4912456226
 12
12.3342437934
 22
27.5391385394
 13
12.3342437934
 23
27.5391385394
  0
SOLID
  8
___SYMBOL
 62
2
  6
CONTINUOUS
 10
12.1628961196
 20
27.4912456226
 11
12.1436410244
 21
27.5505067122
 12
12.3342437934
 22
27.5391385394
 13
12.3342437934
 23
27.5391385394
  0
SOLID
  8
___SYMBOL
 62
2
  6
CONTINUOUS
 10
12.5361249549
 20
27.5391385394
 11
12.7267277238
 21
27.5505067122
 12
12.5085219988
 22
27.5115355834
 13
12.5085219988
 23
27.5115355834
  0
SOLID
  8
___SYMBOL
 62
2
  6
CONTINUOUS
 10
12.5085219988
 20
27.5115355834
 11
12.7267277238
 21
27.5505067122
 12
12.4737402451
 22
27.4938133947
 13
12.4737402451
 23
27.4938133947
  0
SOLID
  8
___SYMBOL
 62
2
  6
CONTINUOUS
 10
12.7267277238
 20
27.5505067122
 11
12.7074726286
 21
27.4912456226
 12
12.4737402451
 22
27.4938133947
 13
12.4737402451
 23
27.4938133947
  0
SOLID
  8
___SYMBOL
 62
2
  6
CONTINUOUS
 10
12.3966285031
 20
27.4938133947
 11
12.4351843741
 21
27.4877067446
 12
12.1628961196
 22
27.4912456226
 13
12.1628961196
 23
27.4912456226
  0
SOLID
  8
___SYMBOL
 62
2
  6
CONTINUOUS
 10
12.4351843741
 20
27.4877067446
 11
12.4737402451
 21
27.4938133947
 12
12.7074726286
 22
27.4912456226
 13
12.7074726286
 23
27.4912456226
  0
SOLID
  8
___SYMBOL
 62
2
  6
CONTINUOUS
 10
12.1940515181
 20
27.4372828894
 11
12.1628961196
 21
27.4912456226
 12
12.4351843741
 22
27.4877067446
 13
12.4351843741
 23
27.4877067446
  0
SOLID
  8
___SYMBOL
 62
2
  6
CONTINUOUS
 10
12.4351843741
 20
27.4877067446
 11
12.7074726286
 21
27.4912456226
 12
12.1940515181
 22
27.4372828894
 13
12.1940515181
 23
27.4372828894
  0
SOLID
  8
___SYMBOL
 62
2
  6
CONTINUOUS
 10
12.7074726286
 20
27.4912456226
 11
12.6763172301
 21
27.4372828894
 12
12.1940515181
 22
27.4372828894
 13
12.1940515181
 23
27.4372828894
  0
SOLID
  8
___SYMBOL
 62
2
  6
CONTINUOUS
 10
12.2357455796
 20
27.390976943
 11
12.1940515181
 21
27.4372828894
 12
12.6763172301
 22
27.4372828894
 13
12.6763172301
 23
27.4372828894
  0
SOLID
  8
___SYMBOL
 62
2
  6
CONTINUOUS
 10
12.6763172301
 20
27.4372828894
 11
12.6346231687
 21
27.390976943
 12
12.2357455796
 22
27.390976943
 13
12.2357455796
 23
27.390976943
  0
SOLID
  8
___SYMBOL
 62
2
  6
CONTINUOUS
 10
12.2861560733
 20
27.3543515754
 11
12.2357455796
 21
27.390976943
 12
12.6346231687
 22
27.390976943
 13
12.6346231687
 23
27.390976943
  0
SOLID
  8
___SYMBOL
 62
2
  6
CONTINUOUS
 10
12.6346231687
 20
27.390976943
 11
12.5842126749
 21
27.3543515754
 12
12.2861560733
 22
27.3543515754
 13
12.2861560733
 23
27.3543515754
  0
SOLID
  8
___SYMBOL
 62
2
  6
CONTINUOUS
 10
12.3430798189
 20
27.329007491
 11
12.2861560733
 21
27.3543515754
 12
12.5842126749
 22
27.3543515754
 13
12.5842126749
 23
27.3543515754
  0
SOLID
  8
___SYMBOL
 62
2
  6
CONTINUOUS
 10
12.5842126749
 20
27.3543515754
 11
12.5272889293
 21
27.329007491
 12
12.3430798189
 22
27.329007491
 13
12.3430798189
 23
27.329007491
  0
SOLID
  8
___SYMBOL
 62
2
  6
CONTINUOUS
 10
12.4040289756
 20
27.3160523478
 11
12.3430798189
 21
27.329007491
 12
12.5272889293
 22
27.329007491
 13
12.5272889293
 23
27.329007491
  0
SOLID
  8
___SYMBOL
 62
2
  6
CONTINUOUS
 10
12.5272889293
 20
27.329007491
 11
12.4663397726
 21
27.3160523478
 12
12.4040289756
 22
27.3160523478
 13
12.4040289756
 23
27.3160523478
  0
LINE
  8
___SYMBOL
 62
2
  6
CONTINUOUS
 10
13.2278204115
 20
27.9065542511
 11
13.2278204115
 21
27.320640581
  0
LINE
  8
___SYMBOL
 62
2
  6
CONTINUOUS
 10
13.2278204115
 20
27.320640581
 11
13.0630867258
 21
27.320640581
  0
LINE
  8
___SYMBOL
 62
2
  6
CONTINUOUS
 10
13.0630867258
 20
27.5489651989
 11
13.0630867258
 21
27.320640581
  0
LINE
  8
___SYMBOL
 62
2
  6
CONTINUOUS
 10
12.9150899094
 20
27.5489651989
 11
13.0630867258
 21
27.5489651989
  0
LINE
  8
___SYMBOL
 62
2
  6
CONTINUOUS
 10
12.9150899094
 20
27.5489651989
 11
12.9150899094
 21
27.320640581
  0
LINE
  8
___SYMBOL
 62
2
  6
CONTINUOUS
 10
12.9150899094
 20
27.320640581
 11
12.7503562237
 21
27.320640581
  0
LINE
  8
___SYMBOL
 62
2
  6
CONTINUOUS
 10
12.7503562237
 20
27.9065542511
 11
12.7503562237
 21
27.320640581
  0
LINE
  8
___SYMBOL
 62
2
  6
CONTINUOUS
 10
12.7503562237
 20
27.9065542511
 11
12.9150899094
 21
27.9065542511
  0
LINE
  8
___SYMBOL
 62
2
  6
CONTINUOUS
 10
12.9150899094
 20
27.9065542511
 11
12.9150899094
 21
27.6861704837
  0
LINE
  8
___SYMBOL
 62
2
  6
CONTINUOUS
 10
12.9150899094
 20
27.6861704837
 11
13.0630867258
 21
27.6861704837
  0
LINE
  8
___SYMBOL
 62
2
  6
CONTINUOUS
 10
13.0630867258
 20
27.9065542511
 11
13.0630867258
 21
27.6861704837
  0
LINE
  8
___SYMBOL
 62
2
  6
CONTINUOUS
 10
13.0630867258
 20
27.9065542511
 11
13.2278204115
 21
27.9065542511
  0
SOLID
  8
___SYMBOL
 62
2
  6
CONTINUOUS
 10
13.0630867258
 20
27.6861704837
 11
13.0630867258
 21
27.9065542511
 12
13.2278204115
 22
27.9065542511
 13
13.2278204115
 23
27.9065542511
  0
SOLID
  8
___SYMBOL
 62
2
  6
CONTINUOUS
 10
13.0630867258
 20
27.6861704837
 11
12.9150899094
 21
27.5489651989
 12
12.9150899094
 22
27.6861704837
 13
12.9150899094
 23
27.6861704837
  0
SOLID
  8
___SYMBOL
 62
2
  6
CONTINUOUS
 10
12.9150899094
 20
27.5489651989
 11
12.7503562237
 21
27.320640581
 12
12.9150899094
 22
27.6861704837
 13
12.9150899094
 23
27.6861704837
  0
SOLID
  8
___SYMBOL
 62
2
  6
CONTINUOUS
 10
12.9150899094
 20
27.6861704837
 11
12.7503562237
 21
27.320640581
 12
12.9150899094
 22
27.9065542511
 13
12.9150899094
 23
27.9065542511
  0
SOLID
  8
___SYMBOL
 62
2
  6
CONTINUOUS
 10
12.7503562237
 20
27.320640581
 11
12.7503562237
 21
27.9065542511
 12
12.9150899094
 22
27.9065542511
 13
12.9150899094
 23
27.9065542511
  0
SOLID
  8
___SYMBOL
 62
2
  6
CONTINUOUS
 10
12.9150899094
 20
27.5489651989
 11
12.9150899094
 21
27.320640581
 12
12.7503562237
 22
27.320640581
 13
12.7503562237
 23
27.320640581
  0
SOLID
  8
___SYMBOL
 62
2
  6
CONTINUOUS
 10
12.9150899094
 20
27.5489651989
 11
13.0630867258
 21
27.6861704837
 12
13.0630867258
 22
27.5489651989
 13
13.0630867258
 23
27.5489651989
  0
SOLID
  8
___SYMBOL
 62
2
  6
CONTINUOUS
 10
13.0630867258
 20
27.6861704837
 11
13.2278204115
 21
27.9065542511
 12
13.0630867258
 22
27.5489651989
 13
13.0630867258
 23
27.5489651989
  0
SOLID
  8
___SYMBOL
 62
2
  6
CONTINUOUS
 10
13.0630867258
 20
27.5489651989
 11
13.2278204115
 21
27.9065542511
 12
13.0630867258
 22
27.320640581
 13
13.0630867258
 23
27.320640581
  0
SOLID
  8
___SYMBOL
 62
2
  6
CONTINUOUS
 10
13.2278204115
 20
27.9065542511
 11
13.2278204115
 21
27.320640581
 12
13.0630867258
 22
27.320640581
 13
13.0630867258
 23
27.320640581
  0
LINE
  8
___SYMBOL
 62
2
  6
CONTINUOUS
 10
13.4229113254
 20
27.320640581
 11
13.5855954011
 21
27.320640581
  0
LINE
  8
___SYMBOL
 62
2
  6
CONTINUOUS
 10
13.4229113254
 20
27.320640581
 11
13.2728652573
 21
27.320640581
  0
LINE
  8
___SYMBOL
 62
2
  6
CONTINUOUS
 10
13.2728652573
 20
27.320640581
 11
13.2728652573
 21
27.9065542511
  0
LINE
  8
___SYMBOL
 62
2
  6
CONTINUOUS
 10
13.2728652573
 20
27.9065542511
 11
13.4229113254
 21
27.9065542511
  0
LINE
  8
___SYMBOL
 62
2
  6
CONTINUOUS
 10
13.4229113254
 20
27.9065542511
 11
13.4229113254
 21
27.4618673431
  0
LINE
  8
___SYMBOL
 62
2
  6
CONTINUOUS
 10
13.4229113254
 20
27.4618673431
 11
13.5855954011
 21
27.4618673431
  0
LINE
  8
___SYMBOL
 62
2
  6
CONTINUOUS
 10
13.5855954011
 20
27.4618673431
 11
13.5855954011
 21
27.320640581
  0
SOLID
  8
___SYMBOL
 62
2
  6
CONTINUOUS
 10
13.5855954011
 20
27.4618673431
 11
13.2728652573
 21
27.320640581
 12
13.4229113254
 22
27.4618673431
 13
13.4229113254
 23
27.4618673431
  0
SOLID
  8
___SYMBOL
 62
2
  6
CONTINUOUS
 10
13.4229113254
 20
27.4618673431
 11
13.2728652573
 21
27.320640581
 12
13.4229113254
 22
27.9065542511
 13
13.4229113254
 23
27.9065542511
  0
SOLID
  8
___SYMBOL
 62
2
  6
CONTINUOUS
 10
13.2728652573
 20
27.320640581
 11
13.2728652573
 21
27.9065542511
 12
13.4229113254
 22
27.9065542511
 13
13.4229113254
 23
27.9065542511
  0
SOLID
  8
___SYMBOL
 62
2
  6
CONTINUOUS
 10
13.2728652573
 20
27.320640581
 11
13.5855954011
 21
27.4618673431
 12
13.4229113254
 22
27.320640581
 13
13.4229113254
 23
27.320640581
  0
SOLID
  8
___SYMBOL
 62
2
  6
CONTINUOUS
 10
13.5855954011
 20
27.4618673431
 11
13.5855954011
 21
27.320640581
 12
13.4229113254
 22
27.320640581
 13
13.4229113254
 23
27.320640581
  0
LINE
  8
___SYMBOL
 62
2
  6
CONTINUOUS
 10
13.9238473272
 20
27.541788877
 11
13.9238473272
 21
27.6861704837
  0
LINE
  8
___SYMBOL
 62
2
  6
CONTINUOUS
 10
13.7729897984
 20
27.6861704837
 11
13.9238473272
 21
27.6861704837
  0
LINE
  8
___SYMBOL
 62
2
  6
CONTINUOUS
 10
13.7729897984
 20
27.7637948493
 11
13.7729897984
 21
27.6861704837
  0
LINE
  8
___SYMBOL
 62
2
  6
CONTINUOUS
 10
13.7729897984
 20
27.7637948493
 11
13.9238473272
 21
27.7637948493
  0
LINE
  8
___SYMBOL
 62
2
  6
CONTINUOUS
 10
13.9238473272
 20
27.7637948493
 11
13.9238473272
 21
27.9065542511
  0
LINE
  8
___SYMBOL
 62
2
  6
CONTINUOUS
 10
13.7871941223
 20
27.9065542511
 11
13.9238473272
 21
27.9065542511
  0
LINE
  8
___SYMBOL
 62
2
  6
CONTINUOUS
 10
13.6147431408
 20
27.9065542511
 11
13.7871941223
 21
27.9065542511
  0
LINE
  8
___SYMBOL
 62
2
  6
CONTINUOUS
 10
13.6147431408
 20
27.320640581
 11
13.6147431408
 21
27.9065542511
  0
LINE
  8
___SYMBOL
 62
2
  6
CONTINUOUS
 10
13.6147431408
 20
27.320640581
 11
13.9238473272
 21
27.320640581
  0
LINE
  8
___SYMBOL
 62
2
  6
CONTINUOUS
 10
13.9238473272
 20
27.320640581
 11
13.9238473272
 21
27.4618673431
  0
LINE
  8
___SYMBOL
 62
2
  6
CONTINUOUS
 10
13.7729897984
 20
27.4618673431
 11
13.9238473272
 21
27.4618673431
  0
LINE
  8
___SYMBOL
 62
2
  6
CONTINUOUS
 10
13.7729897984
 20
27.541788877
 11
13.7729897984
 21
27.4618673431
  0
LINE
  8
___SYMBOL
 62
2
  6
CONTINUOUS
 10
13.7729897984
 20
27.541788877
 11
13.9238473272
 21
27.541788877
  0
SOLID
  8
___SYMBOL
 62
2
  6
CONTINUOUS
 10
13.9238473272
 20
27.9065542511
 11
13.9238473272
 21
27.7637948493
 12
13.7729897984
 22
27.7637948493
 13
13.7729897984
 23
27.7637948493
  0
SOLID
  8
___SYMBOL
 62
2
  6
CONTINUOUS
 10
13.9238473272
 20
27.6861704837
 11
13.9238473272
 21
27.541788877
 12
13.7729897984
 22
27.541788877
 13
13.7729897984
 23
27.541788877
  0
SOLID
  8
___SYMBOL
 62
2
  6
CONTINUOUS
 10
13.9238473272
 20
27.4618673431
 11
13.6147431408
 21
27.320640581
 12
13.7729897984
 22
27.4618673431
 13
13.7729897984
 23
27.4618673431
  0
SOLID
  8
___SYMBOL
 62
2
  6
CONTINUOUS
 10
13.7729897984
 20
27.4618673431
 11
13.6147431408
 21
27.320640581
 12
13.7729897984
 22
27.541788877
 13
13.7729897984
 23
27.541788877
  0
SOLID
  8
___SYMBOL
 62
2
  6
CONTINUOUS
 10
13.9238473272
 20
27.6861704837
 11
13.7729897984
 21
27.541788877
 12
13.7729897984
 22
27.6861704837
 13
13.7729897984
 23
27.6861704837
  0
SOLID
  8
___SYMBOL
 62
2
  6
CONTINUOUS
 10
13.7729897984
 20
27.541788877
 11
13.6147431408
 21
27.320640581
 12
13.7729897984
 22
27.6861704837
 13
13.7729897984
 23
27.6861704837
  0
SOLID
  8
___SYMBOL
 62
2
  6
CONTINUOUS
 10
13.7729897984
 20
27.6861704837
 11
13.6147431408
 21
27.320640581
 12
13.7729897984
 22
27.7637948493
 13
13.7729897984
 23
27.7637948493
  0
SOLID
  8
___SYMBOL
 62
2
  6
CONTINUOUS
 10
13.9238473272
 20
27.9065542511
 11
13.7729897984
 21
27.7637948493
 12
13.7871941223
 22
27.9065542511
 13
13.7871941223
 23
27.9065542511
  0
SOLID
  8
___SYMBOL
 62
2
  6
CONTINUOUS
 10
13.7729897984
 20
27.7637948493
 11
13.6147431408
 21
27.320640581
 12
13.7871941223
 22
27.9065542511
 13
13.7871941223
 23
27.9065542511
  0
SOLID
  8
___SYMBOL
 62
2
  6
CONTINUOUS
 10
13.6147431408
 20
27.320640581
 11
13.6147431408
 21
27.9065542511
 12
13.7871941223
 22
27.9065542511
 13
13.7871941223
 23
27.9065542511
  0
SOLID
  8
___SYMBOL
 62
2
  6
CONTINUOUS
 10
13.9238473272
 20
27.4618673431
 11
13.9238473272
 21
27.320640581
 12
13.6147431408
 22
27.320640581
 13
13.6147431408
 23
27.320640581
  0
LINE
  8
___SYMBOL
 62
2
  6
CONTINUOUS
 10
14.4340977513
 20
27.320640581
 11
14.2746545027
 21
27.5722231312
  0
ARC
  8
___SYMBOL
 62
2
  6
CONTINUOUS
 10
14.2022152524
 20
27.7315447342
 40
0.1750166225
 50
294.4500166359
 51
90.0
  0
LINE
  8
___SYMBOL
 62
2
  6
CONTINUOUS
 10
13.9686675435
 20
27.9065542511
 11
14.2022152524
 21
27.9065542511
  0
LINE
  8
___SYMBOL
 62
2
  6
CONTINUOUS
 10
13.9686675435
 20
27.320640581
 11
13.9686675435
 21
27.9065542511
  0
LINE
  8
___SYMBOL
 62
2
  6
CONTINUOUS
 10
13.9686675435
 20
27.320640581
 11
14.1193233714
 21
27.320640581
  0
LINE
  8
___SYMBOL
 62
2
  6
CONTINUOUS
 10
14.1193233714
 20
27.5175969588
 11
14.1193233714
 21
27.320640581
  0
LINE
  8
___SYMBOL
 62
2
  6
CONTINUOUS
 10
14.244146805
 20
27.320640581
 11
14.1193233714
 21
27.5175969588
  0
LINE
  8
___SYMBOL
 62
2
  6
CONTINUOUS
 10
14.244146805
 20
27.320640581
 11
14.4340977513
 21
27.320640581
  0
LINE
  8
___SYMBOL
 62
2
  6
CONTINUOUS
 10
14.1193233714
 20
27.6568722744
 11
14.1716631234
 21
27.6568722744
  0
ARC
  8
___SYMBOL
 62
2
  6
CONTINUOUS
 10
14.1752531529
 20
27.7103636758
 40
0.0536117369
 50
266.1604009902
 51
89.9998910512
  0
LINE
  8
___SYMBOL
 62
2
  6
CONTINUOUS
 10
14.1752532548
 20
27.7639754127
 11
14.1193233714
 21
27.7639754127
  0
LINE
  8
___SYMBOL
 62
2
  6
CONTINUOUS
 10
14.1193233714
 20
27.7639754127
 11
14.1193233714
 21
27.6568722744
  0
SOLID
  8
___SYMBOL
 62
2
  6
CONTINUOUS
 10
14.2022152524
 20
27.9065613568
 11
14.2491482776
 21
27.9001511081
 12
13.9686675435
 22
27.9065542511
 13
13.9686675435
 23
27.9065542511
  0
SOLID
  8
___SYMBOL
 62
2
  6
CONTINUOUS
 10
14.1193233714
 20
27.7639754127
 11
14.3732631215
 21
27.7686047484
 12
14.1752532548
 22
27.7639754127
 13
14.1752532548
 23
27.7639754127
  0
SOLID
  8
___SYMBOL
 62
2
  6
CONTINUOUS
 10
14.1752532548
 20
27.7639754127
 11
14.3732631215
 21
27.7686047484
 12
14.1989758373
 22
27.7584412442
 13
14.1989758373
 23
27.7584412442
  0
SOLID
  8
___SYMBOL
 62
2
  6
CONTINUOUS
 10
14.1989758373
 20
27.7584412442
 11
14.3732631215
 21
27.7686047484
 12
14.2178008256
 22
27.7429813686
 13
14.2178008256
 23
27.7429813686
  0
SOLID
  8
___SYMBOL
 62
2
  6
CONTINUOUS
 10
14.3732631215
 20
27.7686047484
 11
14.376936368
 21
27.7213786179
 12
14.2178008256
 22
27.7429813686
 13
14.2178008256
 23
27.7429813686
  0
SOLID
  8
___SYMBOL
 62
2
  6
CONTINUOUS
 10
14.2278417645
 20
27.7207875072
 11
14.2178008256
 21
27.7429813686
 12
14.376936368
 22
27.7213786179
 13
14.376936368
 23
27.7213786179
  0
SOLID
  8
___SYMBOL
 62
2
  6
CONTINUOUS
 10
14.2278417645
 20
27.7207875072
 11
14.376936368
 21
27.7213786179
 12
14.2270256828
 22
27.6964416256
 13
14.2270256828
 23
27.6964416256
  0
SOLID
  8
___SYMBOL
 62
2
  6
CONTINUOUS
 10
14.2270256828
 20
27.6964416256
 11
14.376936368
 21
27.7213786179
 12
14.2155210621
 22
27.6749699783
 13
14.2155210621
 23
27.6749699783
  0
SOLID
  8
___SYMBOL
 62
2
  6
CONTINUOUS
 10
14.376936368
 20
27.7213786179
 11
14.3678107641
 21
27.6748971862
 12
14.2155210621
 22
27.6749699783
 13
14.2155210621
 23
27.6749699783
  0
SOLID
  8
___SYMBOL
 62
2
  6
CONTINUOUS
 10
14.1957030535
 20
27.6608054283
 11
14.2155210621
 21
27.6749699783
 12
14.3678107641
 22
27.6748971862
 13
14.3678107641
 23
27.6748971862
  0
SOLID
  8
___SYMBOL
 62
2
  6
CONTINUOUS
 10
14.1957030535
 20
27.6608054283
 11
14.3678107641
 21
27.6748971862
 12
14.1716631234
 22
27.6568722744
 13
14.1716631234
 23
27.6568722744
  0
SOLID
  8
___SYMBOL
 62
2
  6
CONTINUOUS
 10
14.3678107641
 20
27.6748971862
 11
14.3465547876
 21
27.6325653589
 12
14.1716631234
 22
27.6568722744
 13
14.1716631234
 23
27.6568722744
  0
SOLID
  8
___SYMBOL
 62
2
  6
CONTINUOUS
 10
14.2746545027
 20
27.5722231312
 11
14.1193233714
 21
27.5175969588
 12
14.3147255033
 22
27.5974840703
 13
14.3147255033
 23
27.5974840703
  0
SOLID
  8
___SYMBOL
 62
2
  6
CONTINUOUS
 10
14.3147255033
 20
27.5974840703
 11
14.1193233714
 21
27.5175969588
 12
14.3465547876
 22
27.6325653589
 13
14.3465547876
 23
27.6325653589
  0
SOLID
  8
___SYMBOL
 62
2
  6
CONTINUOUS
 10
14.3465547876
 20
27.6325653589
 11
14.1193233714
 21
27.5175969588
 12
14.1716631234
 22
27.6568722744
 13
14.1716631234
 23
27.6568722744
  0
SOLID
  8
___SYMBOL
 62
2
  6
CONTINUOUS
 10
14.1193233714
 20
27.5175969588
 11
13.9686675435
 21
27.320640581
 12
14.1716631234
 22
27.6568722744
 13
14.1716631234
 23
27.6568722744
  0
SOLID
  8
___SYMBOL
 62
2
  6
CONTINUOUS
 10
14.1716631234
 20
27.6568722744
 11
13.9686675435
 21
27.320640581
 12
14.1193233714
 22
27.6568722744
 13
14.1193233714
 23
27.6568722744
  0
SOLID
  8
___SYMBOL
 62
2
  6
CONTINUOUS
 10
14.1193233714
 20
27.6568722744
 11
13.9686675435
 21
27.320640581
 12
14.1193233714
 22
27.7639754127
 13
14.1193233714
 23
27.7639754127
  0
SOLID
  8
___SYMBOL
 62
2
  6
CONTINUOUS
 10
14.3732631215
 20
27.7686047484
 11
14.1193233714
 21
27.7639754127
 12
14.3570601008
 22
27.8131161207
 13
14.3570601008
 23
27.8131161207
  0
SOLID
  8
___SYMBOL
 62
2
  6
CONTINUOUS
 10
14.3570601008
 20
27.8131161207
 11
14.1193233714
 21
27.7639754127
 12
14.3295142263
 22
27.851652142
 13
14.3295142263
 23
27.851652142
  0
SOLID
  8
___SYMBOL
 62
2
  6
CONTINUOUS
 10
14.3295142263
 20
27.851652142
 11
14.1193233714
 21
27.7639754127
 12
14.2926433167
 22
27.8813899322
 13
14.2926433167
 23
27.8813899322
  0
SOLID
  8
___SYMBOL
 62
2
  6
CONTINUOUS
 10
14.2926433167
 20
27.8813899322
 11
14.1193233714
 21
27.7639754127
 12
14.2491482776
 22
27.9001511081
 13
14.2491482776
 23
27.9001511081
  0
SOLID
  8
___SYMBOL
 62
2
  6
CONTINUOUS
 10
14.2491482776
 20
27.9001511081
 11
14.1193233714
 21
27.7639754127
 12
13.9686675435
 22
27.9065542511
 13
13.9686675435
 23
27.9065542511
  0
SOLID
  8
___SYMBOL
 62
2
  6
CONTINUOUS
 10
13.9686675435
 20
27.320640581
 11
13.9686675435
 21
27.9065542511
 12
14.1193233714
 22
27.7639754127
 13
14.1193233714
 23
27.7639754127
  0
SOLID
  8
___SYMBOL
 62
2
  6
CONTINUOUS
 10
14.1193233714
 20
27.5175969588
 11
14.1193233714
 21
27.320640581
 12
13.9686675435
 22
27.320640581
 13
13.9686675435
 23
27.320640581
  0
SOLID
  8
___SYMBOL
 62
2
  6
CONTINUOUS
 10
14.1193233714
 20
27.5175969588
 11
14.2746545027
 21
27.5722231312
 12
14.244146805
 22
27.320640581
 13
14.244146805
 23
27.320640581
  0
SOLID
  8
___SYMBOL
 62
2
  6
CONTINUOUS
 10
14.2746545027
 20
27.5722231312
 11
14.4340977513
 21
27.320640581
 12
14.244146805
 22
27.320640581
 13
14.244146805
 23
27.320640581
  0
CIRCLE
  8
___SYMBOL
 62
2
  6
CONTINUOUS
 10
14.5748677309
 20
27.320640581
 40
0.0653578744
  0
LINE
  8
___SYMBOL
 62
2
  6
CONTINUOUS
 10
14.5705797075
 20
27.3201028315
 11
14.6024477214
 21
27.287799889
  0
LINE
  8
___SYMBOL
 62
2
  6
CONTINUOUS
 10
14.5589817309
 20
27.287799889
 11
14.5589817309
 21
27.3537660902
  0
LINE
  8
___SYMBOL
 62
2
  6
CONTINUOUS
 10
14.5589817309
 20
27.3537660902
 11
14.5832610648
 21
27.3537660902
  0
ARC
  8
___SYMBOL
 62
2
  6
CONTINUOUS
 10
14.5832610648
 20
27.33693464
 40
0.0168314502
 50
270.0
 51
90.0
  0
LINE
  8
___SYMBOL
 62
2
  6
CONTINUOUS
 10
14.5832610648
 20
27.3201028315
 11
14.5589817309
 21
27.3201028315
  0
TEXT
  8
___SYMBOL
 62
2
  6
CONTINUOUS
 10
11.6996386677
 20
23.3696489277
  7
STANDARD
 40
0.2500000089
  1
ICEROCK  
 41
0.8
 72
0
  0
TEXT
  8
___SYMBOL
 62
2
  6
CONTINUOUS
 10
13.4996387317
 20
23.3696489277
  7
STANDARD
 40
0.2500000089
  1
   
 41
0.8
 72
0
  0
TEXT
  8
___SYMBOL
 62
2
  6
CONTINUOUS
 10
14.099638753
 20
23.3696489277
  7
STANDARD
 40
0.2500000089
  1
3187W
 41
0.8
 72
0
  0
TEXT
  8
___SYMBOL
 62
2
  6
CONTINUOUS
 10
15.0996387885
 20
23.3696489277
  7
STANDARD
 40
0.2500000089
  1
-**-
 41
0.8
 72
0
  0
TEXT
  8
___SYMBOL
 62
2
  6
CONTINUOUS
 10
15.899638817
 20
23.3696489277
  7
STANDARD
 40
0.2500000089
  1
AA
 41
0.8
 72
0
  0
TEXT
  8
___SYMBOL
 62
2
  6
CONTINUOUS
 10
11.7027749715
 20
22.4771240712
  7
STANDARD
 40
0.2500000089
  1
CREVASSE  PREP SINK
 41
0.8
 72
0
  0
TEXT
  8
___SYMBOL
 62
2
  6
CONTINUOUS
 10
15.5027751066
 20
22.4771240712
  7
STANDARD
 40
0.2500000089
  1
   
 41
0.8
 72
0
  0
TEXT
  8
___SYMBOL
 62
2
  6
CONTINUOUS
 10
16.1027751279
 20
22.4771240712
  7
STANDARD
 40
0.2500000089
  1
6448
 41
0.8
 72
0
  0
TEXT
  8
___SYMBOL
 62
2
  6
CONTINUOUS
 10
16.9027751564
 20
22.4771240712
  7
STANDARD
 40
0.2500000089
  1
-**-
 41
0.8
 72
0
  0
TEXT
  8
___SYMBOL
 62
2
  6
CONTINUOUS
 10
17.7027751848
 20
22.4771240712
  7
STANDARD
 40
0.2500000089
  1
AA
 41
0.8
 72
0
  0
ENDBLK
  8
0
  6
BYBLOCK
 62
0
  0
BLOCK
  8
___SYMBOL
 62
2
  6
CONTINUOUS
  2
PACKAGING_UPC_BL2
 70
64
 10
30.0548633296
 20
24.5876818297
  0
TEXT
  8
___SYMBOL
 62
7
  6
CONTINUOUS
 10
28.5208624413
 20
25.114685131
  7
STANDARD
 40
0.0593587494
  1
XXXXX-XX-X-XX
 41
0.8258950223
 72
0
  0
TEXT
  8
___SYMBOL
 62
7
  6
CONTINUOUS
 10
30.1548424254
 20
24.9855201323
  7
STANDARD
 40
0.0445192496
  1
xxxxxx-xx
 41
0.6740211631
 72
0
  0
TEXT
  8
___SYMBOL
 62
2
  6
CONTINUOUS
 10
27.3905181438
 20
26.6583137958
  7
STANDARD
 40
0.1562500055
  1
PACKAGING/UPC LABEL ON BOX
 41
0.8
 72
0
  0
TEXT
  8
___SYMBOL
 62
2
  6
CONTINUOUS
 10
27.3905181438
 20
26.4239387875
  7
STANDARD
 40
0.1562500055
  1
ETIQUETA DE EMBALAJE/UPC EN LA CAJA
 41
0.8
 72
0
  0
TEXT
  8
___SYMBOL
 62
2
  6
CONTINUOUS
 10
27.3905181438
 20
26.1895637862
  7
STANDARD
 40
0.1562500003
  1
ETIQUETTE D'EMBALLAGE/UPC SUR LA BOÎTE
 41
0.7999999985
 72
0
  0
TEXT
  8
___SYMBOL
 62
2
  6
CONTINUOUS
 10
27.3673632346
 20
24.4701748759
  7
STANDARD
 40
0.1562500055
  1
The template and the label suffixes circled
 41
0.8
 72
0
  0
TEXT
  8
___SYMBOL
 62
2
  6
CONTINUOUS
 10
27.3673632346
 20
24.2357998677
  7
STANDARD
 40
0.1562500055
  1
must match for proper cut-out.
 41
0.8
 72
0
  0
TEXT
  8
___SYMBOL
 62
2
  6
CONTINUOUS
 10
27.3673632346
 20
24.0014248663
  7
STANDARD
 40
0.1562500003
  1
 
 41
0.7999999985
 72
0
  0
TEXT
  8
___SYMBOL
 62
2
  6
CONTINUOUS
 10
27.3673632346
 20
23.7670498594
  7
STANDARD
 40
0.1562500055
  1
A fin de realizar el corte apropiado, la
 41
0.8
 72
0
  0
TEXT
  8
___SYMBOL
 62
2
  6
CONTINUOUS
 10
27.3673632346
 20
23.532674858
  7
STANDARD
 40
0.1562500003
  1
plantilla y los sufijos de la etiqueta
 41
0.7999999985
 72
0
  0
TEXT
  8
___SYMBOL
 62
2
  6
CONTINUOUS
 10
27.3673632346
 20
23.298299858
  7
STANDARD
 40
0.1562500003
  1
demarcados deben concordar.
 41
0.7999999985
 72
0
  0
TEXT
  8
___SYMBOL
 62
2
  6
CONTINUOUS
 10
27.3673632346
 20
23.063924858
  7
STANDARD
 40
0.1562500003
  1
 
 41
0.7999999985
 72
0
  0
TEXT
  8
___SYMBOL
 62
2
  6
CONTINUOUS
 10
27.3673632346
 20
22.829549858
  7
STANDARD
 40
0.1562500003
  1
Afin de découper l'ouverture correctement,
 41
0.7999999985
 72
0
  0
TEXT
  8
___SYMBOL
 62
2
  6
CONTINUOUS
 10
27.3673632346
 20
22.595174858
  7
STANDARD
 40
0.1562500003
  1
le gabarit et les suffixes encerclés
 41
0.7999999985
 72
0
  0
TEXT
  8
___SYMBOL
 62
2
  6
CONTINUOUS
 10
27.3673632346
 20
22.360799858
  7
STANDARD
 40
0.1562500003
  1
doivent correspondre
 41
0.7999999985
 72
0
  0
LINE
  8
___SYMBOL
 62
7
  6
CONTINUOUS
 10
30.5096674219
 20
24.9587901326
 11
28.3246249432
 21
24.9587901326
  0
LINE
  8
___SYMBOL
 62
7
  6
CONTINUOUS
 10
28.3246249432
 20
24.9587901326
 11
28.3246249432
 21
25.9518201229
  0
LINE
  8
___SYMBOL
 62
7
  6
CONTINUOUS
 10
28.3246249432
 20
25.9518201229
 11
30.5096674219
 21
25.9518201229
  0
LINE
  8
___SYMBOL
 62
7
  6
CONTINUOUS
 10
30.5096674219
 20
25.9518201229
 11
30.5096674219
 21
24.9587901326
  0
LINE
  8
___SYMBOL
 62
7
  6
CONTINUOUS
 10
28.2912574436
 20
25.9842801225
 11
30.5438224216
 21
25.9842801225
  0
LINE
  8
___SYMBOL
 62
7
  6
CONTINUOUS
 10
30.5438224216
 20
25.9842801225
 11
30.5438224216
 21
24.8913726332
  0
LINE
  8
___SYMBOL
 62
7
  6
CONTINUOUS
 10
30.5438224216
 20
24.8913726332
 11
28.2912574436
 21
24.8913726332
  0
LINE
  8
___SYMBOL
 62
7
  6
CONTINUOUS
 10
28.2912574436
 20
24.8913726332
 11
28.2912574436
 21
25.9842801225
  0
LINE
  8
___SYMBOL
 62
7
  6
CONTINUOUS
 10
30.3044824239
 20
25.3904601283
 11
30.3044824239
 21
25.2688251295
  0
LINE
  8
___SYMBOL
 62
7
  6
CONTINUOUS
 10
30.3044824239
 20
25.2688251295
 11
29.9615299272
 21
25.2688251295
  0
LINE
  8
___SYMBOL
 62
7
  6
CONTINUOUS
 10
29.9615299272
 20
25.2688251295
 11
29.9615299272
 21
25.3904601283
  0
LINE
  8
___SYMBOL
 62
7
  6
CONTINUOUS
 10
29.9615299272
 20
25.3904601283
 11
30.3044824239
 21
25.3904601283
  0
SOLID
  8
___SYMBOL
 62
7
  6
CONTINUOUS
 10
29.9615299272
 20
25.2688251205
 11
29.9615299272
 21
25.3904601207
 12
30.3044824239
 22
25.3904601207
 13
30.3044824239
 23
25.3904601207
  0
SOLID
  8
___SYMBOL
 62
7
  6
CONTINUOUS
 10
30.3044824239
 20
25.3904601207
 11
30.3044824239
 21
25.2688251205
 12
29.9615299272
 22
25.2688251205
 13
29.9615299272
 23
25.2688251205
  0
LINE
  8
___SYMBOL
 62
7
  6
CONTINUOUS
 10
29.2290274344
 20
25.3904601283
 11
29.2290274344
 21
25.2688251295
  0
LINE
  8
___SYMBOL
 62
7
  6
CONTINUOUS
 10
29.2290274344
 20
25.2688251295
 11
28.3733224428
 21
25.2688251295
  0
LINE
  8
___SYMBOL
 62
7
  6
CONTINUOUS
 10
28.3733224428
 20
25.2688251295
 11
28.3733224428
 21
25.3904601283
  0
LINE
  8
___SYMBOL
 62
7
  6
CONTINUOUS
 10
28.3733224428
 20
25.3904601283
 11
29.2290274344
 21
25.3904601283
  0
SOLID
  8
___SYMBOL
 62
7
  6
CONTINUOUS
 10
28.3733224428
 20
25.2688251205
 11
28.3733224428
 21
25.3904601207
 12
29.2290274344
 22
25.3904601207
 13
29.2290274344
 23
25.3904601207
  0
SOLID
  8
___SYMBOL
 62
7
  6
CONTINUOUS
 10
29.2290274344
 20
25.3904601207
 11
29.2290274344
 21
25.2688251205
 12
28.3733224428
 22
25.2688251205
 13
28.3733224428
 23
25.2688251205
  0
LINE
  8
___SYMBOL
 62
7
  6
CONTINUOUS
 10
29.2290274344
 20
25.017192632
 11
29.2290274344
 21
24.9822126323
  0
LINE
  8
___SYMBOL
 62
7
  6
CONTINUOUS
 10
29.2290274344
 20
24.9822126323
 11
28.3733224428
 21
24.9822126323
  0
LINE
  8
___SYMBOL
 62
7
  6
CONTINUOUS
 10
28.3733224428
 20
24.9822126323
 11
28.3733224428
 21
25.017192632
  0
LINE
  8
___SYMBOL
 62
7
  6
CONTINUOUS
 10
28.3733224428
 20
25.017192632
 11
29.2290274344
 21
25.017192632
  0
SOLID
  8
___SYMBOL
 62
7
  6
CONTINUOUS
 10
28.3733224428
 20
24.9822126339
 11
28.3733224428
 21
25.017192616
 12
29.2290274344
 22
25.017192616
 13
29.2290274344
 23
25.017192616
  0
SOLID
  8
___SYMBOL
 62
7
  6
CONTINUOUS
 10
29.2290274344
 20
25.017192616
 11
29.2290274344
 21
24.9822126339
 12
28.3733224428
 22
24.9822126339
 13
28.3733224428
 23
24.9822126339
  0
POLYLINE
  8
___SYMBOL
 62
7
  6
CONTINUOUS
 66
1
 70
0
  0
VERTEX
  8
___SYMBOL
 62
7
  6
CONTINUOUS
 10
29.0950323877
 20
25.2289702502
  0
VERTEX
  8
___SYMBOL
 62
7
  6
CONTINUOUS
 10
29.0741617441
 20
25.220938877
  0
VERTEX
  8
___SYMBOL
 62
7
  6
CONTINUOUS
 10
29.0562238082
 20
25.2075852644
  0
VERTEX
  8
___SYMBOL
 62
7
  6
CONTINUOUS
 10
29.0425432047
 20
25.189895508
  0
VERTEX
  8
___SYMBOL
 62
7
  6
CONTINUOUS
 10
29.0341301758
 20
25.1691759057
  0
VERTEX
  8
___SYMBOL
 62
7
  6
CONTINUOUS
 10
29.0316059807
 20
25.1469564938
  0
VERTEX
  8
___SYMBOL
 62
7
  6
CONTINUOUS
 10
29.0351570182
 20
25.1248780618
  0
VERTEX
  8
___SYMBOL
 62
7
  6
CONTINUOUS
 10
29.0445210623
 20
25.1045709887
  0
VERTEX
  8
___SYMBOL
 62
7
  6
CONTINUOUS
 10
29.0590066265
 20
25.0875348478
  0
VERTEX
  8
___SYMBOL
 62
7
  6
CONTINUOUS
 10
29.0775440262
 20
25.0750276705
  0
VERTEX
  8
___SYMBOL
 62
7
  6
CONTINUOUS
 10
29.0987643694
 20
25.0679730478
  0
VERTEX
  8
___SYMBOL
 62
7
  6
CONTINUOUS
 10
29.1211006428
 20
25.0668919273
  0
VERTEX
  8
___SYMBOL
 62
7
  6
CONTINUOUS
 10
29.142903427
 20
25.0718641444
  0
VERTEX
  8
___SYMBOL
 62
7
  6
CONTINUOUS
 10
29.1625626984
 20
25.0825225262
  0
VERTEX
  8
___SYMBOL
 62
7
  6
CONTINUOUS
 10
29.1786267205
 20
25.0980800059
  0
VERTEX
  8
___SYMBOL
 62
7
  6
CONTINUOUS
 10
29.1899092478
 20
25.1173877435
  0
VERTEX
  8
___SYMBOL
 62
7
  6
CONTINUOUS
 10
29.1955771235
 20
25.1390199616
  0
VERTEX
  8
___SYMBOL
 62
7
  6
CONTINUOUS
 10
29.1952118041
 20
25.1613792318
  0
VERTEX
  8
___SYMBOL
 62
7
  6
CONTINUOUS
 10
29.1888402664
 20
25.1828144368
  0
VERTEX
  8
___SYMBOL
 62
7
  6
CONTINUOUS
 10
29.176933016
 20
25.2017426966
  0
VERTEX
  8
___SYMBOL
 62
7
  6
CONTINUOUS
 10
29.1603693421
 20
25.2167662564
  0
VERTEX
  8
___SYMBOL
 62
7
  6
CONTINUOUS
 10
29.1403723871
 20
25.2267757033
  0
VERTEX
  8
___SYMBOL
 62
7
  6
CONTINUOUS
 10
29.1184188235
 20
25.2310318909
  0
VERTEX
  8
___SYMBOL
 62
7
  6
CONTINUOUS
 10
29.0961298094
 20
25.2292205218
  0
SEQEND
  0
LINE
  8
___SYMBOL
 62
7
  6
CONTINUOUS
 10
29.2756774339
 20
25.9236951231
 11
29.2756774339
 21
25.8620451237
  0
LINE
  8
___SYMBOL
 62
7
  6
CONTINUOUS
 10
29.2756774339
 20
25.8620451237
 11
28.4199724423
 21
25.8620451237
  0
LINE
  8
___SYMBOL
 62
7
  6
CONTINUOUS
 10
28.4199724423
 20
25.8620451237
 11
28.4199724423
 21
25.9236951231
  0
LINE
  8
___SYMBOL
 62
7
  6
CONTINUOUS
 10
28.4199724423
 20
25.9236951231
 11
29.2756774339
 21
25.9236951231
  0
SOLID
  8
___SYMBOL
 62
7
  6
CONTINUOUS
 10
28.4199724423
 20
25.8620451196
 11
28.4199724423
 21
25.9236951097
 12
29.2756774339
 22
25.9236951097
 13
29.2756774339
 23
25.9236951097
  0
SOLID
  8
___SYMBOL
 62
7
  6
CONTINUOUS
 10
29.2756774339
 20
25.9236951097
 11
29.2756774339
 21
25.8620451196
 12
28.4199724423
 22
25.8620451196
 13
28.4199724423
 23
25.8620451196
  0
LINE
  8
___SYMBOL
 62
7
  6
CONTINUOUS
 10
29.2756774339
 20
25.8237126241
 11
29.2756774339
 21
25.7620626247
  0
LINE
  8
___SYMBOL
 62
7
  6
CONTINUOUS
 10
29.2756774339
 20
25.7620626247
 11
28.4199724423
 21
25.7620626247
  0
LINE
  8
___SYMBOL
 62
7
  6
CONTINUOUS
 10
28.4199724423
 20
25.7620626247
 11
28.4199724423
 21
25.8237126241
  0
LINE
  8
___SYMBOL
 62
7
  6
CONTINUOUS
 10
28.4199724423
 20
25.8237126241
 11
29.2756774339
 21
25.8237126241
  0
SOLID
  8
___SYMBOL
 62
7
  6
CONTINUOUS
 10
28.4199724423
 20
25.7620626114
 11
28.4199724423
 21
25.8237126355
 12
29.2756774339
 22
25.8237126355
 13
29.2756774339
 23
25.8237126355
  0
SOLID
  8
___SYMBOL
 62
7
  6
CONTINUOUS
 10
29.2756774339
 20
25.8237126355
 11
29.2756774339
 21
25.7620626114
 12
28.4199724423
 22
25.7620626114
 13
28.4199724423
 23
25.7620626114
  0
LINE
  8
___SYMBOL
 62
7
  6
CONTINUOUS
 10
29.2756774339
 20
25.7237301251
 11
29.2756774339
 21
25.6620876257
  0
LINE
  8
___SYMBOL
 62
7
  6
CONTINUOUS
 10
29.2756774339
 20
25.6620876257
 11
28.4199724423
 21
25.6620876257
  0
LINE
  8
___SYMBOL
 62
7
  6
CONTINUOUS
 10
28.4199724423
 20
25.6620876257
 11
28.4199724423
 21
25.7237301251
  0
LINE
  8
___SYMBOL
 62
7
  6
CONTINUOUS
 10
28.4199724423
 20
25.7237301251
 11
29.2756774339
 21
25.7237301251
  0
SOLID
  8
___SYMBOL
 62
7
  6
CONTINUOUS
 10
28.4199724423
 20
25.6620876172
 11
28.4199724423
 21
25.7237301273
 12
29.2756774339
 22
25.7237301273
 13
29.2756774339
 23
25.7237301273
  0
SOLID
  8
___SYMBOL
 62
7
  6
CONTINUOUS
 10
29.2756774339
 20
25.7237301273
 11
29.2756774339
 21
25.6620876172
 12
28.4199724423
 22
25.6620876172
 13
28.4199724423
 23
25.6620876172
  0
LINE
  8
___SYMBOL
 62
7
  6
CONTINUOUS
 10
29.2756774339
 20
25.6237476261
 11
29.2756774339
 21
25.5621051267
  0
LINE
  8
___SYMBOL
 62
7
  6
CONTINUOUS
 10
29.2756774339
 20
25.5621051267
 11
28.4199724423
 21
25.5621051267
  0
LINE
  8
___SYMBOL
 62
7
  6
CONTINUOUS
 10
28.4199724423
 20
25.5621051267
 11
28.4199724423
 21
25.6237476261
  0
LINE
  8
___SYMBOL
 62
7
  6
CONTINUOUS
 10
28.4199724423
 20
25.6237476261
 11
29.2756774339
 21
25.6237476261
  0
SOLID
  8
___SYMBOL
 62
7
  6
CONTINUOUS
 10
28.4199724423
 20
25.562105143
 11
28.4199724423
 21
25.6237476191
 12
29.2756774339
 22
25.6237476191
 13
29.2756774339
 23
25.6237476191
  0
SOLID
  8
___SYMBOL
 62
7
  6
CONTINUOUS
 10
29.2756774339
 20
25.6237476191
 11
29.2756774339
 21
25.562105143
 12
28.4199724423
 22
25.562105143
 13
28.4199724423
 23
25.562105143
  0
LINE
  8
___SYMBOL
 62
7
  6
CONTINUOUS
 10
29.2756774339
 20
25.4971101273
 11
29.2756774339
 21
25.4354601279
  0
LINE
  8
___SYMBOL
 62
7
  6
CONTINUOUS
 10
29.2756774339
 20
25.4354601279
 11
28.4199724423
 21
25.4354601279
  0
LINE
  8
___SYMBOL
 62
7
  6
CONTINUOUS
 10
28.4199724423
 20
25.4354601279
 11
28.4199724423
 21
25.4971101273
  0
LINE
  8
___SYMBOL
 62
7
  6
CONTINUOUS
 10
28.4199724423
 20
25.4971101273
 11
29.2756774339
 21
25.4971101273
  0
SOLID
  8
___SYMBOL
 62
7
  6
CONTINUOUS
 10
28.4199724423
 20
25.4354601408
 11
28.4199724423
 21
25.4971101309
 12
29.2756774339
 22
25.4971101309
 13
29.2756774339
 23
25.4971101309
  0
SOLID
  8
___SYMBOL
 62
7
  6
CONTINUOUS
 10
29.2756774339
 20
25.4971101309
 11
29.2756774339
 21
25.4354601408
 12
28.4199724423
 22
25.4354601408
 13
28.4199724423
 23
25.4354601408
  0
ENDBLK
  8
0
  6
BYBLOCK
 62
0
  0
BLOCK
  8
___SYMBOL
 62
2
  6
CONTINUOUS
  2
TEMPLATE_NUMBER_BL3
 70
64
 10
6.7864686936
 20
15.1688336846
  0
TEXT
  8
___SYMBOL
 62
2
  6
CONTINUOUS
 10
6.4762687911
 20
15.1335836957
  7
STANDARD
 40
0.0704999778
  1
1022025-7
 41
0.8
 72
0
  0
TEXT
  8
___SYMBOL
 62
2
  6
CONTINUOUS
 10
6.9838686315
 20
15.1335836957
  7
STANDARD
 40
0.0704999778
  1
-
 41
0.8
 72
0
  0
TEXT
  8
___SYMBOL
 62
2
  6
CONTINUOUS
 10
7.0402686138
 20
15.1335836957
  7
STANDARD
 40
0.0704999778
  1
D
 41
0.8
 72
0
  0
ENDBLK
  8
0
  6
BYBLOCK
 62
0
  0
BLOCK
  8
___SYMBOL
 62
2
  6
CONTINUOUS
  2
TEMPLATE_NUMBER_BL4
 70
64
 10
6.8371224449
 20
13.5403637902
  0
TEXT
  8
___SYMBOL
 62
2
  6
CONTINUOUS
 10
6.5269225425
 20
13.5051138013
  7
STANDARD
 40
0.0704999778
  1
1022025-7
 41
0.8
 72
0
  0
TEXT
  8
___SYMBOL
 62
2
  6
CONTINUOUS
 10
7.0345223829
 20
13.5051138013
  7
STANDARD
 40
0.0704999778
  1
-
 41
0.8
 72
0
  0
TEXT
  8
___SYMBOL
 62
2
  6
CONTINUOUS
 10
7.0909223652
 20
13.5051138013
  7
STANDARD
 40
0.0704999778
  1
D
 41
0.8
 72
0
  0
ENDBLK
  8
0
  6
BYBLOCK
 62
0
  0
BLOCK
  8
___SYMBOL
 62
2
  6
CONTINUOUS
  2
WHEN_PLOTTING_TEMPLATE_N_BL5
 70
64
 10
14.2250578377
 20
16.4174965234
  0
TEXT
  8
___SYMBOL
 62
2
  6
CONTINUOUS
 10
10.9125576053
 20
17.6284341083
  7
STANDARD
 40
0.156250011
  1
WHEN PLOTTING TEMPLATE FULL SIZE:
 41
0.8
 72
0
  0
TEXT
  8
___SYMBOL
 62
2
  6
CONTINUOUS
 10
10.9125576053
 20
17.3940590919
  7
STANDARD
 40
0.156250011
  1
Make sure horizontal and vertical dimensions
 41
0.8
 72
0
  0
TEXT
  8
___SYMBOL
 62
2
  6
CONTINUOUS
 10
10.9125576053
 20
17.1596840755
  7
STANDARD
 40
0.156250011
  1
match the dimensions labeled on the template.
 41
0.8
 72
0
  0
TEXT
  8
___SYMBOL
 62
2
  6
CONTINUOUS
 10
10.9125576053
 20
16.925309059
  7
STANDARD
 40
0.156250011
  1
 
 41
0.8
 72
0
  0
TEXT
  8
___SYMBOL
 62
2
  6
CONTINUOUS
 10
10.9125576053
 20
16.6909340426
  7
STANDARD
 40
0.156250011
  1
AL TRAZAR LA PLANTILLA A ESCALA,
 41
0.8
 72
0
  0
TEXT
  8
___SYMBOL
 62
2
  6
CONTINUOUS
 10
10.9125576053
 20
16.4565590261
  7
STANDARD
 40
0.156250011
  1
asegúrese de que las dimensiones horizontales
 41
0.8
 72
0
  0
TEXT
  8
___SYMBOL
 62
2
  6
CONTINUOUS
 10
10.9125576053
 20
16.2221840097
  7
STANDARD
 40
0.156250011
  1
y verticales concuerden con las dimensiones marcadas
 41
0.8
 72
0
  0
TEXT
  8
___SYMBOL
 62
2
  6
CONTINUOUS
 10
10.9125576053
 20
15.9878089932
  7
STANDARD
 40
0.156250011
  1
en la plantilla.
 41
0.8
 72
0
  0
TEXT
  8
___SYMBOL
 62
2
  6
CONTINUOUS
 10
10.9125576053
 20
15.7534339768
  7
STANDARD
 40
0.156250011
  1
 
 41
0.8
 72
0
  0
TEXT
  8
___SYMBOL
 62
2
  6
CONTINUOUS
 10
10.9125576053
 20
15.5190589603
  7
STANDARD
 40
0.156250011
  1
AU MOMENT DE TRACER LA DÉCOUPE À L'ÉCHELLE,
 41
0.8
 72
0
  0
TEXT
  8
___SYMBOL
 62
2
  6
CONTINUOUS
 10
10.9125576053
 20
15.2846839439
  7
STANDARD
 40
0.156250011
  1
Assurez vos que les dimensions horizotales et
 41
0.8
 72
0
  0
TEXT
  8
___SYMBOL
 62
2
  6
CONTINUOUS
 10
10.9125576053
 20
15.0503089275
  7
STANDARD
 40
0.156250011
  1
verticales correspondent avec les dimensions du plan.
 41
0.8
 72
0
  0
ENDBLK
  8
0
  6
BYBLOCK
 62
0
  0
BLOCK
  8
0
  2
_FILLED
 70
64
 10
0.0
 20
0.0
  0
SOLID
  8
0
  6
BYBLOCK
 62
0
 10
0.0
 20
0.0
 11
-1.0
 21
0.1666666667
 12
-1.0
 22
-0.1666666667
 13
-1.0
 23
-0.1666666667
  0
ENDBLK
  8
0
  6
BYBLOCK
 62
0
  0
ENDSEC
  0
SECTION
  2
ENTITIES
  0
DIMENSION
  8
0
 62
2
  6
CONTINUOUS
  2
*D0
 10
37.0684364098
 20
17.9224417326
 11
22.5640769311
 21
17.8052542326
 70
128
 13
6.1934364098
 23
17.3064822161
 14
37.0684364098
 24
17.3064822161
  0
DIMENSION
  8
0
 62
2
  6
CONTINUOUS
  2
*D1
 10
21.4740175438
 20
14.8745938867
 11
21.6615175438
 21
16.5819431876
 70
128
 13
21.9767759076
 23
20.9995938867
 14
21.9767759076
 24
14.8745938867
 50
270.0
  0
TEXT
  8
___NOTE
 62
2
  6
CONTINUOUS
 10
13.5186892295
 20
24.4286039649
  7
STANDARD
 40
0.094
  1
TM
 41
0.8
 72
0
  0
TEXT
  8
___NOTE
 62
2
  6
CONTINUOUS
 10
13.1504614166
 20
23.557144293
  7
STANDARD
 40
0.094
  1
TM
 41
0.8
 72
0
  0
TEXT
  8
___NOTE
 62
2
  6
CONTINUOUS
 10
13.2930943481
 20
22.7108745985
  7
STANDARD
 40
0.094
  1
TM
 41
0.8
 72
0
  0
TEXT
  8
0
 62
2
  6
CONTINUOUS
 10
33.2513077752
 20
16.4493510776
  7
STANDARD
 40
0.15625
  1
RIM OF SINK
 41
0.8
 72
0
  0
TEXT
  8
0
 62
2
  6
CONTINUOUS
 10
32.1263077752
 20
16.2149760776
  7
STANDARD
 40
0.15625
  1
REBORDE DE FREGADERO
 41
0.8
 72
0
  0
TEXT
  8
0
 62
2
  6
CONTINUOUS
 10
32.8763077752
 20
15.9806010776
  7
STANDARD
 40
0.15625
  1
REBORD D'ÉVIER
 41
0.8
 72
0
  0
LINE
  8
0
 62
2
  6
CONTINUOUS
 10
38.1309364098
 20
17.153639477
 11
34.8763077752
 21
16.5274760776
  0
LINE
  8
0
 62
2
  6
CONTINUOUS
 10
34.8763077752
 20
16.5274760776
 11
34.6263077752
 21
16.5274760776
  0
SOLID
  8
0
 62
2
  6
CONTINUOUS
 10
37.9527170345
 20
17.0875284586
 11
38.1309364098
 21
17.153639477
 12
37.9409091029
 22
17.1489029056
 13
37.9409091029
 23
17.1489029056
  0
TEXT
  8
0
 62
2
  6
CONTINUOUS
 10
26.2489372322
 20
16.614705638
  7
STANDARD
 40
0.15625
  1
CUT ALONG THIS LINE
 41
0.8
 72
0
  0
TEXT
  8
0
 62
2
  6
CONTINUOUS
 10
24.7489372322
 20
16.380330638
  7
STANDARD
 40
0.15625
  1
 CORTE A LO LARGO DE ESTA LÍNEA
 41
0.8
 72
0
  0
TEXT
  8
0
 62
2
  6
CONTINUOUS
 10
24.6239372322
 20
16.145955638
  7
STANDARD
 40
0.15625
  1
 DÉCOUPER AU LONG DE CETTE LIGNE
 41
0.8
 72
0
  0
LINE
  8
0
 62
2
  6
CONTINUOUS
 10
29.289900439
 20
14.8745938867
 11
28.8739372322
 21
16.692830638
  0
LINE
  8
0
 62
2
  6
CONTINUOUS
 10
28.8739372322
 20
16.692830638
 11
28.6239372322
 21
16.692830638
  0
SOLID
  8
0
 62
2
  6
CONTINUOUS
 10
29.2176228068
 20
15.0504027499
 11
29.289900439
 21
14.8745938867
 12
29.2785487966
 22
15.0643409624
 13
29.2785487966
 23
15.0643409624
  0
INSERT
  8
___SYMBOL
 62
2
  6
CONTINUOUS
  2
COPYRIGHT_YEAR_BL0
 10
36.2450218254
 20
15.1655988259
  0
INSERT
  8
___SYMBOL
 62
2
  6
CONTINUOUS
  2
CUT-OUT_TEMPLATE_SKU_SIN_BL1
 10
14.8973372755
 20
25.1938284185
  0
INSERT
  8
___SYMBOL
 62
2
  6
CONTINUOUS
  2
PACKAGING_UPC_BL2
 10
30.0548633296
 20
24.5876818297
  0
INSERT
  8
___SYMBOL
 62
2
  6
CONTINUOUS
  2
TEMPLATE_NUMBER_BL3
 10
6.7864686936
 20
15.1688336846
  0
INSERT
  8
___SYMBOL
 62
2
  6
CONTINUOUS
  2
TEMPLATE_NUMBER_BL4
 10
6.8371224449
 20
13.5403637902
  0
INSERT
  8
___SYMBOL
 62
2
  6
CONTINUOUS
  2
WHEN_PLOTTING_TEMPLATE_N_BL5
 10
14.2250578377
 20
16.4174965234
  0
LINE
  8
0
 62
7
  6
CONTINUOUS
 10
0.0
 20
0.0
 11
0.0
 21
34.0
  0
LINE
  8
0
 62
7
  6
CONTINUOUS
 10
0.0
 20
0.0
 11
44.0
 21
0.0
  0
POLYLINE
  8
0
 62
7
  6
CONTINUOUS
 66
1
 70
0
  0
VERTEX
  8
0
 62
7
  6
CONTINUOUS
 10
15.8391067971
 20
24.5570523227
  0
VERTEX
  8
0
 62
7
  6
CONTINUOUS
 10
15.8168293711
 20
24.5506256713
  0
VERTEX
  8
0
 62
7
  6
CONTINUOUS
 10
15.7953007922
 20
24.5420176635
  0
VERTEX
  8
0
 62
7
  6
CONTINUOUS
 10
15.774734091
 20
24.5313134778
  0
VERTEX
  8
0
 62
7
  6
CONTINUOUS
 10
15.7553327802
 20
24.5186190349
  0
VERTEX
  8
0
 62
7
  6
CONTINUOUS
 10
15.7372888408
 20
24.5040599493
  0
VERTEX
  8
0
 62
7
  6
CONTINUOUS
 10
15.720780822
 20
24.4877802871
  0
VERTEX
  8
0
 62
7
  6
CONTINUOUS
 10
15.7059720749
 20
24.4699411394
  0
VERTEX
  8
0
 62
7
  6
CONTINUOUS
 10
15.6930091358
 20
24.4507190293
  0
VERTEX
  8
0
 62
7
  6
CONTINUOUS
 10
15.6820202762
 20
24.4303041643
  0
VERTEX
  8
0
 62
7
  6
CONTINUOUS
 10
15.6731142338
 20
24.4088985547
  0
VERTEX
  8
0
 62
7
  6
CONTINUOUS
 10
15.6663791359
 20
24.3867140144
  0
VERTEX
  8
0
 62
7
  6
CONTINUOUS
 10
15.6618816282
 20
24.3639700651
  0
VERTEX
  8
0
 62
7
  6
CONTINUOUS
 10
15.6596662146
 20
24.3408917639
  0
VERTEX
  8
0
 62
7
  6
CONTINUOUS
 10
15.6597548172
 20
24.3177074764
  0
VERTEX
  8
0
 62
7
  6
CONTINUOUS
 10
15.6621465592
 20
24.294646617
  0
VERTEX
  8
0
 62
7
  6
CONTINUOUS
 10
15.6668177737
 20
24.2719373787
  0
VERTEX
  8
0
 62
7
  6
CONTINUOUS
 10
15.673722238
 20
24.2498044752
  0
VERTEX
  8
0
 62
7
  6
CONTINUOUS
 10
15.6827916305
 20
24.2284669172
  0
VERTEX
  8
0
 62
7
  6
CONTINUOUS
 10
15.6939362073
 20
24.2081358452
  0
VERTEX
  8
0
 62
7
  6
CONTINUOUS
 10
15.7070456901
 20
24.1890124403
  0
VERTEX
  8
0
 62
7
  6
CONTINUOUS
 10
15.7219903572
 20
24.1712859334
  0
VERTEX
  8
0
 62
7
  6
CONTINUOUS
 10
15.7386223274
 20
24.1551317328
  0
VERTEX
  8
0
 62
7
  6
CONTINUOUS
 10
15.756777023
 20
24.1407096884
  0
VERTEX
  8
0
 62
7
  6
CONTINUOUS
 10
15.7762747987
 20
24.12816251
  0
VERTEX
  8
0
 62
7
  6
CONTINUOUS
 10
15.7969227193
 20
24.117614355
  0
VERTEX
  8
0
 62
7
  6
CONTINUOUS
 10
15.8185164681
 20
24.1091696002
  0
VERTEX
  8
0
 62
7
  6
CONTINUOUS
 10
15.8408423698
 20
24.1029118085
  0
VERTEX
  8
0
 62
7
  6
CONTINUOUS
 10
15.8636795037
 20
24.0989029024
  0
VERTEX
  8
0
 62
7
  6
CONTINUOUS
 10
15.8868018908
 20
24.0971825509
  0
VERTEX
  8
0
 62
7
  6
CONTINUOUS
 10
15.9099807291
 20
24.0977677774
  0
VERTEX
  8
0
 62
7
  6
CONTINUOUS
 10
15.9329866581
 20
24.100652791
  0
VERTEX
  8
0
 62
7
  6
CONTINUOUS
 10
15.9555920284
 20
24.1058090437
  0
VERTEX
  8
0
 62
7
  6
CONTINUOUS
 10
15.9775731542
 20
24.113185513
  0
VERTEX
  8
0
 62
7
  6
CONTINUOUS
 10
15.9987125266
 20
24.122709207
  0
VERTEX
  8
0
 62
7
  6
CONTINUOUS
 10
16.0188009661
 20
24.1342858863
  0
VERTEX
  8
0
 62
7
  6
CONTINUOUS
 10
16.0376396927
 20
24.1478009967
  0
VERTEX
  8
0
 62
7
  6
CONTINUOUS
 10
16.0550422923
 20
24.1631208028
  0
VERTEX
  8
0
 62
7
  6
CONTINUOUS
 10
16.0708365618
 20
24.1800937112
  0
VERTEX
  8
0
 62
7
  6
CONTINUOUS
 10
16.0848662129
 20
24.1985517707
  0
VERTEX
  8
0
 62
7
  6
CONTINUOUS
 10
16.0969924187
 20
24.2183123341
  0
VERTEX
  8
0
 62
7
  6
CONTINUOUS
 10
16.1070951874
 20
24.2391798658
  0
VERTEX
  8
0
 62
7
  6
CONTINUOUS
 10
16.1150745493
 20
24.260947876
  0
VERTEX
  8
0
 62
7
  6
CONTINUOUS
 10
16.1208515468
 20
24.283400965
  0
VERTEX
  8
0
 62
7
  6
CONTINUOUS
 10
16.1243690151
 20
24.3063169537
  0
VERTEX
  8
0
 62
7
  6
CONTINUOUS
 10
16.1255921478
 20
24.3294690826
  0
VERTEX
  8
0
 62
7
  6
CONTINUOUS
 10
16.1245088417
 20
24.3526282555
  0
VERTEX
  8
0
 62
7
  6
CONTINUOUS
 10
16.1211298165
 20
24.3755653066
  0
VERTEX
  8
0
 62
7
  6
CONTINUOUS
 10
16.1154885084
 20
24.3980532679
  0
VERTEX
  8
0
 62
7
  6
CONTINUOUS
 10
16.1076407397
 20
24.4198696154
  0
VERTEX
  8
0
 62
7
  6
CONTINUOUS
 10
16.0976641659
 20
24.4407984708
  0
VERTEX
  8
0
 62
7
  6
CONTINUOUS
 10
16.0856575078
 20
24.4606327378
  0
VERTEX
  8
0
 62
7
  6
CONTINUOUS
 10
16.0717395743
 20
24.4791761513
  0
VERTEX
  8
0
 62
7
  6
CONTINUOUS
 10
16.056048087
 20
24.4962452195
  0
VERTEX
  8
0
 62
7
  6
CONTINUOUS
 10
16.0387383169
 20
24.5116710397
  0
VERTEX
  8
0
 62
7
  6
CONTINUOUS
 10
16.0199815487
 20
24.5253009695
  0
VERTEX
  8
0
 62
7
  6
CONTINUOUS
 10
15.9999633854
 20
24.5370001373
  0
VERTEX
  8
0
 62
7
  6
CONTINUOUS
 10
15.9788819117
 20
24.5466527769
  0
VERTEX
  8
0
 62
7
  6
CONTINUOUS
 10
15.9569457341
 20
24.5541633729
  0
VERTEX
  8
0
 62
7
  6
CONTINUOUS
 10
15.9343719167
 20
24.5594576061
  0
VERTEX
  8
0
 62
7
  6
CONTINUOUS
 10
15.9113838331
 20
24.5624830888
  0
VERTEX
  8
0
 62
7
  6
CONTINUOUS
 10
15.8882089561
 20
24.563209883
  0
VERTEX
  8
0
 62
7
  6
CONTINUOUS
 10
15.8650766072
 20
24.5616307969
  0
VERTEX
  8
0
 62
7
  6
CONTINUOUS
 10
15.8422156866
 20
24.5577614559
  0
SEQEND
  0
POLYLINE
  8
0
 62
7
  6
CONTINUOUS
 66
1
 70
0
  0
VERTEX
  8
0
 62
7
  6
CONTINUOUS
 10
16.0592423573
 20
23.7015254862
  0
VERTEX
  8
0
 62
7
  6
CONTINUOUS
 10
16.0369649314
 20
23.6950988348
  0
VERTEX
  8
0
 62
7
  6
CONTINUOUS
 10
16.0154363524
 20
23.6864908271
  0
VERTEX
  8
0
 62
7
  6
CONTINUOUS
 10
15.9948696512
 20
23.6757866414
  0
VERTEX
  8
0
 62
7
  6
CONTINUOUS
 10
15.9754683405
 20
23.6630921985
  0
VERTEX
  8
0
 62
7
  6
CONTINUOUS
 10
15.957424401
 20
23.6485331129
  0
VERTEX
  8
0
 62
7
  6
CONTINUOUS
 10
15.9409163822
 20
23.6322534506
  0
VERTEX
  8
0
 62
7
  6
CONTINUOUS
 10
15.9261076351
 20
23.614414303
  0
VERTEX
  8
0
 62
7
  6
CONTINUOUS
 10
15.913144696
 20
23.5951921928
  0
VERTEX
  8
0
 62
7
  6
CONTINUOUS
 10
15.9021558365
 20
23.5747773279
  0
VERTEX
  8
0
 62
7
  6
CONTINUOUS
 10
15.893249794
 20
23.5533717183
  0
VERTEX
  8
0
 62
7
  6
CONTINUOUS
 10
15.8865146962
 20
23.531187178
  0
VERTEX
  8
0
 62
7
  6
CONTINUOUS
 10
15.8820171885
 20
23.5084432287
  0
VERTEX
  8
0
 62
7
  6
CONTINUOUS
 10
15.8798017748
 20
23.4853649275
  0
VERTEX
  8
0
 62
7
  6
CONTINUOUS
 10
15.8798903774
 20
23.46218064
  0
VERTEX
  8
0
 62
7
  6
CONTINUOUS
 10
15.8822821194
 20
23.4391197806
  0
VERTEX
  8
0
 62
7
  6
CONTINUOUS
 10
15.886953334
 20
23.4164105423
  0
VERTEX
  8
0
 62
7
  6
CONTINUOUS
 10
15.8938577982
 20
23.3942776388
  0
VERTEX
  8
0
 62
7
  6
CONTINUOUS
 10
15.9029271907
 20
23.3729400808
  0
VERTEX
  8
0
 62
7
  6
CONTINUOUS
 10
15.9140717676
 20
23.3526090088
  0
VERTEX
  8
0
 62
7
  6
CONTINUOUS
 10
15.9271812504
 20
23.3334856039
  0
VERTEX
  8
0
 62
7
  6
CONTINUOUS
 10
15.9421259175
 20
23.315759097
  0
VERTEX
  8
0
 62
7
  6
CONTINUOUS
 10
15.9587578876
 20
23.2996048964
  0
VERTEX
  8
0
 62
7
  6
CONTINUOUS
 10
15.9769125832
 20
23.285182852
  0
VERTEX
  8
0
 62
7
  6
CONTINUOUS
 10
15.996410359
 20
23.2726356736
  0
VERTEX
  8
0
 62
7
  6
CONTINUOUS
 10
16.0170582795
 20
23.2620875186
  0
VERTEX
  8
0
 62
7
  6
CONTINUOUS
 10
16.0386520284
 20
23.2536427638
  0
VERTEX
  8
0
 62
7
  6
CONTINUOUS
 10
16.06097793
 20
23.2473849721
  0
VERTEX
  8
0
 62
7
  6
CONTINUOUS
 10
16.083815064
 20
23.2433760659
  0
VERTEX
  8
0
 62
7
  6
CONTINUOUS
 10
16.106937451
 20
23.2416557145
  0
VERTEX
  8
0
 62
7
  6
CONTINUOUS
 10
16.1301162893
 20
23.242240941
  0
VERTEX
  8
0
 62
7
  6
CONTINUOUS
 10
16.1531222184
 20
23.2451259546
  0
VERTEX
  8
0
 62
7
  6
CONTINUOUS
 10
16.1757275887
 20
23.2502822073
  0
VERTEX
  8
0
 62
7
  6
CONTINUOUS
 10
16.1977087144
 20
23.2576586766
  0
VERTEX
  8
0
 62
7
  6
CONTINUOUS
 10
16.2188480868
 20
23.2671823706
  0
VERTEX
  8
0
 62
7
  6
CONTINUOUS
 10
16.2389365264
 20
23.2787590499
  0
VERTEX
  8
0
 62
7
  6
CONTINUOUS
 10
16.2577752529
 20
23.2922741603
  0
VERTEX
  8
0
 62
7
  6
CONTINUOUS
 10
16.2751778525
 20
23.3075939664
  0
VERTEX
  8
0
 62
7
  6
CONTINUOUS
 10
16.290972122
 20
23.3245668748
  0
VERTEX
  8
0
 62
7
  6
CONTINUOUS
 10
16.3050017732
 20
23.3430249343
  0
VERTEX
  8
0
 62
7
  6
CONTINUOUS
 10
16.317127979
 20
23.3627854977
  0
VERTEX
  8
0
 62
7
  6
CONTINUOUS
 10
16.3272307476
 20
23.3836530293
  0
VERTEX
  8
0
 62
7
  6
CONTINUOUS
 10
16.3352101096
 20
23.4054210396
  0
VERTEX
  8
0
 62
7
  6
CONTINUOUS
 10
16.3409871071
 20
23.4278741286
  0
VERTEX
  8
0
 62
7
  6
CONTINUOUS
 10
16.3445045753
 20
23.4507901173
  0
VERTEX
  8
0
 62
7
  6
CONTINUOUS
 10
16.345727708
 20
23.4739422462
  0
VERTEX
  8
0
 62
7
  6
CONTINUOUS
 10
16.3446444019
 20
23.4971014191
  0
VERTEX
  8
0
 62
7
  6
CONTINUOUS
 10
16.3412653767
 20
23.5200384702
  0
VERTEX
  8
0
 62
7
  6
CONTINUOUS
 10
16.3356240686
 20
23.5425264315
  0
VERTEX
  8
0
 62
7
  6
CONTINUOUS
 10
16.3277762999
 20
23.564342779
  0
VERTEX
  8
0
 62
7
  6
CONTINUOUS
 10
16.3177997261
 20
23.5852716344
  0
VERTEX
  8
0
 62
7
  6
CONTINUOUS
 10
16.3057930681
 20
23.6051059014
  0
VERTEX
  8
0
 62
7
  6
CONTINUOUS
 10
16.2918751346
 20
23.6236493149
  0
VERTEX
  8
0
 62
7
  6
CONTINUOUS
 10
16.2761836472
 20
23.6407183831
  0
VERTEX
  8
0
 62
7
  6
CONTINUOUS
 10
16.2588738772
 20
23.6561442033
  0
VERTEX
  8
0
 62
7
  6
CONTINUOUS
 10
16.240117109
 20
23.6697741331
  0
VERTEX
  8
0
 62
7
  6
CONTINUOUS
 10
16.2200989456
 20
23.6814733009
  0
VERTEX
  8
0
 62
7
  6
CONTINUOUS
 10
16.1990174719
 20
23.6911259404
  0
VERTEX
  8
0
 62
7
  6
CONTINUOUS
 10
16.1770812943
 20
23.6986365365
  0
VERTEX
  8
0
 62
7
  6
CONTINUOUS
 10
16.1545074769
 20
23.7039307697
  0
VERTEX
  8
0
 62
7
  6
CONTINUOUS
 10
16.1315193933
 20
23.7069562524
  0
VERTEX
  8
0
 62
7
  6
CONTINUOUS
 10
16.1083445164
 20
23.7076830465
  0
VERTEX
  8
0
 62
7
  6
CONTINUOUS
 10
16.0852121674
 20
23.7061039604
  0
VERTEX
  8
0
 62
7
  6
CONTINUOUS
 10
16.0623512468
 20
23.7022346195
  0
SEQEND
  0
POLYLINE
  8
0
 62
7
  6
CONTINUOUS
 66
1
 70
0
  0
VERTEX
  8
0
 62
7
  6
CONTINUOUS
 10
17.8598684342
 20
22.8130786377
  0
VERTEX
  8
0
 62
7
  6
CONTINUOUS
 10
17.8375910083
 20
22.8066519863
  0
VERTEX
  8
0
 62
7
  6
CONTINUOUS
 10
17.8160624293
 20
22.7980439786
  0
VERTEX
  8
0
 62
7
  6
CONTINUOUS
 10
17.7954957281
 20
22.7873397929
  0
VERTEX
  8
0
 62
7
  6
CONTINUOUS
 10
17.7760944173
 20
22.7746453499
  0
VERTEX
  8
0
 62
7
  6
CONTINUOUS
 10
17.7580504779
 20
22.7600862644
  0
VERTEX
  8
0
 62
7
  6
CONTINUOUS
 10
17.7415424591
 20
22.7438066021
  0
VERTEX
  8
0
 62
7
  6
CONTINUOUS
 10
17.726733712
 20
22.7259674545
  0
VERTEX
  8
0
 62
7
  6
CONTINUOUS
 10
17.7137707729
 20
22.7067453443
  0
VERTEX
  8
0
 62
7
  6
CONTINUOUS
 10
17.7027819134
 20
22.6863304793
  0
VERTEX
  8
0
 62
7
  6
CONTINUOUS
 10
17.6938758709
 20
22.6649248697
  0
VERTEX
  8
0
 62
7
  6
CONTINUOUS
 10
17.687140773
 20
22.6427403295
  0
VERTEX
  8
0
 62
7
  6
CONTINUOUS
 10
17.6826432653
 20
22.6199963802
  0
VERTEX
  8
0
 62
7
  6
CONTINUOUS
 10
17.6804278517
 20
22.5969180789
  0
VERTEX
  8
0
 62
7
  6
CONTINUOUS
 10
17.6805164543
 20
22.5737337914
  0
VERTEX
  8
0
 62
7
  6
CONTINUOUS
 10
17.6829081963
 20
22.550672932
  0
VERTEX
  8
0
 62
7
  6
CONTINUOUS
 10
17.6875794108
 20
22.5279636938
  0
VERTEX
  8
0
 62
7
  6
CONTINUOUS
 10
17.6944838751
 20
22.5058307903
  0
VERTEX
  8
0
 62
7
  6
CONTINUOUS
 10
17.7035532676
 20
22.4844932323
  0
VERTEX
  8
0
 62
7
  6
CONTINUOUS
 10
17.7146978445
 20
22.4641621603
  0
VERTEX
  8
0
 62
7
  6
CONTINUOUS
 10
17.7278073273
 20
22.4450387554
  0
VERTEX
  8
0
 62
7
  6
CONTINUOUS
 10
17.7427519944
 20
22.4273122485
  0
VERTEX
  8
0
 62
7
  6
CONTINUOUS
 10
17.7593839645
 20
22.4111580479
  0
VERTEX
  8
0
 62
7
  6
CONTINUOUS
 10
17.7775386601
 20
22.3967360035
  0
VERTEX
  8
0
 62
7
  6
CONTINUOUS
 10
17.7970364359
 20
22.384188825
  0
VERTEX
  8
0
 62
7
  6
CONTINUOUS
 10
17.8176843564
 20
22.3736406701
  0
VERTEX
  8
0
 62
7
  6
CONTINUOUS
 10
17.8392781053
 20
22.3651959153
  0
VERTEX
  8
0
 62
7
  6
CONTINUOUS
 10
17.8616040069
 20
22.3589381236
  0
VERTEX
  8
0
 62
7
  6
CONTINUOUS
 10
17.8844411409
 20
22.3549292174
  0
VERTEX
  8
0
 62
7
  6
CONTINUOUS
 10
17.9075635279
 20
22.3532088659
  0
VERTEX
  8
0
 62
7
  6
CONTINUOUS
 10
17.9307423662
 20
22.3537940925
  0
VERTEX
  8
0
 62
7
  6
CONTINUOUS
 10
17.9537482953
 20
22.3566791061
  0
VERTEX
  8
0
 62
7
  6
CONTINUOUS
 10
17.9763536656
 20
22.3618353587
  0
VERTEX
  8
0
 62
7
  6
CONTINUOUS
 10
17.9983347913
 20
22.3692118281
  0
VERTEX
  8
0
 62
7
  6
CONTINUOUS
 10
18.0194741637
 20
22.3787355221
  0
VERTEX
  8
0
 62
7
  6
CONTINUOUS
 10
18.0395626032
 20
22.3903122014
  0
VERTEX
  8
0
 62
7
  6
CONTINUOUS
 10
18.0584013298
 20
22.4038273117
  0
VERTEX
  8
0
 62
7
  6
CONTINUOUS
 10
18.0758039294
 20
22.4191471178
  0
VERTEX
  8
0
 62
7
  6
CONTINUOUS
 10
18.0915981989
 20
22.4361200262
  0
VERTEX
  8
0
 62
7
  6
CONTINUOUS
 10
18.1056278501
 20
22.4545780857
  0
VERTEX
  8
0
 62
7
  6
CONTINUOUS
 10
18.1177540559
 20
22.4743386492
  0
VERTEX
  8
0
 62
7
  6
CONTINUOUS
 10
18.1278568245
 20
22.4952061808
  0
VERTEX
  8
0
 62
7
  6
CONTINUOUS
 10
18.1358361865
 20
22.5169741911
  0
VERTEX
  8
0
 62
7
  6
CONTINUOUS
 10
18.141613184
 20
22.5394272801
  0
VERTEX
  8
0
 62
7
  6
CONTINUOUS
 10
18.1451306522
 20
22.5623432688
  0
VERTEX
  8
0
 62
7
  6
CONTINUOUS
 10
18.1463537849
 20
22.5854953976
  0
VERTEX
  8
0
 62
7
  6
CONTINUOUS
 10
18.1452704788
 20
22.6086545706
  0
VERTEX
  8
0
 62
7
  6
CONTINUOUS
 10
18.1418914536
 20
22.6315916217
  0
VERTEX
  8
0
 62
7
  6
CONTINUOUS
 10
18.1362501455
 20
22.654079583
  0
VERTEX
  8
0
 62
7
  6
CONTINUOUS
 10
18.1284023768
 20
22.6758959305
  0
VERTEX
  8
0
 62
7
  6
CONTINUOUS
 10
18.118425803
 20
22.6968247859
  0
VERTEX
  8
0
 62
7
  6
CONTINUOUS
 10
18.1064191449
 20
22.7166590529
  0
VERTEX
  8
0
 62
7
  6
CONTINUOUS
 10
18.0925012115
 20
22.7352024663
  0
VERTEX
  8
0
 62
7
  6
CONTINUOUS
 10
18.0768097241
 20
22.7522715346
  0
VERTEX
  8
0
 62
7
  6
CONTINUOUS
 10
18.059499954
 20
22.7676973548
  0
VERTEX
  8
0
 62
7
  6
CONTINUOUS
 10
18.0407431859
 20
22.7813272846
  0
VERTEX
  8
0
 62
7
  6
CONTINUOUS
 10
18.0207250225
 20
22.7930264524
  0
VERTEX
  8
0
 62
7
  6
CONTINUOUS
 10
17.9996435488
 20
22.8026790919
  0
VERTEX
  8
0
 62
7
  6
CONTINUOUS
 10
17.9777073712
 20
22.8101896879
  0
VERTEX
  8
0
 62
7
  6
CONTINUOUS
 10
17.9551335538
 20
22.8154839212
  0
VERTEX
  8
0
 62
7
  6
CONTINUOUS
 10
17.9321454702
 20
22.8185094038
  0
VERTEX
  8
0
 62
7
  6
CONTINUOUS
 10
17.9089705933
 20
22.819236198
  0
VERTEX
  8
0
 62
7
  6
CONTINUOUS
 10
17.8858382443
 20
22.8176571119
  0
VERTEX
  8
0
 62
7
  6
CONTINUOUS
 10
17.8629773237
 20
22.813787771
  0
SEQEND
  0
LINE
  8
0
 62
7
  6
CONTINUOUS
 10
0.0
 20
34.0
 11
44.0
 21
34.0
  0
LINE
  8
0
 62
7
  6
CONTINUOUS
 10
44.0
 20
0.0
 11
44.0
 21
34.0
  0
LINE
  8
_CURVE
 62
8
  6
HIDDEN
 10
5.1309364098
 20
22.0620938867
 11
5.1309364098
 21
13.8120938867
  0
LINE
  8
_CURVE
 62
7
  6
CONTINUOUS
 10
6.1934364098
 20
15.1245938867
 11
6.1934364098
 21
20.7495938867
  0
LINE
  8
_CURVE
 62
8
  6
HIDDEN
 10
5.1309364098
 20
13.8120938867
 11
38.1309364098
 21
13.8120938867
  0
LINE
  8
_CURVE
 62
7
  6
CONTINUOUS
 10
36.8184364098
 20
14.8745938867
 11
6.4434364098
 21
14.8745938867
  0
LINE
  8
_CURVE
 62
7
  6
CONTINUOUS
 10
6.4434364098
 20
20.9995938867
 11
36.8184364098
 21
20.9995938867
  0
LINE
  8
_CURVE
 62
8
  6
HIDDEN
 10
38.1309364098
 20
22.0620938867
 11
5.1309364098
 21
22.0620938867
  0
LINE
  8
_CURVE
 62
7
  6
CONTINUOUS
 10
37.0684364098
 20
20.7495938867
 11
37.0684364098
 21
15.1245938867
  0
LINE
  8
_CURVE
 62
8
  6
HIDDEN
 10
38.1309364098
 20
13.8120938867
 11
38.1309364098
 21
22.0620938867
  0
ARC
  8
_CURVE
 62
7
  6
CONTINUOUS
 10
6.4434364098
 20
20.7495938867
 40
0.25
 50
90.0
 51
180.0
  0
ARC
  8
_CURVE
 62
7
  6
CONTINUOUS
 10
6.4434364098
 20
15.1245938867
 40
0.25
 50
180.0
 51
270.0
  0
ARC
  8
_CURVE
 62
7
  6
CONTINUOUS
 10
36.8184364098
 20
15.1245938867
 40
0.25
 50
270.0
 51
360.0
  0
ARC
  8
_CURVE
 62
7
  6
CONTINUOUS
 10
36.8184364098
 20
20.7495938867
 40
0.25
 50
0.0
 51
90.0
  0
ENDSEC
  0
EOF
