999
DXF file: 1022021-7_B1.dxf
999
Pro/ENGINEER 2009220 by Parametric Technology Corporation
  0
SECTION
  2
HEADER
  9
$ACADVER
  1
AC1015
  9
$DWGCODEPAGE
  3
ANSI_1252
  9
$EXTMAX
 10
34.0
 20
22.0
 30
0.0
  9
$EXTMIN
 10
0.0
 20
0.0
 30
0.0
  9
$LIMMIN
 10
0.0
 20
0.0
  9
$LIMMAX
 10
34.0
 20
22.0
  9
$VIEWCTR
 10
17.0
 20
11.0
  9
$VIEWSIZE
 40
22.0
  9
$CLAYER
  8
0
  9
$LTSCALE
 40
1.87
  9
$CELTYPE
  6
BYLAYER
  9
$DIMSCALE
 40
1.0
  9
$DIMASZ
 40
0.1875
  9
$DIMEXO
 40
0.2125
  9
$DIMDLI
 40
1.292
  9
$DIMEXE
 40
0.612
  9
$DIMCEN
 40
0.306
  9
$DIMLFAC
 40
1.0
  9
$DIMBLK
  1
_FILLED
  9
$DIMTXT
 40
0.15625
  9
$DIMTOL
 70
1
  9
$DIMLIM
 70
0
  9
$DIMTFAC
 40
1.0
  9
$DIMTP
 40
0.01
  9
$DIMTM
 40
0.01
  9
$PDMODE
 70
3
  9
$PDSIZE
 40
0.3125
  9
$HANDSEED
  5
36D
  9
$TILEMODE
 70
1
  9
$MEASUREMENT
 70
0
  9
$INSUNITS
 70
1
  0
ENDSEC
  0
SECTION
  2
CLASSES
  0
CLASS
  1
ACDBDICTIONARYWDFLT
  2
AcDbDictionaryWithDefault
  3
AutoCAD 2000
 90
0
280
0
281
0
  0
CLASS
  1
ACDBPLACEHOLDER
  2
AcDbPlaceHolder
  3
AutoCAD 2000
 90
0
280
0
281
0
  0
CLASS
  1
LAYOUT
  2
AcDbLayout
  3
AutoCAD 2000
 90
0
280
0
281
0
  0
ENDSEC
  0
SECTION
  2
TABLES
  0
TABLE
  2
VPORT
  5
8
100
AcDbSymbolTable
 70
2
  0
VPORT
  5
1F4
100
AcDbSymbolTableRecord
100
AcDbViewportTableRecord
  2
*ACTIVE
 70
0
 10
0.0
 20
0.0
 11
1.0
 21
1.0
 12
17.0
 22
11.0
 13
0.0
 23
0.0
 14
1.0
 24
1.0
 15
0.0
 25
0.0
 16
0.0
 26
0.0
 36
1.0
 17
0.0
 27
0.0
 37
0.0
 40
22.0
 41
1.5454545455
 42
50.0
 43
0.0
 44
0.0
 50
0.0
 51
0.0
 71
0
 72
100
 73
1
 74
1
 75
0
 76
0
 77
0
 78
0
  0
ENDTAB
  0
TABLE
  2
LTYPE
  5
5
100
AcDbSymbolTable
 70
6
  0
LTYPE
  5
14
100
AcDbSymbolTableRecord
100
AcDbLinetypeTableRecord
  2
BYBLOCK
 70
0
  3

 72
65
 73
0
 40
0.0
  0
LTYPE
  5
15
100
AcDbSymbolTableRecord
100
AcDbLinetypeTableRecord
  2
BYLAYER
 70
0
  3

 72
65
 73
0
 40
0.0
  0
LTYPE
  5
16
100
AcDbSymbolTableRecord
100
AcDbLinetypeTableRecord
  2
CONTINUOUS
 70
64
  3
Solid line
 72
65
 73
0
 40
0.0
  0
LTYPE
  5
1F5
100
AcDbSymbolTableRecord
100
AcDbLinetypeTableRecord
  2
CENTER
 70
64
  3
____ _ ____ _ ____ _ ____ _ ____ _ ____ _ ____
 72
65
 73
4
 40
0.6
 49
0.375
 74
0
 49
-0.075
 74
0
 49
0.075
 74
0
 49
-0.075
 74
0
  0
LTYPE
  5
1F6
100
AcDbSymbolTableRecord
100
AcDbLinetypeTableRecord
  2
HIDDEN
 70
64
  3
- - - - - - - - - - - - - - - - - - - -
 72
65
 73
2
 40
0.2
 49
0.1
 74
0
 49
-0.1
 74
0
  0
LTYPE
  5
1F7
100
AcDbSymbolTableRecord
100
AcDbLinetypeTableRecord
  2
PHANTOM
 70
64
  3
_____ _ _ _____ _ _ _____ _ _ _____
 72
65
 73
6
 40
0.8
 49
0.45
 74
0
 49
-0.05
 74
0
 49
0.1
 74
0
 49
-0.05
 74
0
 49
0.1
 74
0
 49
-0.05
 74
0
  0
LTYPE
  5
1F8
100
AcDbSymbolTableRecord
100
AcDbLinetypeTableRecord
  2
DOT
 70
64
  3
. . . . . . . . . . . . . . . . . . . .
 72
65
 73
2
 40
0.2
 49
0.1
 74
0
 49
-0.1
 74
0
  0
LTYPE
  5
1F9
100
AcDbSymbolTableRecord
100
AcDbLinetypeTableRecord
  2
DASHED
 70
64
  3
- - - - - - - - - - - - - - - - - - - -
 72
65
 73
2
 40
0.2
 49
0.1
 74
0
 49
-0.1
 74
0
  0
ENDTAB
  0
TABLE
  2
LAYER
  5
2
100
AcDbSymbolTable
 70
36
  0
LAYER
  5
10
100
AcDbSymbolTableRecord
100
AcDbLayerTableRecord
  2
0
 70
0
 62
7
  6
CONTINUOUS
370
-3
390
F
  0
LAYER
  5
1FA
100
AcDbSymbolTableRecord
100
AcDbLayerTableRecord
  2
DEFAULT_1
 70
0
 62
7
  6
CENTER
370
-3
390
F
  0
LAYER
  5
1FB
100
AcDbSymbolTableRecord
100
AcDbLayerTableRecord
  2
DEFAULT_2
 70
0
 62
8
  6
HIDDEN
370
-3
390
F
  0
LAYER
  5
1FC
100
AcDbSymbolTableRecord
100
AcDbLayerTableRecord
  2
DEFAULT_3
 70
0
 62
7
  6
PHANTOM
370
-3
390
F
  0
LAYER
  5
1FD
100
AcDbSymbolTableRecord
100
AcDbLayerTableRecord
  2
DATUMS
 70
0
 62
7
  6
CONTINUOUS
370
-3
390
F
  0
LAYER
  5
1FE
100
AcDbSymbolTableRecord
100
AcDbLayerTableRecord
  2
DATUM_AXIS
 70
0
 62
7
  6
CONTINUOUS
370
-3
390
F
  0
LAYER
  5
1FF
100
AcDbSymbolTableRecord
100
AcDbLayerTableRecord
  2
DATUM_CSYS
 70
0
 62
7
  6
CONTINUOUS
370
-3
390
F
  0
LAYER
  5
200
100
AcDbSymbolTableRecord
100
AcDbLayerTableRecord
  2
DATUM_PLANE
 70
0
 62
7
  6
CONTINUOUS
370
-3
390
F
  0
LAYER
  5
201
100
AcDbSymbolTableRecord
100
AcDbLayerTableRecord
  2
DATUM_POINT
 70
0
 62
7
  6
CONTINUOUS
370
-3
390
F
  0
LAYER
  5
202
100
AcDbSymbolTableRecord
100
AcDbLayerTableRecord
  2
_CURVE
 70
0
 62
7
  6
CONTINUOUS
370
-3
390
F
  0
LAYER
  5
203
100
AcDbSymbolTableRecord
100
AcDbLayerTableRecord
  2
_SURFACE
 70
0
 62
7
  6
CONTINUOUS
370
-3
390
F
  0
LAYER
  5
204
100
AcDbSymbolTableRecord
100
AcDbLayerTableRecord
  2
__REF_CURVE
 70
0
 62
7
  6
CONTINUOUS
370
-3
390
F
  0
LAYER
  5
205
100
AcDbSymbolTableRecord
100
AcDbLayerTableRecord
  2
__REF_SURFACE
 70
0
 62
7
  6
CONTINUOUS
370
-3
390
F
  0
LAYER
  5
206
100
AcDbSymbolTableRecord
100
AcDbLayerTableRecord
  2
___NOTE
 70
0
 62
7
  6
CONTINUOUS
370
-3
390
F
  0
LAYER
  5
207
100
AcDbSymbolTableRecord
100
AcDbLayerTableRecord
  2
___SYMBOL
 70
0
 62
7
  6
CONTINUOUS
370
-3
390
F
  0
ENDTAB
  0
TABLE
  2
STYLE
  5
3
100
AcDbSymbolTable
 70
1
  0
STYLE
  5
11
100
AcDbSymbolTableRecord
100
AcDbTextStyleTableRecord
  2
STANDARD
 70
0
 40
0.0
 41
0.8
 50
0.0
 71
0
 42
0.2
  3
txt
  4

  0
STYLE
  5
208
100
AcDbSymbolTableRecord
100
AcDbTextStyleTableRecord
  2
TEXTSTYLE_1
 70
0
 40
0.0
 41
0.8
 50
0.0
 71
0
 42
0.2
  3
gdt
  4

  0
STYLE
  5
209
100
AcDbSymbolTableRecord
100
AcDbTextStyleTableRecord
  2
TEXTSTYLE_2
 70
0
 40
0.0
 41
1.0
 50
0.0
 71
0
 42
0.2
  3
txt
  4

  0
STYLE
  5
20A
100
AcDbSymbolTableRecord
100
AcDbTextStyleTableRecord
  2
TEXTSTYLE_3
 70
0
 40
0.0
 41
0.8258950223
 50
0.0
 71
0
 42
0.2
  3
txt
  4

  0
STYLE
  5
20B
100
AcDbSymbolTableRecord
100
AcDbTextStyleTableRecord
  2
TEXTSTYLE_4
 70
0
 40
0.0
 41
0.6740211631
 50
0.0
 71
0
 42
0.2
  3
txt
  4

  0
ENDTAB
  0
TABLE
  2
VIEW
  5
6
100
AcDbSymbolTable
 70
0
  0
ENDTAB
  0
TABLE
  2
UCS
  5
7
100
AcDbSymbolTable
 70
0
  0
ENDTAB
  0
TABLE
  2
APPID
  5
9
100
AcDbSymbolTable
 70
1
  0
APPID
  5
20C
100
AcDbSymbolTableRecord
100
AcDbRegAppTableRecord
  2
ACAD
 70
0
  0
ENDTAB
  0
TABLE
  2
BLOCK_RECORD
  5
1
100
AcDbSymbolTable
 70
0
  0
BLOCK_RECORD
  5
20D
100
AcDbSymbolTableRecord
100
AcDbBlockTableRecord
  2
*Model_Space
  0
BLOCK_RECORD
  5
20E
100
AcDbSymbolTableRecord
100
AcDbBlockTableRecord
  2
*Paper_Space
  0
BLOCK_RECORD
  5
20F
100
AcDbSymbolTableRecord
100
AcDbBlockTableRecord
  2
_FILLED
  0
BLOCK_RECORD
  5
210
100
AcDbSymbolTableRecord
100
AcDbBlockTableRecord
  2
*D0
  0
BLOCK_RECORD
  5
211
100
AcDbSymbolTableRecord
100
AcDbBlockTableRecord
  2
*D1
  0
BLOCK_RECORD
  5
212
100
AcDbSymbolTableRecord
100
AcDbBlockTableRecord
  2
WHEN_PLOTTING_TEMPLATE_N_BL5
  0
BLOCK_RECORD
  5
213
100
AcDbSymbolTableRecord
100
AcDbBlockTableRecord
  2
TEMPLATE_NUMBER_BL4
  0
BLOCK_RECORD
  5
214
100
AcDbSymbolTableRecord
100
AcDbBlockTableRecord
  2
TEMPLATE_NUMBER_BL3
  0
BLOCK_RECORD
  5
215
100
AcDbSymbolTableRecord
100
AcDbBlockTableRecord
  2
PACKAGING_UPC_BL2
  0
BLOCK_RECORD
  5
216
100
AcDbSymbolTableRecord
100
AcDbBlockTableRecord
  2
CUT-OUT_TEMPLATE_SKU_SIN_BL1
  0
BLOCK_RECORD
  5
217
100
AcDbSymbolTableRecord
100
AcDbBlockTableRecord
  2
COPYRIGHT_YEAR_BL0
  0
ENDTAB
  0
TABLE
  2
DIMSTYLE
  5
A
100
AcDbSymbolTable
 70
1
100
AcDbDimStyleTable
 71
0
  0
DIMSTYLE
105
218
100
AcDbSymbolTableRecord
100
AcDbDimStyleTableRecord
  2
STANDARD
 70
0
  3

  4

 40
1.0
 41
0.1875
 42
0.0625
 43
0.38
 44
0.18
 45
0.0
 46
0.0
 47
0.01
 48
0.01
140
0.15625
141
0.09
142
0.0
143
25.4
144
1.0
145
0.0
146
1.0
147
0.09
 71
1.0
 72
0.0
 73
1
 74
1
 75
0
 76
0
 77
0
 78
4
170
0
171
2
172
0
173
0
174
0
175
0
176
0
177
0
178
0
270
2
271
3
272
3
273
2
274
2
275
0
280
0
281
0
282
0
283
1
284
4
285
0
286
0
287
3
288
0
340
11
341
20F
342
20F
343
20F
344
20F
  0
DIMSTYLE
105
219
100
AcDbSymbolTableRecord
100
AcDbDimStyleTableRecord
  2
DIMSTYLE_1
 70
0
  3

  4

 40
1.0
 41
0.1875
 42
0.0625
 43
0.38
 44
0.18
 45
0.0
 46
0.0
 47
32.0
 48
32.0
140
0.15625
141
0.09
142
0.0
143
25.4
144
1.0
145
0.0
146
1.0
147
0.09
 71
0.0
 72
0.0
 73
1
 74
1
 75
0
 76
0
 77
0
 78
4
170
0
171
2
172
0
173
0
174
0
175
0
176
0
177
0
178
0
270
2
271
4
272
4
273
2
274
2
275
0
280
0
281
0
282
0
283
1
284
4
285
0
286
0
287
3
288
0
340
11
341
20F
342
20F
343
20F
344
20F
  0
ENDTAB
  0
ENDSEC
  0
SECTION
  2
BLOCKS
  0
BLOCK
  5
20
100
AcDbEntity
  8
0
100
AcDbBlockBegin
  2
*Model_Space
 70
0
 10
0.0
 20
0.0
 30
0.0
  3
*Model_Space
  1

  0
ENDBLK
  5
21
100
AcDbEntity
  8
0
100
AcDbBlockEnd
  0
BLOCK
  5
1C
100
AcDbEntity
  8
0
100
AcDbBlockBegin
  2
*Paper_Space
 70
0
 10
0.0
 20
0.0
 30
0.0
  3
*Paper_Space
  1

  0
ENDBLK
  5
1D
100
AcDbEntity
  8
0
100
AcDbBlockEnd
  0
BLOCK
  5
21A
100
AcDbEntity
  8
___SYMBOL
100
AcDbBlockBegin
 62
2
  6
CONTINUOUS
  2
WHEN_PLOTTING_TEMPLATE_N_BL5
 70
64
 10
16.0148102155
 20
7.612753644
  3
WHEN_PLOTTING_TEMPLATE_N_BL5
  1

  0
MTEXT
  5
21B
100
AcDbEntity
  8
___SYMBOL
100
AcDbMText
 62
2
  6
CONTINUOUS
  7
STANDARD
 71
1
 72
1
 10
12.7023099831
 20
8.9799412399
 30
0.0
 11
1.0
 21
0.0
 31
0.0
 44
0.9
  1
WHEN PLOTTING TEMPLATE FULL SIZE:
 40
0.156250011
 41
4.1250002894
  0
MTEXT
  5
21C
100
AcDbEntity
  8
___SYMBOL
100
AcDbMText
 62
2
  6
CONTINUOUS
  7
STANDARD
 71
1
 72
1
 10
12.7023099831
 20
8.7455662234
 30
0.0
 11
1.0
 21
0.0
 31
0.0
 44
0.9
  1
Make sure horizontal and vertical dimensions
 40
0.156250011
 41
5.5000003859
  0
MTEXT
  5
21D
100
AcDbEntity
  8
___SYMBOL
100
AcDbMText
 62
2
  6
CONTINUOUS
  7
STANDARD
 71
1
 72
1
 10
12.7023099831
 20
8.511191207
 30
0.0
 11
1.0
 21
0.0
 31
0.0
 44
0.9
  1
match the dimensions labeled on the template.
 40
0.156250011
 41
5.6250003947
  0
MTEXT
  5
21E
100
AcDbEntity
  8
___SYMBOL
100
AcDbMText
 62
2
  6
CONTINUOUS
  7
STANDARD
 71
1
 72
1
 10
12.7023099831
 20
8.0424411741
 30
0.0
 11
1.0
 21
0.0
 31
0.0
 44
0.9
  1
AL TRAZAR LA PLANTILLA A ESCALA,
 40
0.156250011
 41
4.0000002806
  0
MTEXT
  5
21F
100
AcDbEntity
  8
___SYMBOL
100
AcDbMText
 62
2
  6
CONTINUOUS
  7
STANDARD
 71
1
 72
1
 10
12.7023099831
 20
7.8080661577
 30
0.0
 11
1.0
 21
0.0
 31
0.0
 44
0.9
  1
asegúrese de que las dimensiones horizontales
 40
0.156250011
 41
5.6250003947
  0
MTEXT
  5
220
100
AcDbEntity
  8
___SYMBOL
100
AcDbMText
 62
2
  6
CONTINUOUS
  7
STANDARD
 71
1
 72
1
 10
12.7023099831
 20
7.5736911412
 30
0.0
 11
1.0
 21
0.0
 31
0.0
 44
0.9
  1
y verticales concuerden con las dimensiones marcadas
 40
0.156250011
 41
6.500000456
  0
MTEXT
  5
221
100
AcDbEntity
  8
___SYMBOL
100
AcDbMText
 62
2
  6
CONTINUOUS
  7
STANDARD
 71
1
 72
1
 10
12.7023099831
 20
7.3393161248
 30
0.0
 11
1.0
 21
0.0
 31
0.0
 44
0.9
  1
en la plantilla.
 40
0.156250011
 41
2.0000001403
  0
MTEXT
  5
222
100
AcDbEntity
  8
___SYMBOL
100
AcDbMText
 62
2
  6
CONTINUOUS
  7
STANDARD
 71
1
 72
1
 10
12.7023099831
 20
6.8705660919
 30
0.0
 11
1.0
 21
0.0
 31
0.0
 44
0.9
  1
AU MOMENT DE TRACER LA DÉCOUPE À L'ÉCHELLE,
 40
0.156250011
 41
5.3750003771
  0
MTEXT
  5
223
100
AcDbEntity
  8
___SYMBOL
100
AcDbMText
 62
2
  6
CONTINUOUS
  7
STANDARD
 71
1
 72
1
 10
12.7023099831
 20
6.6361910754
 30
0.0
 11
1.0
 21
0.0
 31
0.0
 44
0.9
  1
Assurez vos que les dimensions horizotales et
 40
0.156250011
 41
5.6250003947
  0
MTEXT
  5
224
100
AcDbEntity
  8
___SYMBOL
100
AcDbMText
 62
2
  6
CONTINUOUS
  7
STANDARD
 71
1
 72
1
 10
12.7023099831
 20
6.401816059
 30
0.0
 11
1.0
 21
0.0
 31
0.0
 44
0.9
  1
verticales correspondent avec les dimensions du plan.
 40
0.156250011
 41
6.6250004648
  0
ENDBLK
  5
225
100
AcDbEntity
  8
0
  6
BYBLOCK
 62
0
100
AcDbBlockEnd
  0
BLOCK
  5
226
100
AcDbEntity
  8
___SYMBOL
100
AcDbBlockBegin
 62
2
  6
CONTINUOUS
  2
TEMPLATE_NUMBER_BL4
 70
64
 10
4.0870269225
 20
1.9708111138
  3
TEMPLATE_NUMBER_BL4
  1

  0
MTEXT
  5
227
100
AcDbEntity
  8
___SYMBOL
100
AcDbMText
 62
2
  6
CONTINUOUS
  7
STANDARD
 71
1
 72
1
 10
3.77682702
 20
2.0060611028
 30
0.0
 11
1.0
 21
0.0
 31
0.0
 44
0.9
  1
1022021-7-B
 40
0.0704999778
 41
0.620399805
  0
ENDBLK
  5
228
100
AcDbEntity
  8
0
  6
BYBLOCK
 62
0
100
AcDbBlockEnd
  0
BLOCK
  5
229
100
AcDbEntity
  8
___SYMBOL
100
AcDbBlockBegin
 62
2
  6
CONTINUOUS
  2
TEMPLATE_NUMBER_BL3
 70
64
 10
4.06561606
 20
3.3521685885
  3
TEMPLATE_NUMBER_BL3
  1

  0
MTEXT
  5
22A
100
AcDbEntity
  8
___SYMBOL
100
AcDbMText
 62
2
  6
CONTINUOUS
  7
STANDARD
 71
1
 72
1
 10
3.7554161575
 20
3.3874185774
 30
0.0
 11
1.0
 21
0.0
 31
0.0
 44
0.9
  1
1022021-7-B
 40
0.0704999778
 41
0.620399805
  0
ENDBLK
  5
22B
100
AcDbEntity
  8
0
  6
BYBLOCK
 62
0
100
AcDbBlockEnd
  0
BLOCK
  5
22C
100
AcDbEntity
  8
___SYMBOL
100
AcDbBlockBegin
 62
2
  6
CONTINUOUS
  2
PACKAGING_UPC_BL2
 70
64
 10
8.2000421108
 20
7.4930576613
  3
PACKAGING_UPC_BL2
  1

  0
LINE
  5
22D
100
AcDbEntity
  8
___SYMBOL
100
AcDbLine
 62
7
  6
CONTINUOUS
 10
8.6548462031
 20
7.8641659642
 11
6.4698037244
 21
7.8641659642
  0
LINE
  5
22E
100
AcDbEntity
  8
___SYMBOL
100
AcDbLine
 62
7
  6
CONTINUOUS
 10
6.4698037244
 20
7.8641659642
 11
6.4698037244
 21
8.8571959545
  0
LINE
  5
22F
100
AcDbEntity
  8
___SYMBOL
100
AcDbLine
 62
7
  6
CONTINUOUS
 10
6.4698037244
 20
8.8571959545
 11
8.6548462031
 21
8.8571959545
  0
LINE
  5
230
100
AcDbEntity
  8
___SYMBOL
100
AcDbLine
 62
7
  6
CONTINUOUS
 10
8.6548462031
 20
8.8571959545
 11
8.6548462031
 21
7.8641659642
  0
LINE
  5
231
100
AcDbEntity
  8
___SYMBOL
100
AcDbLine
 62
7
  6
CONTINUOUS
 10
6.4364362247
 20
8.8896559541
 11
8.6890012027
 21
8.8896559541
  0
LINE
  5
232
100
AcDbEntity
  8
___SYMBOL
100
AcDbLine
 62
7
  6
CONTINUOUS
 10
8.6890012027
 20
8.8896559541
 11
8.6890012027
 21
7.7967484648
  0
LINE
  5
233
100
AcDbEntity
  8
___SYMBOL
100
AcDbLine
 62
7
  6
CONTINUOUS
 10
8.6890012027
 20
7.7967484648
 11
6.4364362247
 21
7.7967484648
  0
LINE
  5
234
100
AcDbEntity
  8
___SYMBOL
100
AcDbLine
 62
7
  6
CONTINUOUS
 10
6.4364362247
 20
7.7967484648
 11
6.4364362247
 21
8.8896559541
  0
LINE
  5
235
100
AcDbEntity
  8
___SYMBOL
100
AcDbLine
 62
7
  6
CONTINUOUS
 10
8.4496612051
 20
8.2958359599
 11
8.4496612051
 21
8.1742009611
  0
LINE
  5
236
100
AcDbEntity
  8
___SYMBOL
100
AcDbLine
 62
7
  6
CONTINUOUS
 10
8.4496612051
 20
8.1742009611
 11
8.1067087084
 21
8.1742009611
  0
LINE
  5
237
100
AcDbEntity
  8
___SYMBOL
100
AcDbLine
 62
7
  6
CONTINUOUS
 10
8.1067087084
 20
8.1742009611
 11
8.1067087084
 21
8.2958359599
  0
LINE
  5
238
100
AcDbEntity
  8
___SYMBOL
100
AcDbLine
 62
7
  6
CONTINUOUS
 10
8.1067087084
 20
8.2958359599
 11
8.4496612051
 21
8.2958359599
  0
SOLID
  5
239
100
AcDbEntity
  8
___SYMBOL
100
AcDbTrace
 62
7
  6
CONTINUOUS
 10
8.1067087084
 20
8.1742009521
 11
8.1067087084
 21
8.2958359523
 12
8.4496612051
 22
8.2958359523
 13
8.4496612051
 23
8.2958359523
  0
SOLID
  5
23A
100
AcDbEntity
  8
___SYMBOL
100
AcDbTrace
 62
7
  6
CONTINUOUS
 10
8.4496612051
 20
8.2958359523
 11
8.4496612051
 21
8.1742009521
 12
8.1067087084
 22
8.1742009521
 13
8.1067087084
 23
8.1742009521
  0
LINE
  5
23B
100
AcDbEntity
  8
___SYMBOL
100
AcDbLine
 62
7
  6
CONTINUOUS
 10
7.3742062156
 20
8.2958359599
 11
7.3742062156
 21
8.1742009611
  0
LINE
  5
23C
100
AcDbEntity
  8
___SYMBOL
100
AcDbLine
 62
7
  6
CONTINUOUS
 10
7.3742062156
 20
8.1742009611
 11
6.5185012239
 21
8.1742009611
  0
LINE
  5
23D
100
AcDbEntity
  8
___SYMBOL
100
AcDbLine
 62
7
  6
CONTINUOUS
 10
6.5185012239
 20
8.1742009611
 11
6.5185012239
 21
8.2958359599
  0
LINE
  5
23E
100
AcDbEntity
  8
___SYMBOL
100
AcDbLine
 62
7
  6
CONTINUOUS
 10
6.5185012239
 20
8.2958359599
 11
7.3742062156
 21
8.2958359599
  0
SOLID
  5
23F
100
AcDbEntity
  8
___SYMBOL
100
AcDbTrace
 62
7
  6
CONTINUOUS
 10
6.5185012239
 20
8.1742009521
 11
6.5185012239
 21
8.2958359523
 12
7.3742062156
 22
8.2958359523
 13
7.3742062156
 23
8.2958359523
  0
SOLID
  5
240
100
AcDbEntity
  8
___SYMBOL
100
AcDbTrace
 62
7
  6
CONTINUOUS
 10
7.3742062156
 20
8.2958359523
 11
7.3742062156
 21
8.1742009521
 12
6.5185012239
 22
8.1742009521
 13
6.5185012239
 23
8.1742009521
  0
LINE
  5
241
100
AcDbEntity
  8
___SYMBOL
100
AcDbLine
 62
7
  6
CONTINUOUS
 10
7.3742062156
 20
7.9225684636
 11
7.3742062156
 21
7.8875884639
  0
LINE
  5
242
100
AcDbEntity
  8
___SYMBOL
100
AcDbLine
 62
7
  6
CONTINUOUS
 10
7.3742062156
 20
7.8875884639
 11
6.5185012239
 21
7.8875884639
  0
LINE
  5
243
100
AcDbEntity
  8
___SYMBOL
100
AcDbLine
 62
7
  6
CONTINUOUS
 10
6.5185012239
 20
7.8875884639
 11
6.5185012239
 21
7.9225684636
  0
LINE
  5
244
100
AcDbEntity
  8
___SYMBOL
100
AcDbLine
 62
7
  6
CONTINUOUS
 10
6.5185012239
 20
7.9225684636
 11
7.3742062156
 21
7.9225684636
  0
SOLID
  5
245
100
AcDbEntity
  8
___SYMBOL
100
AcDbTrace
 62
7
  6
CONTINUOUS
 10
6.5185012239
 20
7.8875884655
 11
6.5185012239
 21
7.9225684476
 12
7.3742062156
 22
7.9225684476
 13
7.3742062156
 23
7.9225684476
  0
SOLID
  5
246
100
AcDbEntity
  8
___SYMBOL
100
AcDbTrace
 62
7
  6
CONTINUOUS
 10
7.3742062156
 20
7.9225684476
 11
7.3742062156
 21
7.8875884655
 12
6.5185012239
 22
7.8875884655
 13
6.5185012239
 23
7.8875884655
  0
ELLIPSE
  5
247
100
AcDbEntity
  8
___SYMBOL
100
AcDbEllipse
 62
7
  6
CONTINUOUS
 10
7.2590549667
 20
8.0542414623
 30
0.0
 11
0.0665781628
 21
0.0483683571
 31
0.0
 40
0.999973
 41
1.1735611666
 42
7.4430683942
  0
LINE
  5
248
100
AcDbEntity
  8
___SYMBOL
100
AcDbLine
 62
7
  6
CONTINUOUS
 10
7.4208562151
 20
8.8290709547
 11
7.4208562151
 21
8.7674209553
  0
LINE
  5
249
100
AcDbEntity
  8
___SYMBOL
100
AcDbLine
 62
7
  6
CONTINUOUS
 10
7.4208562151
 20
8.7674209553
 11
6.5651512235
 21
8.7674209553
  0
LINE
  5
24A
100
AcDbEntity
  8
___SYMBOL
100
AcDbLine
 62
7
  6
CONTINUOUS
 10
6.5651512235
 20
8.7674209553
 11
6.5651512235
 21
8.8290709547
  0
LINE
  5
24B
100
AcDbEntity
  8
___SYMBOL
100
AcDbLine
 62
7
  6
CONTINUOUS
 10
6.5651512235
 20
8.8290709547
 11
7.4208562151
 21
8.8290709547
  0
SOLID
  5
24C
100
AcDbEntity
  8
___SYMBOL
100
AcDbTrace
 62
7
  6
CONTINUOUS
 10
6.5651512235
 20
8.7674209512
 11
6.5651512235
 21
8.8290709413
 12
7.4208562151
 22
8.8290709413
 13
7.4208562151
 23
8.8290709413
  0
SOLID
  5
24D
100
AcDbEntity
  8
___SYMBOL
100
AcDbTrace
 62
7
  6
CONTINUOUS
 10
7.4208562151
 20
8.8290709413
 11
7.4208562151
 21
8.7674209512
 12
6.5651512235
 22
8.7674209512
 13
6.5651512235
 23
8.7674209512
  0
LINE
  5
24E
100
AcDbEntity
  8
___SYMBOL
100
AcDbLine
 62
7
  6
CONTINUOUS
 10
7.4208562151
 20
8.7290884557
 11
7.4208562151
 21
8.6674384563
  0
LINE
  5
24F
100
AcDbEntity
  8
___SYMBOL
100
AcDbLine
 62
7
  6
CONTINUOUS
 10
7.4208562151
 20
8.6674384563
 11
6.5651512235
 21
8.6674384563
  0
LINE
  5
250
100
AcDbEntity
  8
___SYMBOL
100
AcDbLine
 62
7
  6
CONTINUOUS
 10
6.5651512235
 20
8.6674384563
 11
6.5651512235
 21
8.7290884557
  0
LINE
  5
251
100
AcDbEntity
  8
___SYMBOL
100
AcDbLine
 62
7
  6
CONTINUOUS
 10
6.5651512235
 20
8.7290884557
 11
7.4208562151
 21
8.7290884557
  0
SOLID
  5
252
100
AcDbEntity
  8
___SYMBOL
100
AcDbTrace
 62
7
  6
CONTINUOUS
 10
6.5651512235
 20
8.667438443
 11
6.5651512235
 21
8.7290884671
 12
7.4208562151
 22
8.7290884671
 13
7.4208562151
 23
8.7290884671
  0
SOLID
  5
253
100
AcDbEntity
  8
___SYMBOL
100
AcDbTrace
 62
7
  6
CONTINUOUS
 10
7.4208562151
 20
8.7290884671
 11
7.4208562151
 21
8.667438443
 12
6.5651512235
 22
8.667438443
 13
6.5651512235
 23
8.667438443
  0
LINE
  5
254
100
AcDbEntity
  8
___SYMBOL
100
AcDbLine
 62
7
  6
CONTINUOUS
 10
7.4208562151
 20
8.6291059567
 11
7.4208562151
 21
8.5674634573
  0
LINE
  5
255
100
AcDbEntity
  8
___SYMBOL
100
AcDbLine
 62
7
  6
CONTINUOUS
 10
7.4208562151
 20
8.5674634573
 11
6.5651512235
 21
8.5674634573
  0
LINE
  5
256
100
AcDbEntity
  8
___SYMBOL
100
AcDbLine
 62
7
  6
CONTINUOUS
 10
6.5651512235
 20
8.5674634573
 11
6.5651512235
 21
8.6291059567
  0
LINE
  5
257
100
AcDbEntity
  8
___SYMBOL
100
AcDbLine
 62
7
  6
CONTINUOUS
 10
6.5651512235
 20
8.6291059567
 11
7.4208562151
 21
8.6291059567
  0
SOLID
  5
258
100
AcDbEntity
  8
___SYMBOL
100
AcDbTrace
 62
7
  6
CONTINUOUS
 10
6.5651512235
 20
8.5674634488
 11
6.5651512235
 21
8.6291059589
 12
7.4208562151
 22
8.6291059589
 13
7.4208562151
 23
8.6291059589
  0
SOLID
  5
259
100
AcDbEntity
  8
___SYMBOL
100
AcDbTrace
 62
7
  6
CONTINUOUS
 10
7.4208562151
 20
8.6291059589
 11
7.4208562151
 21
8.5674634488
 12
6.5651512235
 22
8.5674634488
 13
6.5651512235
 23
8.5674634488
  0
LINE
  5
25A
100
AcDbEntity
  8
___SYMBOL
100
AcDbLine
 62
7
  6
CONTINUOUS
 10
7.4208562151
 20
8.5291234577
 11
7.4208562151
 21
8.4674809583
  0
LINE
  5
25B
100
AcDbEntity
  8
___SYMBOL
100
AcDbLine
 62
7
  6
CONTINUOUS
 10
7.4208562151
 20
8.4674809583
 11
6.5651512235
 21
8.4674809583
  0
LINE
  5
25C
100
AcDbEntity
  8
___SYMBOL
100
AcDbLine
 62
7
  6
CONTINUOUS
 10
6.5651512235
 20
8.4674809583
 11
6.5651512235
 21
8.5291234577
  0
LINE
  5
25D
100
AcDbEntity
  8
___SYMBOL
100
AcDbLine
 62
7
  6
CONTINUOUS
 10
6.5651512235
 20
8.5291234577
 11
7.4208562151
 21
8.5291234577
  0
SOLID
  5
25E
100
AcDbEntity
  8
___SYMBOL
100
AcDbTrace
 62
7
  6
CONTINUOUS
 10
6.5651512235
 20
8.4674809746
 11
6.5651512235
 21
8.5291234507
 12
7.4208562151
 22
8.5291234507
 13
7.4208562151
 23
8.5291234507
  0
SOLID
  5
25F
100
AcDbEntity
  8
___SYMBOL
100
AcDbTrace
 62
7
  6
CONTINUOUS
 10
7.4208562151
 20
8.5291234507
 11
7.4208562151
 21
8.4674809746
 12
6.5651512235
 22
8.4674809746
 13
6.5651512235
 23
8.4674809746
  0
LINE
  5
260
100
AcDbEntity
  8
___SYMBOL
100
AcDbLine
 62
7
  6
CONTINUOUS
 10
7.4208562151
 20
8.4024859589
 11
7.4208562151
 21
8.3408359595
  0
LINE
  5
261
100
AcDbEntity
  8
___SYMBOL
100
AcDbLine
 62
7
  6
CONTINUOUS
 10
7.4208562151
 20
8.3408359595
 11
6.5651512235
 21
8.3408359595
  0
LINE
  5
262
100
AcDbEntity
  8
___SYMBOL
100
AcDbLine
 62
7
  6
CONTINUOUS
 10
6.5651512235
 20
8.3408359595
 11
6.5651512235
 21
8.4024859589
  0
LINE
  5
263
100
AcDbEntity
  8
___SYMBOL
100
AcDbLine
 62
7
  6
CONTINUOUS
 10
6.5651512235
 20
8.4024859589
 11
7.4208562151
 21
8.4024859589
  0
SOLID
  5
264
100
AcDbEntity
  8
___SYMBOL
100
AcDbTrace
 62
7
  6
CONTINUOUS
 10
6.5651512235
 20
8.3408359724
 11
6.5651512235
 21
8.4024859625
 12
7.4208562151
 22
8.4024859625
 13
7.4208562151
 23
8.4024859625
  0
SOLID
  5
265
100
AcDbEntity
  8
___SYMBOL
100
AcDbTrace
 62
7
  6
CONTINUOUS
 10
7.4208562151
 20
8.4024859625
 11
7.4208562151
 21
8.3408359724
 12
6.5651512235
 22
8.3408359724
 13
6.5651512235
 23
8.3408359724
  0
MTEXT
  5
266
100
AcDbEntity
  8
___SYMBOL
100
AcDbMText
 62
2
  6
CONTINUOUS
  7
TEXTSTYLE_3
 71
1
 72
1
 10
6.6660412225
 20
8.0794197121
 30
0.0
 11
1.0
 21
0.0
 31
0.0
 44
0.9
  1
XXXXX-XX-X-XX
 40
0.0593587494
 41
0.6373132438
  0
MTEXT
  5
267
100
AcDbEntity
  8
___SYMBOL
100
AcDbMText
 62
2
  6
CONTINUOUS
  7
TEXTSTYLE_4
 71
1
 72
1
 10
8.3000212065
 20
7.9354152135
 30
0.0
 11
1.0
 21
0.0
 31
0.0
 44
0.9
  1
xxxxxx-xx
 40
0.0445192496
 41
0.2700622474
  0
MTEXT
  5
268
100
AcDbEntity
  8
___SYMBOL
100
AcDbMText
 62
2
  6
CONTINUOUS
  7
STANDARD
 71
1
 72
1
 10
5.535696925
 20
9.7199396329
 30
0.0
 11
1.0
 21
0.0
 31
0.0
 44
0.9
  1
PACKAGING/UPC LABEL ON BOX
 40
0.1562500055
 41
3.2500001149
  0
MTEXT
  5
269
100
AcDbEntity
  8
___SYMBOL
100
AcDbMText
 62
2
  6
CONTINUOUS
  7
STANDARD
 71
1
 72
1
 10
5.535696925
 20
9.4855646247
 30
0.0
 11
1.0
 21
0.0
 31
0.0
 44
0.9
  1
ETIQUETA DE EMBALAJE/UPC EN LA CAJA
 40
0.1562500055
 41
4.3750001547
  0
MTEXT
  5
26A
100
AcDbEntity
  8
___SYMBOL
100
AcDbMText
 62
2
  6
CONTINUOUS
  7
STANDARD
 71
1
 72
1
 10
5.535696925
 20
9.2511896181
 30
0.0
 11
1.0
 21
0.0
 31
0.0
 44
0.9
  1
ETIQUETTE D'EMBALLAGE/UPC SUR LA BOÎTE
 40
0.1562500003
 41
4.75
  0
MTEXT
  5
26B
100
AcDbEntity
  8
___SYMBOL
100
AcDbMText
 62
2
  6
CONTINUOUS
  7
STANDARD
 71
1
 72
1
 10
5.5125420158
 20
7.5318007131
 30
0.0
 11
1.0
 21
0.0
 31
0.0
 44
0.9
  1
The template and the label suffixes circled
 40
0.1562500055
 41
5.3750001901
  0
MTEXT
  5
26C
100
AcDbEntity
  8
___SYMBOL
100
AcDbMText
 62
2
  6
CONTINUOUS
  7
STANDARD
 71
1
 72
1
 10
5.5125420158
 20
7.2974257048
 30
0.0
 11
1.0
 21
0.0
 31
0.0
 44
0.9
  1
must match for proper cut-out.
 40
0.1562500055
 41
3.7500001326
  0
MTEXT
  5
26D
100
AcDbEntity
  8
___SYMBOL
100
AcDbMText
 62
2
  6
CONTINUOUS
  7
STANDARD
 71
1
 72
1
 10
5.5125420158
 20
6.8286756965
 30
0.0
 11
1.0
 21
0.0
 31
0.0
 44
0.9
  1
A fin de realizar el corte apropiado, la
 40
0.1562500055
 41
5.0000001768
  0
MTEXT
  5
26E
100
AcDbEntity
  8
___SYMBOL
100
AcDbMText
 62
2
  6
CONTINUOUS
  7
STANDARD
 71
1
 72
1
 10
5.5125420158
 20
6.5943006899
 30
0.0
 11
1.0
 21
0.0
 31
0.0
 44
0.9
  1
plantilla y los sufijos de la etiqueta
 40
0.1562500003
 41
4.75
  0
MTEXT
  5
26F
100
AcDbEntity
  8
___SYMBOL
100
AcDbMText
 62
2
  6
CONTINUOUS
  7
STANDARD
 71
1
 72
1
 10
5.5125420158
 20
6.3599256899
 30
0.0
 11
1.0
 21
0.0
 31
0.0
 44
0.9
  1
demarcados deben concordar.
 40
0.1562500003
 41
3.375
  0
MTEXT
  5
270
100
AcDbEntity
  8
___SYMBOL
100
AcDbMText
 62
2
  6
CONTINUOUS
  7
STANDARD
 71
1
 72
1
 10
5.5125420158
 20
5.8911756899
 30
0.0
 11
1.0
 21
0.0
 31
0.0
 44
0.9
  1
Afin de découper l'ouverture correctement,
 40
0.1562500003
 41
5.25
  0
MTEXT
  5
271
100
AcDbEntity
  8
___SYMBOL
100
AcDbMText
 62
2
  6
CONTINUOUS
  7
STANDARD
 71
1
 72
1
 10
5.5125420158
 20
5.6568006899
 30
0.0
 11
1.0
 21
0.0
 31
0.0
 44
0.9
  1
le gabarit et les suffixes encerclés
 40
0.1562500003
 41
4.5
  0
MTEXT
  5
272
100
AcDbEntity
  8
___SYMBOL
100
AcDbMText
 62
2
  6
CONTINUOUS
  7
STANDARD
 71
1
 72
1
 10
5.5125420158
 20
5.4224256899
 30
0.0
 11
1.0
 21
0.0
 31
0.0
 44
0.9
  1
doivent correspondre
 40
0.1562500003
 41
2.5
  0
ENDBLK
  5
273
100
AcDbEntity
  8
0
  6
BYBLOCK
 62
0
100
AcDbBlockEnd
  0
BLOCK
  5
274
100
AcDbEntity
  8
___SYMBOL
100
AcDbBlockBegin
 62
2
  6
CONTINUOUS
  2
CUT-OUT_TEMPLATE_SKU_SIN_BL1
 70
64
 10
7.2490850754
 20
16.1033016684
  3
CUT-OUT_TEMPLATE_SKU_SIN_BL1
  1

  0
LINE
  5
275
100
AcDbEntity
  8
___SYMBOL
100
AcDbLine
 62
2
  6
CONTINUOUS
 10
5.375656785
 20
18.3697650728
 11
5.1623533255
 21
18.1161167908
  0
LINE
  5
276
100
AcDbEntity
  8
___SYMBOL
100
AcDbLine
 62
2
  6
CONTINUOUS
 10
5.1835949661
 20
18.3697650728
 11
5.375656785
 21
18.3697650728
  0
LINE
  5
277
100
AcDbEntity
  8
___SYMBOL
100
AcDbLine
 62
2
  6
CONTINUOUS
 10
5.1835949661
 20
18.3697650728
 11
5.0458307945
 21
18.2059438773
  0
LINE
  5
278
100
AcDbEntity
  8
___SYMBOL
100
AcDbLine
 62
2
  6
CONTINUOUS
 10
5.0458307945
 20
18.3697650728
 11
5.0458307945
 21
18.2059438773
  0
LINE
  5
279
100
AcDbEntity
  8
___SYMBOL
100
AcDbLine
 62
2
  6
CONTINUOUS
 10
4.8713305613
 20
18.3697650728
 11
5.0458307945
 21
18.3697650728
  0
LINE
  5
27A
100
AcDbEntity
  8
___SYMBOL
100
AcDbLine
 62
2
  6
CONTINUOUS
 10
4.8713305613
 20
18.3697650728
 11
4.8713305613
 21
17.7838273991
  0
LINE
  5
27B
100
AcDbEntity
  8
___SYMBOL
100
AcDbLine
 62
2
  6
CONTINUOUS
 10
5.0458307945
 20
17.7838514026
 11
4.8713305613
 21
17.7838273991
  0
LINE
  5
27C
100
AcDbEntity
  8
___SYMBOL
100
AcDbLine
 62
2
  6
CONTINUOUS
 10
5.0458307945
 20
17.9853512438
 11
5.0458307945
 21
17.7838514026
  0
LINE
  5
27D
100
AcDbEntity
  8
___SYMBOL
100
AcDbLine
 62
2
  6
CONTINUOUS
 10
5.19956874
 20
17.7838514026
 11
5.0458307945
 21
17.9853512438
  0
LINE
  5
27E
100
AcDbEntity
  8
___SYMBOL
100
AcDbLine
 62
2
  6
CONTINUOUS
 10
5.19956874
 20
17.7838514026
 11
5.4158611692
 21
17.7838514026
  0
LINE
  5
27F
100
AcDbEntity
  8
___SYMBOL
100
AcDbLine
 62
2
  6
CONTINUOUS
 10
5.4158611692
 20
17.7838514026
 11
5.1623533255
 21
18.1161167908
  0
SOLID
  5
280
100
AcDbEntity
  8
___SYMBOL
100
AcDbTrace
 62
2
  6
CONTINUOUS
 10
5.0458307945
 20
18.2059438773
 11
5.1835949661
 21
18.3697650728
 12
5.375656785
 22
18.3697650728
 13
5.375656785
 23
18.3697650728
  0
SOLID
  5
281
100
AcDbEntity
  8
___SYMBOL
100
AcDbTrace
 62
2
  6
CONTINUOUS
 10
5.375656785
 20
18.3697650728
 11
5.1623533255
 21
18.1161167908
 12
5.0458307945
 22
18.2059438773
 13
5.0458307945
 23
18.2059438773
  0
SOLID
  5
282
100
AcDbEntity
  8
___SYMBOL
100
AcDbTrace
 62
2
  6
CONTINUOUS
 10
5.0458307945
 20
17.9853512438
 11
5.1623533255
 21
18.1161167908
 12
5.19956874
 22
17.7838514026
 13
5.19956874
 23
17.7838514026
  0
SOLID
  5
283
100
AcDbEntity
  8
___SYMBOL
100
AcDbTrace
 62
2
  6
CONTINUOUS
 10
5.1623533255
 20
18.1161167908
 11
5.4158611692
 21
17.7838514026
 12
5.19956874
 22
17.7838514026
 13
5.19956874
 23
17.7838514026
  0
SOLID
  5
284
100
AcDbEntity
  8
___SYMBOL
100
AcDbTrace
 62
2
  6
CONTINUOUS
 10
5.0458307945
 20
17.7838514026
 11
4.8713305613
 21
17.7838273991
 12
5.0458307945
 22
17.9853512438
 13
5.0458307945
 23
17.9853512438
  0
SOLID
  5
285
100
AcDbEntity
  8
___SYMBOL
100
AcDbTrace
 62
2
  6
CONTINUOUS
 10
5.1623533255
 20
18.1161167908
 11
5.0458307945
 21
17.9853512438
 12
5.0458307945
 22
18.2059438773
 13
5.0458307945
 23
18.2059438773
  0
SOLID
  5
286
100
AcDbEntity
  8
___SYMBOL
100
AcDbTrace
 62
2
  6
CONTINUOUS
 10
5.0458307945
 20
17.9853512438
 11
4.8713305613
 21
17.7838273991
 12
5.0458307945
 22
18.2059438773
 13
5.0458307945
 23
18.2059438773
  0
SOLID
  5
287
100
AcDbEntity
  8
___SYMBOL
100
AcDbTrace
 62
2
  6
CONTINUOUS
 10
5.0458307945
 20
18.2059438773
 11
4.8713305613
 21
17.7838273991
 12
5.0458307945
 22
18.3697650728
 13
5.0458307945
 23
18.3697650728
  0
SOLID
  5
288
100
AcDbEntity
  8
___SYMBOL
100
AcDbTrace
 62
2
  6
CONTINUOUS
 10
4.8713305613
 20
17.7838273991
 11
4.8713305613
 21
18.3697650728
 12
5.0458307945
 22
18.3697650728
 13
5.0458307945
 23
18.3697650728
  0
CIRCLE
  5
289
100
AcDbEntity
  8
___SYMBOL
100
AcDbCircle
 62
2
  6
CONTINUOUS
 10
5.5923700122
 20
18.0756869858
 40
0.2980566016
  0
CIRCLE
  5
28A
100
AcDbEntity
  8
___SYMBOL
100
AcDbCircle
 62
2
  6
CONTINUOUS
 10
5.5923700122
 20
18.0756869858
 40
0.1247694195
  0
SOLID
  5
28B
100
AcDbEntity
  8
___SYMBOL
100
AcDbTrace
 62
2
  6
CONTINUOUS
 10
5.500265457
 20
18.3591556589
 11
5.5612146136
 21
18.3721108021
 12
5.6235254107
 22
18.3721108021
 13
5.6235254107
 23
18.3721108021
  0
SOLID
  5
28C
100
AcDbEntity
  8
___SYMBOL
100
AcDbTrace
 62
2
  6
CONTINUOUS
 10
5.6235254107
 20
18.3721108021
 11
5.6844745674
 21
18.3591556589
 12
5.500265457
 22
18.3591556589
 13
5.500265457
 23
18.3591556589
  0
SOLID
  5
28D
100
AcDbEntity
  8
___SYMBOL
100
AcDbTrace
 62
2
  6
CONTINUOUS
 10
5.4433417114
 20
18.3338115745
 11
5.500265457
 21
18.3591556589
 12
5.6844745674
 22
18.3591556589
 13
5.6844745674
 23
18.3591556589
  0
SOLID
  5
28E
100
AcDbEntity
  8
___SYMBOL
100
AcDbTrace
 62
2
  6
CONTINUOUS
 10
5.6844745674
 20
18.3591556589
 11
5.741398313
 21
18.3338115745
 12
5.4433417114
 22
18.3338115745
 13
5.4433417114
 23
18.3338115745
  0
SOLID
  5
28F
100
AcDbEntity
  8
___SYMBOL
100
AcDbTrace
 62
2
  6
CONTINUOUS
 10
5.3929312176
 20
18.2971862069
 11
5.4433417114
 21
18.3338115745
 12
5.741398313
 22
18.3338115745
 13
5.741398313
 23
18.3338115745
  0
SOLID
  5
290
100
AcDbEntity
  8
___SYMBOL
100
AcDbTrace
 62
2
  6
CONTINUOUS
 10
5.741398313
 20
18.3338115745
 11
5.7918088067
 21
18.2971862069
 12
5.3929312176
 22
18.2971862069
 13
5.3929312176
 23
18.2971862069
  0
SOLID
  5
291
100
AcDbEntity
  8
___SYMBOL
100
AcDbTrace
 62
2
  6
CONTINUOUS
 10
5.3512371562
 20
18.2508802605
 11
5.3929312176
 21
18.2971862069
 12
5.7918088067
 22
18.2971862069
 13
5.7918088067
 23
18.2971862069
  0
SOLID
  5
292
100
AcDbEntity
  8
___SYMBOL
100
AcDbTrace
 62
2
  6
CONTINUOUS
 10
5.7918088067
 20
18.2971862069
 11
5.8335028681
 21
18.2508802605
 12
5.3512371562
 22
18.2508802605
 13
5.3512371562
 23
18.2508802605
  0
SOLID
  5
293
100
AcDbEntity
  8
___SYMBOL
100
AcDbTrace
 62
2
  6
CONTINUOUS
 10
5.5923700122
 20
18.2004564053
 11
5.3200817577
 21
18.1969175274
 12
5.8335028681
 22
18.2508802605
 13
5.8335028681
 23
18.2508802605
  0
SOLID
  5
294
100
AcDbEntity
  8
___SYMBOL
100
AcDbTrace
 62
2
  6
CONTINUOUS
 10
5.3200817577
 20
18.1969175274
 11
5.3512371562
 21
18.2508802605
 12
5.8335028681
 22
18.2508802605
 13
5.8335028681
 23
18.2508802605
  0
SOLID
  5
295
100
AcDbEntity
  8
___SYMBOL
100
AcDbTrace
 62
2
  6
CONTINUOUS
 10
5.8335028681
 20
18.2508802605
 11
5.8646582667
 21
18.1969175274
 12
5.5923700122
 22
18.2004564053
 13
5.5923700122
 23
18.2004564053
  0
SOLID
  5
296
100
AcDbEntity
  8
___SYMBOL
100
AcDbTrace
 62
2
  6
CONTINUOUS
 10
5.5923700122
 20
18.2004564053
 11
5.5538141412
 21
18.1943497552
 12
5.3200817577
 22
18.1969175274
 13
5.3200817577
 23
18.1969175274
  0
SOLID
  5
297
100
AcDbEntity
  8
___SYMBOL
100
AcDbTrace
 62
2
  6
CONTINUOUS
 10
5.6309258832
 20
18.1943497552
 11
5.5923700122
 21
18.2004564053
 12
5.8646582667
 22
18.1969175274
 13
5.8646582667
 23
18.1969175274
  0
SOLID
  5
298
100
AcDbEntity
  8
___SYMBOL
100
AcDbTrace
 62
2
  6
CONTINUOUS
 10
5.4914294314
 20
18.1490246105
 11
5.3008266625
 21
18.1376564378
 12
5.5190323874
 22
18.1766275665
 13
5.5190323874
 23
18.1766275665
  0
SOLID
  5
299
100
AcDbEntity
  8
___SYMBOL
100
AcDbTrace
 62
2
  6
CONTINUOUS
 10
5.5190323874
 20
18.1766275665
 11
5.3008266625
 21
18.1376564378
 12
5.5538141412
 22
18.1943497552
 13
5.5538141412
 23
18.1943497552
  0
SOLID
  5
29A
100
AcDbEntity
  8
___SYMBOL
100
AcDbTrace
 62
2
  6
CONTINUOUS
 10
5.3008266625
 20
18.1376564378
 11
5.3200817577
 21
18.1969175274
 12
5.5538141412
 22
18.1943497552
 13
5.5538141412
 23
18.1943497552
  0
SOLID
  5
29B
100
AcDbEntity
  8
___SYMBOL
100
AcDbTrace
 62
2
  6
CONTINUOUS
 10
5.6309258832
 20
18.1943497552
 11
5.8646582667
 21
18.1969175274
 12
5.6657076369
 22
18.1766275665
 13
5.6657076369
 23
18.1766275665
  0
SOLID
  5
29C
100
AcDbEntity
  8
___SYMBOL
100
AcDbTrace
 62
2
  6
CONTINUOUS
 10
5.6657076369
 20
18.1766275665
 11
5.8646582667
 21
18.1969175274
 12
5.6933105929
 22
18.1490246105
 13
5.6933105929
 23
18.1490246105
  0
SOLID
  5
29D
100
AcDbEntity
  8
___SYMBOL
100
AcDbTrace
 62
2
  6
CONTINUOUS
 10
5.8646582667
 20
18.1969175274
 11
5.8839133619
 21
18.1376564378
 12
5.6933105929
 22
18.1490246105
 13
5.6933105929
 23
18.1490246105
  0
SOLID
  5
29E
100
AcDbEntity
  8
___SYMBOL
100
AcDbTrace
 62
2
  6
CONTINUOUS
 10
5.4914294314
 20
18.1490246105
 11
5.4737072427
 21
18.1142428568
 12
5.3008266625
 22
18.1376564378
 13
5.3008266625
 23
18.1376564378
  0
SOLID
  5
29F
100
AcDbEntity
  8
___SYMBOL
100
AcDbTrace
 62
2
  6
CONTINUOUS
 10
5.7110327816
 20
18.1142428568
 11
5.6933105929
 21
18.1490246105
 12
5.8839133619
 22
18.1376564378
 13
5.8839133619
 23
18.1376564378
  0
SOLID
  5
2A0
100
AcDbEntity
  8
___SYMBOL
100
AcDbTrace
 62
2
  6
CONTINUOUS
 10
5.2943134106
 20
18.0756869858
 11
5.3008266625
 21
18.1376564378
 12
5.4737072427
 22
18.1142428568
 13
5.4737072427
 23
18.1142428568
  0
SOLID
  5
2A1
100
AcDbEntity
  8
___SYMBOL
100
AcDbTrace
 62
2
  6
CONTINUOUS
 10
5.4737072427
 20
18.1142428568
 11
5.4676005927
 21
18.0756869858
 12
5.2943134106
 22
18.0756869858
 13
5.2943134106
 23
18.0756869858
  0
SOLID
  5
2A2
100
AcDbEntity
  8
___SYMBOL
100
AcDbTrace
 62
2
  6
CONTINUOUS
 10
5.7110327816
 20
18.1142428568
 11
5.8839133619
 21
18.1376564378
 12
5.7171394317
 22
18.0756869858
 13
5.7171394317
 23
18.0756869858
  0
SOLID
  5
2A3
100
AcDbEntity
  8
___SYMBOL
100
AcDbTrace
 62
2
  6
CONTINUOUS
 10
5.8839133619
 20
18.1376564378
 11
5.8904266138
 21
18.0756869858
 12
5.7171394317
 22
18.0756869858
 13
5.7171394317
 23
18.0756869858
  0
SOLID
  5
2A4
100
AcDbEntity
  8
___SYMBOL
100
AcDbTrace
 62
2
  6
CONTINUOUS
 10
5.7110327816
 20
18.0371311148
 11
5.7171394317
 21
18.0756869858
 12
5.8904266138
 22
18.0756869858
 13
5.8904266138
 23
18.0756869858
  0
SOLID
  5
2A5
100
AcDbEntity
  8
___SYMBOL
100
AcDbTrace
 62
2
  6
CONTINUOUS
 10
5.4737072427
 20
18.0371311148
 11
5.3008266625
 21
18.0137175338
 12
5.4676005927
 22
18.0756869858
 13
5.4676005927
 23
18.0756869858
  0
SOLID
  5
2A6
100
AcDbEntity
  8
___SYMBOL
100
AcDbTrace
 62
2
  6
CONTINUOUS
 10
5.3008266625
 20
18.0137175338
 11
5.2943134106
 21
18.0756869858
 12
5.4676005927
 22
18.0756869858
 13
5.4676005927
 23
18.0756869858
  0
SOLID
  5
2A7
100
AcDbEntity
  8
___SYMBOL
100
AcDbTrace
 62
2
  6
CONTINUOUS
 10
5.8904266138
 20
18.0756869858
 11
5.8839133619
 21
18.0137175338
 12
5.7110327816
 22
18.0371311148
 13
5.7110327816
 23
18.0371311148
  0
SOLID
  5
2A8
100
AcDbEntity
  8
___SYMBOL
100
AcDbTrace
 62
2
  6
CONTINUOUS
 10
5.4737072427
 20
18.0371311148
 11
5.4914294314
 21
18.0023493611
 12
5.3008266625
 22
18.0137175338
 13
5.3008266625
 23
18.0137175338
  0
SOLID
  5
2A9
100
AcDbEntity
  8
___SYMBOL
100
AcDbTrace
 62
2
  6
CONTINUOUS
 10
5.6933105929
 20
18.0023493611
 11
5.7110327816
 21
18.0371311148
 12
5.8839133619
 22
18.0137175338
 13
5.8839133619
 23
18.0137175338
  0
SOLID
  5
2AA
100
AcDbEntity
  8
___SYMBOL
100
AcDbTrace
 62
2
  6
CONTINUOUS
 10
5.5538141412
 20
17.9570242163
 11
5.3200817577
 21
17.9544564442
 12
5.5190323874
 22
17.974746405
 13
5.5190323874
 23
17.974746405
  0
SOLID
  5
2AB
100
AcDbEntity
  8
___SYMBOL
100
AcDbTrace
 62
2
  6
CONTINUOUS
 10
5.5190323874
 20
17.974746405
 11
5.3200817577
 21
17.9544564442
 12
5.4914294314
 22
18.0023493611
 13
5.4914294314
 23
18.0023493611
  0
SOLID
  5
2AC
100
AcDbEntity
  8
___SYMBOL
100
AcDbTrace
 62
2
  6
CONTINUOUS
 10
5.3200817577
 20
17.9544564442
 11
5.3008266625
 21
18.0137175338
 12
5.4914294314
 22
18.0023493611
 13
5.4914294314
 23
18.0023493611
  0
SOLID
  5
2AD
100
AcDbEntity
  8
___SYMBOL
100
AcDbTrace
 62
2
  6
CONTINUOUS
 10
5.6933105929
 20
18.0023493611
 11
5.8839133619
 21
18.0137175338
 12
5.6657076369
 22
17.974746405
 13
5.6657076369
 23
17.974746405
  0
SOLID
  5
2AE
100
AcDbEntity
  8
___SYMBOL
100
AcDbTrace
 62
2
  6
CONTINUOUS
 10
5.6657076369
 20
17.974746405
 11
5.8839133619
 21
18.0137175338
 12
5.6309258832
 22
17.9570242163
 13
5.6309258832
 23
17.9570242163
  0
SOLID
  5
2AF
100
AcDbEntity
  8
___SYMBOL
100
AcDbTrace
 62
2
  6
CONTINUOUS
 10
5.8839133619
 20
18.0137175338
 11
5.8646582667
 21
17.9544564442
 12
5.6309258832
 22
17.9570242163
 13
5.6309258832
 23
17.9570242163
  0
SOLID
  5
2B0
100
AcDbEntity
  8
___SYMBOL
100
AcDbTrace
 62
2
  6
CONTINUOUS
 10
5.5538141412
 20
17.9570242163
 11
5.5923700122
 21
17.9509175663
 12
5.3200817577
 22
17.9544564442
 13
5.3200817577
 23
17.9544564442
  0
SOLID
  5
2B1
100
AcDbEntity
  8
___SYMBOL
100
AcDbTrace
 62
2
  6
CONTINUOUS
 10
5.5923700122
 20
17.9509175663
 11
5.6309258832
 21
17.9570242163
 12
5.8646582667
 22
17.9544564442
 13
5.8646582667
 23
17.9544564442
  0
SOLID
  5
2B2
100
AcDbEntity
  8
___SYMBOL
100
AcDbTrace
 62
2
  6
CONTINUOUS
 10
5.3512371562
 20
17.900493711
 11
5.3200817577
 21
17.9544564442
 12
5.5923700122
 22
17.9509175663
 13
5.5923700122
 23
17.9509175663
  0
SOLID
  5
2B3
100
AcDbEntity
  8
___SYMBOL
100
AcDbTrace
 62
2
  6
CONTINUOUS
 10
5.5923700122
 20
17.9509175663
 11
5.8646582667
 21
17.9544564442
 12
5.3512371562
 22
17.900493711
 13
5.3512371562
 23
17.900493711
  0
SOLID
  5
2B4
100
AcDbEntity
  8
___SYMBOL
100
AcDbTrace
 62
2
  6
CONTINUOUS
 10
5.8646582667
 20
17.9544564442
 11
5.8335028681
 21
17.900493711
 12
5.3512371562
 22
17.900493711
 13
5.3512371562
 23
17.900493711
  0
SOLID
  5
2B5
100
AcDbEntity
  8
___SYMBOL
100
AcDbTrace
 62
2
  6
CONTINUOUS
 10
5.3929312176
 20
17.8541877646
 11
5.3512371562
 21
17.900493711
 12
5.8335028681
 22
17.900493711
 13
5.8335028681
 23
17.900493711
  0
SOLID
  5
2B6
100
AcDbEntity
  8
___SYMBOL
100
AcDbTrace
 62
2
  6
CONTINUOUS
 10
5.8335028681
 20
17.900493711
 11
5.7918088067
 21
17.8541877646
 12
5.3929312176
 22
17.8541877646
 13
5.3929312176
 23
17.8541877646
  0
SOLID
  5
2B7
100
AcDbEntity
  8
___SYMBOL
100
AcDbTrace
 62
2
  6
CONTINUOUS
 10
5.4433417114
 20
17.817562397
 11
5.3929312176
 21
17.8541877646
 12
5.7918088067
 22
17.8541877646
 13
5.7918088067
 23
17.8541877646
  0
SOLID
  5
2B8
100
AcDbEntity
  8
___SYMBOL
100
AcDbTrace
 62
2
  6
CONTINUOUS
 10
5.7918088067
 20
17.8541877646
 11
5.741398313
 21
17.817562397
 12
5.4433417114
 22
17.817562397
 13
5.4433417114
 23
17.817562397
  0
SOLID
  5
2B9
100
AcDbEntity
  8
___SYMBOL
100
AcDbTrace
 62
2
  6
CONTINUOUS
 10
5.500265457
 20
17.7922183126
 11
5.4433417114
 21
17.817562397
 12
5.741398313
 22
17.817562397
 13
5.741398313
 23
17.817562397
  0
SOLID
  5
2BA
100
AcDbEntity
  8
___SYMBOL
100
AcDbTrace
 62
2
  6
CONTINUOUS
 10
5.741398313
 20
17.817562397
 11
5.6844745674
 21
17.7922183126
 12
5.500265457
 22
17.7922183126
 13
5.500265457
 23
17.7922183126
  0
SOLID
  5
2BB
100
AcDbEntity
  8
___SYMBOL
100
AcDbTrace
 62
2
  6
CONTINUOUS
 10
5.5612146136
 20
17.7792631694
 11
5.500265457
 21
17.7922183126
 12
5.6844745674
 22
17.7922183126
 13
5.6844745674
 23
17.7922183126
  0
SOLID
  5
2BC
100
AcDbEntity
  8
___SYMBOL
100
AcDbTrace
 62
2
  6
CONTINUOUS
 10
5.6844745674
 20
17.7922183126
 11
5.6235254107
 21
17.7792631694
 12
5.5612146136
 22
17.7792631694
 13
5.5612146136
 23
17.7792631694
  0
LINE
  5
2BD
100
AcDbEntity
  8
___SYMBOL
100
AcDbLine
 62
2
  6
CONTINUOUS
 10
6.3850060496
 20
18.3697650728
 11
6.3850060496
 21
17.7838514026
  0
LINE
  5
2BE
100
AcDbEntity
  8
___SYMBOL
100
AcDbLine
 62
2
  6
CONTINUOUS
 10
6.3850060496
 20
17.7838514026
 11
6.2202723638
 21
17.7838514026
  0
LINE
  5
2BF
100
AcDbEntity
  8
___SYMBOL
100
AcDbLine
 62
2
  6
CONTINUOUS
 10
6.2202723638
 20
18.0121760205
 11
6.2202723638
 21
17.7838514026
  0
LINE
  5
2C0
100
AcDbEntity
  8
___SYMBOL
100
AcDbLine
 62
2
  6
CONTINUOUS
 10
6.0722755475
 20
18.0121760205
 11
6.2202723638
 21
18.0121760205
  0
LINE
  5
2C1
100
AcDbEntity
  8
___SYMBOL
100
AcDbLine
 62
2
  6
CONTINUOUS
 10
6.0722755475
 20
18.0121760205
 11
6.0722755475
 21
17.7838514026
  0
LINE
  5
2C2
100
AcDbEntity
  8
___SYMBOL
100
AcDbLine
 62
2
  6
CONTINUOUS
 10
6.0722755475
 20
17.7838514026
 11
5.9075418618
 21
17.7838514026
  0
LINE
  5
2C3
100
AcDbEntity
  8
___SYMBOL
100
AcDbLine
 62
2
  6
CONTINUOUS
 10
5.9075418618
 20
18.3697650728
 11
5.9075418618
 21
17.7838514026
  0
LINE
  5
2C4
100
AcDbEntity
  8
___SYMBOL
100
AcDbLine
 62
2
  6
CONTINUOUS
 10
5.9075418618
 20
18.3697650728
 11
6.0722755475
 21
18.3697650728
  0
LINE
  5
2C5
100
AcDbEntity
  8
___SYMBOL
100
AcDbLine
 62
2
  6
CONTINUOUS
 10
6.0722755475
 20
18.3697650728
 11
6.0722755475
 21
18.1493813053
  0
LINE
  5
2C6
100
AcDbEntity
  8
___SYMBOL
100
AcDbLine
 62
2
  6
CONTINUOUS
 10
6.0722755475
 20
18.1493813053
 11
6.2202723638
 21
18.1493813053
  0
LINE
  5
2C7
100
AcDbEntity
  8
___SYMBOL
100
AcDbLine
 62
2
  6
CONTINUOUS
 10
6.2202723638
 20
18.3697650728
 11
6.2202723638
 21
18.1493813053
  0
LINE
  5
2C8
100
AcDbEntity
  8
___SYMBOL
100
AcDbLine
 62
2
  6
CONTINUOUS
 10
6.2202723638
 20
18.3697650728
 11
6.3850060496
 21
18.3697650728
  0
SOLID
  5
2C9
100
AcDbEntity
  8
___SYMBOL
100
AcDbTrace
 62
2
  6
CONTINUOUS
 10
6.2202723638
 20
18.1493813053
 11
6.2202723638
 21
18.3697650728
 12
6.3850060496
 22
18.3697650728
 13
6.3850060496
 23
18.3697650728
  0
SOLID
  5
2CA
100
AcDbEntity
  8
___SYMBOL
100
AcDbTrace
 62
2
  6
CONTINUOUS
 10
6.2202723638
 20
18.1493813053
 11
6.0722755475
 21
18.0121760205
 12
6.0722755475
 22
18.1493813053
 13
6.0722755475
 23
18.1493813053
  0
SOLID
  5
2CB
100
AcDbEntity
  8
___SYMBOL
100
AcDbTrace
 62
2
  6
CONTINUOUS
 10
6.0722755475
 20
18.0121760205
 11
5.9075418618
 21
17.7838514026
 12
6.0722755475
 22
18.1493813053
 13
6.0722755475
 23
18.1493813053
  0
SOLID
  5
2CC
100
AcDbEntity
  8
___SYMBOL
100
AcDbTrace
 62
2
  6
CONTINUOUS
 10
6.0722755475
 20
18.1493813053
 11
5.9075418618
 21
17.7838514026
 12
6.0722755475
 22
18.3697650728
 13
6.0722755475
 23
18.3697650728
  0
SOLID
  5
2CD
100
AcDbEntity
  8
___SYMBOL
100
AcDbTrace
 62
2
  6
CONTINUOUS
 10
5.9075418618
 20
17.7838514026
 11
5.9075418618
 21
18.3697650728
 12
6.0722755475
 22
18.3697650728
 13
6.0722755475
 23
18.3697650728
  0
SOLID
  5
2CE
100
AcDbEntity
  8
___SYMBOL
100
AcDbTrace
 62
2
  6
CONTINUOUS
 10
6.0722755475
 20
18.0121760205
 11
6.0722755475
 21
17.7838514026
 12
5.9075418618
 22
17.7838514026
 13
5.9075418618
 23
17.7838514026
  0
SOLID
  5
2CF
100
AcDbEntity
  8
___SYMBOL
100
AcDbTrace
 62
2
  6
CONTINUOUS
 10
6.0722755475
 20
18.0121760205
 11
6.2202723638
 21
18.1493813053
 12
6.2202723638
 22
18.0121760205
 13
6.2202723638
 23
18.0121760205
  0
SOLID
  5
2D0
100
AcDbEntity
  8
___SYMBOL
100
AcDbTrace
 62
2
  6
CONTINUOUS
 10
6.2202723638
 20
18.1493813053
 11
6.3850060496
 21
18.3697650728
 12
6.2202723638
 22
18.0121760205
 13
6.2202723638
 23
18.0121760205
  0
SOLID
  5
2D1
100
AcDbEntity
  8
___SYMBOL
100
AcDbTrace
 62
2
  6
CONTINUOUS
 10
6.2202723638
 20
18.0121760205
 11
6.3850060496
 21
18.3697650728
 12
6.2202723638
 22
17.7838514026
 13
6.2202723638
 23
17.7838514026
  0
SOLID
  5
2D2
100
AcDbEntity
  8
___SYMBOL
100
AcDbTrace
 62
2
  6
CONTINUOUS
 10
6.3850060496
 20
18.3697650728
 11
6.3850060496
 21
17.7838514026
 12
6.2202723638
 22
17.7838514026
 13
6.2202723638
 23
17.7838514026
  0
LINE
  5
2D3
100
AcDbEntity
  8
___SYMBOL
100
AcDbLine
 62
2
  6
CONTINUOUS
 10
6.5800969634
 20
17.7838514026
 11
6.7427810392
 21
17.7838514026
  0
LINE
  5
2D4
100
AcDbEntity
  8
___SYMBOL
100
AcDbLine
 62
2
  6
CONTINUOUS
 10
6.5800969634
 20
17.7838514026
 11
6.4300508954
 21
17.7838514026
  0
LINE
  5
2D5
100
AcDbEntity
  8
___SYMBOL
100
AcDbLine
 62
2
  6
CONTINUOUS
 10
6.4300508954
 20
17.7838514026
 11
6.4300508954
 21
18.3697650728
  0
LINE
  5
2D6
100
AcDbEntity
  8
___SYMBOL
100
AcDbLine
 62
2
  6
CONTINUOUS
 10
6.4300508954
 20
18.3697650728
 11
6.5800969634
 21
18.3697650728
  0
LINE
  5
2D7
100
AcDbEntity
  8
___SYMBOL
100
AcDbLine
 62
2
  6
CONTINUOUS
 10
6.5800969634
 20
18.3697650728
 11
6.5800969634
 21
17.9250781648
  0
LINE
  5
2D8
100
AcDbEntity
  8
___SYMBOL
100
AcDbLine
 62
2
  6
CONTINUOUS
 10
6.5800969634
 20
17.9250781648
 11
6.7427810392
 21
17.9250781648
  0
LINE
  5
2D9
100
AcDbEntity
  8
___SYMBOL
100
AcDbLine
 62
2
  6
CONTINUOUS
 10
6.7427810392
 20
17.9250781648
 11
6.7427810392
 21
17.7838514026
  0
SOLID
  5
2DA
100
AcDbEntity
  8
___SYMBOL
100
AcDbTrace
 62
2
  6
CONTINUOUS
 10
6.7427810392
 20
17.9250781648
 11
6.4300508954
 21
17.7838514026
 12
6.5800969634
 22
17.9250781648
 13
6.5800969634
 23
17.9250781648
  0
SOLID
  5
2DB
100
AcDbEntity
  8
___SYMBOL
100
AcDbTrace
 62
2
  6
CONTINUOUS
 10
6.5800969634
 20
17.9250781648
 11
6.4300508954
 21
17.7838514026
 12
6.5800969634
 22
18.3697650728
 13
6.5800969634
 23
18.3697650728
  0
SOLID
  5
2DC
100
AcDbEntity
  8
___SYMBOL
100
AcDbTrace
 62
2
  6
CONTINUOUS
 10
6.4300508954
 20
17.7838514026
 11
6.4300508954
 21
18.3697650728
 12
6.5800969634
 22
18.3697650728
 13
6.5800969634
 23
18.3697650728
  0
SOLID
  5
2DD
100
AcDbEntity
  8
___SYMBOL
100
AcDbTrace
 62
2
  6
CONTINUOUS
 10
6.4300508954
 20
17.7838514026
 11
6.7427810392
 21
17.9250781648
 12
6.5800969634
 22
17.7838514026
 13
6.5800969634
 23
17.7838514026
  0
SOLID
  5
2DE
100
AcDbEntity
  8
___SYMBOL
100
AcDbTrace
 62
2
  6
CONTINUOUS
 10
6.7427810392
 20
17.9250781648
 11
6.7427810392
 21
17.7838514026
 12
6.5800969634
 22
17.7838514026
 13
6.5800969634
 23
17.7838514026
  0
LINE
  5
2DF
100
AcDbEntity
  8
___SYMBOL
100
AcDbLine
 62
2
  6
CONTINUOUS
 10
7.0810329652
 20
18.0049996986
 11
7.0810329652
 21
18.1493813053
  0
LINE
  5
2E0
100
AcDbEntity
  8
___SYMBOL
100
AcDbLine
 62
2
  6
CONTINUOUS
 10
6.9301754365
 20
18.1493813053
 11
7.0810329652
 21
18.1493813053
  0
LINE
  5
2E1
100
AcDbEntity
  8
___SYMBOL
100
AcDbLine
 62
2
  6
CONTINUOUS
 10
6.9301754365
 20
18.2270056709
 11
6.9301754365
 21
18.1493813053
  0
LINE
  5
2E2
100
AcDbEntity
  8
___SYMBOL
100
AcDbLine
 62
2
  6
CONTINUOUS
 10
6.9301754365
 20
18.2270056709
 11
7.0810329652
 21
18.2270056709
  0
LINE
  5
2E3
100
AcDbEntity
  8
___SYMBOL
100
AcDbLine
 62
2
  6
CONTINUOUS
 10
7.0810329652
 20
18.2270056709
 11
7.0810329652
 21
18.3697650728
  0
LINE
  5
2E4
100
AcDbEntity
  8
___SYMBOL
100
AcDbLine
 62
2
  6
CONTINUOUS
 10
6.9443797603
 20
18.3697650728
 11
7.0810329652
 21
18.3697650728
  0
LINE
  5
2E5
100
AcDbEntity
  8
___SYMBOL
100
AcDbLine
 62
2
  6
CONTINUOUS
 10
6.7719287789
 20
18.3697650728
 11
6.9443797603
 21
18.3697650728
  0
LINE
  5
2E6
100
AcDbEntity
  8
___SYMBOL
100
AcDbLine
 62
2
  6
CONTINUOUS
 10
6.7719287789
 20
17.7838514026
 11
6.7719287789
 21
18.3697650728
  0
LINE
  5
2E7
100
AcDbEntity
  8
___SYMBOL
100
AcDbLine
 62
2
  6
CONTINUOUS
 10
6.7719287789
 20
17.7838514026
 11
7.0810329652
 21
17.7838514026
  0
LINE
  5
2E8
100
AcDbEntity
  8
___SYMBOL
100
AcDbLine
 62
2
  6
CONTINUOUS
 10
7.0810329652
 20
17.7838514026
 11
7.0810329652
 21
17.9250781648
  0
LINE
  5
2E9
100
AcDbEntity
  8
___SYMBOL
100
AcDbLine
 62
2
  6
CONTINUOUS
 10
6.9301754365
 20
17.9250781648
 11
7.0810329652
 21
17.9250781648
  0
LINE
  5
2EA
100
AcDbEntity
  8
___SYMBOL
100
AcDbLine
 62
2
  6
CONTINUOUS
 10
6.9301754365
 20
18.0049996986
 11
6.9301754365
 21
17.9250781648
  0
LINE
  5
2EB
100
AcDbEntity
  8
___SYMBOL
100
AcDbLine
 62
2
  6
CONTINUOUS
 10
6.9301754365
 20
18.0049996986
 11
7.0810329652
 21
18.0049996986
  0
SOLID
  5
2EC
100
AcDbEntity
  8
___SYMBOL
100
AcDbTrace
 62
2
  6
CONTINUOUS
 10
7.0810329652
 20
18.3697650728
 11
7.0810329652
 21
18.2270056709
 12
6.9301754365
 22
18.2270056709
 13
6.9301754365
 23
18.2270056709
  0
SOLID
  5
2ED
100
AcDbEntity
  8
___SYMBOL
100
AcDbTrace
 62
2
  6
CONTINUOUS
 10
7.0810329652
 20
18.1493813053
 11
7.0810329652
 21
18.0049996986
 12
6.9301754365
 22
18.0049996986
 13
6.9301754365
 23
18.0049996986
  0
SOLID
  5
2EE
100
AcDbEntity
  8
___SYMBOL
100
AcDbTrace
 62
2
  6
CONTINUOUS
 10
7.0810329652
 20
17.9250781648
 11
6.7719287789
 21
17.7838514026
 12
6.9301754365
 22
17.9250781648
 13
6.9301754365
 23
17.9250781648
  0
SOLID
  5
2EF
100
AcDbEntity
  8
___SYMBOL
100
AcDbTrace
 62
2
  6
CONTINUOUS
 10
6.9301754365
 20
17.9250781648
 11
6.7719287789
 21
17.7838514026
 12
6.9301754365
 22
18.0049996986
 13
6.9301754365
 23
18.0049996986
  0
SOLID
  5
2F0
100
AcDbEntity
  8
___SYMBOL
100
AcDbTrace
 62
2
  6
CONTINUOUS
 10
7.0810329652
 20
18.1493813053
 11
6.9301754365
 21
18.0049996986
 12
6.9301754365
 22
18.1493813053
 13
6.9301754365
 23
18.1493813053
  0
SOLID
  5
2F1
100
AcDbEntity
  8
___SYMBOL
100
AcDbTrace
 62
2
  6
CONTINUOUS
 10
6.9301754365
 20
18.0049996986
 11
6.7719287789
 21
17.7838514026
 12
6.9301754365
 22
18.1493813053
 13
6.9301754365
 23
18.1493813053
  0
SOLID
  5
2F2
100
AcDbEntity
  8
___SYMBOL
100
AcDbTrace
 62
2
  6
CONTINUOUS
 10
6.9301754365
 20
18.1493813053
 11
6.7719287789
 21
17.7838514026
 12
6.9301754365
 22
18.2270056709
 13
6.9301754365
 23
18.2270056709
  0
SOLID
  5
2F3
100
AcDbEntity
  8
___SYMBOL
100
AcDbTrace
 62
2
  6
CONTINUOUS
 10
7.0810329652
 20
18.3697650728
 11
6.9301754365
 21
18.2270056709
 12
6.9443797603
 22
18.3697650728
 13
6.9443797603
 23
18.3697650728
  0
SOLID
  5
2F4
100
AcDbEntity
  8
___SYMBOL
100
AcDbTrace
 62
2
  6
CONTINUOUS
 10
6.9301754365
 20
18.2270056709
 11
6.7719287789
 21
17.7838514026
 12
6.9443797603
 22
18.3697650728
 13
6.9443797603
 23
18.3697650728
  0
SOLID
  5
2F5
100
AcDbEntity
  8
___SYMBOL
100
AcDbTrace
 62
2
  6
CONTINUOUS
 10
6.7719287789
 20
17.7838514026
 11
6.7719287789
 21
18.3697650728
 12
6.9443797603
 22
18.3697650728
 13
6.9443797603
 23
18.3697650728
  0
SOLID
  5
2F6
100
AcDbEntity
  8
___SYMBOL
100
AcDbTrace
 62
2
  6
CONTINUOUS
 10
7.0810329652
 20
17.9250781648
 11
7.0810329652
 21
17.7838514026
 12
6.7719287789
 22
17.7838514026
 13
6.7719287789
 23
17.7838514026
  0
LINE
  5
2F7
100
AcDbEntity
  8
___SYMBOL
100
AcDbLine
 62
2
  6
CONTINUOUS
 10
7.5912833893
 20
17.7838514026
 11
7.4318401407
 21
18.0354339528
  0
ARC
  5
2F8
100
AcDbEntity
  8
___SYMBOL
100
AcDbCircle
 62
2
  6
CONTINUOUS
 10
7.3594008905
 20
18.1947555558
 40
0.1750166225
100
AcDbArc
 50
294.4500166359
 51
90.0
  0
LINE
  5
2F9
100
AcDbEntity
  8
___SYMBOL
100
AcDbLine
 62
2
  6
CONTINUOUS
 10
7.1258531815
 20
18.3697650728
 11
7.3594008905
 21
18.3697650728
  0
LINE
  5
2FA
100
AcDbEntity
  8
___SYMBOL
100
AcDbLine
 62
2
  6
CONTINUOUS
 10
7.1258531815
 20
17.7838514026
 11
7.1258531815
 21
18.3697650728
  0
LINE
  5
2FB
100
AcDbEntity
  8
___SYMBOL
100
AcDbLine
 62
2
  6
CONTINUOUS
 10
7.1258531815
 20
17.7838514026
 11
7.2765090095
 21
17.7838514026
  0
LINE
  5
2FC
100
AcDbEntity
  8
___SYMBOL
100
AcDbLine
 62
2
  6
CONTINUOUS
 10
7.2765090095
 20
17.9808077804
 11
7.2765090095
 21
17.7838514026
  0
LINE
  5
2FD
100
AcDbEntity
  8
___SYMBOL
100
AcDbLine
 62
2
  6
CONTINUOUS
 10
7.401332443
 20
17.7838514026
 11
7.2765090095
 21
17.9808077804
  0
LINE
  5
2FE
100
AcDbEntity
  8
___SYMBOL
100
AcDbLine
 62
2
  6
CONTINUOUS
 10
7.401332443
 20
17.7838514026
 11
7.5912833893
 21
17.7838514026
  0
LINE
  5
2FF
100
AcDbEntity
  8
___SYMBOL
100
AcDbLine
 62
2
  6
CONTINUOUS
 10
7.2765090095
 20
18.120083096
 11
7.3288487615
 21
18.120083096
  0
ARC
  5
300
100
AcDbEntity
  8
___SYMBOL
100
AcDbCircle
 62
2
  6
CONTINUOUS
 10
7.3324387909
 20
18.1735744974
 40
0.0536117369
100
AcDbArc
 50
266.1604009902
 51
89.9998910512
  0
LINE
  5
301
100
AcDbEntity
  8
___SYMBOL
100
AcDbLine
 62
2
  6
CONTINUOUS
 10
7.3324388929
 20
18.2271862344
 11
7.2765090095
 21
18.2271862344
  0
LINE
  5
302
100
AcDbEntity
  8
___SYMBOL
100
AcDbLine
 62
2
  6
CONTINUOUS
 10
7.2765090095
 20
18.2271862344
 11
7.2765090095
 21
18.120083096
  0
SOLID
  5
303
100
AcDbEntity
  8
___SYMBOL
100
AcDbTrace
 62
2
  6
CONTINUOUS
 10
7.3594008905
 20
18.3697721784
 11
7.4063339157
 21
18.3633619297
 12
7.1258531815
 22
18.3697650728
 13
7.1258531815
 23
18.3697650728
  0
SOLID
  5
304
100
AcDbEntity
  8
___SYMBOL
100
AcDbTrace
 62
2
  6
CONTINUOUS
 10
7.2765090095
 20
18.2271862344
 11
7.5304487596
 21
18.23181557
 12
7.3324388929
 22
18.2271862344
 13
7.3324388929
 23
18.2271862344
  0
SOLID
  5
305
100
AcDbEntity
  8
___SYMBOL
100
AcDbTrace
 62
2
  6
CONTINUOUS
 10
7.3324388929
 20
18.2271862344
 11
7.5304487596
 21
18.23181557
 12
7.3561614753
 22
18.2216520658
 13
7.3561614753
 23
18.2216520658
  0
SOLID
  5
306
100
AcDbEntity
  8
___SYMBOL
100
AcDbTrace
 62
2
  6
CONTINUOUS
 10
7.3561614753
 20
18.2216520658
 11
7.5304487596
 21
18.23181557
 12
7.3749864636
 22
18.2061921902
 13
7.3749864636
 23
18.2061921902
  0
SOLID
  5
307
100
AcDbEntity
  8
___SYMBOL
100
AcDbTrace
 62
2
  6
CONTINUOUS
 10
7.5304487596
 20
18.23181557
 11
7.5341220061
 21
18.1845894395
 12
7.3749864636
 22
18.2061921902
 13
7.3749864636
 23
18.2061921902
  0
SOLID
  5
308
100
AcDbEntity
  8
___SYMBOL
100
AcDbTrace
 62
2
  6
CONTINUOUS
 10
7.3850274026
 20
18.1839983288
 11
7.3749864636
 21
18.2061921902
 12
7.5341220061
 22
18.1845894395
 13
7.5341220061
 23
18.1845894395
  0
SOLID
  5
309
100
AcDbEntity
  8
___SYMBOL
100
AcDbTrace
 62
2
  6
CONTINUOUS
 10
7.3850274026
 20
18.1839983288
 11
7.5341220061
 21
18.1845894395
 12
7.3842113209
 22
18.1596524473
 13
7.3842113209
 23
18.1596524473
  0
SOLID
  5
30A
100
AcDbEntity
  8
___SYMBOL
100
AcDbTrace
 62
2
  6
CONTINUOUS
 10
7.3842113209
 20
18.1596524473
 11
7.5341220061
 21
18.1845894395
 12
7.3727067001
 22
18.1381807999
 13
7.3727067001
 23
18.1381807999
  0
SOLID
  5
30B
100
AcDbEntity
  8
___SYMBOL
100
AcDbTrace
 62
2
  6
CONTINUOUS
 10
7.5341220061
 20
18.1845894395
 11
7.5249964021
 21
18.1381080078
 12
7.3727067001
 22
18.1381807999
 13
7.3727067001
 23
18.1381807999
  0
SOLID
  5
30C
100
AcDbEntity
  8
___SYMBOL
100
AcDbTrace
 62
2
  6
CONTINUOUS
 10
7.3528886916
 20
18.1240162499
 11
7.3727067001
 21
18.1381807999
 12
7.5249964021
 22
18.1381080078
 13
7.5249964021
 23
18.1381080078
  0
SOLID
  5
30D
100
AcDbEntity
  8
___SYMBOL
100
AcDbTrace
 62
2
  6
CONTINUOUS
 10
7.3528886916
 20
18.1240162499
 11
7.5249964021
 21
18.1381080078
 12
7.3288487615
 22
18.120083096
 13
7.3288487615
 23
18.120083096
  0
SOLID
  5
30E
100
AcDbEntity
  8
___SYMBOL
100
AcDbTrace
 62
2
  6
CONTINUOUS
 10
7.5249964021
 20
18.1381080078
 11
7.5037404257
 21
18.0957761805
 12
7.3288487615
 22
18.120083096
 13
7.3288487615
 23
18.120083096
  0
SOLID
  5
30F
100
AcDbEntity
  8
___SYMBOL
100
AcDbTrace
 62
2
  6
CONTINUOUS
 10
7.4318401407
 20
18.0354339528
 11
7.2765090095
 21
17.9808077804
 12
7.4719111414
 22
18.0606948919
 13
7.4719111414
 23
18.0606948919
  0
SOLID
  5
310
100
AcDbEntity
  8
___SYMBOL
100
AcDbTrace
 62
2
  6
CONTINUOUS
 10
7.4719111414
 20
18.0606948919
 11
7.2765090095
 21
17.9808077804
 12
7.5037404257
 22
18.0957761805
 13
7.5037404257
 23
18.0957761805
  0
SOLID
  5
311
100
AcDbEntity
  8
___SYMBOL
100
AcDbTrace
 62
2
  6
CONTINUOUS
 10
7.5037404257
 20
18.0957761805
 11
7.2765090095
 21
17.9808077804
 12
7.3288487615
 22
18.120083096
 13
7.3288487615
 23
18.120083096
  0
SOLID
  5
312
100
AcDbEntity
  8
___SYMBOL
100
AcDbTrace
 62
2
  6
CONTINUOUS
 10
7.2765090095
 20
17.9808077804
 11
7.1258531815
 21
17.7838514026
 12
7.3288487615
 22
18.120083096
 13
7.3288487615
 23
18.120083096
  0
SOLID
  5
313
100
AcDbEntity
  8
___SYMBOL
100
AcDbTrace
 62
2
  6
CONTINUOUS
 10
7.3288487615
 20
18.120083096
 11
7.1258531815
 21
17.7838514026
 12
7.2765090095
 22
18.120083096
 13
7.2765090095
 23
18.120083096
  0
SOLID
  5
314
100
AcDbEntity
  8
___SYMBOL
100
AcDbTrace
 62
2
  6
CONTINUOUS
 10
7.2765090095
 20
18.120083096
 11
7.1258531815
 21
17.7838514026
 12
7.2765090095
 22
18.2271862344
 13
7.2765090095
 23
18.2271862344
  0
SOLID
  5
315
100
AcDbEntity
  8
___SYMBOL
100
AcDbTrace
 62
2
  6
CONTINUOUS
 10
7.5304487596
 20
18.23181557
 11
7.2765090095
 21
18.2271862344
 12
7.5142457389
 22
18.2763269423
 13
7.5142457389
 23
18.2763269423
  0
SOLID
  5
316
100
AcDbEntity
  8
___SYMBOL
100
AcDbTrace
 62
2
  6
CONTINUOUS
 10
7.5142457389
 20
18.2763269423
 11
7.2765090095
 21
18.2271862344
 12
7.4866998644
 22
18.3148629637
 13
7.4866998644
 23
18.3148629637
  0
SOLID
  5
317
100
AcDbEntity
  8
___SYMBOL
100
AcDbTrace
 62
2
  6
CONTINUOUS
 10
7.4866998644
 20
18.3148629637
 11
7.2765090095
 21
18.2271862344
 12
7.4498289547
 22
18.3446007538
 13
7.4498289547
 23
18.3446007538
  0
SOLID
  5
318
100
AcDbEntity
  8
___SYMBOL
100
AcDbTrace
 62
2
  6
CONTINUOUS
 10
7.4498289547
 20
18.3446007538
 11
7.2765090095
 21
18.2271862344
 12
7.4063339157
 22
18.3633619297
 13
7.4063339157
 23
18.3633619297
  0
SOLID
  5
319
100
AcDbEntity
  8
___SYMBOL
100
AcDbTrace
 62
2
  6
CONTINUOUS
 10
7.4063339157
 20
18.3633619297
 11
7.2765090095
 21
18.2271862344
 12
7.1258531815
 22
18.3697650728
 13
7.1258531815
 23
18.3697650728
  0
SOLID
  5
31A
100
AcDbEntity
  8
___SYMBOL
100
AcDbTrace
 62
2
  6
CONTINUOUS
 10
7.1258531815
 20
17.7838514026
 11
7.1258531815
 21
18.3697650728
 12
7.2765090095
 22
18.2271862344
 13
7.2765090095
 23
18.2271862344
  0
SOLID
  5
31B
100
AcDbEntity
  8
___SYMBOL
100
AcDbTrace
 62
2
  6
CONTINUOUS
 10
7.2765090095
 20
17.9808077804
 11
7.2765090095
 21
17.7838514026
 12
7.1258531815
 22
17.7838514026
 13
7.1258531815
 23
17.7838514026
  0
SOLID
  5
31C
100
AcDbEntity
  8
___SYMBOL
100
AcDbTrace
 62
2
  6
CONTINUOUS
 10
7.2765090095
 20
17.9808077804
 11
7.4318401407
 21
18.0354339528
 12
7.401332443
 22
17.7838514026
 13
7.401332443
 23
17.7838514026
  0
SOLID
  5
31D
100
AcDbEntity
  8
___SYMBOL
100
AcDbTrace
 62
2
  6
CONTINUOUS
 10
7.4318401407
 20
18.0354339528
 11
7.5912833893
 21
17.7838514026
 12
7.401332443
 22
17.7838514026
 13
7.401332443
 23
17.7838514026
  0
CIRCLE
  5
31E
100
AcDbEntity
  8
___SYMBOL
100
AcDbCircle
 62
2
  6
CONTINUOUS
 10
7.732053369
 20
17.7838514026
 40
0.0653578744
  0
LINE
  5
31F
100
AcDbEntity
  8
___SYMBOL
100
AcDbLine
 62
2
  6
CONTINUOUS
 10
7.7277653456
 20
17.7833136531
 11
7.7596333595
 21
17.7510107106
  0
LINE
  5
320
100
AcDbEntity
  8
___SYMBOL
100
AcDbLine
 62
2
  6
CONTINUOUS
 10
7.716167369
 20
17.7510107106
 11
7.716167369
 21
17.8169769119
  0
LINE
  5
321
100
AcDbEntity
  8
___SYMBOL
100
AcDbLine
 62
2
  6
CONTINUOUS
 10
7.716167369
 20
17.8169769119
 11
7.7404467028
 21
17.8169769119
  0
ARC
  5
322
100
AcDbEntity
  8
___SYMBOL
100
AcDbCircle
 62
2
  6
CONTINUOUS
 10
7.7404467028
 20
17.8001454616
 40
0.0168314502
100
AcDbArc
 50
270.0
 51
90.0
  0
LINE
  5
323
100
AcDbEntity
  8
___SYMBOL
100
AcDbLine
 62
2
  6
CONTINUOUS
 10
7.7404467028
 20
17.7833136531
 11
7.716167369
 21
17.7833136531
  0
MTEXT
  5
324
100
AcDbEntity
  8
___SYMBOL
100
AcDbMText
 62
2
  6
CONTINUOUS
  7
STANDARD
 71
1
 72
1
 10
4.8490849901
 20
17.5678518064
 30
0.0
 11
1.0
 21
0.0
 31
0.0
 44
0.9
  1
CUT-OUT TEMPLATE
 40
0.2500000089
 41
3.2000001138
  0
MTEXT
  5
325
100
AcDbEntity
  8
___SYMBOL
100
AcDbMText
 62
2
  6
CONTINUOUS
  7
STANDARD
 71
1
 72
1
 10
4.8490849901
 20
17.1928517931
 30
0.0
 11
1.0
 21
0.0
 31
0.0
 44
0.9
  1
UNDERCOUNTER SINK
 40
0.2500000089
 41
3.4000001209
  0
MTEXT
  5
326
100
AcDbEntity
  8
___SYMBOL
100
AcDbMText
 62
2
  6
CONTINUOUS
  7
STANDARD
 71
1
 72
1
 10
4.8490849901
 20
16.8178517798
 30
0.0
 11
1.0
 21
0.0
 31
0.0
 44
0.9
  1
PLANTILLA DE RECORTE
 40
0.2500000089
 41
4.0000001422
  0
MTEXT
  5
327
100
AcDbEntity
  8
___SYMBOL
100
AcDbMText
 62
2
  6
CONTINUOUS
  7
STANDARD
 71
1
 72
1
 10
4.8490849901
 20
16.4428517664
 30
0.0
 11
1.0
 21
0.0
 31
0.0
 44
0.9
  1
FREGADERO MONTADO DEBAJO
 40
0.2500000089
 41
4.8000001706
  0
MTEXT
  5
328
100
AcDbEntity
  8
___SYMBOL
100
AcDbMText
 62
2
  6
CONTINUOUS
  7
STANDARD
 71
1
 72
1
 10
4.8490849901
 20
16.0678517531
 30
0.0
 11
1.0
 21
0.0
 31
0.0
 44
0.9
  1
  DEL MOSTRADOR
 40
0.2500000089
 41
3.0000001066
  0
MTEXT
  5
329
100
AcDbEntity
  8
___SYMBOL
100
AcDbMText
 62
2
  6
CONTINUOUS
  7
STANDARD
 71
1
 72
1
 10
4.8490849901
 20
15.6928517398
 30
0.0
 11
1.0
 21
0.0
 31
0.0
 44
0.9
  1
PLAN DE DÉCOUPE
 40
0.2500000089
 41
3.0000001066
  0
MTEXT
  5
32A
100
AcDbEntity
  8
___SYMBOL
100
AcDbMText
 62
2
  6
CONTINUOUS
  7
STANDARD
 71
1
 72
1
 10
4.8490849901
 20
15.3178517265
 30
0.0
 11
1.0
 21
0.0
 31
0.0
 44
0.9
  1
ÉVIER SOUS-COMPTOIR
 40
0.2500000089
 41
3.8000001351
  0
MTEXT
  5
32B
100
AcDbEntity
  8
___SYMBOL
100
AcDbMText
 62
2
  6
CONTINUOUS
  7
STANDARD
 71
1
 72
1
 10
4.8490849901
 20
14.9428517131
 30
0.0
 11
1.0
 21
0.0
 31
0.0
 44
0.9
  1
POISE
 40
0.2500000089
 41
1.0000000355
  0
MTEXT
  5
32C
100
AcDbEntity
  8
___SYMBOL
100
AcDbMText
 62
2
  6
CONTINUOUS
  7
STANDARD
 71
1
 72
1
 10
6.449085047
 20
14.9428517131
 30
0.0
 11
1.0
 21
0.0
 31
0.0
 44
0.9
  1
3391
 40
0.2500000089
 41
0.8000000284
  0
MTEXT
  5
32D
100
AcDbEntity
  8
___SYMBOL
100
AcDbMText
 62
2
  6
CONTINUOUS
  7
STANDARD
 71
1
 72
1
 10
7.2490850754
 20
14.9428517131
 30
0.0
 11
1.0
 21
0.0
 31
0.0
 44
0.9
  1
-**-
 40
0.2500000089
 41
0.8000000284
  0
MTEXT
  5
32E
100
AcDbEntity
  8
___SYMBOL
100
AcDbMText
 62
2
  6
CONTINUOUS
  7
STANDARD
 71
1
 72
1
 10
8.0490851038
 20
14.9428517131
 30
0.0
 11
1.0
 21
0.0
 31
0.0
 44
0.9
  1
AA
 40
0.2500000089
 41
0.4000000142
  0
MTEXT
  5
32F
100
AcDbEntity
  8
___SYMBOL
100
AcDbMText
 62
2
  6
CONTINUOUS
  7
STANDARD
 71
1
 72
1
 10
4.8568243057
 20
14.0828597582
 30
0.0
 11
1.0
 21
0.0
 31
0.0
 44
0.9
  1
POISE
 40
0.2500000089
 41
1.0000000355
  0
MTEXT
  5
330
100
AcDbEntity
  8
___SYMBOL
100
AcDbMText
 62
2
  6
CONTINUOUS
  7
STANDARD
 71
1
 72
1
 10
6.4568243626
 20
14.0828597582
 30
0.0
 11
1.0
 21
0.0
 31
0.0
 44
0.9
  1
3391W
 40
0.2500000089
 41
1.0000000355
  0
MTEXT
  5
331
100
AcDbEntity
  8
___SYMBOL
100
AcDbMText
 62
2
  6
CONTINUOUS
  7
STANDARD
 71
1
 72
1
 10
7.4568243982
 20
14.0828597582
 30
0.0
 11
1.0
 21
0.0
 31
0.0
 44
0.9
  1
-**-
 40
0.2500000089
 41
0.8000000284
  0
MTEXT
  5
332
100
AcDbEntity
  8
___SYMBOL
100
AcDbMText
 62
2
  6
CONTINUOUS
  7
STANDARD
 71
1
 72
1
 10
8.2568244266
 20
14.0828597582
 30
0.0
 11
1.0
 21
0.0
 31
0.0
 44
0.9
  1
AA
 40
0.2500000089
 41
0.4000000142
  0
ENDBLK
  5
333
100
AcDbEntity
  8
0
  6
BYBLOCK
 62
0
100
AcDbBlockEnd
  0
BLOCK
  5
334
100
AcDbEntity
  8
___SYMBOL
100
AcDbBlockBegin
 62
2
  6
CONTINUOUS
  2
COPYRIGHT_YEAR_BL0
 70
64
 10
19.1643084862
 20
3.3339698839
  3
COPYRIGHT_YEAR_BL0
  1

  0
CIRCLE
  5
335
100
AcDbEntity
  8
___SYMBOL
100
AcDbCircle
 62
7
  6
CONTINUOUS
 10
18.7248276662
 20
3.3364175004
 40
0.0328258835
  0
MTEXT
  5
336
100
AcDbEntity
  8
___SYMBOL
100
AcDbMText
 62
2
  6
CONTINUOUS
  7
STANDARD
 71
1
 72
1
 10
18.7906181827
 20
3.3691961344
 30
0.0
 11
1.0
 21
0.0
 31
0.0
 44
0.9
  1
2004
 40
0.0704997506
 41
0.2255992019
  0
MTEXT
  5
337
100
AcDbEntity
  8
___SYMBOL
100
AcDbMText
 62
2
  6
CONTINUOUS
  7
STANDARD
 71
1
 72
1
 10
19.0162173845
 20
3.3691961344
 30
0.0
 11
1.0
 21
0.0
 31
0.0
 44
0.9
  1
 KOHLER CO.
 40
0.0704997506
 41
0.6203978051
  0
MTEXT
  5
338
100
AcDbEntity
  8
___SYMBOL
100
AcDbMText
 62
2
  6
CONTINUOUS
  7
TEXTSTYLE_2
 71
1
 72
1
 10
18.7105927167
 20
3.357368676
 30
0.0
 11
1.0
 21
0.0
 31
0.0
 44
0.9
  1
C
 40
0.0421873503
 41
0.0421873503
  0
ENDBLK
  5
339
100
AcDbEntity
  8
0
  6
BYBLOCK
 62
0
100
AcDbBlockEnd
  0
BLOCK
  5
33A
100
AcDbEntity
  8
0
100
AcDbBlockBegin
  2
_FILLED
 70
64
 10
0.0
 20
0.0
  3
_FILLED
  1

  0
SOLID
  5
33B
100
AcDbEntity
  8
0
  6
BYBLOCK
 62
0
100
AcDbTrace
 10
0.0
 20
0.0
 11
-1.0
 21
0.1666666667
 12
-1.0
 22
-0.1666666667
 13
-1.0
 23
-0.1666666667
  0
ENDBLK
  5
33C
100
AcDbEntity
  8
0
  6
BYBLOCK
 62
0
100
AcDbBlockEnd
  0
BLOCK
  5
33D
100
AcDbEntity
  8
0
100
AcDbBlockBegin
 62
2
  6
CONTINUOUS
  2
*D0
 70
65
 10
0.0
 20
0.0
  3
*D0
  1

  0
MTEXT
  5
33E
100
AcDbEntity
  8
0
100
AcDbMText
 62
2
  6
CONTINUOUS
  7
STANDARD
 71
1
 72
1
 10
11.4932000828
 20
10.380126107
 30
0.0
 11
1.0
 21
0.0
 31
0.0
 44
0.9
  1
16-3/8{\Ftxt.shx;\W0.000000;\H0.156250; }"\P[41,6 cm]
 40
0.15625
 41
1.125
  0
LINE
  5
33F
100
AcDbEntity
  8
0
100
AcDbLine
 62
2
  6
CONTINUOUS
 10
12.4698810799
 20
19.4278837072
 11
11.8057000836
 21
19.4278837072
  0
LINE
  5
340
100
AcDbEntity
  8
0
100
AcDbLine
 62
2
  6
CONTINUOUS
 10
12.439648126
 20
3.0628837072
 11
11.8057000836
 21
3.0628837072
  0
LINE
  5
341
100
AcDbEntity
  8
0
100
AcDbLine
 62
2
  6
CONTINUOUS
 10
11.9307000836
 20
19.4278837072
 11
11.9307000836
 21
10.4582511073
  0
LINE
  5
342
100
AcDbEntity
  8
0
100
AcDbLine
 62
2
  6
CONTINUOUS
 10
11.9307000836
 20
3.0628837072
 11
11.9307000836
 21
9.9113761066
  0
INSERT
  5
343
100
AcDbEntity
  8
0
100
AcDbBlockReference
 62
2
  6
CONTINUOUS
  2
_FILLED
 10
11.9307000836
 20
19.4278837072
 41
0.1875
 42
0.1875
 43
0.1875
 50
90.0
  0
INSERT
  5
344
100
AcDbEntity
  8
0
100
AcDbBlockReference
 62
2
  6
CONTINUOUS
  2
_FILLED
 10
11.9307000836
 20
3.0628837072
 41
0.1875
 42
0.1875
 43
0.1875
 50
270.0
  0
ENDBLK
  5
345
100
AcDbEntity
  8
0
  6
BYBLOCK
 62
0
100
AcDbBlockEnd
  0
BLOCK
  5
346
100
AcDbEntity
  8
0
100
AcDbBlockBegin
 62
2
  6
CONTINUOUS
  2
*D1
 70
65
 10
0.0
 20
0.0
  3
*D1
  1

  0
MTEXT
  5
347
100
AcDbEntity
  8
0
100
AcDbMText
 62
2
  6
CONTINUOUS
  7
STANDARD
 71
1
 72
1
 10
9.7258562694
 20
11.6225849904
 30
0.0
 11
1.0
 21
0.0
 31
0.0
 44
0.9
  1
16-3/8{\Ftxt.shx;\W0.000000;\H0.156250; }"\P[41,6 cm]
 40
0.15625
 41
1.125
  0
LINE
  5
348
100
AcDbEntity
  8
0
100
AcDbLine
 62
2
  6
CONTINUOUS
 10
19.8873460948
 20
10.8843471785
 11
19.8873460948
 21
11.6694599905
  0
LINE
  5
349
100
AcDbEntity
  8
0
100
AcDbLine
 62
2
  6
CONTINUOUS
 10
3.5223460948
 20
10.8843471785
 11
3.5223460948
 21
11.6694599905
  0
LINE
  5
34A
100
AcDbEntity
  8
0
100
AcDbLine
 62
2
  6
CONTINUOUS
 10
19.8873460948
 20
11.5444599905
 11
10.9289812716
 21
11.5444599905
  0
LINE
  5
34B
100
AcDbEntity
  8
0
100
AcDbLine
 62
2
  6
CONTINUOUS
 10
3.5223460948
 20
11.5444599905
 11
9.6477312694
 21
11.5444599905
  0
INSERT
  5
34C
100
AcDbEntity
  8
0
100
AcDbBlockReference
 62
2
  6
CONTINUOUS
  2
_FILLED
 10
19.8873460948
 20
11.5444599905
 41
0.1875
 42
0.1875
 43
0.1875
  0
INSERT
  5
34D
100
AcDbEntity
  8
0
100
AcDbBlockReference
 62
2
  6
CONTINUOUS
  2
_FILLED
 10
3.5223460948
 20
11.5444599905
 41
0.1875
 42
0.1875
 43
0.1875
 50
180.0
  0
ENDBLK
  5
34E
100
AcDbEntity
  8
0
  6
BYBLOCK
 62
0
100
AcDbBlockEnd
  0
ENDSEC
  0
SECTION
  2
ENTITIES
  0
DIMENSION
  5
34F
100
AcDbEntity
  8
0
100
AcDbDimension
 62
2
  6
CONTINUOUS
  2
*D0
 10
11.9307000836
 20
3.0628837072
 11
12.0557000828
 21
10.1848136068
 70
160
 71
1
 42
16.365
  1
<>"\P[41,6 cm]
  3
DIMSTYLE_1
100
AcDbAlignedDimension
 13
12.4698810799
 23
19.4278837072
 14
12.439648126
 24
3.0628837072
 50
270.0
100
AcDbRotatedDimension
  0
DIMENSION
  5
350
100
AcDbEntity
  8
0
100
AcDbDimension
 62
2
  6
CONTINUOUS
  2
*D1
 10
3.5223460948
 20
11.5444599905
 11
10.2883562694
 21
11.4272724902
 70
160
 71
1
 42
16.365
  1
<>"\P[41,6 cm]
  3
DIMSTYLE_1
100
AcDbAlignedDimension
 13
19.8873460948
 23
10.8843471785
 14
3.5223460948
 24
10.8843471785
 50
180.0
100
AcDbRotatedDimension
  0
MTEXT
  5
351
100
AcDbEntity
  8
0
100
AcDbMText
 62
2
  6
CONTINUOUS
  7
STANDARD
 71
1
 72
1
 10
5.8692490747
 20
14.9701005209
 30
0.0
 11
1.0
 21
0.0
 31
0.0
 44
0.9
  1
TM
 40
0.094
 41
0.1504
  0
MTEXT
  5
352
100
AcDbEntity
  8
0
100
AcDbMText
 62
2
  6
CONTINUOUS
  7
STANDARD
 71
1
 72
1
 10
5.8796197188
 20
14.118342607
 30
0.0
 11
1.0
 21
0.0
 31
0.0
 44
0.9
  1
TM
 40
0.094
 41
0.1504
  0
LEADER
  5
353
100
AcDbEntity
  8
0
100
AcDbLeader
 62
2
  6
CONTINUOUS
  3
STANDARD
 71
1
 72
0
 73
0
 75
0
 40
0.15625
 41
1.375
 76
3
 10
20.7048460948
 20
16.0172879667
 30
0.0
 10
18.6480131706
 20
17.1899676885
 30
0.0
 10
18.3980131706
 20
17.1899676885
 30
0.0
340
354
1001
ACAD
1000
DSTYLE
1002
{
1070
77
1070
0
1002
}
  0
MTEXT
  5
354
102
{ACAD_REACTORS
330
353
102
}
100
AcDbEntity
  8
0
100
AcDbMText
 62
2
  6
CONTINUOUS
  7
STANDARD
 71
3
 72
1
 10
18.3980131706
 20
17.2680926885
 30
0.0
 11
1.0
 21
0.0
 31
0.0
 44
0.9
  1
RIM OF SINK\PREBORDE DE FREGADERO\PREBORD D'ÉVIER
 40
0.15625
 41
2.5
  0
LEADER
  5
355
100
AcDbEntity
  8
0
100
AcDbLeader
 62
2
  6
CONTINUOUS
  3
STANDARD
 71
1
 72
0
 73
0
 75
0
 40
0.15625
 41
2.375
 76
3
 10
19.8873460948
 20
13.6720937879
 30
0.0
 10
18.7222814009
 20
14.4665814468
 30
0.0
 10
18.4722814009
 20
14.4665814468
 30
0.0
340
356
1001
ACAD
1000
DSTYLE
1002
{
1070
77
1070
0
1002
}
  0
MTEXT
  5
356
102
{ACAD_REACTORS
330
355
102
}
100
AcDbEntity
  8
0
100
AcDbMText
 62
2
  6
CONTINUOUS
  7
STANDARD
 71
3
 72
1
 10
18.4722814009
 20
14.5447064468
 30
0.0
 11
1.0
 21
0.0
 31
0.0
 44
0.9
  1
CUT ALONG THIS LINE\P CORTE A LO LARGO DE ESTA LÍNEA\P DÉCOUPER AU LONG DE CETTE LIGNE
 40
0.15625
 41
4.0
  0
INSERT
  5
357
100
AcDbEntity
  8
___SYMBOL
100
AcDbBlockReference
 62
2
  6
CONTINUOUS
  2
COPYRIGHT_YEAR_BL0
 10
19.1643084862
 20
3.3339698839
  0
INSERT
  5
358
100
AcDbEntity
  8
___SYMBOL
100
AcDbBlockReference
 62
2
  6
CONTINUOUS
  2
CUT-OUT_TEMPLATE_SKU_SIN_BL1
 10
7.2490850754
 20
16.1033016684
  0
INSERT
  5
359
100
AcDbEntity
  8
___SYMBOL
100
AcDbBlockReference
 62
2
  6
CONTINUOUS
  2
PACKAGING_UPC_BL2
 10
8.2000421108
 20
7.4930576613
  0
INSERT
  5
35A
100
AcDbEntity
  8
___SYMBOL
100
AcDbBlockReference
 62
2
  6
CONTINUOUS
  2
TEMPLATE_NUMBER_BL3
 10
4.06561606
 20
3.3521685885
  0
INSERT
  5
35B
100
AcDbEntity
  8
___SYMBOL
100
AcDbBlockReference
 62
2
  6
CONTINUOUS
  2
TEMPLATE_NUMBER_BL4
 10
4.0870269225
 20
1.9708111138
  0
INSERT
  5
35C
100
AcDbEntity
  8
___SYMBOL
100
AcDbBlockReference
 62
2
  6
CONTINUOUS
  2
WHEN_PLOTTING_TEMPLATE_N_BL5
 10
16.0148102155
 20
7.612753644
  0
LINE
  5
35D
100
AcDbEntity
  8
_CURVE
100
AcDbLine
 62
8
  6
HIDDEN
 10
2.7048460948
 20
20.2453837072
 11
2.7048460948
 21
2.2453837072
  0
LINE
  5
35E
100
AcDbEntity
  8
_CURVE
100
AcDbLine
 62
8
  6
HIDDEN
 10
2.7048460948
 20
2.2453837072
 11
20.7048460948
 21
2.2453837072
  0
LINE
  5
35F
100
AcDbEntity
  8
_CURVE
100
AcDbLine
 62
7
  6
CONTINUOUS
 10
3.5223460948
 20
3.3128837072
 11
3.5223460948
 21
19.1778837072
  0
LINE
  5
360
100
AcDbEntity
  8
_CURVE
100
AcDbLine
 62
7
  6
CONTINUOUS
 10
19.6373460948
 20
3.0628837072
 11
3.7723460948
 21
3.0628837072
  0
LINE
  5
361
100
AcDbEntity
  8
_CURVE
100
AcDbLine
 62
7
  6
CONTINUOUS
 10
19.8873460948
 20
19.1778837072
 11
19.8873460948
 21
3.3128837072
  0
LINE
  5
362
100
AcDbEntity
  8
_CURVE
100
AcDbLine
 62
7
  6
CONTINUOUS
 10
3.7723460948
 20
19.4278837072
 11
19.6373460948
 21
19.4278837072
  0
LINE
  5
363
100
AcDbEntity
  8
_CURVE
100
AcDbLine
 62
8
  6
HIDDEN
 10
20.7048460948
 20
2.2453837072
 11
20.7048460948
 21
20.2453837072
  0
LINE
  5
364
100
AcDbEntity
  8
_CURVE
100
AcDbLine
 62
8
  6
HIDDEN
 10
20.7048460948
 20
20.2453837072
 11
2.7048460948
 21
20.2453837072
  0
ARC
  5
365
100
AcDbEntity
  8
_CURVE
100
AcDbCircle
 62
7
  6
CONTINUOUS
 10
3.7723460948
 20
19.1778837072
 40
0.25
100
AcDbArc
 50
90.0
 51
180.0
  0
ARC
  5
366
100
AcDbEntity
  8
_CURVE
100
AcDbCircle
 62
7
  6
CONTINUOUS
 10
3.7723460948
 20
3.3128837072
 40
0.25
100
AcDbArc
 50
180.0
 51
270.0
  0
ARC
  5
367
100
AcDbEntity
  8
_CURVE
100
AcDbCircle
 62
7
  6
CONTINUOUS
 10
19.6373460948
 20
3.3128837072
 40
0.25
100
AcDbArc
 50
270.0
 51
360.0
  0
ARC
  5
368
100
AcDbEntity
  8
_CURVE
100
AcDbCircle
 62
7
  6
CONTINUOUS
 10
19.6373460948
 20
19.1778837072
 40
0.25
100
AcDbArc
 50
0.0
 51
90.0
  0
ELLIPSE
  5
369
100
AcDbEntity
  8
0
100
AcDbEllipse
 62
7
  6
CONTINUOUS
 10
8.245473104
 20
14.79817789
 30
0.0
 11
0.2277748744
 21
-0.0494804096
 31
0.0
 40
0.999915
 41
2.0158414293
 42
8.2853459679
  0
ELLIPSE
  5
36A
100
AcDbEntity
  8
0
100
AcDbEllipse
 62
7
  6
CONTINUOUS
 10
8.4536012701
 20
13.9296430432
 30
0.0
 11
0.2277748744
 21
-0.0494804096
 31
0.0
 40
0.999915
 41
2.0158414293
 42
8.2853459679
  0
ENDSEC
  0
SECTION
  2
OBJECTS
  0
DICTIONARY
  5
C
100
AcDbDictionary
280
0
281
1
  3
ACAD_GROUP
350
D
  3
ACAD_MLINESTYLE
350
17
  3
ACAD_LAYOUT
350
1A
  3
ACAD_PLOTSETTINGS
350
19
  3
ACAD_PLOTSTYLENAME
350
E
  0
DICTIONARY
  5
D
102
{ACAD_REACTORS
330
C
102
}
100
AcDbDictionary
280
0
281
1
  0
ACDBDICTIONARYWDFLT
  5
E
102
{ACAD_REACTORS
330
C
102
}
100
AcDbDictionary
281
1
  3
Normal
350
F
100
AcDbDictionaryWithDefault
340
F
  0
DICTIONARY
  5
17
102
{ACAD_REACTORS
330
C
102
}
100
AcDbDictionary
280
0
281
1
  3
Standard
350
18
  0
DICTIONARY
  5
19
102
{ACAD_REACTORS
330
C
102
}
100
AcDbDictionary
281
1
  0
DICTIONARY
  5
1A
102
{ACAD_REACTORS
330
C
102
}
100
AcDbDictionary
281
1
  3
Model
350
36B
  3
Layout1
350
36C
  0
ACDBPLACEHOLDER
  5
F
102
{ACAD_REACTORS
330
E
102
}
  0
MLINESTYLE
  5
18
102
{ACAD_REACTORS
330
17
102
}
100
AcDbMlineStyle
  2
STANDARD
 70
0
  3

 62
256
 51
90.0
 52
90.0
 71
2
 49
0.5
 62
256
  6
BYLAYER
 49
-0.5
 62
256
  6
BYLAYER
  0
LAYOUT
  5
36B
102
{ACAD_REACTORS
330
1A
102
}
100
AcDbPlotSettings
  1

  2
none_device
  4
ANSI_D_(34.00_x_22.00_Inches)
  6

 40
0.0
 41
0.0
 42
0.0
 43
0.0
 44
863.6
 45
558.8
 46
0.0
 47
0.0
 48
0.0
 49
0.0
140
0.0
141
0.0
142
1.0
143
1.0
 70
1024
 72
0
 73
0
 74
0
  7

 75
0
147
1.0
148
0.0
149
0.0
100
AcDbLayout
  1
Model
 70
0
 71
0
 10
0.0
 20
0.0
 11
34.0
 21
22.0
 12
0.0
 22
0.0
 32
0.0
 14
0.0
 24
0.0
 34
0.0
 15
0.0
 25
0.0
 35
0.0
146
0.0
 13
0.0
 23
0.0
 33
0.0
 16
1.0
 26
0.0
 36
0.0
 17
0.0
 27
1.0
 37
0.0
 76
0
330
20D
345
0
346
0
  0
LAYOUT
  5
36C
102
{ACAD_REACTORS
330
1A
102
}
100
AcDbPlotSettings
  1

  2
none_device
  4
ANSI_D_(34.00_x_22.00_Inches)
  6

 40
0.0
 41
0.0
 42
0.0
 43
0.0
 44
863.6
 45
558.8
 46
0.0
 47
0.0
 48
0.0
 49
0.0
140
0.0
141
0.0
142
1.0
143
1.0
 70
0
 72
0
 73
0
 74
0
  7

 75
0
147
1.0
148
0.0
149
0.0
100
AcDbLayout
  1
Layout1
 70
0
 71
1
 10
0.0
 20
0.0
 11
34.0
 21
22.0
 12
0.0
 22
0.0
 32
0.0
 14
0.0
 24
0.0
 34
0.0
 15
0.0
 25
0.0
 35
0.0
146
0.0
 13
0.0
 23
0.0
 33
0.0
 16
1.0
 26
0.0
 36
0.0
 17
0.0
 27
1.0
 37
0.0
 76
0
330
20E
345
0
346
0
  0
ENDSEC
  0
EOF
