  0
SECTION
  2
HEADER
  9
$ACADVER
  1
AC1009
  9
$INSBASE
 10
0.0
 20
0.0
 30
0.0
  9
$EXTMIN
 10
5.2186890733646001
 20
9.6641846607255104
 30
-0.0015258207003583
  9
$EXTMAX
 10
38.22070322071751
 20
28.019287181574949
 30
0.0000000349246037
  9
$LIMMIN
 10
0.0
 20
0.0
  9
$LIMMAX
 10
44.0
 20
34.0
  9
$ORTHOMODE
 70
     0
  9
$REGENMODE
 70
     1
  9
$FILLMODE
 70
     1
  9
$QTEXTMODE
 70
     0
  9
$MIRRTEXT
 70
     0
  9
$DRAGMODE
 70
     2
  9
$LTSCALE
 40
2.419999999999999
  9
$OSMODE
 70
    37
  9
$ATTMODE
 70
     1
  9
$TEXTSIZE
 40
0.2
  9
$TRACEWID
 40
0.05
  9
$TEXTSTYLE
  7
STANDARD
  9
$CLAYER
  8
0
  9
$CELTYPE
  6
ByLayer
  9
$CECOLOR
 62
   256
  9
$DIMSCALE
 40
1.0
  9
$DIMASZ
 40
0.1875
  9
$DIMEXO
 40
0.275
  9
$DIMDLI
 40
1.671999999999999
  9
$DIMRND
 40
0.0
  9
$DIMDLE
 40
0.0
  9
$DIMEXE
 40
0.792
  9
$DIMTP
 40
0.0
  9
$DIMTM
 40
0.0
  9
$DIMTXT
 40
0.15625
  9
$DIMCEN
 40
0.396
  9
$DIMTSZ
 40
0.0
  9
$DIMTOL
 70
     0
  9
$DIMLIM
 70
     0
  9
$DIMTIH
 70
     1
  9
$DIMTOH
 70
     1
  9
$DIMSE1
 70
     0
  9
$DIMSE2
 70
     0
  9
$DIMTAD
 70
     0
  9
$DIMZIN
 70
     0
  9
$DIMBLK
  1
_FILLED
  9
$DIMASO
 70
     1
  9
$DIMSHO
 70
     1
  9
$DIMPOST
  1

  9
$DIMAPOST
  1

  9
$DIMALT
 70
     0
  9
$DIMALTD
 70
     2
  9
$DIMALTF
 40
25.399999999999999
  9
$DIMLFAC
 40
1.0
  9
$DIMTOFL
 70
     0
  9
$DIMTVP
 40
0.0
  9
$DIMTIX
 70
     0
  9
$DIMSOXD
 70
     0
  9
$DIMSAH
 70
     0
  9
$DIMBLK1
  1

  9
$DIMBLK2
  1

  9
$DIMSTYLE
  2
STANDARD
  9
$DIMCLRD
 70
     0
  9
$DIMCLRE
 70
     0
  9
$DIMCLRT
 70
     0
  9
$DIMTFAC
 40
1.0
  9
$DIMGAP
 40
0.09
  9
$LUNITS
 70
     2
  9
$LUPREC
 70
     4
  9
$SKETCHINC
 40
0.1
  9
$FILLETRAD
 40
0.0
  9
$AUNITS
 70
     0
  9
$AUPREC
 70
     0
  9
$MENU
  1
.
  9
$ELEVATION
 40
0.0
  9
$PELEVATION
 40
0.0
  9
$THICKNESS
 40
0.0
  9
$LIMCHECK
 70
     0
  9
$BLIPMODE
 70
     0
  9
$CHAMFERA
 40
0.0
  9
$CHAMFERB
 40
0.0
  9
$SKPOLY
 70
     0
  9
$TDCREATE
 40
2454973.362464665
  9
$TDUPDATE
 40
2454973.3630097802
  9
$TDINDWG
 40
0.0005465625
  9
$TDUSRTIMER
 40
0.0005465625
  9
$USRTIMER
 70
     1
  9
$ANGBASE
 50
0.0
  9
$ANGDIR
 70
     0
  9
$PDMODE
 70
     3
  9
$PDSIZE
 40
0.3125
  9
$PLINEWID
 40
0.0
  9
$COORDS
 70
     1
  9
$SPLFRAME
 70
     0
  9
$SPLINETYPE
 70
     6
  9
$SPLINESEGS
 70
     8
  9
$ATTDIA
 70
     0
  9
$ATTREQ
 70
     1
  9
$HANDLING
 70
     1
  9
$HANDSEED
  5
5AE
  9
$SURFTAB1
 70
     6
  9
$SURFTAB2
 70
     6
  9
$SURFTYPE
 70
     6
  9
$SURFU
 70
     6
  9
$SURFV
 70
     6
  9
$UCSNAME
  2

  9
$UCSORG
 10
0.0
 20
0.0
 30
0.0
  9
$UCSXDIR
 10
1.0
 20
0.0
 30
0.0
  9
$UCSYDIR
 10
0.0
 20
1.0
 30
0.0
  9
$PUCSNAME
  2

  9
$PUCSORG
 10
0.0
 20
0.0
 30
0.0
  9
$PUCSXDIR
 10
1.0
 20
0.0
 30
0.0
  9
$PUCSYDIR
 10
0.0
 20
1.0
 30
0.0
  9
$USERI1
 70
     0
  9
$USERI2
 70
     0
  9
$USERI3
 70
     0
  9
$USERI4
 70
     0
  9
$USERI5
 70
     0
  9
$USERR1
 40
0.0
  9
$USERR2
 40
0.0
  9
$USERR3
 40
0.0
  9
$USERR4
 40
0.0
  9
$USERR5
 40
0.0
  9
$WORLDVIEW
 70
     1
  9
$SHADEDGE
 70
     3
  9
$SHADEDIF
 70
    70
  9
$TILEMODE
 70
     1
  9
$MAXACTVP
 70
    64
  9
$PLIMCHECK
 70
     0
  9
$PEXTMIN
 10
1.0000000000000000E+020
 20
1.0000000000000000E+020
 30
1.0000000000000000E+020
  9
$PEXTMAX
 10
-1.0000000000000000E+020
 20
-1.0000000000000000E+020
 30
-1.0000000000000000E+020
  9
$PLIMMIN
 10
0.0
 20
0.0
  9
$PLIMMAX
 10
12.0
 20
9.0
  9
$UNITMODE
 70
     0
  9
$VISRETAIN
 70
     1
  9
$PLINEGEN
 70
     0
  9
$PSLTSCALE
 70
     1
  0
ENDSEC
  0
SECTION
  2
TABLES
  0
TABLE
  2
VPORT
 70
     1
  0
VPORT
  2
*ACTIVE
 70
     0
 10
0.0
 20
0.0
 11
1.0
 21
1.0
 12
21.601858518561482
 22
18.9806096022768
 13
0.0
 23
0.0
 14
1.0
 24
1.0
 15
0.0
 25
0.0
 16
0.0
 26
0.0
 36
1.0
 17
0.0
 27
0.0
 37
0.0
 40
23.969793616765941
 41
1.73314606741573
 42
50.0
 43
0.0
 44
0.0
 50
0.0
 51
0.0
 71
     0
 72
   100
 73
     1
 74
     1
 75
     0
 76
     0
 77
     0
 78
     0
  0
ENDTAB
  0
TABLE
  2
LTYPE
 70
     8
  0
LTYPE
  2
ByBlock
 70
     0
  3

 72
    65
 73
     0
 40
0.0
  0
LTYPE
  2
ByLayer
 70
     0
  3

 72
    65
 73
     0
 40
0.0
  0
LTYPE
  2
CONTINUOUS
 70
     0
  3
Solid line
 72
    65
 73
     0
 40
0.0
  0
LTYPE
  2
CENTER
 70
     0
  3
____ _ ____ _ ____ _ ____ _ ____ _ ____ _ ____
 72
    65
 73
     4
 40
0.6
 49
0.375
 49
-0.075
 49
0.075
 49
-0.075
  0
LTYPE
  2
HIDDEN
 70
     0
  3
- - - - - - - - - - - - - - - - - - - -
 72
    65
 73
     2
 40
0.2
 49
0.1
 49
-0.1
  0
LTYPE
  2
PHANTOM
 70
     0
  3
_____ _ _ _____ _ _ _____ _ _ _____
 72
    65
 73
     6
 40
0.8
 49
0.45
 49
-0.05
 49
0.1
 49
-0.05
 49
0.1
 49
-0.05
  0
LTYPE
  2
DOT
 70
     0
  3
. . . . . . . . . . . . . . . . . . . .
 72
    65
 73
     2
 40
0.2
 49
0.1
 49
-0.1
  0
LTYPE
  2
DASHED
 70
     0
  3
- - - - - - - - - - - - - - - - - - - -
 72
    65
 73
     2
 40
0.2
 49
0.1
 49
-0.1
  0
ENDTAB
  0
TABLE
  2
LAYER
 70
    16
  0
LAYER
  2
0
 70
     0
 62
     7
  6
CONTINUOUS
  0
LAYER
  2
DEFAULT_1
 70
     0
 62
     7
  6
CENTER
  0
LAYER
  2
DEFAULT_2
 70
     0
 62
     8
  6
HIDDEN
  0
LAYER
  2
DEFAULT_3
 70
     0
 62
     7
  6
PHANTOM
  0
LAYER
  2
_2D_DELETED_OBJS
 70
     0
 62
     7
  6
CONTINUOUS
  0
LAYER
  2
DATUMS
 70
     0
 62
     7
  6
CONTINUOUS
  0
LAYER
  2
DATUM_AXIS
 70
     0
 62
     7
  6
CONTINUOUS
  0
LAYER
  2
DATUM_CSYS
 70
     0
 62
     7
  6
CONTINUOUS
  0
LAYER
  2
DATUM_PLANE
 70
     0
 62
     7
  6
CONTINUOUS
  0
LAYER
  2
DATUM_POINT
 70
     0
 62
     7
  6
CONTINUOUS
  0
LAYER
  2
_CURVE
 70
     0
 62
     7
  6
CONTINUOUS
  0
LAYER
  2
_SURFACE
 70
     0
 62
     7
  6
CONTINUOUS
  0
LAYER
  2
__REF_CURVE
 70
     0
 62
     7
  6
CONTINUOUS
  0
LAYER
  2
__REF_SURFACE
 70
     0
 62
     7
  6
CONTINUOUS
  0
LAYER
  2
___NOTE
 70
     0
 62
     7
  6
CONTINUOUS
  0
LAYER
  2
___SYMBOL
 70
     0
 62
     7
  6
CONTINUOUS
  0
ENDTAB
  0
TABLE
  2
STYLE
 70
     5
  0
STYLE
  2
STANDARD
 70
     0
 40
0.0
 41
0.8
 50
0.0
 71
     0
 42
0.2
  3
txt
  4

  0
STYLE
  2
ANNOTATIVE
 70
     0
 40
0.0
 41
1.0
 50
0.0
 71
     0
 42
0.2
  3
txt
  4

  0
STYLE
  2
TEXTSTYLE_1
 70
     0
 40
0.0
 41
1.0
 50
0.0
 71
     0
 42
0.2
  3
txt
  4

  0
STYLE
  2
TEXTSTYLE_2
 70
     0
 40
0.0
 41
0.8258950222999999
 50
0.0
 71
     0
 42
0.2
  3
txt
  4

  0
STYLE
  2
TEXTSTYLE_3
 70
     0
 40
0.0
 41
0.6740211631000002
 50
0.0
 71
     0
 42
0.2
  3
txt
  4

  0
ENDTAB
  0
TABLE
  2
VIEW
 70
     1
  0
ENDTAB
  0
TABLE
  2
UCS
 70
     0
  0
ENDTAB
  0
TABLE
  2
APPID
 70
     3
  0
APPID
  2
ACAD
 70
     0
  0
APPID
  2
ACADANNOTATIVE
 70
     0
  0
APPID
  2
ACAD_MLEADERVER
 70
     0
  0
ENDTAB
  0
TABLE
  2
DIMSTYLE
 70
     2
  0
DIMSTYLE
  2
STANDARD
 70
     0
  3

  4

  5

  6

  7

 40
1.0
 41
0.18
 42
0.0625
 43
0.38
 44
0.18
 45
0.0
 46
0.0
 47
0.0
 48
0.0
140
0.18
141
0.09
142
0.0
143
25.399999999999999
144
1.0
145
0.0
146
1.0
147
0.09
 71
     0
 72
     0
 73
     1
 74
     1
 75
     0
 76
     0
 77
     0
 78
     0
170
     0
171
     2
172
     0
173
     0
174
     0
175
     0
176
     0
177
     0
178
     0
  0
DIMSTYLE
  2
ANNOTATIVE
 70
     0
  3

  4

  5

  6

  7

 40
1.0
 41
0.18
 42
0.0625
 43
0.38
 44
0.18
 45
0.0
 46
0.0
 47
0.0
 48
0.0
140
0.18
141
0.09
142
0.0
143
25.399999999999999
144
1.0
145
0.0
146
1.0
147
0.09
 71
     0
 72
     0
 73
     1
 74
     1
 75
     0
 76
     0
 77
     0
 78
     0
170
     0
171
     2
172
     0
173
     0
174
     0
175
     0
176
     0
177
     0
178
     0
  0
ENDTAB
  0
ENDSEC
  0
SECTION
  2
BLOCKS
  0
BLOCK
  8
0
  2
$MODEL_SPACE
 70
     0
 10
0.0
 20
0.0
 30
0.0
  3
$MODEL_SPACE
  1

  0
ENDBLK
  5
76
  8
0
  0
BLOCK
 67
     1
  8
0
  2
$PAPER_SPACE
 70
     0
 10
0.0
 20
0.0
 30
0.0
  3
$PAPER_SPACE
  1

  0
ENDBLK
  5
72
 67
     1
  8
0
  0
BLOCK
  8
0
  6
CONTINUOUS
 62
     2
  2
*D0
 70
     1
 10
0.0
 20
0.0
 30
0.0
  3
*D0
  1

  0
TEXT
  5
95
  8
0
  6
CONTINUOUS
 62
     2
 10
21.233364610399999
 20
17.61272416349999
 30
0.0
 40
0.15625
  1
16-3/8"
 41
0.8
  0
TEXT
  5
96
  8
0
  6
CONTINUOUS
 62
     2
 10
21.233364610399999
 20
17.37834916349999
 30
0.0
 40
0.15625
  1
[41,6 cm]
 41
0.8
  0
LINE
  5
97
  8
0
  6
CONTINUOUS
 62
     2
 10
22.134932575899999
 20
27.2001205987
 30
0.0
 11
21.545864610399999
 21
27.2001205987
 31
0.0
  0
LINE
  5
98
  8
0
  6
CONTINUOUS
 62
     2
 10
22.19762503110001
 20
10.8351205987
 30
0.0
 11
21.545864610399999
 21
10.8351205987
 31
0.0
  0
LINE
  5
99
  8
0
  6
CONTINUOUS
 62
     2
 10
21.670864610399999
 20
27.2001205987
 30
0.0
 11
21.670864610399999
 21
17.84709916349999
 31
0.0
  0
LINE
  5
9A
  8
0
  6
CONTINUOUS
 62
     2
 10
21.670864610399999
 20
10.8351205987
 30
0.0
 11
21.670864610399999
 21
17.30022416349999
 31
0.0
  0
INSERT
  5
9C
  8
0
  6
CONTINUOUS
 62
     2
  2
_FILLED
 10
21.670864610399999
 20
27.2001205987
 30
0.0
 41
0.1875
 42
0.1875
 43
0.1875
 50
90.0
  0
INSERT
  5
9D
  8
0
  6
CONTINUOUS
 62
     2
  2
_FILLED
 10
21.670864610399999
 20
10.8351205987
 30
0.0
 41
0.1875
 42
0.1875
 43
0.1875
 50
270.0
  0
ENDBLK
  5
9E
  8
0
  6
ByBlock
 62
     0
  0
BLOCK
  8
0
  2
_FILLED
 70
     0
 10
0.0
 20
0.0
 30
0.0
  3
_FILLED
  1

  0
SOLID
  5
208
  8
0
  6
ByBlock
 62
     0
 10
0.0
 20
0.0
 30
0.0
 11
-1.0
 21
0.1666666667
 31
0.0
 12
-1.0
 22
-0.1666666667
 32
0.0
 13
-1.0
 23
-0.1666666667
 33
0.0
  0
ENDBLK
  5
209
  8
0
  6
ByBlock
 62
     0
  0
BLOCK
  8
0
  6
CONTINUOUS
 62
     2
  2
*D2
 70
     1
 10
0.0
 20
0.0
 30
0.0
  3
*D2
  1

  0
TEXT
  5
A1
  8
0
  6
CONTINUOUS
 62
     2
 10
19.7890375749
 20
18.463161793099999
 30
0.0
 40
0.15625
  1
31-3/8"
 41
0.8
  0
TEXT
  5
A2
  8
0
  6
CONTINUOUS
 62
     2
 10
19.7890375749
 20
18.228786793099999
 30
0.0
 40
0.15625
  1
[79,1 cm]
 41
0.8
  0
LINE
  5
A3
  8
0
  6
CONTINUOUS
 62
     2
 10
37.40173077650001
 20
17.701064096500001
 30
0.0
 11
37.40173077650001
 21
18.666286793099999
 31
0.0
  0
LINE
  5
A4
  8
0
  6
CONTINUOUS
 62
     2
 10
6.0367307764999989
 20
17.701064096500001
 30
0.0
 11
6.0367307764999989
 21
18.666286793099999
 31
0.0
  0
LINE
  5
A5
  8
0
  6
CONTINUOUS
 62
     2
 10
37.40173077650001
 20
18.541286793099999
 30
0.0
 11
20.9921625749
 21
18.541286793099999
 31
0.0
  0
LINE
  5
A6
  8
0
  6
CONTINUOUS
 62
     2
 10
6.0367307764999989
 20
18.541286793099999
 30
0.0
 11
19.7109125749
 21
18.541286793099999
 31
0.0
  0
INSERT
  5
A7
  8
0
  6
CONTINUOUS
 62
     2
  2
_FILLED
 10
37.40173077650001
 20
18.541286793099999
 30
0.0
 41
0.1875
 42
0.1875
 43
0.1875
  0
INSERT
  5
A8
  8
0
  6
CONTINUOUS
 62
     2
  2
_FILLED
 10
6.0367307764999989
 20
18.541286793099999
 30
0.0
 41
0.1875
 42
0.1875
 43
0.1875
 50
180.0
  0
ENDBLK
  5
A9
  8
0
  6
ByBlock
 62
     0
  0
BLOCK
  8
___SYMBOL
  6
CONTINUOUS
 62
     2
  2
COPYRIGHT_YEAR_BL0
 70
     0
 10
36.625979430299999
 20
11.165791431900001
 30
0.0
  3
COPYRIGHT_YEAR_BL0
  1

  0
TEXT
  5
AC
  8
___SYMBOL
  6
CONTINUOUS
 62
     2
 10
36.252289126800001
 20
11.1305179319
 30
0.0
 40
0.0704997506
  1
2004
 41
0.8
  0
TEXT
  5
AD
  8
___SYMBOL
  6
CONTINUOUS
 62
     2
 10
36.477888328699997
 20
11.1305179319
 30
0.0
 40
0.0704997506
  1
 KOHLER CO.
 41
0.8
  0
TEXT
  5
AE
  8
___SYMBOL
  6
CONTINUOUS
 62
     7
 10
36.172263660900001
 20
11.1470028738
 30
0.0
 40
0.0421873503
  1
C
  7
TEXTSTYLE_1
  0
CIRCLE
  5
AF
  8
___SYMBOL
  6
CONTINUOUS
 62
     7
 10
36.186498610400001
 20
11.1682390484
 30
0.0
 40
0.0328258835
  0
ENDBLK
  5
B0
  8
0
  6
ByBlock
 62
     0
  0
BLOCK
  8
___SYMBOL
  6
CONTINUOUS
 62
     2
  2
CUT-OUT_TEMPLATE_SKU_SIN_B
 70
     0
 10
10.450927156700001
 20
22.857039651499999
 30
0.0
  3
CUT-OUT_TEMPLATE_SKU_SIN_B
  1

  0
TEXT
  5
B3
  8
___SYMBOL
  6
CONTINUOUS
 62
     2
 10
8.0509270714000003
 20
25.839698993700001
 30
0.0
 40
0.2500000089
  1
CUT-OUT TEMPLATE
 41
0.8
  0
TEXT
  5
B4
  8
___SYMBOL
  6
CONTINUOUS
 62
     2
 10
8.0509270714000003
 20
25.464698980400001
 30
0.0
 40
0.2500000089
  1
UNDERCOUNTER SINK
 41
0.8
  0
TEXT
  5
B5
  8
___SYMBOL
  6
CONTINUOUS
 62
     2
 10
8.0509270714000003
 20
25.089698967099999
 30
0.0
 40
0.2500000089
  1
PLANTILLA DE RECORTE
 41
0.8
  0
TEXT
  5
B6
  8
___SYMBOL
  6
CONTINUOUS
 62
     2
 10
8.0509270714000003
 20
24.714698953799999
 30
0.0
 40
0.2500000089
  1
FREGADERO MONTADO DEBAJO
 41
0.8
  0
TEXT
  5
B7
  8
___SYMBOL
  6
CONTINUOUS
 62
     2
 10
8.0509270714000003
 20
24.339698940400002
 30
0.0
 40
0.2500000089
  1
  DEL MOSTRADOR
 41
0.8
  0
TEXT
  5
B8
  8
___SYMBOL
  6
CONTINUOUS
 62
     2
 10
8.0509270714000003
 20
23.964698927099999
 30
0.0
 40
0.2500000089
  1
PLAN DE DÉCOUPE
 41
0.8
  0
TEXT
  5
B9
  8
___SYMBOL
  6
CONTINUOUS
 62
     2
 10
8.0509270714000003
 20
23.5896989138
 30
0.0
 40
0.2500000089
  1
ÉVIER SOUS-COMPTOIR
 41
0.8
  0
TEXT
  5
BA
  8
___SYMBOL
  6
CONTINUOUS
 62
     2
 10
8.0509270714000003
 20
23.214698900399998
 30
0.0
 40
0.2500000089
  1
POISE
 41
0.8
  0
TEXT
  5
BB
  8
___SYMBOL
  6
CONTINUOUS
 62
     2
 10
9.0509271068999997
 20
23.214698900399998
 30
0.0
 40
0.2500000089
  1
   
 41
0.8
  0
TEXT
  5
BC
  8
___SYMBOL
  6
CONTINUOUS
 62
     2
 10
9.6509271283000011
 20
23.214698900399998
 30
0.0
 40
0.2500000089
  1
3387
 41
0.8
  0
TEXT
  5
BD
  8
___SYMBOL
  6
CONTINUOUS
 62
     2
 10
10.450927156700001
 20
23.214698900399998
 30
0.0
 40
0.2500000089
  1
-**-
 41
0.8
  0
TEXT
  5
BE
  8
___SYMBOL
  6
CONTINUOUS
 62
     2
 10
11.2509271851
 20
23.214698900399998
 30
0.0
 40
0.2500000089
  1
AA
 41
0.8
  0
LINE
  5
BF
  8
___SYMBOL
  6
CONTINUOUS
 62
     2
 10
8.5774988662999991
 20
26.891612268999999
 30
0.0
 11
8.3641954067999986
 21
26.637963986999999
 31
0.0
  0
LINE
  5
C0
  8
___SYMBOL
  6
CONTINUOUS
 62
     2
 10
8.3854370473999982
 20
26.891612268999999
 30
0.0
 11
8.5774988662999991
 21
26.891612268999999
 31
0.0
  0
LINE
  5
C1
  8
___SYMBOL
  6
CONTINUOUS
 62
     2
 10
8.3854370473999982
 20
26.891612268999999
 30
0.0
 11
8.2476728758000011
 21
26.727791073500001
 31
0.0
  0
LINE
  5
C2
  8
___SYMBOL
  6
CONTINUOUS
 62
     2
 10
8.2476728758000011
 20
26.891612268999999
 30
0.0
 11
8.2476728758000011
 21
26.727791073500001
 31
0.0
  0
LINE
  5
C3
  8
___SYMBOL
  6
CONTINUOUS
 62
     2
 10
8.0731726425999994
 20
26.891612268999999
 30
0.0
 11
8.2476728758000011
 21
26.891612268999999
 31
0.0
  0
LINE
  5
C4
  8
___SYMBOL
  6
CONTINUOUS
 62
     2
 10
8.0731726425999994
 20
26.891612268999999
 30
0.0
 11
8.0731726425999994
 21
26.305674595300001
 31
0.0
  0
LINE
  5
C5
  8
___SYMBOL
  6
CONTINUOUS
 62
     2
 10
8.2476728758000011
 20
26.305698598799999
 30
0.0
 11
8.0731726425999994
 21
26.305674595300001
 31
0.0
  0
LINE
  5
C6
  8
___SYMBOL
  6
CONTINUOUS
 62
     2
 10
8.2476728758000011
 20
26.50719844
 30
0.0
 11
8.2476728758000011
 21
26.305698598799999
 31
0.0
  0
LINE
  5
C7
  8
___SYMBOL
  6
CONTINUOUS
 62
     2
 10
8.4014108213000007
 20
26.305698598799999
 30
0.0
 11
8.2476728758000011
 21
26.50719844
 31
0.0
  0
LINE
  5
C8
  8
___SYMBOL
  6
CONTINUOUS
 62
     2
 10
8.4014108213000007
 20
26.305698598799999
 30
0.0
 11
8.6177032504999982
 21
26.305698598799999
 31
0.0
  0
LINE
  5
C9
  8
___SYMBOL
  6
CONTINUOUS
 62
     2
 10
8.6177032504999982
 20
26.305698598799999
 30
0.0
 11
8.3641954067999986
 21
26.637963986999999
 31
0.0
  0
SOLID
  5
CA
  8
___SYMBOL
  6
CONTINUOUS
 62
     2
 10
8.2476728758000011
 20
26.727791073500001
 30
0.0
 11
8.3854370473999982
 21
26.891612268999999
 31
0.0
 12
8.5774988662999991
 22
26.891612268999999
 32
0.0
 13
8.5774988662999991
 23
26.891612268999999
 33
0.0
  0
SOLID
  5
CB
  8
___SYMBOL
  6
CONTINUOUS
 62
     2
 10
8.5774988662999991
 20
26.891612268999999
 30
0.0
 11
8.3641954067999986
 21
26.637963986999999
 31
0.0
 12
8.2476728758000011
 22
26.727791073500001
 32
0.0
 13
8.2476728758000011
 23
26.727791073500001
 33
0.0
  0
SOLID
  5
CC
  8
___SYMBOL
  6
CONTINUOUS
 62
     2
 10
8.2476728758000011
 20
26.50719844
 30
0.0
 11
8.3641954067999986
 21
26.637963986999999
 31
0.0
 12
8.4014108213000007
 22
26.305698598799999
 32
0.0
 13
8.4014108213000007
 23
26.305698598799999
 33
0.0
  0
SOLID
  5
CD
  8
___SYMBOL
  6
CONTINUOUS
 62
     2
 10
8.3641954067999986
 20
26.637963986999999
 30
0.0
 11
8.6177032504999982
 21
26.305698598799999
 31
0.0
 12
8.4014108213000007
 22
26.305698598799999
 32
0.0
 13
8.4014108213000007
 23
26.305698598799999
 33
0.0
  0
SOLID
  5
CE
  8
___SYMBOL
  6
CONTINUOUS
 62
     2
 10
8.2476728758000011
 20
26.305698598799999
 30
0.0
 11
8.0731726425999994
 21
26.305674595300001
 31
0.0
 12
8.2476728758000011
 22
26.50719844
 32
0.0
 13
8.2476728758000011
 23
26.50719844
 33
0.0
  0
SOLID
  5
CF
  8
___SYMBOL
  6
CONTINUOUS
 62
     2
 10
8.3641954067999986
 20
26.637963986999999
 30
0.0
 11
8.2476728758000011
 21
26.50719844
 31
0.0
 12
8.2476728758000011
 22
26.727791073500001
 32
0.0
 13
8.2476728758000011
 23
26.727791073500001
 33
0.0
  0
SOLID
  5
D0
  8
___SYMBOL
  6
CONTINUOUS
 62
     2
 10
8.2476728758000011
 20
26.50719844
 30
0.0
 11
8.0731726425999994
 21
26.305674595300001
 31
0.0
 12
8.2476728758000011
 22
26.727791073500001
 32
0.0
 13
8.2476728758000011
 23
26.727791073500001
 33
0.0
  0
SOLID
  5
D1
  8
___SYMBOL
  6
CONTINUOUS
 62
     2
 10
8.2476728758000011
 20
26.727791073500001
 30
0.0
 11
8.0731726425999994
 21
26.305674595300001
 31
0.0
 12
8.2476728758000011
 22
26.891612268999999
 32
0.0
 13
8.2476728758000011
 23
26.891612268999999
 33
0.0
  0
SOLID
  5
D2
  8
___SYMBOL
  6
CONTINUOUS
 62
     2
 10
8.0731726425999994
 20
26.305674595300001
 30
0.0
 11
8.0731726425999994
 21
26.891612268999999
 31
0.0
 12
8.2476728758000011
 22
26.891612268999999
 32
0.0
 13
8.2476728758000011
 23
26.891612268999999
 33
0.0
  0
CIRCLE
  5
D3
  8
___SYMBOL
  6
CONTINUOUS
 62
     2
 10
8.7942120935000005
 20
26.597534182
 30
0.0
 40
0.2980566016
  0
CIRCLE
  5
D4
  8
___SYMBOL
  6
CONTINUOUS
 62
     2
 10
8.7942120935000005
 20
26.597534182
 30
0.0
 40
0.1247694195
  0
SOLID
  5
D5
  8
___SYMBOL
  6
CONTINUOUS
 62
     2
 10
8.7021075382999982
 20
26.8810028551
 30
0.0
 11
8.7630566948999995
 21
26.893957998299999
 31
0.0
 12
8.8253674919999998
 22
26.893957998299999
 32
0.0
 13
8.8253674919999998
 23
26.893957998299999
 33
0.0
  0
SOLID
  5
D6
  8
___SYMBOL
  6
CONTINUOUS
 62
     2
 10
8.8253674919999998
 20
26.893957998299999
 30
0.0
 11
8.8863166485999994
 21
26.8810028551
 31
0.0
 12
8.7021075382999982
 22
26.8810028551
 32
0.0
 13
8.7021075382999982
 23
26.8810028551
 33
0.0
  0
SOLID
  5
D7
  8
___SYMBOL
  6
CONTINUOUS
 62
     2
 10
8.6451837926999993
 20
26.855658770700011
 30
0.0
 11
8.7021075382999982
 21
26.8810028551
 31
0.0
 12
8.8863166485999994
 22
26.8810028551
 32
0.0
 13
8.8863166485999994
 23
26.8810028551
 33
0.0
  0
SOLID
  5
D8
  8
___SYMBOL
  6
CONTINUOUS
 62
     2
 10
8.8863166485999994
 20
26.8810028551
 30
0.0
 11
8.9432403942000001
 21
26.855658770700011
 31
0.0
 12
8.6451837926999993
 22
26.855658770700011
 32
0.0
 13
8.6451837926999993
 23
26.855658770700011
 33
0.0
  0
SOLID
  5
D9
  8
___SYMBOL
  6
CONTINUOUS
 62
     2
 10
8.5947732988999999
 20
26.819033403100001
 30
0.0
 11
8.6451837926999993
 21
26.855658770700011
 31
0.0
 12
8.9432403942000001
 22
26.855658770700011
 32
0.0
 13
8.9432403942000001
 23
26.855658770700011
 33
0.0
  0
SOLID
  5
DA
  8
___SYMBOL
  6
CONTINUOUS
 62
     2
 10
8.9432403942000001
 20
26.855658770700011
 30
0.0
 11
8.9936508879999995
 21
26.819033403100001
 31
0.0
 12
8.5947732988999999
 22
26.819033403100001
 32
0.0
 13
8.5947732988999999
 23
26.819033403100001
 33
0.0
  0
SOLID
  5
DB
  8
___SYMBOL
  6
CONTINUOUS
 62
     2
 10
8.5530792375000004
 20
26.7727274567
 30
0.0
 11
8.5947732988999999
 21
26.819033403100001
 31
0.0
 12
8.9936508879999995
 22
26.819033403100001
 32
0.0
 13
8.9936508879999995
 23
26.819033403100001
 33
0.0
  0
SOLID
  5
DC
  8
___SYMBOL
  6
CONTINUOUS
 62
     2
 10
8.9936508879999995
 20
26.819033403100001
 30
0.0
 11
9.0353449494000007
 21
26.7727274567
 31
0.0
 12
8.5530792375000004
 22
26.7727274567
 32
0.0
 13
8.5530792375000004
 23
26.7727274567
 33
0.0
  0
SOLID
  5
DD
  8
___SYMBOL
  6
CONTINUOUS
 62
     2
 10
8.7942120935000005
 20
26.722303601499998
 30
0.0
 11
8.5219238389999994
 21
26.718764723500001
 31
0.0
 12
9.0353449494000007
 22
26.7727274567
 32
0.0
 13
9.0353449494000007
 23
26.7727274567
 33
0.0
  0
SOLID
  5
DE
  8
___SYMBOL
  6
CONTINUOUS
 62
     2
 10
8.5219238389999994
 20
26.718764723500001
 30
0.0
 11
8.5530792375000004
 21
26.7727274567
 31
0.0
 12
9.0353449494000007
 22
26.7727274567
 32
0.0
 13
9.0353449494000007
 23
26.7727274567
 33
0.0
  0
SOLID
  5
DF
  8
___SYMBOL
  6
CONTINUOUS
 62
     2
 10
9.0353449494000007
 20
26.7727274567
 30
0.0
 11
9.0665003479999982
 21
26.718764723500001
 31
0.0
 12
8.7942120935000005
 22
26.722303601499998
 32
0.0
 13
8.7942120935000005
 23
26.722303601499998
 33
0.0
  0
SOLID
  5
E0
  8
___SYMBOL
  6
CONTINUOUS
 62
     2
 10
8.7942120935000005
 20
26.722303601499998
 30
0.0
 11
8.7556562224000007
 21
26.716196951400001
 31
0.0
 12
8.5219238389999994
 22
26.718764723500001
 32
0.0
 13
8.5219238389999994
 23
26.718764723500001
 33
0.0
  0
SOLID
  5
E1
  8
___SYMBOL
  6
CONTINUOUS
 62
     2
 10
8.8327679645000003
 20
26.716196951400001
 30
0.0
 11
8.7942120935000005
 21
26.722303601499998
 31
0.0
 12
9.0665003479999982
 22
26.718764723500001
 32
0.0
 13
9.0665003479999982
 23
26.718764723500001
 33
0.0
  0
SOLID
  5
E2
  8
___SYMBOL
  6
CONTINUOUS
 62
     2
 10
8.6932715126999991
 20
26.670871806699999
 30
0.0
 11
8.5026687436999993
 21
26.659503634
 31
0.0
 12
8.7208744686999982
 22
26.698474762699998
 32
0.0
 13
8.7208744686999982
 23
26.698474762699998
 33
0.0
  0
SOLID
  5
E3
  8
___SYMBOL
  6
CONTINUOUS
 62
     2
 10
8.7208744686999982
 20
26.698474762699998
 30
0.0
 11
8.5026687436999993
 21
26.659503634
 31
0.0
 12
8.7556562224000007
 22
26.716196951400001
 32
0.0
 13
8.7556562224000007
 23
26.716196951400001
 33
0.0
  0
SOLID
  5
E4
  8
___SYMBOL
  6
CONTINUOUS
 62
     2
 10
8.5026687436999993
 20
26.659503634
 30
0.0
 11
8.5219238389999994
 21
26.718764723500001
 31
0.0
 12
8.7556562224000007
 22
26.716196951400001
 32
0.0
 13
8.7556562224000007
 23
26.716196951400001
 33
0.0
  0
SOLID
  5
E5
  8
___SYMBOL
  6
CONTINUOUS
 62
     2
 10
8.8327679645000003
 20
26.716196951400001
 30
0.0
 11
9.0665003479999982
 21
26.718764723500001
 31
0.0
 12
8.8675497182000012
 22
26.698474762699998
 32
0.0
 13
8.8675497182000012
 23
26.698474762699998
 33
0.0
  0
SOLID
  5
E6
  8
___SYMBOL
  6
CONTINUOUS
 62
     2
 10
8.8675497182000012
 20
26.698474762699998
 30
0.0
 11
9.0665003479999982
 21
26.718764723500001
 31
0.0
 12
8.8951526742000002
 22
26.670871806699999
 32
0.0
 13
8.8951526742000002
 23
26.670871806699999
 33
0.0
  0
SOLID
  5
E7
  8
___SYMBOL
  6
CONTINUOUS
 62
     2
 10
9.0665003479999982
 20
26.718764723500001
 30
0.0
 11
9.0857554432000001
 21
26.659503634
 31
0.0
 12
8.8951526742000002
 22
26.670871806699999
 32
0.0
 13
8.8951526742000002
 23
26.670871806699999
 33
0.0
  0
SOLID
  5
E8
  8
___SYMBOL
  6
CONTINUOUS
 62
     2
 10
8.6932715126999991
 20
26.670871806699999
 30
0.0
 11
8.6755493240000003
 21
26.636090053
 31
0.0
 12
8.5026687436999993
 22
26.659503634
 32
0.0
 13
8.5026687436999993
 23
26.659503634
 33
0.0
  0
SOLID
  5
E9
  8
___SYMBOL
  6
CONTINUOUS
 62
     2
 10
8.9128748628999972
 20
26.636090053
 30
0.0
 11
8.8951526742000002
 21
26.670871806699999
 31
0.0
 12
9.0857554432000001
 22
26.659503634
 32
0.0
 13
9.0857554432000001
 23
26.659503634
 33
0.0
  0
SOLID
  5
EA
  8
___SYMBOL
  6
CONTINUOUS
 62
     2
 10
8.4961554918999997
 20
26.597534182
 30
0.0
 11
8.5026687436999993
 21
26.659503634
 31
0.0
 12
8.6755493240000003
 22
26.636090053
 32
0.0
 13
8.6755493240000003
 23
26.636090053
 33
0.0
  0
SOLID
  5
EB
  8
___SYMBOL
  6
CONTINUOUS
 62
     2
 10
8.6755493240000003
 20
26.636090053
 30
0.0
 11
8.669442673899999
 21
26.597534182
 31
0.0
 12
8.4961554918999997
 22
26.597534182
 32
0.0
 13
8.4961554918999997
 23
26.597534182
 33
0.0
  0
SOLID
  5
EC
  8
___SYMBOL
  6
CONTINUOUS
 62
     2
 10
8.9128748628999972
 20
26.636090053
 30
0.0
 11
9.0857554432000001
 21
26.659503634
 31
0.0
 12
8.9189815130000003
 22
26.597534182
 32
0.0
 13
8.9189815130000003
 23
26.597534182
 33
0.0
  0
SOLID
  5
ED
  8
___SYMBOL
  6
CONTINUOUS
 62
     2
 10
9.0857554432000001
 20
26.659503634
 30
0.0
 11
9.0922686949999996
 21
26.597534182
 31
0.0
 12
8.9189815130000003
 22
26.597534182
 32
0.0
 13
8.9189815130000003
 23
26.597534182
 33
0.0
  0
SOLID
  5
EE
  8
___SYMBOL
  6
CONTINUOUS
 62
     2
 10
8.9128748628999972
 20
26.558978311000001
 30
0.0
 11
8.9189815130000003
 21
26.597534182
 31
0.0
 12
9.0922686949999996
 22
26.597534182
 32
0.0
 13
9.0922686949999996
 23
26.597534182
 33
0.0
  0
SOLID
  5
EF
  8
___SYMBOL
  6
CONTINUOUS
 62
     2
 10
8.6755493240000003
 20
26.558978311000001
 30
0.0
 11
8.5026687436999993
 21
26.535564730000001
 31
0.0
 12
8.669442673899999
 22
26.597534182
 32
0.0
 13
8.669442673899999
 23
26.597534182
 33
0.0
  0
SOLID
  5
F0
  8
___SYMBOL
  6
CONTINUOUS
 62
     2
 10
8.5026687436999993
 20
26.535564730000001
 30
0.0
 11
8.4961554918999997
 21
26.597534182
 31
0.0
 12
8.669442673899999
 22
26.597534182
 32
0.0
 13
8.669442673899999
 23
26.597534182
 33
0.0
  0
SOLID
  5
F1
  8
___SYMBOL
  6
CONTINUOUS
 62
     2
 10
9.0922686949999996
 20
26.597534182
 30
0.0
 11
9.0857554432000001
 21
26.535564730000001
 31
0.0
 12
8.9128748628999972
 22
26.558978311000001
 32
0.0
 13
8.9128748628999972
 23
26.558978311000001
 33
0.0
  0
SOLID
  5
F2
  8
___SYMBOL
  6
CONTINUOUS
 62
     2
 10
8.6755493240000003
 20
26.558978311000001
 30
0.0
 11
8.6932715126999991
 21
26.5241965572
 31
0.0
 12
8.5026687436999993
 22
26.535564730000001
 32
0.0
 13
8.5026687436999993
 23
26.535564730000001
 33
0.0
  0
SOLID
  5
F3
  8
___SYMBOL
  6
CONTINUOUS
 62
     2
 10
8.8951526742000002
 20
26.5241965572
 30
0.0
 11
8.9128748628999972
 21
26.558978311000001
 31
0.0
 12
9.0857554432000001
 22
26.535564730000001
 32
0.0
 13
9.0857554432000001
 23
26.535564730000001
 33
0.0
  0
SOLID
  5
F4
  8
___SYMBOL
  6
CONTINUOUS
 62
     2
 10
8.7556562224000007
 20
26.478871412499998
 30
0.0
 11
8.5219238389999994
 21
26.476303640400001
 31
0.0
 12
8.7208744686999982
 22
26.496593601200001
 32
0.0
 13
8.7208744686999982
 23
26.496593601200001
 33
0.0
  0
SOLID
  5
F5
  8
___SYMBOL
  6
CONTINUOUS
 62
     2
 10
8.7208744686999982
 20
26.496593601200001
 30
0.0
 11
8.5219238389999994
 21
26.476303640400001
 31
0.0
 12
8.6932715126999991
 22
26.5241965572
 32
0.0
 13
8.6932715126999991
 23
26.5241965572
 33
0.0
  0
SOLID
  5
F6
  8
___SYMBOL
  6
CONTINUOUS
 62
     2
 10
8.5219238389999994
 20
26.476303640400001
 30
0.0
 11
8.5026687436999993
 21
26.535564730000001
 31
0.0
 12
8.6932715126999991
 22
26.5241965572
 32
0.0
 13
8.6932715126999991
 23
26.5241965572
 33
0.0
  0
SOLID
  5
F7
  8
___SYMBOL
  6
CONTINUOUS
 62
     2
 10
8.8951526742000002
 20
26.5241965572
 30
0.0
 11
9.0857554432000001
 21
26.535564730000001
 31
0.0
 12
8.8675497182000012
 22
26.496593601200001
 32
0.0
 13
8.8675497182000012
 23
26.496593601200001
 33
0.0
  0
SOLID
  5
F8
  8
___SYMBOL
  6
CONTINUOUS
 62
     2
 10
8.8675497182000012
 20
26.496593601200001
 30
0.0
 11
9.0857554432000001
 21
26.535564730000001
 31
0.0
 12
8.8327679645000003
 22
26.478871412499998
 32
0.0
 13
8.8327679645000003
 23
26.478871412499998
 33
0.0
  0
SOLID
  5
F9
  8
___SYMBOL
  6
CONTINUOUS
 62
     2
 10
9.0857554432000001
 20
26.535564730000001
 30
0.0
 11
9.0665003479999982
 21
26.476303640400001
 31
0.0
 12
8.8327679645000003
 22
26.478871412499998
 32
0.0
 13
8.8327679645000003
 23
26.478871412499998
 33
0.0
  0
SOLID
  5
FA
  8
___SYMBOL
  6
CONTINUOUS
 62
     2
 10
8.7556562224000007
 20
26.478871412499998
 30
0.0
 11
8.7942120935000005
 21
26.472764762499999
 31
0.0
 12
8.5219238389999994
 22
26.476303640400001
 32
0.0
 13
8.5219238389999994
 23
26.476303640400001
 33
0.0
  0
SOLID
  5
FB
  8
___SYMBOL
  6
CONTINUOUS
 62
     2
 10
8.7942120935000005
 20
26.472764762499999
 30
0.0
 11
8.8327679645000003
 21
26.478871412499998
 31
0.0
 12
9.0665003479999982
 22
26.476303640400001
 32
0.0
 13
9.0665003479999982
 23
26.476303640400001
 33
0.0
  0
SOLID
  5
FC
  8
___SYMBOL
  6
CONTINUOUS
 62
     2
 10
8.5530792375000004
 20
26.422340907199999
 30
0.0
 11
8.5219238389999994
 21
26.476303640400001
 31
0.0
 12
8.7942120935000005
 22
26.472764762499999
 32
0.0
 13
8.7942120935000005
 23
26.472764762499999
 33
0.0
  0
SOLID
  5
FD
  8
___SYMBOL
  6
CONTINUOUS
 62
     2
 10
8.7942120935000005
 20
26.472764762499999
 30
0.0
 11
9.0665003479999982
 21
26.476303640400001
 31
0.0
 12
8.5530792375000004
 22
26.422340907199999
 32
0.0
 13
8.5530792375000004
 23
26.422340907199999
 33
0.0
  0
SOLID
  5
FE
  8
___SYMBOL
  6
CONTINUOUS
 62
     2
 10
9.0665003479999982
 20
26.476303640400001
 30
0.0
 11
9.0353449494000007
 21
26.422340907199999
 31
0.0
 12
8.5530792375000004
 22
26.422340907199999
 32
0.0
 13
8.5530792375000004
 23
26.422340907199999
 33
0.0
  0
SOLID
  5
FF
  8
___SYMBOL
  6
CONTINUOUS
 62
     2
 10
8.5947732988999999
 20
26.376034960799998
 30
0.0
 11
8.5530792375000004
 21
26.422340907199999
 31
0.0
 12
9.0353449494000007
 22
26.422340907199999
 32
0.0
 13
9.0353449494000007
 23
26.422340907199999
 33
0.0
  0
SOLID
  5
100
  8
___SYMBOL
  6
CONTINUOUS
 62
     2
 10
9.0353449494000007
 20
26.422340907199999
 30
0.0
 11
8.9936508879999995
 21
26.376034960799998
 31
0.0
 12
8.5947732988999999
 22
26.376034960799998
 32
0.0
 13
8.5947732988999999
 23
26.376034960799998
 33
0.0
  0
SOLID
  5
101
  8
___SYMBOL
  6
CONTINUOUS
 62
     2
 10
8.6451837926999993
 20
26.339409593199999
 30
0.0
 11
8.5947732988999999
 21
26.376034960799998
 31
0.0
 12
8.9936508879999995
 22
26.376034960799998
 32
0.0
 13
8.9936508879999995
 23
26.376034960799998
 33
0.0
  0
SOLID
  5
102
  8
___SYMBOL
  6
CONTINUOUS
 62
     2
 10
8.9936508879999995
 20
26.376034960799998
 30
0.0
 11
8.9432403942000001
 21
26.339409593199999
 31
0.0
 12
8.6451837926999993
 22
26.339409593199999
 32
0.0
 13
8.6451837926999993
 23
26.339409593199999
 33
0.0
  0
SOLID
  5
103
  8
___SYMBOL
  6
CONTINUOUS
 62
     2
 10
8.7021075382999982
 20
26.314065508799999
 30
0.0
 11
8.6451837926999993
 21
26.339409593199999
 31
0.0
 12
8.9432403942000001
 22
26.339409593199999
 32
0.0
 13
8.9432403942000001
 23
26.339409593199999
 33
0.0
  0
SOLID
  5
104
  8
___SYMBOL
  6
CONTINUOUS
 62
     2
 10
8.9432403942000001
 20
26.339409593199999
 30
0.0
 11
8.8863166485999994
 21
26.314065508799999
 31
0.0
 12
8.7021075382999982
 22
26.314065508799999
 32
0.0
 13
8.7021075382999982
 23
26.314065508799999
 33
0.0
  0
SOLID
  5
105
  8
___SYMBOL
  6
CONTINUOUS
 62
     2
 10
8.7630566948999995
 20
26.3011103656
 30
0.0
 11
8.7021075382999982
 21
26.314065508799999
 31
0.0
 12
8.8863166485999994
 22
26.314065508799999
 32
0.0
 13
8.8863166485999994
 23
26.314065508799999
 33
0.0
  0
SOLID
  5
106
  8
___SYMBOL
  6
CONTINUOUS
 62
     2
 10
8.8863166485999994
 20
26.314065508799999
 30
0.0
 11
8.8253674919999998
 21
26.3011103656
 31
0.0
 12
8.7630566948999995
 22
26.3011103656
 32
0.0
 13
8.7630566948999995
 23
26.3011103656
 33
0.0
  0
LINE
  5
107
  8
___SYMBOL
  6
CONTINUOUS
 62
     2
 10
9.5868481307999982
 20
26.891612268999999
 30
0.0
 11
9.5868481307999982
 21
26.305698598799999
 31
0.0
  0
LINE
  5
108
  8
___SYMBOL
  6
CONTINUOUS
 62
     2
 10
9.5868481307999982
 20
26.305698598799999
 30
0.0
 11
9.4221144451000001
 21
26.305698598799999
 31
0.0
  0
LINE
  5
109
  8
___SYMBOL
  6
CONTINUOUS
 62
     2
 10
9.4221144451000001
 20
26.5340232167
 30
0.0
 11
9.4221144451000001
 21
26.305698598799999
 31
0.0
  0
LINE
  5
10A
  8
___SYMBOL
  6
CONTINUOUS
 62
     2
 10
9.2741176287999991
 20
26.5340232167
 30
0.0
 11
9.4221144451000001
 21
26.5340232167
 31
0.0
  0
LINE
  5
10B
  8
___SYMBOL
  6
CONTINUOUS
 62
     2
 10
9.2741176287999991
 20
26.5340232167
 30
0.0
 11
9.2741176287999991
 21
26.305698598799999
 31
0.0
  0
LINE
  5
10C
  8
___SYMBOL
  6
CONTINUOUS
 62
     2
 10
9.2741176287999991
 20
26.305698598799999
 30
0.0
 11
9.1093839429999992
 21
26.305698598799999
 31
0.0
  0
LINE
  5
10D
  8
___SYMBOL
  6
CONTINUOUS
 62
     2
 10
9.1093839429999992
 20
26.891612268999999
 30
0.0
 11
9.1093839429999992
 21
26.305698598799999
 31
0.0
  0
LINE
  5
10E
  8
___SYMBOL
  6
CONTINUOUS
 62
     2
 10
9.1093839429999992
 20
26.891612268999999
 30
0.0
 11
9.2741176287999991
 21
26.891612268999999
 31
0.0
  0
LINE
  5
10F
  8
___SYMBOL
  6
CONTINUOUS
 62
     2
 10
9.2741176287999991
 20
26.891612268999999
 30
0.0
 11
9.2741176287999991
 21
26.6712285015
 31
0.0
  0
LINE
  5
110
  8
___SYMBOL
  6
CONTINUOUS
 62
     2
 10
9.2741176287999991
 20
26.6712285015
 30
0.0
 11
9.4221144451000001
 21
26.6712285015
 31
0.0
  0
LINE
  5
111
  8
___SYMBOL
  6
CONTINUOUS
 62
     2
 10
9.4221144451000001
 20
26.891612268999999
 30
0.0
 11
9.4221144451000001
 21
26.6712285015
 31
0.0
  0
LINE
  5
112
  8
___SYMBOL
  6
CONTINUOUS
 62
     2
 10
9.4221144451000001
 20
26.891612268999999
 30
0.0
 11
9.5868481307999982
 21
26.891612268999999
 31
0.0
  0
SOLID
  5
113
  8
___SYMBOL
  6
CONTINUOUS
 62
     2
 10
9.4221144451000001
 20
26.6712285015
 30
0.0
 11
9.4221144451000001
 21
26.891612268999999
 31
0.0
 12
9.5868481307999982
 22
26.891612268999999
 32
0.0
 13
9.5868481307999982
 23
26.891612268999999
 33
0.0
  0
SOLID
  5
114
  8
___SYMBOL
  6
CONTINUOUS
 62
     2
 10
9.4221144451000001
 20
26.6712285015
 30
0.0
 11
9.2741176287999991
 21
26.5340232167
 31
0.0
 12
9.2741176287999991
 22
26.6712285015
 32
0.0
 13
9.2741176287999991
 23
26.6712285015
 33
0.0
  0
SOLID
  5
115
  8
___SYMBOL
  6
CONTINUOUS
 62
     2
 10
9.2741176287999991
 20
26.5340232167
 30
0.0
 11
9.1093839429999992
 21
26.305698598799999
 31
0.0
 12
9.2741176287999991
 22
26.6712285015
 32
0.0
 13
9.2741176287999991
 23
26.6712285015
 33
0.0
  0
SOLID
  5
116
  8
___SYMBOL
  6
CONTINUOUS
 62
     2
 10
9.2741176287999991
 20
26.6712285015
 30
0.0
 11
9.1093839429999992
 21
26.305698598799999
 31
0.0
 12
9.2741176287999991
 22
26.891612268999999
 32
0.0
 13
9.2741176287999991
 23
26.891612268999999
 33
0.0
  0
SOLID
  5
117
  8
___SYMBOL
  6
CONTINUOUS
 62
     2
 10
9.1093839429999992
 20
26.305698598799999
 30
0.0
 11
9.1093839429999992
 21
26.891612268999999
 31
0.0
 12
9.2741176287999991
 22
26.891612268999999
 32
0.0
 13
9.2741176287999991
 23
26.891612268999999
 33
0.0
  0
SOLID
  5
118
  8
___SYMBOL
  6
CONTINUOUS
 62
     2
 10
9.2741176287999991
 20
26.5340232167
 30
0.0
 11
9.2741176287999991
 21
26.305698598799999
 31
0.0
 12
9.1093839429999992
 22
26.305698598799999
 32
0.0
 13
9.1093839429999992
 23
26.305698598799999
 33
0.0
  0
SOLID
  5
119
  8
___SYMBOL
  6
CONTINUOUS
 62
     2
 10
9.2741176287999991
 20
26.5340232167
 30
0.0
 11
9.4221144451000001
 21
26.6712285015
 31
0.0
 12
9.4221144451000001
 22
26.5340232167
 32
0.0
 13
9.4221144451000001
 23
26.5340232167
 33
0.0
  0
SOLID
  5
11A
  8
___SYMBOL
  6
CONTINUOUS
 62
     2
 10
9.4221144451000001
 20
26.6712285015
 30
0.0
 11
9.5868481307999982
 21
26.891612268999999
 31
0.0
 12
9.4221144451000001
 22
26.5340232167
 32
0.0
 13
9.4221144451000001
 23
26.5340232167
 33
0.0
  0
SOLID
  5
11B
  8
___SYMBOL
  6
CONTINUOUS
 62
     2
 10
9.4221144451000001
 20
26.5340232167
 30
0.0
 11
9.5868481307999982
 21
26.891612268999999
 31
0.0
 12
9.4221144451000001
 22
26.305698598799999
 32
0.0
 13
9.4221144451000001
 23
26.305698598799999
 33
0.0
  0
SOLID
  5
11C
  8
___SYMBOL
  6
CONTINUOUS
 62
     2
 10
9.5868481307999982
 20
26.891612268999999
 30
0.0
 11
9.5868481307999982
 21
26.305698598799999
 31
0.0
 12
9.4221144451000001
 22
26.305698598799999
 32
0.0
 13
9.4221144451000001
 23
26.305698598799999
 33
0.0
  0
LINE
  5
11D
  8
___SYMBOL
  6
CONTINUOUS
 62
     2
 10
9.7819390446999996
 20
26.305698598799999
 30
0.0
 11
9.9446231204999993
 21
26.305698598799999
 31
0.0
  0
LINE
  5
11E
  8
___SYMBOL
  6
CONTINUOUS
 62
     2
 10
9.7819390446999996
 20
26.305698598799999
 30
0.0
 11
9.6318929765999997
 21
26.305698598799999
 31
0.0
  0
LINE
  5
11F
  8
___SYMBOL
  6
CONTINUOUS
 62
     2
 10
9.6318929765999997
 20
26.305698598799999
 30
0.0
 11
9.6318929765999997
 21
26.891612268999999
 31
0.0
  0
LINE
  5
120
  8
___SYMBOL
  6
CONTINUOUS
 62
     2
 10
9.6318929765999997
 20
26.891612268999999
 30
0.0
 11
9.7819390446999996
 21
26.891612268999999
 31
0.0
  0
LINE
  5
121
  8
___SYMBOL
  6
CONTINUOUS
 62
     2
 10
9.7819390446999996
 20
26.891612268999999
 30
0.0
 11
9.7819390446999996
 21
26.446925361000002
 31
0.0
  0
LINE
  5
122
  8
___SYMBOL
  6
CONTINUOUS
 62
     2
 10
9.7819390446999996
 20
26.446925361000002
 30
0.0
 11
9.9446231204999993
 21
26.446925361000002
 31
0.0
  0
LINE
  5
123
  8
___SYMBOL
  6
CONTINUOUS
 62
     2
 10
9.9446231204999993
 20
26.446925361000002
 30
0.0
 11
9.9446231204999993
 21
26.305698598799999
 31
0.0
  0
SOLID
  5
124
  8
___SYMBOL
  6
CONTINUOUS
 62
     2
 10
9.9446231204999993
 20
26.446925361000002
 30
0.0
 11
9.6318929765999997
 21
26.305698598799999
 31
0.0
 12
9.7819390446999996
 22
26.446925361000002
 32
0.0
 13
9.7819390446999996
 23
26.446925361000002
 33
0.0
  0
SOLID
  5
125
  8
___SYMBOL
  6
CONTINUOUS
 62
     2
 10
9.7819390446999996
 20
26.446925361000002
 30
0.0
 11
9.6318929765999997
 21
26.305698598799999
 31
0.0
 12
9.7819390446999996
 22
26.891612268999999
 32
0.0
 13
9.7819390446999996
 23
26.891612268999999
 33
0.0
  0
SOLID
  5
126
  8
___SYMBOL
  6
CONTINUOUS
 62
     2
 10
9.6318929765999997
 20
26.305698598799999
 30
0.0
 11
9.6318929765999997
 21
26.891612268999999
 31
0.0
 12
9.7819390446999996
 22
26.891612268999999
 32
0.0
 13
9.7819390446999996
 23
26.891612268999999
 33
0.0
  0
SOLID
  5
127
  8
___SYMBOL
  6
CONTINUOUS
 62
     2
 10
9.6318929765999997
 20
26.305698598799999
 30
0.0
 11
9.9446231204999993
 21
26.446925361000002
 31
0.0
 12
9.7819390446999996
 22
26.305698598799999
 32
0.0
 13
9.7819390446999996
 23
26.305698598799999
 33
0.0
  0
SOLID
  5
128
  8
___SYMBOL
  6
CONTINUOUS
 62
     2
 10
9.9446231204999993
 20
26.446925361000002
 30
0.0
 11
9.9446231204999993
 21
26.305698598799999
 31
0.0
 12
9.7819390446999996
 22
26.305698598799999
 32
0.0
 13
9.7819390446999996
 23
26.305698598799999
 33
0.0
  0
LINE
  5
129
  8
___SYMBOL
  6
CONTINUOUS
 62
     2
 10
10.282875046499999
 20
26.526846894799998
 30
0.0
 11
10.282875046499999
 21
26.6712285015
 31
0.0
  0
LINE
  5
12A
  8
___SYMBOL
  6
CONTINUOUS
 62
     2
 10
10.1320175178
 20
26.6712285015
 30
0.0
 11
10.282875046499999
 21
26.6712285015
 31
0.0
  0
LINE
  5
12B
  8
___SYMBOL
  6
CONTINUOUS
 62
     2
 10
10.1320175178
 20
26.748852867099998
 30
0.0
 11
10.1320175178
 21
26.6712285015
 31
0.0
  0
LINE
  5
12C
  8
___SYMBOL
  6
CONTINUOUS
 62
     2
 10
10.1320175178
 20
26.748852867099998
 30
0.0
 11
10.282875046499999
 21
26.748852867099998
 31
0.0
  0
LINE
  5
12D
  8
___SYMBOL
  6
CONTINUOUS
 62
     2
 10
10.282875046499999
 20
26.748852867099998
 30
0.0
 11
10.282875046499999
 21
26.891612268999999
 31
0.0
  0
LINE
  5
12E
  8
___SYMBOL
  6
CONTINUOUS
 62
     2
 10
10.146221841599999
 20
26.891612268999999
 30
0.0
 11
10.282875046499999
 21
26.891612268999999
 31
0.0
  0
LINE
  5
12F
  8
___SYMBOL
  6
CONTINUOUS
 62
     2
 10
9.9737708602000001
 20
26.891612268999999
 30
0.0
 11
10.146221841599999
 21
26.891612268999999
 31
0.0
  0
LINE
  5
130
  8
___SYMBOL
  6
CONTINUOUS
 62
     2
 10
9.9737708602000001
 20
26.305698598799999
 30
0.0
 11
9.9737708602000001
 21
26.891612268999999
 31
0.0
  0
LINE
  5
131
  8
___SYMBOL
  6
CONTINUOUS
 62
     2
 10
9.9737708602000001
 20
26.305698598799999
 30
0.0
 11
10.282875046499999
 21
26.305698598799999
 31
0.0
  0
LINE
  5
132
  8
___SYMBOL
  6
CONTINUOUS
 62
     2
 10
10.282875046499999
 20
26.305698598799999
 30
0.0
 11
10.282875046499999
 21
26.446925361000002
 31
0.0
  0
LINE
  5
133
  8
___SYMBOL
  6
CONTINUOUS
 62
     2
 10
10.1320175178
 20
26.446925361000002
 30
0.0
 11
10.282875046499999
 21
26.446925361000002
 31
0.0
  0
LINE
  5
134
  8
___SYMBOL
  6
CONTINUOUS
 62
     2
 10
10.1320175178
 20
26.526846894799998
 30
0.0
 11
10.1320175178
 21
26.446925361000002
 31
0.0
  0
LINE
  5
135
  8
___SYMBOL
  6
CONTINUOUS
 62
     2
 10
10.1320175178
 20
26.526846894799998
 30
0.0
 11
10.282875046499999
 21
26.526846894799998
 31
0.0
  0
SOLID
  5
136
  8
___SYMBOL
  6
CONTINUOUS
 62
     2
 10
10.282875046499999
 20
26.891612268999999
 30
0.0
 11
10.282875046499999
 21
26.748852867099998
 31
0.0
 12
10.1320175178
 22
26.748852867099998
 32
0.0
 13
10.1320175178
 23
26.748852867099998
 33
0.0
  0
SOLID
  5
137
  8
___SYMBOL
  6
CONTINUOUS
 62
     2
 10
10.282875046499999
 20
26.6712285015
 30
0.0
 11
10.282875046499999
 21
26.526846894799998
 31
0.0
 12
10.1320175178
 22
26.526846894799998
 32
0.0
 13
10.1320175178
 23
26.526846894799998
 33
0.0
  0
SOLID
  5
138
  8
___SYMBOL
  6
CONTINUOUS
 62
     2
 10
10.282875046499999
 20
26.446925361000002
 30
0.0
 11
9.9737708602000001
 21
26.305698598799999
 31
0.0
 12
10.1320175178
 22
26.446925361000002
 32
0.0
 13
10.1320175178
 23
26.446925361000002
 33
0.0
  0
SOLID
  5
139
  8
___SYMBOL
  6
CONTINUOUS
 62
     2
 10
10.1320175178
 20
26.446925361000002
 30
0.0
 11
9.9737708602000001
 21
26.305698598799999
 31
0.0
 12
10.1320175178
 22
26.526846894799998
 32
0.0
 13
10.1320175178
 23
26.526846894799998
 33
0.0
  0
SOLID
  5
13A
  8
___SYMBOL
  6
CONTINUOUS
 62
     2
 10
10.282875046499999
 20
26.6712285015
 30
0.0
 11
10.1320175178
 21
26.526846894799998
 31
0.0
 12
10.1320175178
 22
26.6712285015
 32
0.0
 13
10.1320175178
 23
26.6712285015
 33
0.0
  0
SOLID
  5
13B
  8
___SYMBOL
  6
CONTINUOUS
 62
     2
 10
10.1320175178
 20
26.526846894799998
 30
0.0
 11
9.9737708602000001
 21
26.305698598799999
 31
0.0
 12
10.1320175178
 22
26.6712285015
 32
0.0
 13
10.1320175178
 23
26.6712285015
 33
0.0
  0
SOLID
  5
13C
  8
___SYMBOL
  6
CONTINUOUS
 62
     2
 10
10.1320175178
 20
26.6712285015
 30
0.0
 11
9.9737708602000001
 21
26.305698598799999
 31
0.0
 12
10.1320175178
 22
26.748852867099998
 32
0.0
 13
10.1320175178
 23
26.748852867099998
 33
0.0
  0
SOLID
  5
13D
  8
___SYMBOL
  6
CONTINUOUS
 62
     2
 10
10.282875046499999
 20
26.891612268999999
 30
0.0
 11
10.1320175178
 21
26.748852867099998
 31
0.0
 12
10.146221841599999
 22
26.891612268999999
 32
0.0
 13
10.146221841599999
 23
26.891612268999999
 33
0.0
  0
SOLID
  5
13E
  8
___SYMBOL
  6
CONTINUOUS
 62
     2
 10
10.1320175178
 20
26.748852867099998
 30
0.0
 11
9.9737708602000001
 21
26.305698598799999
 31
0.0
 12
10.146221841599999
 22
26.891612268999999
 32
0.0
 13
10.146221841599999
 23
26.891612268999999
 33
0.0
  0
SOLID
  5
13F
  8
___SYMBOL
  6
CONTINUOUS
 62
     2
 10
9.9737708602000001
 20
26.305698598799999
 30
0.0
 11
9.9737708602000001
 21
26.891612268999999
 31
0.0
 12
10.146221841599999
 22
26.891612268999999
 32
0.0
 13
10.146221841599999
 23
26.891612268999999
 33
0.0
  0
SOLID
  5
140
  8
___SYMBOL
  6
CONTINUOUS
 62
     2
 10
10.282875046499999
 20
26.446925361000002
 30
0.0
 11
10.282875046499999
 21
26.305698598799999
 31
0.0
 12
9.9737708602000001
 22
26.305698598799999
 32
0.0
 13
9.9737708602000001
 23
26.305698598799999
 33
0.0
  0
LINE
  5
141
  8
___SYMBOL
  6
CONTINUOUS
 62
     2
 10
10.7931254706
 20
26.305698598799999
 30
0.0
 11
10.633682221999999
 21
26.557281149000001
 31
0.0
  0
ARC
  5
142
  8
___SYMBOL
  6
CONTINUOUS
 62
     2
 10
10.5612429718
 20
26.716602752
 30
0.0
 40
0.1750166225
 50
294.4500166359
 51
90.0
  0
LINE
  5
143
  8
___SYMBOL
  6
CONTINUOUS
 62
     2
 10
10.327695262800001
 20
26.891612268999999
 30
0.0
 11
10.5612429718
 21
26.891612268999999
 31
0.0
  0
LINE
  5
144
  8
___SYMBOL
  6
CONTINUOUS
 62
     2
 10
10.327695262800001
 20
26.305698598799999
 30
0.0
 11
10.327695262800001
 21
26.891612268999999
 31
0.0
  0
LINE
  5
145
  8
___SYMBOL
  6
CONTINUOUS
 62
     2
 10
10.327695262800001
 20
26.305698598799999
 30
0.0
 11
10.4783510907
 21
26.305698598799999
 31
0.0
  0
LINE
  5
146
  8
___SYMBOL
  6
CONTINUOUS
 62
     2
 10
10.4783510907
 20
26.502654976599999
 30
0.0
 11
10.4783510907
 21
26.305698598799999
 31
0.0
  0
LINE
  5
147
  8
___SYMBOL
  6
CONTINUOUS
 62
     2
 10
10.6031745243
 20
26.305698598799999
 30
0.0
 11
10.4783510907
 21
26.502654976599999
 31
0.0
  0
LINE
  5
148
  8
___SYMBOL
  6
CONTINUOUS
 62
     2
 10
10.6031745243
 20
26.305698598799999
 30
0.0
 11
10.7931254706
 21
26.305698598799999
 31
0.0
  0
LINE
  5
149
  8
___SYMBOL
  6
CONTINUOUS
 62
     2
 10
10.4783510907
 20
26.641930292200001
 30
0.0
 11
10.5306908428
 21
26.641930292200001
 31
0.0
  0
ARC
  5
14A
  8
___SYMBOL
  6
CONTINUOUS
 62
     2
 10
10.5342808722
 20
26.6954216936
 30
0.0
 40
0.0536117369
 50
266.1604009902
 51
89.999891051199995
  0
LINE
  5
14B
  8
___SYMBOL
  6
CONTINUOUS
 62
     2
 10
10.5342809742
 20
26.749033430600001
 30
0.0
 11
10.4783510907
 21
26.749033430600001
 31
0.0
  0
LINE
  5
14C
  8
___SYMBOL
  6
CONTINUOUS
 62
     2
 10
10.4783510907
 20
26.749033430600001
 30
0.0
 11
10.4783510907
 21
26.641930292200001
 31
0.0
  0
SOLID
  5
14D
  8
___SYMBOL
  6
CONTINUOUS
 62
     2
 10
10.5612429718
 20
26.891619374600001
 30
0.0
 11
10.608175997
 21
26.885209125900001
 31
0.0
 12
10.327695262800001
 22
26.891612268999999
 32
0.0
 13
10.327695262800001
 23
26.891612268999999
 33
0.0
  0
SOLID
  5
14E
  8
___SYMBOL
  6
CONTINUOUS
 62
     2
 10
10.4783510907
 20
26.749033430600001
 30
0.0
 11
10.732290840799999
 21
26.753662766200001
 31
0.0
 12
10.5342809742
 22
26.749033430600001
 32
0.0
 13
10.5342809742
 23
26.749033430600001
 33
0.0
  0
SOLID
  5
14F
  8
___SYMBOL
  6
CONTINUOUS
 62
     2
 10
10.5342809742
 20
26.749033430600001
 30
0.0
 11
10.732290840799999
 21
26.753662766200001
 31
0.0
 12
10.558003556599999
 22
26.743499262
 32
0.0
 13
10.558003556599999
 23
26.743499262
 33
0.0
  0
SOLID
  5
150
  8
___SYMBOL
  6
CONTINUOUS
 62
     2
 10
10.558003556599999
 20
26.743499262
 30
0.0
 11
10.732290840799999
 21
26.753662766200001
 31
0.0
 12
10.5768285449
 22
26.728039386399999
 32
0.0
 13
10.5768285449
 23
26.728039386399999
 33
0.0
  0
SOLID
  5
151
  8
___SYMBOL
  6
CONTINUOUS
 62
     2
 10
10.732290840799999
 20
26.753662766200001
 30
0.0
 11
10.735964087399999
 21
26.706436635700001
 31
0.0
 12
10.5768285449
 22
26.728039386399999
 32
0.0
 13
10.5768285449
 23
26.728039386399999
 33
0.0
  0
SOLID
  5
152
  8
___SYMBOL
  6
CONTINUOUS
 62
     2
 10
10.586869483899999
 20
26.705845525000001
 30
0.0
 11
10.5768285449
 21
26.728039386399999
 31
0.0
 12
10.735964087399999
 22
26.706436635700001
 32
0.0
 13
10.735964087399999
 23
26.706436635700001
 33
0.0
  0
SOLID
  5
153
  8
___SYMBOL
  6
CONTINUOUS
 62
     2
 10
10.586869483899999
 20
26.705845525000001
 30
0.0
 11
10.735964087399999
 21
26.706436635700001
 31
0.0
 12
10.586053402099999
 22
26.6814996435
 32
0.0
 13
10.586053402099999
 23
26.6814996435
 33
0.0
  0
SOLID
  5
154
  8
___SYMBOL
  6
CONTINUOUS
 62
     2
 10
10.586053402099999
 20
26.6814996435
 30
0.0
 11
10.735964087399999
 21
26.706436635700001
 31
0.0
 12
10.574548781400001
 22
26.660027996099998
 32
0.0
 13
10.574548781400001
 23
26.660027996099998
 33
0.0
  0
SOLID
  5
155
  8
___SYMBOL
  6
CONTINUOUS
 62
     2
 10
10.735964087399999
 20
26.706436635700001
 30
0.0
 11
10.7268384834
 21
26.659955203999999
 31
0.0
 12
10.574548781400001
 22
26.660027996099998
 32
0.0
 13
10.574548781400001
 23
26.660027996099998
 33
0.0
  0
SOLID
  5
156
  8
___SYMBOL
  6
CONTINUOUS
 62
     2
 10
10.554730772899999
 20
26.645863446100002
 30
0.0
 11
10.574548781400001
 21
26.660027996099998
 31
0.0
 12
10.7268384834
 22
26.659955203999999
 32
0.0
 13
10.7268384834
 23
26.659955203999999
 33
0.0
  0
SOLID
  5
157
  8
___SYMBOL
  6
CONTINUOUS
 62
     2
 10
10.554730772899999
 20
26.645863446100002
 30
0.0
 11
10.7268384834
 21
26.659955203999999
 31
0.0
 12
10.5306908428
 22
26.641930292200001
 32
0.0
 13
10.5306908428
 23
26.641930292200001
 33
0.0
  0
SOLID
  5
158
  8
___SYMBOL
  6
CONTINUOUS
 62
     2
 10
10.7268384834
 20
26.659955203999999
 30
0.0
 11
10.705582507000001
 21
26.617623376699999
 31
0.0
 12
10.5306908428
 22
26.641930292200001
 32
0.0
 13
10.5306908428
 23
26.641930292200001
 33
0.0
  0
SOLID
  5
159
  8
___SYMBOL
  6
CONTINUOUS
 62
     2
 10
10.633682221999999
 20
26.557281149000001
 30
0.0
 11
10.4783510907
 21
26.502654976599999
 31
0.0
 12
10.6737532227
 22
26.582542088099999
 32
0.0
 13
10.6737532227
 23
26.582542088099999
 33
0.0
  0
SOLID
  5
15A
  8
___SYMBOL
  6
CONTINUOUS
 62
     2
 10
10.6737532227
 20
26.582542088099999
 30
0.0
 11
10.4783510907
 21
26.502654976599999
 31
0.0
 12
10.705582507000001
 22
26.617623376699999
 32
0.0
 13
10.705582507000001
 23
26.617623376699999
 33
0.0
  0
SOLID
  5
15B
  8
___SYMBOL
  6
CONTINUOUS
 62
     2
 10
10.705582507000001
 20
26.617623376699999
 30
0.0
 11
10.4783510907
 21
26.502654976599999
 31
0.0
 12
10.5306908428
 22
26.641930292200001
 32
0.0
 13
10.5306908428
 23
26.641930292200001
 33
0.0
  0
SOLID
  5
15C
  8
___SYMBOL
  6
CONTINUOUS
 62
     2
 10
10.4783510907
 20
26.502654976599999
 30
0.0
 11
10.327695262800001
 21
26.305698598799999
 31
0.0
 12
10.5306908428
 22
26.641930292200001
 32
0.0
 13
10.5306908428
 23
26.641930292200001
 33
0.0
  0
SOLID
  5
15D
  8
___SYMBOL
  6
CONTINUOUS
 62
     2
 10
10.5306908428
 20
26.641930292200001
 30
0.0
 11
10.327695262800001
 21
26.305698598799999
 31
0.0
 12
10.4783510907
 22
26.641930292200001
 32
0.0
 13
10.4783510907
 23
26.641930292200001
 33
0.0
  0
SOLID
  5
15E
  8
___SYMBOL
  6
CONTINUOUS
 62
     2
 10
10.4783510907
 20
26.641930292200001
 30
0.0
 11
10.327695262800001
 21
26.305698598799999
 31
0.0
 12
10.4783510907
 22
26.749033430600001
 32
0.0
 13
10.4783510907
 23
26.749033430600001
 33
0.0
  0
SOLID
  5
15F
  8
___SYMBOL
  6
CONTINUOUS
 62
     2
 10
10.732290840799999
 20
26.753662766200001
 30
0.0
 11
10.4783510907
 21
26.749033430600001
 31
0.0
 12
10.7160878201
 22
26.798174138499999
 32
0.0
 13
10.7160878201
 23
26.798174138499999
 33
0.0
  0
SOLID
  5
160
  8
___SYMBOL
  6
CONTINUOUS
 62
     2
 10
10.7160878201
 20
26.798174138499999
 30
0.0
 11
10.4783510907
 21
26.749033430600001
 31
0.0
 12
10.688541945600001
 22
26.836710159900001
 32
0.0
 13
10.688541945600001
 23
26.836710159900001
 33
0.0
  0
SOLID
  5
161
  8
___SYMBOL
  6
CONTINUOUS
 62
     2
 10
10.688541945600001
 20
26.836710159900001
 30
0.0
 11
10.4783510907
 21
26.749033430600001
 31
0.0
 12
10.651671036
 22
26.866447950000001
 32
0.0
 13
10.651671036
 23
26.866447950000001
 33
0.0
  0
SOLID
  5
162
  8
___SYMBOL
  6
CONTINUOUS
 62
     2
 10
10.651671036
 20
26.866447950000001
 30
0.0
 11
10.4783510907
 21
26.749033430600001
 31
0.0
 12
10.608175997
 22
26.885209125900001
 32
0.0
 13
10.608175997
 23
26.885209125900001
 33
0.0
  0
SOLID
  5
163
  8
___SYMBOL
  6
CONTINUOUS
 62
     2
 10
10.608175997
 20
26.885209125900001
 30
0.0
 11
10.4783510907
 21
26.749033430600001
 31
0.0
 12
10.327695262800001
 22
26.891612268999999
 32
0.0
 13
10.327695262800001
 23
26.891612268999999
 33
0.0
  0
SOLID
  5
164
  8
___SYMBOL
  6
CONTINUOUS
 62
     2
 10
10.327695262800001
 20
26.305698598799999
 30
0.0
 11
10.327695262800001
 21
26.891612268999999
 31
0.0
 12
10.4783510907
 22
26.749033430600001
 32
0.0
 13
10.4783510907
 23
26.749033430600001
 33
0.0
  0
SOLID
  5
165
  8
___SYMBOL
  6
CONTINUOUS
 62
     2
 10
10.4783510907
 20
26.502654976599999
 30
0.0
 11
10.4783510907
 21
26.305698598799999
 31
0.0
 12
10.327695262800001
 22
26.305698598799999
 32
0.0
 13
10.327695262800001
 23
26.305698598799999
 33
0.0
  0
SOLID
  5
166
  8
___SYMBOL
  6
CONTINUOUS
 62
     2
 10
10.4783510907
 20
26.502654976599999
 30
0.0
 11
10.633682221999999
 21
26.557281149000001
 31
0.0
 12
10.6031745243
 22
26.305698598799999
 32
0.0
 13
10.6031745243
 23
26.305698598799999
 33
0.0
  0
SOLID
  5
167
  8
___SYMBOL
  6
CONTINUOUS
 62
     2
 10
10.633682221999999
 20
26.557281149000001
 30
0.0
 11
10.7931254706
 21
26.305698598799999
 31
0.0
 12
10.6031745243
 22
26.305698598799999
 32
0.0
 13
10.6031745243
 23
26.305698598799999
 33
0.0
  0
CIRCLE
  5
168
  8
___SYMBOL
  6
CONTINUOUS
 62
     2
 10
10.9338954503
 20
26.305698598799999
 30
0.0
 40
0.0653578744
  0
LINE
  5
169
  8
___SYMBOL
  6
CONTINUOUS
 62
     2
 10
10.929607426900001
 20
26.305160849300002
 30
0.0
 11
10.961475440799999
 21
26.272857906799999
 31
0.0
  0
LINE
  5
16A
  8
___SYMBOL
  6
CONTINUOUS
 62
     2
 10
10.9180094503
 20
26.272857906799999
 30
0.0
 11
10.9180094503
 21
26.338824108099999
 31
0.0
  0
LINE
  5
16B
  8
___SYMBOL
  6
CONTINUOUS
 62
     2
 10
10.9180094503
 20
26.338824108099999
 30
0.0
 11
10.9422887841
 21
26.338824108099999
 31
0.0
  0
ARC
  5
16C
  8
___SYMBOL
  6
CONTINUOUS
 62
     2
 10
10.9422887841
 20
26.32199265780001
 30
0.0
 40
0.0168314502
 50
270.0
 51
90.0
  0
LINE
  5
16D
  8
___SYMBOL
  6
CONTINUOUS
 62
     2
 10
10.9422887841
 20
26.305160849300002
 30
0.0
 11
10.9180094503
 21
26.305160849300002
 31
0.0
  0
TEXT
  5
16E
  8
___SYMBOL
  6
CONTINUOUS
 62
     2
 10
8.0586663870000006
 20
22.3547069456
 30
0.0
 40
0.2500000089
  1
POISE
 41
0.8
  0
TEXT
  5
16F
  8
___SYMBOL
  6
CONTINUOUS
 62
     2
 10
9.0586664225999982
 20
22.3547069456
 30
0.0
 40
0.2500000089
  1
   
 41
0.8
  0
TEXT
  5
170
  8
___SYMBOL
  6
CONTINUOUS
 62
     2
 10
9.6586664438999996
 20
22.3547069456
 30
0.0
 40
0.2500000089
  1
3388
 41
0.8
  0
TEXT
  5
171
  8
___SYMBOL
  6
CONTINUOUS
 62
     2
 10
10.458666472299999
 20
22.3547069456
 30
0.0
 40
0.2500000089
  1
-**-
 41
0.8
  0
TEXT
  5
172
  8
___SYMBOL
  6
CONTINUOUS
 62
     2
 10
11.2586665008
 20
22.3547069456
 30
0.0
 40
0.2500000089
  1
AA
 41
0.8
  0
TEXT
  5
173
  8
___SYMBOL
  6
CONTINUOUS
 62
     2
 10
8.0593004616999995
 20
20.583536066400001
 30
0.0
 40
0.2500000089
  1
POISE
 41
0.8
  0
TEXT
  5
174
  8
___SYMBOL
  6
CONTINUOUS
 62
     2
 10
9.0593004973000006
 20
20.583536066400001
 30
0.0
 40
0.2500000089
  1
   
 41
0.8
  0
TEXT
  5
175
  8
___SYMBOL
  6
CONTINUOUS
 62
     2
 10
9.6593005186000003
 20
20.583536066400001
 30
0.0
 40
0.2500000089
  1
3387W
 41
0.8
  0
TEXT
  5
176
  8
___SYMBOL
  6
CONTINUOUS
 62
     2
 10
10.6593005542
 20
20.583536066400001
 30
0.0
 40
0.2500000089
  1
-**-
 41
0.8
  0
TEXT
  5
177
  8
___SYMBOL
  6
CONTINUOUS
 62
     2
 10
11.459300582599999
 20
20.583536066400001
 30
0.0
 40
0.2500000089
  1
AA
 41
0.8
  0
TEXT
  5
178
  8
___SYMBOL
  6
CONTINUOUS
 62
     2
 10
8.0618026909000005
 20
21.462182089100001
 30
0.0
 40
0.2500000089
  1
POISE
 41
0.8
  0
TEXT
  5
179
  8
___SYMBOL
  6
CONTINUOUS
 62
     2
 10
9.0618027263999998
 20
21.462182089100001
 30
0.0
 40
0.2500000089
  1
   
 41
0.8
  0
TEXT
  5
17A
  8
___SYMBOL
  6
CONTINUOUS
 62
     2
 10
9.6618027477999995
 20
21.462182089100001
 30
0.0
 40
0.2500000089
  1
3389
 41
0.8
  0
TEXT
  5
17B
  8
___SYMBOL
  6
CONTINUOUS
 62
     2
 10
10.461802776200001
 20
21.462182089100001
 30
0.0
 40
0.2500000089
  1
-**-
 41
0.8
  0
TEXT
  5
17C
  8
___SYMBOL
  6
CONTINUOUS
 62
     2
 10
11.2618028046
 20
21.462182089100001
 30
0.0
 40
0.2500000089
  1
AA
 41
0.8
  0
TEXT
  5
17D
  8
___SYMBOL
  6
CONTINUOUS
 62
     2
 10
8.0610322287000002
 20
19.703342345500001
 30
0.0
 40
0.2500000089
  1
POISE
 41
0.8
  0
TEXT
  5
17E
  8
___SYMBOL
  6
CONTINUOUS
 62
     2
 10
9.0610322641999996
 20
19.703342345500001
 30
0.0
 40
0.2500000089
  1
   
 41
0.8
  0
TEXT
  5
17F
  8
___SYMBOL
  6
CONTINUOUS
 62
     2
 10
9.6610322854999993
 20
19.703342345500001
 30
0.0
 40
0.2500000089
  1
3388W
 41
0.8
  0
TEXT
  5
180
  8
___SYMBOL
  6
CONTINUOUS
 62
     2
 10
10.6610323211
 20
19.703342345500001
 30
0.0
 40
0.2500000089
  1
-**-
 41
0.8
  0
TEXT
  5
181
  8
___SYMBOL
  6
CONTINUOUS
 62
     2
 10
11.4610323495
 20
19.703342345500001
 30
0.0
 40
0.2500000089
  1
AA
 41
0.8
  0
TEXT
  5
182
  8
___SYMBOL
  6
CONTINUOUS
 62
     2
 10
8.0584561709999996
 20
18.818488519399999
 30
0.0
 40
0.2500000089
  1
POISE
 41
0.8
  0
TEXT
  5
183
  8
___SYMBOL
  6
CONTINUOUS
 62
     2
 10
9.0584562064999972
 20
18.818488519399999
 30
0.0
 40
0.2500000089
  1
   
 41
0.8
  0
TEXT
  5
184
  8
___SYMBOL
  6
CONTINUOUS
 62
     2
 10
9.6584562278000003
 20
18.818488519399999
 30
0.0
 40
0.2500000089
  1
3389W
 41
0.8
  0
TEXT
  5
185
  8
___SYMBOL
  6
CONTINUOUS
 62
     2
 10
10.6584562634
 20
18.818488519399999
 30
0.0
 40
0.2500000089
  1
-**-
 41
0.8
  0
TEXT
  5
186
  8
___SYMBOL
  6
CONTINUOUS
 62
     2
 10
11.458456291799999
 20
18.818488519399999
 30
0.0
 40
0.2500000089
  1
AA
 41
0.8
  0
ENDBLK
  5
187
  8
0
  6
ByBlock
 62
     0
  0
BLOCK
  8
___SYMBOL
  6
CONTINUOUS
 62
     2
  2
PACKAGING_UPC_BL2
 70
     0
 10
14.261344189800001
 20
14.709298201799999
 30
0.0
  3
PACKAGING_UPC_BL2
  1

  0
TEXT
  5
18A
  8
___SYMBOL
  6
CONTINUOUS
 62
     7
 10
12.727343301499999
 20
15.2363015032
 30
0.0
 40
0.0593587494
  1
XXXXX-XX-X-XX
 41
0.8258950222999999
  7
TEXTSTYLE_2
  0
TEXT
  5
18B
  8
___SYMBOL
  6
CONTINUOUS
 62
     7
 10
14.361323285499999
 20
15.1071365044
 30
0.0
 40
0.0445192496
  1
xxxxxx-xx
 41
0.6740211631000002
  7
TEXTSTYLE_3
  0
TEXT
  5
18C
  8
___SYMBOL
  6
CONTINUOUS
 62
     2
 10
11.596999004000001
 20
16.779930168
 30
0.0
 40
0.1562500055
  1
PACKAGING/UPC LABEL ON BOX
 41
0.8
  0
TEXT
  5
18D
  8
___SYMBOL
  6
CONTINUOUS
 62
     2
 10
11.596999004000001
 20
16.545555159700001
 30
0.0
 40
0.1562500055
  1
ETIQUETA DE EMBALAJE/UPC EN LA CAJA
 41
0.8
  0
TEXT
  5
18E
  8
___SYMBOL
  6
CONTINUOUS
 62
     2
 10
11.596999004000001
 20
16.311180158300001
 30
0.0
 40
0.1562500003
  1
ETIQUETTE D'EMBALLAGE/UPC SUR LA BOÎTE
 41
0.7999999984999999
  0
TEXT
  5
18F
  8
___SYMBOL
  6
CONTINUOUS
 62
     2
 10
11.5738440948
 20
14.5917912481
 30
0.0
 40
0.1562500055
  1
The template and the label suffixes circled
 41
0.8
  0
TEXT
  5
190
  8
___SYMBOL
  6
CONTINUOUS
 62
     2
 10
11.5738440948
 20
14.357416239799999
 30
0.0
 40
0.1562500055
  1
must match for proper cut-out.
 41
0.8
  0
TEXT
  5
191
  8
___SYMBOL
  6
CONTINUOUS
 62
     2
 10
11.5738440948
 20
14.123041238400001
 30
0.0
 40
0.1562500003
  1
 
 41
0.7999999984999999
  0
TEXT
  5
192
  8
___SYMBOL
  6
CONTINUOUS
 62
     2
 10
11.5738440948
 20
13.8886662315
 30
0.0
 40
0.1562500055
  1
A fin de realizar el corte apropiado, la
 41
0.8
  0
TEXT
  5
193
  8
___SYMBOL
  6
CONTINUOUS
 62
     2
 10
11.5738440948
 20
13.6542912301
 30
0.0
 40
0.1562500003
  1
plantilla y los sufijos de la etiqueta
 41
0.7999999984999999
  0
TEXT
  5
194
  8
___SYMBOL
  6
CONTINUOUS
 62
     2
 10
11.5738440948
 20
13.4199162301
 30
0.0
 40
0.1562500003
  1
demarcados deben concordar.
 41
0.7999999984999999
  0
TEXT
  5
195
  8
___SYMBOL
  6
CONTINUOUS
 62
     2
 10
11.5738440948
 20
13.1855412301
 30
0.0
 40
0.1562500003
  1
 
 41
0.7999999984999999
  0
TEXT
  5
196
  8
___SYMBOL
  6
CONTINUOUS
 62
     2
 10
11.5738440948
 20
12.9511662301
 30
0.0
 40
0.1562500003
  1
Afin de découper l'ouverture correctement,
 41
0.7999999984999999
  0
TEXT
  5
197
  8
___SYMBOL
  6
CONTINUOUS
 62
     2
 10
11.5738440948
 20
12.7167912301
 30
0.0
 40
0.1562500003
  1
le gabarit et les suffixes encerclés
 41
0.7999999984999999
  0
TEXT
  5
198
  8
___SYMBOL
  6
CONTINUOUS
 62
     2
 10
11.5738440948
 20
12.4824162301
 30
0.0
 40
0.1562500003
  1
doivent correspondre
 41
0.7999999984999999
  0
LINE
  5
199
  8
___SYMBOL
  6
CONTINUOUS
 62
     7
 10
14.716148282100001
 20
15.080406504700001
 30
0.0
 11
12.531105803399999
 21
15.080406504700001
 31
0.0
  0
LINE
  5
19A
  8
___SYMBOL
  6
CONTINUOUS
 62
     7
 10
12.531105803399999
 20
15.080406504700001
 30
0.0
 11
12.531105803399999
 21
16.073436494999999
 31
0.0
  0
LINE
  5
19B
  8
___SYMBOL
  6
CONTINUOUS
 62
     7
 10
12.531105803399999
 20
16.073436494999999
 30
0.0
 11
14.716148282100001
 21
16.073436494999999
 31
0.0
  0
LINE
  5
19C
  8
___SYMBOL
  6
CONTINUOUS
 62
     7
 10
14.716148282100001
 20
16.073436494999999
 30
0.0
 11
14.716148282100001
 21
15.080406504700001
 31
0.0
  0
LINE
  5
19D
  8
___SYMBOL
  6
CONTINUOUS
 62
     7
 10
12.4977383037
 20
16.105896494700001
 30
0.0
 11
14.750303281700001
 21
16.105896494700001
 31
0.0
  0
LINE
  5
19E
  8
___SYMBOL
  6
CONTINUOUS
 62
     7
 10
14.750303281700001
 20
16.105896494700001
 30
0.0
 11
14.750303281700001
 21
15.0129890054
 31
0.0
  0
LINE
  5
19F
  8
___SYMBOL
  6
CONTINUOUS
 62
     7
 10
14.750303281700001
 20
15.0129890054
 30
0.0
 11
12.4977383037
 21
15.0129890054
 31
0.0
  0
LINE
  5
1A0
  8
___SYMBOL
  6
CONTINUOUS
 62
     7
 10
12.4977383037
 20
15.0129890054
 30
0.0
 11
12.4977383037
 21
16.105896494700001
 31
0.0
  0
LINE
  5
1A1
  8
___SYMBOL
  6
CONTINUOUS
 62
     7
 10
14.510963284100001
 20
15.512076500499999
 30
0.0
 11
14.510963284100001
 21
15.3904415017
 31
0.0
  0
LINE
  5
1A2
  8
___SYMBOL
  6
CONTINUOUS
 62
     7
 10
14.510963284100001
 20
15.3904415017
 30
0.0
 11
14.1680107874
 21
15.3904415017
 31
0.0
  0
LINE
  5
1A3
  8
___SYMBOL
  6
CONTINUOUS
 62
     7
 10
14.1680107874
 20
15.3904415017
 30
0.0
 11
14.1680107874
 21
15.512076500499999
 31
0.0
  0
LINE
  5
1A4
  8
___SYMBOL
  6
CONTINUOUS
 62
     7
 10
14.1680107874
 20
15.512076500499999
 30
0.0
 11
14.510963284100001
 21
15.512076500499999
 31
0.0
  0
SOLID
  5
1A5
  8
___SYMBOL
  6
CONTINUOUS
 62
     7
 10
14.1680107874
 20
15.390441492600001
 30
0.0
 11
14.1680107874
 21
15.5120764928
 31
0.0
 12
14.510963284100001
 22
15.5120764928
 32
0.0
 13
14.510963284100001
 23
15.5120764928
 33
0.0
  0
SOLID
  5
1A6
  8
___SYMBOL
  6
CONTINUOUS
 62
     7
 10
14.510963284100001
 20
15.5120764928
 30
0.0
 11
14.510963284100001
 21
15.390441492600001
 31
0.0
 12
14.1680107874
 22
15.390441492600001
 32
0.0
 13
14.1680107874
 23
15.390441492600001
 33
0.0
  0
LINE
  5
1A7
  8
___SYMBOL
  6
CONTINUOUS
 62
     7
 10
13.4355082946
 20
15.512076500499999
 30
0.0
 11
13.4355082946
 21
15.3904415017
 31
0.0
  0
LINE
  5
1A8
  8
___SYMBOL
  6
CONTINUOUS
 62
     7
 10
13.4355082946
 20
15.3904415017
 30
0.0
 11
12.5798033029
 21
15.3904415017
 31
0.0
  0
LINE
  5
1A9
  8
___SYMBOL
  6
CONTINUOUS
 62
     7
 10
12.5798033029
 20
15.3904415017
 30
0.0
 11
12.5798033029
 21
15.512076500499999
 31
0.0
  0
LINE
  5
1AA
  8
___SYMBOL
  6
CONTINUOUS
 62
     7
 10
12.5798033029
 20
15.512076500499999
 30
0.0
 11
13.4355082946
 21
15.512076500499999
 31
0.0
  0
SOLID
  5
1AB
  8
___SYMBOL
  6
CONTINUOUS
 62
     7
 10
12.5798033029
 20
15.390441492600001
 30
0.0
 11
12.5798033029
 21
15.5120764928
 31
0.0
 12
13.4355082946
 22
15.5120764928
 32
0.0
 13
13.4355082946
 23
15.5120764928
 33
0.0
  0
SOLID
  5
1AC
  8
___SYMBOL
  6
CONTINUOUS
 62
     7
 10
13.4355082946
 20
15.5120764928
 30
0.0
 11
13.4355082946
 21
15.390441492600001
 31
0.0
 12
12.5798033029
 22
15.390441492600001
 32
0.0
 13
12.5798033029
 23
15.390441492600001
 33
0.0
  0
LINE
  5
1AD
  8
___SYMBOL
  6
CONTINUOUS
 62
     7
 10
13.4355082946
 20
15.138809004100001
 30
0.0
 11
13.4355082946
 21
15.1038290045
 31
0.0
  0
LINE
  5
1AE
  8
___SYMBOL
  6
CONTINUOUS
 62
     7
 10
13.4355082946
 20
15.1038290045
 30
0.0
 11
12.5798033029
 21
15.1038290045
 31
0.0
  0
LINE
  5
1AF
  8
___SYMBOL
  6
CONTINUOUS
 62
     7
 10
12.5798033029
 20
15.1038290045
 30
0.0
 11
12.5798033029
 21
15.138809004100001
 31
0.0
  0
LINE
  5
1B0
  8
___SYMBOL
  6
CONTINUOUS
 62
     7
 10
12.5798033029
 20
15.138809004100001
 30
0.0
 11
13.4355082946
 21
15.138809004100001
 31
0.0
  0
SOLID
  5
1B1
  8
___SYMBOL
  6
CONTINUOUS
 62
     7
 10
12.5798033029
 20
15.103829006
 30
0.0
 11
12.5798033029
 21
15.138808988099999
 31
0.0
 12
13.4355082946
 22
15.138808988099999
 32
0.0
 13
13.4355082946
 23
15.138808988099999
 33
0.0
  0
SOLID
  5
1B2
  8
___SYMBOL
  6
CONTINUOUS
 62
     7
 10
13.4355082946
 20
15.138808988099999
 30
0.0
 11
13.4355082946
 21
15.103829006
 31
0.0
 12
12.5798033029
 22
15.103829006
 32
0.0
 13
12.5798033029
 23
15.103829006
 33
0.0
  0
POLYLINE
  5
1B3
  8
___SYMBOL
  6
CONTINUOUS
 62
     7
 66
     1
 10
0.0
 20
0.0
 30
0.0
  0
VERTEX
  5
403
  8
___SYMBOL
  6
CONTINUOUS
 62
     7
 10
13.301513247899999
 20
15.3505866223
 30
0.0
  0
VERTEX
  5
404
  8
___SYMBOL
  6
CONTINUOUS
 62
     7
 10
13.280642604300001
 20
15.3425552492
 30
0.0
  0
VERTEX
  5
405
  8
___SYMBOL
  6
CONTINUOUS
 62
     7
 10
13.2627046684
 20
15.329201636500001
 30
0.0
  0
VERTEX
  5
406
  8
___SYMBOL
  6
CONTINUOUS
 62
     7
 10
13.2490240649
 20
15.311511880199999
 30
0.0
  0
VERTEX
  5
407
  8
___SYMBOL
  6
CONTINUOUS
 62
     7
 10
13.240611036000001
 20
15.2907922779
 30
0.0
  0
VERTEX
  5
408
  8
___SYMBOL
  6
CONTINUOUS
 62
     7
 10
13.238086840899999
 20
15.2685728659
 30
0.0
  0
VERTEX
  5
409
  8
___SYMBOL
  6
CONTINUOUS
 62
     7
 10
13.241637878400001
 20
15.246494434000001
 30
0.0
  0
VERTEX
  5
40A
  8
___SYMBOL
  6
CONTINUOUS
 62
     7
 10
13.2510019225
 20
15.226187360899999
 30
0.0
  0
VERTEX
  5
40B
  8
___SYMBOL
  6
CONTINUOUS
 62
     7
 10
13.2654874867
 20
15.209151219900001
 30
0.0
  0
VERTEX
  5
40C
  8
___SYMBOL
  6
CONTINUOUS
 62
     7
 10
13.284024886399999
 20
15.196644042599999
 30
0.0
  0
VERTEX
  5
40D
  8
___SYMBOL
  6
CONTINUOUS
 62
     7
 10
13.305245229600001
 20
15.189589419900001
 30
0.0
  0
VERTEX
  5
40E
  8
___SYMBOL
  6
CONTINUOUS
 62
     7
 10
13.327581502999999
 20
15.1885082995
 30
0.0
  0
VERTEX
  5
40F
  8
___SYMBOL
  6
CONTINUOUS
 62
     7
 10
13.349384287199999
 20
15.193480516499999
 30
0.0
  0
VERTEX
  5
410
  8
___SYMBOL
  6
CONTINUOUS
 62
     7
 10
13.3690435585
 20
15.2041388983
 30
0.0
  0
VERTEX
  5
411
  8
___SYMBOL
  6
CONTINUOUS
 62
     7
 10
13.3851075807
 20
15.2196963781
 30
0.0
  0
VERTEX
  5
412
  8
___SYMBOL
  6
CONTINUOUS
 62
     7
 10
13.396390108
 20
15.2390041156
 30
0.0
  0
VERTEX
  5
413
  8
___SYMBOL
  6
CONTINUOUS
 62
     7
 10
13.402057983700001
 20
15.260636333700001
 30
0.0
  0
VERTEX
  5
414
  8
___SYMBOL
  6
CONTINUOUS
 62
     7
 10
13.4016926642
 20
15.282995604
 30
0.0
  0
VERTEX
  5
415
  8
___SYMBOL
  6
CONTINUOUS
 62
     7
 10
13.395321126600001
 20
15.304430808999999
 30
0.0
  0
VERTEX
  5
416
  8
___SYMBOL
  6
CONTINUOUS
 62
     7
 10
13.383413876200001
 20
15.3233590688
 30
0.0
  0
VERTEX
  5
417
  8
___SYMBOL
  6
CONTINUOUS
 62
     7
 10
13.3668502023
 20
15.3383826285
 30
0.0
  0
VERTEX
  5
418
  8
___SYMBOL
  6
CONTINUOUS
 62
     7
 10
13.3468532472
 20
15.3483920754
 30
0.0
  0
VERTEX
  5
419
  8
___SYMBOL
  6
CONTINUOUS
 62
     7
 10
13.3248996837
 20
15.352648263100001
 30
0.0
  0
VERTEX
  5
41A
  8
___SYMBOL
  6
CONTINUOUS
 62
     7
 10
13.3026106696
 20
15.350836894
 30
0.0
  0
SEQEND
  5
41B
  8
___SYMBOL
  6
CONTINUOUS
 62
     7
  0
LINE
  5
1CD
  8
___SYMBOL
  6
CONTINUOUS
 62
     7
 10
13.4821582941
 20
16.045311495299998
 30
0.0
 11
13.4821582941
 21
15.9836614959
 31
0.0
  0
LINE
  5
1CE
  8
___SYMBOL
  6
CONTINUOUS
 62
     7
 10
13.4821582941
 20
15.9836614959
 30
0.0
 11
12.6264533025
 21
15.9836614959
 31
0.0
  0
LINE
  5
1CF
  8
___SYMBOL
  6
CONTINUOUS
 62
     7
 10
12.6264533025
 20
15.9836614959
 30
0.0
 11
12.6264533025
 21
16.045311495299998
 31
0.0
  0
LINE
  5
1D0
  8
___SYMBOL
  6
CONTINUOUS
 62
     7
 10
12.6264533025
 20
16.045311495299998
 30
0.0
 11
13.4821582941
 21
16.045311495299998
 31
0.0
  0
SOLID
  5
1D1
  8
___SYMBOL
  6
CONTINUOUS
 62
     7
 10
12.6264533025
 20
15.9836614917
 30
0.0
 11
12.6264533025
 21
16.045311481900001
 31
0.0
 12
13.4821582941
 22
16.045311481900001
 32
0.0
 13
13.4821582941
 23
16.045311481900001
 33
0.0
  0
SOLID
  5
1D2
  8
___SYMBOL
  6
CONTINUOUS
 62
     7
 10
13.4821582941
 20
16.045311481900001
 30
0.0
 11
13.4821582941
 21
15.9836614917
 31
0.0
 12
12.6264533025
 22
15.9836614917
 32
0.0
 13
12.6264533025
 23
15.9836614917
 33
0.0
  0
LINE
  5
1D3
  8
___SYMBOL
  6
CONTINUOUS
 62
     7
 10
13.4821582941
 20
15.945328996300001
 30
0.0
 11
13.4821582941
 21
15.883678996900001
 31
0.0
  0
LINE
  5
1D4
  8
___SYMBOL
  6
CONTINUOUS
 62
     7
 10
13.4821582941
 20
15.883678996900001
 30
0.0
 11
12.6264533025
 21
15.883678996900001
 31
0.0
  0
LINE
  5
1D5
  8
___SYMBOL
  6
CONTINUOUS
 62
     7
 10
12.6264533025
 20
15.883678996900001
 30
0.0
 11
12.6264533025
 21
15.945328996300001
 31
0.0
  0
LINE
  5
1D6
  8
___SYMBOL
  6
CONTINUOUS
 62
     7
 10
12.6264533025
 20
15.945328996300001
 30
0.0
 11
13.4821582941
 21
15.945328996300001
 31
0.0
  0
SOLID
  5
1D7
  8
___SYMBOL
  6
CONTINUOUS
 62
     7
 10
12.6264533025
 20
15.883678983499999
 30
0.0
 11
12.6264533025
 21
15.9453290077
 31
0.0
 12
13.4821582941
 22
15.9453290077
 32
0.0
 13
13.4821582941
 23
15.9453290077
 33
0.0
  0
SOLID
  5
1D8
  8
___SYMBOL
  6
CONTINUOUS
 62
     7
 10
13.4821582941
 20
15.9453290077
 30
0.0
 11
13.4821582941
 21
15.883678983499999
 31
0.0
 12
12.6264533025
 22
15.883678983499999
 32
0.0
 13
12.6264533025
 23
15.883678983499999
 33
0.0
  0
LINE
  5
1D9
  8
___SYMBOL
  6
CONTINUOUS
 62
     7
 10
13.4821582941
 20
15.8453464972
 30
0.0
 11
13.4821582941
 21
15.7837039978
 31
0.0
  0
LINE
  5
1DA
  8
___SYMBOL
  6
CONTINUOUS
 62
     7
 10
13.4821582941
 20
15.7837039978
 30
0.0
 11
12.6264533025
 21
15.7837039978
 31
0.0
  0
LINE
  5
1DB
  8
___SYMBOL
  6
CONTINUOUS
 62
     7
 10
12.6264533025
 20
15.7837039978
 30
0.0
 11
12.6264533025
 21
15.8453464972
 31
0.0
  0
LINE
  5
1DC
  8
___SYMBOL
  6
CONTINUOUS
 62
     7
 10
12.6264533025
 20
15.8453464972
 30
0.0
 11
13.4821582941
 21
15.8453464972
 31
0.0
  0
SOLID
  5
1DD
  8
___SYMBOL
  6
CONTINUOUS
 62
     7
 10
12.6264533025
 20
15.783703989299999
 30
0.0
 11
12.6264533025
 21
15.8453464995
 31
0.0
 12
13.4821582941
 22
15.8453464995
 32
0.0
 13
13.4821582941
 23
15.8453464995
 33
0.0
  0
SOLID
  5
1DE
  8
___SYMBOL
  6
CONTINUOUS
 62
     7
 10
13.4821582941
 20
15.8453464995
 30
0.0
 11
13.4821582941
 21
15.783703989299999
 31
0.0
 12
12.6264533025
 22
15.783703989299999
 32
0.0
 13
12.6264533025
 23
15.783703989299999
 33
0.0
  0
LINE
  5
1DF
  8
___SYMBOL
  6
CONTINUOUS
 62
     7
 10
13.4821582941
 20
15.7453639982
 30
0.0
 11
13.4821582941
 21
15.683721498800001
 31
0.0
  0
LINE
  5
1E0
  8
___SYMBOL
  6
CONTINUOUS
 62
     7
 10
13.4821582941
 20
15.683721498800001
 30
0.0
 11
12.6264533025
 21
15.683721498800001
 31
0.0
  0
LINE
  5
1E1
  8
___SYMBOL
  6
CONTINUOUS
 62
     7
 10
12.6264533025
 20
15.683721498800001
 30
0.0
 11
12.6264533025
 21
15.7453639982
 31
0.0
  0
LINE
  5
1E2
  8
___SYMBOL
  6
CONTINUOUS
 62
     7
 10
12.6264533025
 20
15.7453639982
 30
0.0
 11
13.4821582941
 21
15.7453639982
 31
0.0
  0
SOLID
  5
1E3
  8
___SYMBOL
  6
CONTINUOUS
 62
     7
 10
12.6264533025
 20
15.6837215152
 30
0.0
 11
12.6264533025
 21
15.7453639913
 31
0.0
 12
13.4821582941
 22
15.7453639913
 32
0.0
 13
13.4821582941
 23
15.7453639913
 33
0.0
  0
SOLID
  5
1E4
  8
___SYMBOL
  6
CONTINUOUS
 62
     7
 10
13.4821582941
 20
15.7453639913
 30
0.0
 11
13.4821582941
 21
15.6837215152
 31
0.0
 12
12.6264533025
 22
15.6837215152
 32
0.0
 13
12.6264533025
 23
15.6837215152
 33
0.0
  0
LINE
  5
1E5
  8
___SYMBOL
  6
CONTINUOUS
 62
     7
 10
13.4821582941
 20
15.618726499399999
 30
0.0
 11
13.4821582941
 21
15.557076500000001
 31
0.0
  0
LINE
  5
1E6
  8
___SYMBOL
  6
CONTINUOUS
 62
     7
 10
13.4821582941
 20
15.557076500000001
 30
0.0
 11
12.6264533025
 21
15.557076500000001
 31
0.0
  0
LINE
  5
1E7
  8
___SYMBOL
  6
CONTINUOUS
 62
     7
 10
12.6264533025
 20
15.557076500000001
 30
0.0
 11
12.6264533025
 21
15.618726499399999
 31
0.0
  0
LINE
  5
1E8
  8
___SYMBOL
  6
CONTINUOUS
 62
     7
 10
12.6264533025
 20
15.618726499399999
 30
0.0
 11
13.4821582941
 21
15.618726499399999
 31
0.0
  0
SOLID
  5
1E9
  8
___SYMBOL
  6
CONTINUOUS
 62
     7
 10
12.6264533025
 20
15.5570765129
 30
0.0
 11
12.6264533025
 21
15.618726503
 31
0.0
 12
13.4821582941
 22
15.618726503
 32
0.0
 13
13.4821582941
 23
15.618726503
 33
0.0
  0
SOLID
  5
1EA
  8
___SYMBOL
  6
CONTINUOUS
 62
     7
 10
13.4821582941
 20
15.618726503
 30
0.0
 11
13.4821582941
 21
15.5570765129
 31
0.0
 12
12.6264533025
 22
15.5570765129
 32
0.0
 13
12.6264533025
 23
15.5570765129
 33
0.0
  0
ENDBLK
  5
1EB
  8
0
  6
ByBlock
 62
     0
  0
BLOCK
  8
___SYMBOL
  6
CONTINUOUS
 62
     2
  2
TEMPLATE_NUMBER_BL3
 70
     0
 10
6.6089607900000003
 20
11.139109404799999
 30
0.0
  3
TEMPLATE_NUMBER_BL3
  1

  0
TEXT
  5
1EE
  8
___SYMBOL
  6
CONTINUOUS
 62
     2
 10
6.2987608876000003
 20
11.103859415900001
 30
0.0
 40
0.0704999778
  1
1021992-7
 41
0.8
  0
TEXT
  5
1EF
  8
___SYMBOL
  6
CONTINUOUS
 62
     2
 10
6.8063607279999987
 20
11.103859415900001
 30
0.0
 40
0.0704999778
  1
-
 41
0.8
  0
TEXT
  5
1F0
  8
___SYMBOL
  6
CONTINUOUS
 62
     2
 10
6.862760710299999
 20
11.103859415900001
 30
0.0
 40
0.0704999778
  1
B
 41
0.8
  0
ENDBLK
  5
1F1
  8
0
  6
ByBlock
 62
     0
  0
BLOCK
  8
___SYMBOL
  6
CONTINUOUS
 62
     2
  2
TEMPLATE_NUMBER_BL4
 70
     0
 10
6.5903049913
 20
9.7018592988000005
 30
0.0
  3
TEMPLATE_NUMBER_BL4
  1

  0
TEXT
  5
1F4
  8
___SYMBOL
  6
CONTINUOUS
 62
     2
 10
6.2801050888000001
 20
9.6666093099000001
 30
0.0
 40
0.0704999778
  1
1021992-7
 41
0.8
  0
TEXT
  5
1F5
  8
___SYMBOL
  6
CONTINUOUS
 62
     2
 10
6.7877049291999993
 20
9.6666093099000001
 30
0.0
 40
0.0704999778
  1
-
 41
0.8
  0
TEXT
  5
1F6
  8
___SYMBOL
  6
CONTINUOUS
 62
     2
 10
6.8441049114999988
 20
9.6666093099000001
 30
0.0
 40
0.0704999778
  1
B
 41
0.8
  0
ENDBLK
  5
1F7
  8
0
  6
ByBlock
 62
     0
  0
BLOCK
  8
___SYMBOL
  6
CONTINUOUS
 62
     2
  2
WHEN_PLOTTING_TEMPLATE_N_B
 70
     0
 10
30.075808136500001
 20
14.6832110244
 30
0.0
  3
WHEN_PLOTTING_TEMPLATE_N_B
  1

  0
TEXT
  5
1FA
  8
___SYMBOL
  6
CONTINUOUS
 62
     2
 10
26.763307904099999
 20
15.8941486094
 30
0.0
 40
0.156250011
  1
WHEN PLOTTING TEMPLATE FULL SIZE:
 41
0.8
  0
TEXT
  5
1FB
  8
___SYMBOL
  6
CONTINUOUS
 62
     2
 10
26.763307904099999
 20
15.659773592900001
 30
0.0
 40
0.156250011
  1
Make sure horizontal and vertical dimensions
 41
0.8
  0
TEXT
  5
1FC
  8
___SYMBOL
  6
CONTINUOUS
 62
     2
 10
26.763307904099999
 20
15.425398576499999
 30
0.0
 40
0.156250011
  1
match the dimensions labeled on the template.
 41
0.8
  0
TEXT
  5
1FD
  8
___SYMBOL
  6
CONTINUOUS
 62
     2
 10
26.763307904099999
 20
15.19102356
 30
0.0
 40
0.156250011
  1
 
 41
0.8
  0
TEXT
  5
1FE
  8
___SYMBOL
  6
CONTINUOUS
 62
     2
 10
26.763307904099999
 20
14.9566485436
 30
0.0
 40
0.156250011
  1
AL TRAZAR LA PLANTILLA A ESCALA,
 41
0.8
  0
TEXT
  5
1FF
  8
___SYMBOL
  6
CONTINUOUS
 62
     2
 10
26.763307904099999
 20
14.7222735272
 30
0.0
 40
0.156250011
  1
asegúrese de que las dimensiones horizontales
 41
0.8
  0
TEXT
  5
200
  8
___SYMBOL
  6
CONTINUOUS
 62
     2
 10
26.763307904099999
 20
14.487898510699999
 30
0.0
 40
0.156250011
  1
y verticales concuerden con las dimensiones marcadas
 41
0.8
  0
TEXT
  5
201
  8
___SYMBOL
  6
CONTINUOUS
 62
     2
 10
26.763307904099999
 20
14.2535234943
 30
0.0
 40
0.156250011
  1
en la plantilla.
 41
0.8
  0
TEXT
  5
202
  8
___SYMBOL
  6
CONTINUOUS
 62
     2
 10
26.763307904099999
 20
14.0191484778
 30
0.0
 40
0.156250011
  1
 
 41
0.8
  0
TEXT
  5
203
  8
___SYMBOL
  6
CONTINUOUS
 62
     2
 10
26.763307904099999
 20
13.7847734614
 30
0.0
 40
0.156250011
  1
AU MOMENT DE TRACER LA DÉCOUPE À L'ÉCHELLE,
 41
0.8
  0
TEXT
  5
204
  8
___SYMBOL
  6
CONTINUOUS
 62
     2
 10
26.763307904099999
 20
13.550398444900001
 30
0.0
 40
0.156250011
  1
Assurez vos que les dimensions horizotales et
 41
0.8
  0
TEXT
  5
205
  8
___SYMBOL
  6
CONTINUOUS
 62
     2
 10
26.763307904099999
 20
13.316023428499999
 30
0.0
 40
0.156250011
  1
verticales correspondent avec les dimensions du plan.
 41
0.8
  0
ENDBLK
  5
206
  8
0
  6
ByBlock
 62
     0
  0
ENDSEC
  0
SECTION
  2
ENTITIES
  0
DIMENSION
  5
20A
  8
0
  6
CONTINUOUS
 62
     2
  2
*D0
 10
21.670864610399999
 20
10.8351205987
 30
0.0
 11
21.795864610399999
 21
17.57366166349999
 31
0.0
 70
   128
 13
22.134932575899999
 23
27.2001205987
 33
0.0
 14
22.19762503110001
 24
10.8351205987
 34
0.0
 50
270.0
  0
DIMENSION
  5
20B
  8
0
  6
CONTINUOUS
 62
     2
  2
*D2
 10
6.0367307764999989
 20
18.541286793099999
 30
0.0
 11
20.3515375749
 21
18.424099293099999
 31
0.0
 70
   128
 13
37.40173077650001
 23
17.701064096500001
 33
0.0
 14
6.0367307764999989
 24
17.701064096500001
 34
0.0
 50
180.0
  0
TEXT
  5
20C
  8
0
  6
CONTINUOUS
 62
     2
 10
9.0456871994999997
 20
23.392525196800001
 30
0.0
 40
0.094
  1
TM
 41
0.8
  0
TEXT
  5
20D
  8
0
  6
CONTINUOUS
 62
     2
 10
9.0456871994999997
 20
22.524932106400001
 30
0.0
 40
0.094
  1
TM
 41
0.8
  0
TEXT
  5
20E
  8
0
  6
CONTINUOUS
 62
     2
 10
9.0456871994999997
 20
21.657339016000002
 30
0.0
 40
0.094
  1
TM
 41
0.8
  0
TEXT
  5
20F
  8
0
  6
CONTINUOUS
 62
     2
 10
9.0456871994999997
 20
20.789745925599998
 30
0.0
 40
0.094
  1
TM
 41
0.8
  0
TEXT
  5
210
  8
0
  6
CONTINUOUS
 62
     2
 10
9.0405075392000001
 20
19.909203684600001
 30
0.0
 40
0.094
  1
TM
 41
0.8
  0
TEXT
  5
211
  8
0
  6
CONTINUOUS
 62
     2
 10
9.0405075392000001
 20
19.025793630500001
 30
0.0
 40
0.094
  1
TM
 41
0.8
  0
TEXT
  5
212
  8
0
  6
CONTINUOUS
 62
     2
 10
33.596412382600001
 20
23.9979388866
 30
0.0
 40
0.15625
  1
RIM OF SINK
 41
0.8
  0
TEXT
  5
213
  8
0
  6
CONTINUOUS
 62
     2
 10
32.471412382600001
 20
23.7635638866
 30
0.0
 40
0.15625
  1
REBORDE DE FREGADERO
 41
0.8
  0
TEXT
  5
214
  8
0
  6
CONTINUOUS
 62
     2
 10
33.221412382600001
 20
23.5291888866
 30
0.0
 40
0.15625
  1
REBORD D'ÉVIER
 41
0.8
  0
LINE
  5
215
  8
0
  6
CONTINUOUS
 62
     2
 10
38.219230776499998
 20
22.053068981500001
 30
0.0
 11
35.221412382600001
 21
24.0760638866
 31
0.0
  0
LINE
  5
216
  8
0
  6
CONTINUOUS
 62
     2
 10
35.221412382600001
 20
24.0760638866
 30
0.0
 11
34.971412382600001
 21
24.0760638866
 31
0.0
  0
SOLID
  5
217
  8
0
  6
CONTINUOUS
 62
     2
 10
38.046328483400011
 20
22.13204752
 30
0.0
 11
38.219230776499998
 21
22.053068981500001
 31
0.0
 12
38.081289214400002
 22
22.183854829200001
 32
0.0
 13
38.081289214400002
 23
22.183854829200001
 33
0.0
  0
TEXT
  5
218
  8
0
  6
CONTINUOUS
 62
     2
 10
32.596160126800001
 20
21.964769318799998
 30
0.0
 40
0.15625
  1
CUT ALONG THIS LINE
 41
0.8
  0
TEXT
  5
219
  8
0
  6
CONTINUOUS
 62
     2
 10
31.096160126800001
 20
21.730394318799998
 30
0.0
 40
0.15625
  1
 CORTE A LO LARGO DE ESTA LÍNEA
 41
0.8
  0
TEXT
  5
21A
  8
0
  6
CONTINUOUS
 62
     2
 10
30.971160126800001
 20
21.496019318799998
 30
0.0
 40
0.15625
  1
 DÉCOUPER AU LONG DE CETTE LIGNE
 41
0.8
  0
LINE
  5
21B
  8
0
  6
CONTINUOUS
 62
     2
 10
37.40173077650001
 20
20.459957380500001
 30
0.0
 11
35.221160126800001
 21
22.042894318799998
 31
0.0
  0
LINE
  5
21C
  8
0
  6
CONTINUOUS
 62
     2
 10
35.221160126800001
 20
22.042894318799998
 30
0.0
 11
34.971160126800001
 21
22.042894318799998
 31
0.0
  0
SOLID
  5
21D
  8
0
  6
CONTINUOUS
 62
     2
 10
37.231637636500011
 20
20.544816889300002
 30
0.0
 11
37.40173077650001
 21
20.459957380500001
 31
0.0
 12
37.268353863200012
 22
20.5953952315
 32
0.0
 13
37.268353863200012
 23
20.5953952315
 33
0.0
  0
INSERT
  5
21E
  8
___SYMBOL
  6
CONTINUOUS
 62
     2
  2
COPYRIGHT_YEAR_BL0
 10
36.625979430299999
 20
11.165791431900001
 30
0.0
  0
INSERT
  5
21F
  8
___SYMBOL
  6
CONTINUOUS
 62
     2
  2
CUT-OUT_TEMPLATE_SKU_SIN_B
 10
10.450927156700001
 20
22.857039651499999
 30
0.0
  0
INSERT
  5
220
  8
___SYMBOL
  6
CONTINUOUS
 62
     2
  2
PACKAGING_UPC_BL2
 10
14.261344189800001
 20
14.709298201799999
 30
0.0
  0
INSERT
  5
221
  8
___SYMBOL
  6
CONTINUOUS
 62
     2
  2
TEMPLATE_NUMBER_BL3
 10
6.6089607900000003
 20
11.139109404799999
 30
0.0
  0
INSERT
  5
222
  8
___SYMBOL
  6
CONTINUOUS
 62
     2
  2
TEMPLATE_NUMBER_BL4
 10
6.5903049913
 20
9.7018592988000005
 30
0.0
  0
INSERT
  5
223
  8
___SYMBOL
  6
CONTINUOUS
 62
     2
  2
WHEN_PLOTTING_TEMPLATE_N_B
 10
30.075808136500001
 20
14.6832110244
 30
0.0
  0
POLYLINE
  5
224
  8
0
  6
CONTINUOUS
 62
     7
 66
     1
 10
0.0
 20
0.0
 30
0.0
  0
VERTEX
  5
41C
  8
0
  6
CONTINUOUS
 62
     7
 10
11.393826258500001
 20
23.558064523199999
 30
0.0
  0
VERTEX
  5
41D
  8
0
  6
CONTINUOUS
 62
     7
 10
11.372224238399999
 20
23.551868522700001
 30
0.0
  0
VERTEX
  5
41E
  8
0
  6
CONTINUOUS
 62
     7
 10
11.351319448
 20
23.5436210913
 30
0.0
  0
VERTEX
  5
41F
  8
0
  6
CONTINUOUS
 62
     7
 10
11.3313062212
 20
23.5333988983
 30
0.0
  0
VERTEX
  5
420
  8
0
  6
CONTINUOUS
 62
     7
 10
11.3123706039
 20
23.5212969709
 30
0.0
  0
VERTEX
  5
421
  8
0
  6
CONTINUOUS
 62
     7
 10
11.294688624300001
 20
23.507427810199999
 30
0.0
  0
VERTEX
  5
422
  8
0
  6
CONTINUOUS
 62
     7
 10
11.2784246569
 20
23.491920346099999
 30
0.0
  0
VERTEX
  5
423
  8
0
  6
CONTINUOUS
 62
     7
 10
11.263729893800001
 20
23.47491873820001
 30
0.0
  0
VERTEX
  5
424
  8
0
  6
CONTINUOUS
 62
     7
 10
11.2507409397
 20
23.456581035999999
 30
0.0
  0
VERTEX
  5
425
  8
0
  6
CONTINUOUS
 62
     7
 10
11.2395785419
 20
23.4370777094
 30
0.0
  0
VERTEX
  5
426
  8
0
  6
CONTINUOUS
 62
     7
 10
11.2303464676
 20
23.416590064299999
 30
0.0
  0
VERTEX
  5
427
  8
0
  6
CONTINUOUS
 62
     7
 10
11.2231305396
 20
23.3953085568
 30
0.0
  0
VERTEX
  5
428
  8
0
  6
CONTINUOUS
 62
     7
 10
11.217997838200001
 20
23.373431022999998
 30
0.0
  0
VERTEX
  5
429
  8
0
  6
CONTINUOUS
 62
     7
 10
11.2149960777
 20
23.3511608397
 30
0.0
  0
VERTEX
  5
42A
  8
0
  6
CONTINUOUS
 62
     7
 10
11.214153163000001
 20
23.328705033599999
 30
0.0
  0
VERTEX
  5
42B
  8
0
  6
CONTINUOUS
 62
     7
 10
11.215476929899999
 20
23.306272357499999
 30
0.0
  0
VERTEX
  5
42C
  8
0
  6
CONTINUOUS
 62
     7
 10
11.2189550724
 20
23.284071348600001
 30
0.0
  0
VERTEX
  5
42D
  8
0
  6
CONTINUOUS
 62
     7
 10
11.2245552574
 20
23.262308390800001
 30
0.0
  0
VERTEX
  5
42E
  8
0
  6
CONTINUOUS
 62
     7
 10
11.232225424499999
 20
23.241185795900002
 30
0.0
  0
VERTEX
  5
42F
  8
0
  6
CONTINUOUS
 62
     7
 10
11.2418942709
 20
23.220899922499999
 30
0.0
  0
VERTEX
  5
430
  8
0
  6
CONTINUOUS
 62
     7
 10
11.2534719134
 20
23.201639351200001
 30
0.0
  0
VERTEX
  5
431
  8
0
  6
CONTINUOUS
 62
     7
 10
11.266850724599999
 20
23.183583130999999
 30
0.0
  0
VERTEX
  5
432
  8
0
  6
CONTINUOUS
 62
     7
 10
11.2819063332
 20
23.166899115300001
 30
0.0
  0
VERTEX
  5
433
  8
0
  6
CONTINUOUS
 62
     7
 10
11.298498779899999
 20
23.151742401
 30
0.0
  0
VERTEX
  5
434
  8
0
  6
CONTINUOUS
 62
     7
 10
11.316473819
 20
23.138253887400001
 30
0.0
  0
VERTEX
  5
435
  8
0
  6
CONTINUOUS
 62
     7
 10
11.3356643517
 20
23.126558965499999
 30
0.0
  0
VERTEX
  5
436
  8
0
  6
CONTINUOUS
 62
     7
 10
11.355891980099999
 20
23.116766352999999
 30
0.0
  0
VERTEX
  5
437
  8
0
  6
CONTINUOUS
 62
     7
 10
11.3769686653
 20
23.108967083700001
 30
0.0
  0
VERTEX
  5
438
  8
0
  6
CONTINUOUS
 62
     7
 10
11.3986984751
 20
23.103233660499999
 30
0.0
  0
VERTEX
  5
439
  8
0
  6
CONTINUOUS
 62
     7
 10
11.420879406099999
 20
23.099619382299998
 30
0.0
  0
VERTEX
  5
43A
  8
0
  6
CONTINUOUS
 62
     7
 10
11.443305261000001
 20
23.098157847900001
 30
0.0
  0
VERTEX
  5
43B
  8
0
  6
CONTINUOUS
 62
     7
 10
11.4657675659
 20
23.098862644
 30
0.0
  0
VERTEX
  5
43C
  8
0
  6
CONTINUOUS
 62
     7
 10
11.488057507900001
 20
23.101727218699999
 30
0.0
  0
VERTEX
  5
43D
  8
0
  6
CONTINUOUS
 62
     7
 10
11.509967876199999
 20
23.1067249424
 30
0.0
  0
VERTEX
  5
43E
  8
0
  6
CONTINUOUS
 62
     7
 10
11.531294988999999
 20
23.113809355600001
 30
0.0
  0
VERTEX
  5
43F
  8
0
  6
CONTINUOUS
 62
     7
 10
11.551840586200001
 20
23.1229146005
 30
0.0
  0
VERTEX
  5
440
  8
0
  6
CONTINUOUS
 62
     7
 10
11.571413673
 20
23.133956033499999
 30
0.0
  0
VERTEX
  5
441
  8
0
  6
CONTINUOUS
 62
     7
 10
11.589832295000001
 20
23.1468310118
 30
0.0
  0
VERTEX
  5
442
  8
0
  6
CONTINUOUS
 62
     7
 10
11.60692523
 20
23.161419847600001
 30
0.0
  0
VERTEX
  5
443
  8
0
  6
CONTINUOUS
 62
     7
 10
11.622533579600001
 20
23.177586920900001
 30
0.0
  0
VERTEX
  5
444
  8
0
  6
CONTINUOUS
 62
     7
 10
11.636512246300001
 20
23.195181940400001
 30
0.0
  0
VERTEX
  5
445
  8
0
  6
CONTINUOUS
 62
     7
 10
11.6487312822
 20
23.2140413401
 30
0.0
  0
VERTEX
  5
446
  8
0
  6
CONTINUOUS
 62
     7
 10
11.659077097500001
 20
23.233989800100002
 30
0.0
  0
VERTEX
  5
447
  8
0
  6
CONTINUOUS
 62
     7
 10
11.6674535159
 20
23.2548418768
 30
0.0
  0
VERTEX
  5
448
  8
0
  6
CONTINUOUS
 62
     7
 10
11.6737826691
 20
23.276403726200002
 30
0.0
  0
VERTEX
  5
449
  8
0
  6
CONTINUOUS
 62
     7
 10
11.6780057201
 20
23.298474905999999
 30
0.0
  0
VERTEX
  5
44A
  8
0
  6
CONTINUOUS
 62
     7
 10
11.680083411
 20
23.320850239399999
 30
0.0
  0
VERTEX
  5
44B
  8
0
  6
CONTINUOUS
 62
     7
 10
11.679996427300001
 20
23.343321721900001
 30
0.0
  0
VERTEX
  5
44C
  8
0
  6
CONTINUOUS
 62
     7
 10
11.6777455775
 20
23.3656804554
 30
0.0
  0
VERTEX
  5
44D
  8
0
  6
CONTINUOUS
 62
     7
 10
11.6733517859
 20
23.3877185897
 30
0.0
  0
VERTEX
  5
44E
  8
0
  6
CONTINUOUS
 62
     7
 10
11.6668558978
 20
23.409231255200002
 30
0.0
  0
VERTEX
  5
44F
  8
0
  6
CONTINUOUS
 62
     7
 10
11.658318299899999
 20
23.4300184668
 30
0.0
  0
VERTEX
  5
450
  8
0
  6
CONTINUOUS
 62
     7
 10
11.6478183591
 20
23.449886983700001
 30
0.0
  0
VERTEX
  5
451
  8
0
  6
CONTINUOUS
 62
     7
 10
11.6354536842
 20
23.468652105099999
 30
0.0
  0
VERTEX
  5
452
  8
0
  6
CONTINUOUS
 62
     7
 10
11.621339219299999
 20
23.486139387800002
 30
0.0
  0
VERTEX
  5
453
  8
0
  6
CONTINUOUS
 62
     7
 10
11.6056061743
 20
23.502186267300001
 30
0.0
  0
VERTEX
  5
454
  8
0
  6
CONTINUOUS
 62
     7
 10
11.588400805999999
 20
23.516643569500001
 30
0.0
  0
VERTEX
  5
455
  8
0
  6
CONTINUOUS
 62
     7
 10
11.5698830581
 20
23.529376897199999
 30
0.0
  0
VERTEX
  5
456
  8
0
  6
CONTINUOUS
 62
     7
 10
11.5502250742
 20
23.5402678795
 30
0.0
  0
VERTEX
  5
457
  8
0
  6
CONTINUOUS
 62
     7
 10
11.5296095979
 20
23.5492152723
 30
0.0
  0
VERTEX
  5
458
  8
0
  6
CONTINUOUS
 62
     7
 10
11.5082282737
 20
23.556135899099999
 30
0.0
  0
VERTEX
  5
459
  8
0
  6
CONTINUOUS
 62
     7
 10
11.4862798655
 20
23.560965424999999
 30
0.0
  0
VERTEX
  5
45A
  8
0
  6
CONTINUOUS
 62
     7
 10
11.463968409
 20
23.563658953800001
 30
0.0
  0
VERTEX
  5
45B
  8
0
  6
CONTINUOUS
 62
     7
 10
11.4415013148
 20
23.564191446199999
 30
0.0
  0
VERTEX
  5
45C
  8
0
  6
CONTINUOUS
 62
     7
 10
11.4190874402
 20
23.562557951999999
 30
0.0
  0
VERTEX
  5
45D
  8
0
  6
CONTINUOUS
 62
     7
 10
11.396935148000001
 20
23.558773656500001
 30
0.0
  0
SEQEND
  5
45E
  8
0
  6
CONTINUOUS
 62
     7
  0
POLYLINE
  5
268
  8
0
  6
CONTINUOUS
 62
     7
 66
     1
 10
0.0
 20
0.0
 30
0.0
  0
VERTEX
  5
45F
  8
0
  6
CONTINUOUS
 62
     7
 10
11.404185579
 20
22.6827019425
 30
0.0
  0
VERTEX
  5
460
  8
0
  6
CONTINUOUS
 62
     7
 10
11.3825835589
 20
22.6765059419
 30
0.0
  0
VERTEX
  5
461
  8
0
  6
CONTINUOUS
 62
     7
 10
11.361678768499999
 20
22.66825851050001
 30
0.0
  0
VERTEX
  5
462
  8
0
  6
CONTINUOUS
 62
     7
 10
11.341665541699999
 20
22.658036317600001
 30
0.0
  0
VERTEX
  5
463
  8
0
  6
CONTINUOUS
 62
     7
 10
11.322729924300001
 20
22.645934390099999
 30
0.0
  0
VERTEX
  5
464
  8
0
  6
CONTINUOUS
 62
     7
 10
11.3050479448
 20
22.632065229399998
 30
0.0
  0
VERTEX
  5
465
  8
0
  6
CONTINUOUS
 62
     7
 10
11.2887839774
 20
22.616557765300001
 30
0.0
  0
VERTEX
  5
466
  8
0
  6
CONTINUOUS
 62
     7
 10
11.2740892143
 20
22.599556157399999
 30
0.0
  0
VERTEX
  5
467
  8
0
  6
CONTINUOUS
 62
     7
 10
11.261100260199999
 20
22.581218455199998
 30
0.0
  0
VERTEX
  5
468
  8
0
  6
CONTINUOUS
 62
     7
 10
11.249937862399999
 20
22.561715128700001
 30
0.0
  0
VERTEX
  5
469
  8
0
  6
CONTINUOUS
 62
     7
 10
11.2407057881
 20
22.5412274836
 30
0.0
  0
VERTEX
  5
46A
  8
0
  6
CONTINUOUS
 62
     7
 10
11.233489860100001
 20
22.519945976100001
 30
0.0
  0
VERTEX
  5
46B
  8
0
  6
CONTINUOUS
 62
     7
 10
11.2283571587
 20
22.498068442299999
 30
0.0
  0
VERTEX
  5
46C
  8
0
  6
CONTINUOUS
 62
     7
 10
11.2253553982
 20
22.475798258899999
 30
0.0
  0
VERTEX
  5
46D
  8
0
  6
CONTINUOUS
 62
     7
 10
11.2245124835
 20
22.453342452899999
 30
0.0
  0
VERTEX
  5
46E
  8
0
  6
CONTINUOUS
 62
     7
 10
11.2258362504
 20
22.430909776699998
 30
0.0
  0
VERTEX
  5
46F
  8
0
  6
CONTINUOUS
 62
     7
 10
11.229314392899999
 20
22.4087087678
 30
0.0
  0
VERTEX
  5
470
  8
0
  6
CONTINUOUS
 62
     7
 10
11.2349145779
 20
22.386945810099999
 30
0.0
  0
VERTEX
  5
471
  8
0
  6
CONTINUOUS
 62
     7
 10
11.242584745
 20
22.365823215100001
 30
0.0
  0
VERTEX
  5
472
  8
0
  6
CONTINUOUS
 62
     7
 10
11.252253591300001
 20
22.3455373418
 30
0.0
  0
VERTEX
  5
473
  8
0
  6
CONTINUOUS
 62
     7
 10
11.2638312339
 20
22.3262767704
 30
0.0
  0
VERTEX
  5
474
  8
0
  6
CONTINUOUS
 62
     7
 10
11.2772100451
 20
22.3082205503
 30
0.0
  0
VERTEX
  5
475
  8
0
  6
CONTINUOUS
 62
     7
 10
11.292265653699999
 20
22.2915365345
 30
0.0
  0
VERTEX
  5
476
  8
0
  6
CONTINUOUS
 62
     7
 10
11.3088581004
 20
22.276379820300001
 30
0.0
  0
VERTEX
  5
477
  8
0
  6
CONTINUOUS
 62
     7
 10
11.3268331394
 20
22.2628913066
 30
0.0
  0
VERTEX
  5
478
  8
0
  6
CONTINUOUS
 62
     7
 10
11.346023672199999
 20
22.251196384699998
 30
0.0
  0
VERTEX
  5
479
  8
0
  6
CONTINUOUS
 62
     7
 10
11.3662513006
 20
22.2414037723
 30
0.0
  0
VERTEX
  5
47A
  8
0
  6
CONTINUOUS
 62
     7
 10
11.387327985700001
 20
22.2336045029
 30
0.0
  0
VERTEX
  5
47B
  8
0
  6
CONTINUOUS
 62
     7
 10
11.409057795500001
 20
22.227871079700002
 30
0.0
  0
VERTEX
  5
47C
  8
0
  6
CONTINUOUS
 62
     7
 10
11.4312387265
 20
22.224256801500001
 30
0.0
  0
VERTEX
  5
47D
  8
0
  6
CONTINUOUS
 62
     7
 10
11.4536645815
 20
22.222795267199999
 30
0.0
  0
VERTEX
  5
47E
  8
0
  6
CONTINUOUS
 62
     7
 10
11.476126886399999
 20
22.22350006320001
 30
0.0
  0
VERTEX
  5
47F
  8
0
  6
CONTINUOUS
 62
     7
 10
11.4984168283
 20
22.226364637900001
 30
0.0
  0
VERTEX
  5
480
  8
0
  6
CONTINUOUS
 62
     7
 10
11.5203271967
 20
22.231362361599999
 30
0.0
  0
VERTEX
  5
481
  8
0
  6
CONTINUOUS
 62
     7
 10
11.5416543095
 20
22.2384467748
 30
0.0
  0
VERTEX
  5
482
  8
0
  6
CONTINUOUS
 62
     7
 10
11.5621999067
 20
22.247552019800001
 30
0.0
  0
VERTEX
  5
483
  8
0
  6
CONTINUOUS
 62
     7
 10
11.5817729935
 20
22.2585934528
 30
0.0
  0
VERTEX
  5
484
  8
0
  6
CONTINUOUS
 62
     7
 10
11.6001916155
 20
22.271468430999999
 30
0.0
  0
VERTEX
  5
485
  8
0
  6
CONTINUOUS
 62
     7
 10
11.617284550500001
 20
22.2860572668
 30
0.0
  0
VERTEX
  5
486
  8
0
  6
CONTINUOUS
 62
     7
 10
11.6328929001
 20
22.302224340199999
 30
0.0
  0
VERTEX
  5
487
  8
0
  6
CONTINUOUS
 62
     7
 10
11.6468715668
 20
22.3198193596
 30
0.0
  0
VERTEX
  5
488
  8
0
  6
CONTINUOUS
 62
     7
 10
11.659090602699999
 20
22.338678759299999
 30
0.0
  0
VERTEX
  5
489
  8
0
  6
CONTINUOUS
 62
     7
 10
11.669436418
 20
22.358627219399999
 30
0.0
  0
VERTEX
  5
48A
  8
0
  6
CONTINUOUS
 62
     7
 10
11.677812836399999
 20
22.379479296100001
 30
0.0
  0
VERTEX
  5
48B
  8
0
  6
CONTINUOUS
 62
     7
 10
11.6841419895
 20
22.401041145400001
 30
0.0
  0
VERTEX
  5
48C
  8
0
  6
CONTINUOUS
 62
     7
 10
11.688365040600001
 20
22.423112325200002
 30
0.0
  0
VERTEX
  5
48D
  8
0
  6
CONTINUOUS
 62
     7
 10
11.690442731499999
 20
22.445487658600001
 30
0.0
  0
VERTEX
  5
48E
  8
0
  6
CONTINUOUS
 62
     7
 10
11.6903557478
 20
22.4679591411
 30
0.0
  0
VERTEX
  5
48F
  8
0
  6
CONTINUOUS
 62
     7
 10
11.688104898000001
 20
22.490317874599999
 30
0.0
  0
VERTEX
  5
490
  8
0
  6
CONTINUOUS
 62
     7
 10
11.683711106400001
 20
22.512356009000001
 30
0.0
  0
VERTEX
  5
491
  8
0
  6
CONTINUOUS
 62
     7
 10
11.677215218300001
 20
22.533868674400001
 30
0.0
  0
VERTEX
  5
492
  8
0
  6
CONTINUOUS
 62
     7
 10
11.6686776204
 20
22.554655886100001
 30
0.0
  0
VERTEX
  5
493
  8
0
  6
CONTINUOUS
 62
     7
 10
11.6581776796
 20
22.5745244029
 30
0.0
  0
VERTEX
  5
494
  8
0
  6
CONTINUOUS
 62
     7
 10
11.645813004700001
 20
22.593289524399999
 30
0.0
  0
VERTEX
  5
495
  8
0
  6
CONTINUOUS
 62
     7
 10
11.6316985397
 20
22.610776807000001
 30
0.0
  0
VERTEX
  5
496
  8
0
  6
CONTINUOUS
 62
     7
 10
11.615965494799999
 20
22.6268236865
 30
0.0
  0
VERTEX
  5
497
  8
0
  6
CONTINUOUS
 62
     7
 10
11.5987601265
 20
22.6412809887
 30
0.0
  0
VERTEX
  5
498
  8
0
  6
CONTINUOUS
 62
     7
 10
11.580242378599999
 20
22.6540143165
 30
0.0
  0
VERTEX
  5
499
  8
0
  6
CONTINUOUS
 62
     7
 10
11.560584394699999
 20
22.664905298800001
 30
0.0
  0
VERTEX
  5
49A
  8
0
  6
CONTINUOUS
 62
     7
 10
11.5399689184
 20
22.673852691499999
 30
0.0
  0
VERTEX
  5
49B
  8
0
  6
CONTINUOUS
 62
     7
 10
11.5185875942
 20
22.6807733184
 30
0.0
  0
VERTEX
  5
49C
  8
0
  6
CONTINUOUS
 62
     7
 10
11.496639185999999
 20
22.685602844200002
 30
0.0
  0
VERTEX
  5
49D
  8
0
  6
CONTINUOUS
 62
     7
 10
11.474327729500001
 20
22.688296373099998
 30
0.0
  0
VERTEX
  5
49E
  8
0
  6
CONTINUOUS
 62
     7
 10
11.451860635299999
 20
22.68882886550001
 30
0.0
  0
VERTEX
  5
49F
  8
0
  6
CONTINUOUS
 62
     7
 10
11.429446760699999
 20
22.6871953713
 30
0.0
  0
VERTEX
  5
4A0
  8
0
  6
CONTINUOUS
 62
     7
 10
11.407294468499989
 20
22.6834110757
 30
0.0
  0
SEQEND
  5
4A1
  8
0
  6
CONTINUOUS
 62
     7
  0
POLYLINE
  5
2AC
  8
0
  6
CONTINUOUS
 62
     7
 66
     1
 10
0.0
 20
0.0
 30
0.0
  0
VERTEX
  5
4A2
  8
0
  6
CONTINUOUS
 62
     7
 10
11.416937710299999
 20
21.788906549299998
 30
0.0
  0
VERTEX
  5
4A3
  8
0
  6
CONTINUOUS
 62
     7
 10
11.3953356902
 20
21.782710548800001
 30
0.0
  0
VERTEX
  5
4A4
  8
0
  6
CONTINUOUS
 62
     7
 10
11.3744308998
 20
21.7744631174
 30
0.0
  0
VERTEX
  5
4A5
  8
0
  6
CONTINUOUS
 62
     7
 10
11.354417673
 20
21.764240924399999
 30
0.0
  0
VERTEX
  5
4A6
  8
0
  6
CONTINUOUS
 62
     7
 10
11.3354820556
 20
21.752138996999999
 30
0.0
  0
VERTEX
  5
4A7
  8
0
  6
CONTINUOUS
 62
     7
 10
11.317800076099999
 20
21.738269836299999
 30
0.0
  0
VERTEX
  5
4A8
  8
0
  6
CONTINUOUS
 62
     7
 10
11.301536108700001
 20
21.722762372199998
 30
0.0
  0
VERTEX
  5
4A9
  8
0
  6
CONTINUOUS
 62
     7
 10
11.286841345599999
 20
21.705760764299999
 30
0.0
  0
VERTEX
  5
4AA
  8
0
  6
CONTINUOUS
 62
     7
 10
11.2738523915
 20
21.687423062099999
 30
0.0
  0
VERTEX
  5
4AB
  8
0
  6
CONTINUOUS
 62
     7
 10
11.2626899937
 20
21.6679197355
 30
0.0
  0
VERTEX
  5
4AC
  8
0
  6
CONTINUOUS
 62
     7
 10
11.253457919400001
 20
21.647432090399999
 30
0.0
  0
VERTEX
  5
4AD
  8
0
  6
CONTINUOUS
 62
     7
 10
11.2462419914
 20
21.626150582899999
 30
0.0
  0
VERTEX
  5
4AE
  8
0
  6
CONTINUOUS
 62
     7
 10
11.241109290000001
 20
21.604273049100001
 30
0.0
  0
VERTEX
  5
4AF
  8
0
  6
CONTINUOUS
 62
     7
 10
11.238107529500001
 20
21.5820028658
 30
0.0
  0
VERTEX
  5
4B0
  8
0
  6
CONTINUOUS
 62
     7
 10
11.237264614800001
 20
21.559547059700002
 30
0.0
  0
VERTEX
  5
4B1
  8
0
  6
CONTINUOUS
 62
     7
 10
11.2385883816
 20
21.537114383599999
 30
0.0
  0
VERTEX
  5
4B2
  8
0
  6
CONTINUOUS
 62
     7
 10
11.2420665242
 20
21.514913374700001
 30
0.0
  0
VERTEX
  5
4B3
  8
0
  6
CONTINUOUS
 62
     7
 10
11.247666709200001
 20
21.493150416900001
 30
0.0
  0
VERTEX
  5
4B4
  8
0
  6
CONTINUOUS
 62
     7
 10
11.255336876299999
 20
21.472027822000001
 30
0.0
  0
VERTEX
  5
4B5
  8
0
  6
CONTINUOUS
 62
     7
 10
11.2650057226
 20
21.451741948599999
 30
0.0
  0
VERTEX
  5
4B6
  8
0
  6
CONTINUOUS
 62
     7
 10
11.2765833652
 20
21.4324813773
 30
0.0
  0
VERTEX
  5
4B7
  8
0
  6
CONTINUOUS
 62
     7
 10
11.2899621764
 20
21.414425157099998
 30
0.0
  0
VERTEX
  5
4B8
  8
0
  6
CONTINUOUS
 62
     7
 10
11.305017785
 20
21.397741141400001
 30
0.0
  0
VERTEX
  5
4B9
  8
0
  6
CONTINUOUS
 62
     7
 10
11.321610231699999
 20
21.382584427099999
 30
0.0
  0
VERTEX
  5
4BA
  8
0
  6
CONTINUOUS
 62
     7
 10
11.339585270700001
 20
21.369095913500001
 30
0.0
  0
VERTEX
  5
4BB
  8
0
  6
CONTINUOUS
 62
     7
 10
11.3587758035
 20
21.357400991599999
 30
0.0
  0
VERTEX
  5
4BC
  8
0
  6
CONTINUOUS
 62
     7
 10
11.379003431899999
 20
21.347608379099999
 30
0.0
  0
VERTEX
  5
4BD
  8
0
  6
CONTINUOUS
 62
     7
 10
11.400080117
 20
21.339809109800001
 30
0.0
  0
VERTEX
  5
4BE
  8
0
  6
CONTINUOUS
 62
     7
 10
11.4218099268
 20
21.334075686599999
 30
0.0
  0
VERTEX
  5
4BF
  8
0
  6
CONTINUOUS
 62
     7
 10
11.443990857799999
 20
21.330461408400001
 30
0.0
  0
VERTEX
  5
4C0
  8
0
  6
CONTINUOUS
 62
     7
 10
11.466416712799999
 20
21.328999874000001
 30
0.0
  0
VERTEX
  5
4C1
  8
0
  6
CONTINUOUS
 62
     7
 10
11.4888790177
 20
21.3297046701
 30
0.0
  0
VERTEX
  5
4C2
  8
0
  6
CONTINUOUS
 62
     7
 10
11.511168959600001
 20
21.332569244799998
 30
0.0
  0
VERTEX
  5
4C3
  8
0
  6
CONTINUOUS
 62
     7
 10
11.533079327999999
 20
21.337566968499999
 30
0.0
  0
VERTEX
  5
4C4
  8
0
  6
CONTINUOUS
 62
     7
 10
11.554406440799999
 20
21.3446513817
 30
0.0
  0
VERTEX
  5
4C5
  8
0
  6
CONTINUOUS
 62
     7
 10
11.574952037999999
 20
21.353756626599999
 30
0.0
  0
VERTEX
  5
4C6
  8
0
  6
CONTINUOUS
 62
     7
 10
11.594525124800001
 20
21.364798059599998
 30
0.0
  0
VERTEX
  5
4C7
  8
0
  6
CONTINUOUS
 62
     7
 10
11.612943746799999
 20
21.377673037899999
 30
0.0
  0
VERTEX
  5
4C8
  8
0
  6
CONTINUOUS
 62
     7
 10
11.6300366818
 20
21.392261873700001
 30
0.0
  0
VERTEX
  5
4C9
  8
0
  6
CONTINUOUS
 62
     7
 10
11.645645031400001
 20
21.408428947000001
 30
0.0
  0
VERTEX
  5
4CA
  8
0
  6
CONTINUOUS
 62
     7
 10
11.659623698100001
 20
21.426023966500001
 30
0.0
  0
VERTEX
  5
4CB
  8
0
  6
CONTINUOUS
 62
     7
 10
11.671842734
 20
21.444883366199999
 30
0.0
  0
VERTEX
  5
4CC
  8
0
  6
CONTINUOUS
 62
     7
 10
11.682188549299999
 20
21.464831826200001
 30
0.0
  0
VERTEX
  5
4CD
  8
0
  6
CONTINUOUS
 62
     7
 10
11.6905649677
 20
21.4856839029
 30
0.0
  0
VERTEX
  5
4CE
  8
0
  6
CONTINUOUS
 62
     7
 10
11.6968941208
 20
21.507245752300001
 30
0.0
  0
VERTEX
  5
4CF
  8
0
  6
CONTINUOUS
 62
     7
 10
11.7011171719
 20
21.529316932099999
 30
0.0
  0
VERTEX
  5
4D0
  8
0
  6
CONTINUOUS
 62
     7
 10
11.7031948628
 20
21.551692265500002
 30
0.0
  0
VERTEX
  5
4D1
  8
0
  6
CONTINUOUS
 62
     7
 10
11.703107879099999
 20
21.574163748
 30
0.0
  0
VERTEX
  5
4D2
  8
0
  6
CONTINUOUS
 62
     7
 10
11.7008570293
 20
21.596522481499999
 30
0.0
  0
VERTEX
  5
4D3
  8
0
  6
CONTINUOUS
 62
     7
 10
11.6964632377
 20
21.6185606158
 30
0.0
  0
VERTEX
  5
4D4
  8
0
  6
CONTINUOUS
 62
     7
 10
11.6899673496
 20
21.640073281300001
 30
0.0
  0
VERTEX
  5
4D5
  8
0
  6
CONTINUOUS
 62
     7
 10
11.6814297517
 20
21.660860492899999
 30
0.0
  0
VERTEX
  5
4D6
  8
0
  6
CONTINUOUS
 62
     7
 10
11.670929810900001
 20
21.6807290098
 30
0.0
  0
VERTEX
  5
4D7
  8
0
  6
CONTINUOUS
 62
     7
 10
11.658565136
 20
21.699494131200002
 30
0.0
  0
VERTEX
  5
4D8
  8
0
  6
CONTINUOUS
 62
     7
 10
11.644450671
 20
21.716981413900001
 30
0.0
  0
VERTEX
  5
4D9
  8
0
  6
CONTINUOUS
 62
     7
 10
11.6287176261
 20
21.7330282934
 30
0.0
  0
VERTEX
  5
4DA
  8
0
  6
CONTINUOUS
 62
     7
 10
11.611512257799999
 20
21.747485595600001
 30
0.0
  0
VERTEX
  5
4DB
  8
0
  6
CONTINUOUS
 62
     7
 10
11.5929945099
 20
21.760218923299998
 30
0.0
  0
VERTEX
  5
4DC
  8
0
  6
CONTINUOUS
 62
     7
 10
11.573336526
 20
21.771109905599999
 30
0.0
  0
VERTEX
  5
4DD
  8
0
  6
CONTINUOUS
 62
     7
 10
11.552721049700001
 20
21.780057298399999
 30
0.0
  0
VERTEX
  5
4DE
  8
0
  6
CONTINUOUS
 62
     7
 10
11.531339725500001
 20
21.786977925199999
 30
0.0
  0
VERTEX
  5
4DF
  8
0
  6
CONTINUOUS
 62
     7
 10
11.5093913173
 20
21.791807451099999
 30
0.0
  0
VERTEX
  5
4E0
  8
0
  6
CONTINUOUS
 62
     7
 10
11.4870798608
 20
21.7945009799
 30
0.0
  0
VERTEX
  5
4E1
  8
0
  6
CONTINUOUS
 62
     7
 10
11.4646127666
 20
21.795033472299998
 30
0.0
  0
VERTEX
  5
4E2
  8
0
  6
CONTINUOUS
 62
     7
 10
11.442198892
 20
21.793399978099998
 30
0.0
  0
VERTEX
  5
4E3
  8
0
  6
CONTINUOUS
 62
     7
 10
11.420046599799999
 20
21.789615682600001
 30
0.0
  0
SEQEND
  5
4E4
  8
0
  6
CONTINUOUS
 62
     7
  0
POLYLINE
  5
2F0
  8
0
  6
CONTINUOUS
 62
     7
 66
     1
 10
0.0
 20
0.0
 30
0.0
  0
VERTEX
  5
4E5
  8
0
  6
CONTINUOUS
 62
     7
 10
11.6098800542
 20
20.921248713200001
 30
0.0
  0
VERTEX
  5
4E6
  8
0
  6
CONTINUOUS
 62
     7
 10
11.5882780342
 20
20.915052712600001
 30
0.0
  0
VERTEX
  5
4E7
  8
0
  6
CONTINUOUS
 62
     7
 10
11.567373243800001
 20
20.9068052812
 30
0.0
  0
VERTEX
  5
4E8
  8
0
  6
CONTINUOUS
 62
     7
 10
11.547360016900001
 20
20.896583088300002
 30
0.0
  0
VERTEX
  5
4E9
  8
0
  6
CONTINUOUS
 62
     7
 10
11.5284243996
 20
20.8844811608
 30
0.0
  0
VERTEX
  5
4EA
  8
0
  6
CONTINUOUS
 62
     7
 10
11.5107424201
 20
20.870612000200001
 30
0.0
  0
VERTEX
  5
4EB
  8
0
  6
CONTINUOUS
 62
     7
 10
11.494478452699999
 20
20.855104535999999
 30
0.0
  0
VERTEX
  5
4EC
  8
0
  6
CONTINUOUS
 62
     7
 10
11.4797836896
 20
20.8381029281
 30
0.0
  0
VERTEX
  5
4ED
  8
0
  6
CONTINUOUS
 62
     7
 10
11.466794735500001
 20
20.819765225899999
 30
0.0
  0
VERTEX
  5
4EE
  8
0
  6
CONTINUOUS
 62
     7
 10
11.455632337699999
 20
20.800261899399999
 30
0.0
  0
VERTEX
  5
4EF
  8
0
  6
CONTINUOUS
 62
     7
 10
11.446400263399999
 20
20.779774254300001
 30
0.0
  0
VERTEX
  5
4F0
  8
0
  6
CONTINUOUS
 62
     7
 10
11.4391843354
 20
20.758492746799998
 30
0.0
  0
VERTEX
  5
4F1
  8
0
  6
CONTINUOUS
 62
     7
 10
11.434051633899999
 20
20.736615213
 30
0.0
  0
VERTEX
  5
4F2
  8
0
  6
CONTINUOUS
 62
     7
 10
11.431049873499999
 20
20.7143450296
 30
0.0
  0
VERTEX
  5
4F3
  8
0
  6
CONTINUOUS
 62
     7
 10
11.430206958699999
 20
20.6918892236
 30
0.0
  0
VERTEX
  5
4F4
  8
0
  6
CONTINUOUS
 62
     7
 10
11.4315307256
 20
20.669456547399999
 30
0.0
  0
VERTEX
  5
4F5
  8
0
  6
CONTINUOUS
 62
     7
 10
11.435008868200001
 20
20.647255538500001
 30
0.0
  0
VERTEX
  5
4F6
  8
0
  6
CONTINUOUS
 62
     7
 10
11.440609053099999
 20
20.6254925808
 30
0.0
  0
VERTEX
  5
4F7
  8
0
  6
CONTINUOUS
 62
     7
 10
11.4482792203
 20
20.604369985799998
 30
0.0
  0
VERTEX
  5
4F8
  8
0
  6
CONTINUOUS
 62
     7
 10
11.4579480666
 20
20.584084112500001
 30
0.0
  0
VERTEX
  5
4F9
  8
0
  6
CONTINUOUS
 62
     7
 10
11.469525709199999
 20
20.564823541100001
 30
0.0
  0
VERTEX
  5
4FA
  8
0
  6
CONTINUOUS
 62
     7
 10
11.4829045204
 20
20.546767321000001
 30
0.0
  0
VERTEX
  5
4FB
  8
0
  6
CONTINUOUS
 62
     7
 10
11.497960129000001
 20
20.530083305200002
 30
0.0
  0
VERTEX
  5
4FC
  8
0
  6
CONTINUOUS
 62
     7
 10
11.5145525757
 20
20.514926590999998
 30
0.0
  0
VERTEX
  5
4FD
  8
0
  6
CONTINUOUS
 62
     7
 10
11.532527614699999
 20
20.501438077300001
 30
0.0
  0
VERTEX
  5
4FE
  8
0
  6
CONTINUOUS
 62
     7
 10
11.551718147500001
 20
20.489743155399999
 30
0.0
  0
VERTEX
  5
4FF
  8
0
  6
CONTINUOUS
 62
     7
 10
11.5719457759
 20
20.479950543000001
 30
0.0
  0
VERTEX
  5
500
  8
0
  6
CONTINUOUS
 62
     7
 10
11.593022461
 20
20.472151273600002
 30
0.0
  0
VERTEX
  5
501
  8
0
  6
CONTINUOUS
 62
     7
 10
11.6147522708
 20
20.466417850399999
 30
0.0
  0
VERTEX
  5
502
  8
0
  6
CONTINUOUS
 62
     7
 10
11.6369332018
 20
20.462803572199999
 30
0.0
  0
VERTEX
  5
503
  8
0
  6
CONTINUOUS
 62
     7
 10
11.6593590568
 20
20.4613420379
 30
0.0
  0
VERTEX
  5
504
  8
0
  6
CONTINUOUS
 62
     7
 10
11.681821361700001
 20
20.462046833999999
 30
0.0
  0
VERTEX
  5
505
  8
0
  6
CONTINUOUS
 62
     7
 10
11.7041113036
 20
20.464911408599999
 30
0.0
  0
VERTEX
  5
506
  8
0
  6
CONTINUOUS
 62
     7
 10
11.726021672
 20
20.4699091323
 30
0.0
  0
VERTEX
  5
507
  8
0
  6
CONTINUOUS
 62
     7
 10
11.7473487848
 20
20.476993545500001
 30
0.0
  0
VERTEX
  5
508
  8
0
  6
CONTINUOUS
 62
     7
 10
11.767894382
 20
20.486098790500002
 30
0.0
  0
VERTEX
  5
509
  8
0
  6
CONTINUOUS
 62
     7
 10
11.787467468799999
 20
20.497140223500001
 30
0.0
  0
VERTEX
  5
50A
  8
0
  6
CONTINUOUS
 62
     7
 10
11.8058860908
 20
20.5100152017
 30
0.0
  0
VERTEX
  5
50B
  8
0
  6
CONTINUOUS
 62
     7
 10
11.8229790258
 20
20.524604037500001
 30
0.0
  0
VERTEX
  5
50C
  8
0
  6
CONTINUOUS
 62
     7
 10
11.8385873754
 20
20.5407711109
 30
0.0
  0
VERTEX
  5
50D
  8
0
  6
CONTINUOUS
 62
     7
 10
11.852566042099999
 20
20.558366130300001
 30
0.0
  0
VERTEX
  5
50E
  8
0
  6
CONTINUOUS
 62
     7
 10
11.864785078000001
 20
20.57722553
 30
0.0
  0
VERTEX
  5
50F
  8
0
  6
CONTINUOUS
 62
     7
 10
11.8751308933
 20
20.5971739901
 30
0.0
  0
VERTEX
  5
510
  8
0
  6
CONTINUOUS
 62
     7
 10
11.883507311700001
 20
20.618026066799999
 30
0.0
  0
VERTEX
  5
511
  8
0
  6
CONTINUOUS
 62
     7
 10
11.8898364648
 20
20.639587916100002
 30
0.0
  0
VERTEX
  5
512
  8
0
  6
CONTINUOUS
 62
     7
 10
11.8940595159
 20
20.661659095899999
 30
0.0
  0
VERTEX
  5
513
  8
0
  6
CONTINUOUS
 62
     7
 10
11.896137206800001
 20
20.684034429299999
 30
0.0
  0
VERTEX
  5
514
  8
0
  6
CONTINUOUS
 62
     7
 10
11.8960502231
 20
20.706505911800001
 30
0.0
  0
VERTEX
  5
515
  8
0
  6
CONTINUOUS
 62
     7
 10
11.8937993733
 20
20.7288646453
 30
0.0
  0
VERTEX
  5
516
  8
0
  6
CONTINUOUS
 62
     7
 10
11.8894055817
 20
20.750902779699999
 30
0.0
  0
VERTEX
  5
517
  8
0
  6
CONTINUOUS
 62
     7
 10
11.8829096935
 20
20.772415445099998
 30
0.0
  0
VERTEX
  5
518
  8
0
  6
CONTINUOUS
 62
     7
 10
11.8743720957
 20
20.793202656799998
 30
0.0
  0
VERTEX
  5
519
  8
0
  6
CONTINUOUS
 62
     7
 10
11.863872154799999
 20
20.813071173600001
 30
0.0
  0
VERTEX
  5
51A
  8
0
  6
CONTINUOUS
 62
     7
 10
11.85150748
 20
20.8318362951
 30
0.0
  0
VERTEX
  5
51B
  8
0
  6
CONTINUOUS
 62
     7
 10
11.837393015
 20
20.849323577700002
 30
0.0
  0
VERTEX
  5
51C
  8
0
  6
CONTINUOUS
 62
     7
 10
11.821659970000001
 20
20.865370457200001
 30
0.0
  0
VERTEX
  5
51D
  8
0
  6
CONTINUOUS
 62
     7
 10
11.8044546018
 20
20.879827759499999
 30
0.0
  0
VERTEX
  5
51E
  8
0
  6
CONTINUOUS
 62
     7
 10
11.785936853799999
 20
20.892561087200001
 30
0.0
  0
VERTEX
  5
51F
  8
0
  6
CONTINUOUS
 62
     7
 10
11.766278870000001
 20
20.903452069499998
 30
0.0
  0
VERTEX
  5
520
  8
0
  6
CONTINUOUS
 62
     7
 10
11.745663393699999
 20
20.9123994622
 30
0.0
  0
VERTEX
  5
521
  8
0
  6
CONTINUOUS
 62
     7
 10
11.724282069499999
 20
20.919320089100001
 30
0.0
  0
VERTEX
  5
522
  8
0
  6
CONTINUOUS
 62
     7
 10
11.702333661300001
 20
20.924149614899999
 30
0.0
  0
VERTEX
  5
523
  8
0
  6
CONTINUOUS
 62
     7
 10
11.6800222048
 20
20.926843143799999
 30
0.0
  0
VERTEX
  5
524
  8
0
  6
CONTINUOUS
 62
     7
 10
11.657555110500001
 20
20.927375636200001
 30
0.0
  0
VERTEX
  5
525
  8
0
  6
CONTINUOUS
 62
     7
 10
11.635141236000001
 20
20.925742142000001
 30
0.0
  0
VERTEX
  5
526
  8
0
  6
CONTINUOUS
 62
     7
 10
11.6129889437
 20
20.921957846400002
 30
0.0
  0
SEQEND
  5
527
  8
0
  6
CONTINUOUS
 62
     7
  0
POLYLINE
  5
334
  8
0
  6
CONTINUOUS
 62
     7
 66
     1
 10
0.0
 20
0.0
 30
0.0
  0
VERTEX
  5
528
  8
0
  6
CONTINUOUS
 62
     7
 10
11.604700394
 20
20.0407064722
 30
0.0
  0
VERTEX
  5
529
  8
0
  6
CONTINUOUS
 62
     7
 10
11.583098374
 20
20.034510471600001
 30
0.0
  0
VERTEX
  5
52A
  8
0
  6
CONTINUOUS
 62
     7
 10
11.562193583499999
 20
20.0262630402
 30
0.0
  0
VERTEX
  5
52B
  8
0
  6
CONTINUOUS
 62
     7
 10
11.542180356699999
 20
20.016040847300001
 30
0.0
  0
VERTEX
  5
52C
  8
0
  6
CONTINUOUS
 62
     7
 10
11.523244739400001
 20
20.003938919799999
 30
0.0
  0
VERTEX
  5
52D
  8
0
  6
CONTINUOUS
 62
     7
 10
11.5055627599
 20
19.990069759200001
 30
0.0
  0
VERTEX
  5
52E
  8
0
  6
CONTINUOUS
 62
     7
 10
11.4892987924
 20
19.974562294999998
 30
0.0
  0
VERTEX
  5
52F
  8
0
  6
CONTINUOUS
 62
     7
 10
11.4746040293
 20
19.957560687099999
 30
0.0
  0
VERTEX
  5
530
  8
0
  6
CONTINUOUS
 62
     7
 10
11.461615075299999
 20
19.939222984899999
 30
0.0
  0
VERTEX
  5
531
  8
0
  6
CONTINUOUS
 62
     7
 10
11.4504526774
 20
19.919719658399998
 30
0.0
  0
VERTEX
  5
532
  8
0
  6
CONTINUOUS
 62
     7
 10
11.4412206031
 20
19.899232013300001
 30
0.0
  0
VERTEX
  5
533
  8
0
  6
CONTINUOUS
 62
     7
 10
11.434004675100001
 20
19.877950505800001
 30
0.0
  0
VERTEX
  5
534
  8
0
  6
CONTINUOUS
 62
     7
 10
11.4288719737
 20
19.856072972
 30
0.0
  0
VERTEX
  5
535
  8
0
  6
CONTINUOUS
 62
     7
 10
11.4258702132
 20
19.8338027886
 30
0.0
  0
VERTEX
  5
536
  8
0
  6
CONTINUOUS
 62
     7
 10
11.4250272985
 20
19.8113469826
 30
0.0
  0
VERTEX
  5
537
  8
0
  6
CONTINUOUS
 62
     7
 10
11.4263510654
 20
19.788914306399999
 30
0.0
  0
VERTEX
  5
538
  8
0
  6
CONTINUOUS
 62
     7
 10
11.429829207999999
 20
19.766713297500001
 30
0.0
  0
VERTEX
  5
539
  8
0
  6
CONTINUOUS
 62
     7
 10
11.4354293929
 20
19.744950339799999
 30
0.0
  0
VERTEX
  5
53A
  8
0
  6
CONTINUOUS
 62
     7
 10
11.44309956
 20
19.723827744800001
 30
0.0
  0
VERTEX
  5
53B
  8
0
  6
CONTINUOUS
 62
     7
 10
11.452768406400001
 20
19.703541871500001
 30
0.0
  0
VERTEX
  5
53C
  8
0
  6
CONTINUOUS
 62
     7
 10
11.4643460489
 20
19.6842813001
 30
0.0
  0
VERTEX
  5
53D
  8
0
  6
CONTINUOUS
 62
     7
 10
11.4777248602
 20
19.66622508
 30
0.0
  0
VERTEX
  5
53E
  8
0
  6
CONTINUOUS
 62
     7
 10
11.492780468699999
 20
19.649541064200001
 30
0.0
  0
VERTEX
  5
53F
  8
0
  6
CONTINUOUS
 62
     7
 10
11.5093729154
 20
19.634384350000001
 30
0.0
  0
VERTEX
  5
540
  8
0
  6
CONTINUOUS
 62
     7
 10
11.5273479545
 20
19.620895836300001
 30
0.0
  0
VERTEX
  5
541
  8
0
  6
CONTINUOUS
 62
     7
 10
11.546538487199999
 20
19.609200914399999
 30
0.0
  0
VERTEX
  5
542
  8
0
  6
CONTINUOUS
 62
     7
 10
11.5667661157
 20
19.599408302000001
 30
0.0
  0
VERTEX
  5
543
  8
0
  6
CONTINUOUS
 62
     7
 10
11.587842800800001
 20
19.591609032600001
 30
0.0
  0
VERTEX
  5
544
  8
0
  6
CONTINUOUS
 62
     7
 10
11.609572610600001
 20
19.585875609399999
 30
0.0
  0
VERTEX
  5
545
  8
0
  6
CONTINUOUS
 62
     7
 10
11.6317535416
 20
19.582261331200002
 30
0.0
  0
VERTEX
  5
546
  8
0
  6
CONTINUOUS
 62
     7
 10
11.6541793966
 20
19.580799796899999
 30
0.0
  0
VERTEX
  5
547
  8
0
  6
CONTINUOUS
 62
     7
 10
11.676641701399999
 20
19.581504592999998
 30
0.0
  0
VERTEX
  5
548
  8
0
  6
CONTINUOUS
 62
     7
 10
11.6989316434
 20
19.584369167599998
 30
0.0
  0
VERTEX
  5
549
  8
0
  6
CONTINUOUS
 62
     7
 10
11.7208420117
 20
19.589366891299999
 30
0.0
  0
VERTEX
  5
54A
  8
0
  6
CONTINUOUS
 62
     7
 10
11.7421691245
 20
19.5964513045
 30
0.0
  0
VERTEX
  5
54B
  8
0
  6
CONTINUOUS
 62
     7
 10
11.7627147218
 20
19.605556549500001
 30
0.0
  0
VERTEX
  5
54C
  8
0
  6
CONTINUOUS
 62
     7
 10
11.7822878085
 20
19.6165979825
 30
0.0
  0
VERTEX
  5
54D
  8
0
  6
CONTINUOUS
 62
     7
 10
11.8007064305
 20
19.629472960699999
 30
0.0
  0
VERTEX
  5
54E
  8
0
  6
CONTINUOUS
 62
     7
 10
11.817799365600001
 20
19.644061796500001
 30
0.0
  0
VERTEX
  5
54F
  8
0
  6
CONTINUOUS
 62
     7
 10
11.8334077152
 20
19.660228869899999
 30
0.0
  0
VERTEX
  5
550
  8
0
  6
CONTINUOUS
 62
     7
 10
11.8473863818
 20
19.677823889300001
 30
0.0
  0
VERTEX
  5
551
  8
0
  6
CONTINUOUS
 62
     7
 10
11.859605417799999
 20
19.696683288999999
 30
0.0
  0
VERTEX
  5
552
  8
0
  6
CONTINUOUS
 62
     7
 10
11.8699512331
 20
19.716631749099999
 30
0.0
  0
VERTEX
  5
553
  8
0
  6
CONTINUOUS
 62
     7
 10
11.878327651499999
 20
19.737483825799998
 30
0.0
  0
VERTEX
  5
554
  8
0
  6
CONTINUOUS
 62
     7
 10
11.884656804600001
 20
19.759045675100001
 30
0.0
  0
VERTEX
  5
555
  8
0
  6
CONTINUOUS
 62
     7
 10
11.888879855600001
 20
19.781116854899999
 30
0.0
  0
VERTEX
  5
556
  8
0
  6
CONTINUOUS
 62
     7
 10
11.890957546599999
 20
19.803492188299991
 30
0.0
  0
VERTEX
  5
557
  8
0
  6
CONTINUOUS
 62
     7
 10
11.8908705628
 20
19.8259636708
 30
0.0
  0
VERTEX
  5
558
  8
0
  6
CONTINUOUS
 62
     7
 10
11.888619713000001
 20
19.848322404299999
 30
0.0
  0
VERTEX
  5
559
  8
0
  6
CONTINUOUS
 62
     7
 10
11.884225921400001
 20
19.870360538699991
 30
0.0
  0
VERTEX
  5
55A
  8
0
  6
CONTINUOUS
 62
     7
 10
11.877730033300001
 20
19.891873204100001
 30
0.0
  0
VERTEX
  5
55B
  8
0
  6
CONTINUOUS
 62
     7
 10
11.8691924354
 20
19.912660415800001
 30
0.0
  0
VERTEX
  5
55C
  8
0
  6
CONTINUOUS
 62
     7
 10
11.8586924946
 20
19.9325289326
 30
0.0
  0
VERTEX
  5
55D
  8
0
  6
CONTINUOUS
 62
     7
 10
11.846327819800001
 20
19.9512940541
 30
0.0
  0
VERTEX
  5
55E
  8
0
  6
CONTINUOUS
 62
     7
 10
11.8322133548
 20
19.968781336700001
 30
0.0
  0
VERTEX
  5
55F
  8
0
  6
CONTINUOUS
 62
     7
 10
11.816480309799999
 20
19.9848282162
 30
0.0
  0
VERTEX
  5
560
  8
0
  6
CONTINUOUS
 62
     7
 10
11.7992749415
 20
19.999285518499999
 30
0.0
  0
VERTEX
  5
561
  8
0
  6
CONTINUOUS
 62
     7
 10
11.7807571936
 20
20.0120188462
 30
0.0
  0
VERTEX
  5
562
  8
0
  6
CONTINUOUS
 62
     7
 10
11.761099209699999
 20
20.022909828500001
 30
0.0
  0
VERTEX
  5
563
  8
0
  6
CONTINUOUS
 62
     7
 10
11.7404837335
 20
20.031857221199999
 30
0.0
  0
VERTEX
  5
564
  8
0
  6
CONTINUOUS
 62
     7
 10
11.7191024092
 20
20.038777848100001
 30
0.0
  0
VERTEX
  5
565
  8
0
  6
CONTINUOUS
 62
     7
 10
11.697154001099999
 20
20.043607374
 30
0.0
  0
VERTEX
  5
566
  8
0
  6
CONTINUOUS
 62
     7
 10
11.674842544600001
 20
20.046300902799999
 30
0.0
  0
VERTEX
  5
567
  8
0
  6
CONTINUOUS
 62
     7
 10
11.652375450299999
 20
20.0468333952
 30
0.0
  0
VERTEX
  5
568
  8
0
  6
CONTINUOUS
 62
     7
 10
11.629961575699999
 20
20.045199901
 30
0.0
  0
VERTEX
  5
569
  8
0
  6
CONTINUOUS
 62
     7
 10
11.6078092835
 20
20.041415605400001
 30
0.0
  0
SEQEND
  5
56A
  8
0
  6
CONTINUOUS
 62
     7
  0
POLYLINE
  5
378
  8
0
  6
CONTINUOUS
 62
     7
 66
     1
 10
0.0
 20
0.0
 30
0.0
  0
VERTEX
  5
56B
  8
0
  6
CONTINUOUS
 62
     7
 10
11.604700394
 20
19.1572964181
 30
0.0
  0
VERTEX
  5
56C
  8
0
  6
CONTINUOUS
 62
     7
 10
11.583098374
 20
19.1511004175
 30
0.0
  0
VERTEX
  5
56D
  8
0
  6
CONTINUOUS
 62
     7
 10
11.562193583499999
 20
19.142852986099999
 30
0.0
  0
VERTEX
  5
56E
  8
0
  6
CONTINUOUS
 62
     7
 10
11.542180356699999
 20
19.132630793200001
 30
0.0
  0
VERTEX
  5
56F
  8
0
  6
CONTINUOUS
 62
     7
 10
11.523244739400001
 20
19.120528865699999
 30
0.0
  0
VERTEX
  5
570
  8
0
  6
CONTINUOUS
 62
     7
 10
11.5055627599
 20
19.1066597051
 30
0.0
  0
VERTEX
  5
571
  8
0
  6
CONTINUOUS
 62
     7
 10
11.4892987924
 20
19.091152240899991
 30
0.0
  0
VERTEX
  5
572
  8
0
  6
CONTINUOUS
 62
     7
 10
11.4746040293
 20
19.074150632999999
 30
0.0
  0
VERTEX
  5
573
  8
0
  6
CONTINUOUS
 62
     7
 10
11.461615075299999
 20
19.055812930799998
 30
0.0
  0
VERTEX
  5
574
  8
0
  6
CONTINUOUS
 62
     7
 10
11.4504526774
 20
19.036309604300001
 30
0.0
  0
VERTEX
  5
575
  8
0
  6
CONTINUOUS
 62
     7
 10
11.4412206031
 20
19.0158219592
 30
0.0
  0
VERTEX
  5
576
  8
0
  6
CONTINUOUS
 62
     7
 10
11.434004675100001
 20
18.994540451700001
 30
0.0
  0
VERTEX
  5
577
  8
0
  6
CONTINUOUS
 62
     7
 10
11.4288719737
 20
18.972662917899999
 30
0.0
  0
VERTEX
  5
578
  8
0
  6
CONTINUOUS
 62
     7
 10
11.4258702132
 20
18.950392734499999
 30
0.0
  0
VERTEX
  5
579
  8
0
  6
CONTINUOUS
 62
     7
 10
11.4250272985
 20
18.927936928499999
 30
0.0
  0
VERTEX
  5
57A
  8
0
  6
CONTINUOUS
 62
     7
 10
11.4263510654
 20
18.905504252299998
 30
0.0
  0
VERTEX
  5
57B
  8
0
  6
CONTINUOUS
 62
     7
 10
11.429829207999999
 20
18.8833032434
 30
0.0
  0
VERTEX
  5
57C
  8
0
  6
CONTINUOUS
 62
     7
 10
11.4354293929
 20
18.861540285699999
 30
0.0
  0
VERTEX
  5
57D
  8
0
  6
CONTINUOUS
 62
     7
 10
11.44309956
 20
18.840417690700001
 30
0.0
  0
VERTEX
  5
57E
  8
0
  6
CONTINUOUS
 62
     7
 10
11.452768406400001
 20
18.8201318174
 30
0.0
  0
VERTEX
  5
57F
  8
0
  6
CONTINUOUS
 62
     7
 10
11.4643460489
 20
18.800871246
 30
0.0
  0
VERTEX
  5
580
  8
0
  6
CONTINUOUS
 62
     7
 10
11.4777248602
 20
18.7828150259
 30
0.0
  0
VERTEX
  5
581
  8
0
  6
CONTINUOUS
 62
     7
 10
11.492780468699999
 20
18.766131010100001
 30
0.0
  0
VERTEX
  5
582
  8
0
  6
CONTINUOUS
 62
     7
 10
11.5093729154
 20
18.750974295900001
 30
0.0
  0
VERTEX
  5
583
  8
0
  6
CONTINUOUS
 62
     7
 10
11.5273479545
 20
18.7374857822
 30
0.0
  0
VERTEX
  5
584
  8
0
  6
CONTINUOUS
 62
     7
 10
11.546538487199999
 20
18.725790860299998
 30
0.0
  0
VERTEX
  5
585
  8
0
  6
CONTINUOUS
 62
     7
 10
11.5667661157
 20
18.7159982479
 30
0.0
  0
VERTEX
  5
586
  8
0
  6
CONTINUOUS
 62
     7
 10
11.587842800800001
 20
18.7081989785
 30
0.0
  0
VERTEX
  5
587
  8
0
  6
CONTINUOUS
 62
     7
 10
11.609572610600001
 20
18.702465555300002
 30
0.0
  0
VERTEX
  5
588
  8
0
  6
CONTINUOUS
 62
     7
 10
11.6317535416
 20
18.698851277100001
 30
0.0
  0
VERTEX
  5
589
  8
0
  6
CONTINUOUS
 62
     7
 10
11.6541793966
 20
18.697389742799999
 30
0.0
  0
VERTEX
  5
58A
  8
0
  6
CONTINUOUS
 62
     7
 10
11.676641701399999
 20
18.698094538900001
 30
0.0
  0
VERTEX
  5
58B
  8
0
  6
CONTINUOUS
 62
     7
 10
11.6989316434
 20
18.700959113500002
 30
0.0
  0
VERTEX
  5
58C
  8
0
  6
CONTINUOUS
 62
     7
 10
11.7208420117
 20
18.705956837199999
 30
0.0
  0
VERTEX
  5
58D
  8
0
  6
CONTINUOUS
 62
     7
 10
11.7421691245
 20
18.7130412504
 30
0.0
  0
VERTEX
  5
58E
  8
0
  6
CONTINUOUS
 62
     7
 10
11.7627147218
 20
18.722146495400001
 30
0.0
  0
VERTEX
  5
58F
  8
0
  6
CONTINUOUS
 62
     7
 10
11.7822878085
 20
18.7331879284
 30
0.0
  0
VERTEX
  5
590
  8
0
  6
CONTINUOUS
 62
     7
 10
11.8007064305
 20
18.746062906599999
 30
0.0
  0
VERTEX
  5
591
  8
0
  6
CONTINUOUS
 62
     7
 10
11.817799365600001
 20
18.7606517424
 30
0.0
  0
VERTEX
  5
592
  8
0
  6
CONTINUOUS
 62
     7
 10
11.8334077152
 20
18.776818815799999
 30
0.0
  0
VERTEX
  5
593
  8
0
  6
CONTINUOUS
 62
     7
 10
11.8473863818
 20
18.7944138352
 30
0.0
  0
VERTEX
  5
594
  8
0
  6
CONTINUOUS
 62
     7
 10
11.859605417799999
 20
18.813273234899999
 30
0.0
  0
VERTEX
  5
595
  8
0
  6
CONTINUOUS
 62
     7
 10
11.8699512331
 20
18.833221694999999
 30
0.0
  0
VERTEX
  5
596
  8
0
  6
CONTINUOUS
 62
     7
 10
11.878327651499999
 20
18.854073771700001
 30
0.0
  0
VERTEX
  5
597
  8
0
  6
CONTINUOUS
 62
     7
 10
11.884656804600001
 20
18.875635621000001
 30
0.0
  0
VERTEX
  5
598
  8
0
  6
CONTINUOUS
 62
     7
 10
11.888879855600001
 20
18.897706800799991
 30
0.0
  0
VERTEX
  5
599
  8
0
  6
CONTINUOUS
 62
     7
 10
11.890957546599999
 20
18.920082134200001
 30
0.0
  0
VERTEX
  5
59A
  8
0
  6
CONTINUOUS
 62
     7
 10
11.8908705628
 20
18.9425536167
 30
0.0
  0
VERTEX
  5
59B
  8
0
  6
CONTINUOUS
 62
     7
 10
11.888619713000001
 20
18.964912350199999
 30
0.0
  0
VERTEX
  5
59C
  8
0
  6
CONTINUOUS
 62
     7
 10
11.884225921400001
 20
18.986950484600001
 30
0.0
  0
VERTEX
  5
59D
  8
0
  6
CONTINUOUS
 62
     7
 10
11.877730033300001
 20
19.008463150000001
 30
0.0
  0
VERTEX
  5
59E
  8
0
  6
CONTINUOUS
 62
     7
 10
11.8691924354
 20
19.029250361700001
 30
0.0
  0
VERTEX
  5
59F
  8
0
  6
CONTINUOUS
 62
     7
 10
11.8586924946
 20
19.0491188785
 30
0.0
  0
VERTEX
  5
5A0
  8
0
  6
CONTINUOUS
 62
     7
 10
11.846327819800001
 20
19.067883999999999
 30
0.0
  0
VERTEX
  5
5A1
  8
0
  6
CONTINUOUS
 62
     7
 10
11.8322133548
 20
19.085371282600001
 30
0.0
  0
VERTEX
  5
5A2
  8
0
  6
CONTINUOUS
 62
     7
 10
11.816480309799999
 20
19.1014181621
 30
0.0
  0
VERTEX
  5
5A3
  8
0
  6
CONTINUOUS
 62
     7
 10
11.7992749415
 20
19.115875464399998
 30
0.0
  0
VERTEX
  5
5A4
  8
0
  6
CONTINUOUS
 62
     7
 10
11.7807571936
 20
19.1286087921
 30
0.0
  0
VERTEX
  5
5A5
  8
0
  6
CONTINUOUS
 62
     7
 10
11.761099209699999
 20
19.139499774400001
 30
0.0
  0
VERTEX
  5
5A6
  8
0
  6
CONTINUOUS
 62
     7
 10
11.7404837335
 20
19.148447167099999
 30
0.0
  0
VERTEX
  5
5A7
  8
0
  6
CONTINUOUS
 62
     7
 10
11.7191024092
 20
19.155367794
 30
0.0
  0
VERTEX
  5
5A8
  8
0
  6
CONTINUOUS
 62
     7
 10
11.697154001099999
 20
19.160197319800002
 30
0.0
  0
VERTEX
  5
5A9
  8
0
  6
CONTINUOUS
 62
     7
 10
11.674842544600001
 20
19.162890848699998
 30
0.0
  0
VERTEX
  5
5AA
  8
0
  6
CONTINUOUS
 62
     7
 10
11.652375450299999
 20
19.1634233411
 30
0.0
  0
VERTEX
  5
5AB
  8
0
  6
CONTINUOUS
 62
     7
 10
11.629961575699999
 20
19.1617898469
 30
0.0
  0
VERTEX
  5
5AC
  8
0
  6
CONTINUOUS
 62
     7
 10
11.6078092835
 20
19.1580055513
 30
0.0
  0
SEQEND
  5
5AD
  8
0
  6
CONTINUOUS
 62
     7
  0
LINE
  5
3BC
  8
_CURVE
  6
HIDDEN
 62
     8
 10
5.219230776499999
 20
28.017620598699999
 30
0.0
 11
5.219230776499999
 21
10.017620598700001
 31
0.0
  0
LINE
  5
3BD
  8
_CURVE
  6
CONTINUOUS
 62
     7
 10
6.0367307764999989
 20
11.0851205987
 30
0.0
 11
6.0367307764999989
 21
26.9501205987
 31
0.0
  0
LINE
  5
3BE
  8
_CURVE
  6
HIDDEN
 62
     8
 10
5.219230776499999
 20
10.017620598700001
 30
0.0
 11
38.219230776499998
 21
10.017620598700001
 31
0.0
  0
LINE
  5
3BF
  8
_CURVE
  6
CONTINUOUS
 62
     7
 10
37.151730776500003
 20
10.8351205987
 30
0.0
 11
6.2867307764999989
 21
10.8351205987
 31
0.0
  0
LINE
  5
3C0
  8
_CURVE
  6
CONTINUOUS
 62
     7
 10
6.2867307764999989
 20
27.2001205987
 30
0.0
 11
37.151730776500003
 21
27.2001205987
 31
0.0
  0
LINE
  5
3C1
  8
_CURVE
  6
HIDDEN
 62
     8
 10
38.219230776499998
 20
28.017620598699999
 30
0.0
 11
5.219230776499999
 21
28.017620598699999
 31
0.0
  0
LINE
  5
3C2
  8
_CURVE
  6
CONTINUOUS
 62
     7
 10
37.40173077650001
 20
26.9501205987
 30
0.0
 11
37.40173077650001
 21
11.0851205987
 31
0.0
  0
LINE
  5
3C3
  8
_CURVE
  6
HIDDEN
 62
     8
 10
38.219230776499998
 20
10.017620598700001
 30
0.0
 11
38.219230776499998
 21
28.017620598699999
 31
0.0
  0
ARC
  5
3C4
  8
_CURVE
  6
CONTINUOUS
 62
     7
 10
37.151730776500003
 20
26.9501205987
 30
0.0
 40
0.25
 50
0.0
 51
90.0
  0
ARC
  5
3C5
  8
_CURVE
  6
CONTINUOUS
 62
     7
 10
6.2867307764999989
 20
26.9501205987
 30
0.0
 40
0.25
 50
90.0
 51
180.0
  0
ARC
  5
3C6
  8
_CURVE
  6
CONTINUOUS
 62
     7
 10
6.2867307764999989
 20
11.0851205987
 30
0.0
 40
0.25
 50
180.0
 51
270.0
  0
ARC
  5
3C7
  8
_CURVE
  6
CONTINUOUS
 62
     7
 10
37.151730776500003
 20
11.0851205987
 30
0.0
 40
0.25
 50
270.0
 51
0.0
  0
ENDSEC
  0
EOF
