999
DXF file: 1156909-7.dxf
999
Pro/ENGINEER 2014200 by Parametric Technology Corporation
  0
SECTION
  2
HEADER
  9
$EXTMAX
 10
44.0
 20
34.0
 30
0.0
  9
$EXTMIN
 10
0.0
 20
0.0
 30
0.0
  9
$LIMMIN
 10
0.0
 20
0.0
  9
$LIMMAX
 10
44.0
 20
34.0
  9
$VIEWCTR
 10
22.0
 20
17.0
  9
$VIEWSIZE
 40
34.0
  9
$CLAYER
  8
0
  9
$LTSCALE
 40
2.42
  9
$CELTYPE
  6
BYLAYER
  9
$DIMSCALE
 40
1.0
  9
$DIMASZ
 40
0.1875
  9
$DIMEXO
 40
0.0625
  9
$DIMDLI
 40
1.672
  9
$DIMEXE
 40
0.125
  9
$DIMCEN
 40
0.396
  9
$DIMLFAC
 40
1.0
  9
$DIMBLK
  1
_FILLED
  9
$DIMTXT
 40
0.15625
  9
$AUNITS
 70
0
  9
$PDMODE
 70
3
  9
$PDSIZE
 40
0.3125
  9
$TILEMODE
 70
1
  0
ENDSEC
  0
SECTION
  2
TABLES
  0
TABLE
  2
LTYPE
 70
6
  0
LTYPE
  2
BYBLOCK
 70
0
  3

 72
65
 73
0
 40
0.0
  0
LTYPE
  2
BYLAYER
 70
0
  3

 72
65
 73
0
 40
0.0
  0
LTYPE
  2
CONTINUOUS
 70
64
  3
Solid line
 72
65
 73
0
 40
0.0
  0
LTYPE
  2
CENTER
 70
64
  3
____ _ ____ _ ____ _ ____ _ ____ _ ____ _ ____
 72
65
 73
4
 40
0.6
 49
0.375
 49
-0.075
 49
0.075
 49
-0.075
  0
LTYPE
  2
HIDDEN
 70
64
  3
- - - - - - - - - - - - - - - - - - - -
 72
65
 73
2
 40
0.2
 49
0.1
 49
-0.1
  0
LTYPE
  2
PHANTOM
 70
64
  3
_____ _ _ _____ _ _ _____ _ _ _____
 72
65
 73
6
 40
0.8
 49
0.45
 49
-0.05
 49
0.1
 49
-0.05
 49
0.1
 49
-0.05
  0
LTYPE
  2
DOT
 70
64
  3
. . . . . . . . . . . . . . . . . . . .
 72
65
 73
2
 40
0.2
 49
0.1
 49
-0.1
  0
LTYPE
  2
DASHED
 70
64
  3
- - - - - - - - - - - - - - - - - - - -
 72
65
 73
2
 40
0.2
 49
0.1
 49
-0.1
  0
ENDTAB
  0
TABLE
  2
LAYER
 70
36
  0
LAYER
  2
0
 70
0
 62
7
  6
CONTINUOUS
  0
LAYER
  2
DEFAULT_1
 70
0
 62
7
  6
CENTER
  0
LAYER
  2
DEFAULT_2
 70
0
 62
8
  6
HIDDEN
  0
LAYER
  2
DEFAULT_3
 70
0
 62
7
  6
PHANTOM
  0
LAYER
  2
DATUMS
 70
0
 62
7
  6
CONTINUOUS
  0
LAYER
  2
DATUM_AXIS
 70
0
 62
7
  6
CONTINUOUS
  0
LAYER
  2
DATUM_CSYS
 70
0
 62
7
  6
CONTINUOUS
  0
LAYER
  2
DATUM_PLANE
 70
0
 62
7
  6
CONTINUOUS
  0
LAYER
  2
DATUM_POINT
 70
0
 62
7
  6
CONTINUOUS
  0
LAYER
  2
_CURVE
 70
0
 62
7
  6
CONTINUOUS
  0
LAYER
  2
_SURFACE
 70
0
 62
7
  6
CONTINUOUS
  0
LAYER
  2
__REF_CURVE
 70
0
 62
7
  6
CONTINUOUS
  0
LAYER
  2
__REF_SURFACE
 70
0
 62
7
  6
CONTINUOUS
  0
LAYER
  2
___NOTE
 70
0
 62
7
  6
CONTINUOUS
  0
LAYER
  2
___SYMBOL
 70
0
 62
7
  6
CONTINUOUS
  0
ENDTAB
  0
TABLE
  2
STYLE
 70
1
  0
STYLE
  2
STANDARD
 70
0
 40
0.0
 41
0.8
 50
0.0
 71
0
 42
0.2
  3
txt
  4

  0
STYLE
  2
TEXTSTYLE_1
 70
0
 40
0.0
 41
0.8
 50
0.0
 71
0
 42
0.2
  3
gdt
  4

  0
STYLE
  2
TEXTSTYLE_2
 70
0
 40
0.0
 41
1.0
 50
0.0
 71
0
 42
0.2
  3
txt
  4

  0
ENDTAB
  0
ENDSEC
  0
SECTION
  2
BLOCKS
  0
BLOCK
  8
___SYMBOL
 62
2
  6
CONTINUOUS
  2
WHEN_PLOTTING_TEMPLATE_N_BL4
 70
64
 10
30.7319081177
 20
13.394286368
  0
TEXT
  8
___SYMBOL
 62
2
  6
CONTINUOUS
 10
27.4194078853
 20
14.605223953
  7
STANDARD
 40
0.156250011
  1
WHEN PLOTTING TEMPLATE FULL SIZE:
 41
0.8
 72
0
  0
TEXT
  8
___SYMBOL
 62
2
  6
CONTINUOUS
 10
27.4194078853
 20
14.3708489366
  7
STANDARD
 40
0.156250011
  1
Make sure horizontal and vertical dimensions
 41
0.8
 72
0
  0
TEXT
  8
___SYMBOL
 62
2
  6
CONTINUOUS
 10
27.4194078853
 20
14.1364739201
  7
STANDARD
 40
0.156250011
  1
match the dimensions labeled on the template.
 41
0.8
 72
0
  0
TEXT
  8
___SYMBOL
 62
2
  6
CONTINUOUS
 10
27.4194078853
 20
13.9020989037
  7
STANDARD
 40
0.156250011
  1
 
 41
0.8
 72
0
  0
TEXT
  8
___SYMBOL
 62
2
  6
CONTINUOUS
 10
27.4194078853
 20
13.6677238872
  7
STANDARD
 40
0.156250011
  1
AL TRAZAR LA PLANTILLA A ESCALA,
 41
0.8
 72
0
  0
TEXT
  8
___SYMBOL
 62
2
  6
CONTINUOUS
 10
27.4194078853
 20
13.4333488708
  7
STANDARD
 40
0.156250011
  1
asegúrese de que las dimensiones horizontales
 41
0.8
 72
0
  0
TEXT
  8
___SYMBOL
 62
2
  6
CONTINUOUS
 10
27.4194078853
 20
13.1989738543
  7
STANDARD
 40
0.156250011
  1
y verticales concuerden con las dimensiones marcadas
 41
0.8
 72
0
  0
TEXT
  8
___SYMBOL
 62
2
  6
CONTINUOUS
 10
27.4194078853
 20
12.9645988379
  7
STANDARD
 40
0.156250011
  1
en la plantilla.
 41
0.8
 72
0
  0
TEXT
  8
___SYMBOL
 62
2
  6
CONTINUOUS
 10
27.4194078853
 20
12.7302238214
  7
STANDARD
 40
0.156250011
  1
 
 41
0.8
 72
0
  0
TEXT
  8
___SYMBOL
 62
2
  6
CONTINUOUS
 10
27.4194078853
 20
12.495848805
  7
STANDARD
 40
0.156250011
  1
AU MOMENT DE TRACER LA DÉCOUPE À L'ÉCHELLE,
 41
0.8
 72
0
  0
TEXT
  8
___SYMBOL
 62
2
  6
CONTINUOUS
 10
27.4194078853
 20
12.2614737886
  7
STANDARD
 40
0.156250011
  1
Assurez vos que les dimensions horizotales et
 41
0.8
 72
0
  0
TEXT
  8
___SYMBOL
 62
2
  6
CONTINUOUS
 10
27.4194078853
 20
12.0270987721
  7
STANDARD
 40
0.156250011
  1
verticales correspondent avec les dimensions du plan.
 41
0.8
 72
0
  0
ENDBLK
  8
0
  6
BYBLOCK
 62
0
  0
BLOCK
  8
___SYMBOL
 62
2
  6
CONTINUOUS
  2
COPYRIGHT_YEAR_BL3
 70
64
 10
33.0745648586
 20
7.926765608
  0
TEXT
  8
___SYMBOL
 62
2
  6
CONTINUOUS
 10
32.7008745551
 20
7.891492108
  7
STANDARD
 40
0.0704997506
  1
2010 KOHLER CO.
 41
0.8
 72
0
  0
TEXT
  8
___SYMBOL
 62
7
  6
CONTINUOUS
 10
32.6208490892
 20
7.9079770499
  7
TEXTSTYLE_2
 40
0.0421873503
  1
C
 41
1.0
 72
0
  0
CIRCLE
  8
___SYMBOL
 62
7
  6
CONTINUOUS
 10
32.6350840386
 20
7.9292132245
 40
0.0328258835
  0
ENDBLK
  8
0
  6
BYBLOCK
 62
0
  0
BLOCK
  8
___SYMBOL
 62
2
  6
CONTINUOUS
  2
SCISSORS_BL2
 70
64
 10
8.9016916385
 20
15.4253802863
  0
LINE
  8
___SYMBOL
 62
7
  6
CONTINUOUS
 10
8.8863940151
 20
15.4843285149
 11
8.8303541285
 21
15.7611576658
  0
LINE
  8
___SYMBOL
 62
7
  6
CONTINUOUS
 10
8.8622041855
 20
15.4695779772
 11
8.8303541285
 21
15.7611576658
  0
LINE
  8
___SYMBOL
 62
7
  6
CONTINUOUS
 10
8.9000250678
 20
15.4364865189
 11
8.8992412608
 21
15.4619132224
  0
LINE
  8
___SYMBOL
 62
7
  6
CONTINUOUS
 10
8.9074301114
 20
15.4622532171
 11
8.9082193118
 21
15.4366515517
  0
LINE
  8
___SYMBOL
 62
7
  6
CONTINUOUS
 10
8.90447107
 20
15.550937942
 11
8.9983282648
 21
15.7562899253
  0
LINE
  8
___SYMBOL
 62
7
  6
CONTINUOUS
 10
8.8474166591
 20
15.4218028917
 11
8.863681206
 21
15.4525091757
  0
LINE
  8
___SYMBOL
 62
7
  6
CONTINUOUS
 10
8.9380446927
 20
15.455712241
 11
8.9983282648
 21
15.6485565474
  0
LINE
  8
___SYMBOL
 62
7
  6
CONTINUOUS
 10
8.923360385
 20
15.4973617081
 11
8.8863940151
 21
15.4843285149
  0
LINE
  8
___SYMBOL
 62
7
  6
CONTINUOUS
 10
8.9503507047
 20
15.4208083934
 11
8.9217073038
 21
15.351676132
  0
LINE
  8
___SYMBOL
 62
7
  6
CONTINUOUS
 10
8.8743375406
 20
15.3539319369
 11
8.8963761782
 21
15.3768315378
  0
LINE
  8
___SYMBOL
 62
7
  6
CONTINUOUS
 10
8.8303541285
 20
15.7611576658
 11
8.9503507047
 21
15.4208083934
  0
LINE
  8
___SYMBOL
 62
7
  6
CONTINUOUS
 10
8.8743375406
 20
15.3539319369
 11
8.8474166591
 21
15.4218028917
  0
ARC
  8
___SYMBOL
 62
7
  6
CONTINUOUS
 10
8.8260112651
 20
15.7024232363
 40
0.1805402131
 50
342.6406360869
 51
17.3593639131
  0
ARC
  8
___SYMBOL
 62
7
  6
CONTINUOUS
 10
9.0185301699
 20
15.4745070811
 40
0.1564036746
 50
181.8059909349
 51
231.752660067
  0
CIRCLE
  8
___SYMBOL
 62
7
  6
CONTINUOUS
 10
8.9038651763
 20
15.4493303272
 40
0.0134055901
  0
ARC
  8
___SYMBOL
 62
7
  6
CONTINUOUS
 10
8.9835940815
 20
15.2631715285
 40
0.0073044281
 50
185.3133793157
 51
314.0675041521
  0
ARC
  8
___SYMBOL
 62
7
  6
CONTINUOUS
 10
8.816263284
 20
15.2594112439
 40
0.0073043678
 50
233.3109272841
 51
359.4467240969
  0
POLYLINE
  8
___SYMBOL
 62
7
  6
CONTINUOUS
 66
1
 70
0
  0
VERTEX
  8
___SYMBOL
 62
7
  6
CONTINUOUS
 10
8.9647220174
 20
15.1458008433
  0
VERTEX
  8
___SYMBOL
 62
7
  6
CONTINUOUS
 10
8.963052361
 20
15.1509252969
  0
VERTEX
  8
___SYMBOL
 62
7
  6
CONTINUOUS
 10
8.9615235721
 20
15.1560902916
  0
VERTEX
  8
___SYMBOL
 62
7
  6
CONTINUOUS
 10
8.9601295427
 20
15.1612930171
  0
VERTEX
  8
___SYMBOL
 62
7
  6
CONTINUOUS
 10
8.9588641651
 20
15.1665306636
  0
VERTEX
  8
___SYMBOL
 62
7
  6
CONTINUOUS
 10
8.9577213311
 20
15.1718004209
  0
VERTEX
  8
___SYMBOL
 62
7
  6
CONTINUOUS
 10
8.956694933
 20
15.1770994792
  0
VERTEX
  8
___SYMBOL
 62
7
  6
CONTINUOUS
 10
8.9557788628
 20
15.1824250284
  0
VERTEX
  8
___SYMBOL
 62
7
  6
CONTINUOUS
 10
8.9549670126
 20
15.1877742585
  0
VERTEX
  8
___SYMBOL
 62
7
  6
CONTINUOUS
 10
8.9542532745
 20
15.1931443595
  0
VERTEX
  8
___SYMBOL
 62
7
  6
CONTINUOUS
 10
8.9536315406
 20
15.1985325214
  0
VERTEX
  8
___SYMBOL
 62
7
  6
CONTINUOUS
 10
8.9530957029
 20
15.2039359341
  0
VERTEX
  8
___SYMBOL
 62
7
  6
CONTINUOUS
 10
8.9526396536
 20
15.2093517878
  0
VERTEX
  8
___SYMBOL
 62
7
  6
CONTINUOUS
 10
8.9522572847
 20
15.2147772723
  0
VERTEX
  8
___SYMBOL
 62
7
  6
CONTINUOUS
 10
8.9519424883
 20
15.2202095777
  0
VERTEX
  8
___SYMBOL
 62
7
  6
CONTINUOUS
 10
8.9516891565
 20
15.225645894
  0
VERTEX
  8
___SYMBOL
 62
7
  6
CONTINUOUS
 10
8.9514911815
 20
15.2310834111
  0
VERTEX
  8
___SYMBOL
 62
7
  6
CONTINUOUS
 10
8.9513424552
 20
15.2365193191
  0
VERTEX
  8
___SYMBOL
 62
7
  6
CONTINUOUS
 10
8.9512368697
 20
15.241950808
  0
VERTEX
  8
___SYMBOL
 62
7
  6
CONTINUOUS
 10
8.9511683172
 20
15.2473750678
  0
VERTEX
  8
___SYMBOL
 62
7
  6
CONTINUOUS
 10
8.9511306898
 20
15.2527892883
  0
VERTEX
  8
___SYMBOL
 62
7
  6
CONTINUOUS
 10
8.9511155848
 20
15.2607481202
  0
VERTEX
  8
___SYMBOL
 62
7
  6
CONTINUOUS
 10
8.9511160434
 20
15.2686901254
  0
VERTEX
  8
___SYMBOL
 62
7
  6
CONTINUOUS
 10
8.9510937212
 20
15.2766263885
  0
VERTEX
  8
___SYMBOL
 62
7
  6
CONTINUOUS
 10
8.9510102735
 20
15.2845679939
  0
VERTEX
  8
___SYMBOL
 62
7
  6
CONTINUOUS
 10
8.9508273559
 20
15.2925260261
  0
VERTEX
  8
___SYMBOL
 62
7
  6
CONTINUOUS
 10
8.9506982789
 20
15.2961921278
  0
VERTEX
  8
___SYMBOL
 62
7
  6
CONTINUOUS
 10
8.9505299423
 20
15.2998605462
  0
VERTEX
  8
___SYMBOL
 62
7
  6
CONTINUOUS
 10
8.9503122099
 20
15.303527784
  0
VERTEX
  8
___SYMBOL
 62
7
  6
CONTINUOUS
 10
8.9500349457
 20
15.3071903441
  0
VERTEX
  8
___SYMBOL
 62
7
  6
CONTINUOUS
 10
8.9496880133
 20
15.3108447294
  0
VERTEX
  8
___SYMBOL
 62
7
  6
CONTINUOUS
 10
8.9492612768
 20
15.3144874428
  0
VERTEX
  8
___SYMBOL
 62
7
  6
CONTINUOUS
 10
8.9487445999
 20
15.318114987
  0
VERTEX
  8
___SYMBOL
 62
7
  6
CONTINUOUS
 10
8.9481278464
 20
15.3217238649
  0
VERTEX
  8
___SYMBOL
 62
7
  6
CONTINUOUS
 10
8.9474008803
 20
15.3253105793
  0
VERTEX
  8
___SYMBOL
 62
7
  6
CONTINUOUS
 10
8.9465535654
 20
15.3288716332
  0
VERTEX
  8
___SYMBOL
 62
7
  6
CONTINUOUS
 10
8.9455757655
 20
15.3324035293
  0
VERTEX
  8
___SYMBOL
 62
7
  6
CONTINUOUS
 10
8.9444573445
 20
15.3359027705
  0
VERTEX
  8
___SYMBOL
 62
7
  6
CONTINUOUS
 10
8.9439238365
 20
15.3374056117
  0
VERTEX
  8
___SYMBOL
 62
7
  6
CONTINUOUS
 10
8.943344288
 20
15.3388896135
  0
VERTEX
  8
___SYMBOL
 62
7
  6
CONTINUOUS
 10
8.942700948
 20
15.3403427206
  0
VERTEX
  8
___SYMBOL
 62
7
  6
CONTINUOUS
 10
8.9419760657
 20
15.3417528775
  0
VERTEX
  8
___SYMBOL
 62
7
  6
CONTINUOUS
 10
8.9411518901
 20
15.3431080288
  0
VERTEX
  8
___SYMBOL
 62
7
  6
CONTINUOUS
 10
8.9402106703
 20
15.344396119
  0
VERTEX
  8
___SYMBOL
 62
7
  6
CONTINUOUS
 10
8.939177976
 20
15.3455667557
  0
VERTEX
  8
___SYMBOL
 62
7
  6
CONTINUOUS
 10
8.9380324079
 20
15.3466575227
  0
VERTEX
  8
___SYMBOL
 62
7
  6
CONTINUOUS
 10
8.9367869934
 20
15.3476624465
  0
VERTEX
  8
___SYMBOL
 62
7
  6
CONTINUOUS
 10
8.9354547598
 20
15.3485755535
  0
VERTEX
  8
___SYMBOL
 62
7
  6
CONTINUOUS
 10
8.9340487344
 20
15.3493908703
  0
VERTEX
  8
___SYMBOL
 62
7
  6
CONTINUOUS
 10
8.9325819444
 20
15.3501024232
  0
VERTEX
  8
___SYMBOL
 62
7
  6
CONTINUOUS
 10
8.9310674173
 20
15.3507042389
  0
VERTEX
  8
___SYMBOL
 62
7
  6
CONTINUOUS
 10
8.9295181804
 20
15.3511903437
  0
VERTEX
  8
___SYMBOL
 62
7
  6
CONTINUOUS
 10
8.9279472609
 20
15.3515547641
  0
VERTEX
  8
___SYMBOL
 62
7
  6
CONTINUOUS
 10
8.9263676861
 20
15.3517915267
  0
VERTEX
  8
___SYMBOL
 62
7
  6
CONTINUOUS
 10
8.9247924835
 20
15.3518946579
  0
VERTEX
  8
___SYMBOL
 62
7
  6
CONTINUOUS
 10
8.9232346803
 20
15.3518581842
  0
VERTEX
  8
___SYMBOL
 62
7
  6
CONTINUOUS
 10
8.9217073038
 20
15.351676132
  0
SEQEND
  0
POLYLINE
  8
___SYMBOL
 62
7
  6
CONTINUOUS
 66
1
 70
0
  0
VERTEX
  8
___SYMBOL
 62
7
  6
CONTINUOUS
 10
8.9763210398
 20
15.2624951158
  0
VERTEX
  8
___SYMBOL
 62
7
  6
CONTINUOUS
 10
8.9760095969
 20
15.266326258
  0
VERTEX
  8
___SYMBOL
 62
7
  6
CONTINUOUS
 10
8.9757822168
 20
15.2701606571
  0
VERTEX
  8
___SYMBOL
 62
7
  6
CONTINUOUS
 10
8.9756168954
 20
15.2745134759
  0
VERTEX
  8
___SYMBOL
 62
7
  6
CONTINUOUS
 10
8.9755406827
 20
15.2788607341
  0
VERTEX
  8
___SYMBOL
 62
7
  6
CONTINUOUS
 10
8.9755430418
 20
15.283207382
  0
VERTEX
  8
___SYMBOL
 62
7
  6
CONTINUOUS
 10
8.9756134357
 20
15.2875583696
  0
VERTEX
  8
___SYMBOL
 62
7
  6
CONTINUOUS
 10
8.9757413272
 20
15.291918647
  0
VERTEX
  8
___SYMBOL
 62
7
  6
CONTINUOUS
 10
8.9759161795
 20
15.2962931643
  0
VERTEX
  8
___SYMBOL
 62
7
  6
CONTINUOUS
 10
8.9761274554
 20
15.3006868719
  0
VERTEX
  8
___SYMBOL
 62
7
  6
CONTINUOUS
 10
8.9763646179
 20
15.3051047196
  0
VERTEX
  8
___SYMBOL
 62
7
  6
CONTINUOUS
 10
8.9765220605
 20
15.3079044381
  0
VERTEX
  8
___SYMBOL
 62
7
  6
CONTINUOUS
 10
8.9766790014
 20
15.3107131348
  0
VERTEX
  8
___SYMBOL
 62
7
  6
CONTINUOUS
 10
8.9768288358
 20
15.3135282216
  0
VERTEX
  8
___SYMBOL
 62
7
  6
CONTINUOUS
 10
8.976964959
 20
15.3163471102
  0
VERTEX
  8
___SYMBOL
 62
7
  6
CONTINUOUS
 10
8.9770807662
 20
15.3191672125
  0
VERTEX
  8
___SYMBOL
 62
7
  6
CONTINUOUS
 10
8.9771696526
 20
15.3219859402
  0
VERTEX
  8
___SYMBOL
 62
7
  6
CONTINUOUS
 10
8.9772250135
 20
15.3248007052
  0
VERTEX
  8
___SYMBOL
 62
7
  6
CONTINUOUS
 10
8.977240244
 20
15.3276089192
  0
VERTEX
  8
___SYMBOL
 62
7
  6
CONTINUOUS
 10
8.9772087393
 20
15.3304079939
  0
VERTEX
  8
___SYMBOL
 62
7
  6
CONTINUOUS
 10
8.9771238949
 20
15.3331953413
  0
VERTEX
  8
___SYMBOL
 62
7
  6
CONTINUOUS
 10
8.9769791057
 20
15.3359683731
  0
VERTEX
  8
___SYMBOL
 62
7
  6
CONTINUOUS
 10
8.9767677671
 20
15.338724501
  0
VERTEX
  8
___SYMBOL
 62
7
  6
CONTINUOUS
 10
8.9764832743
 20
15.3414611369
  0
VERTEX
  8
___SYMBOL
 62
7
  6
CONTINUOUS
 10
8.9761190225
 20
15.3441756925
  0
VERTEX
  8
___SYMBOL
 62
7
  6
CONTINUOUS
 10
8.9756684069
 20
15.3468655797
  0
VERTEX
  8
___SYMBOL
 62
7
  6
CONTINUOUS
 10
8.9751248229
 20
15.3495282102
  0
VERTEX
  8
___SYMBOL
 62
7
  6
CONTINUOUS
 10
8.9744816655
 20
15.3521609959
  0
VERTEX
  8
___SYMBOL
 62
7
  6
CONTINUOUS
 10
8.97373233
 20
15.3547613485
  0
VERTEX
  8
___SYMBOL
 62
7
  6
CONTINUOUS
 10
8.9728702116
 20
15.3573266797
  0
VERTEX
  8
___SYMBOL
 62
7
  6
CONTINUOUS
 10
8.9719572521
 20
15.3596958928
  0
VERTEX
  8
___SYMBOL
 62
7
  6
CONTINUOUS
 10
8.9709493514
 20
15.3620351873
  0
VERTEX
  8
___SYMBOL
 62
7
  6
CONTINUOUS
 10
8.9698562721
 20
15.3643476287
  0
VERTEX
  8
___SYMBOL
 62
7
  6
CONTINUOUS
 10
8.9686877771
 20
15.3666362824
  0
VERTEX
  8
___SYMBOL
 62
7
  6
CONTINUOUS
 10
8.9674536291
 20
15.3689042135
  0
VERTEX
  8
___SYMBOL
 62
7
  6
CONTINUOUS
 10
8.9661635907
 20
15.3711544876
  0
VERTEX
  8
___SYMBOL
 62
7
  6
CONTINUOUS
 10
8.9648274249
 20
15.37339017
  0
VERTEX
  8
___SYMBOL
 62
7
  6
CONTINUOUS
 10
8.9634548943
 20
15.375614326
  0
VERTEX
  8
___SYMBOL
 62
7
  6
CONTINUOUS
 10
8.9620557617
 20
15.377830021
  0
VERTEX
  8
___SYMBOL
 62
7
  6
CONTINUOUS
 10
8.9606397897
 20
15.3800403204
  0
VERTEX
  8
___SYMBOL
 62
7
  6
CONTINUOUS
 10
8.9596195676
 20
15.3816265014
  0
VERTEX
  8
___SYMBOL
 62
7
  6
CONTINUOUS
 10
8.9586085963
 20
15.383215829
  0
VERTEX
  8
___SYMBOL
 62
7
  6
CONTINUOUS
 10
8.9576197762
 20
15.3848126514
  0
VERTEX
  8
___SYMBOL
 62
7
  6
CONTINUOUS
 10
8.9566660074
 20
15.3864213169
  0
VERTEX
  8
___SYMBOL
 62
7
  6
CONTINUOUS
 10
8.9557601903
 20
15.3880461738
  0
VERTEX
  8
___SYMBOL
 62
7
  6
CONTINUOUS
 10
8.9549152249
 20
15.3896915703
  0
VERTEX
  8
___SYMBOL
 62
7
  6
CONTINUOUS
 10
8.9541440117
 20
15.3913618546
  0
VERTEX
  8
___SYMBOL
 62
7
  6
CONTINUOUS
 10
8.9534594508
 20
15.3930613752
  0
VERTEX
  8
___SYMBOL
 62
7
  6
CONTINUOUS
 10
8.9528744425
 20
15.3947944801
  0
VERTEX
  8
___SYMBOL
 62
7
  6
CONTINUOUS
 10
8.9524243079
 20
15.3964521842
  0
VERTEX
  8
___SYMBOL
 62
7
  6
CONTINUOUS
 10
8.9520621306
 20
15.3981383261
  0
VERTEX
  8
___SYMBOL
 62
7
  6
CONTINUOUS
 10
8.951777037
 20
15.3998480059
  0
VERTEX
  8
___SYMBOL
 62
7
  6
CONTINUOUS
 10
8.9515581531
 20
15.4015763234
  0
VERTEX
  8
___SYMBOL
 62
7
  6
CONTINUOUS
 10
8.9513946052
 20
15.4033183788
  0
VERTEX
  8
___SYMBOL
 62
7
  6
CONTINUOUS
 10
8.9512755195
 20
15.4050692719
  0
VERTEX
  8
___SYMBOL
 62
7
  6
CONTINUOUS
 10
8.9511900222
 20
15.4068241028
  0
VERTEX
  8
___SYMBOL
 62
7
  6
CONTINUOUS
 10
8.9511272394
 20
15.4085779715
  0
VERTEX
  8
___SYMBOL
 62
7
  6
CONTINUOUS
 10
8.9510675239
 20
15.4106341733
  0
VERTEX
  8
___SYMBOL
 62
7
  6
CONTINUOUS
 10
8.9510052172
 20
15.4126826906
  0
VERTEX
  8
___SYMBOL
 62
7
  6
CONTINUOUS
 10
8.9509213506
 20
15.4147239474
  0
VERTEX
  8
___SYMBOL
 62
7
  6
CONTINUOUS
 10
8.9507969554
 20
15.4167583676
  0
VERTEX
  8
___SYMBOL
 62
7
  6
CONTINUOUS
 10
8.950613063
 20
15.4187863749
  0
VERTEX
  8
___SYMBOL
 62
7
  6
CONTINUOUS
 10
8.9503507047
 20
15.4208083934
  0
SEQEND
  0
POLYLINE
  8
___SYMBOL
 62
7
  6
CONTINUOUS
 66
1
 70
0
  0
VERTEX
  8
___SYMBOL
 62
7
  6
CONTINUOUS
 10
8.8450060201
 20
15.165129135
  0
VERTEX
  8
___SYMBOL
 62
7
  6
CONTINUOUS
 10
8.8460044997
 20
15.1693752506
  0
VERTEX
  8
___SYMBOL
 62
7
  6
CONTINUOUS
 10
8.8468811089
 20
15.173645851
  0
VERTEX
  8
___SYMBOL
 62
7
  6
CONTINUOUS
 10
8.8476427346
 20
15.1779387125
  0
VERTEX
  8
___SYMBOL
 62
7
  6
CONTINUOUS
 10
8.8482962637
 20
15.1822516118
  0
VERTEX
  8
___SYMBOL
 62
7
  6
CONTINUOUS
 10
8.8488485828
 20
15.1865823254
  0
VERTEX
  8
___SYMBOL
 62
7
  6
CONTINUOUS
 10
8.8493065789
 20
15.1909286298
  0
VERTEX
  8
___SYMBOL
 62
7
  6
CONTINUOUS
 10
8.8496771388
 20
15.1952883016
  0
VERTEX
  8
___SYMBOL
 62
7
  6
CONTINUOUS
 10
8.8499671492
 20
15.1996591173
  0
VERTEX
  8
___SYMBOL
 62
7
  6
CONTINUOUS
 10
8.8501834969
 20
15.2040388535
  0
VERTEX
  8
___SYMBOL
 62
7
  6
CONTINUOUS
 10
8.8503330689
 20
15.2084252866
  0
VERTEX
  8
___SYMBOL
 62
7
  6
CONTINUOUS
 10
8.8504227518
 20
15.2128161933
  0
VERTEX
  8
___SYMBOL
 62
7
  6
CONTINUOUS
 10
8.8504594325
 20
15.21720935
  0
VERTEX
  8
___SYMBOL
 62
7
  6
CONTINUOUS
 10
8.8504499978
 20
15.2216025333
  0
VERTEX
  8
___SYMBOL
 62
7
  6
CONTINUOUS
 10
8.8503745532
 20
15.2276642674
  0
VERTEX
  8
___SYMBOL
 62
7
  6
CONTINUOUS
 10
8.8502461096
 20
15.2337202815
  0
VERTEX
  8
___SYMBOL
 62
7
  6
CONTINUOUS
 10
8.8500864363
 20
15.2397690429
  0
VERTEX
  8
___SYMBOL
 62
7
  6
CONTINUOUS
 10
8.8499173029
 20
15.2458090186
  0
VERTEX
  8
___SYMBOL
 62
7
  6
CONTINUOUS
 10
8.8497604788
 20
15.2518386758
  0
VERTEX
  8
___SYMBOL
 62
7
  6
CONTINUOUS
 10
8.8496377333
 20
15.2578564818
  0
VERTEX
  8
___SYMBOL
 62
7
  6
CONTINUOUS
 10
8.849570836
 20
15.2638609036
  0
VERTEX
  8
___SYMBOL
 62
7
  6
CONTINUOUS
 10
8.8495815561
 20
15.2698504086
  0
VERTEX
  8
___SYMBOL
 62
7
  6
CONTINUOUS
 10
8.8496916632
 20
15.2758234637
  0
VERTEX
  8
___SYMBOL
 62
7
  6
CONTINUOUS
 10
8.8499418541
 20
15.2823365562
  0
VERTEX
  8
___SYMBOL
 62
7
  6
CONTINUOUS
 10
8.8503077377
 20
15.2888475051
  0
VERTEX
  8
___SYMBOL
 62
7
  6
CONTINUOUS
 10
8.8507601958
 20
15.2953756607
  0
VERTEX
  8
___SYMBOL
 62
7
  6
CONTINUOUS
 10
8.8512701101
 20
15.3019403729
  0
VERTEX
  8
___SYMBOL
 62
7
  6
CONTINUOUS
 10
8.8518083624
 20
15.3085609919
  0
VERTEX
  8
___SYMBOL
 62
7
  6
CONTINUOUS
 10
8.8523458346
 20
15.3152568676
  0
VERTEX
  8
___SYMBOL
 62
7
  6
CONTINUOUS
 10
8.8525044293
 20
15.3172834678
  0
VERTEX
  8
___SYMBOL
 62
7
  6
CONTINUOUS
 10
8.8526701558
 20
15.3193136974
  0
VERTEX
  8
___SYMBOL
 62
7
  6
CONTINUOUS
 10
8.8528528395
 20
15.3213426613
  0
VERTEX
  8
___SYMBOL
 62
7
  6
CONTINUOUS
 10
8.8530623063
 20
15.3233654646
  0
VERTEX
  8
___SYMBOL
 62
7
  6
CONTINUOUS
 10
8.8533083816
 20
15.3253772121
  0
VERTEX
  8
___SYMBOL
 62
7
  6
CONTINUOUS
 10
8.8536008913
 20
15.3273730088
  0
VERTEX
  8
___SYMBOL
 62
7
  6
CONTINUOUS
 10
8.8539496608
 20
15.3293479597
  0
VERTEX
  8
___SYMBOL
 62
7
  6
CONTINUOUS
 10
8.8543645159
 20
15.3312971698
  0
VERTEX
  8
___SYMBOL
 62
7
  6
CONTINUOUS
 10
8.8548552822
 20
15.3332157439
  0
VERTEX
  8
___SYMBOL
 62
7
  6
CONTINUOUS
 10
8.8554317853
 20
15.3350987871
  0
VERTEX
  8
___SYMBOL
 62
7
  6
CONTINUOUS
 10
8.856103851
 20
15.3369414042
  0
VERTEX
  8
___SYMBOL
 62
7
  6
CONTINUOUS
 10
8.8568813048
 20
15.3387387003
  0
VERTEX
  8
___SYMBOL
 62
7
  6
CONTINUOUS
 10
8.8577739724
 20
15.3404857803
  0
VERTEX
  8
___SYMBOL
 62
7
  6
CONTINUOUS
 10
8.8587916794
 20
15.3421777492
  0
VERTEX
  8
___SYMBOL
 62
7
  6
CONTINUOUS
 10
8.8598154419
 20
15.343642322
  0
VERTEX
  8
___SYMBOL
 62
7
  6
CONTINUOUS
 10
8.8609398944
 20
15.3450509589
  0
VERTEX
  8
___SYMBOL
 62
7
  6
CONTINUOUS
 10
8.8621574401
 20
15.3463959044
  0
VERTEX
  8
___SYMBOL
 62
7
  6
CONTINUOUS
 10
8.8634604822
 20
15.3476694032
  0
VERTEX
  8
___SYMBOL
 62
7
  6
CONTINUOUS
 10
8.8648414238
 20
15.3488637
  0
VERTEX
  8
___SYMBOL
 62
7
  6
CONTINUOUS
 10
8.8662926681
 20
15.3499710393
  0
VERTEX
  8
___SYMBOL
 62
7
  6
CONTINUOUS
 10
8.8678066182
 20
15.3509836658
  0
VERTEX
  8
___SYMBOL
 62
7
  6
CONTINUOUS
 10
8.8693756774
 20
15.3518938242
  0
VERTEX
  8
___SYMBOL
 62
7
  6
CONTINUOUS
 10
8.8709922487
 20
15.3526937591
  0
VERTEX
  8
___SYMBOL
 62
7
  6
CONTINUOUS
 10
8.8726487354
 20
15.3533757151
  0
VERTEX
  8
___SYMBOL
 62
7
  6
CONTINUOUS
 10
8.8743375406
 20
15.3539319369
  0
SEQEND
  0
POLYLINE
  8
___SYMBOL
 62
7
  6
CONTINUOUS
 66
1
 70
0
  0
VERTEX
  8
___SYMBOL
 62
7
  6
CONTINUOUS
 10
8.8235673113
 20
15.2593407104
  0
VERTEX
  8
___SYMBOL
 62
7
  6
CONTINUOUS
 10
8.8235871159
 20
15.2668208495
  0
VERTEX
  8
___SYMBOL
 62
7
  6
CONTINUOUS
 10
8.8235291163
 20
15.2743067943
  0
VERTEX
  8
___SYMBOL
 62
7
  6
CONTINUOUS
 10
8.8234613011
 20
15.27974275
  0
VERTEX
  8
___SYMBOL
 62
7
  6
CONTINUOUS
 10
8.8233880049
 20
15.2851863627
  0
VERTEX
  8
___SYMBOL
 62
7
  6
CONTINUOUS
 10
8.8233232538
 20
15.2906336059
  0
VERTEX
  8
___SYMBOL
 62
7
  6
CONTINUOUS
 10
8.823281074
 20
15.2960804529
  0
VERTEX
  8
___SYMBOL
 62
7
  6
CONTINUOUS
 10
8.8232754915
 20
15.3015228772
  0
VERTEX
  8
___SYMBOL
 62
7
  6
CONTINUOUS
 10
8.8233205323
 20
15.3069568521
  0
VERTEX
  8
___SYMBOL
 62
7
  6
CONTINUOUS
 10
8.8234302226
 20
15.3123783509
  0
VERTEX
  8
___SYMBOL
 62
7
  6
CONTINUOUS
 10
8.8236185885
 20
15.317783347
  0
VERTEX
  8
___SYMBOL
 62
7
  6
CONTINUOUS
 10
8.8238996559
 20
15.3231678138
  0
VERTEX
  8
___SYMBOL
 62
7
  6
CONTINUOUS
 10
8.824287451
 20
15.3285277247
  0
VERTEX
  8
___SYMBOL
 62
7
  6
CONTINUOUS
 10
8.8245617386
 20
15.3315644628
  0
VERTEX
  8
___SYMBOL
 62
7
  6
CONTINUOUS
 10
8.8248819317
 20
15.3345927707
  0
VERTEX
  8
___SYMBOL
 62
7
  6
CONTINUOUS
 10
8.8252548611
 20
15.3376134674
  0
VERTEX
  8
___SYMBOL
 62
7
  6
CONTINUOUS
 10
8.8256873579
 20
15.3406273716
  0
VERTEX
  8
___SYMBOL
 62
7
  6
CONTINUOUS
 10
8.8261862529
 20
15.3436353023
  0
VERTEX
  8
___SYMBOL
 62
7
  6
CONTINUOUS
 10
8.8267583772
 20
15.3466380783
  0
VERTEX
  8
___SYMBOL
 62
7
  6
CONTINUOUS
 10
8.8274105617
 20
15.3496365183
  0
VERTEX
  8
___SYMBOL
 62
7
  6
CONTINUOUS
 10
8.8281496374
 20
15.3526314414
  0
VERTEX
  8
___SYMBOL
 62
7
  6
CONTINUOUS
 10
8.8289824353
 20
15.3556236663
  0
VERTEX
  8
___SYMBOL
 62
7
  6
CONTINUOUS
 10
8.8299157862
 20
15.3586140119
  0
VERTEX
  8
___SYMBOL
 62
7
  6
CONTINUOUS
 10
8.8309565213
 20
15.361603297
  0
VERTEX
  8
___SYMBOL
 62
7
  6
CONTINUOUS
 10
8.8321114713
 20
15.3645923406
  0
VERTEX
  8
___SYMBOL
 62
7
  6
CONTINUOUS
 10
8.8333874673
 20
15.3675819613
  0
VERTEX
  8
___SYMBOL
 62
7
  6
CONTINUOUS
 10
8.8341167384
 20
15.3691726601
  0
VERTEX
  8
___SYMBOL
 62
7
  6
CONTINUOUS
 10
8.8348764914
 20
15.3707635609
  0
VERTEX
  8
___SYMBOL
 62
7
  6
CONTINUOUS
 10
8.835661027
 20
15.3723544705
  0
VERTEX
  8
___SYMBOL
 62
7
  6
CONTINUOUS
 10
8.8364646459
 20
15.3739451959
  0
VERTEX
  8
___SYMBOL
 62
7
  6
CONTINUOUS
 10
8.8372816488
 20
15.375535544
  0
VERTEX
  8
___SYMBOL
 62
7
  6
CONTINUOUS
 10
8.8381063364
 20
15.3771253219
  0
VERTEX
  8
___SYMBOL
 62
7
  6
CONTINUOUS
 10
8.8389330093
 20
15.3787143363
  0
VERTEX
  8
___SYMBOL
 62
7
  6
CONTINUOUS
 10
8.8397559684
 20
15.3803023943
  0
VERTEX
  8
___SYMBOL
 62
7
  6
CONTINUOUS
 10
8.8405695144
 20
15.3818893027
  0
VERTEX
  8
___SYMBOL
 62
7
  6
CONTINUOUS
 10
8.8413679478
 20
15.3834748686
  0
VERTEX
  8
___SYMBOL
 62
7
  6
CONTINUOUS
 10
8.8421455695
 20
15.3850588987
  0
VERTEX
  8
___SYMBOL
 62
7
  6
CONTINUOUS
 10
8.8428966802
 20
15.3866412002
  0
VERTEX
  8
___SYMBOL
 62
7
  6
CONTINUOUS
 10
8.8436155804
 20
15.3882215798
  0
VERTEX
  8
___SYMBOL
 62
7
  6
CONTINUOUS
 10
8.8442965711
 20
15.3897998446
  0
VERTEX
  8
___SYMBOL
 62
7
  6
CONTINUOUS
 10
8.8449339528
 20
15.3913758015
  0
VERTEX
  8
___SYMBOL
 62
7
  6
CONTINUOUS
 10
8.8455220263
 20
15.3929492573
  0
VERTEX
  8
___SYMBOL
 62
7
  6
CONTINUOUS
 10
8.8460550923
 20
15.3945200191
  0
VERTEX
  8
___SYMBOL
 62
7
  6
CONTINUOUS
 10
8.8465274515
 20
15.3960878938
  0
VERTEX
  8
___SYMBOL
 62
7
  6
CONTINUOUS
 10
8.8469334046
 20
15.3976526882
  0
VERTEX
  8
___SYMBOL
 62
7
  6
CONTINUOUS
 10
8.8472672522
 20
15.3992142094
  0
VERTEX
  8
___SYMBOL
 62
7
  6
CONTINUOUS
 10
8.8475232952
 20
15.4007722643
  0
VERTEX
  8
___SYMBOL
 62
7
  6
CONTINUOUS
 10
8.8476958342
 20
15.4023266598
  0
VERTEX
  8
___SYMBOL
 62
7
  6
CONTINUOUS
 10
8.84777917
 20
15.4038772028
  0
VERTEX
  8
___SYMBOL
 62
7
  6
CONTINUOUS
 10
8.8477676032
 20
15.4054237002
  0
VERTEX
  8
___SYMBOL
 62
7
  6
CONTINUOUS
 10
8.8476554345
 20
15.4069659591
  0
VERTEX
  8
___SYMBOL
 62
7
  6
CONTINUOUS
 10
8.8474369647
 20
15.4085037863
  0
VERTEX
  8
___SYMBOL
 62
7
  6
CONTINUOUS
 10
8.8471064944
 20
15.4100369887
  0
VERTEX
  8
___SYMBOL
 62
7
  6
CONTINUOUS
 10
8.8466583244
 20
15.4115653734
  0
VERTEX
  8
___SYMBOL
 62
7
  6
CONTINUOUS
 10
8.846401986
 20
15.4123020848
  0
VERTEX
  8
___SYMBOL
 62
7
  6
CONTINUOUS
 10
8.8461384913
 20
15.4130436187
  0
VERTEX
  8
___SYMBOL
 62
7
  6
CONTINUOUS
 10
8.8458894157
 20
15.4137959642
  0
VERTEX
  8
___SYMBOL
 62
7
  6
CONTINUOUS
 10
8.8456763343
 20
15.4145651105
  0
VERTEX
  8
___SYMBOL
 62
7
  6
CONTINUOUS
 10
8.8455208224
 20
15.4153570468
  0
VERTEX
  8
___SYMBOL
 62
7
  6
CONTINUOUS
 10
8.8454433761
 20
15.4161272534
  0
VERTEX
  8
___SYMBOL
 62
7
  6
CONTINUOUS
 10
8.8454367951
 20
15.4169113214
  0
VERTEX
  8
___SYMBOL
 62
7
  6
CONTINUOUS
 10
8.8455015759
 20
15.4176975244
  0
VERTEX
  8
___SYMBOL
 62
7
  6
CONTINUOUS
 10
8.8456382149
 20
15.4184741358
  0
VERTEX
  8
___SYMBOL
 62
7
  6
CONTINUOUS
 10
8.8458472085
 20
15.4192294292
  0
VERTEX
  8
___SYMBOL
 62
7
  6
CONTINUOUS
 10
8.8461290533
 20
15.419951678
  0
VERTEX
  8
___SYMBOL
 62
7
  6
CONTINUOUS
 10
8.8464842457
 20
15.4206291557
  0
VERTEX
  8
___SYMBOL
 62
7
  6
CONTINUOUS
 10
8.8469132821
 20
15.4212501358
  0
VERTEX
  8
___SYMBOL
 62
7
  6
CONTINUOUS
 10
8.8474166591
 20
15.4218028917
  0
SEQEND
  0
POLYLINE
  8
___SYMBOL
 62
7
  6
CONTINUOUS
 66
1
 70
0
  0
VERTEX
  8
___SYMBOL
 62
7
  6
CONTINUOUS
 10
9.0275708013
 20
15.1199290539
  0
VERTEX
  8
___SYMBOL
 62
7
  6
CONTINUOUS
 10
9.0380704043
 20
15.1219732564
  0
VERTEX
  8
___SYMBOL
 62
7
  6
CONTINUOUS
 10
9.048085317
 20
15.1270942601
  0
VERTEX
  8
___SYMBOL
 62
7
  6
CONTINUOUS
 10
9.0567381861
 20
15.1348433575
  0
VERTEX
  8
___SYMBOL
 62
7
  6
CONTINUOUS
 10
9.0639231625
 20
15.1451260134
  0
VERTEX
  8
___SYMBOL
 62
7
  6
CONTINUOUS
 10
9.0690108076
 20
15.1570410802
  0
VERTEX
  8
___SYMBOL
 62
7
  6
CONTINUOUS
 10
9.0719388367
 20
15.1704431685
  0
VERTEX
  8
___SYMBOL
 62
7
  6
CONTINUOUS
 10
9.0724508204
 20
15.1841578474
  0
VERTEX
  8
___SYMBOL
 62
7
  6
CONTINUOUS
 10
9.0705999459
 20
15.1977567045
  0
VERTEX
  8
___SYMBOL
 62
7
  6
CONTINUOUS
 10
9.0663751324
 20
15.2108081198
  0
VERTEX
  8
___SYMBOL
 62
7
  6
CONTINUOUS
 10
9.0601465899
 20
15.2221685717
  0
VERTEX
  8
___SYMBOL
 62
7
  6
CONTINUOUS
 10
9.0519903666
 20
15.2316991439
  0
VERTEX
  8
___SYMBOL
 62
7
  6
CONTINUOUS
 10
9.0426211051
 20
15.238564823
  0
VERTEX
  8
___SYMBOL
 62
7
  6
CONTINUOUS
 10
9.0321532861
 20
15.2426818043
  0
VERTEX
  8
___SYMBOL
 62
7
  6
CONTINUOUS
 10
9.0215041528
 20
15.2436892675
  0
VERTEX
  8
___SYMBOL
 62
7
  6
CONTINUOUS
 10
9.0110046081
 20
15.2416451233
  0
VERTEX
  8
___SYMBOL
 62
7
  6
CONTINUOUS
 10
9.0009896371
 20
15.2365241196
  0
VERTEX
  8
___SYMBOL
 62
7
  6
CONTINUOUS
 10
8.9923368263
 20
15.2287749639
  0
VERTEX
  8
___SYMBOL
 62
7
  6
CONTINUOUS
 10
8.9851517916
 20
15.218492308
  0
VERTEX
  8
___SYMBOL
 62
7
  6
CONTINUOUS
 10
8.9800642048
 20
15.2065772412
  0
VERTEX
  8
___SYMBOL
 62
7
  6
CONTINUOUS
 10
8.9771361174
 20
15.1931751529
  0
VERTEX
  8
___SYMBOL
 62
7
  6
CONTINUOUS
 10
8.9766241336
 20
15.179460474
  0
VERTEX
  8
___SYMBOL
 62
7
  6
CONTINUOUS
 10
8.9784750082
 20
15.1658616169
  0
VERTEX
  8
___SYMBOL
 62
7
  6
CONTINUOUS
 10
8.9826998217
 20
15.1528102016
  0
VERTEX
  8
___SYMBOL
 62
7
  6
CONTINUOUS
 10
8.9889284224
 20
15.1414497497
  0
VERTEX
  8
___SYMBOL
 62
7
  6
CONTINUOUS
 10
8.9970846458
 20
15.1319191775
  0
VERTEX
  8
___SYMBOL
 62
7
  6
CONTINUOUS
 10
9.0064539072
 20
15.1250534985
  0
VERTEX
  8
___SYMBOL
 62
7
  6
CONTINUOUS
 10
9.016921668
 20
15.1209365754
  0
VERTEX
  8
___SYMBOL
 62
7
  6
CONTINUOUS
 10
9.0275708013
 20
15.1199290539
  0
SEQEND
  0
POLYLINE
  8
___SYMBOL
 62
7
  6
CONTINUOUS
 66
1
 70
0
  0
VERTEX
  8
___SYMBOL
 62
7
  6
CONTINUOUS
 10
8.9647220174
 20
15.1458008433
  0
VERTEX
  8
___SYMBOL
 62
7
  6
CONTINUOUS
 10
8.9660259836
 20
15.1415931556
  0
VERTEX
  8
___SYMBOL
 62
7
  6
CONTINUOUS
 10
8.9674768684
 20
15.1374864478
  0
VERTEX
  8
___SYMBOL
 62
7
  6
CONTINUOUS
 10
8.9690710288
 20
15.1334910315
  0
VERTEX
  8
___SYMBOL
 62
7
  6
CONTINUOUS
 10
8.9708044619
 20
15.1296169389
  0
VERTEX
  8
___SYMBOL
 62
7
  6
CONTINUOUS
 10
8.9726728152
 20
15.1258738976
  0
VERTEX
  8
___SYMBOL
 62
7
  6
CONTINUOUS
 10
8.9746713974
 20
15.1222713062
  0
VERTEX
  8
___SYMBOL
 62
7
  6
CONTINUOUS
 10
8.9767951902
 20
15.1188182105
  0
VERTEX
  8
___SYMBOL
 62
7
  6
CONTINUOUS
 10
8.9790388608
 20
15.1155232811
  0
VERTEX
  8
___SYMBOL
 62
7
  6
CONTINUOUS
 10
8.9813967755
 20
15.1123947914
  0
VERTEX
  8
___SYMBOL
 62
7
  6
CONTINUOUS
 10
8.9838630139
 20
15.1094405966
  0
VERTEX
  8
___SYMBOL
 62
7
  6
CONTINUOUS
 10
8.9864313832
 20
15.1066681147
  0
VERTEX
  8
___SYMBOL
 62
7
  6
CONTINUOUS
 10
8.9890954345
 20
15.1040843071
  0
VERTEX
  8
___SYMBOL
 62
7
  6
CONTINUOUS
 10
8.9918484785
 20
15.1016956617
  0
VERTEX
  8
___SYMBOL
 62
7
  6
CONTINUOUS
 10
8.9946836026
 20
15.0995081762
  0
VERTEX
  8
___SYMBOL
 62
7
  6
CONTINUOUS
 10
8.9975936878
 20
15.0975273432
  0
VERTEX
  8
___SYMBOL
 62
7
  6
CONTINUOUS
 10
9.0005714273
 20
15.0957581364
  0
VERTEX
  8
___SYMBOL
 62
7
  6
CONTINUOUS
 10
9.0036093439
 20
15.0942049982
  0
VERTEX
  8
___SYMBOL
 62
7
  6
CONTINUOUS
 10
9.0066998098
 20
15.0928718285
  0
VERTEX
  8
___SYMBOL
 62
7
  6
CONTINUOUS
 10
9.009835065
 20
15.0917619748
  0
VERTEX
  8
___SYMBOL
 62
7
  6
CONTINUOUS
 10
9.013007237
 20
15.0908782238
  0
VERTEX
  8
___SYMBOL
 62
7
  6
CONTINUOUS
 10
9.0162083607
 20
15.0902227945
  0
VERTEX
  8
___SYMBOL
 62
7
  6
CONTINUOUS
 10
9.0194303983
 20
15.0897973328
  0
VERTEX
  8
___SYMBOL
 62
7
  6
CONTINUOUS
 10
9.0226652595
 20
15.0896029068
  0
VERTEX
  8
___SYMBOL
 62
7
  6
CONTINUOUS
 10
9.0259048218
 20
15.0896400049
  0
VERTEX
  8
___SYMBOL
 62
7
  6
CONTINUOUS
 10
9.0291409507
 20
15.0899085338
  0
VERTEX
  8
___SYMBOL
 62
7
  6
CONTINUOUS
 10
9.0323655207
 20
15.0904078194
  0
VERTEX
  8
___SYMBOL
 62
7
  6
CONTINUOUS
 10
9.035570435
 20
15.0911366078
  0
VERTEX
  8
___SYMBOL
 62
7
  6
CONTINUOUS
 10
9.0387476462
 20
15.0920930693
  0
VERTEX
  8
___SYMBOL
 62
7
  6
CONTINUOUS
 10
9.0418891767
 20
15.0932748021
  0
VERTEX
  8
___SYMBOL
 62
7
  6
CONTINUOUS
 10
9.0449871381
 20
15.094678839
  0
VERTEX
  8
___SYMBOL
 62
7
  6
CONTINUOUS
 10
9.0480337518
 20
15.0963016546
  0
VERTEX
  8
___SYMBOL
 62
7
  6
CONTINUOUS
 10
9.0510213679
 20
15.0981391741
  0
VERTEX
  8
___SYMBOL
 62
7
  6
CONTINUOUS
 10
9.0539424847
 20
15.1001867835
  0
VERTEX
  8
___SYMBOL
 62
7
  6
CONTINUOUS
 10
9.0567897674
 20
15.1024393416
  0
VERTEX
  8
___SYMBOL
 62
7
  6
CONTINUOUS
 10
9.0595560666
 20
15.1048911921
  0
VERTEX
  8
___SYMBOL
 62
7
  6
CONTINUOUS
 10
9.0622344365
 20
15.1075361788
  0
VERTEX
  8
___SYMBOL
 62
7
  6
CONTINUOUS
 10
9.0648181518
 20
15.1103676602
  0
VERTEX
  8
___SYMBOL
 62
7
  6
CONTINUOUS
 10
9.0673007248
 20
15.1133785266
  0
VERTEX
  8
___SYMBOL
 62
7
  6
CONTINUOUS
 10
9.0696759221
 20
15.116561218
  0
VERTEX
  8
___SYMBOL
 62
7
  6
CONTINUOUS
 10
9.0719377797
 20
15.1199077428
  0
VERTEX
  8
___SYMBOL
 62
7
  6
CONTINUOUS
 10
9.0740806182
 20
15.123409698
  0
VERTEX
  8
___SYMBOL
 62
7
  6
CONTINUOUS
 10
9.0760990571
 20
15.1270582907
  0
VERTEX
  8
___SYMBOL
 62
7
  6
CONTINUOUS
 10
9.0779880282
 20
15.1308443592
  0
VERTEX
  8
___SYMBOL
 62
7
  6
CONTINUOUS
 10
9.0797427883
 20
15.1347583971
  0
VERTEX
  8
___SYMBOL
 62
7
  6
CONTINUOUS
 10
9.0813589315
 20
15.1387905764
  0
VERTEX
  8
___SYMBOL
 62
7
  6
CONTINUOUS
 10
9.0828323997
 20
15.1429307727
  0
VERTEX
  8
___SYMBOL
 62
7
  6
CONTINUOUS
 10
9.0841594931
 20
15.1471685901
  0
VERTEX
  8
___SYMBOL
 62
7
  6
CONTINUOUS
 10
9.0853368794
 20
15.1514933878
  0
VERTEX
  8
___SYMBOL
 62
7
  6
CONTINUOUS
 10
9.0863616024
 20
15.1558943064
  0
VERTEX
  8
___SYMBOL
 62
7
  6
CONTINUOUS
 10
9.087231089
 20
15.1603602956
  0
VERTEX
  8
___SYMBOL
 62
7
  6
CONTINUOUS
 10
9.0879431559
 20
15.1648801415
  0
VERTEX
  8
___SYMBOL
 62
7
  6
CONTINUOUS
 10
9.0884960153
 20
15.1694424951
  0
VERTEX
  8
___SYMBOL
 62
7
  6
CONTINUOUS
 10
9.0888882789
 20
15.1740359007
  0
VERTEX
  8
___SYMBOL
 62
7
  6
CONTINUOUS
 10
9.0891189617
 20
15.1786488243
  0
VERTEX
  8
___SYMBOL
 62
7
  6
CONTINUOUS
 10
9.0891874846
 20
15.1832696834
  0
VERTEX
  8
___SYMBOL
 62
7
  6
CONTINUOUS
 10
9.0890936756
 20
15.1878868752
  0
VERTEX
  8
___SYMBOL
 62
7
  6
CONTINUOUS
 10
9.08883777
 20
15.1924888062
  0
VERTEX
  8
___SYMBOL
 62
7
  6
CONTINUOUS
 10
9.0884204106
 20
15.1970639214
  0
VERTEX
  8
___SYMBOL
 62
7
  6
CONTINUOUS
 10
9.0878426452
 20
15.2016007328
  0
VERTEX
  8
___SYMBOL
 62
7
  6
CONTINUOUS
 10
9.0871059246
 20
15.2060878488
  0
VERTEX
  8
___SYMBOL
 62
7
  6
CONTINUOUS
 10
9.0862120987
 20
15.2105140027
  0
VERTEX
  8
___SYMBOL
 62
7
  6
CONTINUOUS
 10
9.0851634118
 20
15.2148680804
  0
VERTEX
  8
___SYMBOL
 62
7
  6
CONTINUOUS
 10
9.083962497
 20
15.2191391494
  0
VERTEX
  8
___SYMBOL
 62
7
  6
CONTINUOUS
 10
9.0826123699
 20
15.2233164851
  0
VERTEX
  8
___SYMBOL
 62
7
  6
CONTINUOUS
 10
9.0811164205
 20
15.2273895987
  0
VERTEX
  8
___SYMBOL
 62
7
  6
CONTINUOUS
 10
9.0794784049
 20
15.2313482626
  0
VERTEX
  8
___SYMBOL
 62
7
  6
CONTINUOUS
 10
9.0777024363
 20
15.235182537
  0
VERTEX
  8
___SYMBOL
 62
7
  6
CONTINUOUS
 10
9.0757929738
 20
15.2388827943
  0
VERTEX
  8
___SYMBOL
 62
7
  6
CONTINUOUS
 10
9.0737548121
 20
15.2424397434
  0
VERTEX
  8
___SYMBOL
 62
7
  6
CONTINUOUS
 10
9.0715930689
 20
15.2458444529
  0
VERTEX
  8
___SYMBOL
 62
7
  6
CONTINUOUS
 10
9.0693131721
 20
15.249088374
  0
VERTEX
  8
___SYMBOL
 62
7
  6
CONTINUOUS
 10
9.0669208464
 20
15.2521633612
  0
VERTEX
  8
___SYMBOL
 62
7
  6
CONTINUOUS
 10
9.0644220988
 20
15.2550616935
  0
VERTEX
  8
___SYMBOL
 62
7
  6
CONTINUOUS
 10
9.0618232035
 20
15.2577760934
  0
VERTEX
  8
___SYMBOL
 62
7
  6
CONTINUOUS
 10
9.0591306862
 20
15.2602997452
  0
VERTEX
  8
___SYMBOL
 62
7
  6
CONTINUOUS
 10
9.0563513075
 20
15.2626263122
  0
VERTEX
  8
___SYMBOL
 62
7
  6
CONTINUOUS
 10
9.0534920464
 20
15.2647499524
  0
VERTEX
  8
___SYMBOL
 62
7
  6
CONTINUOUS
 10
9.0505600823
 20
15.2666653337
  0
VERTEX
  8
___SYMBOL
 62
7
  6
CONTINUOUS
 10
9.047562777
 20
15.2683676465
  0
VERTEX
  8
___SYMBOL
 62
7
  6
CONTINUOUS
 10
9.0445076568
 20
15.2698526165
  0
VERTEX
  8
___SYMBOL
 62
7
  6
CONTINUOUS
 10
9.0414023927
 20
15.271116515
  0
VERTEX
  8
___SYMBOL
 62
7
  6
CONTINUOUS
 10
9.0382547819
 20
15.2721561684
  0
VERTEX
  8
___SYMBOL
 62
7
  6
CONTINUOUS
 10
9.0350727279
 20
15.2729689663
  0
VERTEX
  8
___SYMBOL
 62
7
  6
CONTINUOUS
 10
9.0318642206
 20
15.2735528678
  0
VERTEX
  8
___SYMBOL
 62
7
  6
CONTINUOUS
 10
9.0286373163
 20
15.2739064067
  0
VERTEX
  8
___SYMBOL
 62
7
  6
CONTINUOUS
 10
9.0254001176
 20
15.2740286953
  0
VERTEX
  8
___SYMBOL
 62
7
  6
CONTINUOUS
 10
9.0221607529
 20
15.2739194265
  0
VERTEX
  8
___SYMBOL
 62
7
  6
CONTINUOUS
 10
9.018927356
 20
15.2735788748
  0
VERTEX
  8
___SYMBOL
 62
7
  6
CONTINUOUS
 10
9.0157080458
 20
15.2730078951
  0
VERTEX
  8
___SYMBOL
 62
7
  6
CONTINUOUS
 10
9.0125109058
 20
15.2722079213
  0
VERTEX
  8
___SYMBOL
 62
7
  6
CONTINUOUS
 10
9.0093439637
 20
15.271180962
  0
VERTEX
  8
___SYMBOL
 62
7
  6
CONTINUOUS
 10
9.0062151716
 20
15.2699295958
  0
VERTEX
  8
___SYMBOL
 62
7
  6
CONTINUOUS
 10
9.0031323857
 20
15.2684569648
  0
VERTEX
  8
___SYMBOL
 62
7
  6
CONTINUOUS
 10
9.0001033466
 20
15.2667667667
  0
VERTEX
  8
___SYMBOL
 62
7
  6
CONTINUOUS
 10
8.9971356601
 20
15.2648632456
  0
VERTEX
  8
___SYMBOL
 62
7
  6
CONTINUOUS
 10
8.9942367779
 20
15.2627511809
  0
VERTEX
  8
___SYMBOL
 62
7
  6
CONTINUOUS
 10
8.9914139787
 20
15.260435876
  0
VERTEX
  8
___SYMBOL
 62
7
  6
CONTINUOUS
 10
8.9886743506
 20
15.2579231444
  0
SEQEND
  0
POLYLINE
  8
___SYMBOL
 62
7
  6
CONTINUOUS
 66
1
 70
0
  0
VERTEX
  8
___SYMBOL
 62
7
  6
CONTINUOUS
 10
8.786370711
 20
15.1268107125
  0
VERTEX
  8
___SYMBOL
 62
7
  6
CONTINUOUS
 10
8.7963526151
 20
15.1295806967
  0
VERTEX
  8
___SYMBOL
 62
7
  6
CONTINUOUS
 10
8.8056352434
 20
15.1353816432
  0
VERTEX
  8
___SYMBOL
 62
7
  6
CONTINUOUS
 10
8.8134052191
 20
15.1437051258
  0
VERTEX
  8
___SYMBOL
 62
7
  6
CONTINUOUS
 10
8.8195676568
 20
15.1544495526
  0
VERTEX
  8
___SYMBOL
 62
7
  6
CONTINUOUS
 10
8.8235826089
 20
15.1666734776
  0
VERTEX
  8
___SYMBOL
 62
7
  6
CONTINUOUS
 10
8.8254009997
 20
15.1802276039
  0
VERTEX
  8
___SYMBOL
 62
7
  6
CONTINUOUS
 10
8.8248635013
 20
15.1939242039
  0
VERTEX
  8
___SYMBOL
 62
7
  6
CONTINUOUS
 10
8.8220537434
 20
15.2073403471
  0
VERTEX
  8
___SYMBOL
 62
7
  6
CONTINUOUS
 10
8.8169935083
 20
15.2200451718
  0
VERTEX
  8
___SYMBOL
 62
7
  6
CONTINUOUS
 10
8.8101261963
 20
15.2309256571
  0
VERTEX
  8
___SYMBOL
 62
7
  6
CONTINUOUS
 10
8.8015356412
 20
15.2398487188
  0
VERTEX
  8
___SYMBOL
 62
7
  6
CONTINUOUS
 10
8.7919746264
 20
15.2460325888
  0
VERTEX
  8
___SYMBOL
 62
7
  6
CONTINUOUS
 10
8.7815599069
 20
15.2494017439
  0
VERTEX
  8
___SYMBOL
 62
7
  6
CONTINUOUS
 10
8.7712040314
 20
15.2496609141
  0
VERTEX
  8
___SYMBOL
 62
7
  6
CONTINUOUS
 10
8.7612221273
 20
15.2468908716
  0
VERTEX
  8
___SYMBOL
 62
7
  6
CONTINUOUS
 10
8.751939499
 20
15.2410899834
  0
VERTEX
  8
___SYMBOL
 62
7
  6
CONTINUOUS
 10
8.7441695233
 20
15.2327665008
  0
VERTEX
  8
___SYMBOL
 62
7
  6
CONTINUOUS
 10
8.7380070564
 20
15.2220220157
  0
VERTEX
  8
___SYMBOL
 62
7
  6
CONTINUOUS
 10
8.7339921335
 20
15.2097980906
  0
VERTEX
  8
___SYMBOL
 62
7
  6
CONTINUOUS
 10
8.7321737427
 20
15.1962440227
  0
VERTEX
  8
___SYMBOL
 62
7
  6
CONTINUOUS
 10
8.7327112411
 20
15.1825474227
  0
VERTEX
  8
___SYMBOL
 62
7
  6
CONTINUOUS
 10
8.735520999
 20
15.1691312795
  0
VERTEX
  8
___SYMBOL
 62
7
  6
CONTINUOUS
 10
8.7405812341
 20
15.1564263965
  0
VERTEX
  8
___SYMBOL
 62
7
  6
CONTINUOUS
 10
8.7474485461
 20
15.1455459695
  0
VERTEX
  8
___SYMBOL
 62
7
  6
CONTINUOUS
 10
8.7560391012
 20
15.1366229078
  0
VERTEX
  8
___SYMBOL
 62
7
  6
CONTINUOUS
 10
8.765600116
 20
15.1304390378
  0
VERTEX
  8
___SYMBOL
 62
7
  6
CONTINUOUS
 10
8.7760148355
 20
15.1270698827
  0
VERTEX
  8
___SYMBOL
 62
7
  6
CONTINUOUS
 10
8.786370711
 20
15.1268107125
  0
SEQEND
  0
POLYLINE
  8
___SYMBOL
 62
7
  6
CONTINUOUS
 66
1
 70
0
  0
VERTEX
  8
___SYMBOL
 62
7
  6
CONTINUOUS
 10
8.8118991271
 20
15.2535539472
  0
VERTEX
  8
___SYMBOL
 62
7
  6
CONTINUOUS
 10
8.8088170483
 20
15.2557112923
  0
VERTEX
  8
___SYMBOL
 62
7
  6
CONTINUOUS
 10
8.8056541176
 20
15.2576511651
  0
VERTEX
  8
___SYMBOL
 62
7
  6
CONTINUOUS
 10
8.8024191861
 20
15.2593681369
  0
VERTEX
  8
___SYMBOL
 62
7
  6
CONTINUOUS
 10
8.7991213064
 20
15.2608574031
  0
VERTEX
  8
___SYMBOL
 62
7
  6
CONTINUOUS
 10
8.7957697073
 20
15.2621147961
  0
VERTEX
  8
___SYMBOL
 62
7
  6
CONTINUOUS
 10
8.792373768
 20
15.2631367971
  0
VERTEX
  8
___SYMBOL
 62
7
  6
CONTINUOUS
 10
8.7889429917
 20
15.2639205462
  0
VERTEX
  8
___SYMBOL
 62
7
  6
CONTINUOUS
 10
8.785486979
 20
15.2644638502
  0
VERTEX
  8
___SYMBOL
 62
7
  6
CONTINUOUS
 10
8.7820154013
 20
15.2647651887
  0
VERTEX
  8
___SYMBOL
 62
7
  6
CONTINUOUS
 10
8.7785379734
 20
15.2648237183
  0
VERTEX
  8
___SYMBOL
 62
7
  6
CONTINUOUS
 10
8.7750644267
 20
15.2646392753
  0
VERTEX
  8
___SYMBOL
 62
7
  6
CONTINUOUS
 10
8.7716044814
 20
15.264212376
  0
VERTEX
  8
___SYMBOL
 62
7
  6
CONTINUOUS
 10
8.7681678199
 20
15.2635442148
  0
VERTEX
  8
___SYMBOL
 62
7
  6
CONTINUOUS
 10
8.7647640594
 20
15.2626366615
  0
VERTEX
  8
___SYMBOL
 62
7
  6
CONTINUOUS
 10
8.761402725
 20
15.261492256
  0
VERTEX
  8
___SYMBOL
 62
7
  6
CONTINUOUS
 10
8.7580932231
 20
15.2601142006
  0
VERTEX
  8
___SYMBOL
 62
7
  6
CONTINUOUS
 10
8.7548448149
 20
15.2585063518
  0
VERTEX
  8
___SYMBOL
 62
7
  6
CONTINUOUS
 10
8.7516665908
 20
15.256673209
  0
VERTEX
  8
___SYMBOL
 62
7
  6
CONTINUOUS
 10
8.7485674447
 20
15.2546199019
  0
VERTEX
  8
___SYMBOL
 62
7
  6
CONTINUOUS
 10
8.7455560495
 20
15.2523521767
  0
VERTEX
  8
___SYMBOL
 62
7
  6
CONTINUOUS
 10
8.742640832
 20
15.2498763793
  0
VERTEX
  8
___SYMBOL
 62
7
  6
CONTINUOUS
 10
8.7398299504
 20
15.247199438
  0
VERTEX
  8
___SYMBOL
 62
7
  6
CONTINUOUS
 10
8.7371312705
 20
15.2443288439
  0
VERTEX
  8
___SYMBOL
 62
7
  6
CONTINUOUS
 10
8.7345523443
 20
15.2412726302
  0
VERTEX
  8
___SYMBOL
 62
7
  6
CONTINUOUS
 10
8.7321003888
 20
15.2380393493
  0
VERTEX
  8
___SYMBOL
 62
7
  6
CONTINUOUS
 10
8.7297822656
 20
15.2346380493
  0
VERTEX
  8
___SYMBOL
 62
7
  6
CONTINUOUS
 10
8.7276044615
 20
15.2310782485
  0
VERTEX
  8
___SYMBOL
 62
7
  6
CONTINUOUS
 10
8.7255730711
 20
15.2273699084
  0
VERTEX
  8
___SYMBOL
 62
7
  6
CONTINUOUS
 10
8.723693779
 20
15.2235234067
  0
VERTEX
  8
___SYMBOL
 62
7
  6
CONTINUOUS
 10
8.7219718441
 20
15.2195495073
  0
VERTEX
  8
___SYMBOL
 62
7
  6
CONTINUOUS
 10
8.7204120852
 20
15.2154593308
  0
VERTEX
  8
___SYMBOL
 62
7
  6
CONTINUOUS
 10
8.7190188671
 20
15.2112643232
  0
VERTEX
  8
___SYMBOL
 62
7
  6
CONTINUOUS
 10
8.7177960886
 20
15.2069762238
  0
VERTEX
  8
___SYMBOL
 62
7
  6
CONTINUOUS
 10
8.7167471714
 20
15.2026070325
  0
VERTEX
  8
___SYMBOL
 62
7
  6
CONTINUOUS
 10
8.715875051
 20
15.198168976
  0
VERTEX
  8
___SYMBOL
 62
7
  6
CONTINUOUS
 10
8.7151821678
 20
15.1936744737
  0
VERTEX
  8
___SYMBOL
 62
7
  6
CONTINUOUS
 10
8.7146704608
 20
15.1891361032
  0
VERTEX
  8
___SYMBOL
 62
7
  6
CONTINUOUS
 10
8.714341362
 20
15.1845665646
  0
VERTEX
  8
___SYMBOL
 62
7
  6
CONTINUOUS
 10
8.7141957924
 20
15.1799786452
  0
VERTEX
  8
___SYMBOL
 62
7
  6
CONTINUOUS
 10
8.7142341592
 20
15.1753851841
  0
VERTEX
  8
___SYMBOL
 62
7
  6
CONTINUOUS
 10
8.7144563551
 20
15.1707990354
  0
VERTEX
  8
___SYMBOL
 62
7
  6
CONTINUOUS
 10
8.7148617584
 20
15.1662330332
  0
VERTEX
  8
___SYMBOL
 62
7
  6
CONTINUOUS
 10
8.7154492345
 20
15.1616999549
  0
VERTEX
  8
___SYMBOL
 62
7
  6
CONTINUOUS
 10
8.7162171395
 20
15.1572124859
  0
VERTEX
  8
___SYMBOL
 62
7
  6
CONTINUOUS
 10
8.7171633244
 20
15.152783184
  0
VERTEX
  8
___SYMBOL
 62
7
  6
CONTINUOUS
 10
8.7182851414
 20
15.1484244441
  0
VERTEX
  8
___SYMBOL
 62
7
  6
CONTINUOUS
 10
8.7195794513
 20
15.1441484638
  0
VERTEX
  8
___SYMBOL
 62
7
  6
CONTINUOUS
 10
8.721042632
 20
15.1399672089
  0
VERTEX
  8
___SYMBOL
 62
7
  6
CONTINUOUS
 10
8.722670589
 20
15.1358923804
  0
VERTEX
  8
___SYMBOL
 62
7
  6
CONTINUOUS
 10
8.7244587666
 20
15.1319353811
  0
VERTEX
  8
___SYMBOL
 62
7
  6
CONTINUOUS
 10
8.7264021607
 20
15.1281072845
  0
VERTEX
  8
___SYMBOL
 62
7
  6
CONTINUOUS
 10
8.7284953329
 20
15.1244188031
  0
VERTEX
  8
___SYMBOL
 62
7
  6
CONTINUOUS
 10
8.7307324258
 20
15.1208802586
  0
VERTEX
  8
___SYMBOL
 62
7
  6
CONTINUOUS
 10
8.733107179
 20
15.1175015535
  0
VERTEX
  8
___SYMBOL
 62
7
  6
CONTINUOUS
 10
8.7356129469
 20
15.1142921426
  0
VERTEX
  8
___SYMBOL
 62
7
  6
CONTINUOUS
 10
8.7382427175
 20
15.1112610072
  0
VERTEX
  8
___SYMBOL
 62
7
  6
CONTINUOUS
 10
8.7409891317
 20
15.1084166297
  0
VERTEX
  8
___SYMBOL
 62
7
  6
CONTINUOUS
 10
8.7438445037
 20
15.1057669698
  0
VERTEX
  8
___SYMBOL
 62
7
  6
CONTINUOUS
 10
8.7468008431
 20
15.1033194422
  0
VERTEX
  8
___SYMBOL
 62
7
  6
CONTINUOUS
 10
8.749849877
 20
15.1010808961
  0
VERTEX
  8
___SYMBOL
 62
7
  6
CONTINUOUS
 10
8.7529830728
 20
15.099057596
  0
VERTEX
  8
___SYMBOL
 62
7
  6
CONTINUOUS
 10
8.7561916626
 20
15.0972552038
  0
VERTEX
  8
___SYMBOL
 62
7
  6
CONTINUOUS
 10
8.7594666676
 20
15.0956787633
  0
VERTEX
  8
___SYMBOL
 62
7
  6
CONTINUOUS
 10
8.7627989228
 20
15.0943326861
  0
VERTEX
  8
___SYMBOL
 62
7
  6
CONTINUOUS
 10
8.7661791034
 20
15.093220739
  0
VERTEX
  8
___SYMBOL
 62
7
  6
CONTINUOUS
 10
8.7695977501
 20
15.0923460336
  0
VERTEX
  8
___SYMBOL
 62
7
  6
CONTINUOUS
 10
8.7730452964
 20
15.0917110179
  0
VERTEX
  8
___SYMBOL
 62
7
  6
CONTINUOUS
 10
8.7765120944
 20
15.0913174688
  0
VERTEX
  8
___SYMBOL
 62
7
  6
CONTINUOUS
 10
8.7799884428
 20
15.0911664875
  0
VERTEX
  8
___SYMBOL
 62
7
  6
CONTINUOUS
 10
8.7834646133
 20
15.0912584967
  0
VERTEX
  8
___SYMBOL
 62
7
  6
CONTINUOUS
 10
8.7869308781
 20
15.0915932388
  0
VERTEX
  8
___SYMBOL
 62
7
  6
CONTINUOUS
 10
8.7903775373
 20
15.0921697772
  0
VERTEX
  8
___SYMBOL
 62
7
  6
CONTINUOUS
 10
8.7937949458
 20
15.0929864983
  0
VERTEX
  8
___SYMBOL
 62
7
  6
CONTINUOUS
 10
8.7971735402
 20
15.0940411167
  0
VERTEX
  8
___SYMBOL
 62
7
  6
CONTINUOUS
 10
8.8005038658
 20
15.0953306812
  0
VERTEX
  8
___SYMBOL
 62
7
  6
CONTINUOUS
 10
8.8037766031
 20
15.096851583
  0
VERTEX
  8
___SYMBOL
 62
7
  6
CONTINUOUS
 10
8.8069825937
 20
15.098599566
  0
VERTEX
  8
___SYMBOL
 62
7
  6
CONTINUOUS
 10
8.8101128658
 20
15.1005697387
  0
VERTEX
  8
___SYMBOL
 62
7
  6
CONTINUOUS
 10
8.8131586597
 20
15.1027565877
  0
VERTEX
  8
___SYMBOL
 62
7
  6
CONTINUOUS
 10
8.8161114521
 20
15.1051539934
  0
VERTEX
  8
___SYMBOL
 62
7
  6
CONTINUOUS
 10
8.8189629798
 20
15.1077552468
  0
VERTEX
  8
___SYMBOL
 62
7
  6
CONTINUOUS
 10
8.8217052632
 20
15.1105530686
  0
VERTEX
  8
___SYMBOL
 62
7
  6
CONTINUOUS
 10
8.8243306281
 20
15.1135396293
  0
VERTEX
  8
___SYMBOL
 62
7
  6
CONTINUOUS
 10
8.8268317279
 20
15.1167065713
  0
VERTEX
  8
___SYMBOL
 62
7
  6
CONTINUOUS
 10
8.8292015633
 20
15.1200450323
  0
VERTEX
  8
___SYMBOL
 62
7
  6
CONTINUOUS
 10
8.8314335026
 20
15.12354567
  0
VERTEX
  8
___SYMBOL
 62
7
  6
CONTINUOUS
 10
8.8335213
 20
15.127198688
  0
VERTEX
  8
___SYMBOL
 62
7
  6
CONTINUOUS
 10
8.835459113
 20
15.1309938638
  0
VERTEX
  8
___SYMBOL
 62
7
  6
CONTINUOUS
 10
8.8372415188
 20
15.1349205769
  0
VERTEX
  8
___SYMBOL
 62
7
  6
CONTINUOUS
 10
8.8388635294
 20
15.1389678389
  0
VERTEX
  8
___SYMBOL
 62
7
  6
CONTINUOUS
 10
8.8403206059
 20
15.1431243238
  0
VERTEX
  8
___SYMBOL
 62
7
  6
CONTINUOUS
 10
8.8416086708
 20
15.1473784001
  0
VERTEX
  8
___SYMBOL
 62
7
  6
CONTINUOUS
 10
8.8427241195
 20
15.1517181632
  0
VERTEX
  8
___SYMBOL
 62
7
  6
CONTINUOUS
 10
8.8436638305
 20
15.1561314688
  0
VERTEX
  8
___SYMBOL
 62
7
  6
CONTINUOUS
 10
8.8444251743
 20
15.1606059665
  0
VERTEX
  8
___SYMBOL
 62
7
  6
CONTINUOUS
 10
8.8450060201
 20
15.165129135
  0
SEQEND
  0
ENDBLK
  8
0
  6
BYBLOCK
 62
0
  0
BLOCK
  8
___SYMBOL
 62
2
  6
CONTINUOUS
  2
SCISSORS_BL1
 70
64
 10
9.6531994901
 20
12.9266300044
  0
LINE
  8
___SYMBOL
 62
7
  6
CONTINUOUS
 10
9.6379018667
 20
12.985578233
 11
9.5818619801
 21
13.2624073838
  0
LINE
  8
___SYMBOL
 62
7
  6
CONTINUOUS
 10
9.6137120371
 20
12.9708276953
 11
9.5818619801
 21
13.2624073838
  0
LINE
  8
___SYMBOL
 62
7
  6
CONTINUOUS
 10
9.6515329193
 20
12.937736237
 11
9.6507491124
 21
12.9631629404
  0
LINE
  8
___SYMBOL
 62
7
  6
CONTINUOUS
 10
9.658937963
 20
12.9635029351
 11
9.6597271633
 21
12.9379012697
  0
LINE
  8
___SYMBOL
 62
7
  6
CONTINUOUS
 10
9.6559789215
 20
13.05218766
 11
9.7498361163
 21
13.2575396433
  0
LINE
  8
___SYMBOL
 62
7
  6
CONTINUOUS
 10
9.5989245106
 20
12.9230526097
 11
9.6151890576
 21
12.9537588937
  0
LINE
  8
___SYMBOL
 62
7
  6
CONTINUOUS
 10
9.6895525443
 20
12.9569619591
 11
9.7498361163
 21
13.1498062655
  0
LINE
  8
___SYMBOL
 62
7
  6
CONTINUOUS
 10
9.6748682365
 20
12.9986114262
 11
9.6379018667
 21
12.985578233
  0
LINE
  8
___SYMBOL
 62
7
  6
CONTINUOUS
 10
9.7018585562
 20
12.9220581114
 11
9.6732151554
 21
12.8529258501
  0
LINE
  8
___SYMBOL
 62
7
  6
CONTINUOUS
 10
9.6258453922
 20
12.8551816549
 11
9.6478840297
 21
12.8780812558
  0
LINE
  8
___SYMBOL
 62
7
  6
CONTINUOUS
 10
9.5818619801
 20
13.2624073838
 11
9.7018585562
 21
12.9220581114
  0
LINE
  8
___SYMBOL
 62
7
  6
CONTINUOUS
 10
9.6258453922
 20
12.8551816549
 11
9.5989245106
 21
12.9230526097
  0
ARC
  8
___SYMBOL
 62
7
  6
CONTINUOUS
 10
9.5775191167
 20
13.2036729544
 40
0.1805402131
 50
342.6406360869
 51
17.3593639131
  0
ARC
  8
___SYMBOL
 62
7
  6
CONTINUOUS
 10
9.7700380214
 20
12.9757567991
 40
0.1564036746
 50
181.8059909349
 51
231.752660067
  0
CIRCLE
  8
___SYMBOL
 62
7
  6
CONTINUOUS
 10
9.6553730278
 20
12.9505800453
 40
0.0134055901
  0
ARC
  8
___SYMBOL
 62
7
  6
CONTINUOUS
 10
9.735101933
 20
12.7644212465
 40
0.0073044281
 50
185.3133793157
 51
314.0675041521
  0
ARC
  8
___SYMBOL
 62
7
  6
CONTINUOUS
 10
9.5677711355
 20
12.7606609619
 40
0.0073043678
 50
233.3109272841
 51
359.4467240969
  0
POLYLINE
  8
___SYMBOL
 62
7
  6
CONTINUOUS
 66
1
 70
0
  0
VERTEX
  8
___SYMBOL
 62
7
  6
CONTINUOUS
 10
9.716229869
 20
12.6470505613
  0
VERTEX
  8
___SYMBOL
 62
7
  6
CONTINUOUS
 10
9.7145602126
 20
12.652175015
  0
VERTEX
  8
___SYMBOL
 62
7
  6
CONTINUOUS
 10
9.7130314236
 20
12.6573400096
  0
VERTEX
  8
___SYMBOL
 62
7
  6
CONTINUOUS
 10
9.7116373943
 20
12.6625427352
  0
VERTEX
  8
___SYMBOL
 62
7
  6
CONTINUOUS
 10
9.7103720166
 20
12.6677803816
  0
VERTEX
  8
___SYMBOL
 62
7
  6
CONTINUOUS
 10
9.7092291827
 20
12.673050139
  0
VERTEX
  8
___SYMBOL
 62
7
  6
CONTINUOUS
 10
9.7082027845
 20
12.6783491973
  0
VERTEX
  8
___SYMBOL
 62
7
  6
CONTINUOUS
 10
9.7072867143
 20
12.6836747465
  0
VERTEX
  8
___SYMBOL
 62
7
  6
CONTINUOUS
 10
9.7064748641
 20
12.6890239765
  0
VERTEX
  8
___SYMBOL
 62
7
  6
CONTINUOUS
 10
9.705761126
 20
12.6943940775
  0
VERTEX
  8
___SYMBOL
 62
7
  6
CONTINUOUS
 10
9.7051393921
 20
12.6997822394
  0
VERTEX
  8
___SYMBOL
 62
7
  6
CONTINUOUS
 10
9.7046035544
 20
12.7051856522
  0
VERTEX
  8
___SYMBOL
 62
7
  6
CONTINUOUS
 10
9.7041475051
 20
12.7106015058
  0
VERTEX
  8
___SYMBOL
 62
7
  6
CONTINUOUS
 10
9.7037651362
 20
12.7160269904
  0
VERTEX
  8
___SYMBOL
 62
7
  6
CONTINUOUS
 10
9.7034503398
 20
12.7214592958
  0
VERTEX
  8
___SYMBOL
 62
7
  6
CONTINUOUS
 10
9.7031970081
 20
12.726895612
  0
VERTEX
  8
___SYMBOL
 62
7
  6
CONTINUOUS
 10
9.702999033
 20
12.7323331292
  0
VERTEX
  8
___SYMBOL
 62
7
  6
CONTINUOUS
 10
9.7028503067
 20
12.7377690372
  0
VERTEX
  8
___SYMBOL
 62
7
  6
CONTINUOUS
 10
9.7027447213
 20
12.7432005261
  0
VERTEX
  8
___SYMBOL
 62
7
  6
CONTINUOUS
 10
9.7026761688
 20
12.7486247858
  0
VERTEX
  8
___SYMBOL
 62
7
  6
CONTINUOUS
 10
9.7026385414
 20
12.7540390064
  0
VERTEX
  8
___SYMBOL
 62
7
  6
CONTINUOUS
 10
9.7026234363
 20
12.7619978383
  0
VERTEX
  8
___SYMBOL
 62
7
  6
CONTINUOUS
 10
9.702623895
 20
12.7699398435
  0
VERTEX
  8
___SYMBOL
 62
7
  6
CONTINUOUS
 10
9.7026015727
 20
12.7778761065
  0
VERTEX
  8
___SYMBOL
 62
7
  6
CONTINUOUS
 10
9.7025181251
 20
12.7858177119
  0
VERTEX
  8
___SYMBOL
 62
7
  6
CONTINUOUS
 10
9.7023352075
 20
12.7937757442
  0
VERTEX
  8
___SYMBOL
 62
7
  6
CONTINUOUS
 10
9.7022061305
 20
12.7974418459
  0
VERTEX
  8
___SYMBOL
 62
7
  6
CONTINUOUS
 10
9.7020377939
 20
12.8011102642
  0
VERTEX
  8
___SYMBOL
 62
7
  6
CONTINUOUS
 10
9.7018200615
 20
12.804777502
  0
VERTEX
  8
___SYMBOL
 62
7
  6
CONTINUOUS
 10
9.7015427972
 20
12.8084400622
  0
VERTEX
  8
___SYMBOL
 62
7
  6
CONTINUOUS
 10
9.7011958649
 20
12.8120944475
  0
VERTEX
  8
___SYMBOL
 62
7
  6
CONTINUOUS
 10
9.7007691283
 20
12.8157371608
  0
VERTEX
  8
___SYMBOL
 62
7
  6
CONTINUOUS
 10
9.7002524514
 20
12.819364705
  0
VERTEX
  8
___SYMBOL
 62
7
  6
CONTINUOUS
 10
9.699635698
 20
12.8229735829
  0
VERTEX
  8
___SYMBOL
 62
7
  6
CONTINUOUS
 10
9.6989087319
 20
12.8265602974
  0
VERTEX
  8
___SYMBOL
 62
7
  6
CONTINUOUS
 10
9.698061417
 20
12.8301213512
  0
VERTEX
  8
___SYMBOL
 62
7
  6
CONTINUOUS
 10
9.6970836171
 20
12.8336532473
  0
VERTEX
  8
___SYMBOL
 62
7
  6
CONTINUOUS
 10
9.6959651961
 20
12.8371524885
  0
VERTEX
  8
___SYMBOL
 62
7
  6
CONTINUOUS
 10
9.695431688
 20
12.8386553297
  0
VERTEX
  8
___SYMBOL
 62
7
  6
CONTINUOUS
 10
9.6948521395
 20
12.8401393316
  0
VERTEX
  8
___SYMBOL
 62
7
  6
CONTINUOUS
 10
9.6942087996
 20
12.8415924387
  0
VERTEX
  8
___SYMBOL
 62
7
  6
CONTINUOUS
 10
9.6934839173
 20
12.8430025956
  0
VERTEX
  8
___SYMBOL
 62
7
  6
CONTINUOUS
 10
9.6926597417
 20
12.8443577468
  0
VERTEX
  8
___SYMBOL
 62
7
  6
CONTINUOUS
 10
9.6917185218
 20
12.845645837
  0
VERTEX
  8
___SYMBOL
 62
7
  6
CONTINUOUS
 10
9.6906858275
 20
12.8468164737
  0
VERTEX
  8
___SYMBOL
 62
7
  6
CONTINUOUS
 10
9.6895402595
 20
12.8479072407
  0
VERTEX
  8
___SYMBOL
 62
7
  6
CONTINUOUS
 10
9.688294845
 20
12.8489121645
  0
VERTEX
  8
___SYMBOL
 62
7
  6
CONTINUOUS
 10
9.6869626114
 20
12.8498252716
  0
VERTEX
  8
___SYMBOL
 62
7
  6
CONTINUOUS
 10
9.6855565859
 20
12.8506405883
  0
VERTEX
  8
___SYMBOL
 62
7
  6
CONTINUOUS
 10
9.684089796
 20
12.8513521413
  0
VERTEX
  8
___SYMBOL
 62
7
  6
CONTINUOUS
 10
9.6825752689
 20
12.8519539569
  0
VERTEX
  8
___SYMBOL
 62
7
  6
CONTINUOUS
 10
9.6810260319
 20
12.8524400617
  0
VERTEX
  8
___SYMBOL
 62
7
  6
CONTINUOUS
 10
9.6794551124
 20
12.8528044822
  0
VERTEX
  8
___SYMBOL
 62
7
  6
CONTINUOUS
 10
9.6778755377
 20
12.8530412448
  0
VERTEX
  8
___SYMBOL
 62
7
  6
CONTINUOUS
 10
9.676300335
 20
12.853144376
  0
VERTEX
  8
___SYMBOL
 62
7
  6
CONTINUOUS
 10
9.6747425318
 20
12.8531079022
  0
VERTEX
  8
___SYMBOL
 62
7
  6
CONTINUOUS
 10
9.6732151554
 20
12.8529258501
  0
SEQEND
  0
POLYLINE
  8
___SYMBOL
 62
7
  6
CONTINUOUS
 66
1
 70
0
  0
VERTEX
  8
___SYMBOL
 62
7
  6
CONTINUOUS
 10
9.7278288913
 20
12.7637448339
  0
VERTEX
  8
___SYMBOL
 62
7
  6
CONTINUOUS
 10
9.7275174484
 20
12.767575976
  0
VERTEX
  8
___SYMBOL
 62
7
  6
CONTINUOUS
 10
9.7272900684
 20
12.7714103751
  0
VERTEX
  8
___SYMBOL
 62
7
  6
CONTINUOUS
 10
9.7271247469
 20
12.7757631939
  0
VERTEX
  8
___SYMBOL
 62
7
  6
CONTINUOUS
 10
9.7270485343
 20
12.7801104522
  0
VERTEX
  8
___SYMBOL
 62
7
  6
CONTINUOUS
 10
9.7270508934
 20
12.7844571
  0
VERTEX
  8
___SYMBOL
 62
7
  6
CONTINUOUS
 10
9.7271212872
 20
12.7888080876
  0
VERTEX
  8
___SYMBOL
 62
7
  6
CONTINUOUS
 10
9.7272491788
 20
12.793168365
  0
VERTEX
  8
___SYMBOL
 62
7
  6
CONTINUOUS
 10
9.727424031
 20
12.7975428824
  0
VERTEX
  8
___SYMBOL
 62
7
  6
CONTINUOUS
 10
9.7276353069
 20
12.8019365899
  0
VERTEX
  8
___SYMBOL
 62
7
  6
CONTINUOUS
 10
9.7278724694
 20
12.8063544377
  0
VERTEX
  8
___SYMBOL
 62
7
  6
CONTINUOUS
 10
9.728029912
 20
12.8091541561
  0
VERTEX
  8
___SYMBOL
 62
7
  6
CONTINUOUS
 10
9.7281868529
 20
12.8119628528
  0
VERTEX
  8
___SYMBOL
 62
7
  6
CONTINUOUS
 10
9.7283366874
 20
12.8147779396
  0
VERTEX
  8
___SYMBOL
 62
7
  6
CONTINUOUS
 10
9.7284728106
 20
12.8175968283
  0
VERTEX
  8
___SYMBOL
 62
7
  6
CONTINUOUS
 10
9.7285886178
 20
12.8204169306
  0
VERTEX
  8
___SYMBOL
 62
7
  6
CONTINUOUS
 10
9.7286775042
 20
12.8232356583
  0
VERTEX
  8
___SYMBOL
 62
7
  6
CONTINUOUS
 10
9.728732865
 20
12.8260504232
  0
VERTEX
  8
___SYMBOL
 62
7
  6
CONTINUOUS
 10
9.7287480955
 20
12.8288586372
  0
VERTEX
  8
___SYMBOL
 62
7
  6
CONTINUOUS
 10
9.7287165909
 20
12.831657712
  0
VERTEX
  8
___SYMBOL
 62
7
  6
CONTINUOUS
 10
9.7286317464
 20
12.8344450593
  0
VERTEX
  8
___SYMBOL
 62
7
  6
CONTINUOUS
 10
9.7284869572
 20
12.8372180911
  0
VERTEX
  8
___SYMBOL
 62
7
  6
CONTINUOUS
 10
9.7282756186
 20
12.839974219
  0
VERTEX
  8
___SYMBOL
 62
7
  6
CONTINUOUS
 10
9.7279911258
 20
12.8427108549
  0
VERTEX
  8
___SYMBOL
 62
7
  6
CONTINUOUS
 10
9.727626874
 20
12.8454254106
  0
VERTEX
  8
___SYMBOL
 62
7
  6
CONTINUOUS
 10
9.7271762585
 20
12.8481152978
  0
VERTEX
  8
___SYMBOL
 62
7
  6
CONTINUOUS
 10
9.7266326744
 20
12.8507779283
  0
VERTEX
  8
___SYMBOL
 62
7
  6
CONTINUOUS
 10
9.725989517
 20
12.8534107139
  0
VERTEX
  8
___SYMBOL
 62
7
  6
CONTINUOUS
 10
9.7252401815
 20
12.8560110665
  0
VERTEX
  8
___SYMBOL
 62
7
  6
CONTINUOUS
 10
9.7243780632
 20
12.8585763978
  0
VERTEX
  8
___SYMBOL
 62
7
  6
CONTINUOUS
 10
9.7234651037
 20
12.8609456109
  0
VERTEX
  8
___SYMBOL
 62
7
  6
CONTINUOUS
 10
9.7224572029
 20
12.8632849054
  0
VERTEX
  8
___SYMBOL
 62
7
  6
CONTINUOUS
 10
9.7213641237
 20
12.8655973468
  0
VERTEX
  8
___SYMBOL
 62
7
  6
CONTINUOUS
 10
9.7201956286
 20
12.8678860004
  0
VERTEX
  8
___SYMBOL
 62
7
  6
CONTINUOUS
 10
9.7189614806
 20
12.8701539316
  0
VERTEX
  8
___SYMBOL
 62
7
  6
CONTINUOUS
 10
9.7176714423
 20
12.8724042057
  0
VERTEX
  8
___SYMBOL
 62
7
  6
CONTINUOUS
 10
9.7163352765
 20
12.8746398881
  0
VERTEX
  8
___SYMBOL
 62
7
  6
CONTINUOUS
 10
9.7149627459
 20
12.8768640441
  0
VERTEX
  8
___SYMBOL
 62
7
  6
CONTINUOUS
 10
9.7135636132
 20
12.8790797391
  0
VERTEX
  8
___SYMBOL
 62
7
  6
CONTINUOUS
 10
9.7121476413
 20
12.8812900385
  0
VERTEX
  8
___SYMBOL
 62
7
  6
CONTINUOUS
 10
9.7111274191
 20
12.8828762195
  0
VERTEX
  8
___SYMBOL
 62
7
  6
CONTINUOUS
 10
9.7101164479
 20
12.8844655471
  0
VERTEX
  8
___SYMBOL
 62
7
  6
CONTINUOUS
 10
9.7091276277
 20
12.8860623695
  0
VERTEX
  8
___SYMBOL
 62
7
  6
CONTINUOUS
 10
9.708173859
 20
12.887671035
  0
VERTEX
  8
___SYMBOL
 62
7
  6
CONTINUOUS
 10
9.7072680418
 20
12.8892958918
  0
VERTEX
  8
___SYMBOL
 62
7
  6
CONTINUOUS
 10
9.7064230765
 20
12.8909412883
  0
VERTEX
  8
___SYMBOL
 62
7
  6
CONTINUOUS
 10
9.7056518633
 20
12.8926115727
  0
VERTEX
  8
___SYMBOL
 62
7
  6
CONTINUOUS
 10
9.7049673024
 20
12.8943110932
  0
VERTEX
  8
___SYMBOL
 62
7
  6
CONTINUOUS
 10
9.7043822941
 20
12.8960441982
  0
VERTEX
  8
___SYMBOL
 62
7
  6
CONTINUOUS
 10
9.7039321594
 20
12.8977019023
  0
VERTEX
  8
___SYMBOL
 62
7
  6
CONTINUOUS
 10
9.7035699822
 20
12.8993880442
  0
VERTEX
  8
___SYMBOL
 62
7
  6
CONTINUOUS
 10
9.7032848885
 20
12.9010977239
  0
VERTEX
  8
___SYMBOL
 62
7
  6
CONTINUOUS
 10
9.7030660047
 20
12.9028260415
  0
VERTEX
  8
___SYMBOL
 62
7
  6
CONTINUOUS
 10
9.7029024568
 20
12.9045680968
  0
VERTEX
  8
___SYMBOL
 62
7
  6
CONTINUOUS
 10
9.7027833711
 20
12.90631899
  0
VERTEX
  8
___SYMBOL
 62
7
  6
CONTINUOUS
 10
9.7026978737
 20
12.9080738209
  0
VERTEX
  8
___SYMBOL
 62
7
  6
CONTINUOUS
 10
9.7026350909
 20
12.9098276895
  0
VERTEX
  8
___SYMBOL
 62
7
  6
CONTINUOUS
 10
9.7025753755
 20
12.9118838913
  0
VERTEX
  8
___SYMBOL
 62
7
  6
CONTINUOUS
 10
9.7025130688
 20
12.9139324087
  0
VERTEX
  8
___SYMBOL
 62
7
  6
CONTINUOUS
 10
9.7024292022
 20
12.9159736655
  0
VERTEX
  8
___SYMBOL
 62
7
  6
CONTINUOUS
 10
9.702304807
 20
12.9180080856
  0
VERTEX
  8
___SYMBOL
 62
7
  6
CONTINUOUS
 10
9.7021209146
 20
12.920036093
  0
VERTEX
  8
___SYMBOL
 62
7
  6
CONTINUOUS
 10
9.7018585562
 20
12.9220581114
  0
SEQEND
  0
POLYLINE
  8
___SYMBOL
 62
7
  6
CONTINUOUS
 66
1
 70
0
  0
VERTEX
  8
___SYMBOL
 62
7
  6
CONTINUOUS
 10
9.5965138717
 20
12.666378853
  0
VERTEX
  8
___SYMBOL
 62
7
  6
CONTINUOUS
 10
9.5975123512
 20
12.6706249687
  0
VERTEX
  8
___SYMBOL
 62
7
  6
CONTINUOUS
 10
9.5983889604
 20
12.674895569
  0
VERTEX
  8
___SYMBOL
 62
7
  6
CONTINUOUS
 10
9.5991505862
 20
12.6791884306
  0
VERTEX
  8
___SYMBOL
 62
7
  6
CONTINUOUS
 10
9.5998041152
 20
12.6835013299
  0
VERTEX
  8
___SYMBOL
 62
7
  6
CONTINUOUS
 10
9.6003564344
 20
12.6878320435
  0
VERTEX
  8
___SYMBOL
 62
7
  6
CONTINUOUS
 10
9.6008144305
 20
12.6921783479
  0
VERTEX
  8
___SYMBOL
 62
7
  6
CONTINUOUS
 10
9.6011849903
 20
12.6965380197
  0
VERTEX
  8
___SYMBOL
 62
7
  6
CONTINUOUS
 10
9.6014750007
 20
12.7009088354
  0
VERTEX
  8
___SYMBOL
 62
7
  6
CONTINUOUS
 10
9.6016913485
 20
12.7052885715
  0
VERTEX
  8
___SYMBOL
 62
7
  6
CONTINUOUS
 10
9.6018409204
 20
12.7096750047
  0
VERTEX
  8
___SYMBOL
 62
7
  6
CONTINUOUS
 10
9.6019306033
 20
12.7140659113
  0
VERTEX
  8
___SYMBOL
 62
7
  6
CONTINUOUS
 10
9.6019672841
 20
12.7184590681
  0
VERTEX
  8
___SYMBOL
 62
7
  6
CONTINUOUS
 10
9.6019578494
 20
12.7228522514
  0
VERTEX
  8
___SYMBOL
 62
7
  6
CONTINUOUS
 10
9.6018824048
 20
12.7289139855
  0
VERTEX
  8
___SYMBOL
 62
7
  6
CONTINUOUS
 10
9.6017539611
 20
12.7349699996
  0
VERTEX
  8
___SYMBOL
 62
7
  6
CONTINUOUS
 10
9.6015942879
 20
12.7410187609
  0
VERTEX
  8
___SYMBOL
 62
7
  6
CONTINUOUS
 10
9.6014251545
 20
12.7470587366
  0
VERTEX
  8
___SYMBOL
 62
7
  6
CONTINUOUS
 10
9.6012683304
 20
12.7530883938
  0
VERTEX
  8
___SYMBOL
 62
7
  6
CONTINUOUS
 10
9.6011455849
 20
12.7591061998
  0
VERTEX
  8
___SYMBOL
 62
7
  6
CONTINUOUS
 10
9.6010786875
 20
12.7651106217
  0
VERTEX
  8
___SYMBOL
 62
7
  6
CONTINUOUS
 10
9.6010894077
 20
12.7711001266
  0
VERTEX
  8
___SYMBOL
 62
7
  6
CONTINUOUS
 10
9.6011995147
 20
12.7770731818
  0
VERTEX
  8
___SYMBOL
 62
7
  6
CONTINUOUS
 10
9.6014497056
 20
12.7835862742
  0
VERTEX
  8
___SYMBOL
 62
7
  6
CONTINUOUS
 10
9.6018155892
 20
12.7900972232
  0
VERTEX
  8
___SYMBOL
 62
7
  6
CONTINUOUS
 10
9.6022680473
 20
12.7966253788
  0
VERTEX
  8
___SYMBOL
 62
7
  6
CONTINUOUS
 10
9.6027779616
 20
12.803190091
  0
VERTEX
  8
___SYMBOL
 62
7
  6
CONTINUOUS
 10
9.603316214
 20
12.80981071
  0
VERTEX
  8
___SYMBOL
 62
7
  6
CONTINUOUS
 10
9.6038536861
 20
12.8165065857
  0
VERTEX
  8
___SYMBOL
 62
7
  6
CONTINUOUS
 10
9.6040122809
 20
12.8185331859
  0
VERTEX
  8
___SYMBOL
 62
7
  6
CONTINUOUS
 10
9.6041780073
 20
12.8205634154
  0
VERTEX
  8
___SYMBOL
 62
7
  6
CONTINUOUS
 10
9.6043606911
 20
12.8225923794
  0
VERTEX
  8
___SYMBOL
 62
7
  6
CONTINUOUS
 10
9.6045701578
 20
12.8246151826
  0
VERTEX
  8
___SYMBOL
 62
7
  6
CONTINUOUS
 10
9.6048162332
 20
12.8266269301
  0
VERTEX
  8
___SYMBOL
 62
7
  6
CONTINUOUS
 10
9.6051087428
 20
12.8286227269
  0
VERTEX
  8
___SYMBOL
 62
7
  6
CONTINUOUS
 10
9.6054575123
 20
12.8305976778
  0
VERTEX
  8
___SYMBOL
 62
7
  6
CONTINUOUS
 10
9.6058723674
 20
12.8325468878
  0
VERTEX
  8
___SYMBOL
 62
7
  6
CONTINUOUS
 10
9.6063631337
 20
12.834465462
  0
VERTEX
  8
___SYMBOL
 62
7
  6
CONTINUOUS
 10
9.6069396369
 20
12.8363485051
  0
VERTEX
  8
___SYMBOL
 62
7
  6
CONTINUOUS
 10
9.6076117026
 20
12.8381911223
  0
VERTEX
  8
___SYMBOL
 62
7
  6
CONTINUOUS
 10
9.6083891564
 20
12.8399884184
  0
VERTEX
  8
___SYMBOL
 62
7
  6
CONTINUOUS
 10
9.609281824
 20
12.8417354984
  0
VERTEX
  8
___SYMBOL
 62
7
  6
CONTINUOUS
 10
9.610299531
 20
12.8434274672
  0
VERTEX
  8
___SYMBOL
 62
7
  6
CONTINUOUS
 10
9.6113232935
 20
12.8448920401
  0
VERTEX
  8
___SYMBOL
 62
7
  6
CONTINUOUS
 10
9.612447746
 20
12.8463006769
  0
VERTEX
  8
___SYMBOL
 62
7
  6
CONTINUOUS
 10
9.6136652917
 20
12.8476456224
  0
VERTEX
  8
___SYMBOL
 62
7
  6
CONTINUOUS
 10
9.6149683337
 20
12.8489191213
  0
VERTEX
  8
___SYMBOL
 62
7
  6
CONTINUOUS
 10
9.6163492753
 20
12.850113418
  0
VERTEX
  8
___SYMBOL
 62
7
  6
CONTINUOUS
 10
9.6178005196
 20
12.8512207573
  0
VERTEX
  8
___SYMBOL
 62
7
  6
CONTINUOUS
 10
9.6193144698
 20
12.8522333839
  0
VERTEX
  8
___SYMBOL
 62
7
  6
CONTINUOUS
 10
9.6208835289
 20
12.8531435423
  0
VERTEX
  8
___SYMBOL
 62
7
  6
CONTINUOUS
 10
9.6225001003
 20
12.8539434771
  0
VERTEX
  8
___SYMBOL
 62
7
  6
CONTINUOUS
 10
9.624156587
 20
12.8546254331
  0
VERTEX
  8
___SYMBOL
 62
7
  6
CONTINUOUS
 10
9.6258453922
 20
12.8551816549
  0
SEQEND
  0
POLYLINE
  8
___SYMBOL
 62
7
  6
CONTINUOUS
 66
1
 70
0
  0
VERTEX
  8
___SYMBOL
 62
7
  6
CONTINUOUS
 10
9.5750751628
 20
12.7605904285
  0
VERTEX
  8
___SYMBOL
 62
7
  6
CONTINUOUS
 10
9.5750949675
 20
12.7680705675
  0
VERTEX
  8
___SYMBOL
 62
7
  6
CONTINUOUS
 10
9.5750369679
 20
12.7755565124
  0
VERTEX
  8
___SYMBOL
 62
7
  6
CONTINUOUS
 10
9.5749691526
 20
12.780992468
  0
VERTEX
  8
___SYMBOL
 62
7
  6
CONTINUOUS
 10
9.5748958564
 20
12.7864360807
  0
VERTEX
  8
___SYMBOL
 62
7
  6
CONTINUOUS
 10
9.5748311054
 20
12.7918833239
  0
VERTEX
  8
___SYMBOL
 62
7
  6
CONTINUOUS
 10
9.5747889256
 20
12.797330171
  0
VERTEX
  8
___SYMBOL
 62
7
  6
CONTINUOUS
 10
9.574783343
 20
12.8027725953
  0
VERTEX
  8
___SYMBOL
 62
7
  6
CONTINUOUS
 10
9.5748283839
 20
12.8082065701
  0
VERTEX
  8
___SYMBOL
 62
7
  6
CONTINUOUS
 10
9.5749380742
 20
12.8136280689
  0
VERTEX
  8
___SYMBOL
 62
7
  6
CONTINUOUS
 10
9.57512644
 20
12.8190330651
  0
VERTEX
  8
___SYMBOL
 62
7
  6
CONTINUOUS
 10
9.5754075074
 20
12.8244175319
  0
VERTEX
  8
___SYMBOL
 62
7
  6
CONTINUOUS
 10
9.5757953026
 20
12.8297774428
  0
VERTEX
  8
___SYMBOL
 62
7
  6
CONTINUOUS
 10
9.5760695902
 20
12.8328141808
  0
VERTEX
  8
___SYMBOL
 62
7
  6
CONTINUOUS
 10
9.5763897832
 20
12.8358424888
  0
VERTEX
  8
___SYMBOL
 62
7
  6
CONTINUOUS
 10
9.5767627127
 20
12.8388631854
  0
VERTEX
  8
___SYMBOL
 62
7
  6
CONTINUOUS
 10
9.5771952094
 20
12.8418770897
  0
VERTEX
  8
___SYMBOL
 62
7
  6
CONTINUOUS
 10
9.5776941045
 20
12.8448850203
  0
VERTEX
  8
___SYMBOL
 62
7
  6
CONTINUOUS
 10
9.5782662288
 20
12.8478877963
  0
VERTEX
  8
___SYMBOL
 62
7
  6
CONTINUOUS
 10
9.5789184133
 20
12.8508862364
  0
VERTEX
  8
___SYMBOL
 62
7
  6
CONTINUOUS
 10
9.579657489
 20
12.8538811595
  0
VERTEX
  8
___SYMBOL
 62
7
  6
CONTINUOUS
 10
9.5804902868
 20
12.8568733844
  0
VERTEX
  8
___SYMBOL
 62
7
  6
CONTINUOUS
 10
9.5814236378
 20
12.85986373
  0
VERTEX
  8
___SYMBOL
 62
7
  6
CONTINUOUS
 10
9.5824643728
 20
12.8628530151
  0
VERTEX
  8
___SYMBOL
 62
7
  6
CONTINUOUS
 10
9.5836193228
 20
12.8658420586
  0
VERTEX
  8
___SYMBOL
 62
7
  6
CONTINUOUS
 10
9.5848953188
 20
12.8688316794
  0
VERTEX
  8
___SYMBOL
 62
7
  6
CONTINUOUS
 10
9.58562459
 20
12.8704223782
  0
VERTEX
  8
___SYMBOL
 62
7
  6
CONTINUOUS
 10
9.586384343
 20
12.8720132789
  0
VERTEX
  8
___SYMBOL
 62
7
  6
CONTINUOUS
 10
9.5871688786
 20
12.8736041885
  0
VERTEX
  8
___SYMBOL
 62
7
  6
CONTINUOUS
 10
9.5879724975
 20
12.8751949139
  0
VERTEX
  8
___SYMBOL
 62
7
  6
CONTINUOUS
 10
9.5887895003
 20
12.8767852621
  0
VERTEX
  8
___SYMBOL
 62
7
  6
CONTINUOUS
 10
9.5896141879
 20
12.8783750399
  0
VERTEX
  8
___SYMBOL
 62
7
  6
CONTINUOUS
 10
9.5904408609
 20
12.8799640544
  0
VERTEX
  8
___SYMBOL
 62
7
  6
CONTINUOUS
 10
9.59126382
 20
12.8815521123
  0
VERTEX
  8
___SYMBOL
 62
7
  6
CONTINUOUS
 10
9.5920773659
 20
12.8831390208
  0
VERTEX
  8
___SYMBOL
 62
7
  6
CONTINUOUS
 10
9.5928757994
 20
12.8847245866
  0
VERTEX
  8
___SYMBOL
 62
7
  6
CONTINUOUS
 10
9.5936534211
 20
12.8863086168
  0
VERTEX
  8
___SYMBOL
 62
7
  6
CONTINUOUS
 10
9.5944045317
 20
12.8878909182
  0
VERTEX
  8
___SYMBOL
 62
7
  6
CONTINUOUS
 10
9.595123432
 20
12.8894712979
  0
VERTEX
  8
___SYMBOL
 62
7
  6
CONTINUOUS
 10
9.5958044227
 20
12.8910495627
  0
VERTEX
  8
___SYMBOL
 62
7
  6
CONTINUOUS
 10
9.5964418044
 20
12.8926255195
  0
VERTEX
  8
___SYMBOL
 62
7
  6
CONTINUOUS
 10
9.5970298779
 20
12.8941989754
  0
VERTEX
  8
___SYMBOL
 62
7
  6
CONTINUOUS
 10
9.5975629439
 20
12.8957697372
  0
VERTEX
  8
___SYMBOL
 62
7
  6
CONTINUOUS
 10
9.598035303
 20
12.8973376118
  0
VERTEX
  8
___SYMBOL
 62
7
  6
CONTINUOUS
 10
9.5984412561
 20
12.8989024063
  0
VERTEX
  8
___SYMBOL
 62
7
  6
CONTINUOUS
 10
9.5987751038
 20
12.9004639275
  0
VERTEX
  8
___SYMBOL
 62
7
  6
CONTINUOUS
 10
9.5990311468
 20
12.9020219823
  0
VERTEX
  8
___SYMBOL
 62
7
  6
CONTINUOUS
 10
9.5992036858
 20
12.9035763778
  0
VERTEX
  8
___SYMBOL
 62
7
  6
CONTINUOUS
 10
9.5992870215
 20
12.9051269208
  0
VERTEX
  8
___SYMBOL
 62
7
  6
CONTINUOUS
 10
9.5992754547
 20
12.9066734183
  0
VERTEX
  8
___SYMBOL
 62
7
  6
CONTINUOUS
 10
9.599163286
 20
12.9082156771
  0
VERTEX
  8
___SYMBOL
 62
7
  6
CONTINUOUS
 10
9.5989448162
 20
12.9097535043
  0
VERTEX
  8
___SYMBOL
 62
7
  6
CONTINUOUS
 10
9.5986143459
 20
12.9112867068
  0
VERTEX
  8
___SYMBOL
 62
7
  6
CONTINUOUS
 10
9.5981661759
 20
12.9128150914
  0
VERTEX
  8
___SYMBOL
 62
7
  6
CONTINUOUS
 10
9.5979098376
 20
12.9135518028
  0
VERTEX
  8
___SYMBOL
 62
7
  6
CONTINUOUS
 10
9.5976463429
 20
12.9142933367
  0
VERTEX
  8
___SYMBOL
 62
7
  6
CONTINUOUS
 10
9.5973972672
 20
12.9150456822
  0
VERTEX
  8
___SYMBOL
 62
7
  6
CONTINUOUS
 10
9.5971841858
 20
12.9158148286
  0
VERTEX
  8
___SYMBOL
 62
7
  6
CONTINUOUS
 10
9.5970286739
 20
12.9166067649
  0
VERTEX
  8
___SYMBOL
 62
7
  6
CONTINUOUS
 10
9.5969512276
 20
12.9173769714
  0
VERTEX
  8
___SYMBOL
 62
7
  6
CONTINUOUS
 10
9.5969446467
 20
12.9181610395
  0
VERTEX
  8
___SYMBOL
 62
7
  6
CONTINUOUS
 10
9.5970094274
 20
12.9189472425
  0
VERTEX
  8
___SYMBOL
 62
7
  6
CONTINUOUS
 10
9.5971460664
 20
12.9197238539
  0
VERTEX
  8
___SYMBOL
 62
7
  6
CONTINUOUS
 10
9.5973550601
 20
12.9204791473
  0
VERTEX
  8
___SYMBOL
 62
7
  6
CONTINUOUS
 10
9.5976369049
 20
12.921201396
  0
VERTEX
  8
___SYMBOL
 62
7
  6
CONTINUOUS
 10
9.5979920972
 20
12.9218788737
  0
VERTEX
  8
___SYMBOL
 62
7
  6
CONTINUOUS
 10
9.5984211337
 20
12.9224998538
  0
VERTEX
  8
___SYMBOL
 62
7
  6
CONTINUOUS
 10
9.5989245106
 20
12.9230526097
  0
SEQEND
  0
POLYLINE
  8
___SYMBOL
 62
7
  6
CONTINUOUS
 66
1
 70
0
  0
VERTEX
  8
___SYMBOL
 62
7
  6
CONTINUOUS
 10
9.7790786529
 20
12.621178772
  0
VERTEX
  8
___SYMBOL
 62
7
  6
CONTINUOUS
 10
9.7895782559
 20
12.6232229745
  0
VERTEX
  8
___SYMBOL
 62
7
  6
CONTINUOUS
 10
9.7995931685
 20
12.6283439782
  0
VERTEX
  8
___SYMBOL
 62
7
  6
CONTINUOUS
 10
9.8082460377
 20
12.6360930756
  0
VERTEX
  8
___SYMBOL
 62
7
  6
CONTINUOUS
 10
9.815431014
 20
12.6463757314
  0
VERTEX
  8
___SYMBOL
 62
7
  6
CONTINUOUS
 10
9.8205186592
 20
12.6582907983
  0
VERTEX
  8
___SYMBOL
 62
7
  6
CONTINUOUS
 10
9.8234466882
 20
12.6716928866
  0
VERTEX
  8
___SYMBOL
 62
7
  6
CONTINUOUS
 10
9.823958672
 20
12.6854075655
  0
VERTEX
  8
___SYMBOL
 62
7
  6
CONTINUOUS
 10
9.8221077974
 20
12.6990064226
  0
VERTEX
  8
___SYMBOL
 62
7
  6
CONTINUOUS
 10
9.817882984
 20
12.7120578379
  0
VERTEX
  8
___SYMBOL
 62
7
  6
CONTINUOUS
 10
9.8116544415
 20
12.7234182897
  0
VERTEX
  8
___SYMBOL
 62
7
  6
CONTINUOUS
 10
9.8034982181
 20
12.7329488619
  0
VERTEX
  8
___SYMBOL
 62
7
  6
CONTINUOUS
 10
9.7941289567
 20
12.739814541
  0
VERTEX
  8
___SYMBOL
 62
7
  6
CONTINUOUS
 10
9.7836611376
 20
12.7439315224
  0
VERTEX
  8
___SYMBOL
 62
7
  6
CONTINUOUS
 10
9.7730120043
 20
12.7449389855
  0
VERTEX
  8
___SYMBOL
 62
7
  6
CONTINUOUS
 10
9.7625124596
 20
12.7428948413
  0
VERTEX
  8
___SYMBOL
 62
7
  6
CONTINUOUS
 10
9.7524974886
 20
12.7377738377
  0
VERTEX
  8
___SYMBOL
 62
7
  6
CONTINUOUS
 10
9.7438446778
 20
12.7300246819
  0
VERTEX
  8
___SYMBOL
 62
7
  6
CONTINUOUS
 10
9.7366596431
 20
12.7197420261
  0
VERTEX
  8
___SYMBOL
 62
7
  6
CONTINUOUS
 10
9.7315720563
 20
12.7078269592
  0
VERTEX
  8
___SYMBOL
 62
7
  6
CONTINUOUS
 10
9.7286439689
 20
12.6944248709
  0
VERTEX
  8
___SYMBOL
 62
7
  6
CONTINUOUS
 10
9.7281319852
 20
12.680710192
  0
VERTEX
  8
___SYMBOL
 62
7
  6
CONTINUOUS
 10
9.7299828597
 20
12.6671113349
  0
VERTEX
  8
___SYMBOL
 62
7
  6
CONTINUOUS
 10
9.7342076732
 20
12.6540599196
  0
VERTEX
  8
___SYMBOL
 62
7
  6
CONTINUOUS
 10
9.740436274
 20
12.6426994678
  0
VERTEX
  8
___SYMBOL
 62
7
  6
CONTINUOUS
 10
9.7485924973
 20
12.6331688956
  0
VERTEX
  8
___SYMBOL
 62
7
  6
CONTINUOUS
 10
9.7579617588
 20
12.6263032165
  0
VERTEX
  8
___SYMBOL
 62
7
  6
CONTINUOUS
 10
9.7684295196
 20
12.6221862935
  0
VERTEX
  8
___SYMBOL
 62
7
  6
CONTINUOUS
 10
9.7790786529
 20
12.621178772
  0
SEQEND
  0
POLYLINE
  8
___SYMBOL
 62
7
  6
CONTINUOUS
 66
1
 70
0
  0
VERTEX
  8
___SYMBOL
 62
7
  6
CONTINUOUS
 10
9.716229869
 20
12.6470505613
  0
VERTEX
  8
___SYMBOL
 62
7
  6
CONTINUOUS
 10
9.7175338351
 20
12.6428428737
  0
VERTEX
  8
___SYMBOL
 62
7
  6
CONTINUOUS
 10
9.71898472
 20
12.6387361658
  0
VERTEX
  8
___SYMBOL
 62
7
  6
CONTINUOUS
 10
9.7205788804
 20
12.6347407495
  0
VERTEX
  8
___SYMBOL
 62
7
  6
CONTINUOUS
 10
9.7223123135
 20
12.6308666569
  0
VERTEX
  8
___SYMBOL
 62
7
  6
CONTINUOUS
 10
9.7241806668
 20
12.6271236156
  0
VERTEX
  8
___SYMBOL
 62
7
  6
CONTINUOUS
 10
9.726179249
 20
12.6235210242
  0
VERTEX
  8
___SYMBOL
 62
7
  6
CONTINUOUS
 10
9.7283030417
 20
12.6200679286
  0
VERTEX
  8
___SYMBOL
 62
7
  6
CONTINUOUS
 10
9.7305467123
 20
12.6167729992
  0
VERTEX
  8
___SYMBOL
 62
7
  6
CONTINUOUS
 10
9.7329046271
 20
12.6136445094
  0
VERTEX
  8
___SYMBOL
 62
7
  6
CONTINUOUS
 10
9.7353708654
 20
12.6106903147
  0
VERTEX
  8
___SYMBOL
 62
7
  6
CONTINUOUS
 10
9.7379392347
 20
12.6079178327
  0
VERTEX
  8
___SYMBOL
 62
7
  6
CONTINUOUS
 10
9.740603286
 20
12.6053340252
  0
VERTEX
  8
___SYMBOL
 62
7
  6
CONTINUOUS
 10
9.7433563301
 20
12.6029453798
  0
VERTEX
  8
___SYMBOL
 62
7
  6
CONTINUOUS
 10
9.7461914541
 20
12.6007578942
  0
VERTEX
  8
___SYMBOL
 62
7
  6
CONTINUOUS
 10
9.7491015394
 20
12.5987770612
  0
VERTEX
  8
___SYMBOL
 62
7
  6
CONTINUOUS
 10
9.7520792788
 20
12.5970078544
  0
VERTEX
  8
___SYMBOL
 62
7
  6
CONTINUOUS
 10
9.7551171955
 20
12.5954547163
  0
VERTEX
  8
___SYMBOL
 62
7
  6
CONTINUOUS
 10
9.7582076614
 20
12.5941215466
  0
VERTEX
  8
___SYMBOL
 62
7
  6
CONTINUOUS
 10
9.7613429165
 20
12.5930116928
  0
VERTEX
  8
___SYMBOL
 62
7
  6
CONTINUOUS
 10
9.7645150885
 20
12.5921279418
  0
VERTEX
  8
___SYMBOL
 62
7
  6
CONTINUOUS
 10
9.7677162122
 20
12.5914725126
  0
VERTEX
  8
___SYMBOL
 62
7
  6
CONTINUOUS
 10
9.7709382499
 20
12.5910470508
  0
VERTEX
  8
___SYMBOL
 62
7
  6
CONTINUOUS
 10
9.7741731111
 20
12.5908526249
  0
VERTEX
  8
___SYMBOL
 62
7
  6
CONTINUOUS
 10
9.7774126733
 20
12.590889723
  0
VERTEX
  8
___SYMBOL
 62
7
  6
CONTINUOUS
 10
9.7806488023
 20
12.5911582519
  0
VERTEX
  8
___SYMBOL
 62
7
  6
CONTINUOUS
 10
9.7838733722
 20
12.5916575374
  0
VERTEX
  8
___SYMBOL
 62
7
  6
CONTINUOUS
 10
9.7870782865
 20
12.5923863259
  0
VERTEX
  8
___SYMBOL
 62
7
  6
CONTINUOUS
 10
9.7902554978
 20
12.5933427873
  0
VERTEX
  8
___SYMBOL
 62
7
  6
CONTINUOUS
 10
9.7933970282
 20
12.5945245201
  0
VERTEX
  8
___SYMBOL
 62
7
  6
CONTINUOUS
 10
9.7964949897
 20
12.5959285571
  0
VERTEX
  8
___SYMBOL
 62
7
  6
CONTINUOUS
 10
9.7995416034
 20
12.5975513727
  0
VERTEX
  8
___SYMBOL
 62
7
  6
CONTINUOUS
 10
9.8025292195
 20
12.5993888921
  0
VERTEX
  8
___SYMBOL
 62
7
  6
CONTINUOUS
 10
9.8054503362
 20
12.6014365016
  0
VERTEX
  8
___SYMBOL
 62
7
  6
CONTINUOUS
 10
9.8082976189
 20
12.6036890596
  0
VERTEX
  8
___SYMBOL
 62
7
  6
CONTINUOUS
 10
9.8110639182
 20
12.6061409102
  0
VERTEX
  8
___SYMBOL
 62
7
  6
CONTINUOUS
 10
9.8137422881
 20
12.6087858969
  0
VERTEX
  8
___SYMBOL
 62
7
  6
CONTINUOUS
 10
9.8163260033
 20
12.6116173782
  0
VERTEX
  8
___SYMBOL
 62
7
  6
CONTINUOUS
 10
9.8188085764
 20
12.6146282447
  0
VERTEX
  8
___SYMBOL
 62
7
  6
CONTINUOUS
 10
9.8211837737
 20
12.617810936
  0
VERTEX
  8
___SYMBOL
 62
7
  6
CONTINUOUS
 10
9.8234456313
 20
12.6211574608
  0
VERTEX
  8
___SYMBOL
 62
7
  6
CONTINUOUS
 10
9.8255884698
 20
12.6246594161
  0
VERTEX
  8
___SYMBOL
 62
7
  6
CONTINUOUS
 10
9.8276069086
 20
12.6283080087
  0
VERTEX
  8
___SYMBOL
 62
7
  6
CONTINUOUS
 10
9.8294958797
 20
12.6320940772
  0
VERTEX
  8
___SYMBOL
 62
7
  6
CONTINUOUS
 10
9.8312506399
 20
12.6360081151
  0
VERTEX
  8
___SYMBOL
 62
7
  6
CONTINUOUS
 10
9.8328667831
 20
12.6400402945
  0
VERTEX
  8
___SYMBOL
 62
7
  6
CONTINUOUS
 10
9.8343402513
 20
12.6441804908
  0
VERTEX
  8
___SYMBOL
 62
7
  6
CONTINUOUS
 10
9.8356673446
 20
12.6484183082
  0
VERTEX
  8
___SYMBOL
 62
7
  6
CONTINUOUS
 10
9.836844731
 20
12.6527431058
  0
VERTEX
  8
___SYMBOL
 62
7
  6
CONTINUOUS
 10
9.8378694539
 20
12.6571440245
  0
VERTEX
  8
___SYMBOL
 62
7
  6
CONTINUOUS
 10
9.8387389405
 20
12.6616100137
  0
VERTEX
  8
___SYMBOL
 62
7
  6
CONTINUOUS
 10
9.8394510075
 20
12.6661298596
  0
VERTEX
  8
___SYMBOL
 62
7
  6
CONTINUOUS
 10
9.8400038668
 20
12.6706922132
  0
VERTEX
  8
___SYMBOL
 62
7
  6
CONTINUOUS
 10
9.8403961304
 20
12.6752856187
  0
VERTEX
  8
___SYMBOL
 62
7
  6
CONTINUOUS
 10
9.8406268133
 20
12.6798985424
  0
VERTEX
  8
___SYMBOL
 62
7
  6
CONTINUOUS
 10
9.8406953362
 20
12.6845194014
  0
VERTEX
  8
___SYMBOL
 62
7
  6
CONTINUOUS
 10
9.8406015271
 20
12.6891365932
  0
VERTEX
  8
___SYMBOL
 62
7
  6
CONTINUOUS
 10
9.8403456216
 20
12.6937385243
  0
VERTEX
  8
___SYMBOL
 62
7
  6
CONTINUOUS
 10
9.8399282621
 20
12.6983136394
  0
VERTEX
  8
___SYMBOL
 62
7
  6
CONTINUOUS
 10
9.8393504968
 20
12.7028504508
  0
VERTEX
  8
___SYMBOL
 62
7
  6
CONTINUOUS
 10
9.8386137762
 20
12.7073375669
  0
VERTEX
  8
___SYMBOL
 62
7
  6
CONTINUOUS
 10
9.8377199503
 20
12.7117637207
  0
VERTEX
  8
___SYMBOL
 62
7
  6
CONTINUOUS
 10
9.8366712633
 20
12.7161177985
  0
VERTEX
  8
___SYMBOL
 62
7
  6
CONTINUOUS
 10
9.8354703486
 20
12.7203888675
  0
VERTEX
  8
___SYMBOL
 62
7
  6
CONTINUOUS
 10
9.8341202215
 20
12.7245662032
  0
VERTEX
  8
___SYMBOL
 62
7
  6
CONTINUOUS
 10
9.832624272
 20
12.7286393167
  0
VERTEX
  8
___SYMBOL
 62
7
  6
CONTINUOUS
 10
9.8309862565
 20
12.7325979807
  0
VERTEX
  8
___SYMBOL
 62
7
  6
CONTINUOUS
 10
9.8292102878
 20
12.7364322551
  0
VERTEX
  8
___SYMBOL
 62
7
  6
CONTINUOUS
 10
9.8273008254
 20
12.7401325124
  0
VERTEX
  8
___SYMBOL
 62
7
  6
CONTINUOUS
 10
9.8252626637
 20
12.7436894614
  0
VERTEX
  8
___SYMBOL
 62
7
  6
CONTINUOUS
 10
9.8231009204
 20
12.747094171
  0
VERTEX
  8
___SYMBOL
 62
7
  6
CONTINUOUS
 10
9.8208210236
 20
12.750338092
  0
VERTEX
  8
___SYMBOL
 62
7
  6
CONTINUOUS
 10
9.8184286979
 20
12.7534130792
  0
VERTEX
  8
___SYMBOL
 62
7
  6
CONTINUOUS
 10
9.8159299504
 20
12.7563114116
  0
VERTEX
  8
___SYMBOL
 62
7
  6
CONTINUOUS
 10
9.8133310551
 20
12.7590258115
  0
VERTEX
  8
___SYMBOL
 62
7
  6
CONTINUOUS
 10
9.8106385377
 20
12.7615494633
  0
VERTEX
  8
___SYMBOL
 62
7
  6
CONTINUOUS
 10
9.8078591591
 20
12.7638760302
  0
VERTEX
  8
___SYMBOL
 62
7
  6
CONTINUOUS
 10
9.804999898
 20
12.7659996705
  0
VERTEX
  8
___SYMBOL
 62
7
  6
CONTINUOUS
 10
9.8020679338
 20
12.7679150517
  0
VERTEX
  8
___SYMBOL
 62
7
  6
CONTINUOUS
 10
9.7990706286
 20
12.7696173645
  0
VERTEX
  8
___SYMBOL
 62
7
  6
CONTINUOUS
 10
9.7960155083
 20
12.7711023345
  0
VERTEX
  8
___SYMBOL
 62
7
  6
CONTINUOUS
 10
9.7929102442
 20
12.772366233
  0
VERTEX
  8
___SYMBOL
 62
7
  6
CONTINUOUS
 10
9.7897626335
 20
12.7734058865
  0
VERTEX
  8
___SYMBOL
 62
7
  6
CONTINUOUS
 10
9.7865805795
 20
12.7742186844
  0
VERTEX
  8
___SYMBOL
 62
7
  6
CONTINUOUS
 10
9.7833720721
 20
12.7748025858
  0
VERTEX
  8
___SYMBOL
 62
7
  6
CONTINUOUS
 10
9.7801451678
 20
12.7751561247
  0
VERTEX
  8
___SYMBOL
 62
7
  6
CONTINUOUS
 10
9.7769079691
 20
12.7752784133
  0
VERTEX
  8
___SYMBOL
 62
7
  6
CONTINUOUS
 10
9.7736686044
 20
12.7751691446
  0
VERTEX
  8
___SYMBOL
 62
7
  6
CONTINUOUS
 10
9.7704352076
 20
12.7748285928
  0
VERTEX
  8
___SYMBOL
 62
7
  6
CONTINUOUS
 10
9.7672158974
 20
12.7742576132
  0
VERTEX
  8
___SYMBOL
 62
7
  6
CONTINUOUS
 10
9.7640187573
 20
12.7734576394
  0
VERTEX
  8
___SYMBOL
 62
7
  6
CONTINUOUS
 10
9.7608518153
 20
12.77243068
  0
VERTEX
  8
___SYMBOL
 62
7
  6
CONTINUOUS
 10
9.7577230232
 20
12.7711793138
  0
VERTEX
  8
___SYMBOL
 62
7
  6
CONTINUOUS
 10
9.7546402373
 20
12.7697066829
  0
VERTEX
  8
___SYMBOL
 62
7
  6
CONTINUOUS
 10
9.7516111982
 20
12.7680164848
  0
VERTEX
  8
___SYMBOL
 62
7
  6
CONTINUOUS
 10
9.7486435117
 20
12.7661129636
  0
VERTEX
  8
___SYMBOL
 62
7
  6
CONTINUOUS
 10
9.7457446294
 20
12.7640008989
  0
VERTEX
  8
___SYMBOL
 62
7
  6
CONTINUOUS
 10
9.7429218303
 20
12.761685594
  0
VERTEX
  8
___SYMBOL
 62
7
  6
CONTINUOUS
 10
9.7401822022
 20
12.7591728625
  0
SEQEND
  0
POLYLINE
  8
___SYMBOL
 62
7
  6
CONTINUOUS
 66
1
 70
0
  0
VERTEX
  8
___SYMBOL
 62
7
  6
CONTINUOUS
 10
9.5378785626
 20
12.6280604305
  0
VERTEX
  8
___SYMBOL
 62
7
  6
CONTINUOUS
 10
9.5478604666
 20
12.6308304147
  0
VERTEX
  8
___SYMBOL
 62
7
  6
CONTINUOUS
 10
9.557143095
 20
12.6366313613
  0
VERTEX
  8
___SYMBOL
 62
7
  6
CONTINUOUS
 10
9.5649130706
 20
12.6449548439
  0
VERTEX
  8
___SYMBOL
 62
7
  6
CONTINUOUS
 10
9.5710755084
 20
12.6556992707
  0
VERTEX
  8
___SYMBOL
 62
7
  6
CONTINUOUS
 10
9.5750904604
 20
12.6679231957
  0
VERTEX
  8
___SYMBOL
 62
7
  6
CONTINUOUS
 10
9.5769088512
 20
12.681477322
  0
VERTEX
  8
___SYMBOL
 62
7
  6
CONTINUOUS
 10
9.5763713528
 20
12.695173922
  0
VERTEX
  8
___SYMBOL
 62
7
  6
CONTINUOUS
 10
9.573561595
 20
12.7085900652
  0
VERTEX
  8
___SYMBOL
 62
7
  6
CONTINUOUS
 10
9.5685013599
 20
12.7212948898
  0
VERTEX
  8
___SYMBOL
 62
7
  6
CONTINUOUS
 10
9.5616340478
 20
12.7321753752
  0
VERTEX
  8
___SYMBOL
 62
7
  6
CONTINUOUS
 10
9.5530434927
 20
12.7410984369
  0
VERTEX
  8
___SYMBOL
 62
7
  6
CONTINUOUS
 10
9.5434824779
 20
12.7472823069
  0
VERTEX
  8
___SYMBOL
 62
7
  6
CONTINUOUS
 10
9.5330677584
 20
12.7506514619
  0
VERTEX
  8
___SYMBOL
 62
7
  6
CONTINUOUS
 10
9.5227118829
 20
12.7509106322
  0
VERTEX
  8
___SYMBOL
 62
7
  6
CONTINUOUS
 10
9.5127299789
 20
12.7481405897
  0
VERTEX
  8
___SYMBOL
 62
7
  6
CONTINUOUS
 10
9.5034473505
 20
12.7423397014
  0
VERTEX
  8
___SYMBOL
 62
7
  6
CONTINUOUS
 10
9.4956773749
 20
12.7340162188
  0
VERTEX
  8
___SYMBOL
 62
7
  6
CONTINUOUS
 10
9.489514908
 20
12.7232717337
  0
VERTEX
  8
___SYMBOL
 62
7
  6
CONTINUOUS
 10
9.4854999851
 20
12.7110478087
  0
VERTEX
  8
___SYMBOL
 62
7
  6
CONTINUOUS
 10
9.4836815943
 20
12.6974937407
  0
VERTEX
  8
___SYMBOL
 62
7
  6
CONTINUOUS
 10
9.4842190927
 20
12.6837971407
  0
VERTEX
  8
___SYMBOL
 62
7
  6
CONTINUOUS
 10
9.4870288505
 20
12.6703809975
  0
VERTEX
  8
___SYMBOL
 62
7
  6
CONTINUOUS
 10
9.4920890856
 20
12.6576761145
  0
VERTEX
  8
___SYMBOL
 62
7
  6
CONTINUOUS
 10
9.4989563977
 20
12.6467956875
  0
VERTEX
  8
___SYMBOL
 62
7
  6
CONTINUOUS
 10
9.5075469528
 20
12.6378726258
  0
VERTEX
  8
___SYMBOL
 62
7
  6
CONTINUOUS
 10
9.5171079676
 20
12.6316887558
  0
VERTEX
  8
___SYMBOL
 62
7
  6
CONTINUOUS
 10
9.5275226871
 20
12.6283196008
  0
VERTEX
  8
___SYMBOL
 62
7
  6
CONTINUOUS
 10
9.5378785626
 20
12.6280604305
  0
SEQEND
  0
POLYLINE
  8
___SYMBOL
 62
7
  6
CONTINUOUS
 66
1
 70
0
  0
VERTEX
  8
___SYMBOL
 62
7
  6
CONTINUOUS
 10
9.5634069786
 20
12.7548036653
  0
VERTEX
  8
___SYMBOL
 62
7
  6
CONTINUOUS
 10
9.5603248999
 20
12.7569610104
  0
VERTEX
  8
___SYMBOL
 62
7
  6
CONTINUOUS
 10
9.5571619692
 20
12.7589008831
  0
VERTEX
  8
___SYMBOL
 62
7
  6
CONTINUOUS
 10
9.5539270376
 20
12.760617855
  0
VERTEX
  8
___SYMBOL
 62
7
  6
CONTINUOUS
 10
9.5506291579
 20
12.7621071212
  0
VERTEX
  8
___SYMBOL
 62
7
  6
CONTINUOUS
 10
9.5472775589
 20
12.7633645141
  0
VERTEX
  8
___SYMBOL
 62
7
  6
CONTINUOUS
 10
9.5438816196
 20
12.7643865152
  0
VERTEX
  8
___SYMBOL
 62
7
  6
CONTINUOUS
 10
9.5404508432
 20
12.7651702643
  0
VERTEX
  8
___SYMBOL
 62
7
  6
CONTINUOUS
 10
9.5369948305
 20
12.7657135683
  0
VERTEX
  8
___SYMBOL
 62
7
  6
CONTINUOUS
 10
9.5335232528
 20
12.7660149067
  0
VERTEX
  8
___SYMBOL
 62
7
  6
CONTINUOUS
 10
9.530045825
 20
12.7660734363
  0
VERTEX
  8
___SYMBOL
 62
7
  6
CONTINUOUS
 10
9.5265722782
 20
12.7658889934
  0
VERTEX
  8
___SYMBOL
 62
7
  6
CONTINUOUS
 10
9.5231123329
 20
12.765462094
  0
VERTEX
  8
___SYMBOL
 62
7
  6
CONTINUOUS
 10
9.5196756715
 20
12.7647939328
  0
VERTEX
  8
___SYMBOL
 62
7
  6
CONTINUOUS
 10
9.516271911
 20
12.7638863796
  0
VERTEX
  8
___SYMBOL
 62
7
  6
CONTINUOUS
 10
9.5129105766
 20
12.762741974
  0
VERTEX
  8
___SYMBOL
 62
7
  6
CONTINUOUS
 10
9.5096010746
 20
12.7613639187
  0
VERTEX
  8
___SYMBOL
 62
7
  6
CONTINUOUS
 10
9.5063526664
 20
12.7597560699
  0
VERTEX
  8
___SYMBOL
 62
7
  6
CONTINUOUS
 10
9.5031744423
 20
12.757922927
  0
VERTEX
  8
___SYMBOL
 62
7
  6
CONTINUOUS
 10
9.5000752963
 20
12.75586962
  0
VERTEX
  8
___SYMBOL
 62
7
  6
CONTINUOUS
 10
9.497063901
 20
12.7536018947
  0
VERTEX
  8
___SYMBOL
 62
7
  6
CONTINUOUS
 10
9.4941486836
 20
12.7511260973
  0
VERTEX
  8
___SYMBOL
 62
7
  6
CONTINUOUS
 10
9.4913378019
 20
12.748449156
  0
VERTEX
  8
___SYMBOL
 62
7
  6
CONTINUOUS
 10
9.488639122
 20
12.7455785619
  0
VERTEX
  8
___SYMBOL
 62
7
  6
CONTINUOUS
 10
9.4860601959
 20
12.7425223482
  0
VERTEX
  8
___SYMBOL
 62
7
  6
CONTINUOUS
 10
9.4836082404
 20
12.7392890674
  0
VERTEX
  8
___SYMBOL
 62
7
  6
CONTINUOUS
 10
9.4812901171
 20
12.7358877674
  0
VERTEX
  8
___SYMBOL
 62
7
  6
CONTINUOUS
 10
9.4791123131
 20
12.7323279665
  0
VERTEX
  8
___SYMBOL
 62
7
  6
CONTINUOUS
 10
9.4770809227
 20
12.7286196265
  0
VERTEX
  8
___SYMBOL
 62
7
  6
CONTINUOUS
 10
9.4752016305
 20
12.7247731247
  0
VERTEX
  8
___SYMBOL
 62
7
  6
CONTINUOUS
 10
9.4734796957
 20
12.7207992253
  0
VERTEX
  8
___SYMBOL
 62
7
  6
CONTINUOUS
 10
9.4719199367
 20
12.7167090489
  0
VERTEX
  8
___SYMBOL
 62
7
  6
CONTINUOUS
 10
9.4705267186
 20
12.7125140413
  0
VERTEX
  8
___SYMBOL
 62
7
  6
CONTINUOUS
 10
9.4693039401
 20
12.7082259419
  0
VERTEX
  8
___SYMBOL
 62
7
  6
CONTINUOUS
 10
9.468255023
 20
12.7038567506
  0
VERTEX
  8
___SYMBOL
 62
7
  6
CONTINUOUS
 10
9.4673829026
 20
12.699418694
  0
VERTEX
  8
___SYMBOL
 62
7
  6
CONTINUOUS
 10
9.4666900194
 20
12.6949241918
  0
VERTEX
  8
___SYMBOL
 62
7
  6
CONTINUOUS
 10
9.4661783124
 20
12.6903858212
  0
VERTEX
  8
___SYMBOL
 62
7
  6
CONTINUOUS
 10
9.4658492136
 20
12.6858162826
  0
VERTEX
  8
___SYMBOL
 62
7
  6
CONTINUOUS
 10
9.4657036439
 20
12.6812283633
  0
VERTEX
  8
___SYMBOL
 62
7
  6
CONTINUOUS
 10
9.4657420107
 20
12.6766349021
  0
VERTEX
  8
___SYMBOL
 62
7
  6
CONTINUOUS
 10
9.4659642067
 20
12.6720487535
  0
VERTEX
  8
___SYMBOL
 62
7
  6
CONTINUOUS
 10
9.4663696099
 20
12.6674827512
  0
VERTEX
  8
___SYMBOL
 62
7
  6
CONTINUOUS
 10
9.4669570861
 20
12.6629496729
  0
VERTEX
  8
___SYMBOL
 62
7
  6
CONTINUOUS
 10
9.467724991
 20
12.658462204
  0
VERTEX
  8
___SYMBOL
 62
7
  6
CONTINUOUS
 10
9.4686711759
 20
12.654032902
  0
VERTEX
  8
___SYMBOL
 62
7
  6
CONTINUOUS
 10
9.469792993
 20
12.6496741622
  0
VERTEX
  8
___SYMBOL
 62
7
  6
CONTINUOUS
 10
9.4710873028
 20
12.6453981818
  0
VERTEX
  8
___SYMBOL
 62
7
  6
CONTINUOUS
 10
9.4725504836
 20
12.641216927
  0
VERTEX
  8
___SYMBOL
 62
7
  6
CONTINUOUS
 10
9.4741784405
 20
12.6371420984
  0
VERTEX
  8
___SYMBOL
 62
7
  6
CONTINUOUS
 10
9.4759666181
 20
12.6331850992
  0
VERTEX
  8
___SYMBOL
 62
7
  6
CONTINUOUS
 10
9.4779100122
 20
12.6293570026
  0
VERTEX
  8
___SYMBOL
 62
7
  6
CONTINUOUS
 10
9.4800031845
 20
12.6256685211
  0
VERTEX
  8
___SYMBOL
 62
7
  6
CONTINUOUS
 10
9.4822402773
 20
12.6221299767
  0
VERTEX
  8
___SYMBOL
 62
7
  6
CONTINUOUS
 10
9.4846150305
 20
12.6187512715
  0
VERTEX
  8
___SYMBOL
 62
7
  6
CONTINUOUS
 10
9.4871207985
 20
12.6155418607
  0
VERTEX
  8
___SYMBOL
 62
7
  6
CONTINUOUS
 10
9.4897505691
 20
12.6125107253
  0
VERTEX
  8
___SYMBOL
 62
7
  6
CONTINUOUS
 10
9.4924969832
 20
12.6096663478
  0
VERTEX
  8
___SYMBOL
 62
7
  6
CONTINUOUS
 10
9.4953523552
 20
12.6070166878
  0
VERTEX
  8
___SYMBOL
 62
7
  6
CONTINUOUS
 10
9.4983086947
 20
12.6045691602
  0
VERTEX
  8
___SYMBOL
 62
7
  6
CONTINUOUS
 10
9.5013577285
 20
12.6023306142
  0
VERTEX
  8
___SYMBOL
 62
7
  6
CONTINUOUS
 10
9.5044909243
 20
12.6003073141
  0
VERTEX
  8
___SYMBOL
 62
7
  6
CONTINUOUS
 10
9.5076995142
 20
12.5985049218
  0
VERTEX
  8
___SYMBOL
 62
7
  6
CONTINUOUS
 10
9.5109745191
 20
12.5969284814
  0
VERTEX
  8
___SYMBOL
 62
7
  6
CONTINUOUS
 10
9.5143067744
 20
12.5955824041
  0
VERTEX
  8
___SYMBOL
 62
7
  6
CONTINUOUS
 10
9.5176869549
 20
12.594470457
  0
VERTEX
  8
___SYMBOL
 62
7
  6
CONTINUOUS
 10
9.5211056017
 20
12.5935957517
  0
VERTEX
  8
___SYMBOL
 62
7
  6
CONTINUOUS
 10
9.5245531479
 20
12.5929607359
  0
VERTEX
  8
___SYMBOL
 62
7
  6
CONTINUOUS
 10
9.528019946
 20
12.5925671868
  0
VERTEX
  8
___SYMBOL
 62
7
  6
CONTINUOUS
 10
9.5314962943
 20
12.5924162056
  0
VERTEX
  8
___SYMBOL
 62
7
  6
CONTINUOUS
 10
9.5349724648
 20
12.5925082148
  0
VERTEX
  8
___SYMBOL
 62
7
  6
CONTINUOUS
 10
9.5384387297
 20
12.5928429569
  0
VERTEX
  8
___SYMBOL
 62
7
  6
CONTINUOUS
 10
9.5418853889
 20
12.5934194952
  0
VERTEX
  8
___SYMBOL
 62
7
  6
CONTINUOUS
 10
9.5453027973
 20
12.5942362163
  0
VERTEX
  8
___SYMBOL
 62
7
  6
CONTINUOUS
 10
9.5486813917
 20
12.5952908348
  0
VERTEX
  8
___SYMBOL
 62
7
  6
CONTINUOUS
 10
9.5520117174
 20
12.5965803992
  0
VERTEX
  8
___SYMBOL
 62
7
  6
CONTINUOUS
 10
9.5552844547
 20
12.598101301
  0
VERTEX
  8
___SYMBOL
 62
7
  6
CONTINUOUS
 10
9.5584904452
 20
12.5998492841
  0
VERTEX
  8
___SYMBOL
 62
7
  6
CONTINUOUS
 10
9.5616207173
 20
12.6018194568
  0
VERTEX
  8
___SYMBOL
 62
7
  6
CONTINUOUS
 10
9.5646665113
 20
12.6040063058
  0
VERTEX
  8
___SYMBOL
 62
7
  6
CONTINUOUS
 10
9.5676193037
 20
12.6064037114
  0
VERTEX
  8
___SYMBOL
 62
7
  6
CONTINUOUS
 10
9.5704708314
 20
12.6090049648
  0
VERTEX
  8
___SYMBOL
 62
7
  6
CONTINUOUS
 10
9.5732131147
 20
12.6118027866
  0
VERTEX
  8
___SYMBOL
 62
7
  6
CONTINUOUS
 10
9.5758384797
 20
12.6147893473
  0
VERTEX
  8
___SYMBOL
 62
7
  6
CONTINUOUS
 10
9.5783395794
 20
12.6179562894
  0
VERTEX
  8
___SYMBOL
 62
7
  6
CONTINUOUS
 10
9.5807094148
 20
12.6212947504
  0
VERTEX
  8
___SYMBOL
 62
7
  6
CONTINUOUS
 10
9.5829413542
 20
12.624795388
  0
VERTEX
  8
___SYMBOL
 62
7
  6
CONTINUOUS
 10
9.5850291516
 20
12.628448406
  0
VERTEX
  8
___SYMBOL
 62
7
  6
CONTINUOUS
 10
9.5869669645
 20
12.6322435818
  0
VERTEX
  8
___SYMBOL
 62
7
  6
CONTINUOUS
 10
9.5887493703
 20
12.6361702949
  0
VERTEX
  8
___SYMBOL
 62
7
  6
CONTINUOUS
 10
9.590371381
 20
12.6402175569
  0
VERTEX
  8
___SYMBOL
 62
7
  6
CONTINUOUS
 10
9.5918284575
 20
12.6443740418
  0
VERTEX
  8
___SYMBOL
 62
7
  6
CONTINUOUS
 10
9.5931165223
 20
12.6486281182
  0
VERTEX
  8
___SYMBOL
 62
7
  6
CONTINUOUS
 10
9.594231971
 20
12.6529678813
  0
VERTEX
  8
___SYMBOL
 62
7
  6
CONTINUOUS
 10
9.5951716821
 20
12.6573811868
  0
VERTEX
  8
___SYMBOL
 62
7
  6
CONTINUOUS
 10
9.5959330258
 20
12.6618556846
  0
VERTEX
  8
___SYMBOL
 62
7
  6
CONTINUOUS
 10
9.5965138717
 20
12.666378853
  0
SEQEND
  0
ENDBLK
  8
0
  6
BYBLOCK
 62
0
  0
BLOCK
  8
___SYMBOL
 62
2
  6
CONTINUOUS
  2
CUT-OUT_TEMPLATE_SKU_SIN_BL0
 70
64
 10
14.4700451766
 20
21.5731712648
  0
TEXT
  8
___SYMBOL
 62
2
  6
CONTINUOUS
 10
12.0700451766
 20
23.2339837632
  7
STANDARD
 40
0.25
  1
CUT-OUT TEMPLATE
 41
0.8
 72
0
  0
TEXT
  8
___SYMBOL
 62
2
  6
CONTINUOUS
 10
12.0700451766
 20
22.8589837632
  7
STANDARD
 40
0.25
  1
UNDERCOUNTER SINK
 41
0.8
 72
0
  0
TEXT
  8
___SYMBOL
 62
2
  6
CONTINUOUS
 10
12.0700451766
 20
22.4839837632
  7
STANDARD
 40
0.25
  1
PLANTILLA DE RECORTE
 41
0.8
 72
0
  0
TEXT
  8
___SYMBOL
 62
2
  6
CONTINUOUS
 10
12.0700451766
 20
22.1089837632
  7
STANDARD
 40
0.25
  1
FREGADERO MONTADO DEBAJO
 41
0.8
 72
0
  0
TEXT
  8
___SYMBOL
 62
2
  6
CONTINUOUS
 10
12.0700451766
 20
21.7339837632
  7
STANDARD
 40
0.25
  1
  DEL MOSTRADOR
 41
0.8
 72
0
  0
TEXT
  8
___SYMBOL
 62
2
  6
CONTINUOUS
 10
12.0700451766
 20
21.3589837632
  7
STANDARD
 40
0.25
  1
PLAN DE DÉCOUPE
 41
0.8
 72
0
  0
TEXT
  8
___SYMBOL
 62
2
  6
CONTINUOUS
 10
12.0700451766
 20
20.9839837632
  7
STANDARD
 40
0.25
  1
ÉVIER SOUS-COMPTOIR
 41
0.8
 72
0
  0
TEXT
  8
___SYMBOL
 62
2
  6
CONTINUOUS
 10
12.0700451766
 20
20.6089837632
  7
STANDARD
 40
0.25
  1
WHITEHAVEN   6487-**-A
 41
0.8
 72
0
  0
TEXT
  8
___SYMBOL
 62
2
  6
CONTINUOUS
 10
12.077784492
 20
19.7489918388
  7
STANDARD
 40
0.25
  1
WHITEHAVEN   6486-**-A
 41
0.8
 72
0
  0
TEXT
  8
___SYMBOL
 62
2
  6
CONTINUOUS
 10
12.0809207958
 20
18.8564670141
  7
STANDARD
 40
0.25
  1
HAYRIDGE     7251-**-
 41
0.8
 72
0
  0
LINE
  8
___SYMBOL
 62
2
  6
CONTINUOUS
 10
12.5966169528
 20
24.285897001
 11
12.3833135009
 21
24.0322487281
  0
LINE
  8
___SYMBOL
 62
2
  6
CONTINUOUS
 10
12.4045551408
 20
24.285897001
 11
12.5966169528
 21
24.285897001
  0
LINE
  8
___SYMBOL
 62
2
  6
CONTINUOUS
 10
12.4045551408
 20
24.285897001
 11
12.266790974
 21
24.1220758113
  0
LINE
  8
___SYMBOL
 62
2
  6
CONTINUOUS
 10
12.266790974
 20
24.285897001
 11
12.266790974
 21
24.1220758113
  0
LINE
  8
___SYMBOL
 62
2
  6
CONTINUOUS
 10
12.0922907471
 20
24.285897001
 11
12.266790974
 21
24.285897001
  0
LINE
  8
___SYMBOL
 62
2
  6
CONTINUOUS
 10
12.0922907471
 20
24.285897001
 11
12.0922907471
 21
23.6999593482
  0
LINE
  8
___SYMBOL
 62
2
  6
CONTINUOUS
 10
12.266790974
 20
23.6999833516
 11
12.0922907471
 21
23.6999593482
  0
LINE
  8
___SYMBOL
 62
2
  6
CONTINUOUS
 10
12.266790974
 20
23.9014831856
 11
12.266790974
 21
23.6999833516
  0
LINE
  8
___SYMBOL
 62
2
  6
CONTINUOUS
 10
12.4205289141
 20
23.6999833516
 11
12.266790974
 21
23.9014831856
  0
LINE
  8
___SYMBOL
 62
2
  6
CONTINUOUS
 10
12.4205289141
 20
23.6999833516
 11
12.6368213356
 21
23.6999833516
  0
LINE
  8
___SYMBOL
 62
2
  6
CONTINUOUS
 10
12.6368213356
 20
23.6999833516
 11
12.3833135009
 21
24.0322487281
  0
SOLID
  8
___SYMBOL
 62
2
  6
CONTINUOUS
 10
12.266790974
 20
24.1220758113
 11
12.4045551408
 21
24.285897001
 12
12.5966169528
 22
24.285897001
 13
12.5966169528
 23
24.285897001
  0
SOLID
  8
___SYMBOL
 62
2
  6
CONTINUOUS
 10
12.5966169528
 20
24.285897001
 11
12.3833135009
 21
24.0322487281
 12
12.266790974
 22
24.1220758113
 13
12.266790974
 23
24.1220758113
  0
SOLID
  8
___SYMBOL
 62
2
  6
CONTINUOUS
 10
12.266790974
 20
23.9014831856
 11
12.3833135009
 21
24.0322487281
 12
12.4205289141
 22
23.6999833516
 13
12.4205289141
 23
23.6999833516
  0
SOLID
  8
___SYMBOL
 62
2
  6
CONTINUOUS
 10
12.3833135009
 20
24.0322487281
 11
12.6368213356
 21
23.6999833516
 12
12.4205289141
 22
23.6999833516
 13
12.4205289141
 23
23.6999833516
  0
SOLID
  8
___SYMBOL
 62
2
  6
CONTINUOUS
 10
12.266790974
 20
23.6999833516
 11
12.0922907471
 21
23.6999593482
 12
12.266790974
 22
23.9014831856
 13
12.266790974
 23
23.9014831856
  0
SOLID
  8
___SYMBOL
 62
2
  6
CONTINUOUS
 10
12.3833135009
 20
24.0322487281
 11
12.266790974
 21
23.9014831856
 12
12.266790974
 22
24.1220758113
 13
12.266790974
 23
24.1220758113
  0
SOLID
  8
___SYMBOL
 62
2
  6
CONTINUOUS
 10
12.266790974
 20
23.9014831856
 11
12.0922907471
 21
23.6999593482
 12
12.266790974
 22
24.1220758113
 13
12.266790974
 23
24.1220758113
  0
SOLID
  8
___SYMBOL
 62
2
  6
CONTINUOUS
 10
12.266790974
 20
24.1220758113
 11
12.0922907471
 21
23.6999593482
 12
12.266790974
 22
24.285897001
 13
12.266790974
 23
24.285897001
  0
SOLID
  8
___SYMBOL
 62
2
  6
CONTINUOUS
 10
12.0922907471
 20
23.6999593482
 11
12.0922907471
 21
24.285897001
 12
12.266790974
 22
24.285897001
 13
12.266790974
 23
24.285897001
  0
CIRCLE
  8
___SYMBOL
 62
2
  6
CONTINUOUS
 10
12.8133301723
 20
23.9918189244
 40
0.298056591
  0
CIRCLE
  8
___SYMBOL
 62
2
  6
CONTINUOUS
 10
12.8133301723
 20
23.9918189244
 40
0.1247694151
  0
SOLID
  8
___SYMBOL
 62
2
  6
CONTINUOUS
 10
12.7212256204
 20
24.2752875875
 11
12.7821747749
 21
24.2882427302
 12
12.8444855697
 22
24.2882427302
 13
12.8444855697
 23
24.2882427302
  0
SOLID
  8
___SYMBOL
 62
2
  6
CONTINUOUS
 10
12.8444855697
 20
24.2882427302
 11
12.9054347242
 21
24.2752875875
 12
12.7212256204
 22
24.2752875875
 13
12.7212256204
 23
24.2752875875
  0
SOLID
  8
___SYMBOL
 62
2
  6
CONTINUOUS
 10
12.6643018768
 20
24.249943504
 11
12.7212256204
 21
24.2752875875
 12
12.9054347242
 22
24.2752875875
 13
12.9054347242
 23
24.2752875875
  0
SOLID
  8
___SYMBOL
 62
2
  6
CONTINUOUS
 10
12.9054347242
 20
24.2752875875
 11
12.9623584678
 21
24.249943504
 12
12.6643018768
 22
24.249943504
 13
12.6643018768
 23
24.249943504
  0
SOLID
  8
___SYMBOL
 62
2
  6
CONTINUOUS
 10
12.6138913848
 20
24.2133181377
 11
12.6643018768
 21
24.249943504
 12
12.9623584678
 22
24.249943504
 13
12.9623584678
 23
24.249943504
  0
SOLID
  8
___SYMBOL
 62
2
  6
CONTINUOUS
 10
12.9623584678
 20
24.249943504
 11
13.0127689598
 21
24.2133181377
 12
12.6138913848
 22
24.2133181377
 13
12.6138913848
 23
24.2133181377
  0
SOLID
  8
___SYMBOL
 62
2
  6
CONTINUOUS
 10
12.5721973249
 20
24.167012193
 11
12.6138913848
 21
24.2133181377
 12
13.0127689598
 22
24.2133181377
 13
13.0127689598
 23
24.2133181377
  0
SOLID
  8
___SYMBOL
 62
2
  6
CONTINUOUS
 10
13.0127689598
 20
24.2133181377
 11
13.0544630197
 21
24.167012193
 12
12.5721973249
 22
24.167012193
 13
12.5721973249
 23
24.167012193
  0
SOLID
  8
___SYMBOL
 62
2
  6
CONTINUOUS
 10
12.8133301723
 20
24.1165883395
 11
12.5410419275
 21
24.1130494617
 12
13.0544630197
 22
24.167012193
 13
13.0544630197
 23
24.167012193
  0
SOLID
  8
___SYMBOL
 62
2
  6
CONTINUOUS
 10
12.5410419275
 20
24.1130494617
 11
12.5721973249
 21
24.167012193
 12
13.0544630197
 22
24.167012193
 13
13.0544630197
 23
24.167012193
  0
SOLID
  8
___SYMBOL
 62
2
  6
CONTINUOUS
 10
13.0544630197
 20
24.167012193
 11
13.0856184171
 21
24.1130494617
 12
12.8133301723
 22
24.1165883395
 13
12.8133301723
 23
24.1165883395
  0
SOLID
  8
___SYMBOL
 62
2
  6
CONTINUOUS
 10
12.8133301723
 20
24.1165883395
 11
12.7747743027
 21
24.1104816897
 12
12.5410419275
 22
24.1130494617
 13
12.5410419275
 23
24.1130494617
  0
SOLID
  8
___SYMBOL
 62
2
  6
CONTINUOUS
 10
12.8518860419
 20
24.1104816897
 11
12.8133301723
 21
24.1165883395
 12
13.0856184171
 22
24.1130494617
 13
13.0856184171
 23
24.1130494617
  0
SOLID
  8
___SYMBOL
 62
2
  6
CONTINUOUS
 10
12.7123895951
 20
24.0651565466
 11
12.5217868329
 21
24.0537883742
 12
12.7399925502
 22
24.0927595016
 13
12.7399925502
 23
24.0927595016
  0
SOLID
  8
___SYMBOL
 62
2
  6
CONTINUOUS
 10
12.7399925502
 20
24.0927595016
 11
12.5217868329
 21
24.0537883742
 12
12.7747743027
 22
24.1104816897
 13
12.7747743027
 23
24.1104816897
  0
SOLID
  8
___SYMBOL
 62
2
  6
CONTINUOUS
 10
12.5217868329
 20
24.0537883742
 11
12.5410419275
 21
24.1130494617
 12
12.7747743027
 22
24.1104816897
 13
12.7747743027
 23
24.1104816897
  0
SOLID
  8
___SYMBOL
 62
2
  6
CONTINUOUS
 10
12.8518860419
 20
24.1104816897
 11
13.0856184171
 21
24.1130494617
 12
12.8866677944
 22
24.0927595016
 13
12.8866677944
 23
24.0927595016
  0
SOLID
  8
___SYMBOL
 62
2
  6
CONTINUOUS
 10
12.8866677944
 20
24.0927595016
 11
13.0856184171
 21
24.1130494617
 12
12.9142707495
 22
24.0651565466
 13
12.9142707495
 23
24.0651565466
  0
SOLID
  8
___SYMBOL
 62
2
  6
CONTINUOUS
 10
13.0856184171
 20
24.1130494617
 11
13.1048735117
 21
24.0537883742
 12
12.9142707495
 22
24.0651565466
 13
12.9142707495
 23
24.0651565466
  0
SOLID
  8
___SYMBOL
 62
2
  6
CONTINUOUS
 10
12.7123895951
 20
24.0651565466
 11
12.6946674071
 21
24.0303747941
 12
12.5217868329
 22
24.0537883742
 13
12.5217868329
 23
24.0537883742
  0
SOLID
  8
___SYMBOL
 62
2
  6
CONTINUOUS
 10
12.9319929375
 20
24.0303747941
 11
12.9142707495
 21
24.0651565466
 12
13.1048735117
 22
24.0537883742
 13
13.1048735117
 23
24.0537883742
  0
SOLID
  8
___SYMBOL
 62
2
  6
CONTINUOUS
 10
12.5152735813
 20
23.9918189244
 11
12.5217868329
 21
24.0537883742
 12
12.6946674071
 22
24.0303747941
 13
12.6946674071
 23
24.0303747941
  0
SOLID
  8
___SYMBOL
 62
2
  6
CONTINUOUS
 10
12.6946674071
 20
24.0303747941
 11
12.6885607572
 21
23.9918189244
 12
12.5152735813
 22
23.9918189244
 13
12.5152735813
 23
23.9918189244
  0
SOLID
  8
___SYMBOL
 62
2
  6
CONTINUOUS
 10
12.9319929375
 20
24.0303747941
 11
13.1048735117
 21
24.0537883742
 12
12.9380995874
 22
23.9918189244
 13
12.9380995874
 23
23.9918189244
  0
SOLID
  8
___SYMBOL
 62
2
  6
CONTINUOUS
 10
13.1048735117
 20
24.0537883742
 11
13.1113867633
 21
23.9918189244
 12
12.9380995874
 22
23.9918189244
 13
12.9380995874
 23
23.9918189244
  0
SOLID
  8
___SYMBOL
 62
2
  6
CONTINUOUS
 10
12.9319929375
 20
23.9532630548
 11
12.9380995874
 21
23.9918189244
 12
13.1113867633
 22
23.9918189244
 13
13.1113867633
 23
23.9918189244
  0
SOLID
  8
___SYMBOL
 62
2
  6
CONTINUOUS
 10
12.6946674071
 20
23.9532630548
 11
12.5217868329
 21
23.9298494747
 12
12.6885607572
 22
23.9918189244
 13
12.6885607572
 23
23.9918189244
  0
SOLID
  8
___SYMBOL
 62
2
  6
CONTINUOUS
 10
12.5217868329
 20
23.9298494747
 11
12.5152735813
 21
23.9918189244
 12
12.6885607572
 22
23.9918189244
 13
12.6885607572
 23
23.9918189244
  0
SOLID
  8
___SYMBOL
 62
2
  6
CONTINUOUS
 10
13.1113867633
 20
23.9918189244
 11
13.1048735117
 21
23.9298494747
 12
12.9319929375
 22
23.9532630548
 13
12.9319929375
 23
23.9532630548
  0
SOLID
  8
___SYMBOL
 62
2
  6
CONTINUOUS
 10
12.6946674071
 20
23.9532630548
 11
12.7123895951
 21
23.9184813023
 12
12.5217868329
 22
23.9298494747
 13
12.5217868329
 23
23.9298494747
  0
SOLID
  8
___SYMBOL
 62
2
  6
CONTINUOUS
 10
12.9142707495
 20
23.9184813023
 11
12.9319929375
 21
23.9532630548
 12
13.1048735117
 22
23.9298494747
 13
13.1048735117
 23
23.9298494747
  0
SOLID
  8
___SYMBOL
 62
2
  6
CONTINUOUS
 10
12.7747743027
 20
23.8731561592
 11
12.5410419275
 21
23.8705883872
 12
12.7399925502
 22
23.8908783473
 13
12.7399925502
 23
23.8908783473
  0
SOLID
  8
___SYMBOL
 62
2
  6
CONTINUOUS
 10
12.7399925502
 20
23.8908783473
 11
12.5410419275
 21
23.8705883872
 12
12.7123895951
 22
23.9184813023
 13
12.7123895951
 23
23.9184813023
  0
SOLID
  8
___SYMBOL
 62
2
  6
CONTINUOUS
 10
12.5410419275
 20
23.8705883872
 11
12.5217868329
 21
23.9298494747
 12
12.7123895951
 22
23.9184813023
 13
12.7123895951
 23
23.9184813023
  0
SOLID
  8
___SYMBOL
 62
2
  6
CONTINUOUS
 10
12.9142707495
 20
23.9184813023
 11
13.1048735117
 21
23.9298494747
 12
12.8866677944
 22
23.8908783473
 13
12.8866677944
 23
23.8908783473
  0
SOLID
  8
___SYMBOL
 62
2
  6
CONTINUOUS
 10
12.8866677944
 20
23.8908783473
 11
13.1048735117
 21
23.9298494747
 12
12.8518860419
 22
23.8731561592
 13
12.8518860419
 23
23.8731561592
  0
SOLID
  8
___SYMBOL
 62
2
  6
CONTINUOUS
 10
13.1048735117
 20
23.9298494747
 11
13.0856184171
 21
23.8705883872
 12
12.8518860419
 22
23.8731561592
 13
12.8518860419
 23
23.8731561592
  0
SOLID
  8
___SYMBOL
 62
2
  6
CONTINUOUS
 10
12.7747743027
 20
23.8731561592
 11
12.8133301723
 21
23.8670495094
 12
12.5410419275
 22
23.8705883872
 13
12.5410419275
 23
23.8705883872
  0
SOLID
  8
___SYMBOL
 62
2
  6
CONTINUOUS
 10
12.8133301723
 20
23.8670495094
 11
12.8518860419
 21
23.8731561592
 12
13.0856184171
 22
23.8705883872
 13
13.0856184171
 23
23.8705883872
  0
SOLID
  8
___SYMBOL
 62
2
  6
CONTINUOUS
 10
12.5721973249
 20
23.8166256559
 11
12.5410419275
 21
23.8705883872
 12
12.8133301723
 22
23.8670495094
 13
12.8133301723
 23
23.8670495094
  0
SOLID
  8
___SYMBOL
 62
2
  6
CONTINUOUS
 10
12.8133301723
 20
23.8670495094
 11
13.0856184171
 21
23.8705883872
 12
12.5721973249
 22
23.8166256559
 13
12.5721973249
 23
23.8166256559
  0
SOLID
  8
___SYMBOL
 62
2
  6
CONTINUOUS
 10
13.0856184171
 20
23.8705883872
 11
13.0544630197
 21
23.8166256559
 12
12.5721973249
 22
23.8166256559
 13
12.5721973249
 23
23.8166256559
  0
SOLID
  8
___SYMBOL
 62
2
  6
CONTINUOUS
 10
12.6138913848
 20
23.7703197112
 11
12.5721973249
 21
23.8166256559
 12
13.0544630197
 22
23.8166256559
 13
13.0544630197
 23
23.8166256559
  0
SOLID
  8
___SYMBOL
 62
2
  6
CONTINUOUS
 10
13.0544630197
 20
23.8166256559
 11
13.0127689598
 21
23.7703197112
 12
12.6138913848
 22
23.7703197112
 13
12.6138913848
 23
23.7703197112
  0
SOLID
  8
___SYMBOL
 62
2
  6
CONTINUOUS
 10
12.6643018768
 20
23.7336943449
 11
12.6138913848
 21
23.7703197112
 12
13.0127689598
 22
23.7703197112
 13
13.0127689598
 23
23.7703197112
  0
SOLID
  8
___SYMBOL
 62
2
  6
CONTINUOUS
 10
13.0127689598
 20
23.7703197112
 11
12.9623584678
 21
23.7336943449
 12
12.6643018768
 22
23.7336943449
 13
12.6643018768
 23
23.7336943449
  0
SOLID
  8
___SYMBOL
 62
2
  6
CONTINUOUS
 10
12.7212256204
 20
23.7083502614
 11
12.6643018768
 21
23.7336943449
 12
12.9623584678
 22
23.7336943449
 13
12.9623584678
 23
23.7336943449
  0
SOLID
  8
___SYMBOL
 62
2
  6
CONTINUOUS
 10
12.9623584678
 20
23.7336943449
 11
12.9054347242
 21
23.7083502614
 12
12.7212256204
 22
23.7083502614
 13
12.7212256204
 23
23.7083502614
  0
SOLID
  8
___SYMBOL
 62
2
  6
CONTINUOUS
 10
12.7821747749
 20
23.6953951187
 11
12.7212256204
 21
23.7083502614
 12
12.9054347242
 22
23.7083502614
 13
12.9054347242
 23
23.7083502614
  0
SOLID
  8
___SYMBOL
 62
2
  6
CONTINUOUS
 10
12.9054347242
 20
23.7083502614
 11
12.8444855697
 21
23.6953951187
 12
12.7821747749
 22
23.6953951187
 13
12.7821747749
 23
23.6953951187
  0
LINE
  8
___SYMBOL
 62
2
  6
CONTINUOUS
 10
13.6059661815
 20
24.285897001
 11
13.6059661815
 21
23.6999833516
  0
LINE
  8
___SYMBOL
 62
2
  6
CONTINUOUS
 10
13.6059661815
 20
23.6999833516
 11
13.4412325016
 21
23.6999833516
  0
LINE
  8
___SYMBOL
 62
2
  6
CONTINUOUS
 10
13.4412325016
 20
23.9283079614
 11
13.4412325016
 21
23.6999833516
  0
LINE
  8
___SYMBOL
 62
2
  6
CONTINUOUS
 10
13.2932356906
 20
23.9283079614
 11
13.4412325016
 21
23.9283079614
  0
LINE
  8
___SYMBOL
 62
2
  6
CONTINUOUS
 10
13.2932356906
 20
23.9283079614
 11
13.2932356906
 21
23.6999833516
  0
LINE
  8
___SYMBOL
 62
2
  6
CONTINUOUS
 10
13.2932356906
 20
23.6999833516
 11
13.1285020107
 21
23.6999833516
  0
LINE
  8
___SYMBOL
 62
2
  6
CONTINUOUS
 10
13.1285020107
 20
24.285897001
 11
13.1285020107
 21
23.6999833516
  0
LINE
  8
___SYMBOL
 62
2
  6
CONTINUOUS
 10
13.1285020107
 20
24.285897001
 11
13.2932356906
 21
24.285897001
  0
LINE
  8
___SYMBOL
 62
2
  6
CONTINUOUS
 10
13.2932356906
 20
24.285897001
 11
13.2932356906
 21
24.0655132413
  0
LINE
  8
___SYMBOL
 62
2
  6
CONTINUOUS
 10
13.2932356906
 20
24.0655132413
 11
13.4412325016
 21
24.0655132413
  0
LINE
  8
___SYMBOL
 62
2
  6
CONTINUOUS
 10
13.4412325016
 20
24.285897001
 11
13.4412325016
 21
24.0655132413
  0
LINE
  8
___SYMBOL
 62
2
  6
CONTINUOUS
 10
13.4412325016
 20
24.285897001
 11
13.6059661815
 21
24.285897001
  0
SOLID
  8
___SYMBOL
 62
2
  6
CONTINUOUS
 10
13.4412325016
 20
24.0655132413
 11
13.4412325016
 21
24.285897001
 12
13.6059661815
 22
24.285897001
 13
13.6059661815
 23
24.285897001
  0
SOLID
  8
___SYMBOL
 62
2
  6
CONTINUOUS
 10
13.4412325016
 20
24.0655132413
 11
13.2932356906
 21
23.9283079614
 12
13.2932356906
 22
24.0655132413
 13
13.2932356906
 23
24.0655132413
  0
SOLID
  8
___SYMBOL
 62
2
  6
CONTINUOUS
 10
13.2932356906
 20
23.9283079614
 11
13.1285020107
 21
23.6999833516
 12
13.2932356906
 22
24.0655132413
 13
13.2932356906
 23
24.0655132413
  0
SOLID
  8
___SYMBOL
 62
2
  6
CONTINUOUS
 10
13.2932356906
 20
24.0655132413
 11
13.1285020107
 21
23.6999833516
 12
13.2932356906
 22
24.285897001
 13
13.2932356906
 23
24.285897001
  0
SOLID
  8
___SYMBOL
 62
2
  6
CONTINUOUS
 10
13.1285020107
 20
23.6999833516
 11
13.1285020107
 21
24.285897001
 12
13.2932356906
 22
24.285897001
 13
13.2932356906
 23
24.285897001
  0
SOLID
  8
___SYMBOL
 62
2
  6
CONTINUOUS
 10
13.2932356906
 20
23.9283079614
 11
13.2932356906
 21
23.6999833516
 12
13.1285020107
 22
23.6999833516
 13
13.1285020107
 23
23.6999833516
  0
SOLID
  8
___SYMBOL
 62
2
  6
CONTINUOUS
 10
13.2932356906
 20
23.9283079614
 11
13.4412325016
 21
24.0655132413
 12
13.4412325016
 22
23.9283079614
 13
13.4412325016
 23
23.9283079614
  0
SOLID
  8
___SYMBOL
 62
2
  6
CONTINUOUS
 10
13.4412325016
 20
24.0655132413
 11
13.6059661815
 21
24.285897001
 12
13.4412325016
 22
23.9283079614
 13
13.4412325016
 23
23.9283079614
  0
SOLID
  8
___SYMBOL
 62
2
  6
CONTINUOUS
 10
13.4412325016
 20
23.9283079614
 11
13.6059661815
 21
24.285897001
 12
13.4412325016
 22
23.6999833516
 13
13.4412325016
 23
23.6999833516
  0
SOLID
  8
___SYMBOL
 62
2
  6
CONTINUOUS
 10
13.6059661815
 20
24.285897001
 11
13.6059661815
 21
23.6999833516
 12
13.4412325016
 22
23.6999833516
 13
13.4412325016
 23
23.6999833516
  0
LINE
  8
___SYMBOL
 62
2
  6
CONTINUOUS
 10
13.8010570884
 20
23.6999833516
 11
13.9637411584
 21
23.6999833516
  0
LINE
  8
___SYMBOL
 62
2
  6
CONTINUOUS
 10
13.8010570884
 20
23.6999833516
 11
13.6510110257
 21
23.6999833516
  0
LINE
  8
___SYMBOL
 62
2
  6
CONTINUOUS
 10
13.6510110257
 20
23.6999833516
 11
13.6510110257
 21
24.285897001
  0
LINE
  8
___SYMBOL
 62
2
  6
CONTINUOUS
 10
13.6510110257
 20
24.285897001
 11
13.8010570884
 21
24.285897001
  0
LINE
  8
___SYMBOL
 62
2
  6
CONTINUOUS
 10
13.8010570884
 20
24.285897001
 11
13.8010570884
 21
23.8412101088
  0
LINE
  8
___SYMBOL
 62
2
  6
CONTINUOUS
 10
13.8010570884
 20
23.8412101088
 11
13.9637411584
 21
23.8412101088
  0
LINE
  8
___SYMBOL
 62
2
  6
CONTINUOUS
 10
13.9637411584
 20
23.8412101088
 11
13.9637411584
 21
23.6999833516
  0
SOLID
  8
___SYMBOL
 62
2
  6
CONTINUOUS
 10
13.9637411584
 20
23.8412101088
 11
13.6510110257
 21
23.6999833516
 12
13.8010570884
 22
23.8412101088
 13
13.8010570884
 23
23.8412101088
  0
SOLID
  8
___SYMBOL
 62
2
  6
CONTINUOUS
 10
13.8010570884
 20
23.8412101088
 11
13.6510110257
 21
23.6999833516
 12
13.8010570884
 22
24.285897001
 13
13.8010570884
 23
24.285897001
  0
SOLID
  8
___SYMBOL
 62
2
  6
CONTINUOUS
 10
13.6510110257
 20
23.6999833516
 11
13.6510110257
 21
24.285897001
 12
13.8010570884
 22
24.285897001
 13
13.8010570884
 23
24.285897001
  0
SOLID
  8
___SYMBOL
 62
2
  6
CONTINUOUS
 10
13.6510110257
 20
23.6999833516
 11
13.9637411584
 21
23.8412101088
 12
13.8010570884
 22
23.6999833516
 13
13.8010570884
 23
23.6999833516
  0
SOLID
  8
___SYMBOL
 62
2
  6
CONTINUOUS
 10
13.9637411584
 20
23.8412101088
 11
13.9637411584
 21
23.6999833516
 12
13.8010570884
 22
23.6999833516
 13
13.8010570884
 23
23.6999833516
  0
LINE
  8
___SYMBOL
 62
2
  6
CONTINUOUS
 10
14.3019930724
 20
23.9211316398
 11
14.3019930724
 21
24.0655132413
  0
LINE
  8
___SYMBOL
 62
2
  6
CONTINUOUS
 10
14.151135549
 20
24.0655132413
 11
14.3019930724
 21
24.0655132413
  0
LINE
  8
___SYMBOL
 62
2
  6
CONTINUOUS
 10
14.151135549
 20
24.1431376042
 11
14.151135549
 21
24.0655132413
  0
LINE
  8
___SYMBOL
 62
2
  6
CONTINUOUS
 10
14.151135549
 20
24.1431376042
 11
14.3019930724
 21
24.1431376042
  0
LINE
  8
___SYMBOL
 62
2
  6
CONTINUOUS
 10
14.3019930724
 20
24.1431376042
 11
14.3019930724
 21
24.285897001
  0
LINE
  8
___SYMBOL
 62
2
  6
CONTINUOUS
 10
14.1653398724
 20
24.285897001
 11
14.3019930724
 21
24.285897001
  0
LINE
  8
___SYMBOL
 62
2
  6
CONTINUOUS
 10
13.9928888971
 20
24.285897001
 11
14.1653398724
 21
24.285897001
  0
LINE
  8
___SYMBOL
 62
2
  6
CONTINUOUS
 10
13.9928888971
 20
23.6999833516
 11
13.9928888971
 21
24.285897001
  0
LINE
  8
___SYMBOL
 62
2
  6
CONTINUOUS
 10
13.9928888971
 20
23.6999833516
 11
14.3019930724
 21
23.6999833516
  0
LINE
  8
___SYMBOL
 62
2
  6
CONTINUOUS
 10
14.3019930724
 20
23.6999833516
 11
14.3019930724
 21
23.8412101088
  0
LINE
  8
___SYMBOL
 62
2
  6
CONTINUOUS
 10
14.151135549
 20
23.8412101088
 11
14.3019930724
 21
23.8412101088
  0
LINE
  8
___SYMBOL
 62
2
  6
CONTINUOUS
 10
14.151135549
 20
23.9211316398
 11
14.151135549
 21
23.8412101088
  0
LINE
  8
___SYMBOL
 62
2
  6
CONTINUOUS
 10
14.151135549
 20
23.9211316398
 11
14.3019930724
 21
23.9211316398
  0
SOLID
  8
___SYMBOL
 62
2
  6
CONTINUOUS
 10
14.3019930724
 20
24.285897001
 11
14.3019930724
 21
24.1431376042
 12
14.151135549
 22
24.1431376042
 13
14.151135549
 23
24.1431376042
  0
SOLID
  8
___SYMBOL
 62
2
  6
CONTINUOUS
 10
14.3019930724
 20
24.0655132413
 11
14.3019930724
 21
23.9211316398
 12
14.151135549
 22
23.9211316398
 13
14.151135549
 23
23.9211316398
  0
SOLID
  8
___SYMBOL
 62
2
  6
CONTINUOUS
 10
14.3019930724
 20
23.8412101088
 11
13.9928888971
 21
23.6999833516
 12
14.151135549
 22
23.8412101088
 13
14.151135549
 23
23.8412101088
  0
SOLID
  8
___SYMBOL
 62
2
  6
CONTINUOUS
 10
14.151135549
 20
23.8412101088
 11
13.9928888971
 21
23.6999833516
 12
14.151135549
 22
23.9211316398
 13
14.151135549
 23
23.9211316398
  0
SOLID
  8
___SYMBOL
 62
2
  6
CONTINUOUS
 10
14.3019930724
 20
24.0655132413
 11
14.151135549
 21
23.9211316398
 12
14.151135549
 22
24.0655132413
 13
14.151135549
 23
24.0655132413
  0
SOLID
  8
___SYMBOL
 62
2
  6
CONTINUOUS
 10
14.151135549
 20
23.9211316398
 11
13.9928888971
 21
23.6999833516
 12
14.151135549
 22
24.0655132413
 13
14.151135549
 23
24.0655132413
  0
SOLID
  8
___SYMBOL
 62
2
  6
CONTINUOUS
 10
14.151135549
 20
24.0655132413
 11
13.9928888971
 21
23.6999833516
 12
14.151135549
 22
24.1431376042
 13
14.151135549
 23
24.1431376042
  0
SOLID
  8
___SYMBOL
 62
2
  6
CONTINUOUS
 10
14.3019930724
 20
24.285897001
 11
14.151135549
 21
24.1431376042
 12
14.1653398724
 22
24.285897001
 13
14.1653398724
 23
24.285897001
  0
SOLID
  8
___SYMBOL
 62
2
  6
CONTINUOUS
 10
14.151135549
 20
24.1431376042
 11
13.9928888971
 21
23.6999833516
 12
14.1653398724
 22
24.285897001
 13
14.1653398724
 23
24.285897001
  0
SOLID
  8
___SYMBOL
 62
2
  6
CONTINUOUS
 10
13.9928888971
 20
23.6999833516
 11
13.9928888971
 21
24.285897001
 12
14.1653398724
 22
24.285897001
 13
14.1653398724
 23
24.285897001
  0
SOLID
  8
___SYMBOL
 62
2
  6
CONTINUOUS
 10
14.3019930724
 20
23.8412101088
 11
14.3019930724
 21
23.6999833516
 12
13.9928888971
 22
23.6999833516
 13
13.9928888971
 23
23.6999833516
  0
LINE
  8
___SYMBOL
 62
2
  6
CONTINUOUS
 10
14.8122434784
 20
23.6999833516
 11
14.6528002355
 21
23.9515658929
  0
ARC
  8
___SYMBOL
 62
2
  6
CONTINUOUS
 10
14.5803609878
 20
24.1108874903
 40
0.1750166163
 50
294.4500166359
 51
90.0
  0
LINE
  8
___SYMBOL
 62
2
  6
CONTINUOUS
 10
14.3468132871
 20
24.285897001
 11
14.5803609878
 21
24.285897001
  0
LINE
  8
___SYMBOL
 62
2
  6
CONTINUOUS
 10
14.3468132871
 20
23.6999833516
 11
14.3468132871
 21
24.285897001
  0
LINE
  8
___SYMBOL
 62
2
  6
CONTINUOUS
 10
14.3468132871
 20
23.6999833516
 11
14.4974691097
 21
23.6999833516
  0
LINE
  8
___SYMBOL
 62
2
  6
CONTINUOUS
 10
14.4974691097
 20
23.8969397224
 11
14.4974691097
 21
23.6999833516
  0
LINE
  8
___SYMBOL
 62
2
  6
CONTINUOUS
 10
14.6222925389
 20
23.6999833516
 11
14.4974691097
 21
23.8969397224
  0
LINE
  8
___SYMBOL
 62
2
  6
CONTINUOUS
 10
14.6222925389
 20
23.6999833516
 11
14.8122434784
 21
23.6999833516
  0
LINE
  8
___SYMBOL
 62
2
  6
CONTINUOUS
 10
14.4974691097
 20
24.0362150331
 11
14.5498088599
 21
24.0362150331
  0
ARC
  8
___SYMBOL
 62
2
  6
CONTINUOUS
 10
14.5533988892
 20
24.0897064326
 40
0.053611735
 50
266.1604009902
 51
89.9998910512
  0
LINE
  8
___SYMBOL
 62
2
  6
CONTINUOUS
 10
14.5533989911
 20
24.1433181677
 11
14.4974691097
 21
24.1433181677
  0
LINE
  8
___SYMBOL
 62
2
  6
CONTINUOUS
 10
14.4974691097
 20
24.1433181677
 11
14.4974691097
 21
24.0362150331
  0
SOLID
  8
___SYMBOL
 62
2
  6
CONTINUOUS
 10
14.5803609878
 20
24.2859041066
 11
14.6272940113
 21
24.2794938582
 12
14.3468132871
 22
24.285897001
 13
14.3468132871
 23
24.285897001
  0
SOLID
  8
___SYMBOL
 62
2
  6
CONTINUOUS
 10
14.4974691097
 20
24.1433181677
 11
14.7514088508
 21
24.1479475032
 12
14.5533989911
 22
24.1433181677
 13
14.5533989911
 23
24.1433181677
  0
SOLID
  8
___SYMBOL
 62
2
  6
CONTINUOUS
 10
14.5533989911
 20
24.1433181677
 11
14.7514088508
 21
24.1479475032
 12
14.5771215727
 22
24.1377839993
 13
14.5771215727
 23
24.1377839993
  0
SOLID
  8
___SYMBOL
 62
2
  6
CONTINUOUS
 10
14.5771215727
 20
24.1377839993
 11
14.7514088508
 21
24.1479475032
 12
14.5959465604
 22
24.1223241243
 13
14.5959465604
 23
24.1223241243
  0
SOLID
  8
___SYMBOL
 62
2
  6
CONTINUOUS
 10
14.7514088508
 20
24.1479475032
 11
14.7550820972
 21
24.1007213743
 12
14.5959465604
 22
24.1223241243
 13
14.5959465604
 23
24.1223241243
  0
SOLID
  8
___SYMBOL
 62
2
  6
CONTINUOUS
 10
14.605987499
 20
24.1001302637
 11
14.5959465604
 21
24.1223241243
 12
14.7550820972
 22
24.1007213743
 13
14.7550820972
 23
24.1007213743
  0
SOLID
  8
___SYMBOL
 62
2
  6
CONTINUOUS
 10
14.605987499
 20
24.1001302637
 11
14.7550820972
 21
24.1007213743
 12
14.6051714173
 22
24.075784383
 13
14.6051714173
 23
24.075784383
  0
SOLID
  8
___SYMBOL
 62
2
  6
CONTINUOUS
 10
14.6051714173
 20
24.075784383
 11
14.7550820972
 21
24.1007213743
 12
14.593666797
 22
24.0543127364
 13
14.593666797
 23
24.0543127364
  0
SOLID
  8
___SYMBOL
 62
2
  6
CONTINUOUS
 10
14.7550820972
 20
24.1007213743
 11
14.7459564935
 21
24.0542399443
 12
14.593666797
 22
24.0543127364
 13
14.593666797
 23
24.0543127364
  0
SOLID
  8
___SYMBOL
 62
2
  6
CONTINUOUS
 10
14.5738487891
 20
24.0401481869
 11
14.593666797
 21
24.0543127364
 12
14.7459564935
 22
24.0542399443
 13
14.7459564935
 23
24.0542399443
  0
SOLID
  8
___SYMBOL
 62
2
  6
CONTINUOUS
 10
14.5738487891
 20
24.0401481869
 11
14.7459564935
 21
24.0542399443
 12
14.5498088599
 22
24.0362150331
 13
14.5498088599
 23
24.0362150331
  0
SOLID
  8
___SYMBOL
 62
2
  6
CONTINUOUS
 10
14.7459564935
 20
24.0542399443
 11
14.7247005179
 21
24.0119081184
 12
14.5498088599
 22
24.0362150331
 13
14.5498088599
 23
24.0362150331
  0
SOLID
  8
___SYMBOL
 62
2
  6
CONTINUOUS
 10
14.6528002355
 20
23.9515658929
 11
14.4974691097
 21
23.8969397224
 12
14.6928712347
 22
23.9768268311
 13
14.6928712347
 23
23.9768268311
  0
SOLID
  8
___SYMBOL
 62
2
  6
CONTINUOUS
 10
14.6928712347
 20
23.9768268311
 11
14.4974691097
 21
23.8969397224
 12
14.7247005179
 22
24.0119081184
 13
14.7247005179
 23
24.0119081184
  0
SOLID
  8
___SYMBOL
 62
2
  6
CONTINUOUS
 10
14.7247005179
 20
24.0119081184
 11
14.4974691097
 21
23.8969397224
 12
14.5498088599
 22
24.0362150331
 13
14.5498088599
 23
24.0362150331
  0
SOLID
  8
___SYMBOL
 62
2
  6
CONTINUOUS
 10
14.4974691097
 20
23.8969397224
 11
14.3468132871
 21
23.6999833516
 12
14.5498088599
 22
24.0362150331
 13
14.5498088599
 23
24.0362150331
  0
SOLID
  8
___SYMBOL
 62
2
  6
CONTINUOUS
 10
14.5498088599
 20
24.0362150331
 11
14.3468132871
 21
23.6999833516
 12
14.4974691097
 22
24.0362150331
 13
14.4974691097
 23
24.0362150331
  0
SOLID
  8
___SYMBOL
 62
2
  6
CONTINUOUS
 10
14.4974691097
 20
24.0362150331
 11
14.3468132871
 21
23.6999833516
 12
14.4974691097
 22
24.1433181677
 13
14.4974691097
 23
24.1433181677
  0
SOLID
  8
___SYMBOL
 62
2
  6
CONTINUOUS
 10
14.7514088508
 20
24.1479475032
 11
14.4974691097
 21
24.1433181677
 12
14.7352058307
 22
24.1924588739
 13
14.7352058307
 23
24.1924588739
  0
SOLID
  8
___SYMBOL
 62
2
  6
CONTINUOUS
 10
14.7352058307
 20
24.1924588739
 11
14.4974691097
 21
24.1433181677
 12
14.7076599571
 22
24.2309948938
 13
14.7076599571
 23
24.2309948938
  0
SOLID
  8
___SYMBOL
 62
2
  6
CONTINUOUS
 10
14.7076599571
 20
24.2309948938
 11
14.4974691097
 21
24.1433181677
 12
14.6707890488
 22
24.260732683
 13
14.6707890488
 23
24.260732683
  0
SOLID
  8
___SYMBOL
 62
2
  6
CONTINUOUS
 10
14.6707890488
 20
24.260732683
 11
14.4974691097
 21
24.1433181677
 12
14.6272940113
 22
24.2794938582
 13
14.6272940113
 23
24.2794938582
  0
SOLID
  8
___SYMBOL
 62
2
  6
CONTINUOUS
 10
14.6272940113
 20
24.2794938582
 11
14.4974691097
 21
24.1433181677
 12
14.3468132871
 22
24.285897001
 13
14.3468132871
 23
24.285897001
  0
SOLID
  8
___SYMBOL
 62
2
  6
CONTINUOUS
 10
14.3468132871
 20
23.6999833516
 11
14.3468132871
 21
24.285897001
 12
14.4974691097
 22
24.1433181677
 13
14.4974691097
 23
24.1433181677
  0
SOLID
  8
___SYMBOL
 62
2
  6
CONTINUOUS
 10
14.4974691097
 20
23.8969397224
 11
14.4974691097
 21
23.6999833516
 12
14.3468132871
 22
23.6999833516
 13
14.3468132871
 23
23.6999833516
  0
SOLID
  8
___SYMBOL
 62
2
  6
CONTINUOUS
 10
14.4974691097
 20
23.8969397224
 11
14.6528002355
 21
23.9515658929
 12
14.6222925389
 22
23.6999833516
 13
14.6222925389
 23
23.6999833516
  0
SOLID
  8
___SYMBOL
 62
2
  6
CONTINUOUS
 10
14.6528002355
 20
23.9515658929
 11
14.8122434784
 21
23.6999833516
 12
14.6222925389
 22
23.6999833516
 13
14.6222925389
 23
23.6999833516
  0
CIRCLE
  8
___SYMBOL
 62
2
  6
CONTINUOUS
 10
14.9530134531
 20
23.6999833516
 40
0.0653578721
  0
LINE
  8
___SYMBOL
 62
2
  6
CONTINUOUS
 10
14.9487254298
 20
23.6994456022
 11
14.9805934426
 21
23.6671426608
  0
LINE
  8
___SYMBOL
 62
2
  6
CONTINUOUS
 10
14.9371274536
 20
23.6671426608
 11
14.9371274536
 21
23.7331088597
  0
LINE
  8
___SYMBOL
 62
2
  6
CONTINUOUS
 10
14.9371274536
 20
23.7331088597
 11
14.9614067866
 21
23.7331088597
  0
ARC
  8
___SYMBOL
 62
2
  6
CONTINUOUS
 10
14.9614067866
 20
23.7162774101
 40
0.0168314496
 50
270.0
 51
90.0
  0
LINE
  8
___SYMBOL
 62
2
  6
CONTINUOUS
 10
14.9614067866
 20
23.6994456022
 11
14.9371274536
 21
23.6994456022
  0
ENDBLK
  8
0
  6
BYBLOCK
 62
0
  0
BLOCK
  8
0
  2
_FILLED
 70
64
 10
0.0
 20
0.0
  0
SOLID
  8
0
  6
BYBLOCK
 62
0
 10
0.0
 20
0.0
 11
-1.0
 21
0.1666666667
 12
-1.0
 22
-0.1666666667
 13
-1.0
 23
-0.1666666667
  0
ENDBLK
  8
0
  6
BYBLOCK
 62
0
  0
BLOCK
  8
0
 62
2
  6
CONTINUOUS
  2
*D0
 70
65
 10
0.0
 20
0.0
  0
TEXT
  8
0
 62
2
  6
CONTINUOUS
 10
19.9829601257
 20
23.178499463
  7
STANDARD
 40
0.15625
  1
17-13/16
 41
0.8
 72
0
  0
TEXT
  8
0
 62
2
  6
CONTINUOUS
 10
20.9829601257
 20
23.178499463
  7
STANDARD
 40
0.15625
  1
"
 41
0.8
 72
0
  0
TEXT
  8
0
 62
2
  6
CONTINUOUS
 10
19.9829601257
 20
22.944124463
  7
STANDARD
 40
0.15625
  1
[45,2 cm]
 41
0.8
 72
0
  0
LINE
  8
0
 62
2
  6
CONTINUOUS
 10
20.4204601257
 20
26.8699599437
 11
21.5735769401
 21
26.8699599437
  0
LINE
  8
0
 62
2
  6
CONTINUOUS
 10
19.1829393393
 20
9.0574599437
 11
20.6704601257
 21
9.0574599437
  0
LINE
  8
0
 62
2
  6
CONTINUOUS
 10
20.5454601257
 20
26.8699599437
 11
20.5454601257
 21
23.412874463
  0
LINE
  8
0
 62
2
  6
CONTINUOUS
 10
20.5454601257
 20
9.0574599437
 11
20.5454601257
 21
22.865999463
  0
INSERT
  8
0
 62
2
  6
CONTINUOUS
  2
_FILLED
 10
20.5454601257
 20
26.8699599437
 41
0.1875
 42
0.1875
 43
0.1875
 50
90.0
  0
INSERT
  8
0
 62
2
  6
CONTINUOUS
  2
_FILLED
 10
20.5454601257
 20
9.0574599437
 41
0.1875
 42
0.1875
 43
0.1875
 50
270.0
  0
ENDBLK
  8
0
  6
BYBLOCK
 62
0
  0
BLOCK
  8
0
 62
2
  6
CONTINUOUS
  2
*D1
 70
65
 10
0.0
 20
0.0
  0
TEXT
  8
0
 62
2
  6
CONTINUOUS
 10
18.9408919506
 20
22.1841734338
  7
STANDARD
 40
0.15625
  1
18-9/16
 41
0.8
 72
0
  0
TEXT
  8
0
 62
2
  6
CONTINUOUS
 10
19.8158919506
 20
22.1841734338
  7
STANDARD
 40
0.15625
  1
"
 41
0.8
 72
0
  0
TEXT
  8
0
 62
2
  6
CONTINUOUS
 10
18.9408919506
 20
21.9497984338
  7
STANDARD
 40
0.15625
  1
[47 cm]
 41
0.8
 72
0
  0
LINE
  8
0
 62
2
  6
CONTINUOUS
 10
20.3159010491
 20
9.0574599437
 11
19.3158919506
 21
9.0574599437
  0
LINE
  8
0
 62
2
  6
CONTINUOUS
 10
19.5658919506
 20
27.6199599437
 11
18.6042342795
 21
27.6199599437
  0
LINE
  8
0
 62
2
  6
CONTINUOUS
 10
19.4408919506
 20
9.0574599437
 11
19.4408919506
 21
21.8716734338
  0
LINE
  8
0
 62
2
  6
CONTINUOUS
 10
19.4408919506
 20
27.6199599437
 11
19.4408919506
 21
22.4185484338
  0
INSERT
  8
0
 62
2
  6
CONTINUOUS
  2
_FILLED
 10
19.4408919506
 20
9.0574599437
 41
0.1875
 42
0.1875
 43
0.1875
 50
270.0
  0
INSERT
  8
0
 62
2
  6
CONTINUOUS
  2
_FILLED
 10
19.4408919506
 20
27.6199599437
 41
0.1875
 42
0.1875
 43
0.1875
 50
90.0
  0
ENDBLK
  8
0
  6
BYBLOCK
 62
0
  0
BLOCK
  8
0
 62
2
  6
CONTINUOUS
  2
*D2
 70
65
 10
0.0
 20
0.0
  0
TEXT
  8
0
 62
2
  6
CONTINUOUS
 10
27.4459783605
 20
16.8773857874
  7
STANDARD
 40
0.15625
  1
24-1/2
 41
0.8
 72
0
  0
TEXT
  8
0
 62
2
  6
CONTINUOUS
 10
28.1959783605
 20
16.8773857874
  7
STANDARD
 40
0.15625
  1
"
 41
0.8
 72
0
  0
TEXT
  8
0
 62
2
  6
CONTINUOUS
 10
27.4459783605
 20
16.6430107874
  7
STANDARD
 40
0.15625
  1
[62 cm]
 41
0.8
 72
0
  0
LINE
  8
0
 62
2
  6
CONTINUOUS
 10
34.1558432814
 20
18.1660112369
 11
34.1558432814
 21
16.8305107874
  0
LINE
  8
0
 62
2
  6
CONTINUOUS
 10
9.6555902072
 20
18.1201253425
 11
9.6555902072
 21
16.8305107874
  0
LINE
  8
0
 62
2
  6
CONTINUOUS
 10
34.1558432814
 20
16.9555107874
 11
28.3991033605
 21
16.9555107874
  0
LINE
  8
0
 62
2
  6
CONTINUOUS
 10
9.6555902072
 20
16.9555107874
 11
27.3678533605
 21
16.9555107874
  0
INSERT
  8
0
 62
2
  6
CONTINUOUS
  2
_FILLED
 10
34.1558432814
 20
16.9555107874
 41
0.1875
 42
0.1875
 43
0.1875
  0
INSERT
  8
0
 62
2
  6
CONTINUOUS
  2
_FILLED
 10
9.6555902072
 20
16.9555107874
 41
0.1875
 42
0.1875
 43
0.1875
 50
180.0
  0
ENDBLK
  8
0
  6
BYBLOCK
 62
0
  0
BLOCK
  8
0
 62
2
  6
CONTINUOUS
  2
*D3
 70
65
 10
0.0
 20
0.0
  0
TEXT
  8
0
 62
2
  6
CONTINUOUS
 10
29.9163127538
 20
17.5110976488
  7
STANDARD
 40
0.15625
  1
26
 41
0.8
 72
0
  0
TEXT
  8
0
 62
2
  6
CONTINUOUS
 10
30.1663127538
 20
17.5110976488
  7
STANDARD
 40
0.15625
  1
"
 41
0.8
 72
0
  0
TEXT
  8
0
 62
2
  6
CONTINUOUS
 10
29.9163127538
 20
17.2767226488
  7
STANDARD
 40
0.15625
  1
[66 cm]
 41
0.8
 72
0
  0
LINE
  8
0
 62
2
  6
CONTINUOUS
 10
34.9058432814
 20
19.0292015607
 11
34.9058432814
 21
17.4642226488
  0
LINE
  8
0
 62
2
  6
CONTINUOUS
 10
8.9055902072
 20
18.9887240746
 11
8.9055902072
 21
17.4642226488
  0
LINE
  8
0
 62
2
  6
CONTINUOUS
 10
34.9058432814
 20
17.5892226488
 11
30.8694377538
 21
17.5892226488
  0
LINE
  8
0
 62
2
  6
CONTINUOUS
 10
8.9055902072
 20
17.5892226488
 11
29.8381877538
 21
17.5892226488
  0
INSERT
  8
0
 62
2
  6
CONTINUOUS
  2
_FILLED
 10
34.9058432814
 20
17.5892226488
 41
0.1875
 42
0.1875
 43
0.1875
  0
INSERT
  8
0
 62
2
  6
CONTINUOUS
  2
_FILLED
 10
8.9055902072
 20
17.5892226488
 41
0.1875
 42
0.1875
 43
0.1875
 50
180.0
  0
ENDBLK
  8
0
  6
BYBLOCK
 62
0
  0
BLOCK
  8
0
 62
2
  6
CONTINUOUS
  2
*D4
 70
65
 10
0.0
 20
0.0
  0
TEXT
  8
0
 62
2
  6
CONTINUOUS
 10
38.4387622016
 20
8.2293349437
  7
STANDARD
 40
0.15625
  1
(
 41
0.8
 72
1
 11
38.5012622016
 21
8.2293349437
  0
TEXT
  8
0
 62
2
  6
CONTINUOUS
 10
38.5637622016
 20
8.2293349437
  7
STANDARD
 40
0.15625
  1
1-1/2
 41
0.8
 72
1
 11
38.8762622016
 21
8.2293349437
  0
TEXT
  8
0
 62
2
  6
CONTINUOUS
 10
39.1887622016
 20
8.2293349437
  7
STANDARD
 40
0.15625
  1
")
 41
0.8
 72
1
 11
39.3137622016
 21
8.2293349437
  0
TEXT
  8
0
 62
2
  6
CONTINUOUS
 10
38.3762622016
 20
7.9949599437
  7
STANDARD
 40
0.15625
  1
[3.81 cm]
 41
0.8
 72
1
 11
38.9387622016
 21
7.9949599437
  0
LINE
  8
0
 62
2
  6
CONTINUOUS
 10
38.2013789306
 20
7.5574599437
 11
39.0637622016
 21
7.5574599437
  0
LINE
  8
0
 62
2
  6
CONTINUOUS
 10
37.9167228994
 20
9.0574599437
 11
39.0637622016
 21
9.0574599437
  0
LINE
  8
0
 62
2
  6
CONTINUOUS
 10
38.9387622016
 20
7.5574599437
 11
38.9387622016
 21
7.9168349437
  0
LINE
  8
0
 62
2
  6
CONTINUOUS
 10
38.9387622016
 20
9.0574599437
 11
38.9387622016
 21
8.4637099437
  0
INSERT
  8
0
 62
2
  6
CONTINUOUS
  2
_FILLED
 10
38.9387622016
 20
7.5574599437
 41
0.1875
 42
0.1875
 43
0.1875
 50
270.0
  0
INSERT
  8
0
 62
2
  6
CONTINUOUS
  2
_FILLED
 10
38.9387622016
 20
9.0574599437
 41
0.1875
 42
0.1875
 43
0.1875
 50
90.0
  0
ENDBLK
  8
0
  6
BYBLOCK
 62
0
  0
ENDSEC
  0
SECTION
  2
ENTITIES
  0
DIMENSION
  8
0
 62
2
  6
CONTINUOUS
  2
*D0
 10
20.5454601257
 20
9.0574599437
 11
20.5454601257
 21
23.139436963
 70
128
 13
21.6360769401
 23
26.8699599437
 14
19.1204393393
 24
9.0574599437
 50
270.0
  0
DIMENSION
  8
0
 62
2
  6
CONTINUOUS
  2
*D1
 10
19.4408919506
 20
27.6199599437
 11
19.4408919506
 21
22.1451109338
 70
128
 13
20.3784010491
 23
9.0574599437
 14
18.5417342795
 24
27.6199599437
 50
90.0
  0
DIMENSION
  8
0
 62
2
  6
CONTINUOUS
  2
*D2
 10
9.6555902072
 20
16.9555107874
 11
27.8834783605
 21
16.8383232874
 70
128
 13
34.1558432814
 23
18.2285112369
 14
9.6555902072
 24
18.1826253425
 50
180.0
  0
DIMENSION
  8
0
 62
2
  6
CONTINUOUS
  2
*D3
 10
8.9055902072
 20
17.5892226488
 11
30.3538127538
 21
17.4720351488
 70
128
 13
34.9058432814
 23
19.0917015607
 14
8.9055902072
 24
19.0512240746
 50
180.0
  0
DIMENSION
  8
0
 62
2
  6
CONTINUOUS
  2
*D4
 10
38.9387622016
 20
9.0574599437
 11
38.9387622016
 21
8.1902724437
 70
128
 13
38.1388789306
 23
7.5574599437
 14
37.8542228994
 24
9.0574599437
 50
90.0
  0
TEXT
  8
___NOTE
 62
2
  6
CONTINUOUS
 10
14.0744354434
 20
20.7563473813
  7
STANDARD
 40
0.094
  1
TM
 41
0.8
 72
0
  0
TEXT
  8
___NOTE
 62
2
  6
CONTINUOUS
 10
14.0868940001
 20
19.9023692748
  7
STANDARD
 40
0.094
  1
TM
 41
0.8
 72
0
  0
TEXT
  8
___NOTE
 62
2
  6
CONTINUOUS
 10
21.8238468896
 20
20.9665810521
  7
STANDARD
 40
0.15625
  1
CENTERLINE OF SINK
 50
90.0
 41
0.8
 72
0
  0
TEXT
  8
___NOTE
 62
2
  6
CONTINUOUS
 10
11.9514978521
 20
7.8611919849
  7
STANDARD
 40
0.15625
  1
1156909-7-B
 41
0.8
 72
0
  0
TEXT
  8
___NOTE
 62
2
  6
CONTINUOUS
 10
11.9514978521
 20
7.6268169849
  7
STANDARD
 40
0.15625
  1
 
 41
0.8
 72
0
  0
TEXT
  8
___NOTE
 62
2
  6
CONTINUOUS
 10
11.9514978521
 20
7.3924419849
  7
STANDARD
 40
0.15625
  1
 
 41
0.8
 72
0
  0
TEXT
  8
___NOTE
 62
2
  6
CONTINUOUS
 10
11.9514978521
 20
7.1580669849
  7
STANDARD
 40
0.15625
  1
 
 41
0.8
 72
0
  0
TEXT
  8
___NOTE
 62
2
  6
CONTINUOUS
 10
11.9514978521
 20
6.9236919849
  7
STANDARD
 40
0.15625
  1
 
 41
0.8
 72
0
  0
TEXT
  8
___NOTE
 62
2
  6
CONTINUOUS
 10
11.9514978521
 20
6.6893169849
  7
STANDARD
 40
0.15625
  1
 
 41
0.8
 72
0
  0
TEXT
  8
___NOTE
 62
2
  6
CONTINUOUS
 10
11.9514978521
 20
6.4549419849
  7
STANDARD
 40
0.15625
  1
 
 41
0.8
 72
0
  0
TEXT
  8
___NOTE
 62
2
  6
CONTINUOUS
 10
11.9514978521
 20
6.2205669849
  7
STANDARD
 40
0.15625
  1
1156909-7-B
 41
0.8
 72
0
  0
TEXT
  8
___NOTE
 62
2
  6
CONTINUOUS
 10
10.4494164113
 20
16.3487271144
  7
STANDARD
 40
0.15625
  1
RIM OF SINK
 41
0.8
 72
0
  0
TEXT
  8
___NOTE
 62
2
  6
CONTINUOUS
 10
10.4494164113
 20
16.1143521144
  7
STANDARD
 40
0.15625
  1
REBORDE DE FREGADERO
 41
0.8
 72
0
  0
TEXT
  8
___NOTE
 62
2
  6
CONTINUOUS
 10
10.4494164113
 20
15.8799771144
  7
STANDARD
 40
0.15625
  1
REBORD D'ÉVIER
 41
0.8
 72
0
  0
LINE
  8
___NOTE
 62
2
  6
CONTINUOUS
 10
7.9057167443
 20
18.0242105156
 11
10.1994164113
 21
16.4268521144
  0
LINE
  8
___NOTE
 62
2
  6
CONTINUOUS
 10
10.1994164113
 20
16.4268521144
 11
10.4494164113
 21
16.4268521144
  0
SOLID
  8
___NOTE
 62
2
  6
CONTINUOUS
 10
8.0774405742
 20
17.9427013828
 11
7.9057167443
 21
18.0242105156
 12
8.0417228106
 22
17.8914130668
 13
8.0417228106
 23
17.8914130668
  0
TEXT
  8
___NOTE
 62
2
  6
CONTINUOUS
 10
10.608294034
 20
13.1611836098
  7
STANDARD
 40
0.15625
  1
CUT OUT LINE FOR NO REVEAL 
 41
0.8
 72
0
  0
TEXT
  8
___NOTE
 62
2
  6
CONTINUOUS
 10
10.608294034
 20
12.9268086098
  7
STANDARD
 40
0.15625
  1
LÍNEA DE CORTE SIN BATIENTE 
 41
0.8
 72
0
  0
TEXT
  8
___NOTE
 62
2
  6
CONTINUOUS
 10
10.608294034
 20
12.6924336098
  7
STANDARD
 40
0.15625
  1
LINGE DE COUPE SANS ÉBRASEMENTS 
 41
0.8
 72
0
  0
LINE
  8
___NOTE
 62
2
  6
CONTINUOUS
 10
9.6555902072
 20
13.6234941136
 11
10.358294034
 21
13.2393086098
  0
LINE
  8
___NOTE
 62
2
  6
CONTINUOUS
 10
10.358294034
 20
13.2393086098
 11
10.608294034
 21
13.2393086098
  0
SOLID
  8
___NOTE
 62
2
  6
CONTINUOUS
 10
9.8350986698
 20
13.5609679241
 11
9.6555902072
 21
13.6234941136
 12
9.8051167455
 22
13.5061287573
 13
9.8051167455
 23
13.5061287573
  0
TEXT
  8
___NOTE
 62
2
  6
CONTINUOUS
 10
10.5651846209
 20
14.9011748848
  7
STANDARD
 40
0.15625
  1
CUT OUT LINE FOR A REVEAL 
 41
0.8
 72
0
  0
TEXT
  8
___NOTE
 62
2
  6
CONTINUOUS
 10
10.5651846209
 20
14.6667998848
  7
STANDARD
 40
0.15625
  1
LÍNEA DE CORTE CON BATIENTE 
 41
0.8
 72
0
  0
TEXT
  8
___NOTE
 62
2
  6
CONTINUOUS
 10
10.5651846209
 20
14.4324248848
  7
STANDARD
 40
0.15625
  1
LINGE DE COUPE AVEC EBRASEMENTS 
 41
0.8
 72
0
  0
LINE
  8
___NOTE
 62
2
  6
CONTINUOUS
 10
8.9055902072
 20
15.9242623208
 11
10.3151846209
 21
14.9792998848
  0
LINE
  8
___NOTE
 62
2
  6
CONTINUOUS
 10
10.3151846209
 20
14.9792998848
 11
10.5651846209
 21
14.9792998848
  0
SOLID
  8
___NOTE
 62
2
  6
CONTINUOUS
 10
9.0787333157
 20
15.8458131239
 11
8.9055902072
 21
15.9242623208
 12
9.0439312459
 22
15.7938990993
 13
9.0439312459
 23
15.7938990993
  0
TEXT
  8
___NOTE
 62
2
  6
CONTINUOUS
 10
23.6658572937
 20
10.7251481862
  7
STANDARD
 40
0.15625
  1
FRONT OF CABINET
 41
0.8
 72
0
  0
LINE
  8
___NOTE
 62
2
  6
CONTINUOUS
 10
22.8405081341
 20
9.0574599437
 11
23.4158572937
 21
10.8032731862
  0
LINE
  8
___NOTE
 62
2
  6
CONTINUOUS
 10
23.4158572937
 20
10.8032731862
 11
23.6658572937
 21
10.8032731862
  0
SOLID
  8
___NOTE
 62
2
  6
CONTINUOUS
 10
22.8695158609
 20
9.245319903
 11
22.8405081341
 21
9.0574599437
 12
22.9288754301
 22
9.2257573992
 13
22.9288754301
 23
9.2257573992
  0
TEXT
  8
___NOTE
 62
2
  6
CONTINUOUS
 10
13.0362307375
 20
10.1147066785
  7
STANDARD
 40
0.15625
  1
EDGE OF COUNTERTOP
 41
0.8
 72
0
  0
TEXT
  8
___NOTE
 62
2
  6
CONTINUOUS
 10
11.9020462865
 20
26.1024899052
  7
STANDARD
 40
0.15625
  1
1-3/8 DIAMETER - OPTIONAL FITTING HOLE
 41
0.8
 72
0
  0
TEXT
  8
___NOTE
 62
2
  6
CONTINUOUS
 10
11.9020462865
 20
25.8681149052
  7
STANDARD
 40
0.15625
  1
(TO BE DRILLED IN COUNTERTOP)
 41
0.8
 72
0
  0
TEXT
  8
___NOTE
 62
2
  6
CONTINUOUS
 10
11.9020462865
 20
25.6337399052
  7
STANDARD
 40
0.15625
  1
3,5 cm DIÁMETRO - ORIFICIO DEL CONECTOR OPCIONAL
 41
0.8
 72
0
  0
TEXT
  8
___NOTE
 62
2
  6
CONTINUOUS
 10
11.9020462865
 20
25.3993649052
  7
STANDARD
 40
0.15625
  1
(A SER PERFORADOS EN EL MOSTRADOR)
 41
0.8
 72
0
  0
TEXT
  8
___NOTE
 62
2
  6
CONTINUOUS
 10
11.9020462865
 20
25.1649899052
  7
STANDARD
 40
0.15625
  1
3,5 cm DIAMÈTRE - ORIFICE DU RACCORD OPTIONNEL
 41
0.8
 72
0
  0
TEXT
  8
___NOTE
 62
2
  6
CONTINUOUS
 10
11.9020462865
 20
24.9306149052
  7
STANDARD
 40
0.15625
  1
(À PERCER SUR LE COMPTOIR)
 41
0.8
 72
0
  0
LINE
  8
___NOTE
 62
2
  6
CONTINUOUS
 10
10.2440845486
 20
29.2861220778
 11
11.3315686627
 21
26.1806149052
  0
LINE
  8
___NOTE
 62
2
  6
CONTINUOUS
 10
11.3315686627
 20
26.1806149052
 11
11.9020462865
 21
26.1806149052
  0
SOLID
  8
___NOTE
 62
2
  6
CONTINUOUS
 10
10.3355474335
 20
29.1194866878
 11
10.2440845486
 21
29.2861220778
 12
10.2765595835
 22
29.0988303679
 13
10.2765595835
 23
29.0988303679
  0
TEXT
  8
___NOTE
 62
2
  6
CONTINUOUS
 10
27.9155041191
 20
25.0236306849
  7
STANDARD
 40
0.15625
  1
1-3/8 DIAMETER - OPTIONAL FITTING HOLE
 41
0.8
 72
0
  0
TEXT
  8
___NOTE
 62
2
  6
CONTINUOUS
 10
27.9155041191
 20
24.7892556849
  7
STANDARD
 40
0.15625
  1
(TO BE DRILLED IN COUNTERTOP)
 41
0.8
 72
0
  0
TEXT
  8
___NOTE
 62
2
  6
CONTINUOUS
 10
27.9155041191
 20
24.5548806849
  7
STANDARD
 40
0.15625
  1
3,5 cm DIÁMETRO - ORIFICIO DEL CONECTOR OPCIONAL
 41
0.8
 72
0
  0
TEXT
  8
___NOTE
 62
2
  6
CONTINUOUS
 10
27.9155041191
 20
24.3205056849
  7
STANDARD
 40
0.15625
  1
(A SER PERFORADOS EN EL MOSTRADOR)
 41
0.8
 72
0
  0
TEXT
  8
___NOTE
 62
2
  6
CONTINUOUS
 10
27.9155041191
 20
24.0861306849
  7
STANDARD
 40
0.15625
  1
3,5 cm DIAMÈTRE - ORIFICE DU RACCORD OPTIONNEL
 41
0.8
 72
0
  0
TEXT
  8
___NOTE
 62
2
  6
CONTINUOUS
 10
27.9155041191
 20
23.8517556849
  7
STANDARD
 40
0.15625
  1
(À PERCER SUR LE COMPTOIR)
 41
0.8
 72
0
  0
LINE
  8
___NOTE
 62
2
  6
CONTINUOUS
 10
33.5607167443
 20
29.2899024151
 11
31.4015358638
 21
26.2823396103
  0
LINE
  8
___NOTE
 62
2
  6
CONTINUOUS
 10
31.4015358638
 20
26.2823396103
 11
27.6507709378
 21
25.1017556849
  0
LINE
  8
___NOTE
 62
2
  6
CONTINUOUS
 10
27.6507709378
 20
25.1017556849
 11
27.9155041191
 21
25.1017556849
  0
SOLID
  8
___NOTE
 62
2
  6
CONTINUOUS
 10
33.476754143
 20
29.1193647534
 11
33.5607167443
 21
29.2899024151
 12
33.42598315
 22
29.1558141193
 13
33.42598315
 23
29.1558141193
  0
TEXT
  8
___NOTE
 62
2
  6
CONTINUOUS
 10
22.2015718803
 20
26.346893215
  7
STANDARD
 40
0.15625
  1
1-3/8" DIAMETER - STANDARD 3 HOLE FITTING
 41
0.8
 72
0
  0
TEXT
  8
___NOTE
 62
2
  6
CONTINUOUS
 10
22.2015718803
 20
26.112518215
  7
STANDARD
 40
0.15625
  1
(TO BE DRILLED IN COUNTERTOP)
 41
0.8
 72
0
  0
TEXT
  8
___NOTE
 62
2
  6
CONTINUOUS
 10
22.2015718803
 20
25.878143215
  7
STANDARD
 40
0.15625
  1
3,5 cm DIAMÈTRE - RACCORD RÉGULIER À 3 TROUS
 41
0.8
 72
0
  0
TEXT
  8
___NOTE
 62
2
  6
CONTINUOUS
 10
22.2015718803
 20
25.643768215
  7
STANDARD
 40
0.15625
  1
(À PERCER SUR LE COMPTOIR)
 41
0.8
 72
0
  0
TEXT
  8
___NOTE
 62
2
  6
CONTINUOUS
 10
22.2015718803
 20
25.409393215
  7
STANDARD
 40
0.15625
  1
3,5 cm DIÁMETRO - CONEXIÓN ESTÁNDAR DE 3 ORIFICIOS
 41
0.8
 72
0
  0
TEXT
  8
___NOTE
 62
2
  6
CONTINUOUS
 10
22.2015718803
 20
25.175018215
  7
STANDARD
 40
0.15625
  1
(A SER TALADRADOS EN LA CUBIERTA)
 41
0.8
 72
0
  0
TEXT
  8
___NOTE
 62
2
  6
CONTINUOUS
 10
22.2015718803
 20
24.940643215
  7
STANDARD
 40
0.15625
  1
 
 41
0.8
 72
0
  0
TEXT
  8
___NOTE
 62
2
  6
CONTINUOUS
 10
22.2015718803
 20
24.706268215
  7
STANDARD
 40
0.15625
  1
 
 41
0.8
 72
0
  0
LINE
  8
___NOTE
 62
2
  6
CONTINUOUS
 10
18.2507167443
 20
29.2899024151
 11
21.6070773566
 21
26.425018215
  0
LINE
  8
___NOTE
 62
2
  6
CONTINUOUS
 10
21.6070773566
 20
26.425018215
 11
22.2015718803
 21
26.425018215
  0
SOLID
  8
___NOTE
 62
2
  6
CONTINUOUS
 10
18.4136171317
 20
29.1919418298
 11
18.2507167443
 21
29.2899024151
 12
18.3730407048
 22
29.1444044385
 13
18.3730407048
 23
29.1444044385
  0
LINE
  8
___NOTE
 62
2
  6
CONTINUOUS
 10
22.1697683126
 20
29.2499830663
 11
21.6070773566
 21
26.425018215
  0
LINE
  8
___NOTE
 62
2
  6
CONTINUOUS
 10
21.6070773566
 20
26.425018215
 11
22.2015718803
 21
26.425018215
  0
SOLID
  8
___NOTE
 62
2
  6
CONTINUOUS
 10
22.1637885715
 20
29.0599908159
 11
22.1697683126
 21
29.2499830663
 12
22.1024926926
 22
29.0722000428
 13
22.1024926926
 23
29.0722000428
  0
LINE
  8
___NOTE
 62
2
  6
CONTINUOUS
 10
25.4178130653
 20
29.3995562647
 11
21.6070773566
 21
26.425018215
  0
LINE
  8
___NOTE
 62
2
  6
CONTINUOUS
 10
21.6070773566
 20
26.425018215
 11
22.2015718803
 21
26.425018215
  0
SOLID
  8
___NOTE
 62
2
  6
CONTINUOUS
 10
25.2892380402
 20
29.2595517097
 11
25.4178130653
 21
29.3995562647
 12
25.2507811588
 22
29.3088195317
 13
25.2507811588
 23
29.3088195317
  0
TEXT
  8
___NOTE
 62
2
  6
CONTINUOUS
 10
24.3152255161
 20
10.3368205461
  7
STANDARD
 40
0.15625
  1
IMPORTANT! POSITION TEMPLATE
 41
0.8
 72
0
  0
TEXT
  8
___NOTE
 62
2
  6
CONTINUOUS
 10
24.3152255161
 20
10.1024455461
  7
STANDARD
 40
0.15625
  1
RELATIVE TO FRONT OF CABINET
 41
0.8
 72
0
  0
TEXT
  8
___NOTE
 62
2
  6
CONTINUOUS
 10
11.5360894025
 20
11.0984011803
  7
STANDARD
 40
0.15625
  1
EDGE OF COUNTERTOP LINE DEPICTS
 41
0.8
 72
0
  0
TEXT
  8
___NOTE
 62
2
  6
CONTINUOUS
 10
11.5360894025
 20
10.8640261803
  7
STANDARD
 40
0.15625
  1
1-1/2" COUNTERTOP OVERHANG
 41
0.8
 72
0
  0
TEXT
  8
___NOTE
 62
2
  6
CONTINUOUS
 10
11.5360894025
 20
10.6296511803
  7
STANDARD
 40
0.15625
  1
FOR REFERENCE ONLY
 41
0.8
 72
0
  0
LINE
  8
___NOTE
 62
2
  6
CONTINUOUS
 10
9.1521568965
 20
7.5574599437
 11
11.2860894025
 21
11.1765261803
  0
LINE
  8
___NOTE
 62
2
  6
CONTINUOUS
 10
11.2860894025
 20
11.1765261803
 11
11.5360894025
 21
11.1765261803
  0
SOLID
  8
___NOTE
 62
2
  6
CONTINUOUS
 10
9.2204722706
 20
7.7348460259
 11
9.1521568965
 21
7.5574599437
 12
9.2743101689
 22
7.7031012515
 13
9.2743101689
 23
7.7031012515
  0
INSERT
  8
___SYMBOL
 62
2
  6
CONTINUOUS
  2
CUT-OUT_TEMPLATE_SKU_SIN_BL0
 10
14.4700451766
 20
21.5731712648
  0
INSERT
  8
___SYMBOL
 62
2
  6
CONTINUOUS
  2
SCISSORS_BL1
 10
9.6531994901
 20
12.9266300044
  0
INSERT
  8
___SYMBOL
 62
2
  6
CONTINUOUS
  2
SCISSORS_BL2
 10
8.9016916385
 20
15.4253802863
  0
INSERT
  8
___SYMBOL
 62
2
  6
CONTINUOUS
  2
COPYRIGHT_YEAR_BL3
 10
33.0745648586
 20
7.926765608
  0
INSERT
  8
___SYMBOL
 62
2
  6
CONTINUOUS
  2
WHEN_PLOTTING_TEMPLATE_N_BL4
 10
30.7319081177
 20
13.394286368
  0
LINE
  8
_CURVE
 62
8
  6
PHANTOM
 10
7.0540257796
 20
8.9943197881
 11
7.0881769995
 21
8.3426756946
  0
LINE
  8
_CURVE
 62
8
  6
PHANTOM
 10
7.9057167443
 20
28.3276882618
 11
7.9057167443
 21
9.1174599437
  0
POLYLINE
  8
_CURVE
 62
8
  6
PHANTOM
 66
1
 70
0
  0
VERTEX
  8
_CURVE
 62
8
  6
PHANTOM
 10
7.9057167443
 20
9.1174599437
  0
VERTEX
  8
_CURVE
 62
8
  6
PHANTOM
 10
7.9052014752
 20
9.1096283722
  0
VERTEX
  8
_CURVE
 62
8
  6
PHANTOM
 10
7.9036644844
 20
9.101930801
  0
VERTEX
  8
_CURVE
 62
8
  6
PHANTOM
 10
7.9011320702
 20
9.0944989378
  0
VERTEX
  8
_CURVE
 62
8
  6
PHANTOM
 10
7.8976475629
 20
9.0874599437
  0
VERTEX
  8
_CURVE
 62
8
  6
PHANTOM
 10
7.8932705833
 20
9.080934258
  0
VERTEX
  8
_CURVE
 62
8
  6
PHANTOM
 10
7.8880760229
 20
9.0750335369
  0
VERTEX
  8
_CURVE
 62
8
  6
PHANTOM
 10
7.882152762
 20
9.0698587433
  0
VERTEX
  8
_CURVE
 62
8
  6
PHANTOM
 10
7.8756021492
 20
9.0654984195
  0
VERTEX
  8
_CURVE
 62
8
  6
PHANTOM
 10
7.8685362673
 20
9.0620271718
  0
VERTEX
  8
_CURVE
 62
8
  6
PHANTOM
 10
7.8610760156
 20
9.0595043942
  0
VERTEX
  8
_CURVE
 62
8
  6
PHANTOM
 10
7.8533490409
 20
9.0579732521
  0
VERTEX
  8
_CURVE
 62
8
  6
PHANTOM
 10
7.845487554
 20
9.0574599437
  0
SEQEND
  0
LINE
  8
_CURVE
 62
7
  6
CONTINUOUS
 10
8.9055902072
 20
7.5574599437
 11
8.9055902072
 21
25.423662302
  0
LINE
  8
_CURVE
 62
7
  6
CONTINUOUS
 10
9.6555902072
 20
7.5574599437
 11
9.6555902072
 21
25.423662302
  0
LINE
  8
DEFAULT_1
 62
7
  6
CENTER
 10
9.9057167443
 20
29.8874599437
 11
9.9057167443
 21
29.0116364972
  0
LINE
  8
DEFAULT_1
 62
7
  6
CENTER
 10
9.9057167443
 20
29.8874599437
 11
9.9057167443
 21
30.7632833903
  0
LINE
  8
_CURVE
 62
8
  6
PHANTOM
 10
8.7059568458
 20
6.8074599437
 11
35.1054766428
 21
6.8074599437
  0
LINE
  8
_CURVE
 62
7
  6
CONTINUOUS
 10
5.6555902072
 20
7.5574599437
 11
38.1558432814
 21
7.5574599437
  0
LINE
  8
_CURVE
 62
7
  6
PHANTOM
 10
6.0540257796
 20
9.0574599437
 11
37.8542228994
 21
9.0574599437
  0
POLYLINE
  8
_CURVE
 62
8
  6
PHANTOM
 66
1
 70
0
  0
VERTEX
  8
_CURVE
 62
8
  6
PHANTOM
 10
35.9659459346
 20
9.0574599437
  0
VERTEX
  8
_CURVE
 62
8
  6
PHANTOM
 10
35.9580844477
 20
9.0579732521
  0
VERTEX
  8
_CURVE
 62
8
  6
PHANTOM
 10
35.950357473
 20
9.0595043942
  0
VERTEX
  8
_CURVE
 62
8
  6
PHANTOM
 10
35.9428972213
 20
9.0620271718
  0
VERTEX
  8
_CURVE
 62
8
  6
PHANTOM
 10
35.9358313394
 20
9.0654984195
  0
VERTEX
  8
_CURVE
 62
8
  6
PHANTOM
 10
35.9292807266
 20
9.0698587433
  0
VERTEX
  8
_CURVE
 62
8
  6
PHANTOM
 10
35.9233574657
 20
9.0750335369
  0
VERTEX
  8
_CURVE
 62
8
  6
PHANTOM
 10
35.9181629053
 20
9.080934258
  0
VERTEX
  8
_CURVE
 62
8
  6
PHANTOM
 10
35.9137859257
 20
9.0874599437
  0
VERTEX
  8
_CURVE
 62
8
  6
PHANTOM
 10
35.9103014184
 20
9.0944989378
  0
VERTEX
  8
_CURVE
 62
8
  6
PHANTOM
 10
35.9077690042
 20
9.101930801
  0
VERTEX
  8
_CURVE
 62
8
  6
PHANTOM
 10
35.9062320134
 20
9.1096283722
  0
VERTEX
  8
_CURVE
 62
8
  6
PHANTOM
 10
35.9057167443
 20
9.1174599437
  0
SEQEND
  0
LINE
  8
DEFAULT_1
 62
7
  6
CENTER
 10
17.9057167443
 20
29.8874599437
 11
17.9057167443
 21
29.0002443725
  0
LINE
  8
DEFAULT_1
 62
7
  6
CENTER
 10
17.9057167443
 20
29.8874599437
 11
17.9057167443
 21
30.774675515
  0
LINE
  8
DEFAULT_1
 62
7
  6
CENTER
 10
21.9057167443
 20
29.8874599437
 11
21.9057167443
 21
6.1097373839
  0
LINE
  8
DEFAULT_1
 62
7
  6
CENTER
 10
21.9057167443
 20
29.8874599437
 11
21.9057167443
 21
30.8195288172
  0
LINE
  8
DEFAULT_1
 62
7
  6
CENTER
 10
25.9057167443
 20
29.8874599437
 11
25.9057167443
 21
28.9858956777
  0
LINE
  8
DEFAULT_1
 62
7
  6
CENTER
 10
25.9057167443
 20
29.8874599437
 11
25.9057167443
 21
30.7890242098
  0
LINE
  8
DEFAULT_1
 62
7
  6
CENTER
 10
29.1457167443
 20
21.6274599437
 11
26.9912632335
 21
21.6274599437
  0
LINE
  8
DEFAULT_1
 62
7
  6
CENTER
 10
29.1457167443
 20
21.6274599437
 11
31.3001702551
 21
21.6274599437
  0
LINE
  8
DEFAULT_1
 62
7
  6
CENTER
 10
29.1457167443
 20
21.6274599437
 11
29.1457167443
 21
19.473006433
  0
LINE
  8
DEFAULT_1
 62
7
  6
CENTER
 10
29.1457167443
 20
21.6274599437
 11
29.1457167443
 21
23.7819134545
  0
LINE
  8
_CURVE
 62
7
  6
CONTINUOUS
 10
10.9465569466
 20
26.8699599437
 11
32.8495569466
 21
26.8699599437
  0
LINE
  8
_CURVE
 62
7
  6
CONTINUOUS
 10
10.9453699524
 20
27.6199599437
 11
32.8484847825
 21
27.6199599437
  0
POLYLINE
  8
_CURVE
 62
8
  6
PHANTOM
 66
1
 70
0
  0
VERTEX
  8
_CURVE
 62
8
  6
PHANTOM
 10
7.9654884262
 20
28.3874599437
  0
VERTEX
  8
_CURVE
 62
8
  6
PHANTOM
 10
7.963916614
 20
28.387439403
  0
VERTEX
  8
_CURVE
 62
8
  6
PHANTOM
 10
7.9623454509
 20
28.3873778022
  0
VERTEX
  8
_CURVE
 62
8
  6
PHANTOM
 10
7.9607762081
 20
28.387275173
  0
VERTEX
  8
_CURVE
 62
8
  6
PHANTOM
 10
7.9592101565
 20
28.3871315472
  0
VERTEX
  8
_CURVE
 62
8
  6
PHANTOM
 10
7.9576512263
 20
28.3869473307
  0
VERTEX
  8
_CURVE
 62
8
  6
PHANTOM
 10
7.9560977553
 20
28.3867224361
  0
VERTEX
  8
_CURVE
 62
8
  6
PHANTOM
 10
7.9545507558
 20
28.3864570081
  0
VERTEX
  8
_CURVE
 62
8
  6
PHANTOM
 10
7.9530112401
 20
28.3861511914
  0
VERTEX
  8
_CURVE
 62
8
  6
PHANTOM
 10
7.9514826971
 20
28.3858057418
  0
VERTEX
  8
_CURVE
 62
8
  6
PHANTOM
 10
7.9499636797
 20
28.3854204354
  0
VERTEX
  8
_CURVE
 62
8
  6
PHANTOM
 10
7.9484552447
 20
28.3849955296
  0
VERTEX
  8
_CURVE
 62
8
  6
PHANTOM
 10
7.9469584489
 20
28.3845312813
  0
VERTEX
  8
_CURVE
 62
8
  6
PHANTOM
 10
7.9454764516
 20
28.3840287131
  0
VERTEX
  8
_CURVE
 62
8
  6
PHANTOM
 10
7.9440081191
 20
28.3834875386
  0
VERTEX
  8
_CURVE
 62
8
  6
PHANTOM
 10
7.9425544563
 20
28.3829081252
  0
VERTEX
  8
_CURVE
 62
8
  6
PHANTOM
 10
7.9411164682
 20
28.3822908403
  0
VERTEX
  8
_CURVE
 62
8
  6
PHANTOM
 10
7.9396968245
 20
28.3816368658
  0
VERTEX
  8
_CURVE
 62
8
  6
PHANTOM
 10
7.9382947847
 20
28.38094595
  0
VERTEX
  8
_CURVE
 62
8
  6
PHANTOM
 10
7.9369113125
 20
28.3802185669
  0
VERTEX
  8
_CURVE
 62
8
  6
PHANTOM
 10
7.9355473715
 20
28.3794551905
  0
VERTEX
  8
_CURVE
 62
8
  6
PHANTOM
 10
7.9342050938
 20
28.3786570337
  0
VERTEX
  8
_CURVE
 62
8
  6
PHANTOM
 10
7.9328841797
 20
28.3778239961
  0
VERTEX
  8
_CURVE
 62
8
  6
PHANTOM
 10
7.9315855341
 20
28.3769566535
  0
VERTEX
  8
_CURVE
 62
8
  6
PHANTOM
 10
7.9303100619
 20
28.3760555817
  0
VERTEX
  8
_CURVE
 62
8
  6
PHANTOM
 10
7.929059332
 20
28.3751218903
  0
VERTEX
  8
_CURVE
 62
8
  6
PHANTOM
 10
7.9278334909
 20
28.3741557525
  0
VERTEX
  8
_CURVE
 62
8
  6
PHANTOM
 10
7.9266333755
 20
28.3731578391
  0
VERTEX
  8
_CURVE
 62
8
  6
PHANTOM
 10
7.9254598226
 20
28.372128821
  0
VERTEX
  8
_CURVE
 62
8
  6
PHANTOM
 10
7.9243138649
 20
28.371069582
  0
VERTEX
  8
_CURVE
 62
8
  6
PHANTOM
 10
7.9231960546
 20
28.3699806788
  0
VERTEX
  8
_CURVE
 62
8
  6
PHANTOM
 10
7.9221071502
 20
28.3688628697
  0
VERTEX
  8
_CURVE
 62
8
  6
PHANTOM
 10
7.92104791
 20
28.3677169131
  0
VERTEX
  8
_CURVE
 62
8
  6
PHANTOM
 10
7.9200188898
 20
28.3665433604
  0
VERTEX
  8
_CURVE
 62
8
  6
PHANTOM
 10
7.9190209744
 20
28.3653432451
  0
VERTEX
  8
_CURVE
 62
8
  6
PHANTOM
 10
7.9180548345
 20
28.3641174041
  0
VERTEX
  8
_CURVE
 62
8
  6
PHANTOM
 10
7.9171211412
 20
28.3628666742
  0
VERTEX
  8
_CURVE
 62
8
  6
PHANTOM
 10
7.9162200668
 20
28.3615912009
  0
VERTEX
  8
_CURVE
 62
8
  6
PHANTOM
 10
7.9153527217
 20
28.3602925541
  0
VERTEX
  8
_CURVE
 62
8
  6
PHANTOM
 10
7.9145196817
 20
28.3589716388
  0
VERTEX
  8
_CURVE
 62
8
  6
PHANTOM
 10
7.9137215225
 20
28.3576293598
  0
VERTEX
  8
_CURVE
 62
8
  6
PHANTOM
 10
7.9129581435
 20
28.3562654168
  0
VERTEX
  8
_CURVE
 62
8
  6
PHANTOM
 10
7.9122307579
 20
28.3548819424
  0
VERTEX
  8
_CURVE
 62
8
  6
PHANTOM
 10
7.9115398398
 20
28.3534799003
  0
VERTEX
  8
_CURVE
 62
8
  6
PHANTOM
 10
7.9108858631
 20
28.3520602543
  0
VERTEX
  8
_CURVE
 62
8
  6
PHANTOM
 10
7.910268576
 20
28.3506222636
  0
VERTEX
  8
_CURVE
 62
8
  6
PHANTOM
 10
7.9096891606
 20
28.3491685981
  0
VERTEX
  8
_CURVE
 62
8
  6
PHANTOM
 10
7.9091479843
 20
28.3477002628
  0
VERTEX
  8
_CURVE
 62
8
  6
PHANTOM
 10
7.9086454143
 20
28.3462182626
  0
VERTEX
  8
_CURVE
 62
8
  6
PHANTOM
 10
7.9081811646
 20
28.3447214642
  0
VERTEX
  8
_CURVE
 62
8
  6
PHANTOM
 10
7.9077562575
 20
28.3432130265
  0
VERTEX
  8
_CURVE
 62
8
  6
PHANTOM
 10
7.90737095
 20
28.3416940063
  0
VERTEX
  8
_CURVE
 62
8
  6
PHANTOM
 10
7.9070254993
 20
28.3401654604
  0
VERTEX
  8
_CURVE
 62
8
  6
PHANTOM
 10
7.9067196819
 20
28.3386259427
  0
VERTEX
  8
_CURVE
 62
8
  6
PHANTOM
 10
7.9064542533
 20
28.337078941
  0
VERTEX
  8
_CURVE
 62
8
  6
PHANTOM
 10
7.9062293581
 20
28.3355254678
  0
VERTEX
  8
_CURVE
 62
8
  6
PHANTOM
 10
7.9060451413
 20
28.3339665355
  0
VERTEX
  8
_CURVE
 62
8
  6
PHANTOM
 10
7.9059015153
 20
28.3324004829
  0
VERTEX
  8
_CURVE
 62
8
  6
PHANTOM
 10
7.9057988859
 20
28.3308312391
  0
VERTEX
  8
_CURVE
 62
8
  6
PHANTOM
 10
7.905737285
 20
28.3292600751
  0
VERTEX
  8
_CURVE
 62
8
  6
PHANTOM
 10
7.9057167443
 20
28.3276882618
  0
SEQEND
  0
LINE
  8
_CURVE
 62
8
  6
PHANTOM
 10
35.8459450624
 20
28.3874599437
 11
7.9654884262
 21
28.3874599437
  0
LINE
  8
DEFAULT_1
 62
7
  6
CENTER
 10
33.9057167443
 20
29.8874599437
 11
33.9057167443
 21
29.0084333582
  0
LINE
  8
DEFAULT_1
 62
7
  6
CENTER
 10
33.9057167443
 20
29.8874599437
 11
33.9057167443
 21
30.7664865293
  0
LINE
  8
_CURVE
 62
7
  6
CONTINUOUS
 10
34.1558432814
 20
25.423662302
 11
34.1558432814
 21
7.5574599437
  0
LINE
  8
DEFAULT_1
 62
7
  6
CENTER
 10
33.9057167443
 20
29.8874599437
 11
33.0266901588
 21
29.8874599437
  0
LINE
  8
DEFAULT_1
 62
7
  6
CENTER
 10
25.9057167443
 20
29.8874599437
 11
25.0041524782
 21
29.8874599437
  0
LINE
  8
DEFAULT_1
 62
7
  6
CENTER
 10
21.9057167443
 20
29.8874599437
 11
20.9736478708
 21
29.8874599437
  0
LINE
  8
DEFAULT_1
 62
7
  6
CENTER
 10
17.9057167443
 20
29.8874599437
 11
17.018501173
 21
29.8874599437
  0
LINE
  8
DEFAULT_1
 62
7
  6
CENTER
 10
9.9057167443
 20
29.8874599437
 11
9.0298932978
 21
29.8874599437
  0
LINE
  8
DEFAULT_1
 62
7
  6
CENTER
 10
9.9057167443
 20
29.8874599437
 11
10.7815401908
 21
29.8874599437
  0
LINE
  8
DEFAULT_1
 62
7
  6
CENTER
 10
17.9057167443
 20
29.8874599437
 11
18.7929323156
 21
29.8874599437
  0
LINE
  8
DEFAULT_1
 62
7
  6
CENTER
 10
21.9057167443
 20
29.8874599437
 11
22.8377856178
 21
29.8874599437
  0
LINE
  8
DEFAULT_1
 62
7
  6
CENTER
 10
25.9057167443
 20
29.8874599437
 11
26.8072810104
 21
29.8874599437
  0
LINE
  8
DEFAULT_1
 62
7
  6
CENTER
 10
33.9057167443
 20
29.8874599437
 11
34.7847433298
 21
29.8874599437
  0
LINE
  8
_CURVE
 62
7
  6
CONTINUOUS
 10
34.9058432814
 20
25.423662302
 11
34.9058432814
 21
7.5574599437
  0
POLYLINE
  8
_CURVE
 62
8
  6
PHANTOM
 66
1
 70
0
  0
VERTEX
  8
_CURVE
 62
8
  6
PHANTOM
 10
35.9057167443
 20
28.3276882618
  0
VERTEX
  8
_CURVE
 62
8
  6
PHANTOM
 10
35.9056962036
 20
28.3292600741
  0
VERTEX
  8
_CURVE
 62
8
  6
PHANTOM
 10
35.9056346028
 20
28.3308312371
  0
VERTEX
  8
_CURVE
 62
8
  6
PHANTOM
 10
35.9055319735
 20
28.3324004799
  0
VERTEX
  8
_CURVE
 62
8
  6
PHANTOM
 10
35.9053883477
 20
28.3339665315
  0
VERTEX
  8
_CURVE
 62
8
  6
PHANTOM
 10
35.9052041313
 20
28.3355254617
  0
VERTEX
  8
_CURVE
 62
8
  6
PHANTOM
 10
35.9049792366
 20
28.3370789327
  0
VERTEX
  8
_CURVE
 62
8
  6
PHANTOM
 10
35.9047138086
 20
28.3386259322
  0
VERTEX
  8
_CURVE
 62
8
  6
PHANTOM
 10
35.904407992
 20
28.3401654479
  0
VERTEX
  8
_CURVE
 62
8
  6
PHANTOM
 10
35.9040625423
 20
28.3416939909
  0
VERTEX
  8
_CURVE
 62
8
  6
PHANTOM
 10
35.903677236
 20
28.3432130083
  0
VERTEX
  8
_CURVE
 62
8
  6
PHANTOM
 10
35.9032523301
 20
28.3447214433
  0
VERTEX
  8
_CURVE
 62
8
  6
PHANTOM
 10
35.9027880819
 20
28.3462182391
  0
VERTEX
  8
_CURVE
 62
8
  6
PHANTOM
 10
35.9022855137
 20
28.3477002364
  0
VERTEX
  8
_CURVE
 62
8
  6
PHANTOM
 10
35.9017443392
 20
28.3491685689
  0
VERTEX
  8
_CURVE
 62
8
  6
PHANTOM
 10
35.9011649257
 20
28.3506222317
  0
VERTEX
  8
_CURVE
 62
8
  6
PHANTOM
 10
35.9005476408
 20
28.3520602198
  0
VERTEX
  8
_CURVE
 62
8
  6
PHANTOM
 10
35.8998936664
 20
28.3534798635
  0
VERTEX
  8
_CURVE
 62
8
  6
PHANTOM
 10
35.8992027506
 20
28.3548819033
  0
VERTEX
  8
_CURVE
 62
8
  6
PHANTOM
 10
35.8984753675
 20
28.3562653755
  0
VERTEX
  8
_CURVE
 62
8
  6
PHANTOM
 10
35.8977119911
 20
28.3576293166
  0
VERTEX
  8
_CURVE
 62
8
  6
PHANTOM
 10
35.8969138342
 20
28.3589715942
  0
VERTEX
  8
_CURVE
 62
8
  6
PHANTOM
 10
35.8960807966
 20
28.3602925083
  0
VERTEX
  8
_CURVE
 62
8
  6
PHANTOM
 10
35.8952134541
 20
28.3615911539
  0
VERTEX
  8
_CURVE
 62
8
  6
PHANTOM
 10
35.8943123822
 20
28.3628666262
  0
VERTEX
  8
_CURVE
 62
8
  6
PHANTOM
 10
35.8933786909
 20
28.364117356
  0
VERTEX
  8
_CURVE
 62
8
  6
PHANTOM
 10
35.8924125531
 20
28.3653431971
  0
VERTEX
  8
_CURVE
 62
8
  6
PHANTOM
 10
35.8914146396
 20
28.3665433125
  0
VERTEX
  8
_CURVE
 62
8
  6
PHANTOM
 10
35.8903856216
 20
28.3677168654
  0
VERTEX
  8
_CURVE
 62
8
  6
PHANTOM
 10
35.8893263825
 20
28.3688628232
  0
VERTEX
  8
_CURVE
 62
8
  6
PHANTOM
 10
35.8882374794
 20
28.3699806334
  0
VERTEX
  8
_CURVE
 62
8
  6
PHANTOM
 10
35.8871196703
 20
28.3710695378
  0
VERTEX
  8
_CURVE
 62
8
  6
PHANTOM
 10
35.8859737136
 20
28.3721287781
  0
VERTEX
  8
_CURVE
 62
8
  6
PHANTOM
 10
35.8848001609
 20
28.3731577982
  0
VERTEX
  8
_CURVE
 62
8
  6
PHANTOM
 10
35.8836000456
 20
28.3741557136
  0
VERTEX
  8
_CURVE
 62
8
  6
PHANTOM
 10
35.8823742046
 20
28.3751218535
  0
VERTEX
  8
_CURVE
 62
8
  6
PHANTOM
 10
35.8811234747
 20
28.3760555468
  0
VERTEX
  8
_CURVE
 62
8
  6
PHANTOM
 10
35.8798480014
 20
28.3769566212
  0
VERTEX
  8
_CURVE
 62
8
  6
PHANTOM
 10
35.8785493547
 20
28.3778239663
  0
VERTEX
  8
_CURVE
 62
8
  6
PHANTOM
 10
35.8772284394
 20
28.3786570064
  0
VERTEX
  8
_CURVE
 62
8
  6
PHANTOM
 10
35.8758861604
 20
28.3794551656
  0
VERTEX
  8
_CURVE
 62
8
  6
PHANTOM
 10
35.8745222173
 20
28.3802185445
  0
VERTEX
  8
_CURVE
 62
8
  6
PHANTOM
 10
35.8731387429
 20
28.3809459301
  0
VERTEX
  8
_CURVE
 62
8
  6
PHANTOM
 10
35.8717367009
 20
28.3816368483
  0
VERTEX
  8
_CURVE
 62
8
  6
PHANTOM
 10
35.8703170549
 20
28.3822908249
  0
VERTEX
  8
_CURVE
 62
8
  6
PHANTOM
 10
35.8688790642
 20
28.382908112
  0
VERTEX
  8
_CURVE
 62
8
  6
PHANTOM
 10
35.8674253987
 20
28.3834875274
  0
VERTEX
  8
_CURVE
 62
8
  6
PHANTOM
 10
35.8659570633
 20
28.3840287038
  0
VERTEX
  8
_CURVE
 62
8
  6
PHANTOM
 10
35.8644750631
 20
28.3845312737
  0
VERTEX
  8
_CURVE
 62
8
  6
PHANTOM
 10
35.8629782647
 20
28.3849955234
  0
VERTEX
  8
_CURVE
 62
8
  6
PHANTOM
 10
35.861469827
 20
28.3854204306
  0
VERTEX
  8
_CURVE
 62
8
  6
PHANTOM
 10
35.8599508068
 20
28.3858057381
  0
VERTEX
  8
_CURVE
 62
8
  6
PHANTOM
 10
35.858422261
 20
28.3861511888
  0
VERTEX
  8
_CURVE
 62
8
  6
PHANTOM
 10
35.8568827432
 20
28.3864570061
  0
VERTEX
  8
_CURVE
 62
8
  6
PHANTOM
 10
35.8553357416
 20
28.3867224348
  0
VERTEX
  8
_CURVE
 62
8
  6
PHANTOM
 10
35.8537822684
 20
28.3869473299
  0
VERTEX
  8
_CURVE
 62
8
  6
PHANTOM
 10
35.8522233361
 20
28.3871315467
  0
VERTEX
  8
_CURVE
 62
8
  6
PHANTOM
 10
35.8506572835
 20
28.3872751727
  0
VERTEX
  8
_CURVE
 62
8
  6
PHANTOM
 10
35.8490880396
 20
28.3873778021
  0
VERTEX
  8
_CURVE
 62
8
  6
PHANTOM
 10
35.8475168756
 20
28.387439403
  0
VERTEX
  8
_CURVE
 62
8
  6
PHANTOM
 10
35.8459450624
 20
28.3874599437
  0
SEQEND
  0
LINE
  8
_CURVE
 62
8
  6
PHANTOM
 10
35.9057167443
 20
9.1174599437
 11
35.9057167443
 21
28.3276882618
  0
LINE
  8
_CURVE
 62
8
  6
PHANTOM
 10
36.7232564891
 20
8.3426756946
 11
36.757407709
 21
8.9943197881
  0
ARC
  8
_CURVE
 62
7
  6
CONTINUOUS
 10
32.8572975418
 20
24.3379717757
 40
3.282
 50
89.8693823029
 51
90.1538496414
  0
ARC
  8
_CURVE
 62
7
  6
CONTINUOUS
 10
31.6558432814
 20
25.423662302
 40
3.25
 50
0.0
 51
9.9678797739
  0
ARC
  8
_CURVE
 62
7
  6
CONTINUOUS
 10
12.1555902072
 20
25.423662302
 40
3.25
 50
170.0321202261
 51
180.0
  0
ARC
  8
_CURVE
 62
7
  6
CONTINUOUS
 10
10.9541359468
 20
24.3379717757
 40
2.532
 50
89.8248403919
 51
90.1306176971
  0
ARC
  8
_CURVE
 62
7
  6
CONTINUOUS
 10
32.8572975418
 20
24.3379717757
 40
2.532
 50
89.8693823029
 51
90.1751596081
  0
ARC
  8
_CURVE
 62
7
  6
CONTINUOUS
 10
31.6558432814
 20
25.423662302
 40
2.5
 50
0.0
 51
9.9678797739
  0
ARC
  8
_CURVE
 62
7
  6
CONTINUOUS
 10
12.1555902072
 20
25.423662302
 40
2.5
 50
170.0321202261
 51
180.0
  0
ARC
  8
_CURVE
 62
7
  6
CONTINUOUS
 10
32.6998425242
 20
25.6071441294
 40
2.19
 50
9.9678797739
 51
26.336028132
  0
ARC
  8
_CURVE
 62
7
  6
CONTINUOUS
 10
32.8597869818
 20
25.4299689381
 40
2.19
 50
57.8121031216
 51
89.8693823029
  0
ARC
  8
_CURVE
 62
7
  6
CONTINUOUS
 10
10.9516465068
 20
25.4299689381
 40
2.19
 50
90.1642103061
 51
122.1878968784
  0
ARC
  8
_CURVE
 62
7
  6
CONTINUOUS
 10
11.1115909644
 20
25.6071441294
 40
2.19
 50
153.663971868
 51
170.0321202261
  0
CIRCLE
  8
_CURVE
 62
7
  6
DASHED
 10
29.1457167443
 20
21.6274599437
 40
1.9375
  0
ARC
  8
_CURVE
 62
7
  6
CONTINUOUS
 10
33.0941738883
 20
25.8023434512
 40
1.75
 50
26.336028132
 51
57.8121031216
  0
ARC
  8
_CURVE
 62
7
  6
CONTINUOUS
 10
10.7172596003
 20
25.8023434512
 40
1.75
 50
122.1878968784
 51
153.663971868
  0
ARC
  8
_CURVE
 62
8
  6
PHANTOM
 10
8.7059568458
 20
8.4274599437
 40
1.62
 50
183.0
 51
270.0
  0
ARC
  8
_CURVE
 62
8
  6
PHANTOM
 10
35.1054766428
 20
8.4274599437
 40
1.62
 50
270.0
 51
357.0
  0
ARC
  8
_CURVE
 62
7
  6
CONTINUOUS
 10
32.6998425242
 20
25.6071441294
 40
1.44
 50
9.9678797739
 51
26.336028132
  0
ARC
  8
_CURVE
 62
7
  6
CONTINUOUS
 10
32.8597869818
 20
25.4299689381
 40
1.44
 50
57.8121031216
 51
89.8693823029
  0
ARC
  8
_CURVE
 62
7
  6
CONTINUOUS
 10
10.9516465068
 20
25.4299689381
 40
1.44
 50
90.2025075873
 51
122.1878968784
  0
ARC
  8
_CURVE
 62
7
  6
CONTINUOUS
 10
11.1115909644
 20
25.6071441294
 40
1.44
 50
153.663971868
 51
170.0321202261
  0
ARC
  8
_CURVE
 62
7
  6
CONTINUOUS
 10
33.0941738883
 20
25.8023434512
 40
1.0
 50
26.336028132
 51
57.8121031216
  0
ARC
  8
_CURVE
 62
7
  6
CONTINUOUS
 10
10.7172596003
 20
25.8023434512
 40
1.0
 50
122.1878968784
 51
153.663971868
  0
CIRCLE
  8
_CURVE
 62
7
  6
CONTINUOUS
 10
21.9057167443
 20
29.8874599437
 40
0.69
  0
CIRCLE
  8
_CURVE
 62
7
  6
CONTINUOUS
 10
25.9057167443
 20
29.8874599437
 40
0.69
  0
CIRCLE
  8
_CURVE
 62
7
  6
CONTINUOUS
 10
33.9057167443
 20
29.8874599437
 40
0.69
  0
CIRCLE
  8
_CURVE
 62
7
  6
CONTINUOUS
 10
17.9057167443
 20
29.8874599437
 40
0.69
  0
CIRCLE
  8
_CURVE
 62
7
  6
CONTINUOUS
 10
9.9057167443
 20
29.8874599437
 40
0.69
  0
ARC
  8
_CURVE
 62
8
  6
PHANTOM
 10
7.1139435699
 20
8.9974599437
 40
0.06
 50
90.0000173068
 51
182.9999990942
  0
ARC
  8
_CURVE
 62
8
  6
PHANTOM
 10
36.6974899368
 20
8.9974599437
 40
0.06
 50
357.0
 51
90.0
  0
ENDSEC
  0
EOF
