999
DXF file: 1242828_7_a.dxf
999
Pro/ENGINEER 2013150 by Parametric Technology Corporation
  0
SECTION
  2
HEADER
  9
$EXTMAX
 10
44.0
 20
34.0
 30
0.0
  9
$EXTMIN
 10
0.0
 20
0.0
 30
0.0
  9
$LIMMIN
 10
0.0
 20
0.0
  9
$LIMMAX
 10
44.0
 20
34.0
  9
$VIEWCTR
 10
22.0
 20
17.0
  9
$VIEWSIZE
 40
34.0
  9
$CLAYER
  8
0
  9
$LTSCALE
 40
2.42
  9
$CELTYPE
  6
BYLAYER
  9
$DIMSCALE
 40
1.0
  9
$DIMASZ
 40
0.1875
  9
$DIMEXO
 40
0.0625
  9
$DIMDLI
 40
1.672
  9
$DIMEXE
 40
0.125
  9
$DIMCEN
 40
0.396
  9
$DIMLFAC
 40
1.0
  9
$DIMBLK
  1
_FILLED
  9
$DIMTXT
 40
0.15625
  9
$PDMODE
 70
3
  9
$PDSIZE
 40
0.3125
  9
$TILEMODE
 70
1
  0
ENDSEC
  0
SECTION
  2
TABLES
  0
TABLE
  2
LTYPE
 70
6
  0
LTYPE
  2
BYBLOCK
 70
0
  3

 72
65
 73
0
 40
0.0
  0
LTYPE
  2
BYLAYER
 70
0
  3

 72
65
 73
0
 40
0.0
  0
LTYPE
  2
CONTINUOUS
 70
64
  3
Solid line
 72
65
 73
0
 40
0.0
  0
LTYPE
  2
CENTER
 70
64
  3
____ _ ____ _ ____ _ ____ _ ____ _ ____ _ ____
 72
65
 73
4
 40
0.6
 49
0.375
 49
-0.075
 49
0.075
 49
-0.075
  0
LTYPE
  2
HIDDEN
 70
64
  3
- - - - - - - - - - - - - - - - - - - -
 72
65
 73
2
 40
0.2
 49
0.1
 49
-0.1
  0
LTYPE
  2
PHANTOM
 70
64
  3
_____ _ _ _____ _ _ _____ _ _ _____
 72
65
 73
6
 40
0.8
 49
0.45
 49
-0.05
 49
0.1
 49
-0.05
 49
0.1
 49
-0.05
  0
LTYPE
  2
DOT
 70
64
  3
. . . . . . . . . . . . . . . . . . . .
 72
65
 73
2
 40
0.2
 49
0.1
 49
-0.1
  0
LTYPE
  2
DASHED
 70
64
  3
- - - - - - - - - - - - - - - - - - - -
 72
65
 73
2
 40
0.2
 49
0.1
 49
-0.1
  0
ENDTAB
  0
TABLE
  2
LAYER
 70
36
  0
LAYER
  2
0
 70
0
 62
7
  6
CONTINUOUS
  0
LAYER
  2
DEFAULT_1
 70
0
 62
7
  6
CENTER
  0
LAYER
  2
DEFAULT_2
 70
0
 62
8
  6
HIDDEN
  0
LAYER
  2
DEFAULT_3
 70
0
 62
7
  6
PHANTOM
  0
LAYER
  2
DATUMS
 70
0
 62
7
  6
CONTINUOUS
  0
LAYER
  2
DATUM_AXIS
 70
0
 62
7
  6
CONTINUOUS
  0
LAYER
  2
DATUM_CSYS
 70
0
 62
7
  6
CONTINUOUS
  0
LAYER
  2
DATUM_PLANE
 70
0
 62
7
  6
CONTINUOUS
  0
LAYER
  2
DATUM_POINT
 70
0
 62
7
  6
CONTINUOUS
  0
LAYER
  2
_CURVE
 70
0
 62
7
  6
CONTINUOUS
  0
LAYER
  2
_SURFACE
 70
0
 62
7
  6
CONTINUOUS
  0
LAYER
  2
__REF_CURVE
 70
0
 62
7
  6
CONTINUOUS
  0
LAYER
  2
__REF_SURFACE
 70
0
 62
7
  6
CONTINUOUS
  0
LAYER
  2
___NOTE
 70
0
 62
7
  6
CONTINUOUS
  0
LAYER
  2
___SYMBOL
 70
0
 62
7
  6
CONTINUOUS
  0
ENDTAB
  0
TABLE
  2
STYLE
 70
1
  0
STYLE
  2
STANDARD
 70
0
 40
0.0
 41
0.8
 50
0.0
 71
0
 42
0.2
  3
txt
  4

  0
STYLE
  2
TEXTSTYLE_1
 70
0
 40
0.0
 41
0.8
 50
0.0
 71
0
 42
0.2
  3
gdt
  4

  0
STYLE
  2
TEXTSTYLE_2
 70
0
 40
0.0
 41
1.0
 50
0.0
 71
0
 42
0.2
  3
txt
  4

  0
ENDTAB
  0
ENDSEC
  0
SECTION
  2
BLOCKS
  0
BLOCK
  8
___SYMBOL
 62
2
  6
CONTINUOUS
  2
SYMBOL_45_BL5
 70
64
 10
31.800320153
 20
18.8003261103
  0
LINE
  8
___SYMBOL
 62
7
  6
CONTINUOUS
 10
31.7697204525
 20
18.9182354523
 11
31.6576406793
 21
19.471893754
  0
LINE
  8
___SYMBOL
 62
7
  6
CONTINUOUS
 10
31.7213407933
 20
18.8887343769
 11
31.6576406793
 21
19.471893754
  0
LINE
  8
___SYMBOL
 62
7
  6
CONTINUOUS
 10
31.7969825578
 20
18.8225514603
 11
31.7954149438
 21
18.8734048672
  0
LINE
  8
___SYMBOL
 62
7
  6
CONTINUOUS
 10
31.8117926451
 20
18.8740848566
 11
31.8133710458
 21
18.8228815258
  0
LINE
  8
___SYMBOL
 62
7
  6
CONTINUOUS
 10
31.8058745622
 20
19.0514543065
 11
31.9935889518
 21
19.462158273
  0
LINE
  8
___SYMBOL
 62
7
  6
CONTINUOUS
 10
31.6917657404
 20
18.7931842058
 11
31.7242948343
 21
18.8545967738
  0
LINE
  8
___SYMBOL
 62
7
  6
CONTINUOUS
 10
31.8730218077
 20
18.8610029045
 11
31.9935889518
 21
19.2466915173
  0
LINE
  8
___SYMBOL
 62
7
  6
CONTINUOUS
 10
31.8436531922
 20
18.9443018387
 11
31.7697204525
 21
18.9182354523
  0
LINE
  8
___SYMBOL
 62
7
  6
CONTINUOUS
 10
31.8976338316
 20
18.7911952092
 11
31.8403470298
 21
18.6529306865
  0
LINE
  8
___SYMBOL
 62
7
  6
CONTINUOUS
 10
31.7456075034
 20
18.6574422962
 11
31.7896847786
 21
18.7032414981
  0
LINE
  8
___SYMBOL
 62
7
  6
CONTINUOUS
 10
31.6576406793
 20
19.471893754
 11
31.8976338316
 21
18.7911952092
  0
LINE
  8
___SYMBOL
 62
7
  6
CONTINUOUS
 10
31.7456075034
 20
18.6574422962
 11
31.6917657404
 21
18.7931842058
  0
ARC
  8
___SYMBOL
 62
7
  6
CONTINUOUS
 10
31.6489549525
 20
19.3544248951
 40
0.3610804262
 50
342.6406360869
 51
17.3593639131
  0
ARC
  8
___SYMBOL
 62
7
  6
CONTINUOUS
 10
32.033992762
 20
18.8985925846
 40
0.3128073492
 50
181.8059909349
 51
231.752660067
  0
CIRCLE
  8
___SYMBOL
 62
7
  6
CONTINUOUS
 10
31.8046627748
 20
18.8482390769
 40
0.0268111801
  0
ARC
  8
___SYMBOL
 62
7
  6
CONTINUOUS
 10
31.9641205852
 20
18.4759214794
 40
0.0146088562
 50
185.3133793157
 51
314.0675041521
  0
ARC
  8
___SYMBOL
 62
7
  6
CONTINUOUS
 10
31.6294589902
 20
18.4684009102
 40
0.0146087357
 50
233.3109272841
 51
359.4467240969
  0
POLYLINE
  8
___SYMBOL
 62
7
  6
CONTINUOUS
 66
1
 70
0
  0
VERTEX
  8
___SYMBOL
 62
7
  6
CONTINUOUS
 10
31.9263764571
 20
18.241180109
  0
VERTEX
  8
___SYMBOL
 62
7
  6
CONTINUOUS
 10
31.9230371443
 20
18.2514290164
  0
VERTEX
  8
___SYMBOL
 62
7
  6
CONTINUOUS
 10
31.9199795664
 20
18.2617590056
  0
VERTEX
  8
___SYMBOL
 62
7
  6
CONTINUOUS
 10
31.9171915077
 20
18.2721644567
  0
VERTEX
  8
___SYMBOL
 62
7
  6
CONTINUOUS
 10
31.9146607523
 20
18.2826397496
  0
VERTEX
  8
___SYMBOL
 62
7
  6
CONTINUOUS
 10
31.9123750845
 20
18.2931792643
  0
VERTEX
  8
___SYMBOL
 62
7
  6
CONTINUOUS
 10
31.9103222882
 20
18.3037773809
  0
VERTEX
  8
___SYMBOL
 62
7
  6
CONTINUOUS
 10
31.9084901478
 20
18.3144284793
  0
VERTEX
  8
___SYMBOL
 62
7
  6
CONTINUOUS
 10
31.9068664474
 20
18.3251269394
  0
VERTEX
  8
___SYMBOL
 62
7
  6
CONTINUOUS
 10
31.9054389712
 20
18.3358671414
  0
VERTEX
  8
___SYMBOL
 62
7
  6
CONTINUOUS
 10
31.9041955033
 20
18.3466434652
  0
VERTEX
  8
___SYMBOL
 62
7
  6
CONTINUOUS
 10
31.903123828
 20
18.3574502907
  0
VERTEX
  8
___SYMBOL
 62
7
  6
CONTINUOUS
 10
31.9022117294
 20
18.368281998
  0
VERTEX
  8
___SYMBOL
 62
7
  6
CONTINUOUS
 10
31.9014469916
 20
18.3791329671
  0
VERTEX
  8
___SYMBOL
 62
7
  6
CONTINUOUS
 10
31.9008173988
 20
18.3899975779
  0
VERTEX
  8
___SYMBOL
 62
7
  6
CONTINUOUS
 10
31.9003107353
 20
18.4008702104
  0
VERTEX
  8
___SYMBOL
 62
7
  6
CONTINUOUS
 10
31.8999147851
 20
18.4117452447
  0
VERTEX
  8
___SYMBOL
 62
7
  6
CONTINUOUS
 10
31.8996173326
 20
18.4226170608
  0
VERTEX
  8
___SYMBOL
 62
7
  6
CONTINUOUS
 10
31.8994061617
 20
18.4334800385
  0
VERTEX
  8
___SYMBOL
 62
7
  6
CONTINUOUS
 10
31.8992690567
 20
18.444328558
  0
VERTEX
  8
___SYMBOL
 62
7
  6
CONTINUOUS
 10
31.8991938018
 20
18.4551569991
  0
VERTEX
  8
___SYMBOL
 62
7
  6
CONTINUOUS
 10
31.8991635918
 20
18.4710746629
  0
VERTEX
  8
___SYMBOL
 62
7
  6
CONTINUOUS
 10
31.8991645091
 20
18.4869586733
  0
VERTEX
  8
___SYMBOL
 62
7
  6
CONTINUOUS
 10
31.8991198646
 20
18.5028311994
  0
VERTEX
  8
___SYMBOL
 62
7
  6
CONTINUOUS
 10
31.8989529693
 20
18.5187144102
  0
VERTEX
  8
___SYMBOL
 62
7
  6
CONTINUOUS
 10
31.8985871341
 20
18.5346304747
  0
VERTEX
  8
___SYMBOL
 62
7
  6
CONTINUOUS
 10
31.8983289801
 20
18.5419626781
  0
VERTEX
  8
___SYMBOL
 62
7
  6
CONTINUOUS
 10
31.8979923069
 20
18.5492995148
  0
VERTEX
  8
___SYMBOL
 62
7
  6
CONTINUOUS
 10
31.8975568421
 20
18.5566339904
  0
VERTEX
  8
___SYMBOL
 62
7
  6
CONTINUOUS
 10
31.8970023136
 20
18.5639591107
  0
VERTEX
  8
___SYMBOL
 62
7
  6
CONTINUOUS
 10
31.8963084489
 20
18.5712678813
  0
VERTEX
  8
___SYMBOL
 62
7
  6
CONTINUOUS
 10
31.8954549758
 20
18.578553308
  0
VERTEX
  8
___SYMBOL
 62
7
  6
CONTINUOUS
 10
31.894421622
 20
18.5858083964
  0
VERTEX
  8
___SYMBOL
 62
7
  6
CONTINUOUS
 10
31.8931881151
 20
18.5930261522
  0
VERTEX
  8
___SYMBOL
 62
7
  6
CONTINUOUS
 10
31.8917341829
 20
18.6001995811
  0
VERTEX
  8
___SYMBOL
 62
7
  6
CONTINUOUS
 10
31.8900395531
 20
18.6073216888
  0
VERTEX
  8
___SYMBOL
 62
7
  6
CONTINUOUS
 10
31.8880839533
 20
18.614385481
  0
VERTEX
  8
___SYMBOL
 62
7
  6
CONTINUOUS
 10
31.8858471113
 20
18.6213839634
  0
VERTEX
  8
___SYMBOL
 62
7
  6
CONTINUOUS
 10
31.8847800952
 20
18.6243896458
  0
VERTEX
  8
___SYMBOL
 62
7
  6
CONTINUOUS
 10
31.8836209982
 20
18.6273576495
  0
VERTEX
  8
___SYMBOL
 62
7
  6
CONTINUOUS
 10
31.8823343183
 20
18.6302638637
  0
VERTEX
  8
___SYMBOL
 62
7
  6
CONTINUOUS
 10
31.8808845537
 20
18.6330841775
  0
VERTEX
  8
___SYMBOL
 62
7
  6
CONTINUOUS
 10
31.8792362025
 20
18.63579448
  0
VERTEX
  8
___SYMBOL
 62
7
  6
CONTINUOUS
 10
31.8773537628
 20
18.6383706604
  0
VERTEX
  8
___SYMBOL
 62
7
  6
CONTINUOUS
 10
31.8752883742
 20
18.6407119338
  0
VERTEX
  8
___SYMBOL
 62
7
  6
CONTINUOUS
 10
31.8729972381
 20
18.6428934679
  0
VERTEX
  8
___SYMBOL
 62
7
  6
CONTINUOUS
 10
31.8705064091
 20
18.6449033154
  0
VERTEX
  8
___SYMBOL
 62
7
  6
CONTINUOUS
 10
31.8678419418
 20
18.6467295295
  0
VERTEX
  8
___SYMBOL
 62
7
  6
CONTINUOUS
 10
31.865029891
 20
18.648360163
  0
VERTEX
  8
___SYMBOL
 62
7
  6
CONTINUOUS
 10
31.8620963111
 20
18.6497832689
  0
VERTEX
  8
___SYMBOL
 62
7
  6
CONTINUOUS
 10
31.8590672569
 20
18.6509869002
  0
VERTEX
  8
___SYMBOL
 62
7
  6
CONTINUOUS
 10
31.8559687829
 20
18.6519591098
  0
VERTEX
  8
___SYMBOL
 62
7
  6
CONTINUOUS
 10
31.8528269439
 20
18.6526879508
  0
VERTEX
  8
___SYMBOL
 62
7
  6
CONTINUOUS
 10
31.8496677945
 20
18.6531614759
  0
VERTEX
  8
___SYMBOL
 62
7
  6
CONTINUOUS
 10
31.8465173892
 20
18.6533677383
  0
VERTEX
  8
___SYMBOL
 62
7
  6
CONTINUOUS
 10
31.8434017828
 20
18.6532947908
  0
VERTEX
  8
___SYMBOL
 62
7
  6
CONTINUOUS
 10
31.8403470298
 20
18.6529306865
  0
SEQEND
  0
POLYLINE
  8
___SYMBOL
 62
7
  6
CONTINUOUS
 66
1
 70
0
  0
VERTEX
  8
___SYMBOL
 62
7
  6
CONTINUOUS
 10
31.9495745018
 20
18.4745686541
  0
VERTEX
  8
___SYMBOL
 62
7
  6
CONTINUOUS
 10
31.948951616
 20
18.4822309384
  0
VERTEX
  8
___SYMBOL
 62
7
  6
CONTINUOUS
 10
31.9484968559
 20
18.4898997366
  0
VERTEX
  8
___SYMBOL
 62
7
  6
CONTINUOUS
 10
31.948166213
 20
18.4986053742
  0
VERTEX
  8
___SYMBOL
 62
7
  6
CONTINUOUS
 10
31.9480137877
 20
18.5072998908
  0
VERTEX
  8
___SYMBOL
 62
7
  6
CONTINUOUS
 10
31.9480185059
 20
18.5159931864
  0
VERTEX
  8
___SYMBOL
 62
7
  6
CONTINUOUS
 10
31.9481592936
 20
18.5246951616
  0
VERTEX
  8
___SYMBOL
 62
7
  6
CONTINUOUS
 10
31.9484150767
 20
18.5334157164
  0
VERTEX
  8
___SYMBOL
 62
7
  6
CONTINUOUS
 10
31.9487647811
 20
18.5421647512
  0
VERTEX
  8
___SYMBOL
 62
7
  6
CONTINUOUS
 10
31.9491873329
 20
18.5509521662
  0
VERTEX
  8
___SYMBOL
 62
7
  6
CONTINUOUS
 10
31.949661658
 20
18.5597878617
  0
VERTEX
  8
___SYMBOL
 62
7
  6
CONTINUOUS
 10
31.9499765432
 20
18.5653872986
  0
VERTEX
  8
___SYMBOL
 62
7
  6
CONTINUOUS
 10
31.950290425
 20
18.571004692
  0
VERTEX
  8
___SYMBOL
 62
7
  6
CONTINUOUS
 10
31.9505900939
 20
18.5766348656
  0
VERTEX
  8
___SYMBOL
 62
7
  6
CONTINUOUS
 10
31.9508623403
 20
18.5822726429
  0
VERTEX
  8
___SYMBOL
 62
7
  6
CONTINUOUS
 10
31.9510939547
 20
18.5879128475
  0
VERTEX
  8
___SYMBOL
 62
7
  6
CONTINUOUS
 10
31.9512717275
 20
18.5935503029
  0
VERTEX
  8
___SYMBOL
 62
7
  6
CONTINUOUS
 10
31.9513824492
 20
18.5991798328
  0
VERTEX
  8
___SYMBOL
 62
7
  6
CONTINUOUS
 10
31.9514129102
 20
18.6047962608
  0
VERTEX
  8
___SYMBOL
 62
7
  6
CONTINUOUS
 10
31.9513499009
 20
18.6103944103
  0
VERTEX
  8
___SYMBOL
 62
7
  6
CONTINUOUS
 10
31.9511802119
 20
18.6159691051
  0
VERTEX
  8
___SYMBOL
 62
7
  6
CONTINUOUS
 10
31.9508906336
 20
18.6215151686
  0
VERTEX
  8
___SYMBOL
 62
7
  6
CONTINUOUS
 10
31.9504679564
 20
18.6270274244
  0
VERTEX
  8
___SYMBOL
 62
7
  6
CONTINUOUS
 10
31.9498989708
 20
18.6325006962
  0
VERTEX
  8
___SYMBOL
 62
7
  6
CONTINUOUS
 10
31.9491704672
 20
18.6379298075
  0
VERTEX
  8
___SYMBOL
 62
7
  6
CONTINUOUS
 10
31.9482692361
 20
18.6433095819
  0
VERTEX
  8
___SYMBOL
 62
7
  6
CONTINUOUS
 10
31.9471820679
 20
18.6486348429
  0
VERTEX
  8
___SYMBOL
 62
7
  6
CONTINUOUS
 10
31.9458957531
 20
18.6539004143
  0
VERTEX
  8
___SYMBOL
 62
7
  6
CONTINUOUS
 10
31.9443970822
 20
18.6591011194
  0
VERTEX
  8
___SYMBOL
 62
7
  6
CONTINUOUS
 10
31.9426728455
 20
18.664231782
  0
VERTEX
  8
___SYMBOL
 62
7
  6
CONTINUOUS
 10
31.9408469265
 20
18.6689702081
  0
VERTEX
  8
___SYMBOL
 62
7
  6
CONTINUOUS
 10
31.938831125
 20
18.6736487972
  0
VERTEX
  8
___SYMBOL
 62
7
  6
CONTINUOUS
 10
31.9366449665
 20
18.6782736799
  0
VERTEX
  8
___SYMBOL
 62
7
  6
CONTINUOUS
 10
31.9343079764
 20
18.6828509872
  0
VERTEX
  8
___SYMBOL
 62
7
  6
CONTINUOUS
 10
31.9318396803
 20
18.6873868495
  0
VERTEX
  8
___SYMBOL
 62
7
  6
CONTINUOUS
 10
31.9292596037
 20
18.6918873977
  0
VERTEX
  8
___SYMBOL
 62
7
  6
CONTINUOUS
 10
31.9265872721
 20
18.6963587625
  0
VERTEX
  8
___SYMBOL
 62
7
  6
CONTINUOUS
 10
31.9238422109
 20
18.7008070745
  0
VERTEX
  8
___SYMBOL
 62
7
  6
CONTINUOUS
 10
31.9210439456
 20
18.7052384645
  0
VERTEX
  8
___SYMBOL
 62
7
  6
CONTINUOUS
 10
31.9182120017
 20
18.7096590633
  0
VERTEX
  8
___SYMBOL
 62
7
  6
CONTINUOUS
 10
31.9161715574
 20
18.7128314254
  0
VERTEX
  8
___SYMBOL
 62
7
  6
CONTINUOUS
 10
31.9141496149
 20
18.7160100805
  0
VERTEX
  8
___SYMBOL
 62
7
  6
CONTINUOUS
 10
31.9121719746
 20
18.7192037254
  0
VERTEX
  8
___SYMBOL
 62
7
  6
CONTINUOUS
 10
31.9102644371
 20
18.7224210563
  0
VERTEX
  8
___SYMBOL
 62
7
  6
CONTINUOUS
 10
31.9084528028
 20
18.72567077
  0
VERTEX
  8
___SYMBOL
 62
7
  6
CONTINUOUS
 10
31.9067628721
 20
18.728961563
  0
VERTEX
  8
___SYMBOL
 62
7
  6
CONTINUOUS
 10
31.9052204457
 20
18.7323021317
  0
VERTEX
  8
___SYMBOL
 62
7
  6
CONTINUOUS
 10
31.9038513239
 20
18.7357011728
  0
VERTEX
  8
___SYMBOL
 62
7
  6
CONTINUOUS
 10
31.9026813073
 20
18.7391673827
  0
VERTEX
  8
___SYMBOL
 62
7
  6
CONTINUOUS
 10
31.901781038
 20
18.7424827909
  0
VERTEX
  8
___SYMBOL
 62
7
  6
CONTINUOUS
 10
31.9010566835
 20
18.7458550747
  0
VERTEX
  8
___SYMBOL
 62
7
  6
CONTINUOUS
 10
31.9004864962
 20
18.7492744342
  0
VERTEX
  8
___SYMBOL
 62
7
  6
CONTINUOUS
 10
31.9000487285
 20
18.7527310693
  0
VERTEX
  8
___SYMBOL
 62
7
  6
CONTINUOUS
 10
31.8997216327
 20
18.75621518
  0
VERTEX
  8
___SYMBOL
 62
7
  6
CONTINUOUS
 10
31.8994834612
 20
18.7597169663
  0
VERTEX
  8
___SYMBOL
 62
7
  6
CONTINUOUS
 10
31.8993124666
 20
18.7632266281
  0
VERTEX
  8
___SYMBOL
 62
7
  6
CONTINUOUS
 10
31.899186901
 20
18.7667343654
  0
VERTEX
  8
___SYMBOL
 62
7
  6
CONTINUOUS
 10
31.8990674701
 20
18.770846769
  0
VERTEX
  8
___SYMBOL
 62
7
  6
CONTINUOUS
 10
31.8989428567
 20
18.7749438037
  0
VERTEX
  8
___SYMBOL
 62
7
  6
CONTINUOUS
 10
31.8987751235
 20
18.7790263173
  0
VERTEX
  8
___SYMBOL
 62
7
  6
CONTINUOUS
 10
31.8985263331
 20
18.7830951576
  0
VERTEX
  8
___SYMBOL
 62
7
  6
CONTINUOUS
 10
31.8981585483
 20
18.7871511723
  0
VERTEX
  8
___SYMBOL
 62
7
  6
CONTINUOUS
 10
31.8976338316
 20
18.7911952092
  0
SEQEND
  0
POLYLINE
  8
___SYMBOL
 62
7
  6
CONTINUOUS
 66
1
 70
0
  0
VERTEX
  8
___SYMBOL
 62
7
  6
CONTINUOUS
 10
31.6869444625
 20
18.2798366924
  0
VERTEX
  8
___SYMBOL
 62
7
  6
CONTINUOUS
 10
31.6889414216
 20
18.2883289237
  0
VERTEX
  8
___SYMBOL
 62
7
  6
CONTINUOUS
 10
31.69069464
 20
18.2968701244
  0
VERTEX
  8
___SYMBOL
 62
7
  6
CONTINUOUS
 10
31.6922178915
 20
18.3054558475
  0
VERTEX
  8
___SYMBOL
 62
7
  6
CONTINUOUS
 10
31.6935249496
 20
18.3140816461
  0
VERTEX
  8
___SYMBOL
 62
7
  6
CONTINUOUS
 10
31.6946295879
 20
18.3227430733
  0
VERTEX
  8
___SYMBOL
 62
7
  6
CONTINUOUS
 10
31.6955455801
 20
18.3314356822
  0
VERTEX
  8
___SYMBOL
 62
7
  6
CONTINUOUS
 10
31.6962866998
 20
18.3401550257
  0
VERTEX
  8
___SYMBOL
 62
7
  6
CONTINUOUS
 10
31.6968667206
 20
18.3488966571
  0
VERTEX
  8
___SYMBOL
 62
7
  6
CONTINUOUS
 10
31.6972994161
 20
18.3576561294
  0
VERTEX
  8
___SYMBOL
 62
7
  6
CONTINUOUS
 10
31.69759856
 20
18.3664289957
  0
VERTEX
  8
___SYMBOL
 62
7
  6
CONTINUOUS
 10
31.6977779258
 20
18.375210809
  0
VERTEX
  8
___SYMBOL
 62
7
  6
CONTINUOUS
 10
31.6978512873
 20
18.3839971225
  0
VERTEX
  8
___SYMBOL
 62
7
  6
CONTINUOUS
 10
31.6978324179
 20
18.3927834891
  0
VERTEX
  8
___SYMBOL
 62
7
  6
CONTINUOUS
 10
31.6976815286
 20
18.4049069573
  0
VERTEX
  8
___SYMBOL
 62
7
  6
CONTINUOUS
 10
31.6974246413
 20
18.4170189855
  0
VERTEX
  8
___SYMBOL
 62
7
  6
CONTINUOUS
 10
31.6971052949
 20
18.4291165082
  0
VERTEX
  8
___SYMBOL
 62
7
  6
CONTINUOUS
 10
31.6967670281
 20
18.4411964596
  0
VERTEX
  8
___SYMBOL
 62
7
  6
CONTINUOUS
 10
31.6964533799
 20
18.4532557741
  0
VERTEX
  8
___SYMBOL
 62
7
  6
CONTINUOUS
 10
31.6962078889
 20
18.465291386
  0
VERTEX
  8
___SYMBOL
 62
7
  6
CONTINUOUS
 10
31.6960740942
 20
18.4773002297
  0
VERTEX
  8
___SYMBOL
 62
7
  6
CONTINUOUS
 10
31.6960955344
 20
18.4892792396
  0
VERTEX
  8
___SYMBOL
 62
7
  6
CONTINUOUS
 10
31.6963157486
 20
18.5012253499
  0
VERTEX
  8
___SYMBOL
 62
7
  6
CONTINUOUS
 10
31.6968161304
 20
18.5142515348
  0
VERTEX
  8
___SYMBOL
 62
7
  6
CONTINUOUS
 10
31.6975478976
 20
18.5272734327
  0
VERTEX
  8
___SYMBOL
 62
7
  6
CONTINUOUS
 10
31.6984528138
 20
18.5403297439
  0
VERTEX
  8
___SYMBOL
 62
7
  6
CONTINUOUS
 10
31.6994726424
 20
18.5534591683
  0
VERTEX
  8
___SYMBOL
 62
7
  6
CONTINUOUS
 10
31.7005491471
 20
18.5667004063
  0
VERTEX
  8
___SYMBOL
 62
7
  6
CONTINUOUS
 10
31.7016240914
 20
18.5800921577
  0
VERTEX
  8
___SYMBOL
 62
7
  6
CONTINUOUS
 10
31.7019412809
 20
18.5841453581
  0
VERTEX
  8
___SYMBOL
 62
7
  6
CONTINUOUS
 10
31.7022727338
 20
18.5882058172
  0
VERTEX
  8
___SYMBOL
 62
7
  6
CONTINUOUS
 10
31.7026381013
 20
18.5922637451
  0
VERTEX
  8
___SYMBOL
 62
7
  6
CONTINUOUS
 10
31.7030570348
 20
18.5963093516
  0
VERTEX
  8
___SYMBOL
 62
7
  6
CONTINUOUS
 10
31.7035491855
 20
18.6003328466
  0
VERTEX
  8
___SYMBOL
 62
7
  6
CONTINUOUS
 10
31.7041342047
 20
18.6043244401
  0
VERTEX
  8
___SYMBOL
 62
7
  6
CONTINUOUS
 10
31.7048317438
 20
18.6082743419
  0
VERTEX
  8
___SYMBOL
 62
7
  6
CONTINUOUS
 10
31.705661454
 20
18.612172762
  0
VERTEX
  8
___SYMBOL
 62
7
  6
CONTINUOUS
 10
31.7066429866
 20
18.6160099103
  0
VERTEX
  8
___SYMBOL
 62
7
  6
CONTINUOUS
 10
31.7077959929
 20
18.6197759966
  0
VERTEX
  8
___SYMBOL
 62
7
  6
CONTINUOUS
 10
31.7091401242
 20
18.6234612309
  0
VERTEX
  8
___SYMBOL
 62
7
  6
CONTINUOUS
 10
31.7106950319
 20
18.6270558231
  0
VERTEX
  8
___SYMBOL
 62
7
  6
CONTINUOUS
 10
31.7124803671
 20
18.6305499831
  0
VERTEX
  8
___SYMBOL
 62
7
  6
CONTINUOUS
 10
31.7145157811
 20
18.6339339208
  0
VERTEX
  8
___SYMBOL
 62
7
  6
CONTINUOUS
 10
31.716563306
 20
18.6368630665
  0
VERTEX
  8
___SYMBOL
 62
7
  6
CONTINUOUS
 10
31.718812211
 20
18.6396803402
  0
VERTEX
  8
___SYMBOL
 62
7
  6
CONTINUOUS
 10
31.7212473025
 20
18.6423702312
  0
VERTEX
  8
___SYMBOL
 62
7
  6
CONTINUOUS
 10
31.7238533866
 20
18.6449172289
  0
VERTEX
  8
___SYMBOL
 62
7
  6
CONTINUOUS
 10
31.7266152698
 20
18.6473058224
  0
VERTEX
  8
___SYMBOL
 62
7
  6
CONTINUOUS
 10
31.7295177584
 20
18.649520501
  0
VERTEX
  8
___SYMBOL
 62
7
  6
CONTINUOUS
 10
31.7325456587
 20
18.6515457541
  0
VERTEX
  8
___SYMBOL
 62
7
  6
CONTINUOUS
 10
31.735683777
 20
18.6533660709
  0
VERTEX
  8
___SYMBOL
 62
7
  6
CONTINUOUS
 10
31.7389169197
 20
18.6549659406
  0
VERTEX
  8
___SYMBOL
 62
7
  6
CONTINUOUS
 10
31.7422298931
 20
18.6563298527
  0
VERTEX
  8
___SYMBOL
 62
7
  6
CONTINUOUS
 10
31.7456075034
 20
18.6574422962
  0
SEQEND
  0
POLYLINE
  8
___SYMBOL
 62
7
  6
CONTINUOUS
 66
1
 70
0
  0
VERTEX
  8
___SYMBOL
 62
7
  6
CONTINUOUS
 10
31.6440670447
 20
18.4682598433
  0
VERTEX
  8
___SYMBOL
 62
7
  6
CONTINUOUS
 10
31.6441066541
 20
18.4832201215
  0
VERTEX
  8
___SYMBOL
 62
7
  6
CONTINUOUS
 10
31.6439906549
 20
18.4981920111
  0
VERTEX
  8
___SYMBOL
 62
7
  6
CONTINUOUS
 10
31.6438550244
 20
18.5090639224
  0
VERTEX
  8
___SYMBOL
 62
7
  6
CONTINUOUS
 10
31.643708432
 20
18.5199511478
  0
VERTEX
  8
___SYMBOL
 62
7
  6
CONTINUOUS
 10
31.6435789299
 20
18.5308456342
  0
VERTEX
  8
___SYMBOL
 62
7
  6
CONTINUOUS
 10
31.6434945702
 20
18.5417393283
  0
VERTEX
  8
___SYMBOL
 62
7
  6
CONTINUOUS
 10
31.6434834052
 20
18.5526241769
  0
VERTEX
  8
___SYMBOL
 62
7
  6
CONTINUOUS
 10
31.6435734869
 20
18.5634921266
  0
VERTEX
  8
___SYMBOL
 62
7
  6
CONTINUOUS
 10
31.6437928675
 20
18.5743351242
  0
VERTEX
  8
___SYMBOL
 62
7
  6
CONTINUOUS
 10
31.6441695992
 20
18.5851451165
  0
VERTEX
  8
___SYMBOL
 62
7
  6
CONTINUOUS
 10
31.644731734
 20
18.5959140501
  0
VERTEX
  8
___SYMBOL
 62
7
  6
CONTINUOUS
 10
31.6455073243
 20
18.6066338719
  0
VERTEX
  8
___SYMBOL
 62
7
  6
CONTINUOUS
 10
31.6460558995
 20
18.612707348
  0
VERTEX
  8
___SYMBOL
 62
7
  6
CONTINUOUS
 10
31.6466962856
 20
18.6187639639
  0
VERTEX
  8
___SYMBOL
 62
7
  6
CONTINUOUS
 10
31.6474421444
 20
18.6248053572
  0
VERTEX
  8
___SYMBOL
 62
7
  6
CONTINUOUS
 10
31.6483071379
 20
18.6308331657
  0
VERTEX
  8
___SYMBOL
 62
7
  6
CONTINUOUS
 10
31.649304928
 20
18.6368490271
  0
VERTEX
  8
___SYMBOL
 62
7
  6
CONTINUOUS
 10
31.6504491767
 20
18.642854579
  0
VERTEX
  8
___SYMBOL
 62
7
  6
CONTINUOUS
 10
31.6517535457
 20
18.6488514591
  0
VERTEX
  8
___SYMBOL
 62
7
  6
CONTINUOUS
 10
31.6532316971
 20
18.6548413053
  0
VERTEX
  8
___SYMBOL
 62
7
  6
CONTINUOUS
 10
31.6548972928
 20
18.6608257551
  0
VERTEX
  8
___SYMBOL
 62
7
  6
CONTINUOUS
 10
31.6567639947
 20
18.6668064463
  0
VERTEX
  8
___SYMBOL
 62
7
  6
CONTINUOUS
 10
31.6588454647
 20
18.6727850165
  0
VERTEX
  8
___SYMBOL
 62
7
  6
CONTINUOUS
 10
31.6611553648
 20
18.6787631036
  0
VERTEX
  8
___SYMBOL
 62
7
  6
CONTINUOUS
 10
31.6637073568
 20
18.6847423451
  0
VERTEX
  8
___SYMBOL
 62
7
  6
CONTINUOUS
 10
31.6651658991
 20
18.6879237427
  0
VERTEX
  8
___SYMBOL
 62
7
  6
CONTINUOUS
 10
31.6666854051
 20
18.6911055442
  0
VERTEX
  8
___SYMBOL
 62
7
  6
CONTINUOUS
 10
31.6682544763
 20
18.6942873634
  0
VERTEX
  8
___SYMBOL
 62
7
  6
CONTINUOUS
 10
31.6698617141
 20
18.6974688142
  0
VERTEX
  8
___SYMBOL
 62
7
  6
CONTINUOUS
 10
31.6714957198
 20
18.7006495106
  0
VERTEX
  8
___SYMBOL
 62
7
  6
CONTINUOUS
 10
31.673145095
 20
18.7038290662
  0
VERTEX
  8
___SYMBOL
 62
7
  6
CONTINUOUS
 10
31.6747984409
 20
18.7070070951
  0
VERTEX
  8
___SYMBOL
 62
7
  6
CONTINUOUS
 10
31.6764443591
 20
18.710183211
  0
VERTEX
  8
___SYMBOL
 62
7
  6
CONTINUOUS
 10
31.678071451
 20
18.7133570279
  0
VERTEX
  8
___SYMBOL
 62
7
  6
CONTINUOUS
 10
31.6796683179
 20
18.7165281596
  0
VERTEX
  8
___SYMBOL
 62
7
  6
CONTINUOUS
 10
31.6812235613
 20
18.7196962199
  0
VERTEX
  8
___SYMBOL
 62
7
  6
CONTINUOUS
 10
31.6827257825
 20
18.7228608228
  0
VERTEX
  8
___SYMBOL
 62
7
  6
CONTINUOUS
 10
31.6841635831
 20
18.7260215821
  0
VERTEX
  8
___SYMBOL
 62
7
  6
CONTINUOUS
 10
31.6855255644
 20
18.7291781117
  0
VERTEX
  8
___SYMBOL
 62
7
  6
CONTINUOUS
 10
31.6868003279
 20
18.7323300254
  0
VERTEX
  8
___SYMBOL
 62
7
  6
CONTINUOUS
 10
31.6879764749
 20
18.7354769371
  0
VERTEX
  8
___SYMBOL
 62
7
  6
CONTINUOUS
 10
31.6890426069
 20
18.7386184607
  0
VERTEX
  8
___SYMBOL
 62
7
  6
CONTINUOUS
 10
31.6899873252
 20
18.74175421
  0
VERTEX
  8
___SYMBOL
 62
7
  6
CONTINUOUS
 10
31.6907992314
 20
18.744883799
  0
VERTEX
  8
___SYMBOL
 62
7
  6
CONTINUOUS
 10
31.6914669267
 20
18.7480068413
  0
VERTEX
  8
___SYMBOL
 62
7
  6
CONTINUOUS
 10
31.6919790127
 20
18.7511229511
  0
VERTEX
  8
___SYMBOL
 62
7
  6
CONTINUOUS
 10
31.6923240907
 20
18.754231742
  0
VERTEX
  8
___SYMBOL
 62
7
  6
CONTINUOUS
 10
31.6924907622
 20
18.757332828
  0
VERTEX
  8
___SYMBOL
 62
7
  6
CONTINUOUS
 10
31.6924676286
 20
18.7604258229
  0
VERTEX
  8
___SYMBOL
 62
7
  6
CONTINUOUS
 10
31.6922432912
 20
18.7635103406
  0
VERTEX
  8
___SYMBOL
 62
7
  6
CONTINUOUS
 10
31.6918063516
 20
18.766585995
  0
VERTEX
  8
___SYMBOL
 62
7
  6
CONTINUOUS
 10
31.691145411
 20
18.7696523999
  0
VERTEX
  8
___SYMBOL
 62
7
  6
CONTINUOUS
 10
31.690249071
 20
18.7727091692
  0
VERTEX
  8
___SYMBOL
 62
7
  6
CONTINUOUS
 10
31.6897363942
 20
18.774182592
  0
VERTEX
  8
___SYMBOL
 62
7
  6
CONTINUOUS
 10
31.6892094049
 20
18.7756656598
  0
VERTEX
  8
___SYMBOL
 62
7
  6
CONTINUOUS
 10
31.6887112536
 20
18.7771703508
  0
VERTEX
  8
___SYMBOL
 62
7
  6
CONTINUOUS
 10
31.6882850908
 20
18.7787086435
  0
VERTEX
  8
___SYMBOL
 62
7
  6
CONTINUOUS
 10
31.6879740669
 20
18.7802925161
  0
VERTEX
  8
___SYMBOL
 62
7
  6
CONTINUOUS
 10
31.6878191744
 20
18.7818329292
  0
VERTEX
  8
___SYMBOL
 62
7
  6
CONTINUOUS
 10
31.6878060125
 20
18.7834010653
  0
VERTEX
  8
___SYMBOL
 62
7
  6
CONTINUOUS
 10
31.687935574
 20
18.7849734713
  0
VERTEX
  8
___SYMBOL
 62
7
  6
CONTINUOUS
 10
31.688208852
 20
18.7865266941
  0
VERTEX
  8
___SYMBOL
 62
7
  6
CONTINUOUS
 10
31.6886268393
 20
18.7880372809
  0
VERTEX
  8
___SYMBOL
 62
7
  6
CONTINUOUS
 10
31.6891905288
 20
18.7894817785
  0
VERTEX
  8
___SYMBOL
 62
7
  6
CONTINUOUS
 10
31.6899009136
 20
18.7908367338
  0
VERTEX
  8
___SYMBOL
 62
7
  6
CONTINUOUS
 10
31.6907589865
 20
18.792078694
  0
VERTEX
  8
___SYMBOL
 62
7
  6
CONTINUOUS
 10
31.6917657404
 20
18.7931842058
  0
SEQEND
  0
POLYLINE
  8
___SYMBOL
 62
7
  6
CONTINUOUS
 66
1
 70
0
  0
VERTEX
  8
___SYMBOL
 62
7
  6
CONTINUOUS
 10
32.0520740248
 20
18.1894365303
  0
VERTEX
  8
___SYMBOL
 62
7
  6
CONTINUOUS
 10
32.0730732309
 20
18.1935249353
  0
VERTEX
  8
___SYMBOL
 62
7
  6
CONTINUOUS
 10
32.0931030562
 20
18.2037669427
  0
VERTEX
  8
___SYMBOL
 62
7
  6
CONTINUOUS
 10
32.1104087944
 20
18.2192651375
  0
VERTEX
  8
___SYMBOL
 62
7
  6
CONTINUOUS
 10
32.1247787472
 20
18.2398304492
  0
VERTEX
  8
___SYMBOL
 62
7
  6
CONTINUOUS
 10
32.1349540375
 20
18.2636605829
  0
VERTEX
  8
___SYMBOL
 62
7
  6
CONTINUOUS
 10
32.1408100956
 20
18.2904647595
  0
VERTEX
  8
___SYMBOL
 62
7
  6
CONTINUOUS
 10
32.1418340631
 20
18.3178941173
  0
VERTEX
  8
___SYMBOL
 62
7
  6
CONTINUOUS
 10
32.138132314
 20
18.3450918315
  0
VERTEX
  8
___SYMBOL
 62
7
  6
CONTINUOUS
 10
32.129682687
 20
18.3711946621
  0
VERTEX
  8
___SYMBOL
 62
7
  6
CONTINUOUS
 10
32.1172256021
 20
18.3939155658
  0
VERTEX
  8
___SYMBOL
 62
7
  6
CONTINUOUS
 10
32.1009131554
 20
18.4129767102
  0
VERTEX
  8
___SYMBOL
 62
7
  6
CONTINUOUS
 10
32.0821746325
 20
18.4267080684
  0
VERTEX
  8
___SYMBOL
 62
7
  6
CONTINUOUS
 10
32.0612389943
 20
18.4349420311
  0
VERTEX
  8
___SYMBOL
 62
7
  6
CONTINUOUS
 10
32.0399407277
 20
18.4369569574
  0
VERTEX
  8
___SYMBOL
 62
7
  6
CONTINUOUS
 10
32.0189416383
 20
18.432868669
  0
VERTEX
  8
___SYMBOL
 62
7
  6
CONTINUOUS
 10
31.9989116964
 20
18.4226266617
  0
VERTEX
  8
___SYMBOL
 62
7
  6
CONTINUOUS
 10
31.9816060748
 20
18.4071283502
  0
VERTEX
  8
___SYMBOL
 62
7
  6
CONTINUOUS
 10
31.9672360054
 20
18.3865630385
  0
VERTEX
  8
___SYMBOL
 62
7
  6
CONTINUOUS
 10
31.9570608317
 20
18.3627329048
  0
VERTEX
  8
___SYMBOL
 62
7
  6
CONTINUOUS
 10
31.951204657
 20
18.3359287282
  0
VERTEX
  8
___SYMBOL
 62
7
  6
CONTINUOUS
 10
31.9501806895
 20
18.3084993704
  0
VERTEX
  8
___SYMBOL
 62
7
  6
CONTINUOUS
 10
31.9538824386
 20
18.2813016562
  0
VERTEX
  8
___SYMBOL
 62
7
  6
CONTINUOUS
 10
31.9623320655
 20
18.2551988256
  0
VERTEX
  8
___SYMBOL
 62
7
  6
CONTINUOUS
 10
31.9747892671
 20
18.2324779219
  0
VERTEX
  8
___SYMBOL
 62
7
  6
CONTINUOUS
 10
31.9911017138
 20
18.2134167775
  0
VERTEX
  8
___SYMBOL
 62
7
  6
CONTINUOUS
 10
32.0098402367
 20
18.1996854194
  0
VERTEX
  8
___SYMBOL
 62
7
  6
CONTINUOUS
 10
32.0307757582
 20
18.1914515733
  0
VERTEX
  8
___SYMBOL
 62
7
  6
CONTINUOUS
 10
32.0520740248
 20
18.1894365303
  0
SEQEND
  0
POLYLINE
  8
___SYMBOL
 62
7
  6
CONTINUOUS
 66
1
 70
0
  0
VERTEX
  8
___SYMBOL
 62
7
  6
CONTINUOUS
 10
31.9263764571
 20
18.241180109
  0
VERTEX
  8
___SYMBOL
 62
7
  6
CONTINUOUS
 10
31.9296119165
 20
18.2308983642
  0
VERTEX
  8
___SYMBOL
 62
7
  6
CONTINUOUS
 10
31.9332859051
 20
18.220926685
  0
VERTEX
  8
___SYMBOL
 62
7
  6
CONTINUOUS
 10
31.9373845808
 20
18.2113026406
  0
VERTEX
  8
___SYMBOL
 62
7
  6
CONTINUOUS
 10
31.9418925014
 20
18.2020624902
  0
VERTEX
  8
___SYMBOL
 62
7
  6
CONTINUOUS
 10
31.9467926832
 20
18.1932410468
  0
VERTEX
  8
___SYMBOL
 62
7
  6
CONTINUOUS
 10
31.9520666641
 20
18.184871546
  0
VERTEX
  8
___SYMBOL
 62
7
  6
CONTINUOUS
 10
31.9576945742
 20
18.1769855204
  0
VERTEX
  8
___SYMBOL
 62
7
  6
CONTINUOUS
 10
31.9636552097
 20
18.1696126813
  0
VERTEX
  8
___SYMBOL
 62
7
  6
CONTINUOUS
 10
31.9699261137
 20
18.1627808065
  0
VERTEX
  8
___SYMBOL
 62
7
  6
CONTINUOUS
 10
31.9764836598
 20
18.1565156356
  0
VERTEX
  8
___SYMBOL
 62
7
  6
CONTINUOUS
 10
31.9833031421
 20
18.150840773
  0
VERTEX
  8
___SYMBOL
 62
7
  6
CONTINUOUS
 10
31.9903588676
 20
18.1457775993
  0
VERTEX
  8
___SYMBOL
 62
7
  6
CONTINUOUS
 10
31.9976242533
 20
18.1413451905
  0
VERTEX
  8
___SYMBOL
 62
7
  6
CONTINUOUS
 10
32.0050719263
 20
18.1375602458
  0
VERTEX
  8
___SYMBOL
 62
7
  6
CONTINUOUS
 10
32.0126738269
 20
18.1344370255
  0
VERTEX
  8
___SYMBOL
 62
7
  6
CONTINUOUS
 10
32.0204013144
 20
18.1319872965
  0
VERTEX
  8
___SYMBOL
 62
7
  6
CONTINUOUS
 10
32.0282252748
 20
18.1302202883
  0
VERTEX
  8
___SYMBOL
 62
7
  6
CONTINUOUS
 10
32.0361162307
 20
18.1291426584
  0
VERTEX
  8
___SYMBOL
 62
7
  6
CONTINUOUS
 10
32.0440444524
 20
18.1287584666
  0
VERTEX
  8
___SYMBOL
 62
7
  6
CONTINUOUS
 10
32.0519800697
 20
18.1290691606
  0
VERTEX
  8
___SYMBOL
 62
7
  6
CONTINUOUS
 10
32.0598931844
 20
18.1300735697
  0
VERTEX
  8
___SYMBOL
 62
7
  6
CONTINUOUS
 10
32.0677539833
 20
18.1317679098
  0
VERTEX
  8
___SYMBOL
 62
7
  6
CONTINUOUS
 10
32.0755328503
 20
18.1341457972
  0
VERTEX
  8
___SYMBOL
 62
7
  6
CONTINUOUS
 10
32.0832004778
 20
18.1371982732
  0
VERTEX
  8
___SYMBOL
 62
7
  6
CONTINUOUS
 10
32.0907279775
 20
18.1409138373
  0
VERTEX
  8
___SYMBOL
 62
7
  6
CONTINUOUS
 10
32.0980869888
 20
18.1452784908
  0
VERTEX
  8
___SYMBOL
 62
7
  6
CONTINUOUS
 10
32.1052497863
 20
18.1502757895
  0
VERTEX
  8
___SYMBOL
 62
7
  6
CONTINUOUS
 10
32.1121893833
 20
18.1558869057
  0
VERTEX
  8
___SYMBOL
 62
7
  6
CONTINUOUS
 10
32.1188796345
 20
18.162090699
  0
VERTEX
  8
___SYMBOL
 62
7
  6
CONTINUOUS
 10
32.1252953339
 20
18.1688637963
  0
VERTEX
  8
___SYMBOL
 62
7
  6
CONTINUOUS
 10
32.1314123097
 20
18.1761806794
  0
VERTEX
  8
___SYMBOL
 62
7
  6
CONTINUOUS
 10
32.1372075158
 20
18.1840137812
  0
VERTEX
  8
___SYMBOL
 62
7
  6
CONTINUOUS
 10
32.1426591183
 20
18.19233359
  0
VERTEX
  8
___SYMBOL
 62
7
  6
CONTINUOUS
 10
32.1477465778
 20
18.2011087602
  0
VERTEX
  8
___SYMBOL
 62
7
  6
CONTINUOUS
 10
32.1524507269
 20
18.2103062308
  0
VERTEX
  8
___SYMBOL
 62
7
  6
CONTINUOUS
 10
32.1567538425
 20
18.2198913494
  0
VERTEX
  8
___SYMBOL
 62
7
  6
CONTINUOUS
 10
32.1606397121
 20
18.2298280034
  0
VERTEX
  8
___SYMBOL
 62
7
  6
CONTINUOUS
 10
32.1640936955
 20
18.2400787558
  0
VERTEX
  8
___SYMBOL
 62
7
  6
CONTINUOUS
 10
32.1671027794
 20
18.2506049859
  0
VERTEX
  8
___SYMBOL
 62
7
  6
CONTINUOUS
 10
32.169655627
 20
18.2613670353
  0
VERTEX
  8
___SYMBOL
 62
7
  6
CONTINUOUS
 10
32.1717426202
 20
18.2723243573
  0
VERTEX
  8
___SYMBOL
 62
7
  6
CONTINUOUS
 10
32.173355896
 20
18.2834356692
  0
VERTEX
  8
___SYMBOL
 62
7
  6
CONTINUOUS
 10
32.1744893764
 20
18.2946591083
  0
VERTEX
  8
___SYMBOL
 62
7
  6
CONTINUOUS
 10
32.1751387908
 20
18.3059523894
  0
VERTEX
  8
___SYMBOL
 62
7
  6
CONTINUOUS
 10
32.1753016925
 20
18.3172729642
  0
VERTEX
  8
___SYMBOL
 62
7
  6
CONTINUOUS
 10
32.1749774678
 20
18.3285781816
  0
VERTEX
  8
___SYMBOL
 62
7
  6
CONTINUOUS
 10
32.1741673382
 20
18.3398254481
  0
VERTEX
  8
___SYMBOL
 62
7
  6
CONTINUOUS
 10
32.172874356
 20
18.3509723889
  0
VERTEX
  8
___SYMBOL
 62
7
  6
CONTINUOUS
 10
32.1711033926
 20
18.361977007
  0
VERTEX
  8
___SYMBOL
 62
7
  6
CONTINUOUS
 10
32.1688611201
 20
18.3727978416
  0
VERTEX
  8
___SYMBOL
 62
7
  6
CONTINUOUS
 10
32.1661559866
 20
18.3833941245
  0
VERTEX
  8
___SYMBOL
 62
7
  6
CONTINUOUS
 10
32.1629981838
 20
18.3937259331
  0
VERTEX
  8
___SYMBOL
 62
7
  6
CONTINUOUS
 10
32.1593996091
 20
18.4037543418
  0
VERTEX
  8
___SYMBOL
 62
7
  6
CONTINUOUS
 10
32.1553738203
 20
18.4134415675
  0
VERTEX
  8
___SYMBOL
 62
7
  6
CONTINUOUS
 10
32.1509359849
 20
18.422751113
  0
VERTEX
  8
___SYMBOL
 62
7
  6
CONTINUOUS
 10
32.1461028228
 20
18.4316479038
  0
VERTEX
  8
___SYMBOL
 62
7
  6
CONTINUOUS
 10
32.1408925433
 20
18.4400984206
  0
VERTEX
  8
___SYMBOL
 62
7
  6
CONTINUOUS
 10
32.1353247766
 20
18.4480708253
  0
VERTEX
  8
___SYMBOL
 62
7
  6
CONTINUOUS
 10
32.1294204996
 20
18.4555350813
  0
VERTEX
  8
___SYMBOL
 62
7
  6
CONTINUOUS
 10
32.1232019572
 20
18.4624630665
  0
VERTEX
  8
___SYMBOL
 62
7
  6
CONTINUOUS
 10
32.1166925782
 20
18.4688286791
  0
VERTEX
  8
___SYMBOL
 62
7
  6
CONTINUOUS
 10
32.1099168873
 20
18.4746079361
  0
VERTEX
  8
___SYMBOL
 62
7
  6
CONTINUOUS
 10
32.1029004123
 20
18.4797790637
  0
VERTEX
  8
___SYMBOL
 62
7
  6
CONTINUOUS
 10
32.0956695885
 20
18.4843225794
  0
VERTEX
  8
___SYMBOL
 62
7
  6
CONTINUOUS
 10
32.0882516584
 20
18.488221365
  0
VERTEX
  8
___SYMBOL
 62
7
  6
CONTINUOUS
 10
32.0806745697
 20
18.4914607317
  0
VERTEX
  8
___SYMBOL
 62
7
  6
CONTINUOUS
 10
32.0729668698
 20
18.4940284747
  0
VERTEX
  8
___SYMBOL
 62
7
  6
CONTINUOUS
 10
32.0651575979
 20
18.49591492
  0
VERTEX
  8
___SYMBOL
 62
7
  6
CONTINUOUS
 10
32.0572761762
 20
18.4971129602
  0
VERTEX
  8
___SYMBOL
 62
7
  6
CONTINUOUS
 10
32.0493522984
 20
18.4976180816
  0
VERTEX
  8
___SYMBOL
 62
7
  6
CONTINUOUS
 10
32.0414158185
 20
18.4974283811
  0
VERTEX
  8
___SYMBOL
 62
7
  6
CONTINUOUS
 10
32.0334966377
 20
18.4965445734
  0
VERTEX
  8
___SYMBOL
 62
7
  6
CONTINUOUS
 10
32.0256245921
 20
18.4949699884
  0
VERTEX
  8
___SYMBOL
 62
7
  6
CONTINUOUS
 10
32.0178293404
 20
18.4927105584
  0
VERTEX
  8
___SYMBOL
 62
7
  6
CONTINUOUS
 10
32.0101402518
 20
18.489774796
  0
VERTEX
  8
___SYMBOL
 62
7
  6
CONTINUOUS
 10
32.0025862954
 20
18.4861737619
  0
VERTEX
  8
___SYMBOL
 62
7
  6
CONTINUOUS
 10
31.9951959315
 20
18.4819210233
  0
VERTEX
  8
___SYMBOL
 62
7
  6
CONTINUOUS
 10
31.9879970037
 20
18.4770326028
  0
VERTEX
  8
___SYMBOL
 62
7
  6
CONTINUOUS
 10
31.9810166347
 20
18.4715269177
  0
VERTEX
  8
___SYMBOL
 62
7
  6
CONTINUOUS
 10
31.9742811235
 20
18.4654247113
  0
SEQEND
  0
POLYLINE
  8
___SYMBOL
 62
7
  6
CONTINUOUS
 66
1
 70
0
  0
VERTEX
  8
___SYMBOL
 62
7
  6
CONTINUOUS
 10
31.5696738443
 20
18.2031998474
  0
VERTEX
  8
___SYMBOL
 62
7
  6
CONTINUOUS
 10
31.5896376524
 20
18.2087398158
  0
VERTEX
  8
___SYMBOL
 62
7
  6
CONTINUOUS
 10
31.6082029091
 20
18.2203417089
  0
VERTEX
  8
___SYMBOL
 62
7
  6
CONTINUOUS
 10
31.6237428604
 20
18.2369886741
  0
VERTEX
  8
___SYMBOL
 62
7
  6
CONTINUOUS
 10
31.6360677359
 20
18.2584775277
  0
VERTEX
  8
___SYMBOL
 62
7
  6
CONTINUOUS
 10
31.64409764
 20
18.2829253777
  0
VERTEX
  8
___SYMBOL
 62
7
  6
CONTINUOUS
 10
31.6477344215
 20
18.3100336303
  0
VERTEX
  8
___SYMBOL
 62
7
  6
CONTINUOUS
 10
31.6466594248
 20
18.3374268303
  0
VERTEX
  8
___SYMBOL
 62
7
  6
CONTINUOUS
 10
31.6410399091
 20
18.3642591167
  0
VERTEX
  8
___SYMBOL
 62
7
  6
CONTINUOUS
 10
31.6309194388
 20
18.389668766
  0
VERTEX
  8
___SYMBOL
 62
7
  6
CONTINUOUS
 10
31.6171848148
 20
18.4114297367
  0
VERTEX
  8
___SYMBOL
 62
7
  6
CONTINUOUS
 10
31.6000037045
 20
18.4292758601
  0
VERTEX
  8
___SYMBOL
 62
7
  6
CONTINUOUS
 10
31.580881675
 20
18.4416436001
  0
VERTEX
  8
___SYMBOL
 62
7
  6
CONTINUOUS
 10
31.560052236
 20
18.4483819102
  0
VERTEX
  8
___SYMBOL
 62
7
  6
CONTINUOUS
 10
31.539340485
 20
18.4489002507
  0
VERTEX
  8
___SYMBOL
 62
7
  6
CONTINUOUS
 10
31.5193766769
 20
18.4433601657
  0
VERTEX
  8
___SYMBOL
 62
7
  6
CONTINUOUS
 10
31.5008114202
 20
18.4317583893
  0
VERTEX
  8
___SYMBOL
 62
7
  6
CONTINUOUS
 10
31.4852714689
 20
18.415111424
  0
VERTEX
  8
___SYMBOL
 62
7
  6
CONTINUOUS
 10
31.4729465351
 20
18.3936224538
  0
VERTEX
  8
___SYMBOL
 62
7
  6
CONTINUOUS
 10
31.4649166893
 20
18.3691746037
  0
VERTEX
  8
___SYMBOL
 62
7
  6
CONTINUOUS
 10
31.4612799077
 20
18.3420664678
  0
VERTEX
  8
___SYMBOL
 62
7
  6
CONTINUOUS
 10
31.4623549044
 20
18.3146732679
  0
VERTEX
  8
___SYMBOL
 62
7
  6
CONTINUOUS
 10
31.4679744201
 20
18.2878409814
  0
VERTEX
  8
___SYMBOL
 62
7
  6
CONTINUOUS
 10
31.4780948904
 20
18.2624312155
  0
VERTEX
  8
___SYMBOL
 62
7
  6
CONTINUOUS
 10
31.4918295145
 20
18.2406703614
  0
VERTEX
  8
___SYMBOL
 62
7
  6
CONTINUOUS
 10
31.5090106247
 20
18.222824238
  0
VERTEX
  8
___SYMBOL
 62
7
  6
CONTINUOUS
 10
31.5281326543
 20
18.210456498
  0
VERTEX
  8
___SYMBOL
 62
7
  6
CONTINUOUS
 10
31.5489620933
 20
18.2037181879
  0
VERTEX
  8
___SYMBOL
 62
7
  6
CONTINUOUS
 10
31.5696738443
 20
18.2031998474
  0
SEQEND
  0
POLYLINE
  8
___SYMBOL
 62
7
  6
CONTINUOUS
 66
1
 70
0
  0
VERTEX
  8
___SYMBOL
 62
7
  6
CONTINUOUS
 10
31.6207306764
 20
18.4566863169
  0
VERTEX
  8
___SYMBOL
 62
7
  6
CONTINUOUS
 10
31.6132183132
 20
18.4618730066
  0
VERTEX
  8
___SYMBOL
 62
7
  6
CONTINUOUS
 10
31.6054727612
 20
18.4664138878
  0
VERTEX
  8
___SYMBOL
 62
7
  6
CONTINUOUS
 10
31.5975260243
 20
18.470290198
  0
VERTEX
  8
___SYMBOL
 62
7
  6
CONTINUOUS
 10
31.5894109376
 20
18.4734859206
  0
VERTEX
  8
___SYMBOL
 62
7
  6
CONTINUOUS
 10
31.581161032
 20
18.4759878513
  0
VERTEX
  8
___SYMBOL
 62
7
  6
CONTINUOUS
 10
31.5728103951
 20
18.4777856522
  0
VERTEX
  8
___SYMBOL
 62
7
  6
CONTINUOUS
 10
31.5643935312
 20
18.4788718951
  0
VERTEX
  8
___SYMBOL
 62
7
  6
CONTINUOUS
 10
31.5559452178
 20
18.4792420916
  0
VERTEX
  8
___SYMBOL
 62
7
  6
CONTINUOUS
 10
31.5475003626
 20
18.4788947122
  0
VERTEX
  8
___SYMBOL
 62
7
  6
CONTINUOUS
 10
31.5390938589
 20
18.4778311923
  0
VERTEX
  8
___SYMBOL
 62
7
  6
CONTINUOUS
 10
31.5307604417
 20
18.476055926
  0
VERTEX
  8
___SYMBOL
 62
7
  6
CONTINUOUS
 10
31.5225345437
 20
18.4735762488
  0
VERTEX
  8
___SYMBOL
 62
7
  6
CONTINUOUS
 10
31.5144501537
 20
18.4704024064
  0
VERTEX
  8
___SYMBOL
 62
7
  6
CONTINUOUS
 10
31.5065406755
 20
18.4665475128
  0
VERTEX
  8
___SYMBOL
 62
7
  6
CONTINUOUS
 10
31.4988387903
 20
18.4620274961
  0
VERTEX
  8
___SYMBOL
 62
7
  6
CONTINUOUS
 10
31.4913763217
 20
18.4568610324
  0
VERTEX
  8
___SYMBOL
 62
7
  6
CONTINUOUS
 10
31.4841841038
 20
18.4510694693
  0
VERTEX
  8
___SYMBOL
 62
7
  6
CONTINUOUS
 10
31.4772918543
 20
18.4446767368
  0
VERTEX
  8
___SYMBOL
 62
7
  6
CONTINUOUS
 10
31.4707280511
 20
18.4377092492
  0
VERTEX
  8
___SYMBOL
 62
7
  6
CONTINUOUS
 10
31.4645198154
 20
18.4301957954
  0
VERTEX
  8
___SYMBOL
 62
7
  6
CONTINUOUS
 10
31.4586927989
 20
18.4221674203
  0
VERTEX
  8
___SYMBOL
 62
7
  6
CONTINUOUS
 10
31.4532710784
 20
18.4136572964
  0
VERTEX
  8
___SYMBOL
 62
7
  6
CONTINUOUS
 10
31.4482770559
 20
18.4047005867
  0
VERTEX
  8
___SYMBOL
 62
7
  6
CONTINUOUS
 10
31.4437313662
 20
18.3953342995
  0
VERTEX
  8
___SYMBOL
 62
7
  6
CONTINUOUS
 10
31.4396527916
 20
18.3855971354
  0
VERTEX
  8
___SYMBOL
 62
7
  6
CONTINUOUS
 10
31.4360581845
 20
18.3755293274
  0
VERTEX
  8
___SYMBOL
 62
7
  6
CONTINUOUS
 10
31.4329623974
 20
18.3651724748
  0
VERTEX
  8
___SYMBOL
 62
7
  6
CONTINUOUS
 10
31.4303782219
 20
18.3545693711
  0
VERTEX
  8
___SYMBOL
 62
7
  6
CONTINUOUS
 10
31.4283163354
 20
18.3437638272
  0
VERTEX
  8
___SYMBOL
 62
7
  6
CONTINUOUS
 10
31.4267852576
 20
18.3328004908
  0
VERTEX
  8
___SYMBOL
 62
7
  6
CONTINUOUS
 10
31.4257913146
 20
18.3217246612
  0
VERTEX
  8
___SYMBOL
 62
7
  6
CONTINUOUS
 10
31.4253386134
 20
18.3105821028
  0
VERTEX
  8
___SYMBOL
 62
7
  6
CONTINUOUS
 10
31.4254290245
 20
18.2994188555
  0
VERTEX
  8
___SYMBOL
 62
7
  6
CONTINUOUS
 10
31.4260621742
 20
18.2882810448
  0
VERTEX
  8
___SYMBOL
 62
7
  6
CONTINUOUS
 10
31.4272354466
 20
18.2772146911
  0
VERTEX
  8
___SYMBOL
 62
7
  6
CONTINUOUS
 10
31.4289439937
 20
18.2662655194
  0
VERTEX
  8
___SYMBOL
 62
7
  6
CONTINUOUS
 10
31.431180756
 20
18.2554787708
  0
VERTEX
  8
___SYMBOL
 62
7
  6
CONTINUOUS
 10
31.4339364914
 20
18.2448990151
  0
VERTEX
  8
___SYMBOL
 62
7
  6
CONTINUOUS
 10
31.4371998134
 20
18.2345699668
  0
VERTEX
  8
___SYMBOL
 62
7
  6
CONTINUOUS
 10
31.4409572384
 20
18.2245343045
  0
VERTEX
  8
___SYMBOL
 62
7
  6
CONTINUOUS
 10
31.445193241
 20
18.2148334947
  0
VERTEX
  8
___SYMBOL
 62
7
  6
CONTINUOUS
 10
31.4498903184
 20
18.2055076202
  0
VERTEX
  8
___SYMBOL
 62
7
  6
CONTINUOUS
 10
31.4550290627
 20
18.1965952146
  0
VERTEX
  8
___SYMBOL
 62
7
  6
CONTINUOUS
 10
31.4605882413
 20
18.1881331031
  0
VERTEX
  8
___SYMBOL
 62
7
  6
CONTINUOUS
 10
31.466544884
 20
18.1801562504
  0
VERTEX
  8
___SYMBOL
 62
7
  6
CONTINUOUS
 10
31.4728743785
 20
18.172697616
  0
VERTEX
  8
___SYMBOL
 62
7
  6
CONTINUOUS
 10
31.4795505721
 20
18.1657880184
  0
VERTEX
  8
___SYMBOL
 62
7
  6
CONTINUOUS
 10
31.4865458793
 20
18.1594560073
  0
VERTEX
  8
___SYMBOL
 62
7
  6
CONTINUOUS
 10
31.4938313962
 20
18.153727746
  0
VERTEX
  8
___SYMBOL
 62
7
  6
CONTINUOUS
 10
31.5013770196
 20
18.1486269031
  0
VERTEX
  8
___SYMBOL
 62
7
  6
CONTINUOUS
 10
31.5091515719
 20
18.1441745549
  0
VERTEX
  8
___SYMBOL
 62
7
  6
CONTINUOUS
 10
31.5171229292
 20
18.1403890979
  0
VERTEX
  8
___SYMBOL
 62
7
  6
CONTINUOUS
 10
31.5252581547
 20
18.1372861735
  0
VERTEX
  8
___SYMBOL
 62
7
  6
CONTINUOUS
 10
31.5335236345
 20
18.1348786025
  0
VERTEX
  8
___SYMBOL
 62
7
  6
CONTINUOUS
 10
31.5418852163
 20
18.1331763328
  0
VERTEX
  8
___SYMBOL
 62
7
  6
CONTINUOUS
 10
31.5503083509
 20
18.132186398
  0
VERTEX
  8
___SYMBOL
 62
7
  6
CONTINUOUS
 10
31.5587582347
 20
18.1319128884
  0
VERTEX
  8
___SYMBOL
 62
7
  6
CONTINUOUS
 10
31.5671999535
 20
18.1323569342
  0
VERTEX
  8
___SYMBOL
 62
7
  6
CONTINUOUS
 10
31.575598627
 20
18.1335167006
  0
VERTEX
  8
___SYMBOL
 62
7
  6
CONTINUOUS
 10
31.5839195527
 20
18.1353873956
  0
VERTEX
  8
___SYMBOL
 62
7
  6
CONTINUOUS
 10
31.5921283493
 20
18.1379612896
  0
VERTEX
  8
___SYMBOL
 62
7
  6
CONTINUOUS
 10
31.6001910988
 20
18.1412277475
  0
VERTEX
  8
___SYMBOL
 62
7
  6
CONTINUOUS
 10
31.6080744868
 20
18.1451732726
  0
VERTEX
  8
___SYMBOL
 62
7
  6
CONTINUOUS
 10
31.6157459397
 20
18.1497815625
  0
VERTEX
  8
___SYMBOL
 62
7
  6
CONTINUOUS
 10
31.6231737599
 20
18.155033576
  0
VERTEX
  8
___SYMBOL
 62
7
  6
CONTINUOUS
 10
31.6303272563
 20
18.1609076125
  0
VERTEX
  8
___SYMBOL
 62
7
  6
CONTINUOUS
 10
31.6371768714
 20
18.1673794008
  0
VERTEX
  8
___SYMBOL
 62
7
  6
CONTINUOUS
 10
31.6436943033
 20
18.1744222002
  0
VERTEX
  8
___SYMBOL
 62
7
  6
CONTINUOUS
 10
31.6498526224
 20
18.1820069105
  0
VERTEX
  8
___SYMBOL
 62
7
  6
CONTINUOUS
 10
31.6556263832
 20
18.1901021925
  0
VERTEX
  8
___SYMBOL
 62
7
  6
CONTINUOUS
 10
31.6609917291
 20
18.1986745971
  0
VERTEX
  8
___SYMBOL
 62
7
  6
CONTINUOUS
 10
31.665926491
 20
18.207688704
  0
VERTEX
  8
___SYMBOL
 62
7
  6
CONTINUOUS
 10
31.6704102789
 20
18.2171072678
  0
VERTEX
  8
___SYMBOL
 62
7
  6
CONTINUOUS
 10
31.6744245662
 20
18.2268913719
  0
VERTEX
  8
___SYMBOL
 62
7
  6
CONTINUOUS
 10
31.6779527663
 20
18.2370005892
  0
VERTEX
  8
___SYMBOL
 62
7
  6
CONTINUOUS
 10
31.680980301
 20
18.2473931495
  0
VERTEX
  8
___SYMBOL
 62
7
  6
CONTINUOUS
 10
31.6834946607
 20
18.2580261117
  0
VERTEX
  8
___SYMBOL
 62
7
  6
CONTINUOUS
 10
31.6854854565
 20
18.2688555414
  0
VERTEX
  8
___SYMBOL
 62
7
  6
CONTINUOUS
 10
31.6869444625
 20
18.2798366924
  0
SEQEND
  0
LINE
  8
___SYMBOL
 62
7
  6
CONTINUOUS
 10
31.7961987508
 20
18.8479781637
 11
31.8043902981
 21
18.8482306775
  0
ENDBLK
  8
0
  6
BYBLOCK
 62
0
  0
BLOCK
  8
___SYMBOL
 62
2
  6
CONTINUOUS
  2
SYMBOL_12_BL4
 70
64
 10
26.8657482131
 20
15.3472905825
  0
TEXT
  8
___SYMBOL
 62
2
  6
CONTINUOUS
 10
22.7407482131
 20
16.4410405825
  7
STANDARD
 40
0.15625
  1
WHEN PLOTTING TEMPLATE FULL SIZE:
 41
0.8
 72
0
  0
TEXT
  8
___SYMBOL
 62
2
  6
CONTINUOUS
 10
22.7407482131
 20
16.2066655825
  7
STANDARD
 40
0.15625
  1
Make sure horizontal and vertical dimensions
 41
0.8
 72
0
  0
TEXT
  8
___SYMBOL
 62
2
  6
CONTINUOUS
 10
22.7407482131
 20
15.9722905825
  7
STANDARD
 40
0.15625
  1
match the dimensions labeled on the template.
 41
0.8
 72
0
  0
TEXT
  8
___SYMBOL
 62
2
  6
CONTINUOUS
 10
22.7407482131
 20
15.7379155825
  7
STANDARD
 40
0.15625
  1
 
 41
0.8
 72
0
  0
TEXT
  8
___SYMBOL
 62
2
  6
CONTINUOUS
 10
22.7407482131
 20
15.5035405825
  7
STANDARD
 40
0.15625
  1
LORS DU TRACÉ DU GABARIT À L'ÉCHELLE:  
 41
0.8
 72
0
  0
TEXT
  8
___SYMBOL
 62
2
  6
CONTINUOUS
 10
22.7407482131
 20
15.2691655825
  7
STANDARD
 40
0.15625
  1
S'assurer que les dimensions horizontales et verticales 
 41
0.8
 72
0
  0
TEXT
  8
___SYMBOL
 62
2
  6
CONTINUOUS
 10
22.7407482131
 20
15.0347905825
  7
STANDARD
 40
0.15625
  1
correspondent à celles marquées sur le gabarit.
 41
0.8
 72
0
  0
TEXT
  8
___SYMBOL
 62
2
  6
CONTINUOUS
 10
22.7407482131
 20
14.8004155825
  7
STANDARD
 40
0.15625
  1
 
 41
0.8
 72
0
  0
TEXT
  8
___SYMBOL
 62
2
  6
CONTINUOUS
 10
22.7407482131
 20
14.5660405825
  7
STANDARD
 40
0.15625
  1
AL TRAZAR LA PLANTILLA A ESCALA COMPLETA: 
 41
0.8
 72
0
  0
TEXT
  8
___SYMBOL
 62
2
  6
CONTINUOUS
 10
22.7407482131
 20
14.3316655825
  7
STANDARD
 40
0.15625
  1
Asegúrese de que la dimensión horizontal y la dimensión 
 41
0.8
 72
0
  0
TEXT
  8
___SYMBOL
 62
2
  6
CONTINUOUS
 10
22.7407482131
 20
14.0972905825
  7
STANDARD
 40
0.15625
  1
vertical sean iguales a las dimensiones indicadas en la plantilla.
 41
0.8
 72
0
  0
ENDBLK
  8
0
  6
BYBLOCK
 62
0
  0
BLOCK
  8
___SYMBOL
 62
2
  6
CONTINUOUS
  2
SYMBOL_10_BL3
 70
64
 10
14.9782541965
 20
11.0112549918
  0
TEXT
  8
___SYMBOL
 62
2
  6
CONTINUOUS
 10
14.2907541965
 20
10.9331299918
  7
STANDARD
 40
0.15625
  1
1242828-7
 41
0.8
 72
0
  0
TEXT
  8
___SYMBOL
 62
2
  6
CONTINUOUS
 10
15.4157541965
 20
10.9331299918
  7
STANDARD
 40
0.15625
  1
-A
 41
0.8
 72
0
  0
ENDBLK
  8
0
  6
BYBLOCK
 62
0
  0
BLOCK
  8
___SYMBOL
 62
2
  6
CONTINUOUS
  2
SYMBOL_9_BL2
 70
64
 10
15.0084159723
 20
13.3998223367
  0
TEXT
  8
___SYMBOL
 62
2
  6
CONTINUOUS
 10
14.3209159723
 20
13.3216973367
  7
STANDARD
 40
0.15625
  1
1242828-7
 41
0.8
 72
0
  0
TEXT
  8
___SYMBOL
 62
2
  6
CONTINUOUS
 10
15.4459159723
 20
13.3216973367
  7
STANDARD
 40
0.15625
  1
-A
 41
0.8
 72
0
  0
ENDBLK
  8
0
  6
BYBLOCK
 62
0
  0
BLOCK
  8
___SYMBOL
 62
2
  6
CONTINUOUS
  2
SYMBOL_3_BL1
 70
64
 10
25.0852394627
 20
13.0555860127
  0
TEXT
  8
___SYMBOL
 62
2
  6
CONTINUOUS
 10
24.3032512716
 20
12.9754980638
  7
STANDARD
 40
0.15625
  1
2014 KOHLER CO.
 41
0.8
 72
0
  0
TEXT
  8
___SYMBOL
 62
7
  6
CONTINUOUS
 10
24.0459292726
 20
12.9778268138
  7
TEXTSTYLE_2
 40
0.15625
  1
C
 41
1.0
 72
0
  0
CIRCLE
  8
___SYMBOL
 62
7
  6
CONTINUOUS
 10
24.1245846908
 20
13.0555860127
 40
0.1323570371
  0
ENDBLK
  8
0
  6
BYBLOCK
 62
0
  0
BLOCK
  8
___SYMBOL
 62
2
  6
CONTINUOUS
  2
SYMBOL_33_BL0
 70
64
 10
16.1836191859
 20
22.128622641
  0
TEXT
  8
___SYMBOL
 62
2
  6
CONTINUOUS
 10
13.6839953035
 20
23.1300879406
  7
STANDARD
 40
0.25
  1
CUT-OUT TEMPLATE
 41
0.8
 72
0
  0
TEXT
  8
___SYMBOL
 62
2
  6
CONTINUOUS
 10
13.6839953035
 20
22.7550879406
  7
STANDARD
 40
0.25
  1
SELF-RIMMING LAVATORY
 41
0.8
 72
0
  0
TEXT
  8
___SYMBOL
 62
2
  6
CONTINUOUS
 10
13.6839953035
 20
22.3800879406
  7
STANDARD
 40
0.25
  1
PLAN DE DÉCOUPE
 41
0.8
 72
0
  0
TEXT
  8
___SYMBOL
 62
2
  6
CONTINUOUS
 10
13.6839953035
 20
22.0050879406
  7
STANDARD
 40
0.25
  1
LAVABO À REBORD INTÉGRÉ
 41
0.8
 72
0
  0
TEXT
  8
___SYMBOL
 62
2
  6
CONTINUOUS
 10
13.6839953035
 20
21.6300879406
  7
STANDARD
 40
0.25
  1
PLANTILLA DE CORTE
 41
0.8
 72
0
  0
TEXT
  8
___SYMBOL
 62
2
  6
CONTINUOUS
 10
13.6839953035
 20
21.2550879406
  7
STANDARD
 40
0.25
  1
LAVABO DE BORDE TERMINADO
 41
0.8
 72
0
  0
TEXT
  8
___SYMBOL
 62
2
  6
CONTINUOUS
 10
13.6839953035
 20
20.8800879406
  7
STANDARD
 40
0.25
  1
7799
 41
0.8
 72
0
  0
TEXT
  8
___SYMBOL
 62
2
  6
CONTINUOUS
 10
13.6832430683
 20
20.1303688681
  7
STANDARD
 40
0.25
  1
17916
 41
0.8
 72
0
  0
LINE
  8
___SYMBOL
 62
2
  6
CONTINUOUS
 10
14.1904842699
 20
24.1228978993
 11
13.977180818
 21
23.8692496264
  0
LINE
  8
___SYMBOL
 62
2
  6
CONTINUOUS
 10
13.9984224578
 20
24.1228978993
 11
14.1904842699
 21
24.1228978993
  0
LINE
  8
___SYMBOL
 62
2
  6
CONTINUOUS
 10
13.9984224578
 20
24.1228978993
 11
13.8606582911
 21
23.9590767097
  0
LINE
  8
___SYMBOL
 62
2
  6
CONTINUOUS
 10
13.8606582911
 20
24.1228978993
 11
13.8606582911
 21
23.9590767097
  0
LINE
  8
___SYMBOL
 62
2
  6
CONTINUOUS
 10
13.6861580641
 20
24.1228978993
 11
13.8606582911
 21
24.1228978993
  0
LINE
  8
___SYMBOL
 62
2
  6
CONTINUOUS
 10
13.6861580641
 20
24.1228978993
 11
13.6861580641
 21
23.5369602465
  0
LINE
  8
___SYMBOL
 62
2
  6
CONTINUOUS
 10
13.8606582911
 20
23.53698425
 11
13.6861580641
 21
23.5369602465
  0
LINE
  8
___SYMBOL
 62
2
  6
CONTINUOUS
 10
13.8606582911
 20
23.738484084
 11
13.8606582911
 21
23.53698425
  0
LINE
  8
___SYMBOL
 62
2
  6
CONTINUOUS
 10
14.0143962312
 20
23.53698425
 11
13.8606582911
 21
23.738484084
  0
LINE
  8
___SYMBOL
 62
2
  6
CONTINUOUS
 10
14.0143962312
 20
23.53698425
 11
14.2306886527
 21
23.53698425
  0
LINE
  8
___SYMBOL
 62
2
  6
CONTINUOUS
 10
14.2306886527
 20
23.53698425
 11
13.977180818
 21
23.8692496264
  0
SOLID
  8
___SYMBOL
 62
2
  6
CONTINUOUS
 10
13.8606582911
 20
23.9590767097
 11
13.9984224578
 21
24.1228978993
 12
14.1904842699
 22
24.1228978993
 13
14.1904842699
 23
24.1228978993
  0
SOLID
  8
___SYMBOL
 62
2
  6
CONTINUOUS
 10
14.1904842699
 20
24.1228978993
 11
13.977180818
 21
23.8692496264
 12
13.8606582911
 22
23.9590767097
 13
13.8606582911
 23
23.9590767097
  0
SOLID
  8
___SYMBOL
 62
2
  6
CONTINUOUS
 10
13.8606582911
 20
23.738484084
 11
13.977180818
 21
23.8692496264
 12
14.0143962312
 22
23.53698425
 13
14.0143962312
 23
23.53698425
  0
SOLID
  8
___SYMBOL
 62
2
  6
CONTINUOUS
 10
13.977180818
 20
23.8692496264
 11
14.2306886527
 21
23.53698425
 12
14.0143962312
 22
23.53698425
 13
14.0143962312
 23
23.53698425
  0
SOLID
  8
___SYMBOL
 62
2
  6
CONTINUOUS
 10
13.8606582911
 20
23.53698425
 11
13.6861580641
 21
23.5369602465
 12
13.8606582911
 22
23.738484084
 13
13.8606582911
 23
23.738484084
  0
SOLID
  8
___SYMBOL
 62
2
  6
CONTINUOUS
 10
13.977180818
 20
23.8692496264
 11
13.8606582911
 21
23.738484084
 12
13.8606582911
 22
23.9590767097
 13
13.8606582911
 23
23.9590767097
  0
SOLID
  8
___SYMBOL
 62
2
  6
CONTINUOUS
 10
13.8606582911
 20
23.738484084
 11
13.6861580641
 21
23.5369602465
 12
13.8606582911
 22
23.9590767097
 13
13.8606582911
 23
23.9590767097
  0
SOLID
  8
___SYMBOL
 62
2
  6
CONTINUOUS
 10
13.8606582911
 20
23.9590767097
 11
13.6861580641
 21
23.5369602465
 12
13.8606582911
 22
24.1228978993
 13
13.8606582911
 23
24.1228978993
  0
SOLID
  8
___SYMBOL
 62
2
  6
CONTINUOUS
 10
13.6861580641
 20
23.5369602465
 11
13.6861580641
 21
24.1228978993
 12
13.8606582911
 22
24.1228978993
 13
13.8606582911
 23
24.1228978993
  0
CIRCLE
  8
___SYMBOL
 62
2
  6
CONTINUOUS
 10
14.4071974894
 20
23.8288198228
 40
0.298056591
  0
CIRCLE
  8
___SYMBOL
 62
2
  6
CONTINUOUS
 10
14.4071974894
 20
23.8288198228
 40
0.1247694151
  0
SOLID
  8
___SYMBOL
 62
2
  6
CONTINUOUS
 10
14.3150929375
 20
24.1122884859
 11
14.3760420919
 21
24.1252436286
 12
14.4383528868
 22
24.1252436286
 13
14.4383528868
 23
24.1252436286
  0
SOLID
  8
___SYMBOL
 62
2
  6
CONTINUOUS
 10
14.4383528868
 20
24.1252436286
 11
14.4993020413
 21
24.1122884859
 12
14.3150929375
 22
24.1122884859
 13
14.3150929375
 23
24.1122884859
  0
SOLID
  8
___SYMBOL
 62
2
  6
CONTINUOUS
 10
14.2581691939
 20
24.0869444024
 11
14.3150929375
 21
24.1122884859
 12
14.4993020413
 22
24.1122884859
 13
14.4993020413
 23
24.1122884859
  0
SOLID
  8
___SYMBOL
 62
2
  6
CONTINUOUS
 10
14.4993020413
 20
24.1122884859
 11
14.5562257849
 21
24.0869444024
 12
14.2581691939
 22
24.0869444024
 13
14.2581691939
 23
24.0869444024
  0
SOLID
  8
___SYMBOL
 62
2
  6
CONTINUOUS
 10
14.2077587019
 20
24.0503190361
 11
14.2581691939
 21
24.0869444024
 12
14.5562257849
 22
24.0869444024
 13
14.5562257849
 23
24.0869444024
  0
SOLID
  8
___SYMBOL
 62
2
  6
CONTINUOUS
 10
14.5562257849
 20
24.0869444024
 11
14.6066362768
 21
24.0503190361
 12
14.2077587019
 22
24.0503190361
 13
14.2077587019
 23
24.0503190361
  0
SOLID
  8
___SYMBOL
 62
2
  6
CONTINUOUS
 10
14.166064642
 20
24.0040130913
 11
14.2077587019
 21
24.0503190361
 12
14.6066362768
 22
24.0503190361
 13
14.6066362768
 23
24.0503190361
  0
SOLID
  8
___SYMBOL
 62
2
  6
CONTINUOUS
 10
14.6066362768
 20
24.0503190361
 11
14.6483303368
 21
24.0040130913
 12
14.166064642
 22
24.0040130913
 13
14.166064642
 23
24.0040130913
  0
SOLID
  8
___SYMBOL
 62
2
  6
CONTINUOUS
 10
14.4071974894
 20
23.9535892379
 11
14.1349092445
 21
23.9500503601
 12
14.6483303368
 22
24.0040130913
 13
14.6483303368
 23
24.0040130913
  0
SOLID
  8
___SYMBOL
 62
2
  6
CONTINUOUS
 10
14.1349092445
 20
23.9500503601
 11
14.166064642
 21
24.0040130913
 12
14.6483303368
 22
24.0040130913
 13
14.6483303368
 23
24.0040130913
  0
SOLID
  8
___SYMBOL
 62
2
  6
CONTINUOUS
 10
14.6483303368
 20
24.0040130913
 11
14.6794857342
 21
23.9500503601
 12
14.4071974894
 22
23.9535892379
 13
14.4071974894
 23
23.9535892379
  0
SOLID
  8
___SYMBOL
 62
2
  6
CONTINUOUS
 10
14.4071974894
 20
23.9535892379
 11
14.3686416197
 21
23.947482588
 12
14.1349092445
 22
23.9500503601
 13
14.1349092445
 23
23.9500503601
  0
SOLID
  8
___SYMBOL
 62
2
  6
CONTINUOUS
 10
14.445753359
 20
23.947482588
 11
14.4071974894
 21
23.9535892379
 12
14.6794857342
 22
23.9500503601
 13
14.6794857342
 23
23.9500503601
  0
SOLID
  8
___SYMBOL
 62
2
  6
CONTINUOUS
 10
14.3062569122
 20
23.9021574449
 11
14.11565415
 21
23.8907892726
 12
14.3338598672
 22
23.9297604
 13
14.3338598672
 23
23.9297604
  0
SOLID
  8
___SYMBOL
 62
2
  6
CONTINUOUS
 10
14.3338598672
 20
23.9297604
 11
14.11565415
 21
23.8907892726
 12
14.3686416197
 22
23.947482588
 13
14.3686416197
 23
23.947482588
  0
SOLID
  8
___SYMBOL
 62
2
  6
CONTINUOUS
 10
14.11565415
 20
23.8907892726
 11
14.1349092445
 21
23.9500503601
 12
14.3686416197
 22
23.947482588
 13
14.3686416197
 23
23.947482588
  0
SOLID
  8
___SYMBOL
 62
2
  6
CONTINUOUS
 10
14.445753359
 20
23.947482588
 11
14.6794857342
 21
23.9500503601
 12
14.4805351115
 22
23.9297604
 13
14.4805351115
 23
23.9297604
  0
SOLID
  8
___SYMBOL
 62
2
  6
CONTINUOUS
 10
14.4805351115
 20
23.9297604
 11
14.6794857342
 21
23.9500503601
 12
14.5081380665
 22
23.9021574449
 13
14.5081380665
 23
23.9021574449
  0
SOLID
  8
___SYMBOL
 62
2
  6
CONTINUOUS
 10
14.6794857342
 20
23.9500503601
 11
14.6987408287
 21
23.8907892726
 12
14.5081380665
 22
23.9021574449
 13
14.5081380665
 23
23.9021574449
  0
SOLID
  8
___SYMBOL
 62
2
  6
CONTINUOUS
 10
14.3062569122
 20
23.9021574449
 11
14.2885347241
 21
23.8673756924
 12
14.11565415
 22
23.8907892726
 13
14.11565415
 23
23.8907892726
  0
SOLID
  8
___SYMBOL
 62
2
  6
CONTINUOUS
 10
14.5258602546
 20
23.8673756924
 11
14.5081380665
 21
23.9021574449
 12
14.6987408287
 22
23.8907892726
 13
14.6987408287
 23
23.8907892726
  0
SOLID
  8
___SYMBOL
 62
2
  6
CONTINUOUS
 10
14.1091408984
 20
23.8288198228
 11
14.11565415
 21
23.8907892726
 12
14.2885347241
 22
23.8673756924
 13
14.2885347241
 23
23.8673756924
  0
SOLID
  8
___SYMBOL
 62
2
  6
CONTINUOUS
 10
14.2885347241
 20
23.8673756924
 11
14.2824280743
 21
23.8288198228
 12
14.1091408984
 22
23.8288198228
 13
14.1091408984
 23
23.8288198228
  0
SOLID
  8
___SYMBOL
 62
2
  6
CONTINUOUS
 10
14.5258602546
 20
23.8673756924
 11
14.6987408287
 21
23.8907892726
 12
14.5319669044
 22
23.8288198228
 13
14.5319669044
 23
23.8288198228
  0
SOLID
  8
___SYMBOL
 62
2
  6
CONTINUOUS
 10
14.6987408287
 20
23.8907892726
 11
14.7052540803
 21
23.8288198228
 12
14.5319669044
 22
23.8288198228
 13
14.5319669044
 23
23.8288198228
  0
SOLID
  8
___SYMBOL
 62
2
  6
CONTINUOUS
 10
14.5258602546
 20
23.7902639532
 11
14.5319669044
 21
23.8288198228
 12
14.7052540803
 22
23.8288198228
 13
14.7052540803
 23
23.8288198228
  0
SOLID
  8
___SYMBOL
 62
2
  6
CONTINUOUS
 10
14.2885347241
 20
23.7902639532
 11
14.11565415
 21
23.766850373
 12
14.2824280743
 22
23.8288198228
 13
14.2824280743
 23
23.8288198228
  0
SOLID
  8
___SYMBOL
 62
2
  6
CONTINUOUS
 10
14.11565415
 20
23.766850373
 11
14.1091408984
 21
23.8288198228
 12
14.2824280743
 22
23.8288198228
 13
14.2824280743
 23
23.8288198228
  0
SOLID
  8
___SYMBOL
 62
2
  6
CONTINUOUS
 10
14.7052540803
 20
23.8288198228
 11
14.6987408287
 21
23.766850373
 12
14.5258602546
 22
23.7902639532
 13
14.5258602546
 23
23.7902639532
  0
SOLID
  8
___SYMBOL
 62
2
  6
CONTINUOUS
 10
14.2885347241
 20
23.7902639532
 11
14.3062569122
 21
23.7554822007
 12
14.11565415
 22
23.766850373
 13
14.11565415
 23
23.766850373
  0
SOLID
  8
___SYMBOL
 62
2
  6
CONTINUOUS
 10
14.5081380665
 20
23.7554822007
 11
14.5258602546
 21
23.7902639532
 12
14.6987408287
 22
23.766850373
 13
14.6987408287
 23
23.766850373
  0
SOLID
  8
___SYMBOL
 62
2
  6
CONTINUOUS
 10
14.3686416197
 20
23.7101570576
 11
14.1349092445
 21
23.7075892855
 12
14.3338598672
 22
23.7278792456
 13
14.3338598672
 23
23.7278792456
  0
SOLID
  8
___SYMBOL
 62
2
  6
CONTINUOUS
 10
14.3338598672
 20
23.7278792456
 11
14.1349092445
 21
23.7075892855
 12
14.3062569122
 22
23.7554822007
 13
14.3062569122
 23
23.7554822007
  0
SOLID
  8
___SYMBOL
 62
2
  6
CONTINUOUS
 10
14.1349092445
 20
23.7075892855
 11
14.11565415
 21
23.766850373
 12
14.3062569122
 22
23.7554822007
 13
14.3062569122
 23
23.7554822007
  0
SOLID
  8
___SYMBOL
 62
2
  6
CONTINUOUS
 10
14.5081380665
 20
23.7554822007
 11
14.6987408287
 21
23.766850373
 12
14.4805351115
 22
23.7278792456
 13
14.4805351115
 23
23.7278792456
  0
SOLID
  8
___SYMBOL
 62
2
  6
CONTINUOUS
 10
14.4805351115
 20
23.7278792456
 11
14.6987408287
 21
23.766850373
 12
14.445753359
 22
23.7101570576
 13
14.445753359
 23
23.7101570576
  0
SOLID
  8
___SYMBOL
 62
2
  6
CONTINUOUS
 10
14.6987408287
 20
23.766850373
 11
14.6794857342
 21
23.7075892855
 12
14.445753359
 22
23.7101570576
 13
14.445753359
 23
23.7101570576
  0
SOLID
  8
___SYMBOL
 62
2
  6
CONTINUOUS
 10
14.3686416197
 20
23.7101570576
 11
14.4071974894
 21
23.7040504077
 12
14.1349092445
 22
23.7075892855
 13
14.1349092445
 23
23.7075892855
  0
SOLID
  8
___SYMBOL
 62
2
  6
CONTINUOUS
 10
14.4071974894
 20
23.7040504077
 11
14.445753359
 21
23.7101570576
 12
14.6794857342
 22
23.7075892855
 13
14.6794857342
 23
23.7075892855
  0
SOLID
  8
___SYMBOL
 62
2
  6
CONTINUOUS
 10
14.166064642
 20
23.6536265543
 11
14.1349092445
 21
23.7075892855
 12
14.4071974894
 22
23.7040504077
 13
14.4071974894
 23
23.7040504077
  0
SOLID
  8
___SYMBOL
 62
2
  6
CONTINUOUS
 10
14.4071974894
 20
23.7040504077
 11
14.6794857342
 21
23.7075892855
 12
14.166064642
 22
23.6536265543
 13
14.166064642
 23
23.6536265543
  0
SOLID
  8
___SYMBOL
 62
2
  6
CONTINUOUS
 10
14.6794857342
 20
23.7075892855
 11
14.6483303368
 21
23.6536265543
 12
14.166064642
 22
23.6536265543
 13
14.166064642
 23
23.6536265543
  0
SOLID
  8
___SYMBOL
 62
2
  6
CONTINUOUS
 10
14.2077587019
 20
23.6073206095
 11
14.166064642
 21
23.6536265543
 12
14.6483303368
 22
23.6536265543
 13
14.6483303368
 23
23.6536265543
  0
SOLID
  8
___SYMBOL
 62
2
  6
CONTINUOUS
 10
14.6483303368
 20
23.6536265543
 11
14.6066362768
 21
23.6073206095
 12
14.2077587019
 22
23.6073206095
 13
14.2077587019
 23
23.6073206095
  0
SOLID
  8
___SYMBOL
 62
2
  6
CONTINUOUS
 10
14.2581691939
 20
23.5706952432
 11
14.2077587019
 21
23.6073206095
 12
14.6066362768
 22
23.6073206095
 13
14.6066362768
 23
23.6073206095
  0
SOLID
  8
___SYMBOL
 62
2
  6
CONTINUOUS
 10
14.6066362768
 20
23.6073206095
 11
14.5562257849
 21
23.5706952432
 12
14.2581691939
 22
23.5706952432
 13
14.2581691939
 23
23.5706952432
  0
SOLID
  8
___SYMBOL
 62
2
  6
CONTINUOUS
 10
14.3150929375
 20
23.5453511597
 11
14.2581691939
 21
23.5706952432
 12
14.5562257849
 22
23.5706952432
 13
14.5562257849
 23
23.5706952432
  0
SOLID
  8
___SYMBOL
 62
2
  6
CONTINUOUS
 10
14.5562257849
 20
23.5706952432
 11
14.4993020413
 21
23.5453511597
 12
14.3150929375
 22
23.5453511597
 13
14.3150929375
 23
23.5453511597
  0
SOLID
  8
___SYMBOL
 62
2
  6
CONTINUOUS
 10
14.3760420919
 20
23.532396017
 11
14.3150929375
 21
23.5453511597
 12
14.4993020413
 22
23.5453511597
 13
14.4993020413
 23
23.5453511597
  0
SOLID
  8
___SYMBOL
 62
2
  6
CONTINUOUS
 10
14.4993020413
 20
23.5453511597
 11
14.4383528868
 21
23.532396017
 12
14.3760420919
 22
23.532396017
 13
14.3760420919
 23
23.532396017
  0
LINE
  8
___SYMBOL
 62
2
  6
CONTINUOUS
 10
15.1998334986
 20
24.1228978993
 11
15.1998334986
 21
23.53698425
  0
LINE
  8
___SYMBOL
 62
2
  6
CONTINUOUS
 10
15.1998334986
 20
23.53698425
 11
15.0350998187
 21
23.53698425
  0
LINE
  8
___SYMBOL
 62
2
  6
CONTINUOUS
 10
15.0350998187
 20
23.7653088598
 11
15.0350998187
 21
23.53698425
  0
LINE
  8
___SYMBOL
 62
2
  6
CONTINUOUS
 10
14.8871030076
 20
23.7653088598
 11
15.0350998187
 21
23.7653088598
  0
LINE
  8
___SYMBOL
 62
2
  6
CONTINUOUS
 10
14.8871030076
 20
23.7653088598
 11
14.8871030076
 21
23.53698425
  0
LINE
  8
___SYMBOL
 62
2
  6
CONTINUOUS
 10
14.8871030076
 20
23.53698425
 11
14.7223693277
 21
23.53698425
  0
LINE
  8
___SYMBOL
 62
2
  6
CONTINUOUS
 10
14.7223693277
 20
24.1228978993
 11
14.7223693277
 21
23.53698425
  0
LINE
  8
___SYMBOL
 62
2
  6
CONTINUOUS
 10
14.7223693277
 20
24.1228978993
 11
14.8871030076
 21
24.1228978993
  0
LINE
  8
___SYMBOL
 62
2
  6
CONTINUOUS
 10
14.8871030076
 20
24.1228978993
 11
14.8871030076
 21
23.9025141397
  0
LINE
  8
___SYMBOL
 62
2
  6
CONTINUOUS
 10
14.8871030076
 20
23.9025141397
 11
15.0350998187
 21
23.9025141397
  0
LINE
  8
___SYMBOL
 62
2
  6
CONTINUOUS
 10
15.0350998187
 20
24.1228978993
 11
15.0350998187
 21
23.9025141397
  0
LINE
  8
___SYMBOL
 62
2
  6
CONTINUOUS
 10
15.0350998187
 20
24.1228978993
 11
15.1998334986
 21
24.1228978993
  0
SOLID
  8
___SYMBOL
 62
2
  6
CONTINUOUS
 10
15.0350998187
 20
23.9025141397
 11
15.0350998187
 21
24.1228978993
 12
15.1998334986
 22
24.1228978993
 13
15.1998334986
 23
24.1228978993
  0
SOLID
  8
___SYMBOL
 62
2
  6
CONTINUOUS
 10
15.0350998187
 20
23.9025141397
 11
14.8871030076
 21
23.7653088598
 12
14.8871030076
 22
23.9025141397
 13
14.8871030076
 23
23.9025141397
  0
SOLID
  8
___SYMBOL
 62
2
  6
CONTINUOUS
 10
14.8871030076
 20
23.7653088598
 11
14.7223693277
 21
23.53698425
 12
14.8871030076
 22
23.9025141397
 13
14.8871030076
 23
23.9025141397
  0
SOLID
  8
___SYMBOL
 62
2
  6
CONTINUOUS
 10
14.8871030076
 20
23.9025141397
 11
14.7223693277
 21
23.53698425
 12
14.8871030076
 22
24.1228978993
 13
14.8871030076
 23
24.1228978993
  0
SOLID
  8
___SYMBOL
 62
2
  6
CONTINUOUS
 10
14.7223693277
 20
23.53698425
 11
14.7223693277
 21
24.1228978993
 12
14.8871030076
 22
24.1228978993
 13
14.8871030076
 23
24.1228978993
  0
SOLID
  8
___SYMBOL
 62
2
  6
CONTINUOUS
 10
14.8871030076
 20
23.7653088598
 11
14.8871030076
 21
23.53698425
 12
14.7223693277
 22
23.53698425
 13
14.7223693277
 23
23.53698425
  0
SOLID
  8
___SYMBOL
 62
2
  6
CONTINUOUS
 10
14.8871030076
 20
23.7653088598
 11
15.0350998187
 21
23.9025141397
 12
15.0350998187
 22
23.7653088598
 13
15.0350998187
 23
23.7653088598
  0
SOLID
  8
___SYMBOL
 62
2
  6
CONTINUOUS
 10
15.0350998187
 20
23.9025141397
 11
15.1998334986
 21
24.1228978993
 12
15.0350998187
 22
23.7653088598
 13
15.0350998187
 23
23.7653088598
  0
SOLID
  8
___SYMBOL
 62
2
  6
CONTINUOUS
 10
15.0350998187
 20
23.7653088598
 11
15.1998334986
 21
24.1228978993
 12
15.0350998187
 22
23.53698425
 13
15.0350998187
 23
23.53698425
  0
SOLID
  8
___SYMBOL
 62
2
  6
CONTINUOUS
 10
15.1998334986
 20
24.1228978993
 11
15.1998334986
 21
23.53698425
 12
15.0350998187
 22
23.53698425
 13
15.0350998187
 23
23.53698425
  0
LINE
  8
___SYMBOL
 62
2
  6
CONTINUOUS
 10
15.3949244055
 20
23.53698425
 11
15.5576084755
 21
23.53698425
  0
LINE
  8
___SYMBOL
 62
2
  6
CONTINUOUS
 10
15.3949244055
 20
23.53698425
 11
15.2448783428
 21
23.53698425
  0
LINE
  8
___SYMBOL
 62
2
  6
CONTINUOUS
 10
15.2448783428
 20
23.53698425
 11
15.2448783428
 21
24.1228978993
  0
LINE
  8
___SYMBOL
 62
2
  6
CONTINUOUS
 10
15.2448783428
 20
24.1228978993
 11
15.3949244055
 21
24.1228978993
  0
LINE
  8
___SYMBOL
 62
2
  6
CONTINUOUS
 10
15.3949244055
 20
24.1228978993
 11
15.3949244055
 21
23.6782110071
  0
LINE
  8
___SYMBOL
 62
2
  6
CONTINUOUS
 10
15.3949244055
 20
23.6782110071
 11
15.5576084755
 21
23.6782110071
  0
LINE
  8
___SYMBOL
 62
2
  6
CONTINUOUS
 10
15.5576084755
 20
23.6782110071
 11
15.5576084755
 21
23.53698425
  0
SOLID
  8
___SYMBOL
 62
2
  6
CONTINUOUS
 10
15.5576084755
 20
23.6782110071
 11
15.2448783428
 21
23.53698425
 12
15.3949244055
 22
23.6782110071
 13
15.3949244055
 23
23.6782110071
  0
SOLID
  8
___SYMBOL
 62
2
  6
CONTINUOUS
 10
15.3949244055
 20
23.6782110071
 11
15.2448783428
 21
23.53698425
 12
15.3949244055
 22
24.1228978993
 13
15.3949244055
 23
24.1228978993
  0
SOLID
  8
___SYMBOL
 62
2
  6
CONTINUOUS
 10
15.2448783428
 20
23.53698425
 11
15.2448783428
 21
24.1228978993
 12
15.3949244055
 22
24.1228978993
 13
15.3949244055
 23
24.1228978993
  0
SOLID
  8
___SYMBOL
 62
2
  6
CONTINUOUS
 10
15.2448783428
 20
23.53698425
 11
15.5576084755
 21
23.6782110071
 12
15.3949244055
 22
23.53698425
 13
15.3949244055
 23
23.53698425
  0
SOLID
  8
___SYMBOL
 62
2
  6
CONTINUOUS
 10
15.5576084755
 20
23.6782110071
 11
15.5576084755
 21
23.53698425
 12
15.3949244055
 22
23.53698425
 13
15.3949244055
 23
23.53698425
  0
LINE
  8
___SYMBOL
 62
2
  6
CONTINUOUS
 10
15.8958603895
 20
23.7581325381
 11
15.8958603895
 21
23.9025141397
  0
LINE
  8
___SYMBOL
 62
2
  6
CONTINUOUS
 10
15.7450028661
 20
23.9025141397
 11
15.8958603895
 21
23.9025141397
  0
LINE
  8
___SYMBOL
 62
2
  6
CONTINUOUS
 10
15.7450028661
 20
23.9801385026
 11
15.7450028661
 21
23.9025141397
  0
LINE
  8
___SYMBOL
 62
2
  6
CONTINUOUS
 10
15.7450028661
 20
23.9801385026
 11
15.8958603895
 21
23.9801385026
  0
LINE
  8
___SYMBOL
 62
2
  6
CONTINUOUS
 10
15.8958603895
 20
23.9801385026
 11
15.8958603895
 21
24.1228978993
  0
LINE
  8
___SYMBOL
 62
2
  6
CONTINUOUS
 10
15.7592071894
 20
24.1228978993
 11
15.8958603895
 21
24.1228978993
  0
LINE
  8
___SYMBOL
 62
2
  6
CONTINUOUS
 10
15.5867562141
 20
24.1228978993
 11
15.7592071894
 21
24.1228978993
  0
LINE
  8
___SYMBOL
 62
2
  6
CONTINUOUS
 10
15.5867562141
 20
23.53698425
 11
15.5867562141
 21
24.1228978993
  0
LINE
  8
___SYMBOL
 62
2
  6
CONTINUOUS
 10
15.5867562141
 20
23.53698425
 11
15.8958603895
 21
23.53698425
  0
LINE
  8
___SYMBOL
 62
2
  6
CONTINUOUS
 10
15.8958603895
 20
23.53698425
 11
15.8958603895
 21
23.6782110071
  0
LINE
  8
___SYMBOL
 62
2
  6
CONTINUOUS
 10
15.7450028661
 20
23.6782110071
 11
15.8958603895
 21
23.6782110071
  0
LINE
  8
___SYMBOL
 62
2
  6
CONTINUOUS
 10
15.7450028661
 20
23.7581325381
 11
15.7450028661
 21
23.6782110071
  0
LINE
  8
___SYMBOL
 62
2
  6
CONTINUOUS
 10
15.7450028661
 20
23.7581325381
 11
15.8958603895
 21
23.7581325381
  0
SOLID
  8
___SYMBOL
 62
2
  6
CONTINUOUS
 10
15.8958603895
 20
24.1228978993
 11
15.8958603895
 21
23.9801385026
 12
15.7450028661
 22
23.9801385026
 13
15.7450028661
 23
23.9801385026
  0
SOLID
  8
___SYMBOL
 62
2
  6
CONTINUOUS
 10
15.8958603895
 20
23.9025141397
 11
15.8958603895
 21
23.7581325381
 12
15.7450028661
 22
23.7581325381
 13
15.7450028661
 23
23.7581325381
  0
SOLID
  8
___SYMBOL
 62
2
  6
CONTINUOUS
 10
15.8958603895
 20
23.6782110071
 11
15.5867562141
 21
23.53698425
 12
15.7450028661
 22
23.6782110071
 13
15.7450028661
 23
23.6782110071
  0
SOLID
  8
___SYMBOL
 62
2
  6
CONTINUOUS
 10
15.7450028661
 20
23.6782110071
 11
15.5867562141
 21
23.53698425
 12
15.7450028661
 22
23.7581325381
 13
15.7450028661
 23
23.7581325381
  0
SOLID
  8
___SYMBOL
 62
2
  6
CONTINUOUS
 10
15.8958603895
 20
23.9025141397
 11
15.7450028661
 21
23.7581325381
 12
15.7450028661
 22
23.9025141397
 13
15.7450028661
 23
23.9025141397
  0
SOLID
  8
___SYMBOL
 62
2
  6
CONTINUOUS
 10
15.7450028661
 20
23.7581325381
 11
15.5867562141
 21
23.53698425
 12
15.7450028661
 22
23.9025141397
 13
15.7450028661
 23
23.9025141397
  0
SOLID
  8
___SYMBOL
 62
2
  6
CONTINUOUS
 10
15.7450028661
 20
23.9025141397
 11
15.5867562141
 21
23.53698425
 12
15.7450028661
 22
23.9801385026
 13
15.7450028661
 23
23.9801385026
  0
SOLID
  8
___SYMBOL
 62
2
  6
CONTINUOUS
 10
15.8958603895
 20
24.1228978993
 11
15.7450028661
 21
23.9801385026
 12
15.7592071894
 22
24.1228978993
 13
15.7592071894
 23
24.1228978993
  0
SOLID
  8
___SYMBOL
 62
2
  6
CONTINUOUS
 10
15.7450028661
 20
23.9801385026
 11
15.5867562141
 21
23.53698425
 12
15.7592071894
 22
24.1228978993
 13
15.7592071894
 23
24.1228978993
  0
SOLID
  8
___SYMBOL
 62
2
  6
CONTINUOUS
 10
15.5867562141
 20
23.53698425
 11
15.5867562141
 21
24.1228978993
 12
15.7592071894
 22
24.1228978993
 13
15.7592071894
 23
24.1228978993
  0
SOLID
  8
___SYMBOL
 62
2
  6
CONTINUOUS
 10
15.8958603895
 20
23.6782110071
 11
15.8958603895
 21
23.53698425
 12
15.5867562141
 22
23.53698425
 13
15.5867562141
 23
23.53698425
  0
LINE
  8
___SYMBOL
 62
2
  6
CONTINUOUS
 10
16.4061107955
 20
23.53698425
 11
16.2466675525
 21
23.7885667913
  0
ARC
  8
___SYMBOL
 62
2
  6
CONTINUOUS
 10
16.1742283048
 20
23.9478883886
 40
0.1750166163
 50
294.4500166359
 51
90.0
  0
LINE
  8
___SYMBOL
 62
2
  6
CONTINUOUS
 10
15.9406806042
 20
24.1228978993
 11
16.1742283048
 21
24.1228978993
  0
LINE
  8
___SYMBOL
 62
2
  6
CONTINUOUS
 10
15.9406806042
 20
23.53698425
 11
15.9406806042
 21
24.1228978993
  0
LINE
  8
___SYMBOL
 62
2
  6
CONTINUOUS
 10
15.9406806042
 20
23.53698425
 11
16.0913364268
 21
23.53698425
  0
LINE
  8
___SYMBOL
 62
2
  6
CONTINUOUS
 10
16.0913364268
 20
23.7339406208
 11
16.0913364268
 21
23.53698425
  0
LINE
  8
___SYMBOL
 62
2
  6
CONTINUOUS
 10
16.2161598559
 20
23.53698425
 11
16.0913364268
 21
23.7339406208
  0
LINE
  8
___SYMBOL
 62
2
  6
CONTINUOUS
 10
16.2161598559
 20
23.53698425
 11
16.4061107955
 21
23.53698425
  0
LINE
  8
___SYMBOL
 62
2
  6
CONTINUOUS
 10
16.0913364268
 20
23.8732159315
 11
16.1436761769
 21
23.8732159315
  0
ARC
  8
___SYMBOL
 62
2
  6
CONTINUOUS
 10
16.1472662063
 20
23.926707331
 40
0.053611735
 50
266.1604009902
 51
89.9998910512
  0
LINE
  8
___SYMBOL
 62
2
  6
CONTINUOUS
 10
16.1472663082
 20
23.980319066
 11
16.0913364268
 21
23.980319066
  0
LINE
  8
___SYMBOL
 62
2
  6
CONTINUOUS
 10
16.0913364268
 20
23.980319066
 11
16.0913364268
 21
23.8732159315
  0
SOLID
  8
___SYMBOL
 62
2
  6
CONTINUOUS
 10
16.1742283048
 20
24.1229050049
 11
16.2211613284
 21
24.1164947565
 12
15.9406806042
 22
24.1228978993
 13
15.9406806042
 23
24.1228978993
  0
SOLID
  8
___SYMBOL
 62
2
  6
CONTINUOUS
 10
16.0913364268
 20
23.980319066
 11
16.3452761678
 21
23.9849484015
 12
16.1472663082
 22
23.980319066
 13
16.1472663082
 23
23.980319066
  0
SOLID
  8
___SYMBOL
 62
2
  6
CONTINUOUS
 10
16.1472663082
 20
23.980319066
 11
16.3452761678
 21
23.9849484015
 12
16.1709888898
 22
23.9747848977
 13
16.1709888898
 23
23.9747848977
  0
SOLID
  8
___SYMBOL
 62
2
  6
CONTINUOUS
 10
16.1709888898
 20
23.9747848977
 11
16.3452761678
 21
23.9849484015
 12
16.1898138775
 22
23.9593250226
 13
16.1898138775
 23
23.9593250226
  0
SOLID
  8
___SYMBOL
 62
2
  6
CONTINUOUS
 10
16.3452761678
 20
23.9849484015
 11
16.3489494143
 21
23.9377222727
 12
16.1898138775
 22
23.9593250226
 13
16.1898138775
 23
23.9593250226
  0
SOLID
  8
___SYMBOL
 62
2
  6
CONTINUOUS
 10
16.199854816
 20
23.937131162
 11
16.1898138775
 21
23.9593250226
 12
16.3489494143
 22
23.9377222727
 13
16.3489494143
 23
23.9377222727
  0
SOLID
  8
___SYMBOL
 62
2
  6
CONTINUOUS
 10
16.199854816
 20
23.937131162
 11
16.3489494143
 21
23.9377222727
 12
16.1990387343
 22
23.9127852813
 13
16.1990387343
 23
23.9127852813
  0
SOLID
  8
___SYMBOL
 62
2
  6
CONTINUOUS
 10
16.1990387343
 20
23.9127852813
 11
16.3489494143
 21
23.9377222727
 12
16.187534114
 22
23.8913136347
 13
16.187534114
 23
23.8913136347
  0
SOLID
  8
___SYMBOL
 62
2
  6
CONTINUOUS
 10
16.3489494143
 20
23.9377222727
 11
16.3398238106
 21
23.8912408426
 12
16.187534114
 22
23.8913136347
 13
16.187534114
 23
23.8913136347
  0
SOLID
  8
___SYMBOL
 62
2
  6
CONTINUOUS
 10
16.1677161062
 20
23.8771490852
 11
16.187534114
 21
23.8913136347
 12
16.3398238106
 22
23.8912408426
 13
16.3398238106
 23
23.8912408426
  0
SOLID
  8
___SYMBOL
 62
2
  6
CONTINUOUS
 10
16.1677161062
 20
23.8771490852
 11
16.3398238106
 21
23.8912408426
 12
16.1436761769
 22
23.8732159315
 13
16.1436761769
 23
23.8732159315
  0
SOLID
  8
___SYMBOL
 62
2
  6
CONTINUOUS
 10
16.3398238106
 20
23.8912408426
 11
16.3185678349
 21
23.8489090168
 12
16.1436761769
 22
23.8732159315
 13
16.1436761769
 23
23.8732159315
  0
SOLID
  8
___SYMBOL
 62
2
  6
CONTINUOUS
 10
16.2466675525
 20
23.7885667913
 11
16.0913364268
 21
23.7339406208
 12
16.2867385518
 22
23.8138277295
 13
16.2867385518
 23
23.8138277295
  0
SOLID
  8
___SYMBOL
 62
2
  6
CONTINUOUS
 10
16.2867385518
 20
23.8138277295
 11
16.0913364268
 21
23.7339406208
 12
16.3185678349
 22
23.8489090168
 13
16.3185678349
 23
23.8489090168
  0
SOLID
  8
___SYMBOL
 62
2
  6
CONTINUOUS
 10
16.3185678349
 20
23.8489090168
 11
16.0913364268
 21
23.7339406208
 12
16.1436761769
 22
23.8732159315
 13
16.1436761769
 23
23.8732159315
  0
SOLID
  8
___SYMBOL
 62
2
  6
CONTINUOUS
 10
16.0913364268
 20
23.7339406208
 11
15.9406806042
 21
23.53698425
 12
16.1436761769
 22
23.8732159315
 13
16.1436761769
 23
23.8732159315
  0
SOLID
  8
___SYMBOL
 62
2
  6
CONTINUOUS
 10
16.1436761769
 20
23.8732159315
 11
15.9406806042
 21
23.53698425
 12
16.0913364268
 22
23.8732159315
 13
16.0913364268
 23
23.8732159315
  0
SOLID
  8
___SYMBOL
 62
2
  6
CONTINUOUS
 10
16.0913364268
 20
23.8732159315
 11
15.9406806042
 21
23.53698425
 12
16.0913364268
 22
23.980319066
 13
16.0913364268
 23
23.980319066
  0
SOLID
  8
___SYMBOL
 62
2
  6
CONTINUOUS
 10
16.3452761678
 20
23.9849484015
 11
16.0913364268
 21
23.980319066
 12
16.3290731477
 22
24.0294597722
 13
16.3290731477
 23
24.0294597722
  0
SOLID
  8
___SYMBOL
 62
2
  6
CONTINUOUS
 10
16.3290731477
 20
24.0294597722
 11
16.0913364268
 21
23.980319066
 12
16.3015272742
 22
24.0679957922
 13
16.3015272742
 23
24.0679957922
  0
SOLID
  8
___SYMBOL
 62
2
  6
CONTINUOUS
 10
16.3015272742
 20
24.0679957922
 11
16.0913364268
 21
23.980319066
 12
16.2646563659
 22
24.0977335813
 13
16.2646563659
 23
24.0977335813
  0
SOLID
  8
___SYMBOL
 62
2
  6
CONTINUOUS
 10
16.2646563659
 20
24.0977335813
 11
16.0913364268
 21
23.980319066
 12
16.2211613284
 22
24.1164947565
 13
16.2211613284
 23
24.1164947565
  0
SOLID
  8
___SYMBOL
 62
2
  6
CONTINUOUS
 10
16.2211613284
 20
24.1164947565
 11
16.0913364268
 21
23.980319066
 12
15.9406806042
 22
24.1228978993
 13
15.9406806042
 23
24.1228978993
  0
SOLID
  8
___SYMBOL
 62
2
  6
CONTINUOUS
 10
15.9406806042
 20
23.53698425
 11
15.9406806042
 21
24.1228978993
 12
16.0913364268
 22
23.980319066
 13
16.0913364268
 23
23.980319066
  0
SOLID
  8
___SYMBOL
 62
2
  6
CONTINUOUS
 10
16.0913364268
 20
23.7339406208
 11
16.0913364268
 21
23.53698425
 12
15.9406806042
 22
23.53698425
 13
15.9406806042
 23
23.53698425
  0
SOLID
  8
___SYMBOL
 62
2
  6
CONTINUOUS
 10
16.0913364268
 20
23.7339406208
 11
16.2466675525
 21
23.7885667913
 12
16.2161598559
 22
23.53698425
 13
16.2161598559
 23
23.53698425
  0
SOLID
  8
___SYMBOL
 62
2
  6
CONTINUOUS
 10
16.2466675525
 20
23.7885667913
 11
16.4061107955
 21
23.53698425
 12
16.2161598559
 22
23.53698425
 13
16.2161598559
 23
23.53698425
  0
CIRCLE
  8
___SYMBOL
 62
2
  6
CONTINUOUS
 10
16.5468807701
 20
23.53698425
 40
0.0653578721
  0
LINE
  8
___SYMBOL
 62
2
  6
CONTINUOUS
 10
16.5425927469
 20
23.5364465005
 11
16.5744607596
 21
23.5041435592
  0
LINE
  8
___SYMBOL
 62
2
  6
CONTINUOUS
 10
16.5309947707
 20
23.5041435592
 11
16.5309947707
 21
23.5701097581
  0
LINE
  8
___SYMBOL
 62
2
  6
CONTINUOUS
 10
16.5309947707
 20
23.5701097581
 11
16.5552741036
 21
23.5701097581
  0
ARC
  8
___SYMBOL
 62
2
  6
CONTINUOUS
 10
16.5552741036
 20
23.5532783084
 40
0.0168314496
 50
270.0
 51
90.0
  0
LINE
  8
___SYMBOL
 62
2
  6
CONTINUOUS
 10
16.5552741036
 20
23.5364465005
 11
16.5309947707
 21
23.5364465005
  0
ENDBLK
  8
0
  6
BYBLOCK
 62
0
  0
BLOCK
  8
0
  2
_FILLED
 70
64
 10
0.0
 20
0.0
  0
SOLID
  8
0
  6
BYBLOCK
 62
0
 10
0.0
 20
0.0
 11
-1.0
 21
0.1666666667
 12
-1.0
 22
-0.1666666667
 13
-1.0
 23
-0.1666666667
  0
ENDBLK
  8
0
  6
BYBLOCK
 62
0
  0
BLOCK
  8
0
 62
2
  6
CONTINUOUS
  2
*D0
 70
65
 10
0.0
 20
0.0
  0
TEXT
  8
0
 62
2
  6
CONTINUOUS
 10
20.2076410021
 20
18.756731395
  7
STANDARD
 40
0.15625
  1
13-1/16
 41
0.8
 72
1
 11
20.6451410021
 21
18.756731395
  0
TEXT
  8
0
 62
2
  6
CONTINUOUS
 10
20.0826410021
 20
18.522356395
  7
STANDARD
 40
0.15625
  1
[33,5 cm]
 41
0.8
 72
1
 11
20.6451410021
 21
18.522356395
  0
LINE
  8
0
 62
2
  6
CONTINUOUS
 10
21.9582360661
 20
12.302856395
 11
20.5201410021
 21
12.302856395
  0
LINE
  8
0
 62
2
  6
CONTINUOUS
 10
21.9582360661
 20
25.366856395
 11
20.5201410021
 21
25.366856395
  0
LINE
  8
0
 62
2
  6
CONTINUOUS
 10
20.6451410021
 20
12.302856395
 11
20.6451410021
 21
18.444231395
  0
LINE
  8
0
 62
2
  6
CONTINUOUS
 10
20.6451410021
 20
25.366856395
 11
20.6451410021
 21
18.991106395
  0
INSERT
  8
0
 62
2
  6
CONTINUOUS
  2
_FILLED
 10
20.6451410021
 20
12.302856395
 41
0.1875
 42
0.1875
 43
0.1875
 50
270.0
  0
INSERT
  8
0
 62
2
  6
CONTINUOUS
  2
_FILLED
 10
20.6451410021
 20
25.366856395
 41
0.1875
 42
0.1875
 43
0.1875
 50
90.0
  0
ENDBLK
  8
0
  6
BYBLOCK
 62
0
  0
BLOCK
  8
0
 62
2
  6
CONTINUOUS
  2
*D1
 70
65
 10
0.0
 20
0.0
  0
TEXT
  8
0
 62
2
  6
CONTINUOUS
 10
21.9529533609
 20
19.7675256171
  7
STANDARD
 40
0.15625
  1
19-9/16
 41
0.8
 72
1
 11
22.3904533609
 21
19.7675256171
  0
TEXT
  8
0
 62
2
  6
CONTINUOUS
 10
21.9529533609
 20
19.5331506171
  7
STANDARD
 40
0.15625
  1
[50 cm]
 41
0.8
 72
1
 11
22.3904533609
 21
19.5331506171
  0
LINE
  8
0
 62
2
  6
CONTINUOUS
 10
12.2367360661
 20
18.897356395
 11
12.2367360661
 21
19.9706506171
  0
LINE
  8
0
 62
2
  6
CONTINUOUS
 10
31.8043782992
 20
18.897356395
 11
31.8043782992
 21
19.9706506171
  0
LINE
  8
0
 62
2
  6
CONTINUOUS
 10
12.2367360661
 20
19.8456506171
 11
21.8748283609
 21
19.8456506171
  0
LINE
  8
0
 62
2
  6
CONTINUOUS
 10
31.8043782992
 20
19.8456506171
 11
22.9060783609
 21
19.8456506171
  0
INSERT
  8
0
 62
2
  6
CONTINUOUS
  2
_FILLED
 10
12.2367360661
 20
19.8456506171
 41
0.1875
 42
0.1875
 43
0.1875
 50
180.0
  0
INSERT
  8
0
 62
2
  6
CONTINUOUS
  2
_FILLED
 10
31.8043782992
 20
19.8456506171
 41
0.1875
 42
0.1875
 43
0.1875
  0
ENDBLK
  8
0
  6
BYBLOCK
 62
0
  0
ENDSEC
  0
SECTION
  2
ENTITIES
  0
DIMENSION
  8
0
 62
2
  6
CONTINUOUS
  2
*D0
 10
20.6451410021
 20
25.366856395
 11
20.6451410021
 21
18.717668895
 70
128
 13
22.0207360661
 23
12.302856395
 14
22.0207360661
 24
25.366856395
 50
90.0
  0
DIMENSION
  8
0
 62
2
  6
CONTINUOUS
  2
*D1
 10
31.8043782992
 20
19.8456506171
 11
22.3904533609
 21
19.7284631171
 70
128
 13
12.2367360661
 23
18.834856395
 14
31.8043782992
 24
18.834856395
  0
TEXT
  8
___NOTE
 62
2
  6
CONTINUOUS
 10
29.3858551273
 20
22.9679779648
  7
STANDARD
 40
0.15625
  1
RIM OF LAV
 41
0.8
 72
2
 11
30.6358551273
 21
22.9679779648
  0
TEXT
  8
___NOTE
 62
2
  6
CONTINUOUS
 10
28.6358551273
 20
22.7336029648
  7
STANDARD
 40
0.15625
  1
REBORD DU LAVABO
 41
0.8
 72
2
 11
30.6358551273
 21
22.7336029648
  0
TEXT
  8
___NOTE
 62
2
  6
CONTINUOUS
 10
28.6358551273
 20
22.4992279648
  7
STANDARD
 40
0.15625
  1
BORDE DEL LAVABO
 41
0.8
 72
2
 11
30.6358551273
 21
22.4992279648
  0
LINE
  8
___NOTE
 62
2
  6
CONTINUOUS
 10
32.4502292681
 20
23.5846858786
 11
30.8858551273
 21
23.0461029648
  0
LINE
  8
___NOTE
 62
2
  6
CONTINUOUS
 10
30.8858551273
 20
23.0461029648
 11
30.6358551273
 21
23.0461029648
  0
SOLID
  8
___NOTE
 62
2
  6
CONTINUOUS
 10
32.2831146935
 20
23.49410149
 11
32.4502292681
 21
23.5846858786
 12
32.2627691931
 22
23.5531972649
 13
32.2627691931
 23
23.5531972649
  0
TEXT
  8
___NOTE
 62
2
  6
CONTINUOUS
 10
27.0374698689
 20
21.564401583
  7
STANDARD
 40
0.15625
  1
FOR SELF-RIMMING INSTALLATION
 41
0.8
 72
2
 11
30.6624698689
 21
21.564401583
  0
TEXT
  8
___NOTE
 62
2
  6
CONTINUOUS
 10
28.2874698689
 20
21.330026583
  7
STANDARD
 40
0.15625
  1
CUT ALONG THIS LINE
 41
0.8
 72
2
 11
30.6624698689
 21
21.330026583
  0
TEXT
  8
___NOTE
 62
2
  6
CONTINUOUS
 10
26.2874698689
 20
21.095651583
  7
STANDARD
 40
0.15625
  1
POUR INSTALLATION À REBORD INTÉGRÉ 
 41
0.8
 72
2
 11
30.6624698689
 21
21.095651583
  0
TEXT
  8
___NOTE
 62
2
  6
CONTINUOUS
 10
26.7874698689
 20
20.861276583
  7
STANDARD
 40
0.15625
  1
DÉCOUPER LE LONG DE CETTE LIGNE
 41
0.8
 72
2
 11
30.6624698689
 21
20.861276583
  0
TEXT
  8
___NOTE
 62
2
  6
CONTINUOUS
 10
26.0374698689
 20
20.626901583
  7
STANDARD
 40
0.15625
  1
PARA INSTALACIÓN DE BORDE TERMINADO, 
 41
0.8
 72
2
 11
30.6624698689
 21
20.626901583
  0
TEXT
  8
___NOTE
 62
2
  6
CONTINUOUS
 10
28.1624698689
 20
20.392526583
  7
STANDARD
 40
0.15625
  1
CORTE POR ESTA LÍNEA
 41
0.8
 72
2
 11
30.6624698689
 21
20.392526583
  0
LINE
  8
___NOTE
 62
2
  6
CONTINUOUS
 10
31.5730001532
 20
22.2287933214
 11
30.9124698689
 21
21.642526583
  0
LINE
  8
___NOTE
 62
2
  6
CONTINUOUS
 10
30.9124698689
 20
21.642526583
 11
30.6624698689
 21
21.642526583
  0
SOLID
  8
___NOTE
 62
2
  6
CONTINUOUS
 10
31.4535132363
 20
22.0809566236
 11
31.5730001532
 21
22.2287933214
 12
31.4120249515
 22
22.1277003101
 13
31.4120249515
 23
22.1277003101
  0
INSERT
  8
___SYMBOL
 62
2
  6
CONTINUOUS
  2
SYMBOL_33_BL0
 10
16.1836191859
 20
22.128622641
  0
INSERT
  8
___SYMBOL
 62
2
  6
CONTINUOUS
  2
SYMBOL_3_BL1
 10
25.0852394627
 20
13.0555860127
  0
INSERT
  8
___SYMBOL
 62
2
  6
CONTINUOUS
  2
SYMBOL_9_BL2
 10
15.0084159723
 20
13.3998223367
  0
INSERT
  8
___SYMBOL
 62
2
  6
CONTINUOUS
  2
SYMBOL_10_BL3
 10
14.9782541965
 20
11.0112549918
  0
INSERT
  8
___SYMBOL
 62
2
  6
CONTINUOUS
  2
SYMBOL_12_BL4
 10
26.8657482131
 20
15.3472905825
  0
INSERT
  8
___SYMBOL
 62
2
  6
CONTINUOUS
  2
SYMBOL_45_BL5
 10
31.800320153
 20
18.8003261103
  0
LINE
  8
DEFAULT_1
 62
2
  6
CENTER
 10
22.0207312453
 20
26.622187538
 11
22.0207375376
 21
24.8285094602
  0
LINE
  8
DEFAULT_1
 62
2
  6
CENTER
 10
22.0207788134
 20
13.0624828942
 11
22.0207864603
 21
10.8826653972
  0
LINE
  8
DEFAULT_1
 62
2
  6
CENTER
 10
11.1166917016
 20
18.8348522403
 11
12.8306501463
 21
18.834858253
  0
LINE
  8
DEFAULT_1
 62
2
  6
CENTER
 10
30.8820210545
 20
18.8349215781
 11
33.0929786781
 21
18.8349293342
  0
LINE
  8
_CURVE
 62
8
  6
PHANTOM
 10
11.6177561312
 20
16.0212260729
 11
11.6177561312
 21
21.6484867171
  0
POLYLINE
  8
_CURVE
 62
8
  6
PHANTOM
 66
1
 70
0
  0
VERTEX
  8
_CURVE
 62
8
  6
PHANTOM
 10
11.6177561312
 20
16.0212260729
  0
VERTEX
  8
_CURVE
 62
8
  6
PHANTOM
 10
11.6118146861
 20
15.6340656673
  0
VERTEX
  8
_CURVE
 62
8
  6
PHANTOM
 10
11.605720383
 20
15.2468530972
  0
VERTEX
  8
_CURVE
 62
8
  6
PHANTOM
 10
11.5999454757
 20
14.8596008138
  0
VERTEX
  8
_CURVE
 62
8
  6
PHANTOM
 10
11.5949622182
 20
14.4723212681
  0
VERTEX
  8
_CURVE
 62
8
  6
PHANTOM
 10
11.5912428642
 20
14.0850269114
  0
VERTEX
  8
_CURVE
 62
8
  6
PHANTOM
 10
11.5904845368
 20
13.9549946435
  0
VERTEX
  8
_CURVE
 62
8
  6
PHANTOM
 10
11.5906872279
 20
13.8249737692
  0
VERTEX
  8
_CURVE
 62
8
  6
PHANTOM
 10
11.5921103447
 20
13.7146962672
  0
VERTEX
  8
_CURVE
 62
8
  6
PHANTOM
 10
11.5948121056
 20
13.6044322181
  0
VERTEX
  8
_CURVE
 62
8
  6
PHANTOM
 10
11.5988289421
 20
13.4941784864
  0
VERTEX
  8
_CURVE
 62
8
  6
PHANTOM
 10
11.6027193366
 20
13.4122886189
  0
VERTEX
  8
_CURVE
 62
8
  6
PHANTOM
 10
11.607572239
 20
13.3304448825
  0
VERTEX
  8
_CURVE
 62
8
  6
PHANTOM
 10
11.6136043614
 20
13.2486894449
  0
VERTEX
  8
_CURVE
 62
8
  6
PHANTOM
 10
11.6210324156
 20
13.1670644742
  0
VERTEX
  8
_CURVE
 62
8
  6
PHANTOM
 10
11.6300731135
 20
13.0856121384
  0
VERTEX
  8
_CURVE
 62
8
  6
PHANTOM
 10
11.6409431671
 20
13.0043746052
  0
VERTEX
  8
_CURVE
 62
8
  6
PHANTOM
 10
11.6510405462
 20
12.939962664
  0
VERTEX
  8
_CURVE
 62
8
  6
PHANTOM
 10
11.6625617555
 20
12.8757803746
  0
VERTEX
  8
_CURVE
 62
8
  6
PHANTOM
 10
11.6756367736
 20
12.8118948909
  0
VERTEX
  8
_CURVE
 62
8
  6
PHANTOM
 10
11.6903955788
 20
12.7483733668
  0
VERTEX
  8
_CURVE
 62
8
  6
PHANTOM
 10
11.7069681496
 20
12.685282956
  0
VERTEX
  8
_CURVE
 62
8
  6
PHANTOM
 10
11.7254844644
 20
12.6226908125
  0
VERTEX
  8
_CURVE
 62
8
  6
PHANTOM
 10
11.7412334001
 20
12.5746271505
  0
VERTEX
  8
_CURVE
 62
8
  6
PHANTOM
 10
11.7582675509
 20
12.5269795066
  0
VERTEX
  8
_CURVE
 62
8
  6
PHANTOM
 10
11.7766293102
 20
12.4798250312
  0
VERTEX
  8
_CURVE
 62
8
  6
PHANTOM
 10
11.7963610713
 20
12.4332408748
  0
VERTEX
  8
_CURVE
 62
8
  6
PHANTOM
 10
11.8175052277
 20
12.3873041878
  0
VERTEX
  8
_CURVE
 62
8
  6
PHANTOM
 10
11.8401041728
 20
12.3420921205
  0
VERTEX
  8
_CURVE
 62
8
  6
PHANTOM
 10
11.8642003
 20
12.2976818235
  0
VERTEX
  8
_CURVE
 62
8
  6
PHANTOM
 10
11.8898360026
 20
12.2541504471
  0
VERTEX
  8
_CURVE
 62
8
  6
PHANTOM
 10
11.9144963939
 20
12.2154251917
  0
VERTEX
  8
_CURVE
 62
8
  6
PHANTOM
 10
11.9404656172
 20
12.1775686162
  0
VERTEX
  8
_CURVE
 62
8
  6
PHANTOM
 10
11.9677462888
 20
12.1406599822
  0
VERTEX
  8
_CURVE
 62
8
  6
PHANTOM
 10
11.9963410246
 20
12.1047785512
  0
VERTEX
  8
_CURVE
 62
8
  6
PHANTOM
 10
12.0262524409
 20
12.0700035847
  0
VERTEX
  8
_CURVE
 62
8
  6
PHANTOM
 10
12.0558918506
 20
12.0380466029
  0
VERTEX
  8
_CURVE
 62
8
  6
PHANTOM
 10
12.0866758913
 20
12.0071824562
  0
VERTEX
  8
_CURVE
 62
8
  6
PHANTOM
 10
12.1185577584
 20
11.9774331693
  0
VERTEX
  8
_CURVE
 62
8
  6
PHANTOM
 10
12.1514906471
 20
11.9488207669
  0
VERTEX
  8
_CURVE
 62
8
  6
PHANTOM
 10
12.185427753
 20
11.9213672738
  0
VERTEX
  8
_CURVE
 62
8
  6
PHANTOM
 10
12.2237616185
 20
11.8926137515
  0
VERTEX
  8
_CURVE
 62
8
  6
PHANTOM
 10
12.2631883343
 20
11.8653554665
  0
VERTEX
  8
_CURVE
 62
8
  6
PHANTOM
 10
12.3036482946
 20
11.8396661431
  0
VERTEX
  8
_CURVE
 62
8
  6
PHANTOM
 10
12.3450818939
 20
11.8156195053
  0
VERTEX
  8
_CURVE
 62
8
  6
PHANTOM
 10
12.3874295266
 20
11.7932892775
  0
VERTEX
  8
_CURVE
 62
8
  6
PHANTOM
 10
12.4306315868
 20
11.7727491837
  0
VERTEX
  8
_CURVE
 62
8
  6
PHANTOM
 10
12.469173571
 20
11.7562325239
  0
VERTEX
  8
_CURVE
 62
8
  6
PHANTOM
 10
12.5082375246
 20
11.7410061772
  0
VERTEX
  8
_CURVE
 62
8
  6
PHANTOM
 10
12.5477339142
 20
11.7269264815
  0
VERTEX
  8
_CURVE
 62
8
  6
PHANTOM
 10
12.6040975311
 20
11.7087689264
  0
VERTEX
  8
_CURVE
 62
8
  6
PHANTOM
 10
12.6610490298
 20
11.6925090652
  0
VERTEX
  8
_CURVE
 62
8
  6
PHANTOM
 10
12.7184924947
 20
11.6780444863
  0
VERTEX
  8
_CURVE
 62
8
  6
PHANTOM
 10
12.7763320105
 20
11.6652727778
  0
VERTEX
  8
_CURVE
 62
8
  6
PHANTOM
 10
12.8427890779
 20
11.6526126512
  0
VERTEX
  8
_CURVE
 62
8
  6
PHANTOM
 10
12.9095646944
 20
11.6418236925
  0
VERTEX
  8
_CURVE
 62
8
  6
PHANTOM
 10
12.9765856166
 20
11.6327009074
  0
VERTEX
  8
_CURVE
 62
8
  6
PHANTOM
 10
13.0427424742
 20
11.6251508052
  0
VERTEX
  8
_CURVE
 62
8
  6
PHANTOM
 10
13.1090298932
 20
11.6188389613
  0
VERTEX
  8
_CURVE
 62
8
  6
PHANTOM
 10
13.1754116619
 20
11.6135873702
  0
VERTEX
  8
_CURVE
 62
8
  6
PHANTOM
 10
13.276464502
 20
11.6072910605
  0
VERTEX
  8
_CURVE
 62
8
  6
PHANTOM
 10
13.3776067441
 20
11.6027549614
  0
VERTEX
  8
_CURVE
 62
8
  6
PHANTOM
 10
13.4942164342
 20
11.5992434947
  0
VERTEX
  8
_CURVE
 62
8
  6
PHANTOM
 10
13.7688417317
 20
11.593246851
  0
SEQEND
  0
POLYLINE
  8
_CURVE
 62
7
  6
CONTINUOUS
 66
1
 70
0
  0
VERTEX
  8
_CURVE
 62
7
  6
CONTINUOUS
 10
12.2370937336
 20
17.7476230753
  0
VERTEX
  8
_CURVE
 62
7
  6
CONTINUOUS
 10
12.2372558591
 20
17.6744974302
  0
VERTEX
  8
_CURVE
 62
7
  6
CONTINUOUS
 10
12.2376110075
 20
17.601363095
  0
VERTEX
  8
_CURVE
 62
7
  6
CONTINUOUS
 10
12.2382232602
 20
17.528229188
  0
VERTEX
  8
_CURVE
 62
7
  6
CONTINUOUS
 10
12.2391566986
 20
17.4551048273
  0
VERTEX
  8
_CURVE
 62
7
  6
CONTINUOUS
 10
12.240475404
 20
17.3819991307
  0
VERTEX
  8
_CURVE
 62
7
  6
CONTINUOUS
 10
12.2422434578
 20
17.3089212166
  0
VERTEX
  8
_CURVE
 62
7
  6
CONTINUOUS
 10
12.2445249415
 20
17.2358802028
  0
VERTEX
  8
_CURVE
 62
7
  6
CONTINUOUS
 10
12.2473839365
 20
17.1628852075
  0
VERTEX
  8
_CURVE
 62
7
  6
CONTINUOUS
 10
12.250884524
 20
17.0899453488
  0
VERTEX
  8
_CURVE
 62
7
  6
CONTINUOUS
 10
12.2550907855
 20
17.0170697448
  0
VERTEX
  8
_CURVE
 62
7
  6
CONTINUOUS
 10
12.2600668024
 20
16.9442675135
  0
VERTEX
  8
_CURVE
 62
7
  6
CONTINUOUS
 10
12.2658766561
 20
16.8715477729
  0
VERTEX
  8
_CURVE
 62
7
  6
CONTINUOUS
 10
12.2725844279
 20
16.7989196412
  0
VERTEX
  8
_CURVE
 62
7
  6
CONTINUOUS
 10
12.2802541993
 20
16.7263922365
  0
VERTEX
  8
_CURVE
 62
7
  6
CONTINUOUS
 10
12.2889500515
 20
16.6539746767
  0
VERTEX
  8
_CURVE
 62
7
  6
CONTINUOUS
 10
12.2987360661
 20
16.5816760801
  0
SEQEND
  0
POLYLINE
  8
_CURVE
 62
7
  6
CONTINUOUS
 66
1
 70
0
  0
VERTEX
  8
_CURVE
 62
7
  6
CONTINUOUS
 10
12.2368297121
 20
18.3078895094
  0
VERTEX
  8
_CURVE
 62
7
  6
CONTINUOUS
 10
12.2371246808
 20
17.9668566904
  0
VERTEX
  8
_CURVE
 62
7
  6
CONTINUOUS
 10
12.2370937336
 20
17.7476230753
  0
SEQEND
  0
POLYLINE
  8
_CURVE
 62
7
  6
CONTINUOUS
 66
1
 70
0
  0
VERTEX
  8
_CURVE
 62
7
  6
CONTINUOUS
 10
12.236683252
 20
19.096969854
  0
VERTEX
  8
_CURVE
 62
7
  6
CONTINUOUS
 10
12.2367129229
 20
18.5730028178
  0
VERTEX
  8
_CURVE
 62
7
  6
CONTINUOUS
 10
12.2368297121
 20
18.3078895094
  0
SEQEND
  0
POLYLINE
  8
_CURVE
 62
7
  6
CONTINUOUS
 66
1
 70
0
  0
VERTEX
  8
_CURVE
 62
7
  6
CONTINUOUS
 10
12.2370043018
 20
19.630856395
  0
VERTEX
  8
_CURVE
 62
7
  6
CONTINUOUS
 10
12.2367701442
 20
19.362416658
  0
VERTEX
  8
_CURVE
 62
7
  6
CONTINUOUS
 10
12.236683252
 20
19.096969854
  0
SEQEND
  0
POLYLINE
  8
_CURVE
 62
7
  6
CONTINUOUS
 66
1
 70
0
  0
VERTEX
  8
_CURVE
 62
7
  6
CONTINUOUS
 10
12.2987360661
 20
21.085276612
  0
VERTEX
  8
_CURVE
 62
7
  6
CONTINUOUS
 10
12.2889436342
 20
21.0130530443
  0
VERTEX
  8
_CURVE
 62
7
  6
CONTINUOUS
 10
12.2802405394
 20
20.9407337067
  0
VERTEX
  8
_CURVE
 62
7
  6
CONTINUOUS
 10
12.2725628719
 20
20.868325834
  0
VERTEX
  8
_CURVE
 62
7
  6
CONTINUOUS
 10
12.2658467219
 20
20.7958366605
  0
VERTEX
  8
_CURVE
 62
7
  6
CONTINUOUS
 10
12.2600281796
 20
20.7232734209
  0
VERTEX
  8
_CURVE
 62
7
  6
CONTINUOUS
 10
12.2550433352
 20
20.6506433498
  0
VERTEX
  8
_CURVE
 62
7
  6
CONTINUOUS
 10
12.2508282788
 20
20.5779536817
  0
VERTEX
  8
_CURVE
 62
7
  6
CONTINUOUS
 10
12.2473191008
 20
20.5052116511
  0
VERTEX
  8
_CURVE
 62
7
  6
CONTINUOUS
 10
12.2444518912
 20
20.4324244926
  0
VERTEX
  8
_CURVE
 62
7
  6
CONTINUOUS
 10
12.2421627403
 20
20.3595994409
  0
VERTEX
  8
_CURVE
 62
7
  6
CONTINUOUS
 10
12.2403877382
 20
20.2867437304
  0
VERTEX
  8
_CURVE
 62
7
  6
CONTINUOUS
 10
12.2390629753
 20
20.2138645957
  0
VERTEX
  8
_CURVE
 62
7
  6
CONTINUOUS
 10
12.2381245416
 20
20.1409692714
  0
VERTEX
  8
_CURVE
 62
7
  6
CONTINUOUS
 10
12.2375085273
 20
20.068064992
  0
VERTEX
  8
_CURVE
 62
7
  6
CONTINUOUS
 10
12.2371510228
 20
19.9951589921
  0
VERTEX
  8
_CURVE
 62
7
  6
CONTINUOUS
 10
12.2369881181
 20
19.9222585063
  0
VERTEX
  8
_CURVE
 62
7
  6
CONTINUOUS
 10
12.2370043018
 20
19.630856395
  0
SEQEND
  0
POLYLINE
  8
_CURVE
 62
7
  6
CONTINUOUS
 66
1
 70
0
  0
VERTEX
  8
_CURVE
 62
7
  6
CONTINUOUS
 10
12.5175003708
 20
22.5637297886
  0
VERTEX
  8
_CURVE
 62
7
  6
CONTINUOUS
 10
12.4879835483
 20
22.3554697908
  0
VERTEX
  8
_CURVE
 62
7
  6
CONTINUOUS
 10
12.4552834296
 20
22.1279599125
  0
VERTEX
  8
_CURVE
 62
7
  6
CONTINUOUS
 10
12.41867258
 20
21.8787330936
  0
VERTEX
  8
_CURVE
 62
7
  6
CONTINUOUS
 10
12.3773477694
 20
21.6058318374
  0
VERTEX
  8
_CURVE
 62
7
  6
CONTINUOUS
 10
12.3540857288
 20
21.4545980191
  0
VERTEX
  8
_CURVE
 62
7
  6
CONTINUOUS
 10
12.3309112746
 20
21.3029203758
  0
VERTEX
  8
_CURVE
 62
7
  6
CONTINUOUS
 10
12.2987360661
 20
21.085276612
  0
SEQEND
  0
POLYLINE
  8
_CURVE
 62
7
  6
CONTINUOUS
 66
1
 70
0
  0
VERTEX
  8
_CURVE
 62
7
  6
CONTINUOUS
 10
12.3333575501
 20
16.3477507905
  0
VERTEX
  8
_CURVE
 62
7
  6
CONTINUOUS
 10
12.3995439173
 20
15.91411046
  0
VERTEX
  8
_CURVE
 62
7
  6
CONTINUOUS
 10
12.4369131972
 20
15.662375874
  0
VERTEX
  8
_CURVE
 62
7
  6
CONTINUOUS
 10
12.4700538352
 20
15.4333305663
  0
VERTEX
  8
_CURVE
 62
7
  6
CONTINUOUS
 10
12.4997691538
 20
15.224395514
  0
SEQEND
  0
POLYLINE
  8
_CURVE
 62
7
  6
CONTINUOUS
 66
1
 70
0
  0
VERTEX
  8
_CURVE
 62
7
  6
CONTINUOUS
 10
12.2987360661
 20
16.5816760801
  0
VERTEX
  8
_CURVE
 62
7
  6
CONTINUOUS
 10
12.3100960674
 20
16.5033780226
  0
VERTEX
  8
_CURVE
 62
7
  6
CONTINUOUS
 10
12.3333575501
 20
16.3477507905
  0
SEQEND
  0
POLYLINE
  8
_CURVE
 62
7
  6
CONTINUOUS
 66
1
 70
0
  0
VERTEX
  8
_CURVE
 62
7
  6
CONTINUOUS
 10
12.4997691538
 20
15.224395514
  0
VERTEX
  8
_CURVE
 62
7
  6
CONTINUOUS
 10
12.5512623937
 20
14.8582112557
  0
VERTEX
  8
_CURVE
 62
7
  6
CONTINUOUS
 10
12.5739591674
 20
14.6974239299
  0
VERTEX
  8
_CURVE
 62
7
  6
CONTINUOUS
 10
12.5950761271
 20
14.5495907703
  0
VERTEX
  8
_CURVE
 62
7
  6
CONTINUOUS
 10
12.6148279499
 20
14.4135257733
  0
VERTEX
  8
_CURVE
 62
7
  6
CONTINUOUS
 10
12.6333893175
 20
14.2880903234
  0
VERTEX
  8
_CURVE
 62
7
  6
CONTINUOUS
 10
12.6509688177
 20
14.1722557115
  0
VERTEX
  8
_CURVE
 62
7
  6
CONTINUOUS
 10
12.6677213386
 20
14.0653178469
  0
VERTEX
  8
_CURVE
 62
7
  6
CONTINUOUS
 10
12.6838822659
 20
13.9662541157
  0
VERTEX
  8
_CURVE
 62
7
  6
CONTINUOUS
 10
12.6999339921
 20
13.8743505877
  0
VERTEX
  8
_CURVE
 62
7
  6
CONTINUOUS
 10
12.7161581506
 20
13.7895341378
  0
VERTEX
  8
_CURVE
 62
7
  6
CONTINUOUS
 10
12.7326827709
 20
13.7115848033
  0
VERTEX
  8
_CURVE
 62
7
  6
CONTINUOUS
 10
12.7495949109
 20
13.6400093261
  0
VERTEX
  8
_CURVE
 62
7
  6
CONTINUOUS
 10
12.7669230799
 20
13.574448348
  0
VERTEX
  8
_CURVE
 62
7
  6
CONTINUOUS
 10
12.7846059186
 20
13.5145284642
  0
VERTEX
  8
_CURVE
 62
7
  6
CONTINUOUS
 10
12.8026039546
 20
13.4597861329
  0
VERTEX
  8
_CURVE
 62
7
  6
CONTINUOUS
 10
12.820787414
 20
13.4099441374
  0
VERTEX
  8
_CURVE
 62
7
  6
CONTINUOUS
 10
12.8390424565
 20
13.364583295
  0
VERTEX
  8
_CURVE
 62
7
  6
CONTINUOUS
 10
12.8573686974
 20
13.3231451817
  0
VERTEX
  8
_CURVE
 62
7
  6
CONTINUOUS
 10
12.8756879158
 20
13.2853650068
  0
VERTEX
  8
_CURVE
 62
7
  6
CONTINUOUS
 10
12.8938261155
 20
13.2511143074
  0
VERTEX
  8
_CURVE
 62
7
  6
CONTINUOUS
 10
12.9116180162
 20
13.2201998802
  0
VERTEX
  8
_CURVE
 62
7
  6
CONTINUOUS
 10
12.9288763241
 20
13.192454875
  0
VERTEX
  8
_CURVE
 62
7
  6
CONTINUOUS
 10
12.9453469654
 20
13.1678135456
  0
VERTEX
  8
_CURVE
 62
7
  6
CONTINUOUS
 10
12.960773144
 20
13.1462068411
  0
VERTEX
  8
_CURVE
 62
7
  6
CONTINUOUS
 10
12.975159969
 20
13.1272307016
  0
VERTEX
  8
_CURVE
 62
7
  6
CONTINUOUS
 10
12.9888505555
 20
13.1101466799
  0
VERTEX
  8
_CURVE
 62
7
  6
CONTINUOUS
 10
13.0024043189
 20
13.0941049676
  0
VERTEX
  8
_CURVE
 62
7
  6
CONTINUOUS
 10
13.0163688945
 20
13.0784256863
  0
VERTEX
  8
_CURVE
 62
7
  6
CONTINUOUS
 10
13.0309638882
 20
13.062901423
  0
VERTEX
  8
_CURVE
 62
7
  6
CONTINUOUS
 10
13.0461180268
 20
13.0476577884
  0
VERTEX
  8
_CURVE
 62
7
  6
CONTINUOUS
 10
13.0617373763
 20
13.0328222973
  0
VERTEX
  8
_CURVE
 62
7
  6
CONTINUOUS
 10
13.0779260776
 20
13.018325069
  0
VERTEX
  8
_CURVE
 62
7
  6
CONTINUOUS
 10
13.0952771722
 20
13.0036964903
  0
VERTEX
  8
_CURVE
 62
7
  6
CONTINUOUS
 10
13.1148731503
 20
12.9882009147
  0
VERTEX
  8
_CURVE
 62
7
  6
CONTINUOUS
 10
13.1377037886
 20
12.971388258
  0
VERTEX
  8
_CURVE
 62
7
  6
CONTINUOUS
 10
13.163884396
 20
12.9535893739
  0
VERTEX
  8
_CURVE
 62
7
  6
CONTINUOUS
 10
13.1927548824
 20
12.9356092893
  0
VERTEX
  8
_CURVE
 62
7
  6
CONTINUOUS
 10
13.2240551687
 20
12.9178554742
  0
VERTEX
  8
_CURVE
 62
7
  6
CONTINUOUS
 10
13.2582018668
 20
12.9003197232
  0
VERTEX
  8
_CURVE
 62
7
  6
CONTINUOUS
 10
13.2947698829
 20
12.8834246635
  0
VERTEX
  8
_CURVE
 62
7
  6
CONTINUOUS
 10
13.331977582
 20
12.8680129973
  0
VERTEX
  8
_CURVE
 62
7
  6
CONTINUOUS
 10
13.3687115955
 20
12.8543628201
  0
VERTEX
  8
_CURVE
 62
7
  6
CONTINUOUS
 10
13.4049996927
 20
12.8422377094
  0
VERTEX
  8
_CURVE
 62
7
  6
CONTINUOUS
 10
13.4410192358
 20
12.8313917368
  0
VERTEX
  8
_CURVE
 62
7
  6
CONTINUOUS
 10
13.476773011
 20
12.8216663368
  0
VERTEX
  8
_CURVE
 62
7
  6
CONTINUOUS
 10
13.5120784107
 20
12.8129613174
  0
VERTEX
  8
_CURVE
 62
7
  6
CONTINUOUS
 10
13.5470474496
 20
12.8051197238
  0
VERTEX
  8
_CURVE
 62
7
  6
CONTINUOUS
 10
13.5825773787
 20
12.7978704657
  0
VERTEX
  8
_CURVE
 62
7
  6
CONTINUOUS
 10
13.6200826459
 20
12.7909212342
  0
VERTEX
  8
_CURVE
 62
7
  6
CONTINUOUS
 10
13.6609685559
 20
12.7840675468
  0
VERTEX
  8
_CURVE
 62
7
  6
CONTINUOUS
 10
13.7059254106
 20
12.7772690634
  0
VERTEX
  8
_CURVE
 62
7
  6
CONTINUOUS
 10
13.7548771013
 20
12.7705779679
  0
VERTEX
  8
_CURVE
 62
7
  6
CONTINUOUS
 10
13.8077507883
 20
12.7640141438
  0
VERTEX
  8
_CURVE
 62
7
  6
CONTINUOUS
 10
13.8646988264
 20
12.7575163502
  0
VERTEX
  8
_CURVE
 62
7
  6
CONTINUOUS
 10
13.9260805917
 20
12.7509190206
  0
SEQEND
  0
POLYLINE
  8
_CURVE
 62
7
  6
CONTINUOUS
 66
1
 70
0
  0
VERTEX
  8
_CURVE
 62
7
  6
CONTINUOUS
 10
30.1257228471
 20
12.7532413478
  0
VERTEX
  8
_CURVE
 62
7
  6
CONTINUOUS
 10
30.1821641688
 20
12.7593579283
  0
VERTEX
  8
_CURVE
 62
7
  6
CONTINUOUS
 10
30.2349307404
 20
12.7654139547
  0
VERTEX
  8
_CURVE
 62
7
  6
CONTINUOUS
 10
30.2841505278
 20
12.7715217933
  0
VERTEX
  8
_CURVE
 62
7
  6
CONTINUOUS
 10
30.3296634174
 20
12.7776910705
  0
VERTEX
  8
_CURVE
 62
7
  6
CONTINUOUS
 10
30.3714216682
 20
12.7838956284
  0
VERTEX
  8
_CURVE
 62
7
  6
CONTINUOUS
 10
30.4098915371
 20
12.7901748775
  0
VERTEX
  8
_CURVE
 62
7
  6
CONTINUOUS
 10
30.4460609213
 20
12.7966584351
  0
VERTEX
  8
_CURVE
 62
7
  6
CONTINUOUS
 10
30.4812263659
 20
12.80357668
  0
VERTEX
  8
_CURVE
 62
7
  6
CONTINUOUS
 10
30.5164620049
 20
12.8111897004
  0
VERTEX
  8
_CURVE
 62
7
  6
CONTINUOUS
 10
30.5520998075
 20
12.8196583427
  0
VERTEX
  8
_CURVE
 62
7
  6
CONTINUOUS
 10
30.588062826
 20
12.8290811105
  0
VERTEX
  8
_CURVE
 62
7
  6
CONTINUOUS
 10
30.6243256734
 20
12.8395950986
  0
VERTEX
  8
_CURVE
 62
7
  6
CONTINUOUS
 10
30.6610027984
 20
12.8513977277
  0
VERTEX
  8
_CURVE
 62
7
  6
CONTINUOUS
 10
30.6982550219
 20
12.8647398597
  0
VERTEX
  8
_CURVE
 62
7
  6
CONTINUOUS
 10
30.735537087
 20
12.879629774
  0
VERTEX
  8
_CURVE
 62
7
  6
CONTINUOUS
 10
30.7714320996
 20
12.8955987068
  0
VERTEX
  8
_CURVE
 62
7
  6
CONTINUOUS
 10
30.8049892095
 20
12.912152241
  0
VERTEX
  8
_CURVE
 62
7
  6
CONTINUOUS
 10
30.8361772684
 20
12.9291132026
  0
VERTEX
  8
_CURVE
 62
7
  6
CONTINUOUS
 10
30.8649389041
 20
12.9462623726
  0
VERTEX
  8
_CURVE
 62
7
  6
CONTINUOUS
 10
30.890737369
 20
12.963022173
  0
VERTEX
  8
_CURVE
 62
7
  6
CONTINUOUS
 10
30.9131968939
 20
12.9787891744
  0
VERTEX
  8
_CURVE
 62
7
  6
CONTINUOUS
 10
30.9327433892
 20
12.9934925419
  0
VERTEX
  8
_CURVE
 62
7
  6
CONTINUOUS
 10
30.9503042998
 20
13.0075574846
  0
VERTEX
  8
_CURVE
 62
7
  6
CONTINUOUS
 10
30.9668629067
 20
13.0216328142
  0
VERTEX
  8
_CURVE
 62
7
  6
CONTINUOUS
 10
30.9830610879
 20
13.0362410047
  0
VERTEX
  8
_CURVE
 62
7
  6
CONTINUOUS
 10
30.9988812025
 20
13.0513804573
  0
VERTEX
  8
_CURVE
 62
7
  6
CONTINUOUS
 10
31.0140955454
 20
13.066808027
  0
VERTEX
  8
_CURVE
 62
7
  6
CONTINUOUS
 10
31.0286286512
 20
13.0823919046
  0
VERTEX
  8
_CURVE
 62
7
  6
CONTINUOUS
 10
31.042737655
 20
13.0983657451
  0
VERTEX
  8
_CURVE
 62
7
  6
CONTINUOUS
 10
31.0570498154
 20
13.1154784304
  0
VERTEX
  8
_CURVE
 62
7
  6
CONTINUOUS
 10
31.0722336752
 20
13.1347078989
  0
VERTEX
  8
_CURVE
 62
7
  6
CONTINUOUS
 10
31.0886752633
 20
13.156880743
  0
VERTEX
  8
_CURVE
 62
7
  6
CONTINUOUS
 10
31.1062948391
 20
13.1823486084
  0
VERTEX
  8
_CURVE
 62
7
  6
CONTINUOUS
 10
31.1248104364
 20
13.2112216397
  0
VERTEX
  8
_CURVE
 62
7
  6
CONTINUOUS
 10
31.1440159674
 20
13.2437427918
  0
VERTEX
  8
_CURVE
 62
7
  6
CONTINUOUS
 10
31.1637158651
 20
13.2802072571
  0
VERTEX
  8
_CURVE
 62
7
  6
CONTINUOUS
 10
31.1836805838
 20
13.3208522777
  0
VERTEX
  8
_CURVE
 62
7
  6
CONTINUOUS
 10
31.2036965504
 20
13.3658933019
  0
VERTEX
  8
_CURVE
 62
7
  6
CONTINUOUS
 10
31.2236835223
 20
13.4157628241
  0
VERTEX
  8
_CURVE
 62
7
  6
CONTINUOUS
 10
31.2436183188
 20
13.4711900443
  0
VERTEX
  8
_CURVE
 62
7
  6
CONTINUOUS
 10
31.2537718124
 20
13.5019654953
  0
VERTEX
  8
_CURVE
 62
7
  6
CONTINUOUS
 10
31.2633218646
 20
13.5326734699
  0
VERTEX
  8
_CURVE
 62
7
  6
CONTINUOUS
 10
31.2732885644
 20
13.5666949117
  0
VERTEX
  8
_CURVE
 62
7
  6
CONTINUOUS
 10
31.2826397855
 20
13.6006149914
  0
VERTEX
  8
_CURVE
 62
7
  6
CONTINUOUS
 10
31.2923741189
 20
13.6381576618
  0
VERTEX
  8
_CURVE
 62
7
  6
CONTINUOUS
 10
31.3014944338
 20
13.6755708366
  0
VERTEX
  8
_CURVE
 62
7
  6
CONTINUOUS
 10
31.3109580229
 20
13.7168473775
  0
VERTEX
  8
_CURVE
 62
7
  6
CONTINUOUS
 10
31.319832159
 20
13.7579512601
  0
VERTEX
  8
_CURVE
 62
7
  6
CONTINUOUS
 10
31.3290479834
 20
13.8031766768
  0
VERTEX
  8
_CURVE
 62
7
  6
CONTINUOUS
 10
31.3377274117
 20
13.8482235381
  0
VERTEX
  8
_CURVE
 62
7
  6
CONTINUOUS
 10
31.3552925249
 20
13.9466603069
  0
VERTEX
  8
_CURVE
 62
7
  6
CONTINUOUS
 10
31.3728226951
 20
14.0532414878
  0
VERTEX
  8
_CURVE
 62
7
  6
CONTINUOUS
 10
31.3909503496
 20
14.1688717847
  0
VERTEX
  8
_CURVE
 62
7
  6
CONTINUOUS
 10
31.4100350065
 20
14.2949277133
  0
VERTEX
  8
_CURVE
 62
7
  6
CONTINUOUS
 10
31.4302626876
 20
14.432227423
  0
VERTEX
  8
_CURVE
 62
7
  6
CONTINUOUS
 10
31.4518505729
 20
14.5817873931
  0
VERTEX
  8
_CURVE
 62
7
  6
CONTINUOUS
 10
31.4749525034
 20
14.7445271322
  0
VERTEX
  8
_CURVE
 62
7
  6
CONTINUOUS
 10
31.5265727205
 20
15.1126659695
  0
SEQEND
  0
POLYLINE
  8
_CURVE
 62
7
  6
CONTINUOUS
 66
1
 70
0
  0
VERTEX
  8
_CURVE
 62
7
  6
CONTINUOUS
 10
27.1367360661
 20
12.383856395
  0
VERTEX
  8
_CURVE
 62
7
  6
CONTINUOUS
 10
27.2319816554
 20
12.3934259911
  0
VERTEX
  8
_CURVE
 62
7
  6
CONTINUOUS
 10
27.3772303812
 20
12.4085586834
  0
VERTEX
  8
_CURVE
 62
7
  6
CONTINUOUS
 10
27.5223849164
 20
12.424305532
  0
VERTEX
  8
_CURVE
 62
7
  6
CONTINUOUS
 10
27.7868891225
 20
12.4545372864
  0
VERTEX
  8
_CURVE
 62
7
  6
CONTINUOUS
 10
28.0283881052
 20
12.4837649402
  0
VERTEX
  8
_CURVE
 62
7
  6
CONTINUOUS
 10
28.2493298512
 20
12.5117141577
  0
VERTEX
  8
_CURVE
 62
7
  6
CONTINUOUS
 10
28.451819885
 20
12.5381924009
  0
VERTEX
  8
_CURVE
 62
7
  6
CONTINUOUS
 10
28.6376878927
 20
12.5630668329
  0
VERTEX
  8
_CURVE
 62
7
  6
CONTINUOUS
 10
28.8085251397
 20
12.5862715063
  0
VERTEX
  8
_CURVE
 62
7
  6
CONTINUOUS
 10
28.965733312
 20
12.6077798901
  0
VERTEX
  8
_CURVE
 62
7
  6
CONTINUOUS
 10
29.1105430958
 20
12.6276089849
  0
VERTEX
  8
_CURVE
 62
7
  6
CONTINUOUS
 10
29.2440333625
 20
12.6457860869
  0
VERTEX
  8
_CURVE
 62
7
  6
CONTINUOUS
 10
29.3671964333
 20
12.6623626834
  0
VERTEX
  8
_CURVE
 62
7
  6
CONTINUOUS
 10
29.4808643047
 20
12.6774068809
  0
VERTEX
  8
_CURVE
 62
7
  6
CONTINUOUS
 10
29.5857314102
 20
12.6909820103
  0
VERTEX
  8
_CURVE
 62
7
  6
CONTINUOUS
 10
29.6824941021
 20
12.7031766563
  0
VERTEX
  8
_CURVE
 62
7
  6
CONTINUOUS
 10
29.7718131003
 20
12.7141078308
  0
VERTEX
  8
_CURVE
 62
7
  6
CONTINUOUS
 10
29.8541515585
 20
12.723857524
  0
VERTEX
  8
_CURVE
 62
7
  6
CONTINUOUS
 10
29.9298916176
 20
12.7324535059
  0
VERTEX
  8
_CURVE
 62
7
  6
CONTINUOUS
 10
29.9999060602
 20
12.7400171294
  0
VERTEX
  8
_CURVE
 62
7
  6
CONTINUOUS
 10
30.1257228471
 20
12.7532413478
  0
SEQEND
  0
POLYLINE
  8
_CURVE
 62
8
  6
PHANTOM
 66
1
 70
0
  0
VERTEX
  8
_CURVE
 62
8
  6
PHANTOM
 10
29.6407083338
 20
11.584537183
  0
VERTEX
  8
_CURVE
 62
8
  6
PHANTOM
 10
29.9039799375
 20
11.5882698511
  0
VERTEX
  8
_CURVE
 62
8
  6
PHANTOM
 10
30.1672970679
 20
11.5921078038
  0
VERTEX
  8
_CURVE
 62
8
  6
PHANTOM
 10
30.4306132985
 20
11.596653794
  0
VERTEX
  8
_CURVE
 62
8
  6
PHANTOM
 10
30.547256198
 20
11.5991756828
  0
VERTEX
  8
_CURVE
 62
8
  6
PHANTOM
 10
30.6638653882
 20
11.6027549614
  0
VERTEX
  8
_CURVE
 62
8
  6
PHANTOM
 10
30.7650075203
 20
11.6073059732
  0
VERTEX
  8
_CURVE
 62
8
  6
PHANTOM
 10
30.8660604704
 20
11.6135873702
  0
VERTEX
  8
_CURVE
 62
8
  6
PHANTOM
 10
30.9324422697
 20
11.6188347961
  0
VERTEX
  8
_CURVE
 62
8
  6
PHANTOM
 10
30.9987296789
 20
11.6251479773
  0
VERTEX
  8
_CURVE
 62
8
  6
PHANTOM
 10
31.0648865156
 20
11.6327009074
  0
VERTEX
  8
_CURVE
 62
8
  6
PHANTOM
 10
31.1319074294
 20
11.6418248442
  0
VERTEX
  8
_CURVE
 62
8
  6
PHANTOM
 10
31.1986830485
 20
11.6526134406
  0
VERTEX
  8
_CURVE
 62
8
  6
PHANTOM
 10
31.2651401218
 20
11.6652727778
  0
VERTEX
  8
_CURVE
 62
8
  6
PHANTOM
 10
31.32297964
 20
11.6780441502
  0
VERTEX
  8
_CURVE
 62
8
  6
PHANTOM
 10
31.380423105
 20
11.6925087298
  0
VERTEX
  8
_CURVE
 62
8
  6
PHANTOM
 10
31.4373746024
 20
11.7087687593
  0
VERTEX
  8
_CURVE
 62
8
  6
PHANTOM
 10
31.493738218
 20
11.7269264815
  0
VERTEX
  8
_CURVE
 62
8
  6
PHANTOM
 10
31.5332346074
 20
11.7410062182
  0
VERTEX
  8
_CURVE
 62
8
  6
PHANTOM
 10
31.5722985611
 20
11.7562325538
  0
VERTEX
  8
_CURVE
 62
8
  6
PHANTOM
 10
31.6108405454
 20
11.7727491837
  0
VERTEX
  8
_CURVE
 62
8
  6
PHANTOM
 10
31.6540426059
 20
11.7932892542
  0
VERTEX
  8
_CURVE
 62
8
  6
PHANTOM
 10
31.6963902386
 20
11.8156194735
  0
VERTEX
  8
_CURVE
 62
8
  6
PHANTOM
 10
31.7378238378
 20
11.8396661134
  0
VERTEX
  8
_CURVE
 62
8
  6
PHANTOM
 10
31.7782837981
 20
11.8653554456
  0
VERTEX
  8
_CURVE
 62
8
  6
PHANTOM
 10
31.8177105138
 20
11.8926137418
  0
VERTEX
  8
_CURVE
 62
8
  6
PHANTOM
 10
31.8560443793
 20
11.9213672738
  0
VERTEX
  8
_CURVE
 62
8
  6
PHANTOM
 10
31.8899814851
 20
11.9488207716
  0
VERTEX
  8
_CURVE
 62
8
  6
PHANTOM
 10
31.9229143739
 20
11.9774331751
  0
VERTEX
  8
_CURVE
 62
8
  6
PHANTOM
 10
31.9547962409
 20
12.0071824609
  0
VERTEX
  8
_CURVE
 62
8
  6
PHANTOM
 10
31.9855802816
 20
12.0380466053
  0
VERTEX
  8
_CURVE
 62
8
  6
PHANTOM
 10
32.0152196914
 20
12.0700035847
  0
VERTEX
  8
_CURVE
 62
8
  6
PHANTOM
 10
32.0451311076
 20
12.1047785498
  0
VERTEX
  8
_CURVE
 62
8
  6
PHANTOM
 10
32.0737258435
 20
12.1406599804
  0
VERTEX
  8
_CURVE
 62
8
  6
PHANTOM
 10
32.1010065151
 20
12.1775686148
  0
VERTEX
  8
_CURVE
 62
8
  6
PHANTOM
 10
32.1269757384
 20
12.2154251909
  0
VERTEX
  8
_CURVE
 62
8
  6
PHANTOM
 10
32.1516361296
 20
12.2541504471
  0
VERTEX
  8
_CURVE
 62
8
  6
PHANTOM
 10
32.1772718323
 20
12.2976818241
  0
VERTEX
  8
_CURVE
 62
8
  6
PHANTOM
 10
32.2013679594
 20
12.3420921214
  0
VERTEX
  8
_CURVE
 62
8
  6
PHANTOM
 10
32.2239669045
 20
12.3873041888
  0
VERTEX
  8
_CURVE
 62
8
  6
PHANTOM
 10
32.2451110609
 20
12.4332408758
  0
VERTEX
  8
_CURVE
 62
8
  6
PHANTOM
 10
32.2648428221
 20
12.479825032
  0
VERTEX
  8
_CURVE
 62
8
  6
PHANTOM
 10
32.2832045814
 20
12.5269795071
  0
VERTEX
  8
_CURVE
 62
8
  6
PHANTOM
 10
32.3002387322
 20
12.5746271507
  0
VERTEX
  8
_CURVE
 62
8
  6
PHANTOM
 10
32.3159876679
 20
12.6226908125
  0
VERTEX
  8
_CURVE
 62
8
  6
PHANTOM
 10
32.3345039827
 20
12.6852829559
  0
VERTEX
  8
_CURVE
 62
8
  6
PHANTOM
 10
32.3510765535
 20
12.7483733665
  0
VERTEX
  8
_CURVE
 62
8
  6
PHANTOM
 10
32.3658353587
 20
12.8118948907
  0
VERTEX
  8
_CURVE
 62
8
  6
PHANTOM
 10
32.3789103767
 20
12.8757803744
  0
VERTEX
  8
_CURVE
 62
8
  6
PHANTOM
 10
32.3904315861
 20
12.9399626639
  0
VERTEX
  8
_CURVE
 62
8
  6
PHANTOM
 10
32.4005289651
 20
13.0043746052
  0
VERTEX
  8
_CURVE
 62
8
  6
PHANTOM
 10
32.4113990187
 20
13.0856121384
  0
VERTEX
  8
_CURVE
 62
8
  6
PHANTOM
 10
32.4204397167
 20
13.1670644743
  0
VERTEX
  8
_CURVE
 62
8
  6
PHANTOM
 10
32.4278677709
 20
13.248689445
  0
VERTEX
  8
_CURVE
 62
8
  6
PHANTOM
 10
32.4338998932
 20
13.3304448825
  0
VERTEX
  8
_CURVE
 62
8
  6
PHANTOM
 10
32.4387527957
 20
13.412288619
  0
VERTEX
  8
_CURVE
 62
8
  6
PHANTOM
 10
32.4426431902
 20
13.4941784864
  0
VERTEX
  8
_CURVE
 62
8
  6
PHANTOM
 10
32.4466600267
 20
13.6044322181
  0
VERTEX
  8
_CURVE
 62
8
  6
PHANTOM
 10
32.4493617876
 20
13.7146962672
  0
VERTEX
  8
_CURVE
 62
8
  6
PHANTOM
 10
32.4507849044
 20
13.8249737692
  0
VERTEX
  8
_CURVE
 62
8
  6
PHANTOM
 10
32.4509875955
 20
13.9549946435
  0
VERTEX
  8
_CURVE
 62
8
  6
PHANTOM
 10
32.4502292681
 20
14.0850269114
  0
VERTEX
  8
_CURVE
 62
8
  6
PHANTOM
 10
32.4465099141
 20
14.4723212681
  0
VERTEX
  8
_CURVE
 62
8
  6
PHANTOM
 10
32.4415266565
 20
14.8596008138
  0
VERTEX
  8
_CURVE
 62
8
  6
PHANTOM
 10
32.4357517493
 20
15.2468530972
  0
VERTEX
  8
_CURVE
 62
8
  6
PHANTOM
 10
32.4296574461
 20
15.6340656673
  0
VERTEX
  8
_CURVE
 62
8
  6
PHANTOM
 10
32.423716001
 20
16.0212260729
  0
SEQEND
  0
LINE
  8
_CURVE
 62
8
  6
PHANTOM
 10
29.6407083338
 20
11.584537183
 11
14.4007637985
 21
11.584537183
  0
POLYLINE
  8
_CURVE
 62
8
  6
PHANTOM
 66
1
 70
0
  0
VERTEX
  8
_CURVE
 62
8
  6
PHANTOM
 10
13.7688417317
 20
11.593246851
  0
VERTEX
  8
_CURVE
 62
8
  6
PHANTOM
 10
13.9268301057
 20
11.5899735795
  0
VERTEX
  8
_CURVE
 62
8
  6
PHANTOM
 10
14.084817527
 20
11.5871921185
  0
VERTEX
  8
_CURVE
 62
8
  6
PHANTOM
 10
14.2427975675
 20
11.5852606067
  0
VERTEX
  8
_CURVE
 62
8
  6
PHANTOM
 10
14.4007637985
 20
11.584537183
  0
SEQEND
  0
POLYLINE
  8
_CURVE
 62
7
  6
CONTINUOUS
 66
1
 70
0
  0
VERTEX
  8
_CURVE
 62
7
  6
CONTINUOUS
 10
16.9047360661
 20
12.383856395
  0
VERTEX
  8
_CURVE
 62
7
  6
CONTINUOUS
 10
17.0479578723
 20
12.3706190743
  0
VERTEX
  8
_CURVE
 62
7
  6
CONTINUOUS
 10
17.1912898794
 20
12.359139617
  0
VERTEX
  8
_CURVE
 62
7
  6
CONTINUOUS
 10
17.3347221489
 20
12.3492885599
  0
VERTEX
  8
_CURVE
 62
7
  6
CONTINUOUS
 10
17.4782447428
 20
12.3409364398
  0
VERTEX
  8
_CURVE
 62
7
  6
CONTINUOUS
 10
17.6218477226
 20
12.3339537935
  0
VERTEX
  8
_CURVE
 62
7
  6
CONTINUOUS
 10
17.7655211503
 20
12.3282111579
  0
VERTEX
  8
_CURVE
 62
7
  6
CONTINUOUS
 10
17.9092550875
 20
12.3235790697
  0
VERTEX
  8
_CURVE
 62
7
  6
CONTINUOUS
 10
18.0530395959
 20
12.3199280657
  0
VERTEX
  8
_CURVE
 62
7
  6
CONTINUOUS
 10
18.1968647373
 20
12.3171286828
  0
VERTEX
  8
_CURVE
 62
7
  6
CONTINUOUS
 10
18.3407205735
 20
12.3150514578
  0
VERTEX
  8
_CURVE
 62
7
  6
CONTINUOUS
 10
18.4845971662
 20
12.3135669275
  0
VERTEX
  8
_CURVE
 62
7
  6
CONTINUOUS
 10
18.6284845771
 20
12.3125456286
  0
VERTEX
  8
_CURVE
 62
7
  6
CONTINUOUS
 10
18.7723728679
 20
12.3118580981
  0
VERTEX
  8
_CURVE
 62
7
  6
CONTINUOUS
 10
19.0601123366
 20
12.3109664891
  0
SEQEND
  0
POLYLINE
  8
_CURVE
 62
7
  6
CONTINUOUS
 66
1
 70
0
  0
VERTEX
  8
_CURVE
 62
7
  6
CONTINUOUS
 10
13.9260805917
 20
12.7509190206
  0
VERTEX
  8
_CURVE
 62
7
  6
CONTINUOUS
 10
14.0639520257
 20
12.7364657945
  0
VERTEX
  8
_CURVE
 62
7
  6
CONTINUOUS
 10
14.1413401076
 20
12.72799468
  0
VERTEX
  8
_CURVE
 62
7
  6
CONTINUOUS
 10
14.2257719697
 20
12.7182602946
  0
VERTEX
  8
_CURVE
 62
7
  6
CONTINUOUS
 10
14.3180357822
 20
12.7071811647
  0
VERTEX
  8
_CURVE
 62
7
  6
CONTINUOUS
 10
14.4186514971
 20
12.6946949463
  0
VERTEX
  8
_CURVE
 62
7
  6
CONTINUOUS
 10
14.5283206554
 20
12.6806684832
  0
VERTEX
  8
_CURVE
 62
7
  6
CONTINUOUS
 10
14.6478512581
 20
12.6649834944
  0
VERTEX
  8
_CURVE
 62
7
  6
CONTINUOUS
 10
14.7779959767
 20
12.6475713564
  0
VERTEX
  8
_CURVE
 62
7
  6
CONTINUOUS
 10
14.9194980458
 20
12.6283834079
  0
VERTEX
  8
_CURVE
 62
7
  6
CONTINUOUS
 10
15.2407867436
 20
12.5845443355
  0
SEQEND
  0
POLYLINE
  8
_CURVE
 62
7
  6
CONTINUOUS
 66
1
 70
0
  0
VERTEX
  8
_CURVE
 62
7
  6
CONTINUOUS
 10
15.2407867436
 20
12.5845443355
  0
VERTEX
  8
_CURVE
 62
7
  6
CONTINUOUS
 10
15.4236236914
 20
12.5598060764
  0
VERTEX
  8
_CURVE
 62
7
  6
CONTINUOUS
 10
15.6238155201
 20
12.5331698408
  0
VERTEX
  8
_CURVE
 62
7
  6
CONTINUOUS
 10
15.8436481736
 20
12.5046856906
  0
VERTEX
  8
_CURVE
 62
7
  6
CONTINUOUS
 10
16.0857766035
 20
12.4744900425
  0
VERTEX
  8
_CURVE
 62
7
  6
CONTINUOUS
 10
16.3532732637
 20
12.4428140566
  0
VERTEX
  8
_CURVE
 62
7
  6
CONTINUOUS
 10
16.5014684203
 20
12.4260944355
  0
VERTEX
  8
_CURVE
 62
7
  6
CONTINUOUS
 10
16.649764049
 20
12.4099995806
  0
VERTEX
  8
_CURVE
 62
7
  6
CONTINUOUS
 10
16.9047360661
 20
12.383856395
  0
SEQEND
  0
LINE
  8
_CURVE
 62
7
  6
CONTINUOUS
 10
24.6937360661
 20
12.310856395
 11
24.8375268755
 21
12.3115174845
  0
POLYLINE
  8
_CURVE
 62
7
  6
CONTINUOUS
 66
1
 70
0
  0
VERTEX
  8
_CURVE
 62
7
  6
CONTINUOUS
 10
25.2690959437
 20
12.3127824678
  0
VERTEX
  8
_CURVE
 62
7
  6
CONTINUOUS
 10
25.4129844702
 20
12.3134061179
  0
VERTEX
  8
_CURVE
 62
7
  6
CONTINUOUS
 10
25.5568723936
 20
12.3143514713
  0
VERTEX
  8
_CURVE
 62
7
  6
CONTINUOUS
 10
25.7007497011
 20
12.3157509532
  0
VERTEX
  8
_CURVE
 62
7
  6
CONTINUOUS
 10
25.8446063799
 20
12.3177369889
  0
VERTEX
  8
_CURVE
 62
7
  6
CONTINUOUS
 10
25.988432417
 20
12.3204420036
  0
VERTEX
  8
_CURVE
 62
7
  6
CONTINUOUS
 10
26.1322177995
 20
12.3239984226
  0
VERTEX
  8
_CURVE
 62
7
  6
CONTINUOUS
 10
26.2759525146
 20
12.328538671
  0
VERTEX
  8
_CURVE
 62
7
  6
CONTINUOUS
 10
26.4196265493
 20
12.3341951742
  0
VERTEX
  8
_CURVE
 62
7
  6
CONTINUOUS
 10
26.5632298907
 20
12.3411003574
  0
VERTEX
  8
_CURVE
 62
7
  6
CONTINUOUS
 10
26.706752526
 20
12.3493866458
  0
VERTEX
  8
_CURVE
 62
7
  6
CONTINUOUS
 10
26.8501844423
 20
12.3591864647
  0
VERTEX
  8
_CURVE
 62
7
  6
CONTINUOUS
 10
26.9935156266
 20
12.3706322394
  0
VERTEX
  8
_CURVE
 62
7
  6
CONTINUOUS
 10
27.1367360661
 20
12.383856395
  0
SEQEND
  0
LINE
  8
_CURVE
 62
7
  6
CONTINUOUS
 10
24.8375268755
 20
12.3115174845
 11
25.2690959437
 21
12.3127824678
  0
POLYLINE
  8
_CURVE
 62
7
  6
CONTINUOUS
 66
1
 70
0
  0
VERTEX
  8
_CURVE
 62
7
  6
CONTINUOUS
 10
22.0207360661
 20
12.302856395
  0
VERTEX
  8
_CURVE
 62
7
  6
CONTINUOUS
 10
22.5842299753
 20
12.3033313432
  0
VERTEX
  8
_CURVE
 62
7
  6
CONTINUOUS
 10
23.1004639686
 20
12.3043378895
  0
VERTEX
  8
_CURVE
 62
7
  6
CONTINUOUS
 10
23.5695049161
 20
12.3057282428
  0
VERTEX
  8
_CURVE
 62
7
  6
CONTINUOUS
 10
23.9913897954
 20
12.3073613758
  0
VERTEX
  8
_CURVE
 62
7
  6
CONTINUOUS
 10
24.366134281
 20
12.3091084639
  0
VERTEX
  8
_CURVE
 62
7
  6
CONTINUOUS
 10
24.6937360661
 20
12.310856395
  0
SEQEND
  0
LINE
  8
_CURVE
 62
7
  6
CONTINUOUS
 10
19.0601123366
 20
12.3109664891
 11
19.2039436379
 21
12.3105034843
  0
POLYLINE
  8
_CURVE
 62
7
  6
CONTINUOUS
 66
1
 70
0
  0
VERTEX
  8
_CURVE
 62
7
  6
CONTINUOUS
 10
19.2039436379
 20
12.3105034843
  0
VERTEX
  8
_CURVE
 62
7
  6
CONTINUOUS
 10
19.9199386552
 20
12.3071511258
  0
VERTEX
  8
_CURVE
 62
7
  6
CONTINUOUS
 10
20.4414083914
 20
12.3052435953
  0
VERTEX
  8
_CURVE
 62
7
  6
CONTINUOUS
 10
20.9121985535
 20
12.3039955515
  0
VERTEX
  8
_CURVE
 62
7
  6
CONTINUOUS
 10
21.3323434416
 20
12.3032669256
  0
VERTEX
  8
_CURVE
 62
7
  6
CONTINUOUS
 10
21.7018565784
 20
12.3029265863
  0
VERTEX
  8
_CURVE
 62
7
  6
CONTINUOUS
 10
22.0207360661
 20
12.302856395
  0
SEQEND
  0
POLYLINE
  8
_CURVE
 62
7
  6
CONTINUOUS
 66
1
 70
0
  0
VERTEX
  8
_CURVE
 62
7
  6
CONTINUOUS
 10
13.9187593995
 20
24.9193695067
  0
VERTEX
  8
_CURVE
 62
7
  6
CONTINUOUS
 10
13.8623756328
 20
24.9133066977
  0
VERTEX
  8
_CURVE
 62
7
  6
CONTINUOUS
 10
13.8096625878
 20
24.9073013166
  0
VERTEX
  8
_CURVE
 62
7
  6
CONTINUOUS
 10
13.7604923471
 20
24.9012412285
  0
VERTEX
  8
_CURVE
 62
7
  6
CONTINUOUS
 10
13.7150248387
 20
24.8951166843
  0
VERTEX
  8
_CURVE
 62
7
  6
CONTINUOUS
 10
13.6733077723
 20
24.8889537732
  0
VERTEX
  8
_CURVE
 62
7
  6
CONTINUOUS
 10
13.6348753758
 20
24.8827135164
  0
VERTEX
  8
_CURVE
 62
7
  6
CONTINUOUS
 10
13.5987407404
 20
24.876267263
  0
VERTEX
  8
_CURVE
 62
7
  6
CONTINUOUS
 10
13.5636085685
 20
24.8693859692
  0
VERTEX
  8
_CURVE
 62
7
  6
CONTINUOUS
 10
13.5284057017
 20
24.8618107293
  0
VERTEX
  8
_CURVE
 62
7
  6
CONTINUOUS
 10
13.4928004056
 20
24.853381152
  0
VERTEX
  8
_CURVE
 62
7
  6
CONTINUOUS
 10
13.4568694602
 20
24.843998779
  0
VERTEX
  8
_CURVE
 62
7
  6
CONTINUOUS
 10
13.4206381104
 20
24.8335266465
  0
VERTEX
  8
_CURVE
 62
7
  6
CONTINUOUS
 10
13.3839918701
 20
24.821767648
  0
VERTEX
  8
_CURVE
 62
7
  6
CONTINUOUS
 10
13.3467698882
 20
24.8084713342
  0
VERTEX
  8
_CURVE
 62
7
  6
CONTINUOUS
 10
13.3095168094
 20
24.7936289808
  0
VERTEX
  8
_CURVE
 62
7
  6
CONTINUOUS
 10
13.2736483454
 20
24.7777076521
  0
VERTEX
  8
_CURVE
 62
7
  6
CONTINUOUS
 10
13.2401147025
 20
24.7612004246
  0
VERTEX
  8
_CURVE
 62
7
  6
CONTINUOUS
 10
13.2089471419
 20
24.74428425
  0
VERTEX
  8
_CURVE
 62
7
  6
CONTINUOUS
 10
13.1802031546
 20
24.7271780561
  0
VERTEX
  8
_CURVE
 62
7
  6
CONTINUOUS
 10
13.1544193735
 20
24.7104583331
  0
VERTEX
  8
_CURVE
 62
7
  6
CONTINUOUS
 10
13.1319716526
 20
24.6947275276
  0
VERTEX
  8
_CURVE
 62
7
  6
CONTINUOUS
 10
13.1124346135
 20
24.6800567507
  0
VERTEX
  8
_CURVE
 62
7
  6
CONTINUOUS
 10
13.0948814866
 20
24.6660220372
  0
VERTEX
  8
_CURVE
 62
7
  6
CONTINUOUS
 10
13.0783295423
 20
24.6519761139
  0
VERTEX
  8
_CURVE
 62
7
  6
CONTINUOUS
 10
13.0621371801
 20
24.6373976212
  0
VERTEX
  8
_CURVE
 62
7
  6
CONTINUOUS
 10
13.0463220225
 20
24.6222881414
  0
VERTEX
  8
_CURVE
 62
7
  6
CONTINUOUS
 10
13.0311117246
 20
24.6068903599
  0
VERTEX
  8
_CURVE
 62
7
  6
CONTINUOUS
 10
13.0165817775
 20
24.591335877
  0
VERTEX
  8
_CURVE
 62
7
  6
CONTINUOUS
 10
13.002475137
 20
24.575391511
  0
VERTEX
  8
_CURVE
 62
7
  6
CONTINUOUS
 10
12.9881646174
 20
24.5583097334
  0
VERTEX
  8
_CURVE
 62
7
  6
CONTINUOUS
 10
12.9729816039
 20
24.5391142477
  0
VERTEX
  8
_CURVE
 62
7
  6
CONTINUOUS
 10
12.9565398081
 20
24.5169797002
  0
VERTEX
  8
_CURVE
 62
7
  6
CONTINUOUS
 10
12.9389185892
 20
24.4915547695
  0
VERTEX
  8
_CURVE
 62
7
  6
CONTINUOUS
 10
12.9203995087
 20
24.4627291981
  0
VERTEX
  8
_CURVE
 62
7
  6
CONTINUOUS
 10
12.9011882237
 20
24.4302601294
  0
VERTEX
  8
_CURVE
 62
7
  6
CONTINUOUS
 10
12.8814798382
 20
24.3938525359
  0
VERTEX
  8
_CURVE
 62
7
  6
CONTINUOUS
 10
12.8615034457
 20
24.3532692477
  0
VERTEX
  8
_CURVE
 62
7
  6
CONTINUOUS
 10
12.841472203
 20
24.3082948778
  0
VERTEX
  8
_CURVE
 62
7
  6
CONTINUOUS
 10
12.8214659034
 20
24.2584973452
  0
VERTEX
  8
_CURVE
 62
7
  6
CONTINUOUS
 10
12.801507095
 20
24.2031482399
  0
VERTEX
  8
_CURVE
 62
7
  6
CONTINUOUS
 10
12.7913392533
 20
24.1724153996
  0
VERTEX
  8
_CURVE
 62
7
  6
CONTINUOUS
 10
12.7817742394
 20
24.1417494586
  0
VERTEX
  8
_CURVE
 62
7
  6
CONTINUOUS
 10
12.7717902822
 20
24.107774075
  0
VERTEX
  8
_CURVE
 62
7
  6
CONTINUOUS
 10
12.7624212048
 20
24.0738994286
  0
VERTEX
  8
_CURVE
 62
7
  6
CONTINUOUS
 10
12.7526664251
 20
24.0364065312
  0
VERTEX
  8
_CURVE
 62
7
  6
CONTINUOUS
 10
12.7435250899
 20
23.9990424747
  0
VERTEX
  8
_CURVE
 62
7
  6
CONTINUOUS
 10
12.7340376457
 20
23.9578196259
  0
VERTEX
  8
_CURVE
 62
7
  6
CONTINUOUS
 10
12.725139144
 20
23.9167687531
  0
VERTEX
  8
_CURVE
 62
7
  6
CONTINUOUS
 10
12.7158959025
 20
23.8716012052
  0
VERTEX
  8
_CURVE
 62
7
  6
CONTINUOUS
 10
12.7071886102
 20
23.8266115681
  0
VERTEX
  8
_CURVE
 62
7
  6
CONTINUOUS
 10
12.6895610533
 20
23.7282986795
  0
VERTEX
  8
_CURVE
 62
7
  6
CONTINUOUS
 10
12.671961621
 20
23.6218503897
  0
VERTEX
  8
_CURVE
 62
7
  6
CONTINUOUS
 10
12.653757835
 20
23.5063635251
  0
VERTEX
  8
_CURVE
 62
7
  6
CONTINUOUS
 10
12.6345894304
 20
23.3804633972
  0
VERTEX
  8
_CURVE
 62
7
  6
CONTINUOUS
 10
12.6142699108
 20
23.2433329197
  0
VERTEX
  8
_CURVE
 62
7
  6
CONTINUOUS
 10
12.5925814912
 20
23.0939569222
  0
VERTEX
  8
_CURVE
 62
7
  6
CONTINUOUS
 10
12.5693697359
 20
22.9314170447
  0
VERTEX
  8
_CURVE
 62
7
  6
CONTINUOUS
 10
12.5175003708
 20
22.5637297886
  0
SEQEND
  0
POLYLINE
  8
_CURVE
 62
7
  6
CONTINUOUS
 66
1
 70
0
  0
VERTEX
  8
_CURVE
 62
7
  6
CONTINUOUS
 10
18.772372634
 20
25.3579161972
  0
VERTEX
  8
_CURVE
 62
7
  6
CONTINUOUS
 10
18.6284843544
 20
25.3572321963
  0
VERTEX
  8
_CURVE
 62
7
  6
CONTINUOUS
 10
18.4845969733
 20
25.3562108749
  0
VERTEX
  8
_CURVE
 62
7
  6
CONTINUOUS
 10
18.3407204242
 20
25.3547233632
  0
VERTEX
  8
_CURVE
 62
7
  6
CONTINUOUS
 10
18.1968646406
 20
25.3526407912
  0
VERTEX
  8
_CURVE
 62
7
  6
CONTINUOUS
 10
18.0530395559
 20
25.3498342891
  0
VERTEX
  8
_CURVE
 62
7
  6
CONTINUOUS
 10
17.9092551038
 20
25.3461749868
  0
VERTEX
  8
_CURVE
 62
7
  6
CONTINUOUS
 10
17.7655212178
 20
25.3415340145
  0
VERTEX
  8
_CURVE
 62
7
  6
CONTINUOUS
 10
17.6218478314
 20
25.3357825023
  0
VERTEX
  8
_CURVE
 62
7
  6
CONTINUOUS
 10
17.478244878
 20
25.3287915802
  0
VERTEX
  8
_CURVE
 62
7
  6
CONTINUOUS
 10
17.3347222913
 20
25.3204323784
  0
VERTEX
  8
_CURVE
 62
7
  6
CONTINUOUS
 10
17.1912900047
 20
25.3105760268
  0
VERTEX
  8
_CURVE
 62
7
  6
CONTINUOUS
 10
17.0479579518
 20
25.2990936557
  0
VERTEX
  8
_CURVE
 62
7
  6
CONTINUOUS
 10
16.9047360661
 20
25.285856395
  0
SEQEND
  0
LINE
  8
_CURVE
 62
7
  6
CONTINUOUS
 10
19.6753381383
 20
25.3614817656
 11
19.203943528
 21
25.3592329766
  0
LINE
  8
_CURVE
 62
7
  6
CONTINUOUS
 10
19.203943528
 20
25.3592329766
 11
18.772372634
 21
25.3579161972
  0
POLYLINE
  8
_CURVE
 62
7
  6
CONTINUOUS
 66
1
 70
0
  0
VERTEX
  8
_CURVE
 62
7
  6
CONTINUOUS
 10
22.0207360661
 20
25.366856395
  0
VERTEX
  8
_CURVE
 62
7
  6
CONTINUOUS
 10
21.4572426102
 20
25.366592255
  0
VERTEX
  8
_CURVE
 62
7
  6
CONTINUOUS
 10
20.9410088183
 20
25.3657788372
  0
VERTEX
  8
_CURVE
 62
7
  6
CONTINUOUS
 10
20.4719678757
 20
25.3645639574
  0
VERTEX
  8
_CURVE
 62
7
  6
CONTINUOUS
 10
20.0500828578
 20
25.3630886568
  0
VERTEX
  8
_CURVE
 62
7
  6
CONTINUOUS
 10
19.6753381383
 20
25.3614817656
  0
SEQEND
  0
POLYLINE
  8
_CURVE
 62
7
  6
CONTINUOUS
 66
1
 70
0
  0
VERTEX
  8
_CURVE
 62
7
  6
CONTINUOUS
 10
24.8375286115
 20
25.3592332726
  0
VERTEX
  8
_CURVE
 62
7
  6
CONTINUOUS
 10
24.121533477
 20
25.3625616642
  0
VERTEX
  8
_CURVE
 62
7
  6
CONTINUOUS
 10
23.6000637408
 20
25.3644691947
  0
VERTEX
  8
_CURVE
 62
7
  6
CONTINUOUS
 10
23.1292735787
 20
25.3657172385
  0
VERTEX
  8
_CURVE
 62
7
  6
CONTINUOUS
 10
22.7091286906
 20
25.3664458644
  0
VERTEX
  8
_CURVE
 62
7
  6
CONTINUOUS
 10
22.3396155538
 20
25.3667862037
  0
VERTEX
  8
_CURVE
 62
7
  6
CONTINUOUS
 10
22.0207360661
 20
25.366856395
  0
SEQEND
  0
POLYLINE
  8
_CURVE
 62
7
  6
CONTINUOUS
 66
1
 70
0
  0
VERTEX
  8
_CURVE
 62
7
  6
CONTINUOUS
 10
27.1367360661
 20
25.285856395
  0
VERTEX
  8
_CURVE
 62
7
  6
CONTINUOUS
 10
26.993514277
 20
25.2990946459
  0
VERTEX
  8
_CURVE
 62
7
  6
CONTINUOUS
 10
26.8501822974
 20
25.3105777967
  0
VERTEX
  8
_CURVE
 62
7
  6
CONTINUOUS
 10
26.7067500632
 20
25.3204347347
  0
VERTEX
  8
_CURVE
 62
7
  6
CONTINUOUS
 10
26.56322751
 20
25.3287943472
  0
VERTEX
  8
_CURVE
 62
7
  6
CONTINUOUS
 10
26.4196245737
 20
25.3357855214
  0
VERTEX
  8
_CURVE
 62
7
  6
CONTINUOUS
 10
26.27595119
 20
25.3415371446
  0
VERTEX
  8
_CURVE
 62
7
  6
CONTINUOUS
 10
26.1322172946
 20
25.3461781041
  0
VERTEX
  8
_CURVE
 62
7
  6
CONTINUOUS
 10
25.9884328233
 20
25.3498372871
  0
VERTEX
  8
_CURVE
 62
7
  6
CONTINUOUS
 10
25.8446077119
 20
25.352643581
  0
VERTEX
  8
_CURVE
 62
7
  6
CONTINUOUS
 10
25.7007518961
 20
25.354725873
  0
VERTEX
  8
_CURVE
 62
7
  6
CONTINUOUS
 10
25.5568753117
 20
25.3562130504
  0
VERTEX
  8
_CURVE
 62
7
  6
CONTINUOUS
 10
25.4129878944
 20
25.3572340004
  0
VERTEX
  8
_CURVE
 62
7
  6
CONTINUOUS
 10
25.2690995799
 20
25.3579176104
  0
VERTEX
  8
_CURVE
 62
7
  6
CONTINUOUS
 10
24.8375286115
 20
25.3592332726
  0
SEQEND
  0
POLYLINE
  8
_CURVE
 62
7
  6
CONTINUOUS
 66
1
 70
0
  0
VERTEX
  8
_CURVE
 62
7
  6
CONTINUOUS
 10
30.1176186451
 20
24.9162032914
  0
VERTEX
  8
_CURVE
 62
7
  6
CONTINUOUS
 10
29.9796480268
 20
24.9307738118
  0
VERTEX
  8
_CURVE
 62
7
  6
CONTINUOUS
 10
29.9022045472
 20
24.9393110509
  0
VERTEX
  8
_CURVE
 62
7
  6
CONTINUOUS
 10
29.8177126226
 20
24.9491179732
  0
VERTEX
  8
_CURVE
 62
7
  6
CONTINUOUS
 10
29.7253835148
 20
24.960276722
  0
VERTEX
  8
_CURVE
 62
7
  6
CONTINUOUS
 10
29.6246969041
 20
24.9728500898
  0
VERTEX
  8
_CURVE
 62
7
  6
CONTINUOUS
 10
29.5149507903
 20
24.9869718773
  0
VERTEX
  8
_CURVE
 62
7
  6
CONTINUOUS
 10
29.3953366169
 20
25.0027610798
  0
VERTEX
  8
_CURVE
 62
7
  6
CONTINUOUS
 10
29.2651011631
 20
25.0202869529
  0
VERTEX
  8
_CURVE
 62
7
  6
CONTINUOUS
 10
29.1235006372
 20
25.0395987668
  0
VERTEX
  8
_CURVE
 62
7
  6
CONTINUOUS
 10
28.8019885958
 20
25.0837193002
  0
SEQEND
  0
POLYLINE
  8
_CURVE
 62
7
  6
CONTINUOUS
 66
1
 70
0
  0
VERTEX
  8
_CURVE
 62
7
  6
CONTINUOUS
 10
14.9329169406
 20
25.0440173771
  0
VERTEX
  8
_CURVE
 62
7
  6
CONTINUOUS
 10
14.7995597091
 20
25.0259715695
  0
VERTEX
  8
_CURVE
 62
7
  6
CONTINUOUS
 10
14.6765195433
 20
25.0095158945
  0
VERTEX
  8
_CURVE
 62
7
  6
CONTINUOUS
 10
14.5629653134
 20
24.9945830137
  0
VERTEX
  8
_CURVE
 62
7
  6
CONTINUOUS
 10
14.4582033039
 20
24.9811102445
  0
VERTEX
  8
_CURVE
 62
7
  6
CONTINUOUS
 10
14.3615378618
 20
24.9690096803
  0
VERTEX
  8
_CURVE
 62
7
  6
CONTINUOUS
 10
14.2723089031
 20
24.9581649889
  0
VERTEX
  8
_CURVE
 62
7
  6
CONTINUOUS
 10
14.1900537199
 20
24.9484946569
  0
VERTEX
  8
_CURVE
 62
7
  6
CONTINUOUS
 10
14.1143905723
 20
24.939971263
  0
VERTEX
  8
_CURVE
 62
7
  6
CONTINUOUS
 10
14.0444475454
 20
24.9324743155
  0
VERTEX
  8
_CURVE
 62
7
  6
CONTINUOUS
 10
13.9187593995
 20
24.9193695067
  0
SEQEND
  0
POLYLINE
  8
_CURVE
 62
7
  6
CONTINUOUS
 66
1
 70
0
  0
VERTEX
  8
_CURVE
 62
7
  6
CONTINUOUS
 10
16.9047360661
 20
25.285856395
  0
VERTEX
  8
_CURVE
 62
7
  6
CONTINUOUS
 10
16.8095882279
 20
25.2763767042
  0
VERTEX
  8
_CURVE
 62
7
  6
CONTINUOUS
 10
16.6644866683
 20
25.2613964852
  0
VERTEX
  8
_CURVE
 62
7
  6
CONTINUOUS
 10
16.5194815925
 20
25.245773173
  0
VERTEX
  8
_CURVE
 62
7
  6
CONTINUOUS
 10
16.2552458047
 20
25.2157951506
  0
VERTEX
  8
_CURVE
 62
7
  6
CONTINUOUS
 10
16.0139905419
 20
25.1868009644
  0
VERTEX
  8
_CURVE
 62
7
  6
CONTINUOUS
 10
15.7932707627
 20
25.1590666834
  0
VERTEX
  8
_CURVE
 62
7
  6
CONTINUOUS
 10
15.5909834397
 20
25.1327863847
  0
VERTEX
  8
_CURVE
 62
7
  6
CONTINUOUS
 10
15.4053010286
 20
25.1080942807
  0
VERTEX
  8
_CURVE
 62
7
  6
CONTINUOUS
 10
15.2346340847
 20
25.0850575701
  0
VERTEX
  8
_CURVE
 62
7
  6
CONTINUOUS
 10
14.9329169406
 20
25.0440173771
  0
SEQEND
  0
POLYLINE
  8
_CURVE
 62
8
  6
PHANTOM
 66
1
 70
0
  0
VERTEX
  8
_CURVE
 62
8
  6
PHANTOM
 10
13.4942164342
 20
26.0704692953
  0
VERTEX
  8
_CURVE
 62
8
  6
PHANTOM
 10
13.3776067441
 20
26.0669578286
  0
VERTEX
  8
_CURVE
 62
8
  6
PHANTOM
 10
13.276464502
 20
26.0624217295
  0
VERTEX
  8
_CURVE
 62
8
  6
PHANTOM
 10
13.1754116619
 20
26.0561254198
  0
VERTEX
  8
_CURVE
 62
8
  6
PHANTOM
 10
13.1090298932
 20
26.0508738287
  0
VERTEX
  8
_CURVE
 62
8
  6
PHANTOM
 10
13.0427424742
 20
26.0445619848
  0
VERTEX
  8
_CURVE
 62
8
  6
PHANTOM
 10
12.9765856166
 20
26.0370118826
  0
VERTEX
  8
_CURVE
 62
8
  6
PHANTOM
 10
12.9095646944
 20
26.0278890975
  0
VERTEX
  8
_CURVE
 62
8
  6
PHANTOM
 10
12.8427890779
 20
26.0171001388
  0
VERTEX
  8
_CURVE
 62
8
  6
PHANTOM
 10
12.7763320105
 20
26.0044400122
  0
VERTEX
  8
_CURVE
 62
8
  6
PHANTOM
 10
12.7184924948
 20
25.9916683037
  0
VERTEX
  8
_CURVE
 62
8
  6
PHANTOM
 10
12.66104903
 20
25.9772037248
  0
VERTEX
  8
_CURVE
 62
8
  6
PHANTOM
 10
12.6040975313
 20
25.9609438636
  0
VERTEX
  8
_CURVE
 62
8
  6
PHANTOM
 10
12.5477339142
 20
25.9427863085
  0
VERTEX
  8
_CURVE
 62
8
  6
PHANTOM
 10
12.5082375244
 20
25.9287066128
  0
VERTEX
  8
_CURVE
 62
8
  6
PHANTOM
 10
12.4691735706
 20
25.9134802661
  0
VERTEX
  8
_CURVE
 62
8
  6
PHANTOM
 10
12.4306315868
 20
25.8969636063
  0
VERTEX
  8
_CURVE
 62
8
  6
PHANTOM
 10
12.3874295277
 20
25.8764235125
  0
VERTEX
  8
_CURVE
 62
8
  6
PHANTOM
 10
12.3450818966
 20
25.8540932847
  0
VERTEX
  8
_CURVE
 62
8
  6
PHANTOM
 10
12.3036482986
 20
25.830046647
  0
VERTEX
  8
_CURVE
 62
8
  6
PHANTOM
 10
12.2631883386
 20
25.8043573235
  0
VERTEX
  8
_CURVE
 62
8
  6
PHANTOM
 10
12.2237616217
 20
25.7770990385
  0
VERTEX
  8
_CURVE
 62
8
  6
PHANTOM
 10
12.185427753
 20
25.7483455162
  0
VERTEX
  8
_CURVE
 62
8
  6
PHANTOM
 10
12.1514906423
 20
25.7208920231
  0
VERTEX
  8
_CURVE
 62
8
  6
PHANTOM
 10
12.1185577488
 20
25.6922796207
  0
VERTEX
  8
_CURVE
 62
8
  6
PHANTOM
 10
12.0866758794
 20
25.6625303337
  0
VERTEX
  8
_CURVE
 62
8
  6
PHANTOM
 10
12.0558918411
 20
25.631666187
  0
VERTEX
  8
_CURVE
 62
8
  6
PHANTOM
 10
12.0262524409
 20
25.5997092053
  0
VERTEX
  8
_CURVE
 62
8
  6
PHANTOM
 10
11.9963410427
 20
25.5649342389
  0
VERTEX
  8
_CURVE
 62
8
  6
PHANTOM
 10
11.9677463256
 20
25.5290528081
  0
VERTEX
  8
_CURVE
 62
8
  6
PHANTOM
 10
11.9404656638
 20
25.4921441741
  0
VERTEX
  8
_CURVE
 62
8
  6
PHANTOM
 10
11.9144964314
 20
25.4542875986
  0
VERTEX
  8
_CURVE
 62
8
  6
PHANTOM
 10
11.8898360026
 20
25.4155623429
  0
VERTEX
  8
_CURVE
 62
8
  6
PHANTOM
 10
11.8642002202
 20
25.3720309659
  0
VERTEX
  8
_CURVE
 62
8
  6
PHANTOM
 10
11.84010399
 20
25.3276206681
  0
VERTEX
  8
_CURVE
 62
8
  6
PHANTOM
 10
11.8175049417
 20
25.2824086001
  0
VERTEX
  8
_CURVE
 62
8
  6
PHANTOM
 10
11.7963607049
 20
25.2364719125
  0
VERTEX
  8
_CURVE
 62
8
  6
PHANTOM
 10
11.7766289091
 20
25.1898877558
  0
VERTEX
  8
_CURVE
 62
8
  6
PHANTOM
 10
11.758267184
 20
25.1427332807
  0
VERTEX
  8
_CURVE
 62
8
  6
PHANTOM
 10
11.7412331592
 20
25.0950856377
  0
VERTEX
  8
_CURVE
 62
8
  6
PHANTOM
 10
11.7254844644
 20
25.0470219775
  0
VERTEX
  8
_CURVE
 62
8
  6
PHANTOM
 10
11.7069686297
 20
24.9844298375
  0
VERTEX
  8
_CURVE
 62
8
  6
PHANTOM
 10
11.6903965882
 20
24.9213394306
  0
VERTEX
  8
_CURVE
 62
8
  6
PHANTOM
 10
11.6756381804
 20
24.8578179095
  0
VERTEX
  8
_CURVE
 62
8
  6
PHANTOM
 10
11.6625632472
 20
24.7939324264
  0
VERTEX
  8
_CURVE
 62
8
  6
PHANTOM
 10
11.6510416292
 20
24.729750134
  0
VERTEX
  8
_CURVE
 62
8
  6
PHANTOM
 10
11.6409431671
 20
24.6653381848
  0
VERTEX
  8
_CURVE
 62
8
  6
PHANTOM
 10
11.6300707398
 20
24.5841006341
  0
VERTEX
  8
_CURVE
 62
8
  6
PHANTOM
 10
11.6210273022
 20
24.5026482781
  0
VERTEX
  8
_CURVE
 62
8
  6
PHANTOM
 10
11.613597129
 20
24.4210232918
  0
VERTEX
  8
_CURVE
 62
8
  6
PHANTOM
 10
11.6075644948
 20
24.3392678505
  0
VERTEX
  8
_CURVE
 62
8
  6
PHANTOM
 10
11.6027136742
 20
24.2574241293
  0
VERTEX
  8
_CURVE
 62
8
  6
PHANTOM
 10
11.5988289421
 20
24.1755343036
  0
VERTEX
  8
_CURVE
 62
8
  6
PHANTOM
 10
11.5948241754
 20
24.0652806608
  0
VERTEX
  8
_CURVE
 62
8
  6
PHANTOM
 10
11.592127501
 20
23.9550166493
  0
VERTEX
  8
_CURVE
 62
8
  6
PHANTOM
 10
11.5906872279
 20
23.8447390208
  0
VERTEX
  8
_CURVE
 62
8
  6
PHANTOM
 10
11.5904420085
 20
23.7147178331
  0
VERTEX
  8
_CURVE
 62
8
  6
PHANTOM
 10
11.5912428642
 20
23.5846858786
  0
VERTEX
  8
_CURVE
 62
8
  6
PHANTOM
 10
11.5939705422
 20
23.3426300887
  0
VERTEX
  8
_CURVE
 62
8
  6
PHANTOM
 10
11.5977195907
 20
23.1005816401
  0
VERTEX
  8
_CURVE
 62
8
  6
PHANTOM
 10
11.6020631074
 20
22.8585412757
  0
VERTEX
  8
_CURVE
 62
8
  6
PHANTOM
 10
11.6065741898
 20
22.6165097383
  0
VERTEX
  8
_CURVE
 62
8
  6
PHANTOM
 10
11.6108259357
 20
22.3744877708
  0
VERTEX
  8
_CURVE
 62
8
  6
PHANTOM
 10
11.6143914428
 20
22.1324761162
  0
VERTEX
  8
_CURVE
 62
8
  6
PHANTOM
 10
11.6168438087
 20
21.8904755173
  0
VERTEX
  8
_CURVE
 62
8
  6
PHANTOM
 10
11.6177561312
 20
21.6484867171
  0
SEQEND
  0
POLYLINE
  8
_CURVE
 62
8
  6
PHANTOM
 66
1
 70
0
  0
VERTEX
  8
_CURVE
 62
8
  6
PHANTOM
 10
14.4007637985
 20
26.085175607
  0
VERTEX
  8
_CURVE
 62
8
  6
PHANTOM
 10
14.2427975675
 20
26.0844521833
  0
VERTEX
  8
_CURVE
 62
8
  6
PHANTOM
 10
14.084817527
 20
26.0825206715
  0
VERTEX
  8
_CURVE
 62
8
  6
PHANTOM
 10
13.9268301057
 20
26.0797392105
  0
VERTEX
  8
_CURVE
 62
8
  6
PHANTOM
 10
13.7688417317
 20
26.076465939
  0
VERTEX
  8
_CURVE
 62
8
  6
PHANTOM
 10
13.4942164342
 20
26.0704692953
  0
SEQEND
  0
LINE
  8
_CURVE
 62
8
  6
PHANTOM
 10
29.6407083338
 20
26.085175607
 11
14.4007637985
 21
26.085175607
  0
POLYLINE
  8
_CURVE
 62
7
  6
CONTINUOUS
 66
1
 70
0
  0
VERTEX
  8
_CURVE
 62
7
  6
CONTINUOUS
 10
28.8019885958
 20
25.0837193002
  0
VERTEX
  8
_CURVE
 62
7
  6
CONTINUOUS
 10
28.6190243884
 20
25.1086175639
  0
VERTEX
  8
_CURVE
 62
7
  6
CONTINUOUS
 10
28.4186928754
 20
25.1354286317
  0
VERTEX
  8
_CURVE
 62
7
  6
CONTINUOUS
 10
28.1987062462
 20
25.1641041547
  0
VERTEX
  8
_CURVE
 62
7
  6
CONTINUOUS
 10
27.9564073213
 20
25.1945096433
  0
VERTEX
  8
_CURVE
 62
7
  6
CONTINUOUS
 10
27.6887210119
 20
25.2264161087
  0
VERTEX
  8
_CURVE
 62
7
  6
CONTINUOUS
 10
27.5404191387
 20
25.243252543
  0
VERTEX
  8
_CURVE
 62
7
  6
CONTINUOUS
 10
27.3920182614
 20
25.2594842106
  0
VERTEX
  8
_CURVE
 62
7
  6
CONTINUOUS
 10
27.2644152965
 20
25.2729343984
  0
VERTEX
  8
_CURVE
 62
7
  6
CONTINUOUS
 10
27.1367360661
 20
25.285856395
  0
SEQEND
  0
POLYLINE
  8
_CURVE
 62
7
  6
CONTINUOUS
 66
1
 70
0
  0
VERTEX
  8
_CURVE
 62
7
  6
CONTINUOUS
 10
31.8045106564
 20
19.922256365
  0
VERTEX
  8
_CURVE
 62
7
  6
CONTINUOUS
 10
31.8043448105
 20
19.9951558413
  0
VERTEX
  8
_CURVE
 62
7
  6
CONTINUOUS
 10
31.8039817273
 20
20.0680607446
  0
VERTEX
  8
_CURVE
 62
7
  6
CONTINUOUS
 10
31.8033580987
 20
20.1409638917
  0
VERTEX
  8
_CURVE
 62
7
  6
CONTINUOUS
 10
31.8024106163
 20
20.2138580993
  0
VERTEX
  8
_CURVE
 62
7
  6
CONTINUOUS
 10
31.8010759722
 20
20.2867361842
  0
VERTEX
  8
_CURVE
 62
7
  6
CONTINUOUS
 10
31.799290858
 20
20.3595909631
  0
VERTEX
  8
_CURVE
 62
7
  6
CONTINUOUS
 10
31.7969919656
 20
20.4324152529
  0
VERTEX
  8
_CURVE
 62
7
  6
CONTINUOUS
 10
31.7941159869
 20
20.5052018702
  0
VERTEX
  8
_CURVE
 62
7
  6
CONTINUOUS
 10
31.7905996136
 20
20.5779436318
  0
VERTEX
  8
_CURVE
 62
7
  6
CONTINUOUS
 10
31.7863795375
 20
20.6506333546
  0
VERTEX
  8
_CURVE
 62
7
  6
CONTINUOUS
 10
31.7813924506
 20
20.7232638551
  0
VERTEX
  8
_CURVE
 62
7
  6
CONTINUOUS
 10
31.7755750446
 20
20.7958279503
  0
VERTEX
  8
_CURVE
 62
7
  6
CONTINUOUS
 10
31.7688640113
 20
20.8683184568
  0
VERTEX
  8
_CURVE
 62
7
  6
CONTINUOUS
 10
31.7611960426
 20
20.9407281914
  0
VERTEX
  8
_CURVE
 62
7
  6
CONTINUOUS
 10
31.7525078303
 20
21.0130499709
  0
VERTEX
  8
_CURVE
 62
7
  6
CONTINUOUS
 10
31.7427360661
 20
21.085276612
  0
SEQEND
  0
POLYLINE
  8
_CURVE
 62
7
  6
CONTINUOUS
 66
1
 70
0
  0
VERTEX
  8
_CURVE
 62
7
  6
CONTINUOUS
 10
31.8043782992
 20
18.039856395
  0
VERTEX
  8
_CURVE
 62
7
  6
CONTINUOUS
 10
31.8045218176
 20
18.3079589445
  0
VERTEX
  8
_CURVE
 62
7
  6
CONTINUOUS
 10
31.8045192629
 20
18.5730722717
  0
VERTEX
  8
_CURVE
 62
7
  6
CONTINUOUS
 10
31.8043782992
 20
18.834856395
  0
SEQEND
  0
POLYLINE
  8
_CURVE
 62
7
  6
CONTINUOUS
 66
1
 70
0
  0
VERTEX
  8
_CURVE
 62
7
  6
CONTINUOUS
 10
31.8045814233
 20
19.3622576859
  0
VERTEX
  8
_CURVE
 62
7
  6
CONTINUOUS
 10
31.804503869
 20
19.7765024265
  0
VERTEX
  8
_CURVE
 62
7
  6
CONTINUOUS
 10
31.8045106564
 20
19.922256365
  0
SEQEND
  0
POLYLINE
  8
_CURVE
 62
7
  6
CONTINUOUS
 66
1
 70
0
  0
VERTEX
  8
_CURVE
 62
7
  6
CONTINUOUS
 10
31.8043782992
 20
18.834856395
  0
VERTEX
  8
_CURVE
 62
7
  6
CONTINUOUS
 10
31.8045489671
 20
19.096925792
  0
VERTEX
  8
_CURVE
 62
7
  6
CONTINUOUS
 10
31.8045814233
 20
19.3622576859
  0
SEQEND
  0
POLYLINE
  8
_CURVE
 62
7
  6
CONTINUOUS
 66
1
 70
0
  0
VERTEX
  8
_CURVE
 62
7
  6
CONTINUOUS
 10
31.7427360661
 20
16.5816760801
  0
VERTEX
  8
_CURVE
 62
7
  6
CONTINUOUS
 10
31.7525226976
 20
16.653974755
  0
VERTEX
  8
_CURVE
 62
7
  6
CONTINUOUS
 10
31.761221376
 20
16.7263923747
  0
VERTEX
  8
_CURVE
 62
7
  6
CONTINUOUS
 10
31.7688958037
 20
16.7989198227
  0
VERTEX
  8
_CURVE
 62
7
  6
CONTINUOUS
 10
31.775609683
 20
16.8715479827
  0
VERTEX
  8
_CURVE
 62
7
  6
CONTINUOUS
 10
31.7814267164
 20
16.9442677383
  0
VERTEX
  8
_CURVE
 62
7
  6
CONTINUOUS
 10
31.7864106061
 20
17.0170699731
  0
VERTEX
  8
_CURVE
 62
7
  6
CONTINUOUS
 10
31.7906250545
 20
17.0899455706
  0
VERTEX
  8
_CURVE
 62
7
  6
CONTINUOUS
 10
31.794133764
 20
17.1628854146
  0
VERTEX
  8
_CURVE
 62
7
  6
CONTINUOUS
 10
31.7970004369
 20
17.2358803886
  0
VERTEX
  8
_CURVE
 62
7
  6
CONTINUOUS
 10
31.7992887756
 20
17.3089213762
  0
VERTEX
  8
_CURVE
 62
7
  6
CONTINUOUS
 10
31.8010624824
 20
17.381999261
  0
VERTEX
  8
_CURVE
 62
7
  6
CONTINUOUS
 10
31.8023852598
 20
17.4551049266
  0
VERTEX
  8
_CURVE
 62
7
  6
CONTINUOUS
 10
31.80332081
 20
17.5282292567
  0
VERTEX
  8
_CURVE
 62
7
  6
CONTINUOUS
 10
31.8039328354
 20
17.6013631349
  0
VERTEX
  8
_CURVE
 62
7
  6
CONTINUOUS
 10
31.8042850384
 20
17.6744974447
  0
VERTEX
  8
_CURVE
 62
7
  6
CONTINUOUS
 10
31.8044411213
 20
17.7476230698
  0
VERTEX
  8
_CURVE
 62
7
  6
CONTINUOUS
 10
31.8043782992
 20
18.039856395
  0
SEQEND
  0
POLYLINE
  8
_CURVE
 62
7
  6
CONTINUOUS
 66
1
 70
0
  0
VERTEX
  8
_CURVE
 62
7
  6
CONTINUOUS
 10
31.5265727205
 20
15.1126659695
  0
VERTEX
  8
_CURVE
 62
7
  6
CONTINUOUS
 10
31.5559485773
 20
15.3211818602
  0
VERTEX
  8
_CURVE
 62
7
  6
CONTINUOUS
 10
31.5884952058
 20
15.5489716636
  0
VERTEX
  8
_CURVE
 62
7
  6
CONTINUOUS
 10
31.6249387902
 20
15.7985057864
  0
VERTEX
  8
_CURVE
 62
7
  6
CONTINUOUS
 10
31.6660818198
 20
16.0717445692
  0
VERTEX
  8
_CURVE
 62
7
  6
CONTINUOUS
 10
31.6892451966
 20
16.2231654963
  0
VERTEX
  8
_CURVE
 62
7
  6
CONTINUOUS
 10
31.7123171735
 20
16.3750311475
  0
VERTEX
  8
_CURVE
 62
7
  6
CONTINUOUS
 10
31.7427360661
 20
16.5816760801
  0
SEQEND
  0
POLYLINE
  8
_CURVE
 62
7
  6
CONTINUOUS
 66
1
 70
0
  0
VERTEX
  8
_CURVE
 62
7
  6
CONTINUOUS
 10
31.7088662041
 20
21.3152746344
  0
VERTEX
  8
_CURVE
 62
7
  6
CONTINUOUS
 10
31.6429503545
 20
21.7493112436
  0
VERTEX
  8
_CURVE
 62
7
  6
CONTINUOUS
 10
31.6057442442
 20
22.0012758237
  0
VERTEX
  8
_CURVE
 62
7
  6
CONTINUOUS
 10
31.5727527573
 20
22.2305297358
  0
VERTEX
  8
_CURVE
 62
7
  6
CONTINUOUS
 10
31.5431739066
 20
22.4396546816
  0
SEQEND
  0
POLYLINE
  8
_CURVE
 62
7
  6
CONTINUOUS
 66
1
 70
0
  0
VERTEX
  8
_CURVE
 62
7
  6
CONTINUOUS
 10
31.7427360661
 20
21.085276612
  0
VERTEX
  8
_CURVE
 62
7
  6
CONTINUOUS
 10
31.7320178301
 20
21.1595037912
  0
VERTEX
  8
_CURVE
 62
7
  6
CONTINUOUS
 10
31.7088662041
 20
21.3152746344
  0
SEQEND
  0
POLYLINE
  8
_CURVE
 62
7
  6
CONTINUOUS
 66
1
 70
0
  0
VERTEX
  8
_CURVE
 62
7
  6
CONTINUOUS
 10
31.5431739066
 20
22.4396546816
  0
VERTEX
  8
_CURVE
 62
7
  6
CONTINUOUS
 10
31.4919203124
 20
22.8061713018
  0
VERTEX
  8
_CURVE
 62
7
  6
CONTINUOUS
 10
31.4693286951
 20
22.9671046303
  0
VERTEX
  8
_CURVE
 62
7
  6
CONTINUOUS
 10
31.4483082207
 20
23.1150722204
  0
VERTEX
  8
_CURVE
 62
7
  6
CONTINUOUS
 10
31.4286449499
 20
23.251261189
  0
VERTEX
  8
_CURVE
 62
7
  6
CONTINUOUS
 10
31.4101649344
 20
23.376811196
  0
VERTEX
  8
_CURVE
 62
7
  6
CONTINUOUS
 10
31.3926602088
 20
23.4927519333
  0
VERTEX
  8
_CURVE
 62
7
  6
CONTINUOUS
 10
31.3759763009
 20
23.5997881737
  0
VERTEX
  8
_CURVE
 62
7
  6
CONTINUOUS
 10
31.359878421
 20
23.6989435292
  0
VERTEX
  8
_CURVE
 62
7
  6
CONTINUOUS
 10
31.3438843383
 20
23.7909328711
  0
VERTEX
  8
_CURVE
 62
7
  6
CONTINUOUS
 10
31.3277122502
 20
23.8758295989
  0
VERTEX
  8
_CURVE
 62
7
  6
CONTINUOUS
 10
31.3112341937
 20
23.9538539496
  0
VERTEX
  8
_CURVE
 62
7
  6
CONTINUOUS
 10
31.2943634192
 20
24.0254996423
  0
VERTEX
  8
_CURVE
 62
7
  6
CONTINUOUS
 10
31.2770716706
 20
24.0911263446
  0
VERTEX
  8
_CURVE
 62
7
  6
CONTINUOUS
 10
31.2594206423
 20
24.151107713
  0
VERTEX
  8
_CURVE
 62
7
  6
CONTINUOUS
 10
31.2414501939
 20
24.2059076296
  0
VERTEX
  8
_CURVE
 62
7
  6
CONTINUOUS
 10
31.2232904158
 20
24.2558034334
  0
VERTEX
  8
_CURVE
 62
7
  6
CONTINUOUS
 10
31.2050555607
 20
24.301214555
  0
VERTEX
  8
_CURVE
 62
7
  6
CONTINUOUS
 10
31.1867464417
 20
24.3426998647
  0
VERTEX
  8
_CURVE
 62
7
  6
CONTINUOUS
 10
31.1684415458
 20
24.3805243051
  0
VERTEX
  8
_CURVE
 62
7
  6
CONTINUOUS
 10
31.1503151064
 20
24.4148163081
  0
VERTEX
  8
_CURVE
 62
7
  6
CONTINUOUS
 10
31.1325326844
 20
24.4457691053
  0
VERTEX
  8
_CURVE
 62
7
  6
CONTINUOUS
 10
31.1152818513
 20
24.4735495362
  0
VERTEX
  8
_CURVE
 62
7
  6
CONTINUOUS
 10
31.0988169345
 20
24.498223205
  0
VERTEX
  8
_CURVE
 62
7
  6
CONTINUOUS
 10
31.0833949886
 20
24.5198590208
  0
VERTEX
  8
_CURVE
 62
7
  6
CONTINUOUS
 10
31.0690112101
 20
24.5388613707
  0
VERTEX
  8
_CURVE
 62
7
  6
CONTINUOUS
 10
31.0553227758
 20
24.5559695554
  0
VERTEX
  8
_CURVE
 62
7
  6
CONTINUOUS
 10
31.0417704748
 20
24.5720344923
  0
VERTEX
  8
_CURVE
 62
7
  6
CONTINUOUS
 10
31.027806755
 20
24.5877370233
  0
VERTEX
  8
_CURVE
 62
7
  6
CONTINUOUS
 10
31.013211994
 20
24.6032848958
  0
VERTEX
  8
_CURVE
 62
7
  6
CONTINUOUS
 10
30.9980574257
 20
24.618552344
  0
VERTEX
  8
_CURVE
 62
7
  6
CONTINUOUS
 10
30.9824369613
 20
24.6334116789
  0
VERTEX
  8
_CURVE
 62
7
  6
CONTINUOUS
 10
30.9662464305
 20
24.6479329173
  0
VERTEX
  8
_CURVE
 62
7
  6
CONTINUOUS
 10
30.9488926775
 20
24.6625865025
  0
VERTEX
  8
_CURVE
 62
7
  6
CONTINUOUS
 10
30.9292929103
 20
24.6781094996
  0
VERTEX
  8
_CURVE
 62
7
  6
CONTINUOUS
 10
30.906456906
 20
24.694953112
  0
VERTEX
  8
_CURVE
 62
7
  6
CONTINUOUS
 10
30.8802690097
 20
24.7127863096
  0
VERTEX
  8
_CURVE
 62
7
  6
CONTINUOUS
 10
30.8513892219
 20
24.7308029155
  0
VERTEX
  8
_CURVE
 62
7
  6
CONTINUOUS
 10
30.8200775175
 20
24.7485949345
  0
VERTEX
  8
_CURVE
 62
7
  6
CONTINUOUS
 10
30.7859169574
 20
24.7661708978
  0
VERTEX
  8
_CURVE
 62
7
  6
CONTINUOUS
 10
30.7493326515
 20
24.7831075143
  0
VERTEX
  8
_CURVE
 62
7
  6
CONTINUOUS
 10
30.7121070132
 20
24.7985600415
  0
VERTEX
  8
_CURVE
 62
7
  6
CONTINUOUS
 10
30.6753540887
 20
24.8122493076
  0
VERTEX
  8
_CURVE
 62
7
  6
CONTINUOUS
 10
30.6390462674
 20
24.8244119455
  0
VERTEX
  8
_CURVE
 62
7
  6
CONTINUOUS
 10
30.603006234
 20
24.8352942163
  0
VERTEX
  8
_CURVE
 62
7
  6
CONTINUOUS
 10
30.5672313216
 20
24.8450548144
  0
VERTEX
  8
_CURVE
 62
7
  6
CONTINUOUS
 10
30.531904361
 20
24.853793872
  0
VERTEX
  8
_CURVE
 62
7
  6
CONTINUOUS
 10
30.4969133679
 20
24.8616685553
  0
VERTEX
  8
_CURVE
 62
7
  6
CONTINUOUS
 10
30.4613605817
 20
24.8689508595
  0
VERTEX
  8
_CURVE
 62
7
  6
CONTINUOUS
 10
30.4238306475
 20
24.875934412
  0
VERTEX
  8
_CURVE
 62
7
  6
CONTINUOUS
 10
30.3829172935
 20
24.8828249367
  0
VERTEX
  8
_CURVE
 62
7
  6
CONTINUOUS
 10
30.3379296965
 20
24.8896633352
  0
VERTEX
  8
_CURVE
 62
7
  6
CONTINUOUS
 10
30.288943986
 20
24.8963973237
  0
VERTEX
  8
_CURVE
 62
7
  6
CONTINUOUS
 10
30.2360330449
 20
24.9030069467
  0
VERTEX
  8
_CURVE
 62
7
  6
CONTINUOUS
 10
30.1790444434
 20
24.9095536111
  0
VERTEX
  8
_CURVE
 62
7
  6
CONTINUOUS
 10
30.1176186451
 20
24.9162032914
  0
SEQEND
  0
LINE
  8
_CURVE
 62
8
  6
PHANTOM
 10
32.423716001
 20
16.0212260729
 11
32.423716001
 21
21.6484867171
  0
POLYLINE
  8
_CURVE
 62
8
  6
PHANTOM
 66
1
 70
0
  0
VERTEX
  8
_CURVE
 62
8
  6
PHANTOM
 10
32.423716001
 20
21.6484867171
  0
VERTEX
  8
_CURVE
 62
8
  6
PHANTOM
 10
32.4296574461
 20
22.0356471227
  0
VERTEX
  8
_CURVE
 62
8
  6
PHANTOM
 10
32.4357517493
 20
22.4228596928
  0
VERTEX
  8
_CURVE
 62
8
  6
PHANTOM
 10
32.4415266565
 20
22.8101119762
  0
VERTEX
  8
_CURVE
 62
8
  6
PHANTOM
 10
32.4465099141
 20
23.1973915219
  0
VERTEX
  8
_CURVE
 62
8
  6
PHANTOM
 10
32.4502292681
 20
23.5846858786
  0
VERTEX
  8
_CURVE
 62
8
  6
PHANTOM
 10
32.4509875955
 20
23.7147181465
  0
VERTEX
  8
_CURVE
 62
8
  6
PHANTOM
 10
32.4507849044
 20
23.8447390208
  0
VERTEX
  8
_CURVE
 62
8
  6
PHANTOM
 10
32.4493617876
 20
23.9550165228
  0
VERTEX
  8
_CURVE
 62
8
  6
PHANTOM
 10
32.4466600267
 20
24.0652805719
  0
VERTEX
  8
_CURVE
 62
8
  6
PHANTOM
 10
32.4426431902
 20
24.1755343036
  0
VERTEX
  8
_CURVE
 62
8
  6
PHANTOM
 10
32.4387527957
 20
24.257424171
  0
VERTEX
  8
_CURVE
 62
8
  6
PHANTOM
 10
32.4338998932
 20
24.3392679075
  0
VERTEX
  8
_CURVE
 62
8
  6
PHANTOM
 10
32.4278677709
 20
24.421023345
  0
VERTEX
  8
_CURVE
 62
8
  6
PHANTOM
 10
32.4204397167
 20
24.5026483157
  0
VERTEX
  8
_CURVE
 62
8
  6
PHANTOM
 10
32.4113990187
 20
24.5841006516
  0
VERTEX
  8
_CURVE
 62
8
  6
PHANTOM
 10
32.4005289651
 20
24.6653381848
  0
VERTEX
  8
_CURVE
 62
8
  6
PHANTOM
 10
32.3904315861
 20
24.7297501261
  0
VERTEX
  8
_CURVE
 62
8
  6
PHANTOM
 10
32.3789103767
 20
24.7939324156
  0
VERTEX
  8
_CURVE
 62
8
  6
PHANTOM
 10
32.3658353587
 20
24.8578178993
  0
VERTEX
  8
_CURVE
 62
8
  6
PHANTOM
 10
32.3510765535
 20
24.9213394235
  0
VERTEX
  8
_CURVE
 62
8
  6
PHANTOM
 10
32.3345039827
 20
24.9844298341
  0
VERTEX
  8
_CURVE
 62
8
  6
PHANTOM
 10
32.3159876679
 20
25.0470219775
  0
VERTEX
  8
_CURVE
 62
8
  6
PHANTOM
 10
32.3002387322
 20
25.0950856393
  0
VERTEX
  8
_CURVE
 62
8
  6
PHANTOM
 10
32.2832045814
 20
25.1427332829
  0
VERTEX
  8
_CURVE
 62
8
  6
PHANTOM
 10
32.2648428221
 20
25.189887758
  0
VERTEX
  8
_CURVE
 62
8
  6
PHANTOM
 10
32.2451110609
 20
25.2364719142
  0
VERTEX
  8
_CURVE
 62
8
  6
PHANTOM
 10
32.2239669045
 20
25.2824086012
  0
VERTEX
  8
_CURVE
 62
8
  6
PHANTOM
 10
32.2013679594
 20
25.3276206686
  0
VERTEX
  8
_CURVE
 62
8
  6
PHANTOM
 10
32.1772718323
 20
25.3720309659
  0
VERTEX
  8
_CURVE
 62
8
  6
PHANTOM
 10
32.1516361296
 20
25.4155623429
  0
VERTEX
  8
_CURVE
 62
8
  6
PHANTOM
 10
32.1269757384
 20
25.4542875991
  0
VERTEX
  8
_CURVE
 62
8
  6
PHANTOM
 10
32.1010065151
 20
25.4921441752
  0
VERTEX
  8
_CURVE
 62
8
  6
PHANTOM
 10
32.0737258435
 20
25.5290528096
  0
VERTEX
  8
_CURVE
 62
8
  6
PHANTOM
 10
32.0451311076
 20
25.5649342402
  0
VERTEX
  8
_CURVE
 62
8
  6
PHANTOM
 10
32.0152196914
 20
25.5997092053
  0
VERTEX
  8
_CURVE
 62
8
  6
PHANTOM
 10
31.9855802816
 20
25.6316661847
  0
VERTEX
  8
_CURVE
 62
8
  6
PHANTOM
 10
31.9547962409
 20
25.6625303291
  0
VERTEX
  8
_CURVE
 62
8
  6
PHANTOM
 10
31.9229143739
 20
25.6922796149
  0
VERTEX
  8
_CURVE
 62
8
  6
PHANTOM
 10
31.8899814851
 20
25.7208920184
  0
VERTEX
  8
_CURVE
 62
8
  6
PHANTOM
 10
31.8560443793
 20
25.7483455162
  0
VERTEX
  8
_CURVE
 62
8
  6
PHANTOM
 10
31.8177105138
 20
25.7770990482
  0
VERTEX
  8
_CURVE
 62
8
  6
PHANTOM
 10
31.7782837981
 20
25.8043573444
  0
VERTEX
  8
_CURVE
 62
8
  6
PHANTOM
 10
31.7378238378
 20
25.8300466766
  0
VERTEX
  8
_CURVE
 62
8
  6
PHANTOM
 10
31.6963902386
 20
25.8540933165
  0
VERTEX
  8
_CURVE
 62
8
  6
PHANTOM
 10
31.6540426059
 20
25.8764235358
  0
VERTEX
  8
_CURVE
 62
8
  6
PHANTOM
 10
31.6108405454
 20
25.8969636063
  0
VERTEX
  8
_CURVE
 62
8
  6
PHANTOM
 10
31.5722985611
 20
25.9134802362
  0
VERTEX
  8
_CURVE
 62
8
  6
PHANTOM
 10
31.5332346074
 20
25.9287065718
  0
VERTEX
  8
_CURVE
 62
8
  6
PHANTOM
 10
31.493738218
 20
25.9427863085
  0
VERTEX
  8
_CURVE
 62
8
  6
PHANTOM
 10
31.4373746024
 20
25.9609440307
  0
VERTEX
  8
_CURVE
 62
8
  6
PHANTOM
 10
31.380423105
 20
25.9772040602
  0
VERTEX
  8
_CURVE
 62
8
  6
PHANTOM
 10
31.32297964
 20
25.9916686398
  0
VERTEX
  8
_CURVE
 62
8
  6
PHANTOM
 10
31.2651401218
 20
26.0044400122
  0
VERTEX
  8
_CURVE
 62
8
  6
PHANTOM
 10
31.1986830485
 20
26.0170993494
  0
VERTEX
  8
_CURVE
 62
8
  6
PHANTOM
 10
31.1319074294
 20
26.0278879458
  0
VERTEX
  8
_CURVE
 62
8
  6
PHANTOM
 10
31.0648865156
 20
26.0370118826
  0
VERTEX
  8
_CURVE
 62
8
  6
PHANTOM
 10
30.9987296789
 20
26.0445648127
  0
VERTEX
  8
_CURVE
 62
8
  6
PHANTOM
 10
30.9324422697
 20
26.0508779939
  0
VERTEX
  8
_CURVE
 62
8
  6
PHANTOM
 10
30.8660604704
 20
26.0561254198
  0
VERTEX
  8
_CURVE
 62
8
  6
PHANTOM
 10
30.7650075203
 20
26.0624068169
  0
VERTEX
  8
_CURVE
 62
8
  6
PHANTOM
 10
30.6638653882
 20
26.0669578286
  0
VERTEX
  8
_CURVE
 62
8
  6
PHANTOM
 10
30.547256198
 20
26.0705371072
  0
VERTEX
  8
_CURVE
 62
8
  6
PHANTOM
 10
30.4306132985
 20
26.073058996
  0
VERTEX
  8
_CURVE
 62
8
  6
PHANTOM
 10
30.1672970679
 20
26.0776049862
  0
VERTEX
  8
_CURVE
 62
8
  6
PHANTOM
 10
29.9039799375
 20
26.0814429389
  0
VERTEX
  8
_CURVE
 62
8
  6
PHANTOM
 10
29.6407083338
 20
26.085175607
  0
SEQEND
  0
ENDSEC
  0
EOF
