999
DXF file: 1162720_7_a.dxf
999
Pro/ENGINEER 2009220 by Parametric Technology Corporation
  0
SECTION
  2
HEADER
  9
$EXTMAX
 10
44.0
 20
34.0
 30
0.0
  9
$EXTMIN
 10
0.0
 20
0.0
 30
0.0
  9
$LIMMIN
 10
0.0
 20
0.0
  9
$LIMMAX
 10
44.0
 20
34.0
  9
$VIEWCTR
 10
22.0
 20
17.0
  9
$VIEWSIZE
 40
34.0
  9
$CLAYER
  8
0
  9
$LTSCALE
 40
2.42
  9
$CELTYPE
  6
BYLAYER
  9
$DIMSCALE
 40
1.0
  9
$DIMASZ
 40
0.1875
  9
$DIMEXO
 40
0.275
  9
$DIMDLI
 40
1.672
  9
$DIMEXE
 40
0.792
  9
$DIMCEN
 40
0.396
  9
$DIMLFAC
 40
1.0
  9
$DIMBLK
  1
_FILLED
  9
$DIMTXT
 40
0.15625
  9
$PDMODE
 70
3
  9
$PDSIZE
 40
0.3125
  9
$TILEMODE
 70
1
  0
ENDSEC
  0
SECTION
  2
TABLES
  0
TABLE
  2
LTYPE
 70
6
  0
LTYPE
  2
BYBLOCK
 70
0
  3

 72
65
 73
0
 40
0.0
  0
LTYPE
  2
BYLAYER
 70
0
  3

 72
65
 73
0
 40
0.0
  0
LTYPE
  2
CONTINUOUS
 70
64
  3
Solid line
 72
65
 73
0
 40
0.0
  0
LTYPE
  2
CENTER
 70
64
  3
____ _ ____ _ ____ _ ____ _ ____ _ ____ _ ____
 72
65
 73
4
 40
0.6
 49
0.375
 49
-0.075
 49
0.075
 49
-0.075
  0
LTYPE
  2
HIDDEN
 70
64
  3
- - - - - - - - - - - - - - - - - - - -
 72
65
 73
2
 40
0.2
 49
0.1
 49
-0.1
  0
LTYPE
  2
PHANTOM
 70
64
  3
_____ _ _ _____ _ _ _____ _ _ _____
 72
65
 73
6
 40
0.8
 49
0.45
 49
-0.05
 49
0.1
 49
-0.05
 49
0.1
 49
-0.05
  0
LTYPE
  2
DOT
 70
64
  3
. . . . . . . . . . . . . . . . . . . .
 72
65
 73
2
 40
0.2
 49
0.1
 49
-0.1
  0
LTYPE
  2
DASHED
 70
64
  3
- - - - - - - - - - - - - - - - - - - -
 72
65
 73
2
 40
0.2
 49
0.1
 49
-0.1
  0
ENDTAB
  0
TABLE
  2
LAYER
 70
36
  0
LAYER
  2
0
 70
0
 62
7
  6
CONTINUOUS
  0
LAYER
  2
DEFAULT_1
 70
0
 62
7
  6
CENTER
  0
LAYER
  2
DEFAULT_2
 70
0
 62
8
  6
HIDDEN
  0
LAYER
  2
DEFAULT_3
 70
0
 62
7
  6
PHANTOM
  0
LAYER
  2
DATUMS
 70
0
 62
7
  6
CONTINUOUS
  0
LAYER
  2
DATUM_AXIS
 70
0
 62
7
  6
CONTINUOUS
  0
LAYER
  2
DATUM_CSYS
 70
0
 62
7
  6
CONTINUOUS
  0
LAYER
  2
DATUM_PLANE
 70
0
 62
7
  6
CONTINUOUS
  0
LAYER
  2
DATUM_POINT
 70
0
 62
7
  6
CONTINUOUS
  0
LAYER
  2
_CURVE
 70
0
 62
7
  6
CONTINUOUS
  0
LAYER
  2
_SURFACE
 70
0
 62
7
  6
CONTINUOUS
  0
LAYER
  2
__REF_CURVE
 70
0
 62
7
  6
CONTINUOUS
  0
LAYER
  2
__REF_SURFACE
 70
0
 62
7
  6
CONTINUOUS
  0
LAYER
  2
___NOTE
 70
0
 62
7
  6
CONTINUOUS
  0
LAYER
  2
___SYMBOL
 70
0
 62
7
  6
CONTINUOUS
  0
ENDTAB
  0
TABLE
  2
STYLE
 70
1
  0
STYLE
  2
STANDARD
 70
0
 40
0.0
 41
0.8
 50
0.0
 71
0
 42
0.2
  3
txt
  4

  0
STYLE
  2
TEXTSTYLE_1
 70
0
 40
0.0
 41
0.8
 50
0.0
 71
0
 42
0.2
  3
gdt
  4

  0
STYLE
  2
TEXTSTYLE_2
 70
0
 40
0.0
 41
1.0
 50
0.0
 71
0
 42
0.2
  3
txt
  4

  0
ENDTAB
  0
ENDSEC
  0
SECTION
  2
BLOCKS
  0
BLOCK
  8
___SYMBOL
 62
2
  6
CONTINUOUS
  2
SCISSORS_BL5
 70
64
 10
30.065310213
 20
23.9830422415
  0
LINE
  8
___SYMBOL
 62
7
  6
CONTINUOUS
 10
29.9099291958
 20
24.0595811298
 11
29.4391812886
 21
24.3718243017
  0
LINE
  8
___SYMBOL
 62
7
  6
CONTINUOUS
 10
29.8965800213
 20
24.0045111342
 11
29.4391812886
 21
24.3718243017
  0
LINE
  8
___SYMBOL
 62
7
  6
CONTINUOUS
 10
29.9968652149
 20
24.0111995497
 11
29.9597979557
 21
24.0460498681
  0
LINE
  8
___SYMBOL
 62
7
  6
CONTINUOUS
 10
29.9708979141
 20
24.0581114768
 11
30.0082202344
 21
24.0230213523
  0
LINE
  8
___SYMBOL
 62
7
  6
CONTINUOUS
 10
29.8412940568
 20
24.179345901
 11
29.6836166148
 21
24.6024915787
  0
LINE
  8
___SYMBOL
 62
7
  6
CONTINUOUS
 10
29.9432314747
 20
23.9160342398
 11
29.9228077743
 21
23.982461026
  0
LINE
  8
___SYMBOL
 62
7
  6
CONTINUOUS
 10
30.0234438073
 20
24.0921566958
 11
29.8359746189
 21
24.4501335746
  0
LINE
  8
___SYMBOL
 62
7
  6
CONTINUOUS
 10
29.9437758189
 20
24.1302911899
 11
29.9099291958
 21
24.0595811298
  0
LINE
  8
___SYMBOL
 62
7
  6
CONTINUOUS
 10
30.0902086309
 20
24.0601985301
 11
30.1474685266
 21
23.9219228625
  0
LINE
  8
___SYMBOL
 62
7
  6
CONTINUOUS
 10
30.0772873752
 20
23.8581220908
 11
30.0760697892
 21
23.9216743572
  0
LINE
  8
___SYMBOL
 62
7
  6
CONTINUOUS
 10
29.4391812886
 20
24.3718243017
 11
30.0902086309
 21
24.0601985301
  0
LINE
  8
___SYMBOL
 62
7
  6
CONTINUOUS
 10
30.0772873752
 20
23.8581220908
 11
29.9432314747
 21
23.9160342398
  0
ARC
  8
___SYMBOL
 62
7
  6
CONTINUOUS
 10
29.5161025789
 20
24.2826195387
 40
0.3610804262
 50
27.6406360869
 51
62.3593639131
  0
ARC
  8
___SYMBOL
 62
7
  6
CONTINUOUS
 10
30.1106875429
 20
24.2325602669
 40
0.3128073492
 50
226.8059909349
 51
276.752660067
  0
CIRCLE
  8
___SYMBOL
 62
7
  6
CONTINUOUS
 10
29.9841320606
 20
24.0347941711
 40
0.0268111801
  0
ARC
  8
___SYMBOL
 62
7
  6
CONTINUOUS
 10
30.3601540575
 20
23.8842795722
 40
0.0146088562
 50
230.3133793157
 51
359.0675041521
  0
ARC
  8
___SYMBOL
 62
7
  6
CONTINUOUS
 10
30.1288304198
 20
23.6423202435
 40
0.0146087357
 50
278.3109272841
 51
44.4467240969
  0
POLYLINE
  8
___SYMBOL
 62
7
  6
CONTINUOUS
 66
1
 70
0
  0
VERTEX
  8
___SYMBOL
 62
7
  6
CONTINUOUS
 10
30.4994521435
 20
23.6916032284
  0
VERTEX
  8
___SYMBOL
 62
7
  6
CONTINUOUS
 10
30.4898438208
 20
23.6964890496
  0
VERTEX
  8
___SYMBOL
 62
7
  6
CONTINUOUS
 10
30.4803773814
 20
23.701631421
  0
VERTEX
  8
___SYMBOL
 62
7
  6
CONTINUOUS
 10
30.4710481611
 20
23.7070177308
  0
VERTEX
  8
___SYMBOL
 62
7
  6
CONTINUOUS
 10
30.4618514962
 20
23.7126353672
  0
VERTEX
  8
___SYMBOL
 62
7
  6
CONTINUOUS
 10
30.4527827226
 20
23.7184717183
  0
VERTEX
  8
___SYMBOL
 62
7
  6
CONTINUOUS
 10
30.4438371764
 20
23.7245141722
  0
VERTEX
  8
___SYMBOL
 62
7
  6
CONTINUOUS
 10
30.4350101936
 20
23.7307501172
  0
VERTEX
  8
___SYMBOL
 62
7
  6
CONTINUOUS
 10
30.4262971103
 20
23.7371669414
  0
VERTEX
  8
___SYMBOL
 62
7
  6
CONTINUOUS
 10
30.4176932625
 20
23.7437520329
  0
VERTEX
  8
___SYMBOL
 62
7
  6
CONTINUOUS
 10
30.4091939864
 20
23.7504927799
  0
VERTEX
  8
___SYMBOL
 62
7
  6
CONTINUOUS
 10
30.4007946178
 20
23.7573765707
  0
VERTEX
  8
___SYMBOL
 62
7
  6
CONTINUOUS
 10
30.392490493
 20
23.7643907932
  0
VERTEX
  8
___SYMBOL
 62
7
  6
CONTINUOUS
 10
30.3842769479
 20
23.7715228357
  0
VERTEX
  8
___SYMBOL
 62
7
  6
CONTINUOUS
 10
30.3761493187
 20
23.7787600864
  0
VERTEX
  8
___SYMBOL
 62
7
  6
CONTINUOUS
 10
30.3681029412
 20
23.7860899334
  0
VERTEX
  8
___SYMBOL
 62
7
  6
CONTINUOUS
 10
30.3601331517
 20
23.7934997649
  0
VERTEX
  8
___SYMBOL
 62
7
  6
CONTINUOUS
 10
30.3522352861
 20
23.800976969
  0
VERTEX
  8
___SYMBOL
 62
7
  6
CONTINUOUS
 10
30.3444046805
 20
23.8085089338
  0
VERTEX
  8
___SYMBOL
 62
7
  6
CONTINUOUS
 10
30.336636671
 20
23.8160830477
  0
VERTEX
  8
___SYMBOL
 62
7
  6
CONTINUOUS
 10
30.3289265936
 20
23.8236866986
  0
VERTEX
  8
___SYMBOL
 62
7
  6
CONTINUOUS
 10
30.3176497439
 20
23.8349208248
  0
VERTEX
  8
___SYMBOL
 62
7
  6
CONTINUOUS
 10
30.306418701
 20
23.8461531649
  0
VERTEX
  8
___SYMBOL
 62
7
  6
CONTINUOUS
 10
30.2951635618
 20
23.8573451674
  0
VERTEX
  8
___SYMBOL
 62
7
  6
CONTINUOUS
 10
30.2838144229
 20
23.8684582807
  0
VERTEX
  8
___SYMBOL
 62
7
  6
CONTINUOUS
 10
30.2723013812
 20
23.8794539532
  0
VERTEX
  8
___SYMBOL
 62
7
  6
CONTINUOUS
 10
30.266934188
 20
23.8844560615
  0
VERTEX
  8
___SYMBOL
 62
7
  6
CONTINUOUS
 10
30.2615081972
 20
23.8894059246
  0
VERTEX
  8
___SYMBOL
 62
7
  6
CONTINUOUS
 10
30.2560140196
 20
23.8942842619
  0
VERTEX
  8
___SYMBOL
 62
7
  6
CONTINUOUS
 10
30.2504422665
 20
23.8990717933
  0
VERTEX
  8
___SYMBOL
 62
7
  6
CONTINUOUS
 10
30.2447835488
 20
23.9037492381
  0
VERTEX
  8
___SYMBOL
 62
7
  6
CONTINUOUS
 10
30.2390284776
 20
23.9082973161
  0
VERTEX
  8
___SYMBOL
 62
7
  6
CONTINUOUS
 10
30.2331676639
 20
23.9126967468
  0
VERTEX
  8
___SYMBOL
 62
7
  6
CONTINUOUS
 10
30.2271917187
 20
23.9169282498
  0
VERTEX
  8
___SYMBOL
 62
7
  6
CONTINUOUS
 10
30.2210912532
 20
23.9209725448
  0
VERTEX
  8
___SYMBOL
 62
7
  6
CONTINUOUS
 10
30.2148568783
 20
23.9248103512
  0
VERTEX
  8
___SYMBOL
 62
7
  6
CONTINUOUS
 10
30.2084792051
 20
23.9284223887
  0
VERTEX
  8
___SYMBOL
 62
7
  6
CONTINUOUS
 10
30.2019488446
 20
23.9317893768
  0
VERTEX
  8
___SYMBOL
 62
7
  6
CONTINUOUS
 10
30.1990690119
 20
23.933160221
  0
VERTEX
  8
___SYMBOL
 62
7
  6
CONTINUOUS
 10
30.1961507109
 20
23.9344393112
  0
VERTEX
  8
___SYMBOL
 62
7
  6
CONTINUOUS
 10
30.1931858871
 20
23.9355844948
  0
VERTEX
  8
___SYMBOL
 62
7
  6
CONTINUOUS
 10
30.1901664857
 20
23.9365536194
  0
VERTEX
  8
___SYMBOL
 62
7
  6
CONTINUOUS
 10
30.1870844521
 20
23.9373045324
  0
VERTEX
  8
___SYMBOL
 62
7
  6
CONTINUOUS
 10
30.1839317316
 20
23.9377950812
  0
VERTEX
  8
___SYMBOL
 62
7
  6
CONTINUOUS
 10
30.180815751
 20
23.9379901612
  0
VERTEX
  8
___SYMBOL
 62
7
  6
CONTINUOUS
 10
30.1776530956
 20
23.9379126608
  0
VERTEX
  8
___SYMBOL
 62
7
  6
CONTINUOUS
 10
30.1744706367
 20
23.9375725556
  0
VERTEX
  8
___SYMBOL
 62
7
  6
CONTINUOUS
 10
30.1712952455
 20
23.9369798211
  0
VERTEX
  8
___SYMBOL
 62
7
  6
CONTINUOUS
 10
30.1681537932
 20
23.9361444328
  0
VERTEX
  8
___SYMBOL
 62
7
  6
CONTINUOUS
 10
30.1650731512
 20
23.9350763665
  0
VERTEX
  8
___SYMBOL
 62
7
  6
CONTINUOUS
 10
30.1620801905
 20
23.9337855976
  0
VERTEX
  8
___SYMBOL
 62
7
  6
CONTINUOUS
 10
30.1592017826
 20
23.9322821017
  0
VERTEX
  8
___SYMBOL
 62
7
  6
CONTINUOUS
 10
30.1564647986
 20
23.9305758543
  0
VERTEX
  8
___SYMBOL
 62
7
  6
CONTINUOUS
 10
30.1538961097
 20
23.9286768312
  0
VERTEX
  8
___SYMBOL
 62
7
  6
CONTINUOUS
 10
30.1515225873
 20
23.9265950078
  0
VERTEX
  8
___SYMBOL
 62
7
  6
CONTINUOUS
 10
30.1493711025
 20
23.9243403597
  0
VERTEX
  8
___SYMBOL
 62
7
  6
CONTINUOUS
 10
30.1474685266
 20
23.9219228625
  0
SEQEND
  0
POLYLINE
  8
___SYMBOL
 62
7
  6
CONTINUOUS
 66
1
 70
0
  0
VERTEX
  8
___SYMBOL
 62
7
  6
CONTINUOUS
 10
30.3508250153
 20
23.873037346
  0
VERTEX
  8
___SYMBOL
 62
7
  6
CONTINUOUS
 10
30.3449665153
 20
23.8780149525
  0
VERTEX
  8
___SYMBOL
 62
7
  6
CONTINUOUS
 10
30.3392222922
 20
23.8831160477
  0
VERTEX
  8
___SYMBOL
 62
7
  6
CONTINUOUS
 10
30.332832677
 20
23.8890380633
  0
VERTEX
  8
___SYMBOL
 62
7
  6
CONTINUOUS
 10
30.3265769444
 20
23.8950782339
  0
VERTEX
  8
___SYMBOL
 62
7
  6
CONTINUOUS
 10
30.3204331923
 20
23.9012286585
  0
VERTEX
  8
___SYMBOL
 62
7
  6
CONTINUOUS
 10
30.3143795186
 20
23.907481436
  0
VERTEX
  8
___SYMBOL
 62
7
  6
CONTINUOUS
 10
30.3083940212
 20
23.9138286655
  0
VERTEX
  8
___SYMBOL
 62
7
  6
CONTINUOUS
 10
30.3024547977
 20
23.9202624457
  0
VERTEX
  8
___SYMBOL
 62
7
  6
CONTINUOUS
 10
30.2965399462
 20
23.9267748757
  0
VERTEX
  8
___SYMBOL
 62
7
  6
CONTINUOUS
 10
30.2906275645
 20
23.9333580544
  0
VERTEX
  8
___SYMBOL
 62
7
  6
CONTINUOUS
 10
30.2868908222
 20
23.9375401116
  0
VERTEX
  8
___SYMBOL
 62
7
  6
CONTINUOUS
 10
30.2831406731
 20
23.9417341566
  0
VERTEX
  8
___SYMBOL
 62
7
  6
CONTINUOUS
 10
30.2793714371
 20
23.9459271884
  0
VERTEX
  8
___SYMBOL
 62
7
  6
CONTINUOUS
 10
30.2755774338
 20
23.9501062062
  0
VERTEX
  8
___SYMBOL
 62
7
  6
CONTINUOUS
 10
30.271752983
 20
23.9542582092
  0
VERTEX
  8
___SYMBOL
 62
7
  6
CONTINUOUS
 10
30.2678924044
 20
23.9583701966
  0
VERTEX
  8
___SYMBOL
 62
7
  6
CONTINUOUS
 10
30.2639900177
 20
23.9624291674
  0
VERTEX
  8
___SYMBOL
 62
7
  6
CONTINUOUS
 10
30.2600401426
 20
23.9664221208
  0
VERTEX
  8
___SYMBOL
 62
7
  6
CONTINUOUS
 10
30.2560370988
 20
23.9703360561
  0
VERTEX
  8
___SYMBOL
 62
7
  6
CONTINUOUS
 10
30.2519752061
 20
23.9741579723
  0
VERTEX
  8
___SYMBOL
 62
7
  6
CONTINUOUS
 10
30.2478487842
 20
23.9778748686
  0
VERTEX
  8
___SYMBOL
 62
7
  6
CONTINUOUS
 10
30.2436521528
 20
23.9814737442
  0
VERTEX
  8
___SYMBOL
 62
7
  6
CONTINUOUS
 10
30.2393796316
 20
23.9849415982
  0
VERTEX
  8
___SYMBOL
 62
7
  6
CONTINUOUS
 10
30.2350255404
 20
23.9882654298
  0
VERTEX
  8
___SYMBOL
 62
7
  6
CONTINUOUS
 10
30.2305841988
 20
23.9914322381
  0
VERTEX
  8
___SYMBOL
 62
7
  6
CONTINUOUS
 10
30.2260499266
 20
23.9944290223
  0
VERTEX
  8
___SYMBOL
 62
7
  6
CONTINUOUS
 10
30.2214170435
 20
23.9972427816
  0
VERTEX
  8
___SYMBOL
 62
7
  6
CONTINUOUS
 10
30.2166798692
 20
23.9998605151
  0
VERTEX
  8
___SYMBOL
 62
7
  6
CONTINUOUS
 10
30.2118327235
 20
24.0022692219
  0
VERTEX
  8
___SYMBOL
 62
7
  6
CONTINUOUS
 10
30.2071910306
 20
24.0043286754
  0
VERTEX
  8
___SYMBOL
 62
7
  6
CONTINUOUS
 10
30.2024573816
 20
24.0062115506
  0
VERTEX
  8
___SYMBOL
 62
7
  6
CONTINUOUS
 10
30.1976412481
 20
24.0079359891
  0
VERTEX
  8
___SYMBOL
 62
7
  6
CONTINUOUS
 10
30.1927521016
 20
24.0095201325
  0
VERTEX
  8
___SYMBOL
 62
7
  6
CONTINUOUS
 10
30.1877994137
 20
24.0109821227
  0
VERTEX
  8
___SYMBOL
 62
7
  6
CONTINUOUS
 10
30.1827926559
 20
24.0123401011
  0
VERTEX
  8
___SYMBOL
 62
7
  6
CONTINUOUS
 10
30.1777412997
 20
24.0136122097
  0
VERTEX
  8
___SYMBOL
 62
7
  6
CONTINUOUS
 10
30.1726548167
 20
24.0148165899
  0
VERTEX
  8
___SYMBOL
 62
7
  6
CONTINUOUS
 10
30.1675426784
 20
24.0159713834
  0
VERTEX
  8
___SYMBOL
 62
7
  6
CONTINUOUS
 10
30.1624143563
 20
24.0170947321
  0
VERTEX
  8
___SYMBOL
 62
7
  6
CONTINUOUS
 10
30.1587283456
 20
24.0178951188
  0
VERTEX
  8
___SYMBOL
 62
7
  6
CONTINUOUS
 10
30.1550509677
 20
24.0187130382
  0
VERTEX
  8
___SYMBOL
 62
7
  6
CONTINUOUS
 10
30.1513943169
 20
24.0195728832
  0
VERTEX
  8
___SYMBOL
 62
7
  6
CONTINUOUS
 10
30.1477704876
 20
24.0204990471
  0
VERTEX
  8
___SYMBOL
 62
7
  6
CONTINUOUS
 10
30.1441915741
 20
24.0215159227
  0
VERTEX
  8
___SYMBOL
 62
7
  6
CONTINUOUS
 10
30.1406696707
 20
24.0226479034
  0
VERTEX
  8
___SYMBOL
 62
7
  6
CONTINUOUS
 10
30.1372168717
 20
24.023919382
  0
VERTEX
  8
___SYMBOL
 62
7
  6
CONTINUOUS
 10
30.1338452714
 20
24.0253547517
  0
VERTEX
  8
___SYMBOL
 62
7
  6
CONTINUOUS
 10
30.1305669641
 20
24.0269784055
  0
VERTEX
  8
___SYMBOL
 62
7
  6
CONTINUOUS
 10
30.1275860301
 20
24.0286861666
  0
VERTEX
  8
___SYMBOL
 62
7
  6
CONTINUOUS
 10
30.1246892693
 20
24.0305585354
  0
VERTEX
  8
___SYMBOL
 62
7
  6
CONTINUOUS
 10
30.1218682337
 20
24.0325732044
  0
VERTEX
  8
___SYMBOL
 62
7
  6
CONTINUOUS
 10
30.1191144751
 20
24.034707866
  0
VERTEX
  8
___SYMBOL
 62
7
  6
CONTINUOUS
 10
30.1164195451
 20
24.0369402126
  0
VERTEX
  8
___SYMBOL
 62
7
  6
CONTINUOUS
 10
30.1137749957
 20
24.0392479368
  0
VERTEX
  8
___SYMBOL
 62
7
  6
CONTINUOUS
 10
30.1111723785
 20
24.0416087309
  0
VERTEX
  8
___SYMBOL
 62
7
  6
CONTINUOUS
 10
30.1086032454
 20
24.0440002875
  0
VERTEX
  8
___SYMBOL
 62
7
  6
CONTINUOUS
 10
30.1056108865
 20
24.0468237456
  0
VERTEX
  8
___SYMBOL
 62
7
  6
CONTINUOUS
 10
30.1026257305
 20
24.0496326716
  0
VERTEX
  8
___SYMBOL
 62
7
  6
CONTINUOUS
 10
30.0996203522
 20
24.0524008394
  0
VERTEX
  8
___SYMBOL
 62
7
  6
CONTINUOUS
 10
30.0965673263
 20
24.0551020226
  0
VERTEX
  8
___SYMBOL
 62
7
  6
CONTINUOUS
 10
30.0934392276
 20
24.057709995
  0
VERTEX
  8
___SYMBOL
 62
7
  6
CONTINUOUS
 10
30.0902086309
 20
24.0601985301
  0
SEQEND
  0
POLYLINE
  8
___SYMBOL
 62
7
  6
CONTINUOUS
 66
1
 70
0
  0
VERTEX
  8
___SYMBOL
 62
7
  6
CONTINUOUS
 10
30.3028138242
 20
23.5496335737
  0
VERTEX
  8
___SYMBOL
 62
7
  6
CONTINUOUS
 10
30.2982209732
 20
23.5570505513
  0
VERTEX
  8
___SYMBOL
 62
7
  6
CONTINUOUS
 10
30.2934211449
 20
23.5643298049
  0
VERTEX
  8
___SYMBOL
 62
7
  6
CONTINUOUS
 10
30.2884272233
 20
23.5714779294
  0
VERTEX
  8
___SYMBOL
 62
7
  6
CONTINUOUS
 10
30.2832520922
 20
23.5785015197
  0
VERTEX
  8
___SYMBOL
 62
7
  6
CONTINUOUS
 10
30.2779086356
 20
23.5854071709
  0
VERTEX
  8
___SYMBOL
 62
7
  6
CONTINUOUS
 10
30.2724097372
 20
23.5922014778
  0
VERTEX
  8
___SYMBOL
 62
7
  6
CONTINUOUS
 10
30.266768281
 20
23.5988910355
  0
VERTEX
  8
___SYMBOL
 62
7
  6
CONTINUOUS
 10
30.2609971508
 20
23.605482439
  0
VERTEX
  8
___SYMBOL
 62
7
  6
CONTINUOUS
 10
30.2551092305
 20
23.6119822832
  0
VERTEX
  8
___SYMBOL
 62
7
  6
CONTINUOUS
 10
30.2491174039
 20
23.6183971631
  0
VERTEX
  8
___SYMBOL
 62
7
  6
CONTINUOUS
 10
30.243034555
 20
23.6247336737
  0
VERTEX
  8
___SYMBOL
 62
7
  6
CONTINUOUS
 10
30.2368735675
 20
23.6309984099
  0
VERTEX
  8
___SYMBOL
 62
7
  6
CONTINUOUS
 10
30.2306473255
 20
23.6371979667
  0
VERTEX
  8
___SYMBOL
 62
7
  6
CONTINUOUS
 10
30.2219680441
 20
23.6456638584
  0
VERTEX
  8
___SYMBOL
 62
7
  6
CONTINUOUS
 10
30.2132219
 20
23.6540467089
  0
VERTEX
  8
___SYMBOL
 62
7
  6
CONTINUOUS
 10
30.2044418477
 20
23.6623751372
  0
VERTEX
  8
___SYMBOL
 62
7
  6
CONTINUOUS
 10
30.1956608414
 20
23.670677762
  0
VERTEX
  8
___SYMBOL
 62
7
  6
CONTINUOUS
 10
30.1869118355
 20
23.6789832022
  0
VERTEX
  8
___SYMBOL
 62
7
  6
CONTINUOUS
 10
30.1782277844
 20
23.6873200768
  0
VERTEX
  8
___SYMBOL
 62
7
  6
CONTINUOUS
 10
30.1696416424
 20
23.6957170044
  0
VERTEX
  8
___SYMBOL
 62
7
  6
CONTINUOUS
 10
30.1611863639
 20
23.7042026041
  0
VERTEX
  8
___SYMBOL
 62
7
  6
CONTINUOUS
 10
30.1528949031
 20
23.7128054946
  0
VERTEX
  8
___SYMBOL
 62
7
  6
CONTINUOUS
 10
30.1440378228
 20
23.7223702216
  0
VERTEX
  8
___SYMBOL
 62
7
  6
CONTINUOUS
 10
30.1353473881
 20
23.7320955315
  0
VERTEX
  8
___SYMBOL
 62
7
  6
CONTINUOUS
 10
30.1267550543
 20
23.74196761
  0
VERTEX
  8
___SYMBOL
 62
7
  6
CONTINUOUS
 10
30.118192277
 20
23.7519726429
  0
VERTEX
  8
___SYMBOL
 62
7
  6
CONTINUOUS
 10
30.1095905116
 20
23.7620968158
  0
VERTEX
  8
___SYMBOL
 62
7
  6
CONTINUOUS
 10
30.1008812137
 20
23.7723263144
  0
VERTEX
  8
___SYMBOL
 62
7
  6
CONTINUOUS
 10
30.0982394551
 20
23.7754166467
  0
VERTEX
  8
___SYMBOL
 62
7
  6
CONTINUOUS
 10
30.0956026495
 20
23.7785221975
  0
VERTEX
  8
___SYMBOL
 62
7
  6
CONTINUOUS
 10
30.092991615
 20
23.7816499397
  0
VERTEX
  8
___SYMBOL
 62
7
  6
CONTINUOUS
 10
30.09042717
 20
23.7848068462
  0
VERTEX
  8
___SYMBOL
 62
7
  6
CONTINUOUS
 10
30.0879301324
 20
23.7879998899
  0
VERTEX
  8
___SYMBOL
 62
7
  6
CONTINUOUS
 10
30.0855213207
 20
23.7912360438
  0
VERTEX
  8
___SYMBOL
 62
7
  6
CONTINUOUS
 10
30.0832215529
 20
23.7945222808
  0
VERTEX
  8
___SYMBOL
 62
7
  6
CONTINUOUS
 10
30.0810516474
 20
23.7978655738
  0
VERTEX
  8
___SYMBOL
 62
7
  6
CONTINUOUS
 10
30.0790324222
 20
23.8012728957
  0
VERTEX
  8
___SYMBOL
 62
7
  6
CONTINUOUS
 10
30.0771846956
 20
23.8047512194
  0
VERTEX
  8
___SYMBOL
 62
7
  6
CONTINUOUS
 10
30.0755292858
 20
23.808307518
  0
VERTEX
  8
___SYMBOL
 62
7
  6
CONTINUOUS
 10
30.074087011
 20
23.8119487642
  0
VERTEX
  8
___SYMBOL
 62
7
  6
CONTINUOUS
 10
30.0728786894
 20
23.8156819311
  0
VERTEX
  8
___SYMBOL
 62
7
  6
CONTINUOUS
 10
30.0719251392
 20
23.8195139914
  0
VERTEX
  8
___SYMBOL
 62
7
  6
CONTINUOUS
 10
30.0713017392
 20
23.823033029
  0
VERTEX
  8
___SYMBOL
 62
7
  6
CONTINUOUS
 10
30.0708998418
 20
23.8266153583
  0
VERTEX
  8
___SYMBOL
 62
7
  6
CONTINUOUS
 10
30.0707196712
 20
23.8302392682
  0
VERTEX
  8
___SYMBOL
 62
7
  6
CONTINUOUS
 10
30.0707614517
 20
23.8338830472
  0
VERTEX
  8
___SYMBOL
 62
7
  6
CONTINUOUS
 10
30.0710254074
 20
23.8375249842
  0
VERTEX
  8
___SYMBOL
 62
7
  6
CONTINUOUS
 10
30.0715117625
 20
23.8411433679
  0
VERTEX
  8
___SYMBOL
 62
7
  6
CONTINUOUS
 10
30.0722207411
 20
23.8447164869
  0
VERTEX
  8
___SYMBOL
 62
7
  6
CONTINUOUS
 10
30.0731525675
 20
23.84822263
  0
VERTEX
  8
___SYMBOL
 62
7
  6
CONTINUOUS
 10
30.0743074659
 20
23.8516400859
  0
VERTEX
  8
___SYMBOL
 62
7
  6
CONTINUOUS
 10
30.0756856604
 20
23.8549471432
  0
VERTEX
  8
___SYMBOL
 62
7
  6
CONTINUOUS
 10
30.0772873752
 20
23.8581220908
  0
SEQEND
  0
POLYLINE
  8
___SYMBOL
 62
7
  6
CONTINUOUS
 66
1
 70
0
  0
VERTEX
  8
___SYMBOL
 62
7
  6
CONTINUOUS
 10
30.1392596236
 20
23.6525499486
  0
VERTEX
  8
___SYMBOL
 62
7
  6
CONTINUOUS
 10
30.1287091175
 20
23.6631564707
  0
VERTEX
  8
___SYMBOL
 62
7
  6
CONTINUOUS
 10
30.118040369
 20
23.6736611716
  0
VERTEX
  8
___SYMBOL
 62
7
  6
CONTINUOUS
 10
30.1102568616
 20
23.6812528685
  0
VERTEX
  8
___SYMBOL
 62
7
  6
CONTINUOUS
 10
30.1024547742
 20
23.688847643
  0
VERTEX
  8
___SYMBOL
 62
7
  6
CONTINUOUS
 10
30.0946596371
 20
23.6964596364
  0
VERTEX
  8
___SYMBOL
 62
7
  6
CONTINUOUS
 10
30.0868969809
 20
23.7041029901
  0
VERTEX
  8
___SYMBOL
 62
7
  6
CONTINUOUS
 10
30.0791923358
 20
23.7117918454
  0
VERTEX
  8
___SYMBOL
 62
7
  6
CONTINUOUS
 10
30.0715712322
 20
23.7195403437
  0
VERTEX
  8
___SYMBOL
 62
7
  6
CONTINUOUS
 10
30.0640592006
 20
23.7273626264
  0
VERTEX
  8
___SYMBOL
 62
7
  6
CONTINUOUS
 10
30.0566817713
 20
23.7352728348
  0
VERTEX
  8
___SYMBOL
 62
7
  6
CONTINUOUS
 10
30.0494644746
 20
23.7432851102
  0
VERTEX
  8
___SYMBOL
 62
7
  6
CONTINUOUS
 10
30.0424328411
 20
23.751413594
  0
VERTEX
  8
___SYMBOL
 62
7
  6
CONTINUOUS
 10
30.0385261462
 20
23.7560960914
  0
VERTEX
  8
___SYMBOL
 62
7
  6
CONTINUOUS
 10
30.0346962934
 20
23.7608315869
  0
VERTEX
  8
___SYMBOL
 62
7
  6
CONTINUOUS
 10
30.030951785
 20
23.7656308989
  0
VERTEX
  8
___SYMBOL
 62
7
  6
CONTINUOUS
 10
30.0273011236
 20
23.7705048459
  0
VERTEX
  8
___SYMBOL
 62
7
  6
CONTINUOUS
 10
30.0237528114
 20
23.7754642464
  0
VERTEX
  8
___SYMBOL
 62
7
  6
CONTINUOUS
 10
30.0203153508
 20
23.7805199189
  0
VERTEX
  8
___SYMBOL
 62
7
  6
CONTINUOUS
 10
30.0169972444
 20
23.7856826817
  0
VERTEX
  8
___SYMBOL
 62
7
  6
CONTINUOUS
 10
30.0138069945
 20
23.7909633534
  0
VERTEX
  8
___SYMBOL
 62
7
  6
CONTINUOUS
 10
30.0107531034
 20
23.7963727525
  0
VERTEX
  8
___SYMBOL
 62
7
  6
CONTINUOUS
 10
30.0078440737
 20
23.8019216973
  0
VERTEX
  8
___SYMBOL
 62
7
  6
CONTINUOUS
 10
30.0050884077
 20
23.8076210065
  0
VERTEX
  8
___SYMBOL
 62
7
  6
CONTINUOUS
 10
30.0024946078
 20
23.8134814983
  0
VERTEX
  8
___SYMBOL
 62
7
  6
CONTINUOUS
 10
30.0000711765
 20
23.8195139914
  0
VERTEX
  8
___SYMBOL
 62
7
  6
CONTINUOUS
 10
29.9988529338
 20
23.8227949244
  0
VERTEX
  8
___SYMBOL
 62
7
  6
CONTINUOUS
 10
29.9976775134
 20
23.8261192508
  0
VERTEX
  8
___SYMBOL
 62
7
  6
CONTINUOUS
 10
29.9965371283
 20
23.8294786376
  0
VERTEX
  8
___SYMBOL
 62
7
  6
CONTINUOUS
 10
29.9954239916
 20
23.8328647518
  0
VERTEX
  8
___SYMBOL
 62
7
  6
CONTINUOUS
 10
29.9943303162
 20
23.8362692603
  0
VERTEX
  8
___SYMBOL
 62
7
  6
CONTINUOUS
 10
29.9932483152
 20
23.83968383
  0
VERTEX
  8
___SYMBOL
 62
7
  6
CONTINUOUS
 10
29.9921702015
 20
23.8431001279
  0
VERTEX
  8
___SYMBOL
 62
7
  6
CONTINUOUS
 10
29.9910881883
 20
23.846509821
  0
VERTEX
  8
___SYMBOL
 62
7
  6
CONTINUOUS
 10
29.9899944886
 20
23.8499045761
  0
VERTEX
  8
___SYMBOL
 62
7
  6
CONTINUOUS
 10
29.9888813153
 20
23.8532760602
  0
VERTEX
  8
___SYMBOL
 62
7
  6
CONTINUOUS
 10
29.9877408815
 20
23.8566159403
  0
VERTEX
  8
___SYMBOL
 62
7
  6
CONTINUOUS
 10
29.9865654001
 20
23.8599158833
  0
VERTEX
  8
___SYMBOL
 62
7
  6
CONTINUOUS
 10
29.9853470844
 20
23.8631675562
  0
VERTEX
  8
___SYMBOL
 62
7
  6
CONTINUOUS
 10
29.9840781471
 20
23.8663626259
  0
VERTEX
  8
___SYMBOL
 62
7
  6
CONTINUOUS
 10
29.9827508014
 20
23.8694927593
  0
VERTEX
  8
___SYMBOL
 62
7
  6
CONTINUOUS
 10
29.9813572603
 20
23.8725496235
  0
VERTEX
  8
___SYMBOL
 62
7
  6
CONTINUOUS
 10
29.9798897369
 20
23.8755248852
  0
VERTEX
  8
___SYMBOL
 62
7
  6
CONTINUOUS
 10
29.978340444
 20
23.8784102116
  0
VERTEX
  8
___SYMBOL
 62
7
  6
CONTINUOUS
 10
29.9767015948
 20
23.8811972695
  0
VERTEX
  8
___SYMBOL
 62
7
  6
CONTINUOUS
 10
29.9749654023
 20
23.8838777259
  0
VERTEX
  8
___SYMBOL
 62
7
  6
CONTINUOUS
 10
29.9731240794
 20
23.8864432476
  0
VERTEX
  8
___SYMBOL
 62
7
  6
CONTINUOUS
 10
29.9711698393
 20
23.8888855018
  0
VERTEX
  8
___SYMBOL
 62
7
  6
CONTINUOUS
 10
29.9690948949
 20
23.8911961553
  0
VERTEX
  8
___SYMBOL
 62
7
  6
CONTINUOUS
 10
29.9668914593
 20
23.893366875
  0
VERTEX
  8
___SYMBOL
 62
7
  6
CONTINUOUS
 10
29.9645517454
 20
23.8953893279
  0
VERTEX
  8
___SYMBOL
 62
7
  6
CONTINUOUS
 10
29.9620679664
 20
23.897255181
  0
VERTEX
  8
___SYMBOL
 62
7
  6
CONTINUOUS
 10
29.9594323351
 20
23.8989561012
  0
VERTEX
  8
___SYMBOL
 62
7
  6
CONTINUOUS
 10
29.9566370647
 20
23.9004837554
  0
VERTEX
  8
___SYMBOL
 62
7
  6
CONTINUOUS
 10
29.9552326802
 20
23.9011631054
  0
VERTEX
  8
___SYMBOL
 62
7
  6
CONTINUOUS
 10
29.9538113552
 20
23.901839155
  0
VERTEX
  8
___SYMBOL
 62
7
  6
CONTINUOUS
 10
29.9523951318
 20
23.902550886
  0
VERTEX
  8
___SYMBOL
 62
7
  6
CONTINUOUS
 10
29.951006052
 20
23.9033372806
  0
VERTEX
  8
___SYMBOL
 62
7
  6
CONTINUOUS
 10
29.9496661579
 20
23.9042373206
  0
VERTEX
  8
___SYMBOL
 62
7
  6
CONTINUOUS
 10
29.9484673958
 20
23.9052170316
  0
VERTEX
  8
___SYMBOL
 62
7
  6
CONTINUOUS
 10
29.9473492492
 20
23.9063165643
  0
VERTEX
  8
___SYMBOL
 62
7
  6
CONTINUOUS
 10
29.9463290041
 20
23.9075200371
  0
VERTEX
  8
___SYMBOL
 62
7
  6
CONTINUOUS
 10
29.9454239464
 20
23.9088115682
  0
VERTEX
  8
___SYMBOL
 62
7
  6
CONTINUOUS
 10
29.9446513619
 20
23.910175276
  0
VERTEX
  8
___SYMBOL
 62
7
  6
CONTINUOUS
 10
29.9440285366
 20
23.9115952788
  0
VERTEX
  8
___SYMBOL
 62
7
  6
CONTINUOUS
 10
29.9435727564
 20
23.9130556948
  0
VERTEX
  8
___SYMBOL
 62
7
  6
CONTINUOUS
 10
29.9433013071
 20
23.9145406424
  0
VERTEX
  8
___SYMBOL
 62
7
  6
CONTINUOUS
 10
29.9432314747
 20
23.9160342398
  0
SEQEND
  0
POLYLINE
  8
___SYMBOL
 62
7
  6
CONTINUOUS
 66
1
 70
0
  0
VERTEX
  8
___SYMBOL
 62
7
  6
CONTINUOUS
 10
30.6249219814
 20
23.7438965956
  0
VERTEX
  8
___SYMBOL
 62
7
  6
CONTINUOUS
 10
30.6368797235
 20
23.7616362155
  0
VERTEX
  8
___SYMBOL
 62
7
  6
CONTINUOUS
 10
30.6438007559
 20
23.7830416337
  0
VERTEX
  8
___SYMBOL
 62
7
  6
CONTINUOUS
 10
30.6450788821
 20
23.8062375172
  0
VERTEX
  8
___SYMBOL
 62
7
  6
CONTINUOUS
 10
30.6406981018
 20
23.8309404796
  0
VERTEX
  8
___SYMBOL
 62
7
  6
CONTINUOUS
 10
30.6310426694
 20
23.8549859455
  0
VERTEX
  8
___SYMBOL
 62
7
  6
CONTINUOUS
 10
30.6162301128
 20
23.8780802189
  0
VERTEX
  8
___SYMBOL
 62
7
  6
CONTINUOUS
 10
30.5975586822
 20
23.8981997582
  0
VERTEX
  8
___SYMBOL
 62
7
  6
CONTINUOUS
 10
30.5757094622
 20
23.9148139144
  0
VERTEX
  8
___SYMBOL
 62
7
  6
CONTINUOUS
 10
30.5512771852
 20
23.9272966144
  0
VERTEX
  8
___SYMBOL
 62
7
  6
CONTINUOUS
 10
30.5264025909
 20
23.9345542303
  0
VERTEX
  8
___SYMBOL
 62
7
  6
CONTINUOUS
 10
30.5013896847
 20
23.9364978531
  0
VERTEX
  8
___SYMBOL
 62
7
  6
CONTINUOUS
 10
30.4784300117
 20
23.9329572529
  0
VERTEX
  8
___SYMBOL
 62
7
  6
CONTINUOUS
 10
30.457803989
 20
23.9239758121
  0
VERTEX
  8
___SYMBOL
 62
7
  6
CONTINUOUS
 10
30.4413190723
 20
23.9103404314
  0
VERTEX
  8
___SYMBOL
 62
7
  6
CONTINUOUS
 10
30.4293613302
 20
23.8926009765
  0
VERTEX
  8
___SYMBOL
 62
7
  6
CONTINUOUS
 10
30.4224402153
 20
23.8711954758
  0
VERTEX
  8
___SYMBOL
 62
7
  6
CONTINUOUS
 10
30.421162254
 20
23.8479995923
  0
VERTEX
  8
___SYMBOL
 62
7
  6
CONTINUOUS
 10
30.4255429518
 20
23.8232965475
  0
VERTEX
  8
___SYMBOL
 62
7
  6
CONTINUOUS
 10
30.4351984667
 20
23.799251164
  0
VERTEX
  8
___SYMBOL
 62
7
  6
CONTINUOUS
 10
30.4500109408
 20
23.7761568081
  0
VERTEX
  8
___SYMBOL
 62
7
  6
CONTINUOUS
 10
30.4686823714
 20
23.7560372688
  0
VERTEX
  8
___SYMBOL
 62
7
  6
CONTINUOUS
 10
30.4905315914
 20
23.7394231126
  0
VERTEX
  8
___SYMBOL
 62
7
  6
CONTINUOUS
 10
30.5149638685
 20
23.7269404126
  0
VERTEX
  8
___SYMBOL
 62
7
  6
CONTINUOUS
 10
30.5398385453
 20
23.7196828792
  0
VERTEX
  8
___SYMBOL
 62
7
  6
CONTINUOUS
 10
30.5648514514
 20
23.7177392564
  0
VERTEX
  8
___SYMBOL
 62
7
  6
CONTINUOUS
 10
30.5878111245
 20
23.7212798566
  0
VERTEX
  8
___SYMBOL
 62
7
  6
CONTINUOUS
 10
30.6084369821
 20
23.7302612974
  0
VERTEX
  8
___SYMBOL
 62
7
  6
CONTINUOUS
 10
30.6249219814
 20
23.7438965956
  0
SEQEND
  0
POLYLINE
  8
___SYMBOL
 62
7
  6
CONTINUOUS
 66
1
 70
0
  0
VERTEX
  8
___SYMBOL
 62
7
  6
CONTINUOUS
 10
30.4994521435
 20
23.6916032284
  0
VERTEX
  8
___SYMBOL
 62
7
  6
CONTINUOUS
 10
30.5085527558
 20
23.686846151
  0
VERTEX
  8
___SYMBOL
 62
7
  6
CONTINUOUS
 10
30.5177373262
 20
23.682568441
  0
VERTEX
  8
___SYMBOL
 62
7
  6
CONTINUOUS
 10
30.5269744673
 20
23.6787847172
  0
VERTEX
  8
___SYMBOL
 62
7
  6
CONTINUOUS
 10
30.536232612
 20
23.6755079101
  0
VERTEX
  8
___SYMBOL
 62
7
  6
CONTINUOUS
 10
30.5454801215
 20
23.6727492178
  0
VERTEX
  8
___SYMBOL
 62
7
  6
CONTINUOUS
 10
30.5546853933
 20
23.6705180679
  0
VERTEX
  8
___SYMBOL
 62
7
  6
CONTINUOUS
 10
30.5638169693
 20
23.6688220852
  0
VERTEX
  8
___SYMBOL
 62
7
  6
CONTINUOUS
 10
30.5728436431
 20
23.6676670654
  0
VERTEX
  8
___SYMBOL
 62
7
  6
CONTINUOUS
 10
30.5817345671
 20
23.6670569559
  0
VERTEX
  8
___SYMBOL
 62
7
  6
CONTINUOUS
 10
30.5904593572
 20
23.6669938415
  0
VERTEX
  8
___SYMBOL
 62
7
  6
CONTINUOUS
 10
30.5989881974
 20
23.6674779379
  0
VERTEX
  8
___SYMBOL
 62
7
  6
CONTINUOUS
 10
30.6072919412
 20
23.6685075909
  0
VERTEX
  8
___SYMBOL
 62
7
  6
CONTINUOUS
 10
30.6153422113
 20
23.6700792816
  0
VERTEX
  8
___SYMBOL
 62
7
  6
CONTINUOUS
 10
30.6231114967
 20
23.672187639
  0
VERTEX
  8
___SYMBOL
 62
7
  6
CONTINUOUS
 10
30.6305732465
 20
23.6748254579
  0
VERTEX
  8
___SYMBOL
 62
7
  6
CONTINUOUS
 10
30.6377019611
 20
23.6779837239
  0
VERTEX
  8
___SYMBOL
 62
7
  6
CONTINUOUS
 10
30.6444732786
 20
23.6816516438
  0
VERTEX
  8
___SYMBOL
 62
7
  6
CONTINUOUS
 10
30.6508640587
 20
23.685816683
  0
VERTEX
  8
___SYMBOL
 62
7
  6
CONTINUOUS
 10
30.6568524616
 20
23.6904646078
  0
VERTEX
  8
___SYMBOL
 62
7
  6
CONTINUOUS
 10
30.6624180225
 20
23.6955795343
  0
VERTEX
  8
___SYMBOL
 62
7
  6
CONTINUOUS
 10
30.6675417215
 20
23.7011439827
  0
VERTEX
  8
___SYMBOL
 62
7
  6
CONTINUOUS
 10
30.672206049
 20
23.7071389372
  0
VERTEX
  8
___SYMBOL
 62
7
  6
CONTINUOUS
 10
30.676395065
 20
23.7135439105
  0
VERTEX
  8
___SYMBOL
 62
7
  6
CONTINUOUS
 10
30.680094454
 20
23.7203370142
  0
VERTEX
  8
___SYMBOL
 62
7
  6
CONTINUOUS
 10
30.6832915737
 20
23.7274950336
  0
VERTEX
  8
___SYMBOL
 62
7
  6
CONTINUOUS
 10
30.6859754982
 20
23.7349935068
  0
VERTEX
  8
___SYMBOL
 62
7
  6
CONTINUOUS
 10
30.6881370554
 20
23.7428068084
  0
VERTEX
  8
___SYMBOL
 62
7
  6
CONTINUOUS
 10
30.6897688585
 20
23.7509082374
  0
VERTEX
  8
___SYMBOL
 62
7
  6
CONTINUOUS
 10
30.6908653309
 20
23.7592701077
  0
VERTEX
  8
___SYMBOL
 62
7
  6
CONTINUOUS
 10
30.6914227255
 20
23.7678638436
  0
VERTEX
  8
___SYMBOL
 62
7
  6
CONTINUOUS
 10
30.6914391375
 20
23.7766600766
  0
VERTEX
  8
___SYMBOL
 62
7
  6
CONTINUOUS
 10
30.6909145108
 20
23.7856287467
  0
VERTEX
  8
___SYMBOL
 62
7
  6
CONTINUOUS
 10
30.6898506382
 20
23.7947392041
  0
VERTEX
  8
___SYMBOL
 62
7
  6
CONTINUOUS
 10
30.6882511555
 20
23.8039603148
  0
VERTEX
  8
___SYMBOL
 62
7
  6
CONTINUOUS
 10
30.6861215287
 20
23.8132605664
  0
VERTEX
  8
___SYMBOL
 62
7
  6
CONTINUOUS
 10
30.6834690356
 20
23.8226081764
  0
VERTEX
  8
___SYMBOL
 62
7
  6
CONTINUOUS
 10
30.6803027409
 20
23.8319712
  0
VERTEX
  8
___SYMBOL
 62
7
  6
CONTINUOUS
 10
30.676633465
 20
23.8413176401
  0
VERTEX
  8
___SYMBOL
 62
7
  6
CONTINUOUS
 10
30.6724737474
 20
23.8506155561
  0
VERTEX
  8
___SYMBOL
 62
7
  6
CONTINUOUS
 10
30.6678378035
 20
23.8598331732
  0
VERTEX
  8
___SYMBOL
 62
7
  6
CONTINUOUS
 10
30.6627414762
 20
23.8689389912
  0
VERTEX
  8
___SYMBOL
 62
7
  6
CONTINUOUS
 10
30.6572021818
 20
23.8779018917
  0
VERTEX
  8
___SYMBOL
 62
7
  6
CONTINUOUS
 10
30.6512388501
 20
23.8866912449
  0
VERTEX
  8
___SYMBOL
 62
7
  6
CONTINUOUS
 10
30.6448718604
 20
23.8952770141
  0
VERTEX
  8
___SYMBOL
 62
7
  6
CONTINUOUS
 10
30.6381229712
 20
23.9036298581
  0
VERTEX
  8
___SYMBOL
 62
7
  6
CONTINUOUS
 10
30.6310152462
 20
23.911721232
  0
VERTEX
  8
___SYMBOL
 62
7
  6
CONTINUOUS
 10
30.6235729754
 20
23.9195234842
  0
VERTEX
  8
___SYMBOL
 62
7
  6
CONTINUOUS
 10
30.6158215921
 20
23.9270099513
  0
VERTEX
  8
___SYMBOL
 62
7
  6
CONTINUOUS
 10
30.6077875857
 20
23.9341550489
  0
VERTEX
  8
___SYMBOL
 62
7
  6
CONTINUOUS
 10
30.5994984119
 20
23.9409343595
  0
VERTEX
  8
___SYMBOL
 62
7
  6
CONTINUOUS
 10
30.590982398
 20
23.9473247153
  0
VERTEX
  8
___SYMBOL
 62
7
  6
CONTINUOUS
 10
30.5822686468
 20
23.953304278
  0
VERTEX
  8
___SYMBOL
 62
7
  6
CONTINUOUS
 10
30.5733869366
 20
23.9588526129
  0
VERTEX
  8
___SYMBOL
 62
7
  6
CONTINUOUS
 10
30.5643676198
 20
23.9639507591
  0
VERTEX
  8
___SYMBOL
 62
7
  6
CONTINUOUS
 10
30.5552415191
 20
23.9685812942
  0
VERTEX
  8
___SYMBOL
 62
7
  6
CONTINUOUS
 10
30.5460398221
 20
23.9727283938
  0
VERTEX
  8
___SYMBOL
 62
7
  6
CONTINUOUS
 10
30.5367939746
 20
23.9763778856
  0
VERTEX
  8
___SYMBOL
 62
7
  6
CONTINUOUS
 10
30.5275355736
 20
23.9795172977
  0
VERTEX
  8
___SYMBOL
 62
7
  6
CONTINUOUS
 10
30.5182962586
 20
23.9821359016
  0
VERTEX
  8
___SYMBOL
 62
7
  6
CONTINUOUS
 10
30.5091076042
 20
23.9842247484
  0
VERTEX
  8
___SYMBOL
 62
7
  6
CONTINUOUS
 10
30.5000010118
 20
23.9857766997
  0
VERTEX
  8
___SYMBOL
 62
7
  6
CONTINUOUS
 10
30.4910076022
 20
23.9867864518
  0
VERTEX
  8
___SYMBOL
 62
7
  6
CONTINUOUS
 10
30.4821581095
 20
23.9872505541
  0
VERTEX
  8
___SYMBOL
 62
7
  6
CONTINUOUS
 10
30.4734827761
 20
23.9871674204
  0
VERTEX
  8
___SYMBOL
 62
7
  6
CONTINUOUS
 10
30.465011249
 20
23.9865373348
  0
VERTEX
  8
___SYMBOL
 62
7
  6
CONTINUOUS
 10
30.456772479
 20
23.9853624507
  0
VERTEX
  8
___SYMBOL
 62
7
  6
CONTINUOUS
 10
30.4487946212
 20
23.9836467831
  0
VERTEX
  8
___SYMBOL
 62
7
  6
CONTINUOUS
 10
30.4411049392
 20
23.9813961952
  0
VERTEX
  8
___SYMBOL
 62
7
  6
CONTINUOUS
 10
30.4337297117
 20
23.978618378
  0
VERTEX
  8
___SYMBOL
 62
7
  6
CONTINUOUS
 10
30.426694143
 20
23.9753228245
  0
VERTEX
  8
___SYMBOL
 62
7
  6
CONTINUOUS
 10
30.4200222762
 20
23.9715207969
  0
VERTEX
  8
___SYMBOL
 62
7
  6
CONTINUOUS
 10
30.4137369121
 20
23.9672252884
  0
VERTEX
  8
___SYMBOL
 62
7
  6
CONTINUOUS
 10
30.4078595301
 20
23.9624509784
  0
VERTEX
  8
___SYMBOL
 62
7
  6
CONTINUOUS
 10
30.4024102156
 20
23.9572141827
  0
VERTEX
  8
___SYMBOL
 62
7
  6
CONTINUOUS
 10
30.3974075913
 20
23.9515327975
  0
VERTEX
  8
___SYMBOL
 62
7
  6
CONTINUOUS
 10
30.392868753
 20
23.9454262383
  0
VERTEX
  8
___SYMBOL
 62
7
  6
CONTINUOUS
 10
30.3888092118
 20
23.9389153739
  0
VERTEX
  8
___SYMBOL
 62
7
  6
CONTINUOUS
 10
30.3852428408
 20
23.9320224544
  0
VERTEX
  8
___SYMBOL
 62
7
  6
CONTINUOUS
 10
30.3821818278
 20
23.9247710357
  0
VERTEX
  8
___SYMBOL
 62
7
  6
CONTINUOUS
 10
30.3796366334
 20
23.917185899
  0
VERTEX
  8
___SYMBOL
 62
7
  6
CONTINUOUS
 10
30.3776159556
 20
23.9092929655
  0
VERTEX
  8
___SYMBOL
 62
7
  6
CONTINUOUS
 10
30.3761267
 20
23.9011192088
  0
VERTEX
  8
___SYMBOL
 62
7
  6
CONTINUOUS
 10
30.3751739558
 20
23.8926925618
  0
VERTEX
  8
___SYMBOL
 62
7
  6
CONTINUOUS
 10
30.374760979
 20
23.8840418218
  0
SEQEND
  0
POLYLINE
  8
___SYMBOL
 62
7
  6
CONTINUOUS
 66
1
 70
0
  0
VERTEX
  8
___SYMBOL
 62
7
  6
CONTINUOUS
 10
30.2740814077
 20
23.4125202915
  0
VERTEX
  8
___SYMBOL
 62
7
  6
CONTINUOUS
 10
30.2842806025
 20
23.4305541848
  0
VERTEX
  8
___SYMBOL
 62
7
  6
CONTINUOUS
 10
30.2892044441
 20
23.451885581
  0
VERTEX
  8
___SYMBOL
 62
7
  6
CONTINUOUS
 10
30.2884216671
 20
23.474645168
  0
VERTEX
  8
___SYMBOL
 62
7
  6
CONTINUOUS
 10
30.281941756
 20
23.4985550851
  0
VERTEX
  8
___SYMBOL
 62
7
  6
CONTINUOUS
 10
30.2703325151
 20
23.5215203253
  0
VERTEX
  8
___SYMBOL
 62
7
  6
CONTINUOUS
 10
30.2537356788
 20
23.5432603474
  0
VERTEX
  8
___SYMBOL
 62
7
  6
CONTINUOUS
 10
30.2336056239
 20
23.5618701274
  0
VERTEX
  8
___SYMBOL
 62
7
  6
CONTINUOUS
 10
30.2106587345
 20
23.5768698214
  0
VERTEX
  8
___SYMBOL
 62
7
  6
CONTINUOUS
 10
30.185535146
 20
23.5876809036
  0
VERTEX
  8
___SYMBOL
 62
7
  6
CONTINUOUS
 10
30.1604359703
 20
23.5933563877
  0
VERTEX
  8
___SYMBOL
 62
7
  6
CONTINUOUS
 10
30.1356679758
 20
23.593826623
  0
VERTEX
  8
___SYMBOL
 62
7
  6
CONTINUOUS
 10
30.1134013462
 20
23.5890506191
  0
VERTEX
  8
___SYMBOL
 62
7
  6
CONTINUOUS
 10
30.0939080039
 20
23.5790866863
  0
VERTEX
  8
___SYMBOL
 62
7
  6
CONTINUOUS
 10
30.0788960622
 20
23.5648077888
  0
VERTEX
  8
___SYMBOL
 62
7
  6
CONTINUOUS
 10
30.0686969499
 20
23.546773813
  0
VERTEX
  8
___SYMBOL
 62
7
  6
CONTINUOUS
 10
30.0637730257
 20
23.5254424993
  0
VERTEX
  8
___SYMBOL
 62
7
  6
CONTINUOUS
 10
30.0645558028
 20
23.5026829123
  0
VERTEX
  8
___SYMBOL
 62
7
  6
CONTINUOUS
 10
30.0710357551
 20
23.4787728715
  0
VERTEX
  8
___SYMBOL
 62
7
  6
CONTINUOUS
 10
30.0826450373
 20
23.4558076726
  0
VERTEX
  8
___SYMBOL
 62
7
  6
CONTINUOUS
 10
30.0992417911
 20
23.4340677329
  0
VERTEX
  8
___SYMBOL
 62
7
  6
CONTINUOUS
 10
30.119371846
 20
23.4154579529
  0
VERTEX
  8
___SYMBOL
 62
7
  6
CONTINUOUS
 10
30.1423187353
 20
23.4004582589
  0
VERTEX
  8
___SYMBOL
 62
7
  6
CONTINUOUS
 10
30.1674424063
 20
23.3896470942
  0
VERTEX
  8
___SYMBOL
 62
7
  6
CONTINUOUS
 10
30.1925414996
 20
23.3839716926
  0
VERTEX
  8
___SYMBOL
 62
7
  6
CONTINUOUS
 10
30.217309494
 20
23.3835014573
  0
VERTEX
  8
___SYMBOL
 62
7
  6
CONTINUOUS
 10
30.2395761236
 20
23.3882774612
  0
VERTEX
  8
___SYMBOL
 62
7
  6
CONTINUOUS
 10
30.259069466
 20
23.3982413941
  0
VERTEX
  8
___SYMBOL
 62
7
  6
CONTINUOUS
 10
30.2740814077
 20
23.4125202915
  0
SEQEND
  0
POLYLINE
  8
___SYMBOL
 62
7
  6
CONTINUOUS
 66
1
 70
0
  0
VERTEX
  8
___SYMBOL
 62
7
  6
CONTINUOUS
 10
30.1309420383
 20
23.6278649252
  0
VERTEX
  8
___SYMBOL
 62
7
  6
CONTINUOUS
 10
30.1222860539
 20
23.6262915932
  0
VERTEX
  8
___SYMBOL
 62
7
  6
CONTINUOUS
 10
30.1138996432
 20
23.624141076
  0
VERTEX
  8
___SYMBOL
 62
7
  6
CONTINUOUS
 10
30.1058149695
 20
23.6214216212
  0
VERTEX
  8
___SYMBOL
 62
7
  6
CONTINUOUS
 10
30.0980630393
 20
23.6181436585
  0
VERTEX
  8
___SYMBOL
 62
7
  6
CONTINUOUS
 10
30.0906735827
 20
23.6143197595
  0
VERTEX
  8
___SYMBOL
 62
7
  6
CONTINUOUS
 10
30.0836749397
 20
23.6099645896
  0
VERTEX
  8
___SYMBOL
 62
7
  6
CONTINUOUS
 10
30.0770939516
 20
23.6050948517
  0
VERTEX
  8
___SYMBOL
 62
7
  6
CONTINUOUS
 10
30.0709558575
 20
23.5997292223
  0
VERTEX
  8
___SYMBOL
 62
7
  6
CONTINUOUS
 10
30.0652841985
 20
23.5938882796
  0
VERTEX
  8
___SYMBOL
 62
7
  6
CONTINUOUS
 10
30.0601007264
 20
23.5875944247
  0
VERTEX
  8
___SYMBOL
 62
7
  6
CONTINUOUS
 10
30.0554253207
 20
23.5808717958
  0
VERTEX
  8
___SYMBOL
 62
7
  6
CONTINUOUS
 10
30.0512759127
 20
23.5737461755
  0
VERTEX
  8
___SYMBOL
 62
7
  6
CONTINUOUS
 10
30.0476684161
 20
23.566244892
  0
VERTEX
  8
___SYMBOL
 62
7
  6
CONTINUOUS
 10
30.0446166664
 20
23.5583967141
  0
VERTEX
  8
___SYMBOL
 62
7
  6
CONTINUOUS
 10
30.0421323676
 20
23.5502317412
  0
VERTEX
  8
___SYMBOL
 62
7
  6
CONTINUOUS
 10
30.0402250474
 20
23.5417812875
  0
VERTEX
  8
___SYMBOL
 62
7
  6
CONTINUOUS
 10
30.038902021
 20
23.5330777622
  0
VERTEX
  8
___SYMBOL
 62
7
  6
CONTINUOUS
 10
30.0381683622
 20
23.5241545449
  0
VERTEX
  8
___SYMBOL
 62
7
  6
CONTINUOUS
 10
30.0380268849
 20
23.515045858
  0
VERTEX
  8
___SYMBOL
 62
7
  6
CONTINUOUS
 10
30.0384781316
 20
23.5057866351
  0
VERTEX
  8
___SYMBOL
 62
7
  6
CONTINUOUS
 10
30.0395203717
 20
23.4964123871
  0
VERTEX
  8
___SYMBOL
 62
7
  6
CONTINUOUS
 10
30.041149608
 20
23.4869590661
  0
VERTEX
  8
___SYMBOL
 62
7
  6
CONTINUOUS
 10
30.0433595921
 20
23.4774629274
  0
VERTEX
  8
___SYMBOL
 62
7
  6
CONTINUOUS
 10
30.0461418482
 20
23.4679603906
  0
VERTEX
  8
___SYMBOL
 62
7
  6
CONTINUOUS
 10
30.0494857059
 20
23.4584878997
  0
VERTEX
  8
___SYMBOL
 62
7
  6
CONTINUOUS
 10
30.0533783408
 20
23.4490817837
  0
VERTEX
  8
___SYMBOL
 62
7
  6
CONTINUOUS
 10
30.0578048239
 20
23.4397781168
  0
VERTEX
  8
___SYMBOL
 62
7
  6
CONTINUOUS
 10
30.0627481787
 20
23.4306125804
  0
VERTEX
  8
___SYMBOL
 62
7
  6
CONTINUOUS
 10
30.0681894466
 20
23.4216203262
  0
VERTEX
  8
___SYMBOL
 62
7
  6
CONTINUOUS
 10
30.0741077592
 20
23.4128358411
  0
VERTEX
  8
___SYMBOL
 62
7
  6
CONTINUOUS
 10
30.0804804185
 20
23.4042928155
  0
VERTEX
  8
___SYMBOL
 62
7
  6
CONTINUOUS
 10
30.0872829843
 20
23.3960240134
  0
VERTEX
  8
___SYMBOL
 62
7
  6
CONTINUOUS
 10
30.0944893673
 20
23.3880611474
  0
VERTEX
  8
___SYMBOL
 62
7
  6
CONTINUOUS
 10
30.1020719296
 20
23.3804347567
  0
VERTEX
  8
___SYMBOL
 62
7
  6
CONTINUOUS
 10
30.1100015907
 20
23.3731740899
  0
VERTEX
  8
___SYMBOL
 62
7
  6
CONTINUOUS
 10
30.1182479387
 20
23.366306993
  0
VERTEX
  8
___SYMBOL
 62
7
  6
CONTINUOUS
 10
30.1267793473
 20
23.3598598028
  0
VERTEX
  8
___SYMBOL
 62
7
  6
CONTINUOUS
 10
30.1355630968
 20
23.3538572456
  0
VERTEX
  8
___SYMBOL
 62
7
  6
CONTINUOUS
 10
30.1445654999
 20
23.3483223422
  0
VERTEX
  8
___SYMBOL
 62
7
  6
CONTINUOUS
 10
30.1537520305
 20
23.3432763201
  0
VERTEX
  8
___SYMBOL
 62
7
  6
CONTINUOUS
 10
30.1630874565
 20
23.3387385319
  0
VERTEX
  8
___SYMBOL
 62
7
  6
CONTINUOUS
 10
30.1725359748
 20
23.3347263807
  0
VERTEX
  8
___SYMBOL
 62
7
  6
CONTINUOUS
 10
30.1820613484
 20
23.3312552541
  0
VERTEX
  8
___SYMBOL
 62
7
  6
CONTINUOUS
 10
30.1916270456
 20
23.3283384644
  0
VERTEX
  8
___SYMBOL
 62
7
  6
CONTINUOUS
 10
30.2011963802
 20
23.3259871982
  0
VERTEX
  8
___SYMBOL
 62
7
  6
CONTINUOUS
 10
30.2107326518
 20
23.3242104729
  0
VERTEX
  8
___SYMBOL
 62
7
  6
CONTINUOUS
 10
30.2201992869
 20
23.3230151026
  0
VERTEX
  8
___SYMBOL
 62
7
  6
CONTINUOUS
 10
30.2295599793
 20
23.3224056719
  0
VERTEX
  8
___SYMBOL
 62
7
  6
CONTINUOUS
 10
30.2387788287
 20
23.3223845181
  0
VERTEX
  8
___SYMBOL
 62
7
  6
CONTINUOUS
 10
30.2478204791
 20
23.3229517222
  0
VERTEX
  8
___SYMBOL
 62
7
  6
CONTINUOUS
 10
30.256650254
 20
23.3241051089
  0
VERTEX
  8
___SYMBOL
 62
7
  6
CONTINUOUS
 10
30.2652342894
 20
23.3258402548
  0
VERTEX
  8
___SYMBOL
 62
7
  6
CONTINUOUS
 10
30.273539664
 20
23.3281505053
  0
VERTEX
  8
___SYMBOL
 62
7
  6
CONTINUOUS
 10
30.281534525
 20
23.331027
  0
VERTEX
  8
___SYMBOL
 62
7
  6
CONTINUOUS
 10
30.2891882104
 20
23.334458707
  0
VERTEX
  8
___SYMBOL
 62
7
  6
CONTINUOUS
 10
30.296471367
 20
23.3384324651
  0
VERTEX
  8
___SYMBOL
 62
7
  6
CONTINUOUS
 10
30.3033560624
 20
23.3429330342
  0
VERTEX
  8
___SYMBOL
 62
7
  6
CONTINUOUS
 10
30.3098158925
 20
23.3479431537
  0
VERTEX
  8
___SYMBOL
 62
7
  6
CONTINUOUS
 10
30.3158260824
 20
23.3534436087
  0
VERTEX
  8
___SYMBOL
 62
7
  6
CONTINUOUS
 10
30.3213635821
 20
23.359413304
  0
VERTEX
  8
___SYMBOL
 62
7
  6
CONTINUOUS
 10
30.326407154
 20
23.3658293446
  0
VERTEX
  8
___SYMBOL
 62
7
  6
CONTINUOUS
 10
30.3309374551
 20
23.3726671237
  0
VERTEX
  8
___SYMBOL
 62
7
  6
CONTINUOUS
 10
30.3349371108
 20
23.3799004172
  0
VERTEX
  8
___SYMBOL
 62
7
  6
CONTINUOUS
 10
30.3383907817
 20
23.3875014839
  0
VERTEX
  8
___SYMBOL
 62
7
  6
CONTINUOUS
 10
30.3412852222
 20
23.3954411722
  0
VERTEX
  8
___SYMBOL
 62
7
  6
CONTINUOUS
 10
30.3436093316
 20
23.4036890319
  0
VERTEX
  8
___SYMBOL
 62
7
  6
CONTINUOUS
 10
30.3453541964
 20
23.4122134309
  0
VERTEX
  8
___SYMBOL
 62
7
  6
CONTINUOUS
 10
30.3465131248
 20
23.4209816763
  0
VERTEX
  8
___SYMBOL
 62
7
  6
CONTINUOUS
 10
30.3470816721
 20
23.4299601402
  0
VERTEX
  8
___SYMBOL
 62
7
  6
CONTINUOUS
 10
30.3470576577
 20
23.4391143885
  0
VERTEX
  8
___SYMBOL
 62
7
  6
CONTINUOUS
 10
30.3464411738
 20
23.4484093129
  0
VERTEX
  8
___SYMBOL
 62
7
  6
CONTINUOUS
 10
30.3452345847
 20
23.4578092654
  0
VERTEX
  8
___SYMBOL
 62
7
  6
CONTINUOUS
 10
30.3434425179
 20
23.4672781955
  0
VERTEX
  8
___SYMBOL
 62
7
  6
CONTINUOUS
 10
30.3410718463
 20
23.4767797879
  0
VERTEX
  8
___SYMBOL
 62
7
  6
CONTINUOUS
 10
30.338131662
 20
23.4862776021
  0
VERTEX
  8
___SYMBOL
 62
7
  6
CONTINUOUS
 10
30.3346332411
 20
23.4957352122
  0
VERTEX
  8
___SYMBOL
 62
7
  6
CONTINUOUS
 10
30.3305900007
 20
23.5051163464
  0
VERTEX
  8
___SYMBOL
 62
7
  6
CONTINUOUS
 10
30.3260174474
 20
23.5143850262
  0
VERTEX
  8
___SYMBOL
 62
7
  6
CONTINUOUS
 10
30.320933118
 20
23.5235057043
  0
VERTEX
  8
___SYMBOL
 62
7
  6
CONTINUOUS
 10
30.3153565117
 20
23.5324434013
  0
VERTEX
  8
___SYMBOL
 62
7
  6
CONTINUOUS
 10
30.309309016
 20
23.5411638393
  0
VERTEX
  8
___SYMBOL
 62
7
  6
CONTINUOUS
 10
30.3028138242
 20
23.5496335737
  0
SEQEND
  0
LINE
  8
___SYMBOL
 62
7
  6
CONTINUOUS
 10
29.9895590743
 20
24.0405664146
 11
29.9783315853
 21
24.0286247089
  0
ENDBLK
  8
0
  6
BYBLOCK
 62
0
  0
BLOCK
  8
___SYMBOL
 62
2
  6
CONTINUOUS
  2
WHEN_PLOTTING_TEMPLATE_N_BL4
 70
64
 10
27.3021213292
 20
15.7491376193
  0
TEXT
  8
___SYMBOL
 62
2
  6
CONTINUOUS
 10
23.9896213292
 20
16.9600751193
  7
STANDARD
 40
0.15625
  1
WHEN PLOTTING TEMPLATE FULL SIZE:
 41
0.8
 72
0
  0
TEXT
  8
___SYMBOL
 62
2
  6
CONTINUOUS
 10
23.9896213292
 20
16.7257001193
  7
STANDARD
 40
0.15625
  1
Make sure horizontal and vertical dimensions
 41
0.8
 72
0
  0
TEXT
  8
___SYMBOL
 62
2
  6
CONTINUOUS
 10
23.9896213292
 20
16.4913251193
  7
STANDARD
 40
0.15625
  1
match the dimensions labeled on the template.
 41
0.8
 72
0
  0
TEXT
  8
___SYMBOL
 62
2
  6
CONTINUOUS
 10
23.9896213292
 20
16.0225751193
  7
STANDARD
 40
0.15625
  1
AL TRAZAR LA PLANTILLA A ESCALA,
 41
0.8
 72
0
  0
TEXT
  8
___SYMBOL
 62
2
  6
CONTINUOUS
 10
23.9896213292
 20
15.7882001193
  7
STANDARD
 40
0.15625
  1
asegúrese de que las dimensiones horizontales
 41
0.8
 72
0
  0
TEXT
  8
___SYMBOL
 62
2
  6
CONTINUOUS
 10
23.9896213292
 20
15.5538251193
  7
STANDARD
 40
0.15625
  1
y verticales concuerden con las dimensiones marcadas
 41
0.8
 72
0
  0
TEXT
  8
___SYMBOL
 62
2
  6
CONTINUOUS
 10
23.9896213292
 20
15.3194501193
  7
STANDARD
 40
0.15625
  1
en la plantilla.
 41
0.8
 72
0
  0
TEXT
  8
___SYMBOL
 62
2
  6
CONTINUOUS
 10
23.9896213292
 20
14.8507001193
  7
STANDARD
 40
0.15625
  1
AU MOMENT DE TRACER LA DÉCOUPE À L'ÉCHELLE,
 41
0.8
 72
0
  0
TEXT
  8
___SYMBOL
 62
2
  6
CONTINUOUS
 10
23.9896213292
 20
14.6163251193
  7
STANDARD
 40
0.15625
  1
Assurez vos que les dimensions horizotales et
 41
0.8
 72
0
  0
TEXT
  8
___SYMBOL
 62
2
  6
CONTINUOUS
 10
23.9896213292
 20
14.3819501193
  7
STANDARD
 40
0.15625
  1
verticales correspondent avec les dimensions du plan.
 41
0.8
 72
0
  0
ENDBLK
  8
0
  6
BYBLOCK
 62
0
  0
BLOCK
  8
___SYMBOL
 62
2
  6
CONTINUOUS
  2
TEMPLATE_NUMBER_BL3
 70
64
 10
17.9296105023
 20
8.5748931899
  0
TEXT
  8
___SYMBOL
 62
2
  6
CONTINUOUS
 10
17.2421105023
 20
8.4967681899
  7
STANDARD
 40
0.15625
  1
1162720-7
 41
0.8
 72
0
  0
TEXT
  8
___SYMBOL
 62
2
  6
CONTINUOUS
 10
18.3671105023
 20
8.4967681899
  7
STANDARD
 40
0.15625
  1
-A
 41
0.8
 72
0
  0
ENDBLK
  8
0
  6
BYBLOCK
 62
0
  0
BLOCK
  8
___SYMBOL
 62
2
  6
CONTINUOUS
  2
TEMPLATE_NUMBER_BL2
 70
64
 10
17.8813872465
 20
10.9898557358
  0
TEXT
  8
___SYMBOL
 62
2
  6
CONTINUOUS
 10
17.1938872465
 20
10.9117307358
  7
STANDARD
 40
0.15625
  1
1162720-7
 41
0.8
 72
0
  0
TEXT
  8
___SYMBOL
 62
2
  6
CONTINUOUS
 10
18.3188872465
 20
10.9117307358
  7
STANDARD
 40
0.15625
  1
-A
 41
0.8
 72
0
  0
ENDBLK
  8
0
  6
BYBLOCK
 62
0
  0
BLOCK
  8
___SYMBOL
 62
2
  6
CONTINUOUS
  2
COPYRIGHT_YEAR_BL1
 70
64
 10
26.827093491
 20
11.9611005157
  0
CIRCLE
  8
___SYMBOL
 62
7
  6
CONTINUOUS
 10
25.8912397424
 20
11.9611005157
 40
0.1323570371
  0
TEXT
  8
___SYMBOL
 62
2
  6
CONTINUOUS
 10
26.0203042766
 20
11.883385472
  7
STANDARD
 40
0.15625
  1
2011
 41
0.8
 72
0
  0
TEXT
  8
___SYMBOL
 62
2
  6
CONTINUOUS
 10
26.5203042766
 20
11.883385472
  7
STANDARD
 40
0.15625
  1
 KOHLER CO.
 41
0.8
 72
0
  0
TEXT
  8
___SYMBOL
 62
2
  6
CONTINUOUS
 10
25.8184864703
 20
11.885714222
  7
TEXTSTYLE_2
 40
0.15625
  1
C
 41
1.0
 72
0
  0
ENDBLK
  8
0
  6
BYBLOCK
 62
0
  0
BLOCK
  8
___SYMBOL
 62
2
  6
CONTINUOUS
  2
SKU_LAV_KOHLER_BL0
 70
64
 10
17.6468743764
 20
22.8854130236
  0
LINE
  8
___SYMBOL
 62
2
  6
CONTINUOUS
 10
15.5533633427
 20
24.5048287457
 11
15.3400598909
 21
24.2511804727
  0
LINE
  8
___SYMBOL
 62
2
  6
CONTINUOUS
 10
15.3613015307
 20
24.5048287457
 11
15.5533633427
 21
24.5048287457
  0
LINE
  8
___SYMBOL
 62
2
  6
CONTINUOUS
 10
15.3613015307
 20
24.5048287457
 11
15.223537364
 21
24.341007556
  0
LINE
  8
___SYMBOL
 62
2
  6
CONTINUOUS
 10
15.223537364
 20
24.5048287457
 11
15.223537364
 21
24.341007556
  0
LINE
  8
___SYMBOL
 62
2
  6
CONTINUOUS
 10
15.049037137
 20
24.5048287457
 11
15.223537364
 21
24.5048287457
  0
LINE
  8
___SYMBOL
 62
2
  6
CONTINUOUS
 10
15.049037137
 20
24.5048287457
 11
15.049037137
 21
23.9188910928
  0
LINE
  8
___SYMBOL
 62
2
  6
CONTINUOUS
 10
15.223537364
 20
23.9189150963
 11
15.049037137
 21
23.9188910928
  0
LINE
  8
___SYMBOL
 62
2
  6
CONTINUOUS
 10
15.223537364
 20
24.1204149303
 11
15.223537364
 21
23.9189150963
  0
LINE
  8
___SYMBOL
 62
2
  6
CONTINUOUS
 10
15.377275304
 20
23.9189150963
 11
15.223537364
 21
24.1204149303
  0
LINE
  8
___SYMBOL
 62
2
  6
CONTINUOUS
 10
15.377275304
 20
23.9189150963
 11
15.5935677256
 21
23.9189150963
  0
LINE
  8
___SYMBOL
 62
2
  6
CONTINUOUS
 10
15.5935677256
 20
23.9189150963
 11
15.3400598909
 21
24.2511804727
  0
SOLID
  8
___SYMBOL
 62
2
  6
CONTINUOUS
 10
15.223537364
 20
24.341007556
 11
15.3613015307
 21
24.5048287457
 12
15.5533633427
 22
24.5048287457
 13
15.5533633427
 23
24.5048287457
  0
SOLID
  8
___SYMBOL
 62
2
  6
CONTINUOUS
 10
15.5533633427
 20
24.5048287457
 11
15.3400598909
 21
24.2511804727
 12
15.223537364
 22
24.341007556
 13
15.223537364
 23
24.341007556
  0
SOLID
  8
___SYMBOL
 62
2
  6
CONTINUOUS
 10
15.223537364
 20
24.1204149303
 11
15.3400598909
 21
24.2511804727
 12
15.377275304
 22
23.9189150963
 13
15.377275304
 23
23.9189150963
  0
SOLID
  8
___SYMBOL
 62
2
  6
CONTINUOUS
 10
15.3400598909
 20
24.2511804727
 11
15.5935677256
 21
23.9189150963
 12
15.377275304
 22
23.9189150963
 13
15.377275304
 23
23.9189150963
  0
SOLID
  8
___SYMBOL
 62
2
  6
CONTINUOUS
 10
15.223537364
 20
23.9189150963
 11
15.049037137
 21
23.9188910928
 12
15.223537364
 22
24.1204149303
 13
15.223537364
 23
24.1204149303
  0
SOLID
  8
___SYMBOL
 62
2
  6
CONTINUOUS
 10
15.3400598909
 20
24.2511804727
 11
15.223537364
 21
24.1204149303
 12
15.223537364
 22
24.341007556
 13
15.223537364
 23
24.341007556
  0
SOLID
  8
___SYMBOL
 62
2
  6
CONTINUOUS
 10
15.223537364
 20
24.1204149303
 11
15.049037137
 21
23.9188910928
 12
15.223537364
 22
24.341007556
 13
15.223537364
 23
24.341007556
  0
SOLID
  8
___SYMBOL
 62
2
  6
CONTINUOUS
 10
15.223537364
 20
24.341007556
 11
15.049037137
 21
23.9188910928
 12
15.223537364
 22
24.5048287457
 13
15.223537364
 23
24.5048287457
  0
SOLID
  8
___SYMBOL
 62
2
  6
CONTINUOUS
 10
15.049037137
 20
23.9188910928
 11
15.049037137
 21
24.5048287457
 12
15.223537364
 22
24.5048287457
 13
15.223537364
 23
24.5048287457
  0
CIRCLE
  8
___SYMBOL
 62
2
  6
CONTINUOUS
 10
15.7700765622
 20
24.2107506691
 40
0.298056591
  0
CIRCLE
  8
___SYMBOL
 62
2
  6
CONTINUOUS
 10
15.7700765622
 20
24.2107506691
 40
0.1247694151
  0
SOLID
  8
___SYMBOL
 62
2
  6
CONTINUOUS
 10
15.6779720103
 20
24.4942193322
 11
15.7389211648
 21
24.5071744749
 12
15.8012319596
 22
24.5071744749
 13
15.8012319596
 23
24.5071744749
  0
SOLID
  8
___SYMBOL
 62
2
  6
CONTINUOUS
 10
15.8012319596
 20
24.5071744749
 11
15.8621811141
 21
24.4942193322
 12
15.6779720103
 22
24.4942193322
 13
15.6779720103
 23
24.4942193322
  0
SOLID
  8
___SYMBOL
 62
2
  6
CONTINUOUS
 10
15.6210482667
 20
24.4688752487
 11
15.6779720103
 21
24.4942193322
 12
15.8621811141
 22
24.4942193322
 13
15.8621811141
 23
24.4942193322
  0
SOLID
  8
___SYMBOL
 62
2
  6
CONTINUOUS
 10
15.8621811141
 20
24.4942193322
 11
15.9191048577
 21
24.4688752487
 12
15.6210482667
 22
24.4688752487
 13
15.6210482667
 23
24.4688752487
  0
SOLID
  8
___SYMBOL
 62
2
  6
CONTINUOUS
 10
15.5706377748
 20
24.4322498824
 11
15.6210482667
 21
24.4688752487
 12
15.9191048577
 22
24.4688752487
 13
15.9191048577
 23
24.4688752487
  0
SOLID
  8
___SYMBOL
 62
2
  6
CONTINUOUS
 10
15.9191048577
 20
24.4688752487
 11
15.9695153497
 21
24.4322498824
 12
15.5706377748
 22
24.4322498824
 13
15.5706377748
 23
24.4322498824
  0
SOLID
  8
___SYMBOL
 62
2
  6
CONTINUOUS
 10
15.5289437148
 20
24.3859439377
 11
15.5706377748
 21
24.4322498824
 12
15.9695153497
 22
24.4322498824
 13
15.9695153497
 23
24.4322498824
  0
SOLID
  8
___SYMBOL
 62
2
  6
CONTINUOUS
 10
15.9695153497
 20
24.4322498824
 11
16.0112094096
 21
24.3859439377
 12
15.5289437148
 22
24.3859439377
 13
15.5289437148
 23
24.3859439377
  0
SOLID
  8
___SYMBOL
 62
2
  6
CONTINUOUS
 10
15.7700765622
 20
24.3355200842
 11
15.4977883174
 21
24.3319812064
 12
16.0112094096
 22
24.3859439377
 13
16.0112094096
 23
24.3859439377
  0
SOLID
  8
___SYMBOL
 62
2
  6
CONTINUOUS
 10
15.4977883174
 20
24.3319812064
 11
15.5289437148
 21
24.3859439377
 12
16.0112094096
 22
24.3859439377
 13
16.0112094096
 23
24.3859439377
  0
SOLID
  8
___SYMBOL
 62
2
  6
CONTINUOUS
 10
16.0112094096
 20
24.3859439377
 11
16.042364807
 21
24.3319812064
 12
15.7700765622
 22
24.3355200842
 13
15.7700765622
 23
24.3355200842
  0
SOLID
  8
___SYMBOL
 62
2
  6
CONTINUOUS
 10
15.7700765622
 20
24.3355200842
 11
15.7315206926
 21
24.3294134344
 12
15.4977883174
 22
24.3319812064
 13
15.4977883174
 23
24.3319812064
  0
SOLID
  8
___SYMBOL
 62
2
  6
CONTINUOUS
 10
15.8086324319
 20
24.3294134344
 11
15.7700765622
 21
24.3355200842
 12
16.042364807
 22
24.3319812064
 13
16.042364807
 23
24.3319812064
  0
SOLID
  8
___SYMBOL
 62
2
  6
CONTINUOUS
 10
15.669135985
 20
24.2840882913
 11
15.4785332229
 21
24.2727201189
 12
15.6967389401
 22
24.3116912463
 13
15.6967389401
 23
24.3116912463
  0
SOLID
  8
___SYMBOL
 62
2
  6
CONTINUOUS
 10
15.6967389401
 20
24.3116912463
 11
15.4785332229
 21
24.2727201189
 12
15.7315206926
 22
24.3294134344
 13
15.7315206926
 23
24.3294134344
  0
SOLID
  8
___SYMBOL
 62
2
  6
CONTINUOUS
 10
15.4785332229
 20
24.2727201189
 11
15.4977883174
 21
24.3319812064
 12
15.7315206926
 22
24.3294134344
 13
15.7315206926
 23
24.3294134344
  0
SOLID
  8
___SYMBOL
 62
2
  6
CONTINUOUS
 10
15.8086324319
 20
24.3294134344
 11
16.042364807
 21
24.3319812064
 12
15.8434141843
 22
24.3116912463
 13
15.8434141843
 23
24.3116912463
  0
SOLID
  8
___SYMBOL
 62
2
  6
CONTINUOUS
 10
15.8434141843
 20
24.3116912463
 11
16.042364807
 21
24.3319812064
 12
15.8710171394
 22
24.2840882913
 13
15.8710171394
 23
24.2840882913
  0
SOLID
  8
___SYMBOL
 62
2
  6
CONTINUOUS
 10
16.042364807
 20
24.3319812064
 11
16.0616199016
 21
24.2727201189
 12
15.8710171394
 22
24.2840882913
 13
15.8710171394
 23
24.2840882913
  0
SOLID
  8
___SYMBOL
 62
2
  6
CONTINUOUS
 10
15.669135985
 20
24.2840882913
 11
15.651413797
 21
24.2493065388
 12
15.4785332229
 22
24.2727201189
 13
15.4785332229
 23
24.2727201189
  0
SOLID
  8
___SYMBOL
 62
2
  6
CONTINUOUS
 10
15.8887393275
 20
24.2493065388
 11
15.8710171394
 21
24.2840882913
 12
16.0616199016
 22
24.2727201189
 13
16.0616199016
 23
24.2727201189
  0
SOLID
  8
___SYMBOL
 62
2
  6
CONTINUOUS
 10
15.4720199712
 20
24.2107506691
 11
15.4785332229
 21
24.2727201189
 12
15.651413797
 22
24.2493065388
 13
15.651413797
 23
24.2493065388
  0
SOLID
  8
___SYMBOL
 62
2
  6
CONTINUOUS
 10
15.651413797
 20
24.2493065388
 11
15.6453071471
 21
24.2107506691
 12
15.4720199712
 22
24.2107506691
 13
15.4720199712
 23
24.2107506691
  0
SOLID
  8
___SYMBOL
 62
2
  6
CONTINUOUS
 10
15.8887393275
 20
24.2493065388
 11
16.0616199016
 21
24.2727201189
 12
15.8948459773
 22
24.2107506691
 13
15.8948459773
 23
24.2107506691
  0
SOLID
  8
___SYMBOL
 62
2
  6
CONTINUOUS
 10
16.0616199016
 20
24.2727201189
 11
16.0681331532
 21
24.2107506691
 12
15.8948459773
 22
24.2107506691
 13
15.8948459773
 23
24.2107506691
  0
SOLID
  8
___SYMBOL
 62
2
  6
CONTINUOUS
 10
15.8887393275
 20
24.1721947995
 11
15.8948459773
 21
24.2107506691
 12
16.0681331532
 22
24.2107506691
 13
16.0681331532
 23
24.2107506691
  0
SOLID
  8
___SYMBOL
 62
2
  6
CONTINUOUS
 10
15.651413797
 20
24.1721947995
 11
15.4785332229
 21
24.1487812193
 12
15.6453071471
 22
24.2107506691
 13
15.6453071471
 23
24.2107506691
  0
SOLID
  8
___SYMBOL
 62
2
  6
CONTINUOUS
 10
15.4785332229
 20
24.1487812193
 11
15.4720199712
 21
24.2107506691
 12
15.6453071471
 22
24.2107506691
 13
15.6453071471
 23
24.2107506691
  0
SOLID
  8
___SYMBOL
 62
2
  6
CONTINUOUS
 10
16.0681331532
 20
24.2107506691
 11
16.0616199016
 21
24.1487812193
 12
15.8887393275
 22
24.1721947995
 13
15.8887393275
 23
24.1721947995
  0
SOLID
  8
___SYMBOL
 62
2
  6
CONTINUOUS
 10
15.651413797
 20
24.1721947995
 11
15.669135985
 21
24.137413047
 12
15.4785332229
 22
24.1487812193
 13
15.4785332229
 23
24.1487812193
  0
SOLID
  8
___SYMBOL
 62
2
  6
CONTINUOUS
 10
15.8710171394
 20
24.137413047
 11
15.8887393275
 21
24.1721947995
 12
16.0616199016
 22
24.1487812193
 13
16.0616199016
 23
24.1487812193
  0
SOLID
  8
___SYMBOL
 62
2
  6
CONTINUOUS
 10
15.7315206926
 20
24.0920879039
 11
15.4977883174
 21
24.0895201319
 12
15.6967389401
 22
24.109810092
 13
15.6967389401
 23
24.109810092
  0
SOLID
  8
___SYMBOL
 62
2
  6
CONTINUOUS
 10
15.6967389401
 20
24.109810092
 11
15.4977883174
 21
24.0895201319
 12
15.669135985
 22
24.137413047
 13
15.669135985
 23
24.137413047
  0
SOLID
  8
___SYMBOL
 62
2
  6
CONTINUOUS
 10
15.4977883174
 20
24.0895201319
 11
15.4785332229
 21
24.1487812193
 12
15.669135985
 22
24.137413047
 13
15.669135985
 23
24.137413047
  0
SOLID
  8
___SYMBOL
 62
2
  6
CONTINUOUS
 10
15.8710171394
 20
24.137413047
 11
16.0616199016
 21
24.1487812193
 12
15.8434141843
 22
24.109810092
 13
15.8434141843
 23
24.109810092
  0
SOLID
  8
___SYMBOL
 62
2
  6
CONTINUOUS
 10
15.8434141843
 20
24.109810092
 11
16.0616199016
 21
24.1487812193
 12
15.8086324319
 22
24.0920879039
 13
15.8086324319
 23
24.0920879039
  0
SOLID
  8
___SYMBOL
 62
2
  6
CONTINUOUS
 10
16.0616199016
 20
24.1487812193
 11
16.042364807
 21
24.0895201319
 12
15.8086324319
 22
24.0920879039
 13
15.8086324319
 23
24.0920879039
  0
SOLID
  8
___SYMBOL
 62
2
  6
CONTINUOUS
 10
15.7315206926
 20
24.0920879039
 11
15.7700765622
 21
24.0859812541
 12
15.4977883174
 22
24.0895201319
 13
15.4977883174
 23
24.0895201319
  0
SOLID
  8
___SYMBOL
 62
2
  6
CONTINUOUS
 10
15.7700765622
 20
24.0859812541
 11
15.8086324319
 21
24.0920879039
 12
16.042364807
 22
24.0895201319
 13
16.042364807
 23
24.0895201319
  0
SOLID
  8
___SYMBOL
 62
2
  6
CONTINUOUS
 10
15.5289437148
 20
24.0355574006
 11
15.4977883174
 21
24.0895201319
 12
15.7700765622
 22
24.0859812541
 13
15.7700765622
 23
24.0859812541
  0
SOLID
  8
___SYMBOL
 62
2
  6
CONTINUOUS
 10
15.7700765622
 20
24.0859812541
 11
16.042364807
 21
24.0895201319
 12
15.5289437148
 22
24.0355574006
 13
15.5289437148
 23
24.0355574006
  0
SOLID
  8
___SYMBOL
 62
2
  6
CONTINUOUS
 10
16.042364807
 20
24.0895201319
 11
16.0112094096
 21
24.0355574006
 12
15.5289437148
 22
24.0355574006
 13
15.5289437148
 23
24.0355574006
  0
SOLID
  8
___SYMBOL
 62
2
  6
CONTINUOUS
 10
15.5706377748
 20
23.9892514558
 11
15.5289437148
 21
24.0355574006
 12
16.0112094096
 22
24.0355574006
 13
16.0112094096
 23
24.0355574006
  0
SOLID
  8
___SYMBOL
 62
2
  6
CONTINUOUS
 10
16.0112094096
 20
24.0355574006
 11
15.9695153497
 21
23.9892514558
 12
15.5706377748
 22
23.9892514558
 13
15.5706377748
 23
23.9892514558
  0
SOLID
  8
___SYMBOL
 62
2
  6
CONTINUOUS
 10
15.6210482667
 20
23.9526260896
 11
15.5706377748
 21
23.9892514558
 12
15.9695153497
 22
23.9892514558
 13
15.9695153497
 23
23.9892514558
  0
SOLID
  8
___SYMBOL
 62
2
  6
CONTINUOUS
 10
15.9695153497
 20
23.9892514558
 11
15.9191048577
 21
23.9526260896
 12
15.6210482667
 22
23.9526260896
 13
15.6210482667
 23
23.9526260896
  0
SOLID
  8
___SYMBOL
 62
2
  6
CONTINUOUS
 10
15.6779720103
 20
23.9272820061
 11
15.6210482667
 21
23.9526260896
 12
15.9191048577
 22
23.9526260896
 13
15.9191048577
 23
23.9526260896
  0
SOLID
  8
___SYMBOL
 62
2
  6
CONTINUOUS
 10
15.9191048577
 20
23.9526260896
 11
15.8621811141
 21
23.9272820061
 12
15.6779720103
 22
23.9272820061
 13
15.6779720103
 23
23.9272820061
  0
SOLID
  8
___SYMBOL
 62
2
  6
CONTINUOUS
 10
15.7389211648
 20
23.9143268633
 11
15.6779720103
 21
23.9272820061
 12
15.8621811141
 22
23.9272820061
 13
15.8621811141
 23
23.9272820061
  0
SOLID
  8
___SYMBOL
 62
2
  6
CONTINUOUS
 10
15.8621811141
 20
23.9272820061
 11
15.8012319596
 21
23.9143268633
 12
15.7389211648
 22
23.9143268633
 13
15.7389211648
 23
23.9143268633
  0
LINE
  8
___SYMBOL
 62
2
  6
CONTINUOUS
 10
16.5627125714
 20
24.5048287457
 11
16.5627125714
 21
23.9189150963
  0
LINE
  8
___SYMBOL
 62
2
  6
CONTINUOUS
 10
16.5627125714
 20
23.9189150963
 11
16.3979788916
 21
23.9189150963
  0
LINE
  8
___SYMBOL
 62
2
  6
CONTINUOUS
 10
16.3979788916
 20
24.1472397061
 11
16.3979788916
 21
23.9189150963
  0
LINE
  8
___SYMBOL
 62
2
  6
CONTINUOUS
 10
16.2499820805
 20
24.1472397061
 11
16.3979788916
 21
24.1472397061
  0
LINE
  8
___SYMBOL
 62
2
  6
CONTINUOUS
 10
16.2499820805
 20
24.1472397061
 11
16.2499820805
 21
23.9189150963
  0
LINE
  8
___SYMBOL
 62
2
  6
CONTINUOUS
 10
16.2499820805
 20
23.9189150963
 11
16.0852484006
 21
23.9189150963
  0
LINE
  8
___SYMBOL
 62
2
  6
CONTINUOUS
 10
16.0852484006
 20
24.5048287457
 11
16.0852484006
 21
23.9189150963
  0
LINE
  8
___SYMBOL
 62
2
  6
CONTINUOUS
 10
16.0852484006
 20
24.5048287457
 11
16.2499820805
 21
24.5048287457
  0
LINE
  8
___SYMBOL
 62
2
  6
CONTINUOUS
 10
16.2499820805
 20
24.5048287457
 11
16.2499820805
 21
24.284444986
  0
LINE
  8
___SYMBOL
 62
2
  6
CONTINUOUS
 10
16.2499820805
 20
24.284444986
 11
16.3979788916
 21
24.284444986
  0
LINE
  8
___SYMBOL
 62
2
  6
CONTINUOUS
 10
16.3979788916
 20
24.5048287457
 11
16.3979788916
 21
24.284444986
  0
LINE
  8
___SYMBOL
 62
2
  6
CONTINUOUS
 10
16.3979788916
 20
24.5048287457
 11
16.5627125714
 21
24.5048287457
  0
SOLID
  8
___SYMBOL
 62
2
  6
CONTINUOUS
 10
16.3979788916
 20
24.284444986
 11
16.3979788916
 21
24.5048287457
 12
16.5627125714
 22
24.5048287457
 13
16.5627125714
 23
24.5048287457
  0
SOLID
  8
___SYMBOL
 62
2
  6
CONTINUOUS
 10
16.3979788916
 20
24.284444986
 11
16.2499820805
 21
24.1472397061
 12
16.2499820805
 22
24.284444986
 13
16.2499820805
 23
24.284444986
  0
SOLID
  8
___SYMBOL
 62
2
  6
CONTINUOUS
 10
16.2499820805
 20
24.1472397061
 11
16.0852484006
 21
23.9189150963
 12
16.2499820805
 22
24.284444986
 13
16.2499820805
 23
24.284444986
  0
SOLID
  8
___SYMBOL
 62
2
  6
CONTINUOUS
 10
16.2499820805
 20
24.284444986
 11
16.0852484006
 21
23.9189150963
 12
16.2499820805
 22
24.5048287457
 13
16.2499820805
 23
24.5048287457
  0
SOLID
  8
___SYMBOL
 62
2
  6
CONTINUOUS
 10
16.0852484006
 20
23.9189150963
 11
16.0852484006
 21
24.5048287457
 12
16.2499820805
 22
24.5048287457
 13
16.2499820805
 23
24.5048287457
  0
SOLID
  8
___SYMBOL
 62
2
  6
CONTINUOUS
 10
16.2499820805
 20
24.1472397061
 11
16.2499820805
 21
23.9189150963
 12
16.0852484006
 22
23.9189150963
 13
16.0852484006
 23
23.9189150963
  0
SOLID
  8
___SYMBOL
 62
2
  6
CONTINUOUS
 10
16.2499820805
 20
24.1472397061
 11
16.3979788916
 21
24.284444986
 12
16.3979788916
 22
24.1472397061
 13
16.3979788916
 23
24.1472397061
  0
SOLID
  8
___SYMBOL
 62
2
  6
CONTINUOUS
 10
16.3979788916
 20
24.284444986
 11
16.5627125714
 21
24.5048287457
 12
16.3979788916
 22
24.1472397061
 13
16.3979788916
 23
24.1472397061
  0
SOLID
  8
___SYMBOL
 62
2
  6
CONTINUOUS
 10
16.3979788916
 20
24.1472397061
 11
16.5627125714
 21
24.5048287457
 12
16.3979788916
 22
23.9189150963
 13
16.3979788916
 23
23.9189150963
  0
SOLID
  8
___SYMBOL
 62
2
  6
CONTINUOUS
 10
16.5627125714
 20
24.5048287457
 11
16.5627125714
 21
23.9189150963
 12
16.3979788916
 22
23.9189150963
 13
16.3979788916
 23
23.9189150963
  0
LINE
  8
___SYMBOL
 62
2
  6
CONTINUOUS
 10
16.7578034784
 20
23.9189150963
 11
16.9204875483
 21
23.9189150963
  0
LINE
  8
___SYMBOL
 62
2
  6
CONTINUOUS
 10
16.7578034784
 20
23.9189150963
 11
16.6077574156
 21
23.9189150963
  0
LINE
  8
___SYMBOL
 62
2
  6
CONTINUOUS
 10
16.6077574156
 20
23.9189150963
 11
16.6077574156
 21
24.5048287457
  0
LINE
  8
___SYMBOL
 62
2
  6
CONTINUOUS
 10
16.6077574156
 20
24.5048287457
 11
16.7578034784
 21
24.5048287457
  0
LINE
  8
___SYMBOL
 62
2
  6
CONTINUOUS
 10
16.7578034784
 20
24.5048287457
 11
16.7578034784
 21
24.0601418535
  0
LINE
  8
___SYMBOL
 62
2
  6
CONTINUOUS
 10
16.7578034784
 20
24.0601418535
 11
16.9204875483
 21
24.0601418535
  0
LINE
  8
___SYMBOL
 62
2
  6
CONTINUOUS
 10
16.9204875483
 20
24.0601418535
 11
16.9204875483
 21
23.9189150963
  0
SOLID
  8
___SYMBOL
 62
2
  6
CONTINUOUS
 10
16.9204875483
 20
24.0601418535
 11
16.6077574156
 21
23.9189150963
 12
16.7578034784
 22
24.0601418535
 13
16.7578034784
 23
24.0601418535
  0
SOLID
  8
___SYMBOL
 62
2
  6
CONTINUOUS
 10
16.7578034784
 20
24.0601418535
 11
16.6077574156
 21
23.9189150963
 12
16.7578034784
 22
24.5048287457
 13
16.7578034784
 23
24.5048287457
  0
SOLID
  8
___SYMBOL
 62
2
  6
CONTINUOUS
 10
16.6077574156
 20
23.9189150963
 11
16.6077574156
 21
24.5048287457
 12
16.7578034784
 22
24.5048287457
 13
16.7578034784
 23
24.5048287457
  0
SOLID
  8
___SYMBOL
 62
2
  6
CONTINUOUS
 10
16.6077574156
 20
23.9189150963
 11
16.9204875483
 21
24.0601418535
 12
16.7578034784
 22
23.9189150963
 13
16.7578034784
 23
23.9189150963
  0
SOLID
  8
___SYMBOL
 62
2
  6
CONTINUOUS
 10
16.9204875483
 20
24.0601418535
 11
16.9204875483
 21
23.9189150963
 12
16.7578034784
 22
23.9189150963
 13
16.7578034784
 23
23.9189150963
  0
LINE
  8
___SYMBOL
 62
2
  6
CONTINUOUS
 10
17.2587394624
 20
24.1400633845
 11
17.2587394624
 21
24.284444986
  0
LINE
  8
___SYMBOL
 62
2
  6
CONTINUOUS
 10
17.107881939
 20
24.284444986
 11
17.2587394624
 21
24.284444986
  0
LINE
  8
___SYMBOL
 62
2
  6
CONTINUOUS
 10
17.107881939
 20
24.3620693489
 11
17.107881939
 21
24.284444986
  0
LINE
  8
___SYMBOL
 62
2
  6
CONTINUOUS
 10
17.107881939
 20
24.3620693489
 11
17.2587394624
 21
24.3620693489
  0
LINE
  8
___SYMBOL
 62
2
  6
CONTINUOUS
 10
17.2587394624
 20
24.3620693489
 11
17.2587394624
 21
24.5048287457
  0
LINE
  8
___SYMBOL
 62
2
  6
CONTINUOUS
 10
17.1220862623
 20
24.5048287457
 11
17.2587394624
 21
24.5048287457
  0
LINE
  8
___SYMBOL
 62
2
  6
CONTINUOUS
 10
16.949635287
 20
24.5048287457
 11
17.1220862623
 21
24.5048287457
  0
LINE
  8
___SYMBOL
 62
2
  6
CONTINUOUS
 10
16.949635287
 20
23.9189150963
 11
16.949635287
 21
24.5048287457
  0
LINE
  8
___SYMBOL
 62
2
  6
CONTINUOUS
 10
16.949635287
 20
23.9189150963
 11
17.2587394624
 21
23.9189150963
  0
LINE
  8
___SYMBOL
 62
2
  6
CONTINUOUS
 10
17.2587394624
 20
23.9189150963
 11
17.2587394624
 21
24.0601418535
  0
LINE
  8
___SYMBOL
 62
2
  6
CONTINUOUS
 10
17.107881939
 20
24.0601418535
 11
17.2587394624
 21
24.0601418535
  0
LINE
  8
___SYMBOL
 62
2
  6
CONTINUOUS
 10
17.107881939
 20
24.1400633845
 11
17.107881939
 21
24.0601418535
  0
LINE
  8
___SYMBOL
 62
2
  6
CONTINUOUS
 10
17.107881939
 20
24.1400633845
 11
17.2587394624
 21
24.1400633845
  0
SOLID
  8
___SYMBOL
 62
2
  6
CONTINUOUS
 10
17.2587394624
 20
24.5048287457
 11
17.2587394624
 21
24.3620693489
 12
17.107881939
 22
24.3620693489
 13
17.107881939
 23
24.3620693489
  0
SOLID
  8
___SYMBOL
 62
2
  6
CONTINUOUS
 10
17.2587394624
 20
24.284444986
 11
17.2587394624
 21
24.1400633845
 12
17.107881939
 22
24.1400633845
 13
17.107881939
 23
24.1400633845
  0
SOLID
  8
___SYMBOL
 62
2
  6
CONTINUOUS
 10
17.2587394624
 20
24.0601418535
 11
16.949635287
 21
23.9189150963
 12
17.107881939
 22
24.0601418535
 13
17.107881939
 23
24.0601418535
  0
SOLID
  8
___SYMBOL
 62
2
  6
CONTINUOUS
 10
17.107881939
 20
24.0601418535
 11
16.949635287
 21
23.9189150963
 12
17.107881939
 22
24.1400633845
 13
17.107881939
 23
24.1400633845
  0
SOLID
  8
___SYMBOL
 62
2
  6
CONTINUOUS
 10
17.2587394624
 20
24.284444986
 11
17.107881939
 21
24.1400633845
 12
17.107881939
 22
24.284444986
 13
17.107881939
 23
24.284444986
  0
SOLID
  8
___SYMBOL
 62
2
  6
CONTINUOUS
 10
17.107881939
 20
24.1400633845
 11
16.949635287
 21
23.9189150963
 12
17.107881939
 22
24.284444986
 13
17.107881939
 23
24.284444986
  0
SOLID
  8
___SYMBOL
 62
2
  6
CONTINUOUS
 10
17.107881939
 20
24.284444986
 11
16.949635287
 21
23.9189150963
 12
17.107881939
 22
24.3620693489
 13
17.107881939
 23
24.3620693489
  0
SOLID
  8
___SYMBOL
 62
2
  6
CONTINUOUS
 10
17.2587394624
 20
24.5048287457
 11
17.107881939
 21
24.3620693489
 12
17.1220862623
 22
24.5048287457
 13
17.1220862623
 23
24.5048287457
  0
SOLID
  8
___SYMBOL
 62
2
  6
CONTINUOUS
 10
17.107881939
 20
24.3620693489
 11
16.949635287
 21
23.9189150963
 12
17.1220862623
 22
24.5048287457
 13
17.1220862623
 23
24.5048287457
  0
SOLID
  8
___SYMBOL
 62
2
  6
CONTINUOUS
 10
16.949635287
 20
23.9189150963
 11
16.949635287
 21
24.5048287457
 12
17.1220862623
 22
24.5048287457
 13
17.1220862623
 23
24.5048287457
  0
SOLID
  8
___SYMBOL
 62
2
  6
CONTINUOUS
 10
17.2587394624
 20
24.0601418535
 11
17.2587394624
 21
23.9189150963
 12
16.949635287
 22
23.9189150963
 13
16.949635287
 23
23.9189150963
  0
LINE
  8
___SYMBOL
 62
2
  6
CONTINUOUS
 10
17.7689898683
 20
23.9189150963
 11
17.6095466254
 21
24.1704976376
  0
ARC
  8
___SYMBOL
 62
2
  6
CONTINUOUS
 10
17.5371073777
 20
24.329819235
 40
0.1750166163
 50
294.4500166359
 51
90.0
  0
LINE
  8
___SYMBOL
 62
2
  6
CONTINUOUS
 10
17.3035596771
 20
24.5048287457
 11
17.5371073777
 21
24.5048287457
  0
LINE
  8
___SYMBOL
 62
2
  6
CONTINUOUS
 10
17.3035596771
 20
23.9189150963
 11
17.3035596771
 21
24.5048287457
  0
LINE
  8
___SYMBOL
 62
2
  6
CONTINUOUS
 10
17.3035596771
 20
23.9189150963
 11
17.4542154996
 21
23.9189150963
  0
LINE
  8
___SYMBOL
 62
2
  6
CONTINUOUS
 10
17.4542154996
 20
24.1158714671
 11
17.4542154996
 21
23.9189150963
  0
LINE
  8
___SYMBOL
 62
2
  6
CONTINUOUS
 10
17.5790389288
 20
23.9189150963
 11
17.4542154996
 21
24.1158714671
  0
LINE
  8
___SYMBOL
 62
2
  6
CONTINUOUS
 10
17.5790389288
 20
23.9189150963
 11
17.7689898683
 21
23.9189150963
  0
LINE
  8
___SYMBOL
 62
2
  6
CONTINUOUS
 10
17.4542154996
 20
24.2551467778
 11
17.5065552498
 21
24.2551467778
  0
ARC
  8
___SYMBOL
 62
2
  6
CONTINUOUS
 10
17.5101452791
 20
24.3086381773
 40
0.053611735
 50
266.1604009902
 51
89.9998910512
  0
LINE
  8
___SYMBOL
 62
2
  6
CONTINUOUS
 10
17.5101453811
 20
24.3622499123
 11
17.4542154996
 21
24.3622499123
  0
LINE
  8
___SYMBOL
 62
2
  6
CONTINUOUS
 10
17.4542154996
 20
24.3622499123
 11
17.4542154996
 21
24.2551467778
  0
SOLID
  8
___SYMBOL
 62
2
  6
CONTINUOUS
 10
17.5371073777
 20
24.5048358513
 11
17.5840404012
 21
24.4984256029
 12
17.3035596771
 22
24.5048287457
 13
17.3035596771
 23
24.5048287457
  0
SOLID
  8
___SYMBOL
 62
2
  6
CONTINUOUS
 10
17.4542154996
 20
24.3622499123
 11
17.7081552407
 21
24.3668792479
 12
17.5101453811
 22
24.3622499123
 13
17.5101453811
 23
24.3622499123
  0
SOLID
  8
___SYMBOL
 62
2
  6
CONTINUOUS
 10
17.5101453811
 20
24.3622499123
 11
17.7081552407
 21
24.3668792479
 12
17.5338679627
 22
24.356715744
 13
17.5338679627
 23
24.356715744
  0
SOLID
  8
___SYMBOL
 62
2
  6
CONTINUOUS
 10
17.5338679627
 20
24.356715744
 11
17.7081552407
 21
24.3668792479
 12
17.5526929503
 22
24.341255869
 13
17.5526929503
 23
24.341255869
  0
SOLID
  8
___SYMBOL
 62
2
  6
CONTINUOUS
 10
17.7081552407
 20
24.3668792479
 11
17.7118284871
 21
24.319653119
 12
17.5526929503
 22
24.341255869
 13
17.5526929503
 23
24.341255869
  0
SOLID
  8
___SYMBOL
 62
2
  6
CONTINUOUS
 10
17.5627338889
 20
24.3190620083
 11
17.5526929503
 21
24.341255869
 12
17.7118284871
 22
24.319653119
 13
17.7118284871
 23
24.319653119
  0
SOLID
  8
___SYMBOL
 62
2
  6
CONTINUOUS
 10
17.5627338889
 20
24.3190620083
 11
17.7118284871
 21
24.319653119
 12
17.5619178072
 22
24.2947161276
 13
17.5619178072
 23
24.2947161276
  0
SOLID
  8
___SYMBOL
 62
2
  6
CONTINUOUS
 10
17.5619178072
 20
24.2947161276
 11
17.7118284871
 21
24.319653119
 12
17.5504131869
 22
24.273244481
 13
17.5504131869
 23
24.273244481
  0
SOLID
  8
___SYMBOL
 62
2
  6
CONTINUOUS
 10
17.7118284871
 20
24.319653119
 11
17.7027028835
 21
24.273171689
 12
17.5504131869
 22
24.273244481
 13
17.5504131869
 23
24.273244481
  0
SOLID
  8
___SYMBOL
 62
2
  6
CONTINUOUS
 10
17.5305951791
 20
24.2590799316
 11
17.5504131869
 21
24.273244481
 12
17.7027028835
 22
24.273171689
 13
17.7027028835
 23
24.273171689
  0
SOLID
  8
___SYMBOL
 62
2
  6
CONTINUOUS
 10
17.5305951791
 20
24.2590799316
 11
17.7027028835
 21
24.273171689
 12
17.5065552498
 22
24.2551467778
 13
17.5065552498
 23
24.2551467778
  0
SOLID
  8
___SYMBOL
 62
2
  6
CONTINUOUS
 10
17.7027028835
 20
24.273171689
 11
17.6814469078
 21
24.2308398631
 12
17.5065552498
 22
24.2551467778
 13
17.5065552498
 23
24.2551467778
  0
SOLID
  8
___SYMBOL
 62
2
  6
CONTINUOUS
 10
17.6095466254
 20
24.1704976376
 11
17.4542154996
 21
24.1158714671
 12
17.6496176246
 22
24.1957585758
 13
17.6496176246
 23
24.1957585758
  0
SOLID
  8
___SYMBOL
 62
2
  6
CONTINUOUS
 10
17.6496176246
 20
24.1957585758
 11
17.4542154996
 21
24.1158714671
 12
17.6814469078
 22
24.2308398631
 13
17.6814469078
 23
24.2308398631
  0
SOLID
  8
___SYMBOL
 62
2
  6
CONTINUOUS
 10
17.6814469078
 20
24.2308398631
 11
17.4542154996
 21
24.1158714671
 12
17.5065552498
 22
24.2551467778
 13
17.5065552498
 23
24.2551467778
  0
SOLID
  8
___SYMBOL
 62
2
  6
CONTINUOUS
 10
17.4542154996
 20
24.1158714671
 11
17.3035596771
 21
23.9189150963
 12
17.5065552498
 22
24.2551467778
 13
17.5065552498
 23
24.2551467778
  0
SOLID
  8
___SYMBOL
 62
2
  6
CONTINUOUS
 10
17.5065552498
 20
24.2551467778
 11
17.3035596771
 21
23.9189150963
 12
17.4542154996
 22
24.2551467778
 13
17.4542154996
 23
24.2551467778
  0
SOLID
  8
___SYMBOL
 62
2
  6
CONTINUOUS
 10
17.4542154996
 20
24.2551467778
 11
17.3035596771
 21
23.9189150963
 12
17.4542154996
 22
24.3622499123
 13
17.4542154996
 23
24.3622499123
  0
SOLID
  8
___SYMBOL
 62
2
  6
CONTINUOUS
 10
17.7081552407
 20
24.3668792479
 11
17.4542154996
 21
24.3622499123
 12
17.6919522206
 22
24.4113906186
 13
17.6919522206
 23
24.4113906186
  0
SOLID
  8
___SYMBOL
 62
2
  6
CONTINUOUS
 10
17.6919522206
 20
24.4113906186
 11
17.4542154996
 21
24.3622499123
 12
17.6644063471
 22
24.4499266385
 13
17.6644063471
 23
24.4499266385
  0
SOLID
  8
___SYMBOL
 62
2
  6
CONTINUOUS
 10
17.6644063471
 20
24.4499266385
 11
17.4542154996
 21
24.3622499123
 12
17.6275354387
 22
24.4796644276
 13
17.6275354387
 23
24.4796644276
  0
SOLID
  8
___SYMBOL
 62
2
  6
CONTINUOUS
 10
17.6275354387
 20
24.4796644276
 11
17.4542154996
 21
24.3622499123
 12
17.5840404012
 22
24.4984256029
 13
17.5840404012
 23
24.4984256029
  0
SOLID
  8
___SYMBOL
 62
2
  6
CONTINUOUS
 10
17.5840404012
 20
24.4984256029
 11
17.4542154996
 21
24.3622499123
 12
17.3035596771
 22
24.5048287457
 13
17.3035596771
 23
24.5048287457
  0
SOLID
  8
___SYMBOL
 62
2
  6
CONTINUOUS
 10
17.3035596771
 20
23.9189150963
 11
17.3035596771
 21
24.5048287457
 12
17.4542154996
 22
24.3622499123
 13
17.4542154996
 23
24.3622499123
  0
SOLID
  8
___SYMBOL
 62
2
  6
CONTINUOUS
 10
17.4542154996
 20
24.1158714671
 11
17.4542154996
 21
23.9189150963
 12
17.3035596771
 22
23.9189150963
 13
17.3035596771
 23
23.9189150963
  0
SOLID
  8
___SYMBOL
 62
2
  6
CONTINUOUS
 10
17.4542154996
 20
24.1158714671
 11
17.6095466254
 21
24.1704976376
 12
17.5790389288
 22
23.9189150963
 13
17.5790389288
 23
23.9189150963
  0
SOLID
  8
___SYMBOL
 62
2
  6
CONTINUOUS
 10
17.6095466254
 20
24.1704976376
 11
17.7689898683
 21
23.9189150963
 12
17.5790389288
 22
23.9189150963
 13
17.5790389288
 23
23.9189150963
  0
CIRCLE
  8
___SYMBOL
 62
2
  6
CONTINUOUS
 10
17.909759843
 20
23.9189150963
 40
0.0653578721
  0
LINE
  8
___SYMBOL
 62
2
  6
CONTINUOUS
 10
17.9054718197
 20
23.9183773469
 11
17.9373398325
 21
23.8860744055
  0
LINE
  8
___SYMBOL
 62
2
  6
CONTINUOUS
 10
17.8938738435
 20
23.8860744055
 11
17.8938738435
 21
23.9520406044
  0
LINE
  8
___SYMBOL
 62
2
  6
CONTINUOUS
 10
17.8938738435
 20
23.9520406044
 11
17.9181531765
 21
23.9520406044
  0
ARC
  8
___SYMBOL
 62
2
  6
CONTINUOUS
 10
17.9181531765
 20
23.9352091548
 40
0.0168314496
 50
270.0
 51
90.0
  0
LINE
  8
___SYMBOL
 62
2
  6
CONTINUOUS
 10
17.9181531765
 20
23.9183773469
 11
17.8938738435
 21
23.9183773469
  0
TEXT
  8
___SYMBOL
 62
2
  6
CONTINUOUS
 10
15.0468743764
 20
23.512018787
  7
STANDARD
 40
0.25
  1
CUT-OUT TEMPLATE
 41
0.8
 72
0
  0
TEXT
  8
___SYMBOL
 62
2
  6
CONTINUOUS
 10
15.0468743764
 20
23.137018787
  7
STANDARD
 40
0.25
  1
SELF-RIMMING LAVATORY
 41
0.8
 72
0
  0
TEXT
  8
___SYMBOL
 62
2
  6
CONTINUOUS
 10
15.0468743764
 20
22.762018787
  7
STANDARD
 40
0.25
  1
PLANTILLA DE RECORTE
 41
0.8
 72
0
  0
TEXT
  8
___SYMBOL
 62
2
  6
CONTINUOUS
 10
15.0468743764
 20
22.387018787
  7
STANDARD
 40
0.25
  1
LAVABO CON BORDE TERMINADO
 41
0.8
 72
0
  0
TEXT
  8
___SYMBOL
 62
2
  6
CONTINUOUS
 10
15.0468743764
 20
22.012018787
  7
STANDARD
 40
0.25
  1
PLAN DE DÉCOUPE
 41
0.8
 72
0
  0
TEXT
  8
___SYMBOL
 62
2
  6
CONTINUOUS
 10
15.0468743764
 20
21.637018787
  7
STANDARD
 40
0.25
  1
LAVABO À REBORD INTÉGRÉ
 41
0.8
 72
0
  0
TEXT
  8
___SYMBOL
 62
2
  6
CONTINUOUS
 10
15.0468743764
 20
21.262018787
  7
STANDARD
 40
0.25
  1
2992
 41
0.8
 72
0
  0
ENDBLK
  8
0
  6
BYBLOCK
 62
0
  0
BLOCK
  8
0
  2
_FILLED
 70
64
 10
0.0
 20
0.0
  0
SOLID
  8
0
  6
BYBLOCK
 62
0
 10
0.0
 20
0.0
 11
-1.0
 21
0.1666666667
 12
-1.0
 22
-0.1666666667
 13
-1.0
 23
-0.1666666667
  0
ENDBLK
  8
0
  6
BYBLOCK
 62
0
  0
BLOCK
  8
0
 62
2
  6
CONTINUOUS
  2
*D0
 70
65
 10
0.0
 20
0.0
  0
TEXT
  8
0
 62
2
  6
CONTINUOUS
 10
22.7166244651
 20
18.214459312
  7
STANDARD
 40
0.15625
  1
18.06
 41
0.8
 72
1
 11
23.0291244651
 21
18.214459312
  0
TEXT
  8
0
 62
2
  6
CONTINUOUS
 10
22.4666244651
 20
17.980084312
  7
STANDARD
 40
0.15625
  1
[45,9 cm]
 41
0.8
 72
1
 11
23.0291244651
 21
17.980084312
  0
LINE
  8
0
 62
2
  6
CONTINUOUS
 10
21.7957130143
 20
27.3220012905
 11
23.1541244651
 21
27.3220012905
  0
LINE
  8
0
 62
2
  6
CONTINUOUS
 10
21.7957130142
 20
9.2631673336
 11
23.1541244651
 21
9.2631673336
  0
LINE
  8
0
 62
2
  6
CONTINUOUS
 10
23.0291244651
 20
27.3220012905
 11
23.0291244651
 21
18.448834312
  0
LINE
  8
0
 62
2
  6
CONTINUOUS
 10
23.0291244651
 20
9.2631673336
 11
23.0291244651
 21
17.901959312
  0
INSERT
  8
0
 62
2
  6
CONTINUOUS
  2
_FILLED
 10
23.0291244651
 20
27.3220012905
 41
0.1875
 42
0.1875
 43
0.1875
 50
90.0
  0
INSERT
  8
0
 62
2
  6
CONTINUOUS
  2
_FILLED
 10
23.0291244651
 20
9.2631673336
 41
0.1875
 42
0.1875
 43
0.1875
 50
270.0
  0
ENDBLK
  8
0
  6
BYBLOCK
 62
0
  0
BLOCK
  8
0
 62
2
  6
CONTINUOUS
  2
*D1
 70
65
 10
0.0
 20
0.0
  0
TEXT
  8
0
 62
2
  6
CONTINUOUS
 10
20.4210851073
 20
20.3018096036
  7
STANDARD
 40
0.15625
  1
21.23
 41
0.8
 72
1
 11
20.7335851073
 21
20.3018096036
  0
TEXT
  8
0
 62
2
  6
CONTINUOUS
 10
20.1710851073
 20
20.0674346036
  7
STANDARD
 40
0.15625
  1
[53,9 cm]
 41
0.8
 72
1
 11
20.7335851073
 21
20.0674346036
  0
LINE
  8
0
 62
2
  6
CONTINUOUS
 10
11.1191930313
 20
18.5334899814
 11
11.1191930313
 21
20.5049346036
  0
LINE
  8
0
 62
2
  6
CONTINUOUS
 10
32.3472329972
 20
18.5334899814
 11
32.3472329972
 21
20.5049346036
  0
LINE
  8
0
 62
2
  6
CONTINUOUS
 10
11.1191930313
 20
20.3799346036
 11
20.0929601073
 21
20.3799346036
  0
LINE
  8
0
 62
2
  6
CONTINUOUS
 10
32.3472329972
 20
20.3799346036
 11
21.3742101073
 21
20.3799346036
  0
INSERT
  8
0
 62
2
  6
CONTINUOUS
  2
_FILLED
 10
11.1191930313
 20
20.3799346036
 41
0.1875
 42
0.1875
 43
0.1875
 50
180.0
  0
INSERT
  8
0
 62
2
  6
CONTINUOUS
  2
_FILLED
 10
32.3472329972
 20
20.3799346036
 41
0.1875
 42
0.1875
 43
0.1875
  0
ENDBLK
  8
0
  6
BYBLOCK
 62
0
  0
ENDSEC
  0
SECTION
  2
ENTITIES
  0
DIMENSION
  8
0
 62
2
  6
CONTINUOUS
  2
*D0
 10
23.0291244651
 20
9.2631673336
 11
22.4666244651
 21
18.175396812
 70
128
 13
21.7957130143
 23
27.3220012905
 14
21.7957130142
 24
9.2631673336
 50
270.0
  0
DIMENSION
  8
0
 62
2
  6
CONTINUOUS
  2
*D1
 10
32.3472329972
 20
20.3799346036
 11
20.1710851073
 21
20.2627471036
 70
128
 13
11.1191930313
 23
18.5334899814
 14
32.3472329972
 24
18.5334899814
  0
TEXT
  8
___NOTE
 62
2
  6
CONTINUOUS
 10
29.0014111915
 20
21.4872003816
  7
STANDARD
 40
0.15625
  1
RIM OF LAV
 41
0.8
 72
2
 11
30.2514111915
 21
21.4872003816
  0
TEXT
  8
___NOTE
 62
2
  6
CONTINUOUS
 10
28.0014111915
 20
21.2528253816
  7
STANDARD
 40
0.15625
  1
REBORDE DEL LAVABO
 41
0.8
 72
2
 11
30.2514111915
 21
21.2528253816
  0
TEXT
  8
___NOTE
 62
2
  6
CONTINUOUS
 10
28.2514111915
 20
21.0184503816
  7
STANDARD
 40
0.15625
  1
REBORD DU LAVABO
 41
0.8
 72
2
 11
30.2514111915
 21
21.0184503816
  0
LINE
  8
___NOTE
 62
2
  6
CONTINUOUS
 10
32.0665391445
 20
22.529574614
 11
30.5014111915
 21
21.5653253816
  0
LINE
  8
___NOTE
 62
2
  6
CONTINUOUS
 10
30.5014111915
 20
21.5653253816
 11
30.2514111915
 21
21.5653253816
  0
SOLID
  8
___NOTE
 62
2
  6
CONTINUOUS
 10
31.9232945425
 20
22.4046194361
 11
32.0665391445
 21
22.529574614
 12
31.8905114903
 22
22.4578314788
 13
31.8905114903
 23
22.4578314788
  0
TEXT
  8
___NOTE
 62
2
  6
CONTINUOUS
 10
24.8760005393
 20
24.0068654978
  7
STANDARD
 40
0.15625
  1
FOR SELF-RIMMING INSTALLATION
 41
0.8
 72
2
 11
28.5010005393
 21
24.0068654978
  0
TEXT
  8
___NOTE
 62
2
  6
CONTINUOUS
 10
26.1260005393
 20
23.7724904978
  7
STANDARD
 40
0.15625
  1
CUT ALONG THIS LINE
 41
0.8
 72
2
 11
28.5010005393
 21
23.7724904978
  0
TEXT
  8
___NOTE
 62
2
  6
CONTINUOUS
 10
23.7510005393
 20
23.5381154978
  7
STANDARD
 40
0.15625
  1
PARA INSTALACIONES DE BORDE TERMINADO,
 41
0.8
 72
2
 11
28.5010005393
 21
23.5381154978
  0
TEXT
  8
___NOTE
 62
2
  6
CONTINUOUS
 10
24.7510005393
 20
23.3037404978
  7
STANDARD
 40
0.15625
  1
CORTE A LO LARGO DE ESTA LÍNEA
 41
0.8
 72
2
 11
28.5010005393
 21
23.3037404978
  0
TEXT
  8
___NOTE
 62
2
  6
CONTINUOUS
 10
23.5010005393
 20
23.0693654978
  7
STANDARD
 40
0.15625
  1
POUR DES INSTALLATIONS À REBORD INTÉGRÉ,
 41
0.8
 72
2
 11
28.5010005393
 21
23.0693654978
  0
TEXT
  8
___NOTE
 62
2
  6
CONTINUOUS
 10
24.6260005393
 20
22.8349904978
  7
STANDARD
 40
0.15625
  1
DÉCOUPER AU LONG DE CETTE LIGNE
 41
0.8
 72
2
 11
28.5010005393
 21
22.8349904978
  0
LINE
  8
___NOTE
 62
2
  6
CONTINUOUS
 10
29.3351542104
 20
24.6564970443
 11
28.7510005393
 21
24.0849904978
  0
LINE
  8
___NOTE
 62
2
  6
CONTINUOUS
 10
28.7510005393
 20
24.0849904978
 11
28.5010005393
 21
24.0849904978
  0
SOLID
  8
___NOTE
 62
2
  6
CONTINUOUS
 10
29.2229827354
 20
24.5030357375
 11
29.3351542104
 21
24.6564970443
 12
29.1792748237
 22
24.5477108812
 13
29.1792748237
 23
24.5477108812
  0
INSERT
  8
___SYMBOL
 62
2
  6
CONTINUOUS
  2
SKU_LAV_KOHLER_BL0
 10
17.6468743764
 20
22.8854130236
  0
INSERT
  8
___SYMBOL
 62
2
  6
CONTINUOUS
  2
COPYRIGHT_YEAR_BL1
 10
26.827093491
 20
11.9611005157
  0
INSERT
  8
___SYMBOL
 62
2
  6
CONTINUOUS
  2
TEMPLATE_NUMBER_BL2
 10
17.8813872465
 20
10.9898557358
  0
INSERT
  8
___SYMBOL
 62
2
  6
CONTINUOUS
  2
TEMPLATE_NUMBER_BL3
 10
17.9296105023
 20
8.5748931899
  0
INSERT
  8
___SYMBOL
 62
2
  6
CONTINUOUS
  2
WHEN_PLOTTING_TEMPLATE_N_BL4
 10
27.3021213292
 20
15.7491376193
  0
INSERT
  8
___SYMBOL
 62
2
  6
CONTINUOUS
  2
SCISSORS_BL5
 10
30.065310213
 20
23.9830422415
  0
POLYLINE
  8
_CURVE
 62
8
  6
PHANTOM
 66
1
 70
0
  0
VERTEX
  8
_CURVE
 62
8
  6
PHANTOM
 10
17.0351920406
 20
9.696433265
  0
VERTEX
  8
_CURVE
 62
8
  6
PHANTOM
 10
17.1964072964
 20
9.636026806
  0
VERTEX
  8
_CURVE
 62
8
  6
PHANTOM
 10
17.3584355571
 20
9.5778360967
  0
VERTEX
  8
_CURVE
 62
8
  6
PHANTOM
 10
17.5212429444
 20
9.5218622022
  0
VERTEX
  8
_CURVE
 62
8
  6
PHANTOM
 10
17.6866905341
 20
9.4674969835
  0
VERTEX
  8
_CURVE
 62
8
  6
PHANTOM
 10
17.8528657522
 20
9.4153978635
  0
VERTEX
  8
_CURVE
 62
8
  6
PHANTOM
 10
18.0197336488
 20
9.3655614857
  0
VERTEX
  8
_CURVE
 62
8
  6
PHANTOM
 10
18.1467096086
 20
9.3292772748
  0
VERTEX
  8
_CURVE
 62
8
  6
PHANTOM
 10
18.2740494783
 20
9.2942917293
  0
VERTEX
  8
_CURVE
 62
8
  6
PHANTOM
 10
18.4017389644
 20
9.2606043349
  0
VERTEX
  8
_CURVE
 62
8
  6
PHANTOM
 10
18.5297637731
 20
9.2282145775
  0
VERTEX
  8
_CURVE
 62
8
  6
PHANTOM
 10
18.6591417059
 20
9.1968776182
  0
VERTEX
  8
_CURVE
 62
8
  6
PHANTOM
 10
18.7888318407
 20
9.1668589364
  0
VERTEX
  8
_CURVE
 62
8
  6
PHANTOM
 10
18.9188201734
 20
9.1381587693
  0
VERTEX
  8
_CURVE
 62
8
  6
PHANTOM
 10
19.0490926999
 20
9.110777354
  0
VERTEX
  8
_CURVE
 62
8
  6
PHANTOM
 10
19.1803394217
 20
9.0845781533
  0
VERTEX
  8
_CURVE
 62
8
  6
PHANTOM
 10
19.3118453481
 20
9.0597127535
  0
VERTEX
  8
_CURVE
 62
8
  6
PHANTOM
 10
19.4435965752
 20
9.0361817175
  0
VERTEX
  8
_CURVE
 62
8
  6
PHANTOM
 10
19.5755791991
 20
9.0139856078
  0
VERTEX
  8
_CURVE
 62
8
  6
PHANTOM
 10
19.7085828125
 20
8.9930020291
  0
VERTEX
  8
_CURVE
 62
8
  6
PHANTOM
 10
19.8417924691
 20
8.9733686669
  0
VERTEX
  8
_CURVE
 62
8
  6
PHANTOM
 10
19.9751940695
 20
8.9550839786
  0
VERTEX
  8
_CURVE
 62
8
  6
PHANTOM
 10
20.1087735142
 20
8.9381464214
  0
VERTEX
  8
_CURVE
 62
8
  6
PHANTOM
 10
20.2433136873
 20
8.922465781
  0
VERTEX
  8
_CURVE
 62
8
  6
PHANTOM
 10
20.3780054629
 20
8.9081461649
  0
VERTEX
  8
_CURVE
 62
8
  6
PHANTOM
 10
20.5128347426
 20
8.8951869345
  0
VERTEX
  8
_CURVE
 62
8
  6
PHANTOM
 10
20.6477874277
 20
8.8835874509
  0
VERTEX
  8
_CURVE
 62
8
  6
PHANTOM
 10
20.7832436661
 20
8.8733193627
  0
VERTEX
  8
_CURVE
 62
8
  6
PHANTOM
 10
20.9187967149
 20
8.8644186784
  0
VERTEX
  8
_CURVE
 62
8
  6
PHANTOM
 10
21.0544334391
 20
8.8568857546
  0
VERTEX
  8
_CURVE
 62
8
  6
PHANTOM
 10
21.1901407037
 20
8.8507209475
  0
VERTEX
  8
_CURVE
 62
8
  6
PHANTOM
 10
21.3258635427
 20
8.8459259767
  0
VERTEX
  8
_CURVE
 62
8
  6
PHANTOM
 10
21.4616274253
 20
8.8424996788
  0
VERTEX
  8
_CURVE
 62
8
  6
PHANTOM
 10
21.5974160248
 20
8.840443086
  0
VERTEX
  8
_CURVE
 62
8
  6
PHANTOM
 10
21.7332130142
 20
8.8397572302
  0
SEQEND
  0
POLYLINE
  8
_CURVE
 62
4
  6
CONTINUOUS
 66
1
 70
0
  0
VERTEX
  8
_CURVE
 62
4
  6
CONTINUOUS
 10
23.0293944652
 20
9.6864141874
  0
VERTEX
  8
_CURVE
 62
4
  6
CONTINUOUS
 10
23.1377817785
 20
9.6980265948
  0
VERTEX
  8
_CURVE
 62
4
  6
CONTINUOUS
 10
23.2460572444
 20
9.7105743788
  0
VERTEX
  8
_CURVE
 62
4
  6
CONTINUOUS
 10
23.4123854319
 20
9.7317048311
  0
VERTEX
  8
_CURVE
 62
4
  6
CONTINUOUS
 10
23.5783965761
 20
9.7550520628
  0
VERTEX
  8
_CURVE
 62
4
  6
CONTINUOUS
 10
23.7440608178
 20
9.7806182937
  0
VERTEX
  8
_CURVE
 62
4
  6
CONTINUOUS
 10
23.9084134565
 20
9.8082417048
  0
VERTEX
  8
_CURVE
 62
4
  6
CONTINUOUS
 10
24.0723646109
 20
9.8380609059
  0
VERTEX
  8
_CURVE
 62
4
  6
CONTINUOUS
 10
24.2358853032
 20
9.8700755543
  0
VERTEX
  8
_CURVE
 62
4
  6
CONTINUOUS
 10
24.3979954442
 20
9.9040789554
  0
VERTEX
  8
_CURVE
 62
4
  6
CONTINUOUS
 10
24.5596185525
 20
9.9402497237
  0
VERTEX
  8
_CURVE
 62
4
  6
CONTINUOUS
 10
24.7207216875
 20
9.9785856716
  0
VERTEX
  8
_CURVE
 62
4
  6
CONTINUOUS
 10
24.8801352039
 20
10.018790221
  0
VERTEX
  8
_CURVE
 62
4
  6
CONTINUOUS
 10
25.0389680274
 20
10.0611269902
  0
VERTEX
  8
_CURVE
 62
4
  6
CONTINUOUS
 10
25.1971845671
 20
10.1055957656
  0
VERTEX
  8
_CURVE
 62
4
  6
CONTINUOUS
 10
25.3532202526
 20
10.1517331092
  0
VERTEX
  8
_CURVE
 62
4
  6
CONTINUOUS
 10
25.5085843497
 20
10.1999626726
  0
VERTEX
  8
_CURVE
 62
4
  6
CONTINUOUS
 10
25.663244525
 20
10.2502861524
  0
VERTEX
  8
_CURVE
 62
4
  6
CONTINUOUS
 10
25.8154832351
 20
10.3021181565
  0
VERTEX
  8
_CURVE
 62
4
  6
CONTINUOUS
 10
25.9669723794
 20
10.3559998779
  0
VERTEX
  8
_CURVE
 62
4
  6
CONTINUOUS
 10
26.1176825719
 20
10.4119311761
  0
VERTEX
  8
_CURVE
 62
4
  6
CONTINUOUS
 10
26.2659793851
 20
10.4692782025
  0
VERTEX
  8
_CURVE
 62
4
  6
CONTINUOUS
 10
26.413452621
 20
10.5286273322
  0
VERTEX
  8
_CURVE
 62
4
  6
CONTINUOUS
 10
26.5600697826
 20
10.5899749855
  0
VERTEX
  8
_CURVE
 62
4
  6
CONTINUOUS
 10
26.7040797014
 20
10.6525569577
  0
VERTEX
  8
_CURVE
 62
4
  6
CONTINUOUS
 10
26.8471864932
 20
10.7170839509
  0
VERTEX
  8
_CURVE
 62
4
  6
CONTINUOUS
 10
26.9893547114
 20
10.7835529452
  0
VERTEX
  8
_CURVE
 62
4
  6
CONTINUOUS
 10
27.1285298758
 20
10.85096579
  0
VERTEX
  8
_CURVE
 62
4
  6
CONTINUOUS
 10
27.2667245932
 20
10.9202605476
  0
VERTEX
  8
_CURVE
 62
4
  6
CONTINUOUS
 10
27.4039046846
 20
10.9914353966
  0
VERTEX
  8
_CURVE
 62
4
  6
CONTINUOUS
 10
27.5379671048
 20
11.0633597321
  0
VERTEX
  8
_CURVE
 62
4
  6
CONTINUOUS
 10
27.6709817929
 20
11.1371039766
  0
VERTEX
  8
_CURVE
 62
4
  6
CONTINUOUS
 10
27.8029180585
 20
11.2126666534
  0
VERTEX
  8
_CURVE
 62
4
  6
CONTINUOUS
 10
27.9318703641
 20
11.2889191606
  0
VERTEX
  8
_CURVE
 62
4
  6
CONTINUOUS
 10
28.059715406
 20
11.3669314016
  0
VERTEX
  8
_CURVE
 62
4
  6
CONTINUOUS
 10
28.1864233397
 20
11.4466980756
  0
VERTEX
  8
_CURVE
 62
4
  6
CONTINUOUS
 10
28.3101464933
 20
11.527015603
  0
VERTEX
  8
_CURVE
 62
4
  6
CONTINUOUS
 10
28.4327023228
 20
11.6090236844
  0
VERTEX
  8
_CURVE
 62
4
  6
CONTINUOUS
 10
28.5540567676
 20
11.692714238
  0
VERTEX
  8
_CURVE
 62
4
  6
CONTINUOUS
 10
28.672225125
 20
11.7766727037
  0
VERTEX
  8
_CURVE
 62
4
  6
CONTINUOUS
 10
28.7891638384
 20
11.8622445455
  0
VERTEX
  8
_CURVE
 62
4
  6
CONTINUOUS
 10
28.9048387115
 20
11.9494229576
  0
VERTEX
  8
_CURVE
 62
4
  6
CONTINUOUS
 10
29.0172205752
 20
12.0366299734
  0
VERTEX
  8
_CURVE
 62
4
  6
CONTINUOUS
 10
29.1283187356
 20
12.1253753079
  0
VERTEX
  8
_CURVE
 62
4
  6
CONTINUOUS
 10
29.2381023803
 20
12.2156531554
  0
VERTEX
  8
_CURVE
 62
4
  6
CONTINUOUS
 10
29.3447501724
 20
12.305919386
  0
VERTEX
  8
_CURVE
 62
4
  6
CONTINUOUS
 10
29.4500694815
 20
12.3976546265
  0
VERTEX
  8
_CURVE
 62
4
  6
CONTINUOUS
 10
29.5540328114
 20
12.490851499
  0
VERTEX
  8
_CURVE
 62
4
  6
CONTINUOUS
 10
29.6550497008
 20
12.584039294
  0
VERTEX
  8
_CURVE
 62
4
  6
CONTINUOUS
 10
29.7546956755
 20
12.6786242063
  0
VERTEX
  8
_CURVE
 62
4
  6
CONTINUOUS
 10
29.8529411916
 20
12.7745933573
  0
VERTEX
  8
_CURVE
 62
4
  6
CONTINUOUS
 10
29.9482428882
 20
12.8703904047
  0
VERTEX
  8
_CURVE
 62
4
  6
CONTINUOUS
 10
30.0421283877
 20
12.9675034678
  0
VERTEX
  8
_CURVE
 62
4
  6
CONTINUOUS
 10
30.1345668119
 20
13.0659200529
  0
VERTEX
  8
_CURVE
 62
4
  6
CONTINUOUS
 10
30.2239869927
 20
13.1639144573
  0
VERTEX
  8
_CURVE
 62
4
  6
CONTINUOUS
 10
30.3119500452
 20
13.2631429198
  0
VERTEX
  8
_CURVE
 62
4
  6
CONTINUOUS
 10
30.3984267614
 20
13.3635921753
  0
VERTEX
  8
_CURVE
 62
4
  6
CONTINUOUS
 10
30.4819503182
 20
13.4635033534
  0
VERTEX
  8
_CURVE
 62
4
  6
CONTINUOUS
 10
30.5639836268
 20
13.5645705453
  0
VERTEX
  8
_CURVE
 62
4
  6
CONTINUOUS
 10
30.6445006669
 20
13.6667831241
  0
VERTEX
  8
_CURVE
 62
4
  6
CONTINUOUS
 10
30.722286703
 20
13.7685498346
  0
VERTEX
  8
_CURVE
 62
4
  6
CONTINUOUS
 10
30.7985544809
 20
13.8714019359
  0
VERTEX
  8
_CURVE
 62
4
  6
CONTINUOUS
 10
30.8732814882
 20
13.9753243035
  0
VERTEX
  8
_CURVE
 62
4
  6
CONTINUOUS
 10
30.945453032
 20
14.0788560582
  0
VERTEX
  8
_CURVE
 62
4
  6
CONTINUOUS
 10
31.0160788481
 20
14.1833961634
  0
VERTEX
  8
_CURVE
 62
4
  6
CONTINUOUS
 10
31.085133954
 20
14.2889265387
  0
VERTEX
  8
_CURVE
 62
4
  6
CONTINUOUS
 10
31.1516554039
 20
14.3939235002
  0
VERTEX
  8
_CURVE
 62
4
  6
CONTINUOUS
 10
31.2166021977
 20
14.4998459887
  0
VERTEX
  8
_CURVE
 62
4
  6
CONTINUOUS
 10
31.2799507821
 20
14.6066745082
  0
VERTEX
  8
_CURVE
 62
4
  6
CONTINUOUS
 10
31.3407792073
 20
14.7127950527
  0
VERTEX
  8
_CURVE
 62
4
  6
CONTINUOUS
 10
31.4000101172
 20
14.8197582232
  0
VERTEX
  8
_CURVE
 62
4
  6
CONTINUOUS
 10
31.4576202849
 20
14.9275460624
  0
VERTEX
  8
_CURVE
 62
4
  6
CONTINUOUS
 10
31.5128253956
 20
15.0346351409
  0
VERTEX
  8
_CURVE
 62
4
  6
CONTINUOUS
 10
31.5664140661
 20
15.1424926468
  0
VERTEX
  8
_CURVE
 62
4
  6
CONTINUOUS
 10
31.6183687158
 20
15.2511024316
  0
VERTEX
  8
_CURVE
 62
4
  6
CONTINUOUS
 10
31.6680919912
 20
15.3591619253
  0
VERTEX
  8
_CURVE
 62
4
  6
CONTINUOUS
 10
31.7161857696
 20
15.4679200546
  0
VERTEX
  8
_CURVE
 62
4
  6
CONTINUOUS
 10
31.7626336722
 20
15.5773564766
  0
VERTEX
  8
_CURVE
 62
4
  6
CONTINUOUS
 10
31.8069735974
 20
15.6863306442
  0
VERTEX
  8
_CURVE
 62
4
  6
CONTINUOUS
 10
31.8496690682
 20
15.7959263268
  0
VERTEX
  8
_CURVE
 62
4
  6
CONTINUOUS
 10
31.8907043445
 20
15.9061203655
  0
VERTEX
  8
_CURVE
 62
4
  6
CONTINUOUS
 10
31.9296871692
 20
16.0158041523
  0
VERTEX
  8
_CURVE
 62
4
  6
CONTINUOUS
 10
31.9670112985
 20
16.1260284005
  0
VERTEX
  8
_CURVE
 62
4
  6
CONTINUOUS
 10
32.0026613732
 20
16.2367695622
  0
VERTEX
  8
_CURVE
 62
4
  6
CONTINUOUS
 10
32.0362938516
 20
16.3468987341
  0
VERTEX
  8
_CURVE
 62
4
  6
CONTINUOUS
 10
32.0682567689
 20
16.4574888037
  0
VERTEX
  8
_CURVE
 62
4
  6
CONTINUOUS
 10
32.0985366384
 20
16.5685170389
  0
VERTEX
  8
_CURVE
 62
4
  6
CONTINUOUS
 10
32.1268652944
 20
16.678934122
  0
VERTEX
  8
_CURVE
 62
4
  6
CONTINUOUS
 10
32.1535184627
 20
16.7897400598
  0
VERTEX
  8
_CURVE
 62
4
  6
CONTINUOUS
 10
32.1784861176
 20
16.9009158823
  0
VERTEX
  8
_CURVE
 62
4
  6
CONTINUOUS
 10
32.2016001142
 20
17.0116513504
  0
VERTEX
  8
_CURVE
 62
4
  6
CONTINUOUS
 10
32.2230362628
 20
17.1227094237
  0
VERTEX
  8
_CURVE
 62
4
  6
CONTINUOUS
 10
32.2427883408
 20
17.2340667416
  0
VERTEX
  8
_CURVE
 62
4
  6
CONTINUOUS
 10
32.2607669596
 20
17.3451602765
  0
VERTEX
  8
_CURVE
 62
4
  6
CONTINUOUS
 10
32.2770649417
 20
17.4565017529
  0
VERTEX
  8
_CURVE
 62
4
  6
CONTINUOUS
 10
32.291675671
 20
17.5680658836
  0
VERTEX
  8
_CURVE
 62
4
  6
CONTINUOUS
 10
32.3045471992
 20
17.6794035429
  0
VERTEX
  8
_CURVE
 62
4
  6
CONTINUOUS
 10
32.3157334997
 20
17.7909113549
  0
VERTEX
  8
_CURVE
 62
4
  6
CONTINUOUS
 10
32.3252304046
 20
17.9025635973
  0
VERTEX
  8
_CURVE
 62
4
  6
CONTINUOUS
 10
32.3330095827
 20
18.013947059
  0
VERTEX
  8
_CURVE
 62
4
  6
CONTINUOUS
 10
32.3391025118
 20
18.1254234452
  0
VERTEX
  8
_CURVE
 62
4
  6
CONTINUOUS
 10
32.343504787
 20
18.2369677939
  0
VERTEX
  8
_CURVE
 62
4
  6
CONTINUOUS
 10
32.3462078832
 20
18.3482695851
  0
VERTEX
  8
_CURVE
 62
4
  6
CONTINUOUS
 10
32.3472241576
 20
18.4595941816
  0
VERTEX
  8
_CURVE
 62
4
  6
CONTINUOUS
 10
32.3465531597
 20
18.5709216086
  0
VERTEX
  8
_CURVE
 62
4
  6
CONTINUOUS
 10
32.3441978769
 20
18.6821303507
  0
VERTEX
  8
_CURVE
 62
4
  6
CONTINUOUS
 10
32.3401606764
 20
18.7932988431
  0
VERTEX
  8
_CURVE
 62
4
  6
CONTINUOUS
 10
32.3344443012
 20
18.9044039493
  0
VERTEX
  8
_CURVE
 62
4
  6
CONTINUOUS
 10
32.327045456
 20
19.0155075292
  0
VERTEX
  8
_CURVE
 62
4
  6
CONTINUOUS
 10
32.3179720952
 20
19.1264992514
  0
VERTEX
  8
_CURVE
 62
4
  6
CONTINUOUS
 10
32.3072287138
 20
19.237353914
  0
VERTEX
  8
_CURVE
 62
4
  6
CONTINUOUS
 10
32.2947923468
 20
19.3482768345
  0
VERTEX
  8
_CURVE
 62
4
  6
CONTINUOUS
 10
32.2806888281
 20
19.4590117385
  0
VERTEX
  8
_CURVE
 62
4
  6
CONTINUOUS
 10
32.2649234797
 20
19.5695335476
  0
VERTEX
  8
_CURVE
 62
4
  6
CONTINUOUS
 10
32.247444773
 20
19.6801615771
  0
VERTEX
  8
_CURVE
 62
4
  6
CONTINUOUS
 10
32.2283056459
 20
19.7905256674
  0
VERTEX
  8
_CURVE
 62
4
  6
CONTINUOUS
 10
32.2075125545
 20
19.9006015434
  0
VERTEX
  8
_CURVE
 62
4
  6
CONTINUOUS
 10
32.1849755585
 20
20.0108205933
  0
VERTEX
  8
_CURVE
 62
4
  6
CONTINUOUS
 10
32.1607848069
 20
20.1207050354
  0
VERTEX
  8
_CURVE
 62
4
  6
CONTINUOUS
 10
32.1349477548
 20
20.2302353506
  0
VERTEX
  8
_CURVE
 62
4
  6
CONTINUOUS
 10
32.1073182151
 20
20.3399865513
  0
VERTEX
  8
_CURVE
 62
4
  6
CONTINUOUS
 10
32.0780440472
 20
20.4493400515
  0
VERTEX
  8
_CURVE
 62
4
  6
CONTINUOUS
 10
32.047137402
 20
20.5582758854
  0
VERTEX
  8
_CURVE
 62
4
  6
CONTINUOUS
 10
32.01437872
 20
20.6675269135
  0
VERTEX
  8
_CURVE
 62
4
  6
CONTINUOUS
 10
31.9799908287
 20
20.7763114021
  0
VERTEX
  8
_CURVE
 62
4
  6
CONTINUOUS
 10
31.9439874684
 20
20.8846065537
  0
VERTEX
  8
_CURVE
 62
4
  6
CONTINUOUS
 10
31.9060629958
 20
20.9932843496
  0
VERTEX
  8
_CURVE
 62
4
  6
CONTINUOUS
 10
31.8665251259
 20
21.1014195422
  0
VERTEX
  8
_CURVE
 62
4
  6
CONTINUOUS
 10
31.8253889535
 20
21.2089902196
  0
VERTEX
  8
_CURVE
 62
4
  6
CONTINUOUS
 10
31.7822592796
 20
21.3169804261
  0
VERTEX
  8
_CURVE
 62
4
  6
CONTINUOUS
 10
31.7375316714
 20
21.42435147
  0
VERTEX
  8
_CURVE
 62
4
  6
CONTINUOUS
 10
31.6912213965
 20
21.5310817257
  0
VERTEX
  8
_CURVE
 62
4
  6
CONTINUOUS
 10
31.6428405406
 20
21.6382436667
  0
VERTEX
  8
_CURVE
 62
4
  6
CONTINUOUS
 10
31.5928752328
 20
21.7447130516
  0
VERTEX
  8
_CURVE
 62
4
  6
CONTINUOUS
 10
31.5413409987
 20
21.8504735065
  0
VERTEX
  8
_CURVE
 62
4
  6
CONTINUOUS
 10
31.4876470727
 20
21.9566879447
  0
VERTEX
  8
_CURVE
 62
4
  6
CONTINUOUS
 10
31.4323840839
 20
22.0621446872
  0
VERTEX
  8
_CURVE
 62
4
  6
CONTINUOUS
 10
31.3755715684
 20
22.1668277767
  0
VERTEX
  8
_CURVE
 62
4
  6
CONTINUOUS
 10
31.3164964244
 20
22.2720042513
  0
VERTEX
  8
_CURVE
 62
4
  6
CONTINUOUS
 10
31.2558752119
 20
22.3763535654
  0
VERTEX
  8
_CURVE
 62
4
  6
CONTINUOUS
 10
31.1937300306
 20
22.4798578718
  0
VERTEX
  8
_CURVE
 62
4
  6
CONTINUOUS
 10
31.1292126522
 20
22.5838805789
  0
VERTEX
  8
_CURVE
 62
4
  6
CONTINUOUS
 10
31.0631754489
 20
22.6869992543
  0
VERTEX
  8
_CURVE
 62
4
  6
CONTINUOUS
 10
30.9956413319
 20
22.7891962
  0
VERTEX
  8
_CURVE
 62
4
  6
CONTINUOUS
 10
30.9256492668
 20
22.8918753697
  0
VERTEX
  8
_CURVE
 62
4
  6
CONTINUOUS
 10
30.8541638569
 20
22.9935719137
  0
VERTEX
  8
_CURVE
 62
4
  6
CONTINUOUS
 10
30.7812076316
 20
23.09426932
  0
VERTEX
  8
_CURVE
 62
4
  6
CONTINUOUS
 10
30.7057322503
 20
23.1953649768
  0
VERTEX
  8
_CURVE
 62
4
  6
CONTINUOUS
 10
30.6287887178
 20
23.295404142
  0
VERTEX
  8
_CURVE
 62
4
  6
CONTINUOUS
 10
30.5503987369
 20
23.3943751245
  0
VERTEX
  8
_CURVE
 62
4
  6
CONTINUOUS
 10
30.4694070051
 20
23.4936898078
  0
VERTEX
  8
_CURVE
 62
4
  6
CONTINUOUS
 10
30.3869744947
 20
23.5918819926
  0
VERTEX
  8
_CURVE
 62
4
  6
CONTINUOUS
 10
30.3031271438
 20
23.6889408658
  0
VERTEX
  8
_CURVE
 62
4
  6
CONTINUOUS
 10
30.2165685707
 20
23.7863225125
  0
VERTEX
  8
_CURVE
 62
4
  6
CONTINUOUS
 10
30.1286058449
 20
23.882512291
  0
VERTEX
  8
_CURVE
 62
4
  6
CONTINUOUS
 10
30.0392667928
 20
23.9774979427
  0
VERTEX
  8
_CURVE
 62
4
  6
CONTINUOUS
 10
29.947119914
 20
24.072755099
  0
VERTEX
  8
_CURVE
 62
4
  6
CONTINUOUS
 10
29.8536097071
 20
24.1667448436
  0
VERTEX
  8
_CURVE
 62
4
  6
CONTINUOUS
 10
29.7587647637
 20
24.2594553163
  0
VERTEX
  8
_CURVE
 62
4
  6
CONTINUOUS
 10
29.6610565463
 20
24.3523343149
  0
VERTEX
  8
_CURVE
 62
4
  6
CONTINUOUS
 10
29.5620266514
 20
24.4438695089
  0
VERTEX
  8
_CURVE
 62
4
  6
CONTINUOUS
 10
29.4617018894
 20
24.5340500823
  0
VERTEX
  8
_CURVE
 62
4
  6
CONTINUOUS
 10
29.3584706745
 20
24.6242780637
  0
VERTEX
  8
_CURVE
 62
4
  6
CONTINUOUS
 10
29.2539563042
 20
24.7130906385
  0
VERTEX
  8
_CURVE
 62
4
  6
CONTINUOUS
 10
29.1481846419
 20
24.8004819445
  0
VERTEX
  8
_CURVE
 62
4
  6
CONTINUOUS
 10
29.0394390433
 20
24.8878267004
  0
VERTEX
  8
_CURVE
 62
4
  6
CONTINUOUS
 10
28.9294518537
 20
24.9736921534
  0
VERTEX
  8
_CURVE
 62
4
  6
CONTINUOUS
 10
28.8182531215
 20
25.0580727328
  0
VERTEX
  8
_CURVE
 62
4
  6
CONTINUOUS
 10
28.7040023678
 20
25.1423226214
  0
VERTEX
  8
_CURVE
 62
4
  6
CONTINUOUS
 10
28.5885624216
 20
25.2250254837
  0
VERTEX
  8
_CURVE
 62
4
  6
CONTINUOUS
 10
28.4719650348
 20
25.3061745038
  0
VERTEX
  8
_CURVE
 62
4
  6
CONTINUOUS
 10
28.3522838335
 20
25.3870670206
  0
VERTEX
  8
_CURVE
 62
4
  6
CONTINUOUS
 10
28.2314705479
 20
25.4663398106
  0
VERTEX
  8
_CURVE
 62
4
  6
CONTINUOUS
 10
28.1095563541
 20
25.5439858943
  0
VERTEX
  8
_CURVE
 62
4
  6
CONTINUOUS
 10
27.9846210161
 20
25.6211859998
  0
VERTEX
  8
_CURVE
 62
4
  6
CONTINUOUS
 10
27.8586096708
 20
25.6966957836
  0
VERTEX
  8
_CURVE
 62
4
  6
CONTINUOUS
 10
27.7315500967
 20
25.770510616
  0
VERTEX
  8
_CURVE
 62
4
  6
CONTINUOUS
 10
27.6015525004
 20
25.8436890469
  0
VERTEX
  8
_CURVE
 62
4
  6
CONTINUOUS
 10
27.4705326212
 20
25.9151159916
  0
VERTEX
  8
_CURVE
 62
4
  6
CONTINUOUS
 10
27.3385192873
 20
25.984790612
  0
VERTEX
  8
_CURVE
 62
4
  6
CONTINUOUS
 10
27.2035923313
 20
26.0536910378
  0
VERTEX
  8
_CURVE
 62
4
  6
CONTINUOUS
 10
27.0677051354
 20
26.120784761
  0
VERTEX
  8
_CURVE
 62
4
  6
CONTINUOUS
 10
26.9308904726
 20
26.1860698332
  0
VERTEX
  8
_CURVE
 62
4
  6
CONTINUOUS
 10
26.7911811192
 20
26.2504496215
  0
VERTEX
  8
_CURVE
 62
4
  6
CONTINUOUS
 10
26.6505837651
 20
26.3129629177
  0
VERTEX
  8
_CURVE
 62
4
  6
CONTINUOUS
 10
26.5091311924
 20
26.3736066257
  0
VERTEX
  8
_CURVE
 62
4
  6
CONTINUOUS
 10
26.3648935836
 20
26.4331727698
  0
VERTEX
  8
_CURVE
 62
4
  6
CONTINUOUS
 10
26.2198411833
 20
26.4908113736
  0
VERTEX
  8
_CURVE
 62
4
  6
CONTINUOUS
 10
26.0740044101
 20
26.5465194372
  0
VERTEX
  8
_CURVE
 62
4
  6
CONTINUOUS
 10
25.9255783253
 20
26.6009535692
  0
VERTEX
  8
_CURVE
 62
4
  6
CONTINUOUS
 10
25.7764070578
 20
26.6534055013
  0
VERTEX
  8
_CURVE
 62
4
  6
CONTINUOUS
 10
25.6265183221
 20
26.7038751526
  0
VERTEX
  8
_CURVE
 62
4
  6
CONTINUOUS
 10
25.4742174876
 20
26.7529048115
  0
VERTEX
  8
_CURVE
 62
4
  6
CONTINUOUS
 10
25.3212422249
 20
26.7999084328
  0
VERTEX
  8
_CURVE
 62
4
  6
CONTINUOUS
 10
25.1676236972
 20
26.8448878571
  0
VERTEX
  8
_CURVE
 62
4
  6
CONTINUOUS
 10
25.011735125
 20
26.8882945008
  0
VERTEX
  8
_CURVE
 62
4
  6
CONTINUOUS
 10
24.8552549741
 20
26.9296345277
  0
VERTEX
  8
_CURVE
 62
4
  6
CONTINUOUS
 10
24.6982169746
 20
26.9689073125
  0
VERTEX
  8
_CURVE
 62
4
  6
CONTINUOUS
 10
24.5391268885
 20
27.006462041
  0
VERTEX
  8
_CURVE
 62
4
  6
CONTINUOUS
 10
24.3795342369
 20
27.0419069301
  0
SEQEND
  0
POLYLINE
  8
_CURVE
 62
8
  6
PHANTOM
 66
1
 70
0
  0
VERTEX
  8
_CURVE
 62
8
  6
PHANTOM
 10
21.7332130142
 20
8.8397572302
  0
VERTEX
  8
_CURVE
 62
8
  6
PHANTOM
 10
21.8690100037
 20
8.840443086
  0
VERTEX
  8
_CURVE
 62
8
  6
PHANTOM
 10
22.0047986032
 20
8.8424996788
  0
VERTEX
  8
_CURVE
 62
8
  6
PHANTOM
 10
22.1405624858
 20
8.8459259767
  0
VERTEX
  8
_CURVE
 62
8
  6
PHANTOM
 10
22.2762853248
 20
8.8507209475
  0
VERTEX
  8
_CURVE
 62
8
  6
PHANTOM
 10
22.4119925894
 20
8.8568857546
  0
VERTEX
  8
_CURVE
 62
8
  6
PHANTOM
 10
22.5476293136
 20
8.8644186784
  0
VERTEX
  8
_CURVE
 62
8
  6
PHANTOM
 10
22.6831823624
 20
8.8733193627
  0
VERTEX
  8
_CURVE
 62
8
  6
PHANTOM
 10
22.8186386008
 20
8.8835874509
  0
VERTEX
  8
_CURVE
 62
8
  6
PHANTOM
 10
22.9535912859
 20
8.8951869345
  0
VERTEX
  8
_CURVE
 62
8
  6
PHANTOM
 10
23.0884205656
 20
8.9081461649
  0
VERTEX
  8
_CURVE
 62
8
  6
PHANTOM
 10
23.2231123412
 20
8.922465781
  0
VERTEX
  8
_CURVE
 62
8
  6
PHANTOM
 10
23.3576525143
 20
8.9381464214
  0
VERTEX
  8
_CURVE
 62
8
  6
PHANTOM
 10
23.491231959
 20
8.9550839786
  0
VERTEX
  8
_CURVE
 62
8
  6
PHANTOM
 10
23.6246335594
 20
8.9733686669
  0
VERTEX
  8
_CURVE
 62
8
  6
PHANTOM
 10
23.757843216
 20
8.9930020291
  0
VERTEX
  8
_CURVE
 62
8
  6
PHANTOM
 10
23.8908468294
 20
9.0139856078
  0
VERTEX
  8
_CURVE
 62
8
  6
PHANTOM
 10
24.0228294533
 20
9.0361817175
  0
VERTEX
  8
_CURVE
 62
8
  6
PHANTOM
 10
24.1545806804
 20
9.0597127535
  0
VERTEX
  8
_CURVE
 62
8
  6
PHANTOM
 10
24.2860866068
 20
9.0845781533
  0
VERTEX
  8
_CURVE
 62
8
  6
PHANTOM
 10
24.4173333286
 20
9.110777354
  0
VERTEX
  8
_CURVE
 62
8
  6
PHANTOM
 10
24.5476058551
 20
9.1381587693
  0
VERTEX
  8
_CURVE
 62
8
  6
PHANTOM
 10
24.6775941878
 20
9.1668589364
  0
VERTEX
  8
_CURVE
 62
8
  6
PHANTOM
 10
24.8072843226
 20
9.1968776182
  0
VERTEX
  8
_CURVE
 62
8
  6
PHANTOM
 10
24.9366622554
 20
9.2282145775
  0
VERTEX
  8
_CURVE
 62
8
  6
PHANTOM
 10
25.0646870641
 20
9.2606043349
  0
VERTEX
  8
_CURVE
 62
8
  6
PHANTOM
 10
25.1923765501
 20
9.2942917293
  0
VERTEX
  8
_CURVE
 62
8
  6
PHANTOM
 10
25.3197164199
 20
9.3292772748
  0
VERTEX
  8
_CURVE
 62
8
  6
PHANTOM
 10
25.4466923797
 20
9.3655614857
  0
VERTEX
  8
_CURVE
 62
8
  6
PHANTOM
 10
25.6135602762
 20
9.4153978635
  0
VERTEX
  8
_CURVE
 62
8
  6
PHANTOM
 10
25.7797354943
 20
9.4674969835
  0
VERTEX
  8
_CURVE
 62
8
  6
PHANTOM
 10
25.9451830841
 20
9.5218622022
  0
VERTEX
  8
_CURVE
 62
8
  6
PHANTOM
 10
26.1079904714
 20
9.5778360967
  0
VERTEX
  8
_CURVE
 62
8
  6
PHANTOM
 10
26.2700187321
 20
9.636026806
  0
VERTEX
  8
_CURVE
 62
8
  6
PHANTOM
 10
26.4312339879
 20
9.696433265
  0
VERTEX
  8
_CURVE
 62
8
  6
PHANTOM
 10
26.5899848398
 20
9.7584099036
  0
VERTEX
  8
_CURVE
 62
8
  6
PHANTOM
 10
26.7478720526
 20
9.8225546021
  0
VERTEX
  8
_CURVE
 62
8
  6
PHANTOM
 10
26.9048618294
 20
9.8888653012
  0
VERTEX
  8
_CURVE
 62
8
  6
PHANTOM
 10
27.059067115
 20
9.9565119379
  0
VERTEX
  8
_CURVE
 62
8
  6
PHANTOM
 10
27.2123285164
 20
10.026270451
  0
VERTEX
  8
_CURVE
 62
8
  6
PHANTOM
 10
27.3646113345
 20
10.0981400099
  0
VERTEX
  8
_CURVE
 62
8
  6
PHANTOM
 10
27.513708908
 20
10.1710393975
  0
VERTEX
  8
_CURVE
 62
8
  6
PHANTOM
 10
27.6617863467
 20
10.2459889983
  0
VERTEX
  8
_CURVE
 62
8
  6
PHANTOM
 10
27.8088078177
 20
10.3229891634
  0
VERTEX
  8
_CURVE
 62
8
  6
PHANTOM
 10
27.9524806214
 20
10.4007970805
  0
VERTEX
  8
_CURVE
 62
8
  6
PHANTOM
 10
28.0950600922
 20
10.4805906608
  0
VERTEX
  8
_CURVE
 62
8
  6
PHANTOM
 10
28.2365110653
 20
10.5623678297
  0
VERTEX
  8
_CURVE
 62
8
  6
PHANTOM
 10
28.3748726611
 20
10.6449578189
  0
VERTEX
  8
_CURVE
 62
8
  6
PHANTOM
 10
28.5120690234
 20
10.7294692558
  0
VERTEX
  8
_CURVE
 62
8
  6
PHANTOM
 10
28.6480667207
 20
10.815896327
  0
VERTEX
  8
_CURVE
 62
8
  6
PHANTOM
 10
28.7809629702
 20
10.9029895349
  0
VERTEX
  8
_CURVE
 62
8
  6
PHANTOM
 10
28.9126266875
 20
10.9919348477
  0
VERTEX
  8
_CURVE
 62
8
  6
PHANTOM
 10
29.043023345
 20
11.082727394
  0
VERTEX
  8
_CURVE
 62
8
  6
PHANTOM
 10
29.1700427559
 20
11.1738508672
  0
VERTEX
  8
_CURVE
 62
8
  6
PHANTOM
 10
29.2957673373
 20
11.2667525329
  0
VERTEX
  8
_CURVE
 62
8
  6
PHANTOM
 10
29.4201621266
 20
11.3614272764
  0
VERTEX
  8
_CURVE
 62
8
  6
PHANTOM
 10
29.5410607144
 20
11.4561749739
  0
VERTEX
  8
_CURVE
 62
8
  6
PHANTOM
 10
29.6606060881
 20
11.5526242286
  0
VERTEX
  8
_CURVE
 62
8
  6
PHANTOM
 10
29.7787626602
 20
11.6507696868
  0
VERTEX
  8
_CURVE
 62
8
  6
PHANTOM
 10
29.8936067602
 20
11.7489666167
  0
VERTEX
  8
_CURVE
 62
8
  6
PHANTOM
 10
30.0070404822
 20
11.8487894006
  0
VERTEX
  8
_CURVE
 62
8
  6
PHANTOM
 10
30.1190318464
 20
11.950227637
  0
VERTEX
  8
_CURVE
 62
8
  6
PHANTOM
 10
30.2279638197
 20
12.0517718531
  0
VERTEX
  8
_CURVE
 62
8
  6
PHANTOM
 10
30.3354316182
 20
12.1548642576
  0
VERTEX
  8
_CURVE
 62
8
  6
PHANTOM
 10
30.4414031443
 20
12.259493995
  0
VERTEX
  8
_CURVE
 62
8
  6
PHANTOM
 10
30.544217261
 20
12.3639705928
  0
VERTEX
  8
_CURVE
 62
8
  6
PHANTOM
 10
30.6455185299
 20
12.4699145862
  0
VERTEX
  8
_CURVE
 62
8
  6
PHANTOM
 10
30.7452748298
 20
12.5773144776
  0
VERTEX
  8
_CURVE
 62
8
  6
PHANTOM
 10
30.8418286323
 20
12.6843306762
  0
VERTEX
  8
_CURVE
 62
8
  6
PHANTOM
 10
30.93682503
 20
12.7927315841
  0
VERTEX
  8
_CURVE
 62
8
  6
PHANTOM
 10
31.0302315171
 20
12.9025053098
  0
VERTEX
  8
_CURVE
 62
8
  6
PHANTOM
 10
31.1204696493
 20
13.0117396418
  0
VERTEX
  8
_CURVE
 62
8
  6
PHANTOM
 10
31.2091093939
 20
13.1222748521
  0
VERTEX
  8
_CURVE
 62
8
  6
PHANTOM
 10
31.2961201076
 20
13.234096753
  0
VERTEX
  8
_CURVE
 62
8
  6
PHANTOM
 10
31.3802760365
 20
13.3455820263
  0
VERTEX
  8
_CURVE
 62
8
  6
PHANTOM
 10
31.4627920497
 20
13.458286447
  0
VERTEX
  8
_CURVE
 62
8
  6
PHANTOM
 10
31.5436412874
 20
13.5721924026
  0
VERTEX
  8
_CURVE
 62
8
  6
PHANTOM
 10
31.6217600282
 20
13.6857509129
  0
VERTEX
  8
_CURVE
 62
8
  6
PHANTOM
 10
31.6982027196
 20
13.8004442503
  0
VERTEX
  8
_CURVE
 62
8
  6
PHANTOM
 10
31.7729424042
 20
13.9162544576
  0
VERTEX
  8
_CURVE
 62
8
  6
PHANTOM
 10
31.8449585358
 20
14.031545978
  0
VERTEX
  8
_CURVE
 62
8
  6
PHANTOM
 10
31.91526582
 20
14.1478873981
  0
VERTEX
  8
_CURVE
 62
8
  6
PHANTOM
 10
31.9838380561
 20
14.2652597628
  0
VERTEX
  8
_CURVE
 62
8
  6
PHANTOM
 10
32.0496547576
 20
14.3818515598
  0
VERTEX
  8
_CURVE
 62
8
  6
PHANTOM
 10
32.1137368712
 20
14.4994055539
  0
VERTEX
  8
_CURVE
 62
8
  6
PHANTOM
 10
32.1760583487
 20
14.6179022387
  0
VERTEX
  8
_CURVE
 62
8
  6
PHANTOM
 10
32.2358261917
 20
14.7357792783
  0
VERTEX
  8
_CURVE
 62
8
  6
PHANTOM
 10
32.2938307363
 20
14.8545338857
  0
VERTEX
  8
_CURVE
 62
8
  6
PHANTOM
 10
32.3500496872
 20
14.9741440475
  0
VERTEX
  8
_CURVE
 62
8
  6
PHANTOM
 10
32.4039086641
 20
15.0933393362
  0
VERTEX
  8
_CURVE
 62
8
  6
PHANTOM
 10
32.4559782336
 20
15.2133270865
  0
VERTEX
  8
_CURVE
 62
8
  6
PHANTOM
 10
32.5062397306
 20
15.3340833454
  0
VERTEX
  8
_CURVE
 62
8
  6
PHANTOM
 10
32.5542435213
 20
15.4544789132
  0
VERTEX
  8
_CURVE
 62
8
  6
PHANTOM
 10
32.600435288
 20
15.5755811887
  0
VERTEX
  8
_CURVE
 62
8
  6
PHANTOM
 10
32.6447967639
 20
15.6973657665
  0
VERTEX
  8
_CURVE
 62
8
  6
PHANTOM
 10
32.686907332
 20
15.8186200074
  0
VERTEX
  8
_CURVE
 62
8
  6
PHANTOM
 10
32.727188072
 20
15.9404943004
  0
VERTEX
  8
_CURVE
 62
8
  6
PHANTOM
 10
32.7656221084
 20
16.0629634726
  0
VERTEX
  8
_CURVE
 62
8
  6
PHANTOM
 10
32.8018558631
 20
16.1848371682
  0
VERTEX
  8
_CURVE
 62
8
  6
PHANTOM
 10
32.836244792
 20
16.3072441442
  0
VERTEX
  8
_CURVE
 62
8
  6
PHANTOM
 10
32.868772603
 20
16.4301586885
  0
VERTEX
  8
_CURVE
 62
8
  6
PHANTOM
 10
32.8991723817
 20
16.5525091059
  0
VERTEX
  8
_CURVE
 62
8
  6
PHANTOM
 10
32.9277146988
 20
16.6753061223
  0
VERTEX
  8
_CURVE
 62
8
  6
PHANTOM
 10
32.9543878783
 20
16.7985225973
  0
VERTEX
  8
_CURVE
 62
8
  6
PHANTOM
 10
32.9790785468
 20
16.9216001678
  0
VERTEX
  8
_CURVE
 62
8
  6
PHANTOM
 10
33.0018966622
 20
17.0450386269
  0
VERTEX
  8
_CURVE
 62
8
  6
PHANTOM
 10
33.022834384
 20
17.168809903
  0
VERTEX
  8
_CURVE
 62
8
  6
PHANTOM
 10
33.0418176633
 20
17.2924306806
  0
VERTEX
  8
_CURVE
 62
8
  6
PHANTOM
 10
33.0589195834
 20
17.4163257115
  0
VERTEX
  8
_CURVE
 62
8
  6
PHANTOM
 10
33.0741332063
 20
17.5404667326
  0
VERTEX
  8
_CURVE
 62
8
  6
PHANTOM
 10
33.0874126491
 20
17.6644309624
  0
VERTEX
  8
_CURVE
 62
8
  6
PHANTOM
 10
33.0988035464
 20
17.7885829673
  0
VERTEX
  8
_CURVE
 62
8
  6
PHANTOM
 10
33.1083005942
 20
17.9128941732
  0
VERTEX
  8
_CURVE
 62
8
  6
PHANTOM
 10
33.1158713067
 20
18.0368246039
  0
VERTEX
  8
_CURVE
 62
8
  6
PHANTOM
 10
33.1215539899
 20
18.160855916
  0
VERTEX
  8
_CURVE
 62
8
  6
PHANTOM
 10
33.1253442
 20
18.2849594349
  0
VERTEX
  8
_CURVE
 62
8
  6
PHANTOM
 10
33.1272372446
 20
18.4089766023
  0
VERTEX
  8
_CURVE
 62
8
  6
PHANTOM
 10
33.1272373406
 20
18.5330082506
  0
VERTEX
  8
_CURVE
 62
8
  6
PHANTOM
 10
33.1253444912
 20
18.6570254194
  0
VERTEX
  8
_CURVE
 62
8
  6
PHANTOM
 10
33.1215551498
 20
18.781111522
  0
VERTEX
  8
_CURVE
 62
8
  6
PHANTOM
 10
33.1158738697
 20
18.905125445
  0
VERTEX
  8
_CURVE
 62
8
  6
PHANTOM
 10
33.1083050861
 20
19.0290385271
  0
VERTEX
  8
_CURVE
 62
8
  6
PHANTOM
 10
33.0988087508
 20
19.1533531628
  0
VERTEX
  8
_CURVE
 62
8
  6
PHANTOM
 10
33.0874184661
 20
19.2775086046
  0
VERTEX
  8
_CURVE
 62
8
  6
PHANTOM
 10
33.0741395504
 20
19.4014762749
  0
VERTEX
  8
_CURVE
 62
8
  6
PHANTOM
 10
33.0589314347
 20
19.5255819466
  0
VERTEX
  8
_CURVE
 62
8
  6
PHANTOM
 10
33.0418361146
 20
19.6494417899
  0
VERTEX
  8
_CURVE
 62
8
  6
PHANTOM
 10
33.0228605062
 20
19.7730275674
  0
VERTEX
  8
_CURVE
 62
8
  6
PHANTOM
 10
33.0019264076
 20
19.89679293
  0
VERTEX
  8
_CURVE
 62
8
  6
PHANTOM
 10
32.9791120799
 20
20.020225548
  0
VERTEX
  8
_CURVE
 62
8
  6
PHANTOM
 10
32.9544253563
 20
20.1432973505
  0
VERTEX
  8
_CURVE
 62
8
  6
PHANTOM
 10
32.9277546399
 20
20.2665154752
  0
VERTEX
  8
_CURVE
 62
8
  6
PHANTOM
 10
32.8992147268
 20
20.3893141707
  0
VERTEX
  8
_CURVE
 62
8
  6
PHANTOM
 10
32.8688173077
 20
20.5116662988
  0
VERTEX
  8
_CURVE
 62
8
  6
PHANTOM
 10
32.8362918174
 20
20.6345826981
  0
VERTEX
  8
_CURVE
 62
8
  6
PHANTOM
 10
32.8019051757
 20
20.7569915627
  0
VERTEX
  8
_CURVE
 62
8
  6
PHANTOM
 10
32.7656736745
 20
20.8788671802
  0
VERTEX
  8
_CURVE
 62
8
  6
PHANTOM
 10
32.7272419731
 20
21.0013380204
  0
VERTEX
  8
_CURVE
 62
8
  6
PHANTOM
 10
32.6869635191
 20
21.1232140083
  0
VERTEX
  8
_CURVE
 62
8
  6
PHANTOM
 10
32.6448551647
 20
21.2444699609
  0
VERTEX
  8
_CURVE
 62
8
  6
PHANTOM
 10
32.60049678
 20
21.3662537422
  0
VERTEX
  8
_CURVE
 62
8
  6
PHANTOM
 10
32.554308109
 20
21.487355266
  0
VERTEX
  8
_CURVE
 62
8
  6
PHANTOM
 10
32.5063074435
 20
21.6077501371
  0
VERTEX
  8
_CURVE
 62
8
  6
PHANTOM
 10
32.4560484585
 20
21.7285073803
  0
VERTEX
  8
_CURVE
 62
8
  6
PHANTOM
 10
32.4039813917
 20
21.848496154
  0
VERTEX
  8
_CURVE
 62
8
  6
PHANTOM
 10
32.3501248925
 20
21.9676924976
  0
VERTEX
  8
_CURVE
 62
8
  6
PHANTOM
 10
32.2939074211
 20
22.0873058086
  0
VERTEX
  8
_CURVE
 62
8
  6
PHANTOM
 10
32.2359042559
 20
22.2060635631
  0
VERTEX
  8
_CURVE
 62
8
  6
PHANTOM
 10
32.1761376961
 20
22.32394375
  0
VERTEX
  8
_CURVE
 62
8
  6
PHANTOM
 10
32.1137878517
 20
22.4424988484
  0
VERTEX
  8
_CURVE
 62
8
  6
PHANTOM
 10
32.0496756433
 20
22.5601103607
  0
VERTEX
  8
_CURVE
 62
8
  6
PHANTOM
 10
31.9838271579
 20
22.6767587468
  0
VERTEX
  8
_CURVE
 62
8
  6
PHANTOM
 10
31.9152540352
 20
22.7941319318
  0
VERTEX
  8
_CURVE
 62
8
  6
PHANTOM
 10
31.8449458435
 20
22.9104741483
  0
VERTEX
  8
_CURVE
 62
8
  6
PHANTOM
 10
31.7729287854
 20
23.0257664455
  0
VERTEX
  8
_CURVE
 62
8
  6
PHANTOM
 10
31.6981884147
 20
23.1415770107
  0
VERTEX
  8
_CURVE
 62
8
  6
PHANTOM
 10
31.6217450324
 20
23.2562706979
  0
VERTEX
  8
_CURVE
 62
8
  6
PHANTOM
 10
31.5436255963
 20
23.3698295486
  0
VERTEX
  8
_CURVE
 62
8
  6
PHANTOM
 10
31.4627765615
 20
23.4837345727
  0
VERTEX
  8
_CURVE
 62
8
  6
PHANTOM
 10
31.3802607773
 20
23.5964380733
  0
VERTEX
  8
_CURVE
 62
8
  6
PHANTOM
 10
31.2961050955
 20
23.707922433
  0
VERTEX
  8
_CURVE
 62
8
  6
PHANTOM
 10
31.2090967827
 20
23.819740705
  0
VERTEX
  8
_CURVE
 62
8
  6
PHANTOM
 10
31.1204595339
 20
23.930272356
  0
VERTEX
  8
_CURVE
 62
8
  6
PHANTOM
 10
31.030223996
 20
24.0395032043
  0
VERTEX
  8
_CURVE
 62
8
  6
PHANTOM
 10
30.936817532
 20
24.1492766191
  0
VERTEX
  8
_CURVE
 62
8
  6
PHANTOM
 10
30.841821171
 20
24.2576772245
  0
VERTEX
  8
_CURVE
 62
8
  6
PHANTOM
 10
30.7452674205
 20
24.3646931315
  0
VERTEX
  8
_CURVE
 62
8
  6
PHANTOM
 10
30.645510655
 20
24.4720933064
  0
VERTEX
  8
_CURVE
 62
8
  6
PHANTOM
 10
30.544208917
 20
24.5780375767
  0
VERTEX
  8
_CURVE
 62
8
  6
PHANTOM
 10
30.441394323
 20
24.6825144405
  0
VERTEX
  8
_CURVE
 62
8
  6
PHANTOM
 10
30.3354234999
 20
24.7871432641
  0
VERTEX
  8
_CURVE
 62
8
  6
PHANTOM
 10
30.227956423
 20
24.8902347707
  0
VERTEX
  8
_CURVE
 62
8
  6
PHANTOM
 10
30.1190251872
 20
24.9917781026
  0
VERTEX
  8
_CURVE
 62
8
  6
PHANTOM
 10
30.0070318324
 20
25.0932179144
  0
VERTEX
  8
_CURVE
 62
8
  6
PHANTOM
 10
29.8935960723
 20
25.1930422169
  0
VERTEX
  8
_CURVE
 62
8
  6
PHANTOM
 10
29.7787498975
 20
25.2912406187
  0
VERTEX
  8
_CURVE
 62
8
  6
PHANTOM
 10
29.6605944542
 20
25.3893848577
  0
VERTEX
  8
_CURVE
 62
8
  6
PHANTOM
 10
29.5410502515
 20
25.4858329393
  0
VERTEX
  8
_CURVE
 62
8
  6
PHANTOM
 10
29.4201528676
 20
25.5805795009
  0
VERTEX
  8
_CURVE
 62
8
  6
PHANTOM
 10
29.295757468
 20
25.6752545146
  0
VERTEX
  8
_CURVE
 62
8
  6
PHANTOM
 10
29.1700322613
 20
25.7681564275
  0
VERTEX
  8
_CURVE
 62
8
  6
PHANTOM
 10
29.0430122119
 20
25.8592801248
  0
VERTEX
  8
_CURVE
 62
8
  6
PHANTOM
 10
28.9126177398
 20
25.9500709247
  0
VERTEX
  8
_CURVE
 62
8
  6
PHANTOM
 10
28.7809562538
 20
26.0390145535
  0
VERTEX
  8
_CURVE
 62
8
  6
PHANTOM
 10
28.6480622828
 20
26.1261061458
  0
VERTEX
  8
_CURVE
 62
8
  6
PHANTOM
 10
28.5120657178
 20
26.2125324203
  0
VERTEX
  8
_CURVE
 62
8
  6
PHANTOM
 10
28.374870511
 20
26.2970430958
  0
VERTEX
  8
_CURVE
 62
8
  6
PHANTOM
 10
28.2365100894
 20
26.3796323525
  0
VERTEX
  8
_CURVE
 62
8
  6
PHANTOM
 10
28.0950636637
 20
26.4614069034
  0
VERTEX
  8
_CURVE
 62
8
  6
PHANTOM
 10
27.9524888106
 20
26.5411979907
  0
VERTEX
  8
_CURVE
 62
8
  6
PHANTOM
 10
27.808820696
 20
26.6190035488
  0
VERTEX
  8
_CURVE
 62
8
  6
PHANTOM
 10
27.6617995909
 20
26.6960037629
  0
VERTEX
  8
_CURVE
 62
8
  6
PHANTOM
 10
27.5137225222
 20
26.7709534272
  0
VERTEX
  8
_CURVE
 62
8
  6
PHANTOM
 10
27.3646253179
 20
26.8438528837
  0
VERTEX
  8
_CURVE
 62
8
  6
PHANTOM
 10
27.2123425799
 20
26.9157226459
  0
VERTEX
  8
_CURVE
 62
8
  6
PHANTOM
 10
27.0590812519
 20
26.9854813553
  0
VERTEX
  8
_CURVE
 62
8
  6
PHANTOM
 10
26.9048760356
 20
27.0531281866
  0
VERTEX
  8
_CURVE
 62
8
  6
PHANTOM
 10
26.7478865017
 20
27.1194390122
  0
VERTEX
  8
_CURVE
 62
8
  6
PHANTOM
 10
26.5899995312
 20
27.1835838438
  0
VERTEX
  8
_CURVE
 62
8
  6
PHANTOM
 10
26.4312489207
 20
27.2455606208
  0
SEQEND
  0
POLYLINE
  8
_CURVE
 62
4
  6
CONTINUOUS
 66
1
 70
0
  0
VERTEX
  8
_CURVE
 62
4
  6
CONTINUOUS
 10
17.9578416787
 20
10.1999626726
  0
VERTEX
  8
_CURVE
 62
4
  6
CONTINUOUS
 10
18.1132057758
 20
10.1517331092
  0
VERTEX
  8
_CURVE
 62
4
  6
CONTINUOUS
 10
18.2692414614
 20
10.1055957656
  0
VERTEX
  8
_CURVE
 62
4
  6
CONTINUOUS
 10
18.427458001
 20
10.0611269902
  0
VERTEX
  8
_CURVE
 62
4
  6
CONTINUOUS
 10
18.5862908245
 20
10.018790221
  0
VERTEX
  8
_CURVE
 62
4
  6
CONTINUOUS
 10
18.745704341
 20
9.9785856716
  0
VERTEX
  8
_CURVE
 62
4
  6
CONTINUOUS
 10
18.906807476
 20
9.9402497237
  0
VERTEX
  8
_CURVE
 62
4
  6
CONTINUOUS
 10
19.0684305842
 20
9.9040789554
  0
VERTEX
  8
_CURVE
 62
4
  6
CONTINUOUS
 10
19.2305407253
 20
9.8700755543
  0
VERTEX
  8
_CURVE
 62
4
  6
CONTINUOUS
 10
19.3940614175
 20
9.8380609059
  0
VERTEX
  8
_CURVE
 62
4
  6
CONTINUOUS
 10
19.558012572
 20
9.8082417048
  0
VERTEX
  8
_CURVE
 62
4
  6
CONTINUOUS
 10
19.7223652107
 20
9.7806182937
  0
VERTEX
  8
_CURVE
 62
4
  6
CONTINUOUS
 10
19.8880294524
 20
9.7550520628
  0
VERTEX
  8
_CURVE
 62
4
  6
CONTINUOUS
 10
20.0540405966
 20
9.7317048311
  0
VERTEX
  8
_CURVE
 62
4
  6
CONTINUOUS
 10
20.2203687841
 20
9.7105743788
  0
VERTEX
  8
_CURVE
 62
4
  6
CONTINUOUS
 10
20.3286446734
 20
9.6980265476
  0
VERTEX
  8
_CURVE
 62
4
  6
CONTINUOUS
 10
20.437032411
 20
9.6864141003
  0
SEQEND
  0
POLYLINE
  8
_CURVE
 62
4
  6
CONTINUOUS
 66
1
 70
0
  0
VERTEX
  8
_CURVE
 62
4
  6
CONTINUOUS
 10
21.7332130143
 20
27.3220012905
  0
VERTEX
  8
_CURVE
 62
4
  6
CONTINUOUS
 10
21.564853436
 20
27.320882892
  0
VERTEX
  8
_CURVE
 62
4
  6
CONTINUOUS
 10
21.3965087951
 20
27.3175275047
  0
VERTEX
  8
_CURVE
 62
4
  6
CONTINUOUS
 10
21.2282169838
 20
27.3119376757
  0
VERTEX
  8
_CURVE
 62
4
  6
CONTINUOUS
 10
21.0604812907
 20
27.3041405002
  0
VERTEX
  8
_CURVE
 62
4
  6
CONTINUOUS
 10
20.8928667917
 20
27.2941248981
  0
VERTEX
  8
_CURVE
 62
4
  6
CONTINUOUS
 10
20.7254044616
 20
27.2818919703
  0
VERTEX
  8
_CURVE
 62
4
  6
CONTINUOUS
 10
20.5589655727
 20
27.2675206146
  0
VERTEX
  8
_CURVE
 62
4
  6
CONTINUOUS
 10
20.3927420394
 20
27.2509544346
  0
VERTEX
  8
_CURVE
 62
4
  6
CONTINUOUS
 10
20.2267679085
 20
27.2321926234
  0
VERTEX
  8
_CURVE
 62
4
  6
CONTINUOUS
 10
20.0620528101
 20
27.2113641037
  0
VERTEX
  8
_CURVE
 62
4
  6
CONTINUOUS
 10
19.8976470659
 20
27.1883622978
  0
VERTEX
  8
_CURVE
 62
4
  6
CONTINUOUS
 10
19.7335799141
 20
27.1631845267
  0
VERTEX
  8
_CURVE
 62
4
  6
CONTINUOUS
 10
19.5709717632
 20
27.1360184835
  0
VERTEX
  8
_CURVE
 62
4
  6
CONTINUOUS
 10
19.4087542964
 20
27.106703484
  0
VERTEX
  8
_CURVE
 62
4
  6
CONTINUOUS
 10
19.2469552609
 20
27.0752402307
  0
VERTEX
  8
_CURVE
 62
4
  6
CONTINUOUS
 10
19.0868917916
 20
27.0419069301
  0
VERTEX
  8
_CURVE
 62
4
  6
CONTINUOUS
 10
18.92729914
 20
27.006462041
  0
VERTEX
  8
_CURVE
 62
4
  6
CONTINUOUS
 10
18.7682090539
 20
26.9689073125
  0
VERTEX
  8
_CURVE
 62
4
  6
CONTINUOUS
 10
18.6111710544
 20
26.9296345277
  0
VERTEX
  8
_CURVE
 62
4
  6
CONTINUOUS
 10
18.4546909035
 20
26.8882945008
  0
VERTEX
  8
_CURVE
 62
4
  6
CONTINUOUS
 10
18.2988023313
 20
26.8448878571
  0
VERTEX
  8
_CURVE
 62
4
  6
CONTINUOUS
 10
18.1451838036
 20
26.7999084328
  0
VERTEX
  8
_CURVE
 62
4
  6
CONTINUOUS
 10
17.9922085409
 20
26.7529048115
  0
VERTEX
  8
_CURVE
 62
4
  6
CONTINUOUS
 10
17.8399077064
 20
26.7038751526
  0
VERTEX
  8
_CURVE
 62
4
  6
CONTINUOUS
 10
17.6900189706
 20
26.6534055013
  0
VERTEX
  8
_CURVE
 62
4
  6
CONTINUOUS
 10
17.5408477032
 20
26.6009535692
  0
VERTEX
  8
_CURVE
 62
4
  6
CONTINUOUS
 10
17.3924216183
 20
26.5465194372
  0
VERTEX
  8
_CURVE
 62
4
  6
CONTINUOUS
 10
17.2465848452
 20
26.4908113736
  0
VERTEX
  8
_CURVE
 62
4
  6
CONTINUOUS
 10
17.1015324449
 20
26.4331727698
  0
VERTEX
  8
_CURVE
 62
4
  6
CONTINUOUS
 10
16.9572948361
 20
26.3736066257
  0
VERTEX
  8
_CURVE
 62
4
  6
CONTINUOUS
 10
16.8158422634
 20
26.3129629177
  0
VERTEX
  8
_CURVE
 62
4
  6
CONTINUOUS
 10
16.6752449093
 20
26.2504496215
  0
VERTEX
  8
_CURVE
 62
4
  6
CONTINUOUS
 10
16.5355355559
 20
26.1860698332
  0
VERTEX
  8
_CURVE
 62
4
  6
CONTINUOUS
 10
16.3987208931
 20
26.120784761
  0
VERTEX
  8
_CURVE
 62
4
  6
CONTINUOUS
 10
16.2628336972
 20
26.0536910378
  0
VERTEX
  8
_CURVE
 62
4
  6
CONTINUOUS
 10
16.1279067412
 20
25.984790612
  0
VERTEX
  8
_CURVE
 62
4
  6
CONTINUOUS
 10
15.9958934073
 20
25.9151159916
  0
VERTEX
  8
_CURVE
 62
4
  6
CONTINUOUS
 10
15.864873528
 20
25.8436890469
  0
VERTEX
  8
_CURVE
 62
4
  6
CONTINUOUS
 10
15.7348759318
 20
25.770510616
  0
VERTEX
  8
_CURVE
 62
4
  6
CONTINUOUS
 10
15.6078163577
 20
25.6966957836
  0
VERTEX
  8
_CURVE
 62
4
  6
CONTINUOUS
 10
15.4818050124
 20
25.6211859998
  0
VERTEX
  8
_CURVE
 62
4
  6
CONTINUOUS
 10
15.3568696744
 20
25.5439858943
  0
VERTEX
  8
_CURVE
 62
4
  6
CONTINUOUS
 10
15.2349554805
 20
25.4663398106
  0
VERTEX
  8
_CURVE
 62
4
  6
CONTINUOUS
 10
15.114142195
 20
25.3870670206
  0
VERTEX
  8
_CURVE
 62
4
  6
CONTINUOUS
 10
14.9944609937
 20
25.3061745038
  0
VERTEX
  8
_CURVE
 62
4
  6
CONTINUOUS
 10
14.8778636069
 20
25.2250254837
  0
VERTEX
  8
_CURVE
 62
4
  6
CONTINUOUS
 10
14.7624236607
 20
25.1423226214
  0
VERTEX
  8
_CURVE
 62
4
  6
CONTINUOUS
 10
14.648172907
 20
25.0580727328
  0
VERTEX
  8
_CURVE
 62
4
  6
CONTINUOUS
 10
14.5369741748
 20
24.9736921534
  0
VERTEX
  8
_CURVE
 62
4
  6
CONTINUOUS
 10
14.4269869852
 20
24.8878267004
  0
VERTEX
  8
_CURVE
 62
4
  6
CONTINUOUS
 10
14.3182413865
 20
24.8004819445
  0
VERTEX
  8
_CURVE
 62
4
  6
CONTINUOUS
 10
14.2124697243
 20
24.7130906385
  0
VERTEX
  8
_CURVE
 62
4
  6
CONTINUOUS
 10
14.107955354
 20
24.6242780637
  0
VERTEX
  8
_CURVE
 62
4
  6
CONTINUOUS
 10
14.0047241391
 20
24.5340500823
  0
VERTEX
  8
_CURVE
 62
4
  6
CONTINUOUS
 10
13.9043993771
 20
24.4438695089
  0
VERTEX
  8
_CURVE
 62
4
  6
CONTINUOUS
 10
13.8053694822
 20
24.3523343149
  0
VERTEX
  8
_CURVE
 62
4
  6
CONTINUOUS
 10
13.7076612648
 20
24.2594553163
  0
VERTEX
  8
_CURVE
 62
4
  6
CONTINUOUS
 10
13.6128163213
 20
24.1667448436
  0
VERTEX
  8
_CURVE
 62
4
  6
CONTINUOUS
 10
13.5193061145
 20
24.072755099
  0
VERTEX
  8
_CURVE
 62
4
  6
CONTINUOUS
 10
13.4271592357
 20
23.9774979427
  0
VERTEX
  8
_CURVE
 62
4
  6
CONTINUOUS
 10
13.3378201836
 20
23.882512291
  0
VERTEX
  8
_CURVE
 62
4
  6
CONTINUOUS
 10
13.2498574578
 20
23.7863225125
  0
VERTEX
  8
_CURVE
 62
4
  6
CONTINUOUS
 10
13.1632988847
 20
23.6889408658
  0
VERTEX
  8
_CURVE
 62
4
  6
CONTINUOUS
 10
13.0794515338
 20
23.5918819926
  0
VERTEX
  8
_CURVE
 62
4
  6
CONTINUOUS
 10
12.9970190233
 20
23.4936898078
  0
VERTEX
  8
_CURVE
 62
4
  6
CONTINUOUS
 10
12.9160272916
 20
23.3943751245
  0
VERTEX
  8
_CURVE
 62
4
  6
CONTINUOUS
 10
12.8376373106
 20
23.295404142
  0
VERTEX
  8
_CURVE
 62
4
  6
CONTINUOUS
 10
12.7606937781
 20
23.1953649768
  0
VERTEX
  8
_CURVE
 62
4
  6
CONTINUOUS
 10
12.6852183969
 20
23.09426932
  0
VERTEX
  8
_CURVE
 62
4
  6
CONTINUOUS
 10
12.6122621716
 20
22.9935719137
  0
VERTEX
  8
_CURVE
 62
4
  6
CONTINUOUS
 10
12.5407767617
 20
22.8918753697
  0
VERTEX
  8
_CURVE
 62
4
  6
CONTINUOUS
 10
12.4707846965
 20
22.7891962
  0
VERTEX
  8
_CURVE
 62
4
  6
CONTINUOUS
 10
12.4032505796
 20
22.6869992543
  0
VERTEX
  8
_CURVE
 62
4
  6
CONTINUOUS
 10
12.3372133763
 20
22.5838805789
  0
VERTEX
  8
_CURVE
 62
4
  6
CONTINUOUS
 10
12.2726959979
 20
22.4798578718
  0
VERTEX
  8
_CURVE
 62
4
  6
CONTINUOUS
 10
12.2105508166
 20
22.3763535654
  0
VERTEX
  8
_CURVE
 62
4
  6
CONTINUOUS
 10
12.149929604
 20
22.2720042513
  0
VERTEX
  8
_CURVE
 62
4
  6
CONTINUOUS
 10
12.0908544601
 20
22.1668277767
  0
VERTEX
  8
_CURVE
 62
4
  6
CONTINUOUS
 10
12.0340419446
 20
22.0621446872
  0
VERTEX
  8
_CURVE
 62
4
  6
CONTINUOUS
 10
11.9787789558
 20
21.9566879447
  0
VERTEX
  8
_CURVE
 62
4
  6
CONTINUOUS
 10
11.9250850298
 20
21.8504735065
  0
VERTEX
  8
_CURVE
 62
4
  6
CONTINUOUS
 10
11.8735507957
 20
21.7447130516
  0
VERTEX
  8
_CURVE
 62
4
  6
CONTINUOUS
 10
11.8235854879
 20
21.6382436667
  0
VERTEX
  8
_CURVE
 62
4
  6
CONTINUOUS
 10
11.775204632
 20
21.5310817257
  0
VERTEX
  8
_CURVE
 62
4
  6
CONTINUOUS
 10
11.7288943571
 20
21.42435147
  0
VERTEX
  8
_CURVE
 62
4
  6
CONTINUOUS
 10
11.6841667489
 20
21.3169804261
  0
VERTEX
  8
_CURVE
 62
4
  6
CONTINUOUS
 10
11.641037075
 20
21.2089902196
  0
VERTEX
  8
_CURVE
 62
4
  6
CONTINUOUS
 10
11.5999009025
 20
21.1014195422
  0
VERTEX
  8
_CURVE
 62
4
  6
CONTINUOUS
 10
11.5603630326
 20
20.9932843496
  0
VERTEX
  8
_CURVE
 62
4
  6
CONTINUOUS
 10
11.52243856
 20
20.8846065537
  0
VERTEX
  8
_CURVE
 62
4
  6
CONTINUOUS
 10
11.4864351998
 20
20.7763114021
  0
VERTEX
  8
_CURVE
 62
4
  6
CONTINUOUS
 10
11.4520473085
 20
20.6675269135
  0
VERTEX
  8
_CURVE
 62
4
  6
CONTINUOUS
 10
11.4192886264
 20
20.5582758854
  0
VERTEX
  8
_CURVE
 62
4
  6
CONTINUOUS
 10
11.3883819813
 20
20.4493400515
  0
VERTEX
  8
_CURVE
 62
4
  6
CONTINUOUS
 10
11.3591078134
 20
20.3399865513
  0
VERTEX
  8
_CURVE
 62
4
  6
CONTINUOUS
 10
11.3314782737
 20
20.2302353506
  0
VERTEX
  8
_CURVE
 62
4
  6
CONTINUOUS
 10
11.3056412215
 20
20.1207050354
  0
VERTEX
  8
_CURVE
 62
4
  6
CONTINUOUS
 10
11.28145047
 20
20.0108205933
  0
VERTEX
  8
_CURVE
 62
4
  6
CONTINUOUS
 10
11.2589134739
 20
19.9006015434
  0
VERTEX
  8
_CURVE
 62
4
  6
CONTINUOUS
 10
11.2381203826
 20
19.7905256674
  0
VERTEX
  8
_CURVE
 62
4
  6
CONTINUOUS
 10
11.2189812555
 20
19.6801615771
  0
VERTEX
  8
_CURVE
 62
4
  6
CONTINUOUS
 10
11.2015025488
 20
19.5695335476
  0
VERTEX
  8
_CURVE
 62
4
  6
CONTINUOUS
 10
11.1857372004
 20
19.4590117385
  0
VERTEX
  8
_CURVE
 62
4
  6
CONTINUOUS
 10
11.1716336816
 20
19.3482768345
  0
VERTEX
  8
_CURVE
 62
4
  6
CONTINUOUS
 10
11.1591973146
 20
19.237353914
  0
VERTEX
  8
_CURVE
 62
4
  6
CONTINUOUS
 10
11.1484539333
 20
19.1264992514
  0
VERTEX
  8
_CURVE
 62
4
  6
CONTINUOUS
 10
11.1393805724
 20
19.0155075292
  0
VERTEX
  8
_CURVE
 62
4
  6
CONTINUOUS
 10
11.1319817273
 20
18.9044039493
  0
VERTEX
  8
_CURVE
 62
4
  6
CONTINUOUS
 10
11.1262653521
 20
18.7932988431
  0
VERTEX
  8
_CURVE
 62
4
  6
CONTINUOUS
 10
11.1222281516
 20
18.6821303507
  0
VERTEX
  8
_CURVE
 62
4
  6
CONTINUOUS
 10
11.1198728688
 20
18.5709216086
  0
VERTEX
  8
_CURVE
 62
4
  6
CONTINUOUS
 10
11.1192018709
 20
18.4595941816
  0
VERTEX
  8
_CURVE
 62
4
  6
CONTINUOUS
 10
11.1202181453
 20
18.3482695851
  0
VERTEX
  8
_CURVE
 62
4
  6
CONTINUOUS
 10
11.1229212415
 20
18.2369677939
  0
VERTEX
  8
_CURVE
 62
4
  6
CONTINUOUS
 10
11.1273235167
 20
18.1254234452
  0
VERTEX
  8
_CURVE
 62
4
  6
CONTINUOUS
 10
11.1334164458
 20
18.013947059
  0
VERTEX
  8
_CURVE
 62
4
  6
CONTINUOUS
 10
11.1411956239
 20
17.9025635973
  0
VERTEX
  8
_CURVE
 62
4
  6
CONTINUOUS
 10
11.1506925288
 20
17.7909113549
  0
VERTEX
  8
_CURVE
 62
4
  6
CONTINUOUS
 10
11.1618788293
 20
17.6794035429
  0
VERTEX
  8
_CURVE
 62
4
  6
CONTINUOUS
 10
11.1747503575
 20
17.5680658836
  0
VERTEX
  8
_CURVE
 62
4
  6
CONTINUOUS
 10
11.1893610868
 20
17.4565017529
  0
VERTEX
  8
_CURVE
 62
4
  6
CONTINUOUS
 10
11.2056590689
 20
17.3451602765
  0
VERTEX
  8
_CURVE
 62
4
  6
CONTINUOUS
 10
11.2236376876
 20
17.2340667416
  0
VERTEX
  8
_CURVE
 62
4
  6
CONTINUOUS
 10
11.2433897656
 20
17.1227094237
  0
VERTEX
  8
_CURVE
 62
4
  6
CONTINUOUS
 10
11.2648259143
 20
17.0116513504
  0
VERTEX
  8
_CURVE
 62
4
  6
CONTINUOUS
 10
11.2879399109
 20
16.9009158823
  0
VERTEX
  8
_CURVE
 62
4
  6
CONTINUOUS
 10
11.3129075658
 20
16.7897400598
  0
VERTEX
  8
_CURVE
 62
4
  6
CONTINUOUS
 10
11.3395607341
 20
16.678934122
  0
VERTEX
  8
_CURVE
 62
4
  6
CONTINUOUS
 10
11.3678893901
 20
16.5685170389
  0
VERTEX
  8
_CURVE
 62
4
  6
CONTINUOUS
 10
11.3981692596
 20
16.4574888037
  0
VERTEX
  8
_CURVE
 62
4
  6
CONTINUOUS
 10
11.4301321769
 20
16.3468987341
  0
VERTEX
  8
_CURVE
 62
4
  6
CONTINUOUS
 10
11.4637646553
 20
16.2367695622
  0
VERTEX
  8
_CURVE
 62
4
  6
CONTINUOUS
 10
11.49941473
 20
16.1260284005
  0
VERTEX
  8
_CURVE
 62
4
  6
CONTINUOUS
 10
11.5367388593
 20
16.0158041523
  0
VERTEX
  8
_CURVE
 62
4
  6
CONTINUOUS
 10
11.575721684
 20
15.9061203655
  0
VERTEX
  8
_CURVE
 62
4
  6
CONTINUOUS
 10
11.6167569603
 20
15.7959263268
  0
VERTEX
  8
_CURVE
 62
4
  6
CONTINUOUS
 10
11.6594524311
 20
15.6863306442
  0
VERTEX
  8
_CURVE
 62
4
  6
CONTINUOUS
 10
11.7037923563
 20
15.5773564766
  0
VERTEX
  8
_CURVE
 62
4
  6
CONTINUOUS
 10
11.7502402588
 20
15.4679200546
  0
VERTEX
  8
_CURVE
 62
4
  6
CONTINUOUS
 10
11.7983340373
 20
15.3591619253
  0
VERTEX
  8
_CURVE
 62
4
  6
CONTINUOUS
 10
11.8480573127
 20
15.2511024316
  0
VERTEX
  8
_CURVE
 62
4
  6
CONTINUOUS
 10
11.9000119624
 20
15.1424926468
  0
VERTEX
  8
_CURVE
 62
4
  6
CONTINUOUS
 10
11.9536006328
 20
15.0346351409
  0
VERTEX
  8
_CURVE
 62
4
  6
CONTINUOUS
 10
12.0088057436
 20
14.9275460624
  0
VERTEX
  8
_CURVE
 62
4
  6
CONTINUOUS
 10
12.0664159113
 20
14.8197582232
  0
VERTEX
  8
_CURVE
 62
4
  6
CONTINUOUS
 10
12.1256468212
 20
14.7127950527
  0
VERTEX
  8
_CURVE
 62
4
  6
CONTINUOUS
 10
12.1864752464
 20
14.6066745082
  0
VERTEX
  8
_CURVE
 62
4
  6
CONTINUOUS
 10
12.2498238308
 20
14.4998459887
  0
VERTEX
  8
_CURVE
 62
4
  6
CONTINUOUS
 10
12.3147706245
 20
14.3939235002
  0
VERTEX
  8
_CURVE
 62
4
  6
CONTINUOUS
 10
12.3812920745
 20
14.2889265387
  0
VERTEX
  8
_CURVE
 62
4
  6
CONTINUOUS
 10
12.4503471804
 20
14.1833961634
  0
VERTEX
  8
_CURVE
 62
4
  6
CONTINUOUS
 10
12.5209729965
 20
14.0788560582
  0
VERTEX
  8
_CURVE
 62
4
  6
CONTINUOUS
 10
12.5931445403
 20
13.9753243035
  0
VERTEX
  8
_CURVE
 62
4
  6
CONTINUOUS
 10
12.6678715476
 20
13.8714019359
  0
VERTEX
  8
_CURVE
 62
4
  6
CONTINUOUS
 10
12.7441393255
 20
13.7685498346
  0
VERTEX
  8
_CURVE
 62
4
  6
CONTINUOUS
 10
12.8219253616
 20
13.6667831241
  0
VERTEX
  8
_CURVE
 62
4
  6
CONTINUOUS
 10
12.9024424017
 20
13.5645705453
  0
VERTEX
  8
_CURVE
 62
4
  6
CONTINUOUS
 10
12.9844757103
 20
13.4635033534
  0
VERTEX
  8
_CURVE
 62
4
  6
CONTINUOUS
 10
13.0679992671
 20
13.3635921753
  0
VERTEX
  8
_CURVE
 62
4
  6
CONTINUOUS
 10
13.1544759833
 20
13.2631429198
  0
VERTEX
  8
_CURVE
 62
4
  6
CONTINUOUS
 10
13.2424390357
 20
13.1639144573
  0
VERTEX
  8
_CURVE
 62
4
  6
CONTINUOUS
 10
13.3318592166
 20
13.0659200529
  0
VERTEX
  8
_CURVE
 62
4
  6
CONTINUOUS
 10
13.4242976408
 20
12.9675034678
  0
VERTEX
  8
_CURVE
 62
4
  6
CONTINUOUS
 10
13.5181831402
 20
12.8703904047
  0
VERTEX
  8
_CURVE
 62
4
  6
CONTINUOUS
 10
13.6134848369
 20
12.7745933573
  0
VERTEX
  8
_CURVE
 62
4
  6
CONTINUOUS
 10
13.711730353
 20
12.6786242063
  0
VERTEX
  8
_CURVE
 62
4
  6
CONTINUOUS
 10
13.8113763277
 20
12.584039294
  0
VERTEX
  8
_CURVE
 62
4
  6
CONTINUOUS
 10
13.912393217
 20
12.490851499
  0
VERTEX
  8
_CURVE
 62
4
  6
CONTINUOUS
 10
14.016356547
 20
12.3976546265
  0
VERTEX
  8
_CURVE
 62
4
  6
CONTINUOUS
 10
14.121675856
 20
12.305919386
  0
VERTEX
  8
_CURVE
 62
4
  6
CONTINUOUS
 10
14.2283236482
 20
12.2156531554
  0
VERTEX
  8
_CURVE
 62
4
  6
CONTINUOUS
 10
14.3381072929
 20
12.1253753079
  0
VERTEX
  8
_CURVE
 62
4
  6
CONTINUOUS
 10
14.4492054533
 20
12.0366299734
  0
VERTEX
  8
_CURVE
 62
4
  6
CONTINUOUS
 10
14.561587317
 20
11.9494229576
  0
VERTEX
  8
_CURVE
 62
4
  6
CONTINUOUS
 10
14.6772621901
 20
11.8622445455
  0
VERTEX
  8
_CURVE
 62
4
  6
CONTINUOUS
 10
14.7942009035
 20
11.7766727037
  0
VERTEX
  8
_CURVE
 62
4
  6
CONTINUOUS
 10
14.9123692609
 20
11.692714238
  0
VERTEX
  8
_CURVE
 62
4
  6
CONTINUOUS
 10
15.0337237057
 20
11.6090236844
  0
VERTEX
  8
_CURVE
 62
4
  6
CONTINUOUS
 10
15.1562795352
 20
11.527015603
  0
VERTEX
  8
_CURVE
 62
4
  6
CONTINUOUS
 10
15.2800026888
 20
11.4466980756
  0
VERTEX
  8
_CURVE
 62
4
  6
CONTINUOUS
 10
15.4067106225
 20
11.3669314016
  0
VERTEX
  8
_CURVE
 62
4
  6
CONTINUOUS
 10
15.5345556644
 20
11.2889191606
  0
VERTEX
  8
_CURVE
 62
4
  6
CONTINUOUS
 10
15.66350797
 20
11.2126666534
  0
VERTEX
  8
_CURVE
 62
4
  6
CONTINUOUS
 10
15.7954442356
 20
11.1371039766
  0
VERTEX
  8
_CURVE
 62
4
  6
CONTINUOUS
 10
15.9284589237
 20
11.0633597321
  0
VERTEX
  8
_CURVE
 62
4
  6
CONTINUOUS
 10
16.0625213439
 20
10.9914353966
  0
VERTEX
  8
_CURVE
 62
4
  6
CONTINUOUS
 10
16.1997014353
 20
10.9202605476
  0
VERTEX
  8
_CURVE
 62
4
  6
CONTINUOUS
 10
16.3378961527
 20
10.85096579
  0
VERTEX
  8
_CURVE
 62
4
  6
CONTINUOUS
 10
16.4770713171
 20
10.7835529452
  0
VERTEX
  8
_CURVE
 62
4
  6
CONTINUOUS
 10
16.6192395353
 20
10.7170839509
  0
VERTEX
  8
_CURVE
 62
4
  6
CONTINUOUS
 10
16.7623463271
 20
10.6525569577
  0
VERTEX
  8
_CURVE
 62
4
  6
CONTINUOUS
 10
16.9063562458
 20
10.5899749855
  0
VERTEX
  8
_CURVE
 62
4
  6
CONTINUOUS
 10
17.0529734075
 20
10.5286273322
  0
VERTEX
  8
_CURVE
 62
4
  6
CONTINUOUS
 10
17.2004466434
 20
10.4692782025
  0
VERTEX
  8
_CURVE
 62
4
  6
CONTINUOUS
 10
17.3487434566
 20
10.4119311761
  0
VERTEX
  8
_CURVE
 62
4
  6
CONTINUOUS
 10
17.4994536491
 20
10.3559998779
  0
VERTEX
  8
_CURVE
 62
4
  6
CONTINUOUS
 10
17.6509427934
 20
10.3021181565
  0
VERTEX
  8
_CURVE
 62
4
  6
CONTINUOUS
 10
17.8031815035
 20
10.2502861524
  0
VERTEX
  8
_CURVE
 62
4
  6
CONTINUOUS
 10
17.9578416787
 20
10.1999626726
  0
SEQEND
  0
POLYLINE
  8
_CURVE
 62
4
  6
CONTINUOUS
 66
1
 70
0
  0
VERTEX
  8
_CURVE
 62
4
  6
CONTINUOUS
 10
24.3795342369
 20
27.0419069301
  0
VERTEX
  8
_CURVE
 62
4
  6
CONTINUOUS
 10
24.2194707676
 20
27.0752402307
  0
VERTEX
  8
_CURVE
 62
4
  6
CONTINUOUS
 10
24.057671732
 20
27.106703484
  0
VERTEX
  8
_CURVE
 62
4
  6
CONTINUOUS
 10
23.8954542653
 20
27.1360184835
  0
VERTEX
  8
_CURVE
 62
4
  6
CONTINUOUS
 10
23.7328461143
 20
27.1631845267
  0
VERTEX
  8
_CURVE
 62
4
  6
CONTINUOUS
 10
23.5687789626
 20
27.1883622978
  0
VERTEX
  8
_CURVE
 62
4
  6
CONTINUOUS
 10
23.4043732184
 20
27.2113641037
  0
VERTEX
  8
_CURVE
 62
4
  6
CONTINUOUS
 10
23.23965812
 20
27.2321926234
  0
VERTEX
  8
_CURVE
 62
4
  6
CONTINUOUS
 10
23.0736839891
 20
27.2509544346
  0
VERTEX
  8
_CURVE
 62
4
  6
CONTINUOUS
 10
22.9074604558
 20
27.2675206146
  0
VERTEX
  8
_CURVE
 62
4
  6
CONTINUOUS
 10
22.7410215668
 20
27.2818919703
  0
VERTEX
  8
_CURVE
 62
4
  6
CONTINUOUS
 10
22.5735592368
 20
27.2941248981
  0
VERTEX
  8
_CURVE
 62
4
  6
CONTINUOUS
 10
22.4059447378
 20
27.3041405002
  0
VERTEX
  8
_CURVE
 62
4
  6
CONTINUOUS
 10
22.2382090447
 20
27.3119376757
  0
VERTEX
  8
_CURVE
 62
4
  6
CONTINUOUS
 10
22.0699172334
 20
27.3175275047
  0
VERTEX
  8
_CURVE
 62
4
  6
CONTINUOUS
 10
21.9015725925
 20
27.320882892
  0
VERTEX
  8
_CURVE
 62
4
  6
CONTINUOUS
 10
21.7332130143
 20
27.3220012905
  0
SEQEND
  0
POLYLINE
  8
_CURVE
 62
8
  6
PHANTOM
 66
1
 70
0
  0
VERTEX
  8
_CURVE
 62
8
  6
PHANTOM
 10
21.7332130142
 20
28.1022423702
  0
VERTEX
  8
_CURVE
 62
8
  6
PHANTOM
 10
21.5974173574
 20
28.1015565218
  0
VERTEX
  8
_CURVE
 62
8
  6
PHANTOM
 10
21.4616300904
 20
28.0994999723
  0
VERTEX
  8
_CURVE
 62
8
  6
PHANTOM
 10
21.3258675393
 20
28.0960737503
  0
VERTEX
  8
_CURVE
 62
8
  6
PHANTOM
 10
21.1901460303
 20
28.0912788844
  0
VERTEX
  8
_CURVE
 62
8
  6
PHANTOM
 10
21.0544355858
 20
28.0851139806
  0
VERTEX
  8
_CURVE
 62
8
  6
PHANTOM
 10
20.9187956845
 20
28.0775808934
  0
VERTEX
  8
_CURVE
 62
8
  6
PHANTOM
 10
20.7832394628
 20
28.0686799777
  0
VERTEX
  8
_CURVE
 62
8
  6
PHANTOM
 10
20.647780057
 20
28.0584115886
  0
VERTEX
  8
_CURVE
 62
8
  6
PHANTOM
 10
20.5128272066
 20
28.0468120072
  0
VERTEX
  8
_CURVE
 62
8
  6
PHANTOM
 10
20.3779977633
 20
28.0338526717
  0
VERTEX
  8
_CURVE
 62
8
  6
PHANTOM
 10
20.2433058254
 20
28.0195329464
  0
VERTEX
  8
_CURVE
 62
8
  6
PHANTOM
 10
20.108765491
 20
28.0038521956
  0
VERTEX
  8
_CURVE
 62
8
  6
PHANTOM
 10
19.9751860749
 20
27.9869145547
  0
VERTEX
  8
_CURVE
 62
8
  6
PHANTOM
 10
19.8417845034
 20
27.9686297872
  0
VERTEX
  8
_CURVE
 62
8
  6
PHANTOM
 10
19.7085748761
 20
27.9489963493
  0
VERTEX
  8
_CURVE
 62
8
  6
PHANTOM
 10
19.5755712923
 20
27.9280126975
  0
VERTEX
  8
_CURVE
 62
8
  6
PHANTOM
 10
19.4435890864
 20
27.9058165839
  0
VERTEX
  8
_CURVE
 62
8
  6
PHANTOM
 10
19.3118382767
 20
27.8822855518
  0
VERTEX
  8
_CURVE
 62
8
  6
PHANTOM
 10
19.1803327673
 20
27.8574201624
  0
VERTEX
  8
_CURVE
 62
8
  6
PHANTOM
 10
19.0490864622
 20
27.831220977
  0
VERTEX
  8
_CURVE
 62
8
  6
PHANTOM
 10
18.9188134245
 20
27.8038393818
  0
VERTEX
  8
_CURVE
 62
8
  6
PHANTOM
 10
18.7888245839
 20
27.7751390217
  0
VERTEX
  8
_CURVE
 62
8
  6
PHANTOM
 10
18.6591339444
 20
27.7451201365
  0
VERTEX
  8
_CURVE
 62
8
  6
PHANTOM
 10
18.5297555096
 20
27.7137829655
  0
VERTEX
  8
_CURVE
 62
8
  6
PHANTOM
 10
18.4017302748
 20
27.6813930094
  0
VERTEX
  8
_CURVE
 62
8
  6
PHANTOM
 10
18.2740403653
 20
27.64770541
  0
VERTEX
  8
_CURVE
 62
8
  6
PHANTOM
 10
18.1467000755
 20
27.6127196514
  0
VERTEX
  8
_CURVE
 62
8
  6
PHANTOM
 10
18.0197236995
 20
27.5764352171
  0
VERTEX
  8
_CURVE
 62
8
  6
PHANTOM
 10
17.8528558581
 20
27.5265987099
  0
VERTEX
  8
_CURVE
 62
8
  6
PHANTOM
 10
17.6866806977
 20
27.4744994582
  0
VERTEX
  8
_CURVE
 62
8
  6
PHANTOM
 10
17.5212331674
 20
27.4201341078
  0
VERTEX
  8
_CURVE
 62
8
  6
PHANTOM
 10
17.3584240418
 20
27.3641594531
  0
VERTEX
  8
_CURVE
 62
8
  6
PHANTOM
 10
17.196394062
 20
27.305967936
  0
VERTEX
  8
_CURVE
 62
8
  6
PHANTOM
 10
17.0351771077
 20
27.2455606208
  0
VERTEX
  8
_CURVE
 62
8
  6
PHANTOM
 10
16.8764264972
 20
27.1835838438
  0
VERTEX
  8
_CURVE
 62
8
  6
PHANTOM
 10
16.7185395268
 20
27.1194390122
  0
VERTEX
  8
_CURVE
 62
8
  6
PHANTOM
 10
16.5615499929
 20
27.0531281866
  0
VERTEX
  8
_CURVE
 62
8
  6
PHANTOM
 10
16.4073447766
 20
26.9854813553
  0
VERTEX
  8
_CURVE
 62
8
  6
PHANTOM
 10
16.2540834485
 20
26.9157226459
  0
VERTEX
  8
_CURVE
 62
8
  6
PHANTOM
 10
16.1018007106
 20
26.8438528837
  0
VERTEX
  8
_CURVE
 62
8
  6
PHANTOM
 10
15.9527035063
 20
26.7709534272
  0
VERTEX
  8
_CURVE
 62
8
  6
PHANTOM
 10
15.8046264376
 20
26.6960037629
  0
VERTEX
  8
_CURVE
 62
8
  6
PHANTOM
 10
15.6576053325
 20
26.6190035488
  0
VERTEX
  8
_CURVE
 62
8
  6
PHANTOM
 10
15.5139372179
 20
26.5411979907
  0
VERTEX
  8
_CURVE
 62
8
  6
PHANTOM
 10
15.3713623647
 20
26.4614069034
  0
VERTEX
  8
_CURVE
 62
8
  6
PHANTOM
 10
15.2299159391
 20
26.3796323525
  0
VERTEX
  8
_CURVE
 62
8
  6
PHANTOM
 10
15.0915555175
 20
26.2970430958
  0
VERTEX
  8
_CURVE
 62
8
  6
PHANTOM
 10
14.9543603107
 20
26.2125324203
  0
VERTEX
  8
_CURVE
 62
8
  6
PHANTOM
 10
14.8183637457
 20
26.1261061458
  0
VERTEX
  8
_CURVE
 62
8
  6
PHANTOM
 10
14.6854697747
 20
26.0390145535
  0
VERTEX
  8
_CURVE
 62
8
  6
PHANTOM
 10
14.5538082886
 20
25.9500709247
  0
VERTEX
  8
_CURVE
 62
8
  6
PHANTOM
 10
14.4234138165
 20
25.8592801248
  0
VERTEX
  8
_CURVE
 62
8
  6
PHANTOM
 10
14.2963937672
 20
25.7681564275
  0
VERTEX
  8
_CURVE
 62
8
  6
PHANTOM
 10
14.1706685605
 20
25.6752545146
  0
VERTEX
  8
_CURVE
 62
8
  6
PHANTOM
 10
14.0462731609
 20
25.5805795009
  0
VERTEX
  8
_CURVE
 62
8
  6
PHANTOM
 10
13.9253757769
 20
25.4858329393
  0
VERTEX
  8
_CURVE
 62
8
  6
PHANTOM
 10
13.8058315743
 20
25.3893848577
  0
VERTEX
  8
_CURVE
 62
8
  6
PHANTOM
 10
13.687676131
 20
25.2912406187
  0
VERTEX
  8
_CURVE
 62
8
  6
PHANTOM
 10
13.5728299562
 20
25.1930422169
  0
VERTEX
  8
_CURVE
 62
8
  6
PHANTOM
 10
13.459394196
 20
25.0932179144
  0
VERTEX
  8
_CURVE
 62
8
  6
PHANTOM
 10
13.3474008413
 20
24.9917781026
  0
VERTEX
  8
_CURVE
 62
8
  6
PHANTOM
 10
13.2384696054
 20
24.8902347707
  0
VERTEX
  8
_CURVE
 62
8
  6
PHANTOM
 10
13.1310025285
 20
24.7871432641
  0
VERTEX
  8
_CURVE
 62
8
  6
PHANTOM
 10
13.0250317055
 20
24.6825144405
  0
VERTEX
  8
_CURVE
 62
8
  6
PHANTOM
 10
12.9222171115
 20
24.5780375767
  0
VERTEX
  8
_CURVE
 62
8
  6
PHANTOM
 10
12.8209153735
 20
24.4720933064
  0
VERTEX
  8
_CURVE
 62
8
  6
PHANTOM
 10
12.721158608
 20
24.3646931315
  0
VERTEX
  8
_CURVE
 62
8
  6
PHANTOM
 10
12.6246048575
 20
24.2576772245
  0
VERTEX
  8
_CURVE
 62
8
  6
PHANTOM
 10
12.5296084965
 20
24.1492766191
  0
VERTEX
  8
_CURVE
 62
8
  6
PHANTOM
 10
12.4362020325
 20
24.0395032043
  0
VERTEX
  8
_CURVE
 62
8
  6
PHANTOM
 10
12.3459664945
 20
23.930272356
  0
VERTEX
  8
_CURVE
 62
8
  6
PHANTOM
 10
12.2573292458
 20
23.819740705
  0
VERTEX
  8
_CURVE
 62
8
  6
PHANTOM
 10
12.1703209329
 20
23.707922433
  0
VERTEX
  8
_CURVE
 62
8
  6
PHANTOM
 10
12.0861652512
 20
23.5964380733
  0
VERTEX
  8
_CURVE
 62
8
  6
PHANTOM
 10
12.0036494669
 20
23.4837345727
  0
VERTEX
  8
_CURVE
 62
8
  6
PHANTOM
 10
11.9228004321
 20
23.3698295486
  0
VERTEX
  8
_CURVE
 62
8
  6
PHANTOM
 10
11.8446809961
 20
23.2562706979
  0
VERTEX
  8
_CURVE
 62
8
  6
PHANTOM
 10
11.7682376138
 20
23.1415770107
  0
VERTEX
  8
_CURVE
 62
8
  6
PHANTOM
 10
11.6934972431
 20
23.0257664455
  0
VERTEX
  8
_CURVE
 62
8
  6
PHANTOM
 10
11.621480185
 20
22.9104741483
  0
VERTEX
  8
_CURVE
 62
8
  6
PHANTOM
 10
11.5511719932
 20
22.7941319318
  0
VERTEX
  8
_CURVE
 62
8
  6
PHANTOM
 10
11.4825988706
 20
22.6767587468
  0
VERTEX
  8
_CURVE
 62
8
  6
PHANTOM
 10
11.4167503852
 20
22.5601103607
  0
VERTEX
  8
_CURVE
 62
8
  6
PHANTOM
 10
11.3526381768
 20
22.4424988484
  0
VERTEX
  8
_CURVE
 62
8
  6
PHANTOM
 10
11.2902883324
 20
22.32394375
  0
VERTEX
  8
_CURVE
 62
8
  6
PHANTOM
 10
11.2305217726
 20
22.2060635631
  0
VERTEX
  8
_CURVE
 62
8
  6
PHANTOM
 10
11.1725186074
 20
22.0873058086
  0
VERTEX
  8
_CURVE
 62
8
  6
PHANTOM
 10
11.116301136
 20
21.9676924976
  0
VERTEX
  8
_CURVE
 62
8
  6
PHANTOM
 10
11.0624446368
 20
21.848496154
  0
VERTEX
  8
_CURVE
 62
8
  6
PHANTOM
 10
11.01037757
 20
21.7285073803
  0
VERTEX
  8
_CURVE
 62
8
  6
PHANTOM
 10
10.960118585
 20
21.6077501371
  0
VERTEX
  8
_CURVE
 62
8
  6
PHANTOM
 10
10.9121179194
 20
21.487355266
  0
VERTEX
  8
_CURVE
 62
8
  6
PHANTOM
 10
10.8659292484
 20
21.3662537422
  0
VERTEX
  8
_CURVE
 62
8
  6
PHANTOM
 10
10.8215708638
 20
21.2444699609
  0
VERTEX
  8
_CURVE
 62
8
  6
PHANTOM
 10
10.7794625094
 20
21.1232140083
  0
VERTEX
  8
_CURVE
 62
8
  6
PHANTOM
 10
10.7391840554
 20
21.0013380204
  0
VERTEX
  8
_CURVE
 62
8
  6
PHANTOM
 10
10.700752354
 20
20.8788671802
  0
VERTEX
  8
_CURVE
 62
8
  6
PHANTOM
 10
10.6645208528
 20
20.7569915627
  0
VERTEX
  8
_CURVE
 62
8
  6
PHANTOM
 10
10.6301342111
 20
20.6345826981
  0
VERTEX
  8
_CURVE
 62
8
  6
PHANTOM
 10
10.5976087208
 20
20.5116662988
  0
VERTEX
  8
_CURVE
 62
8
  6
PHANTOM
 10
10.5672113016
 20
20.3893141707
  0
VERTEX
  8
_CURVE
 62
8
  6
PHANTOM
 10
10.5386713886
 20
20.2665154752
  0
VERTEX
  8
_CURVE
 62
8
  6
PHANTOM
 10
10.5120006722
 20
20.1432973505
  0
VERTEX
  8
_CURVE
 62
8
  6
PHANTOM
 10
10.4873139486
 20
20.020225548
  0
VERTEX
  8
_CURVE
 62
8
  6
PHANTOM
 10
10.4644996209
 20
19.89679293
  0
VERTEX
  8
_CURVE
 62
8
  6
PHANTOM
 10
10.4435655223
 20
19.7730275674
  0
VERTEX
  8
_CURVE
 62
8
  6
PHANTOM
 10
10.4245899139
 20
19.6494417899
  0
VERTEX
  8
_CURVE
 62
8
  6
PHANTOM
 10
10.4074945937
 20
19.5255819466
  0
VERTEX
  8
_CURVE
 62
8
  6
PHANTOM
 10
10.3922864781
 20
19.4014762749
  0
VERTEX
  8
_CURVE
 62
8
  6
PHANTOM
 10
10.3790075624
 20
19.2775086046
  0
VERTEX
  8
_CURVE
 62
8
  6
PHANTOM
 10
10.3676172777
 20
19.1533531628
  0
VERTEX
  8
_CURVE
 62
8
  6
PHANTOM
 10
10.3581209424
 20
19.0290385271
  0
VERTEX
  8
_CURVE
 62
8
  6
PHANTOM
 10
10.3505521588
 20
18.905125445
  0
VERTEX
  8
_CURVE
 62
8
  6
PHANTOM
 10
10.3448708787
 20
18.781111522
  0
VERTEX
  8
_CURVE
 62
8
  6
PHANTOM
 10
10.3410815373
 20
18.6570254194
  0
VERTEX
  8
_CURVE
 62
8
  6
PHANTOM
 10
10.3391886879
 20
18.5330082506
  0
VERTEX
  8
_CURVE
 62
8
  6
PHANTOM
 10
10.3391887838
 20
18.4089766023
  0
VERTEX
  8
_CURVE
 62
8
  6
PHANTOM
 10
10.3410818285
 20
18.2849594349
  0
VERTEX
  8
_CURVE
 62
8
  6
PHANTOM
 10
10.3448720386
 20
18.160855916
  0
VERTEX
  8
_CURVE
 62
8
  6
PHANTOM
 10
10.3505547218
 20
18.0368246039
  0
VERTEX
  8
_CURVE
 62
8
  6
PHANTOM
 10
10.3581254343
 20
17.9128941732
  0
VERTEX
  8
_CURVE
 62
8
  6
PHANTOM
 10
10.3676224821
 20
17.7885829673
  0
VERTEX
  8
_CURVE
 62
8
  6
PHANTOM
 10
10.3790133794
 20
17.6644309624
  0
VERTEX
  8
_CURVE
 62
8
  6
PHANTOM
 10
10.3922928221
 20
17.5404667326
  0
VERTEX
  8
_CURVE
 62
8
  6
PHANTOM
 10
10.4075064451
 20
17.4163257115
  0
VERTEX
  8
_CURVE
 62
8
  6
PHANTOM
 10
10.4246083652
 20
17.2924306806
  0
VERTEX
  8
_CURVE
 62
8
  6
PHANTOM
 10
10.4435916445
 20
17.168809903
  0
VERTEX
  8
_CURVE
 62
8
  6
PHANTOM
 10
10.4645293663
 20
17.0450386269
  0
VERTEX
  8
_CURVE
 62
8
  6
PHANTOM
 10
10.4873474817
 20
16.9216001678
  0
VERTEX
  8
_CURVE
 62
8
  6
PHANTOM
 10
10.5120381502
 20
16.7985225973
  0
VERTEX
  8
_CURVE
 62
8
  6
PHANTOM
 10
10.5387113297
 20
16.6753061223
  0
VERTEX
  8
_CURVE
 62
8
  6
PHANTOM
 10
10.5672536468
 20
16.5525091059
  0
VERTEX
  8
_CURVE
 62
8
  6
PHANTOM
 10
10.5976534255
 20
16.4301586885
  0
VERTEX
  8
_CURVE
 62
8
  6
PHANTOM
 10
10.6301812365
 20
16.3072441442
  0
VERTEX
  8
_CURVE
 62
8
  6
PHANTOM
 10
10.6645701654
 20
16.1848371682
  0
VERTEX
  8
_CURVE
 62
8
  6
PHANTOM
 10
10.7008039201
 20
16.0629634726
  0
VERTEX
  8
_CURVE
 62
8
  6
PHANTOM
 10
10.7392379564
 20
15.9404943004
  0
VERTEX
  8
_CURVE
 62
8
  6
PHANTOM
 10
10.7795186965
 20
15.8186200074
  0
VERTEX
  8
_CURVE
 62
8
  6
PHANTOM
 10
10.8216292646
 20
15.6973657665
  0
VERTEX
  8
_CURVE
 62
8
  6
PHANTOM
 10
10.8659907405
 20
15.5755811887
  0
VERTEX
  8
_CURVE
 62
8
  6
PHANTOM
 10
10.9121825072
 20
15.4544789132
  0
VERTEX
  8
_CURVE
 62
8
  6
PHANTOM
 10
10.9601862979
 20
15.3340833454
  0
VERTEX
  8
_CURVE
 62
8
  6
PHANTOM
 10
11.0104477949
 20
15.2133270865
  0
VERTEX
  8
_CURVE
 62
8
  6
PHANTOM
 10
11.0625173644
 20
15.0933393362
  0
VERTEX
  8
_CURVE
 62
8
  6
PHANTOM
 10
11.1163763413
 20
14.9741440475
  0
VERTEX
  8
_CURVE
 62
8
  6
PHANTOM
 10
11.1725952922
 20
14.8545338857
  0
VERTEX
  8
_CURVE
 62
8
  6
PHANTOM
 10
11.2305998368
 20
14.7357792783
  0
VERTEX
  8
_CURVE
 62
8
  6
PHANTOM
 10
11.2903676797
 20
14.6179022387
  0
VERTEX
  8
_CURVE
 62
8
  6
PHANTOM
 10
11.3526891573
 20
14.4994055539
  0
VERTEX
  8
_CURVE
 62
8
  6
PHANTOM
 10
11.4167712708
 20
14.3818515598
  0
VERTEX
  8
_CURVE
 62
8
  6
PHANTOM
 10
11.4825879724
 20
14.2652597628
  0
VERTEX
  8
_CURVE
 62
8
  6
PHANTOM
 10
11.5511602084
 20
14.1478873981
  0
VERTEX
  8
_CURVE
 62
8
  6
PHANTOM
 10
11.6214674927
 20
14.031545978
  0
VERTEX
  8
_CURVE
 62
8
  6
PHANTOM
 10
11.6934836243
 20
13.9162544576
  0
VERTEX
  8
_CURVE
 62
8
  6
PHANTOM
 10
11.7682233089
 20
13.8004442503
  0
VERTEX
  8
_CURVE
 62
8
  6
PHANTOM
 10
11.8446660003
 20
13.6857509129
  0
VERTEX
  8
_CURVE
 62
8
  6
PHANTOM
 10
11.9227847411
 20
13.5721924026
  0
VERTEX
  8
_CURVE
 62
8
  6
PHANTOM
 10
12.0036339788
 20
13.458286447
  0
VERTEX
  8
_CURVE
 62
8
  6
PHANTOM
 10
12.086149992
 20
13.3455820263
  0
VERTEX
  8
_CURVE
 62
8
  6
PHANTOM
 10
12.1703059209
 20
13.234096753
  0
VERTEX
  8
_CURVE
 62
8
  6
PHANTOM
 10
12.2573166346
 20
13.1222748521
  0
VERTEX
  8
_CURVE
 62
8
  6
PHANTOM
 10
12.3459563792
 20
13.0117396418
  0
VERTEX
  8
_CURVE
 62
8
  6
PHANTOM
 10
12.4361945114
 20
12.9025053098
  0
VERTEX
  8
_CURVE
 62
8
  6
PHANTOM
 10
12.5296009985
 20
12.7927315841
  0
VERTEX
  8
_CURVE
 62
8
  6
PHANTOM
 10
12.6245973961
 20
12.6843306762
  0
VERTEX
  8
_CURVE
 62
8
  6
PHANTOM
 10
12.7211511987
 20
12.5773144776
  0
VERTEX
  8
_CURVE
 62
8
  6
PHANTOM
 10
12.8209074986
 20
12.4699145862
  0
VERTEX
  8
_CURVE
 62
8
  6
PHANTOM
 10
12.9222087675
 20
12.3639705928
  0
VERTEX
  8
_CURVE
 62
8
  6
PHANTOM
 10
13.0250228842
 20
12.259493995
  0
VERTEX
  8
_CURVE
 62
8
  6
PHANTOM
 10
13.1309944103
 20
12.1548642576
  0
VERTEX
  8
_CURVE
 62
8
  6
PHANTOM
 10
13.2384622088
 20
12.0517718531
  0
VERTEX
  8
_CURVE
 62
8
  6
PHANTOM
 10
13.3473941821
 20
11.950227637
  0
VERTEX
  8
_CURVE
 62
8
  6
PHANTOM
 10
13.4593855463
 20
11.8487894006
  0
VERTEX
  8
_CURVE
 62
8
  6
PHANTOM
 10
13.5728192683
 20
11.7489666167
  0
VERTEX
  8
_CURVE
 62
8
  6
PHANTOM
 10
13.6876633683
 20
11.6507696868
  0
VERTEX
  8
_CURVE
 62
8
  6
PHANTOM
 10
13.8058199404
 20
11.5526242286
  0
VERTEX
  8
_CURVE
 62
8
  6
PHANTOM
 10
13.9253653141
 20
11.4561749739
  0
VERTEX
  8
_CURVE
 62
8
  6
PHANTOM
 10
14.0462639018
 20
11.3614272764
  0
VERTEX
  8
_CURVE
 62
8
  6
PHANTOM
 10
14.1706586912
 20
11.2667525329
  0
VERTEX
  8
_CURVE
 62
8
  6
PHANTOM
 10
14.2963832726
 20
11.1738508672
  0
VERTEX
  8
_CURVE
 62
8
  6
PHANTOM
 10
14.4234026835
 20
11.082727394
  0
VERTEX
  8
_CURVE
 62
8
  6
PHANTOM
 10
14.553799341
 20
10.9919348477
  0
VERTEX
  8
_CURVE
 62
8
  6
PHANTOM
 10
14.6854630583
 20
10.9029895349
  0
VERTEX
  8
_CURVE
 62
8
  6
PHANTOM
 10
14.8183593078
 20
10.815896327
  0
VERTEX
  8
_CURVE
 62
8
  6
PHANTOM
 10
14.9543570051
 20
10.7294692558
  0
VERTEX
  8
_CURVE
 62
8
  6
PHANTOM
 10
15.0915533674
 20
10.6449578189
  0
VERTEX
  8
_CURVE
 62
8
  6
PHANTOM
 10
15.2299149632
 20
10.5623678297
  0
VERTEX
  8
_CURVE
 62
8
  6
PHANTOM
 10
15.3713659363
 20
10.4805906608
  0
VERTEX
  8
_CURVE
 62
8
  6
PHANTOM
 10
15.5139454071
 20
10.4007970805
  0
VERTEX
  8
_CURVE
 62
8
  6
PHANTOM
 10
15.6576182108
 20
10.3229891634
  0
VERTEX
  8
_CURVE
 62
8
  6
PHANTOM
 10
15.8046396818
 20
10.2459889983
  0
VERTEX
  8
_CURVE
 62
8
  6
PHANTOM
 10
15.9527171204
 20
10.1710393975
  0
VERTEX
  8
_CURVE
 62
8
  6
PHANTOM
 10
16.101814694
 20
10.0981400099
  0
VERTEX
  8
_CURVE
 62
8
  6
PHANTOM
 10
16.2540975121
 20
10.026270451
  0
VERTEX
  8
_CURVE
 62
8
  6
PHANTOM
 10
16.4073589135
 20
9.9565119379
  0
VERTEX
  8
_CURVE
 62
8
  6
PHANTOM
 10
16.5615641991
 20
9.8888653012
  0
VERTEX
  8
_CURVE
 62
8
  6
PHANTOM
 10
16.7185539758
 20
9.8225546021
  0
VERTEX
  8
_CURVE
 62
8
  6
PHANTOM
 10
16.8764411887
 20
9.7584099036
  0
VERTEX
  8
_CURVE
 62
8
  6
PHANTOM
 10
17.0351920406
 20
9.696433265
  0
SEQEND
  0
POLYLINE
  8
_CURVE
 62
8
  6
PHANTOM
 66
1
 70
0
  0
VERTEX
  8
_CURVE
 62
8
  6
PHANTOM
 10
26.4312489207
 20
27.2455606208
  0
VERTEX
  8
_CURVE
 62
8
  6
PHANTOM
 10
26.2700319665
 20
27.305967936
  0
VERTEX
  8
_CURVE
 62
8
  6
PHANTOM
 10
26.1080019866
 20
27.3641594531
  0
VERTEX
  8
_CURVE
 62
8
  6
PHANTOM
 10
25.9451928611
 20
27.4201341078
  0
VERTEX
  8
_CURVE
 62
8
  6
PHANTOM
 10
25.7797453308
 20
27.4744994582
  0
VERTEX
  8
_CURVE
 62
8
  6
PHANTOM
 10
25.6135701704
 20
27.5265987099
  0
VERTEX
  8
_CURVE
 62
8
  6
PHANTOM
 10
25.446702329
 20
27.5764352171
  0
VERTEX
  8
_CURVE
 62
8
  6
PHANTOM
 10
25.319725953
 20
27.6127196514
  0
VERTEX
  8
_CURVE
 62
8
  6
PHANTOM
 10
25.1923856632
 20
27.64770541
  0
VERTEX
  8
_CURVE
 62
8
  6
PHANTOM
 10
25.0646957537
 20
27.6813930094
  0
VERTEX
  8
_CURVE
 62
8
  6
PHANTOM
 10
24.9366705189
 20
27.7137829655
  0
VERTEX
  8
_CURVE
 62
8
  6
PHANTOM
 10
24.8072920841
 20
27.7451201365
  0
VERTEX
  8
_CURVE
 62
8
  6
PHANTOM
 10
24.6776014446
 20
27.7751390217
  0
VERTEX
  8
_CURVE
 62
8
  6
PHANTOM
 10
24.547612604
 20
27.8038393818
  0
VERTEX
  8
_CURVE
 62
8
  6
PHANTOM
 10
24.4173395663
 20
27.831220977
  0
VERTEX
  8
_CURVE
 62
8
  6
PHANTOM
 10
24.2860932612
 20
27.8574201624
  0
VERTEX
  8
_CURVE
 62
8
  6
PHANTOM
 10
24.1545877517
 20
27.8822855518
  0
VERTEX
  8
_CURVE
 62
8
  6
PHANTOM
 10
24.022836942
 20
27.9058165839
  0
VERTEX
  8
_CURVE
 62
8
  6
PHANTOM
 10
23.8908547362
 20
27.9280126975
  0
VERTEX
  8
_CURVE
 62
8
  6
PHANTOM
 10
23.7578511524
 20
27.9489963493
  0
VERTEX
  8
_CURVE
 62
8
  6
PHANTOM
 10
23.6246415251
 20
27.9686297872
  0
VERTEX
  8
_CURVE
 62
8
  6
PHANTOM
 10
23.4912399536
 20
27.9869145547
  0
VERTEX
  8
_CURVE
 62
8
  6
PHANTOM
 10
23.3576605374
 20
28.0038521956
  0
VERTEX
  8
_CURVE
 62
8
  6
PHANTOM
 10
23.2231202031
 20
28.0195329464
  0
VERTEX
  8
_CURVE
 62
8
  6
PHANTOM
 10
23.0884282652
 20
28.0338526717
  0
VERTEX
  8
_CURVE
 62
8
  6
PHANTOM
 10
22.9535988219
 20
28.0468120072
  0
VERTEX
  8
_CURVE
 62
8
  6
PHANTOM
 10
22.8186459714
 20
28.0584115886
  0
VERTEX
  8
_CURVE
 62
8
  6
PHANTOM
 10
22.6831865657
 20
28.0686799777
  0
VERTEX
  8
_CURVE
 62
8
  6
PHANTOM
 10
22.547630344
 20
28.0775808934
  0
VERTEX
  8
_CURVE
 62
8
  6
PHANTOM
 10
22.4119904427
 20
28.0851139806
  0
VERTEX
  8
_CURVE
 62
8
  6
PHANTOM
 10
22.2762799982
 20
28.0912788844
  0
VERTEX
  8
_CURVE
 62
8
  6
PHANTOM
 10
22.1405584891
 20
28.0960737503
  0
VERTEX
  8
_CURVE
 62
8
  6
PHANTOM
 10
22.004795938
 20
28.0994999723
  0
VERTEX
  8
_CURVE
 62
8
  6
PHANTOM
 10
21.869008671
 20
28.1015565218
  0
VERTEX
  8
_CURVE
 62
8
  6
PHANTOM
 10
21.7332130142
 20
28.1022423702
  0
SEQEND
  0
ARC
  8
_CURVE
 62
4
  6
CONTINUOUS
 10
21.7332133785
 20
11.4595490573
 40
2.1963817237
 50
233.8327895339
 51
306.1672143171
  0
ENDSEC
  0
EOF
