  0
SECTION
  2
HEADER
  9
$ACADVER
  1
AC1009
  9
$INSBASE
 10
0.0
 20
0.0
 30
0.0
  9
$EXTMIN
 10
0.0
 20
0.0
 30
0.0
  9
$EXTMAX
 10
34.0
 20
22.0
 30
0.0
  9
$LIMMIN
 10
0.0
 20
0.0
  9
$LIMMAX
 10
34.0
 20
22.0
  9
$ORTHOMODE
 70
     0
  9
$REGENMODE
 70
     1
  9
$FILLMODE
 70
     1
  9
$QTEXTMODE
 70
     0
  9
$MIRRTEXT
 70
     0
  9
$DRAGMODE
 70
     2
  9
$LTSCALE
 40
1.8700000000000001
  9
$OSMODE
 70
  2087
  9
$ATTMODE
 70
     1
  9
$TEXTSIZE
 40
0.2
  9
$TRACEWID
 40
0.05
  9
$TEXTSTYLE
  7
STANDARD
  9
$CLAYER
  8
0
  9
$CELTYPE
  6
BYLAYER
  9
$CECOLOR
 62
   256
  9
$DIMSCALE
 40
1.0
  9
$DIMASZ
 40
0.1875
  9
$DIMEXO
 40
0.2125
  9
$DIMDLI
 40
1.2919999999999989
  9
$DIMRND
 40
0.0
  9
$DIMDLE
 40
0.0
  9
$DIMEXE
 40
0.612
  9
$DIMTP
 40
0.01
  9
$DIMTM
 40
0.01
  9
$DIMTXT
 40
0.15625
  9
$DIMCEN
 40
0.306
  9
$DIMTSZ
 40
0.0
  9
$DIMTOL
 70
     1
  9
$DIMLIM
 70
     0
  9
$DIMTIH
 70
     1
  9
$DIMTOH
 70
     1
  9
$DIMSE1
 70
     0
  9
$DIMSE2
 70
     0
  9
$DIMTAD
 70
     0
  9
$DIMZIN
 70
     0
  9
$DIMBLK
  1
_ARROW_FILLED
  9
$DIMASO
 70
     1
  9
$DIMSHO
 70
     1
  9
$DIMPOST
  1

  9
$DIMAPOST
  1

  9
$DIMALT
 70
     0
  9
$DIMALTD
 70
     2
  9
$DIMALTF
 40
25.399999999999999
  9
$DIMLFAC
 40
1.0
  9
$DIMTOFL
 70
     0
  9
$DIMTVP
 40
0.0
  9
$DIMTIX
 70
     0
  9
$DIMSOXD
 70
     0
  9
$DIMSAH
 70
     0
  9
$DIMBLK1
  1

  9
$DIMBLK2
  1

  9
$DIMSTYLE
  2
STANDARD
  9
$DIMCLRD
 70
     0
  9
$DIMCLRE
 70
     0
  9
$DIMCLRT
 70
     0
  9
$DIMTFAC
 40
1.0
  9
$DIMGAP
 40
0.09
  9
$LUNITS
 70
     2
  9
$LUPREC
 70
     4
  9
$SKETCHINC
 40
0.1
  9
$FILLETRAD
 40
0.0
  9
$AUNITS
 70
     0
  9
$AUPREC
 70
     0
  9
$MENU
  1
.
  9
$ELEVATION
 40
0.0
  9
$PELEVATION
 40
0.0
  9
$THICKNESS
 40
0.0
  9
$LIMCHECK
 70
     0
  9
$BLIPMODE
 70
     0
  9
$CHAMFERA
 40
0.0
  9
$CHAMFERB
 40
0.0
  9
$SKPOLY
 70
     0
  9
$TDCREATE
 40
2454354.3639062499
  9
$TDUPDATE
 40
2454354.3676942592
  9
$TDINDWG
 40
0.003788912
  9
$TDUSRTIMER
 40
0.003788912
  9
$USRTIMER
 70
     1
  9
$ANGBASE
 50
0.0
  9
$ANGDIR
 70
     0
  9
$PDMODE
 70
     3
  9
$PDSIZE
 40
0.3125
  9
$PLINEWID
 40
0.0
  9
$COORDS
 70
     1
  9
$SPLFRAME
 70
     0
  9
$SPLINETYPE
 70
     6
  9
$SPLINESEGS
 70
     8
  9
$ATTDIA
 70
     0
  9
$ATTREQ
 70
     1
  9
$HANDLING
 70
     1
  9
$HANDSEED
  5
807
  9
$SURFTAB1
 70
     6
  9
$SURFTAB2
 70
     6
  9
$SURFTYPE
 70
     6
  9
$SURFU
 70
     6
  9
$SURFV
 70
     6
  9
$UCSNAME
  2

  9
$UCSORG
 10
0.0
 20
0.0
 30
0.0
  9
$UCSXDIR
 10
1.0
 20
0.0
 30
0.0
  9
$UCSYDIR
 10
0.0
 20
1.0
 30
0.0
  9
$PUCSNAME
  2

  9
$PUCSORG
 10
0.0
 20
0.0
 30
0.0
  9
$PUCSXDIR
 10
1.0
 20
0.0
 30
0.0
  9
$PUCSYDIR
 10
0.0
 20
1.0
 30
0.0
  9
$USERI1
 70
     0
  9
$USERI2
 70
     0
  9
$USERI3
 70
     0
  9
$USERI4
 70
     0
  9
$USERI5
 70
     0
  9
$USERR1
 40
0.0
  9
$USERR2
 40
0.0
  9
$USERR3
 40
0.0
  9
$USERR4
 40
0.0
  9
$USERR5
 40
0.0
  9
$WORLDVIEW
 70
     1
  9
$SHADEDGE
 70
     3
  9
$SHADEDIF
 70
    70
  9
$TILEMODE
 70
     1
  9
$MAXACTVP
 70
    64
  9
$PLIMCHECK
 70
     0
  9
$PEXTMIN
 10
1.0000000000000000E+020
 20
1.0000000000000000E+020
 30
1.0000000000000000E+020
  9
$PEXTMAX
 10
-1.0000000000000000E+020
 20
-1.0000000000000000E+020
 30
-1.0000000000000000E+020
  9
$PLIMMIN
 10
0.0
 20
0.0
  9
$PLIMMAX
 10
12.0
 20
9.0
  9
$UNITMODE
 70
     0
  9
$VISRETAIN
 70
     1
  9
$PLINEGEN
 70
     0
  9
$PSLTSCALE
 70
     1
  0
ENDSEC
  0
SECTION
  2
TABLES
  0
TABLE
  2
VPORT
 70
     1
  0
VPORT
  2
*ACTIVE
 70
     0
 10
0.0
 20
0.0
 11
1.0
 21
1.0
 12
12.280033550347159
 22
11.3389368446923
 13
0.0
 23
0.0
 14
1.0
 24
1.0
 15
0.0
 25
0.0
 16
0.0
 26
0.0
 36
1.0
 17
0.0
 27
0.0
 37
0.0
 40
27.30482044920111
 41
1.5387547649301141
 42
50.0
 43
0.0
 44
0.0
 50
0.0
 51
0.0
 71
     0
 72
   100
 73
     1
 74
     1
 75
     0
 76
     0
 77
     0
 78
     0
  0
ENDTAB
  0
TABLE
  2
LTYPE
 70
     7
  0
LTYPE
  2
CONTINUOUS
 70
     0
  3
Solid line
 72
    65
 73
     0
 40
0.0
  0
LTYPE
  2
CENTER
 70
     0
  3
____ _ ____ _ ____ _ ____ _ ____ _ ____ _ ____
 72
    65
 73
     4
 40
0.6
 49
0.375
 49
-0.075
 49
0.075
 49
-0.075
  0
LTYPE
  2
HIDDEN
 70
     0
  3
- - - - - - - - - - - - - - - - - - - -
 72
    65
 73
     2
 40
0.2
 49
0.1
 49
-0.1
  0
LTYPE
  2
PHANTOM
 70
     0
  3
_____ _ _ _____ _ _ _____ _ _ _____
 72
    65
 73
     6
 40
0.8
 49
0.45
 49
-0.05
 49
0.1
 49
-0.05
 49
0.1
 49
-0.05
  0
LTYPE
  2
DOT
 70
     0
  3
. . . . . . . . . . . . . . . . . . . .
 72
    65
 73
     2
 40
0.2
 49
0.1
 49
-0.1
  0
LTYPE
  2
DASHED
 70
     0
  3
- - - - - - - - - - - - - - - - - - - -
 72
    65
 73
     2
 40
0.2
 49
0.1
 49
-0.1
  0
ENDTAB
  0
TABLE
  2
LAYER
 70
    10
  0
LAYER
  2
0
 70
     0
 62
     7
  6
CONTINUOUS
  0
LAYER
  2
DEFAULT_1
 70
     0
 62
     7
  6
CENTER
  0
LAYER
  2
DEFAULT_2
 70
     0
 62
     8
  6
HIDDEN
  0
LAYER
  2
DEFAULT_3
 70
     0
 62
     7
  6
PHANTOM
  0
LAYER
  2
DEFPOINTS_
 70
     0
 62
     7
  6
CONTINUOUS
  0
LAYER
  2
PSPTBK
 70
     0
 62
     7
  6
CONTINUOUS
  0
LAYER
  2
___NOTE
 70
     0
 62
     7
  6
CONTINUOUS
  0
LAYER
  2
___SYMBOL
 70
     0
 62
     7
  6
CONTINUOUS
  0
LAYER
  2
TABLE_BL6
 70
     0
 62
     7
  6
CONTINUOUS
  0
LAYER
  2
TABLE_BL7
 70
     0
 62
     7
  6
CONTINUOUS
  0
ENDTAB
  0
TABLE
  2
STYLE
 70
     3
  0
STYLE
  2
STANDARD
 70
     0
 40
0.0
 41
0.8
 50
0.0
 71
     0
 42
0.2
  3
txt
  4

  0
STYLE
  2
TEXTSTYLE_1
 70
     0
 40
0.0
 41
1.0299999783
 50
0.0
 71
     0
 42
0.2
  3
txt
  4

  0
STYLE
  2
TEXTSTYLE_2
 70
     0
 40
0.0
 41
1.0
 50
0.0
 71
     0
 42
0.2
  3
txt
  4

  0
ENDTAB
  0
TABLE
  2
VIEW
 70
     0
  0
ENDTAB
  0
TABLE
  2
UCS
 70
     0
  0
ENDTAB
  0
TABLE
  2
APPID
 70
     1
  0
APPID
  2
ACAD
 70
     0
  0
ENDTAB
  0
TABLE
  2
DIMSTYLE
 70
     3
  0
DIMSTYLE
  2
STANDARD
 70
     0
  3

  4

  5
_ARROW_FILLED
  6
_ARROW_FILLED
  7
_ARROW_FILLED
 40
1.0
 41
0.1875
 42
0.0625
 43
0.38
 44
0.18
 45
0.0
 46
0.0
 47
0.01
 48
0.01
140
0.15625
141
0.09
142
0.0
143
25.399999999999999
144
1.0
145
0.0
146
1.0
147
0.09
 71
     1
 72
     0
 73
     1
 74
     1
 75
     0
 76
     0
 77
     0
 78
     4
170
     0
171
     2
172
     0
173
     0
174
     0
175
     0
176
     0
177
     0
178
     0
  0
DIMSTYLE
  2
DIMSTYLE_1
 70
     0
  3

  4

  5
_ARROW_FILLED
  6
_ARROW_FILLED
  7
_ARROW_FILLED
 40
1.0
 41
0.1875
 42
0.0625
 43
0.38
 44
0.18
 45
0.0
 46
0.0
 47
0.03125
 48
0.03125
140
0.15625
141
0.09
142
0.0
143
25.399999999999999
144
1.0
145
0.0
146
1.0
147
0.09
 71
     0
 72
     0
 73
     1
 74
     1
 75
     0
 76
     0
 77
     0
 78
     4
170
     0
171
     2
172
     0
173
     0
174
     0
175
     0
176
     0
177
     0
178
     0
  0
ENDTAB
  0
ENDSEC
  0
SECTION
  2
BLOCKS
  0
BLOCK
  8
0
  2
$MODEL_SPACE
 70
     0
 10
0.0
 20
0.0
 30
0.0
  3
$MODEL_SPACE
  1

  0
ENDBLK
  5
21
  8
0
  0
BLOCK
 67
     1
  8
0
  2
$PAPER_SPACE
 70
     0
 10
0.0
 20
0.0
 30
0.0
  3
$PAPER_SPACE
  1

  0
ENDBLK
  5
1D
 67
     1
  8
0
  0
BLOCK
  8
0
  2
_ARROW_FILLED
 70
     0
 10
0.0
 20
0.0
 30
0.0
  3
_ARROW_FILLED
  1

  0
SOLID
  5
395
  8
0
  6
BYBLOCK
 62
     0
 10
0.0
 20
0.0
 30
0.0
 11
-1.0
 21
0.1666666667
 31
0.0
 12
-1.0
 22
-0.1666666667
 32
0.0
 13
-1.0
 23
-0.1666666667
 33
0.0
  0
ENDBLK
  5
396
  8
0
  6
BYBLOCK
 62
     0
  0
BLOCK
  8
0
  6
CONTINUOUS
 62
     2
  2
KOHLER_BL0
 70
     0
 10
30.21237150000001
 20
2.2616459999999989
 30
0.0
  3
KOHLER_BL0
  1

  0
ARC
  5
215
  8
0
  6
CONTINUOUS
 62
     2
 10
30.778184
 20
2.31711475
 30
0.0
 40
0.03065625
 50
270.0
 51
90.0
  0
LINE
  5
216
  8
0
  6
CONTINUOUS
 62
     2
 10
29.528184
 20
2.1210209999999989
 30
0.0
 11
29.528184
 21
2.4022709999999989
 31
0.0
  0
LINE
  5
217
  8
0
  6
CONTINUOUS
 62
     2
 10
29.528184
 20
2.4022709999999989
 30
0.0
 11
29.595184
 21
2.4022709999999989
 31
0.0
  0
LINE
  5
218
  8
0
  6
CONTINUOUS
 62
     2
 10
29.528184
 20
2.1210209999999989
 30
0.0
 11
29.595184
 21
2.1210209999999989
 31
0.0
  0
LINE
  5
219
  8
0
  6
CONTINUOUS
 62
     2
 10
29.778184
 20
2.4022709999999989
 30
0.0
 11
29.65318400000001
 21
2.2772709999999989
 31
0.0
  0
LINE
  5
21A
  8
0
  6
CONTINUOUS
 62
     2
 10
29.65318400000001
 20
2.2772709999999989
 30
0.0
 11
29.778184
 21
2.1210209999999989
 31
0.0
  0
CIRCLE
  5
21B
  8
0
  6
CONTINUOUS
 62
     2
 10
29.88755900000001
 20
2.2616459999999989
 30
0.0
 40
0.073625
  0
LINE
  5
21C
  8
0
  6
CONTINUOUS
 62
     2
 10
29.692382135199999
 20
2.1210209999999989
 30
0.0
 11
29.778184
 21
2.1210209999999989
 31
0.0
  0
CIRCLE
  5
21D
  8
0
  6
CONTINUOUS
 62
     2
 10
29.88755900000001
 20
2.2616459999999989
 30
0.0
 40
0.140625
  0
LINE
  5
21E
  8
0
  6
CONTINUOUS
 62
     2
 10
29.595184
 20
2.1210209999999989
 30
0.0
 11
29.595184
 21
2.242518668999999
 31
0.0
  0
LINE
  5
21F
  8
0
  6
CONTINUOUS
 62
     2
 10
29.683431691300001
 20
2.4022709999999989
 30
0.0
 11
29.595184
 21
2.3140233086999991
 31
0.0
  0
LINE
  5
220
  8
0
  6
CONTINUOUS
 62
     2
 10
29.595184
 20
2.242518668999999
 30
0.0
 11
29.692382135199999
 21
2.1210209999999989
 31
0.0
  0
LINE
  5
221
  8
0
  6
CONTINUOUS
 62
     2
 10
29.683431691300001
 20
2.4022709999999989
 30
0.0
 11
29.778184
 21
2.4022709999999989
 31
0.0
  0
LINE
  5
222
  8
0
  6
CONTINUOUS
 62
     2
 10
29.595184
 20
2.4022709999999989
 30
0.0
 11
29.595184
 21
2.3140233086999991
 31
0.0
  0
LINE
  5
223
  8
0
  6
CONTINUOUS
 62
     2
 10
30.059434
 20
2.4022709999999989
 30
0.0
 11
30.059434
 21
2.1210209999999989
 31
0.0
  0
LINE
  5
224
  8
0
  6
CONTINUOUS
 62
     2
 10
30.126434
 20
2.1210209999999989
 30
0.0
 11
30.126434
 21
2.2437709999999988
 31
0.0
  0
LINE
  5
225
  8
0
  6
CONTINUOUS
 62
     2
 10
30.126434
 20
2.310770999999999
 30
0.0
 11
30.126434
 21
2.4022709999999989
 31
0.0
  0
LINE
  5
226
  8
0
  6
CONTINUOUS
 62
     2
 10
30.204559
 20
2.1210209999999989
 30
0.0
 11
30.204559
 21
2.2437709999999988
 31
0.0
  0
LINE
  5
227
  8
0
  6
CONTINUOUS
 62
     2
 10
30.204559
 20
2.310770999999999
 30
0.0
 11
30.204559
 21
2.4022709999999989
 31
0.0
  0
LINE
  5
228
  8
0
  6
CONTINUOUS
 62
     2
 10
30.271559
 20
2.4022709999999989
 30
0.0
 11
30.271559
 21
2.1210209999999989
 31
0.0
  0
LINE
  5
229
  8
0
  6
CONTINUOUS
 62
     2
 10
30.126434
 20
2.310770999999999
 30
0.0
 11
30.204559
 21
2.310770999999999
 31
0.0
  0
LINE
  5
22A
  8
0
  6
CONTINUOUS
 62
     2
 10
30.126434
 20
2.2437709999999988
 30
0.0
 11
30.204559
 21
2.2437709999999988
 31
0.0
  0
LINE
  5
22B
  8
0
  6
CONTINUOUS
 62
     2
 10
30.204559
 20
2.1210209999999989
 30
0.0
 11
30.271559
 21
2.1210209999999989
 31
0.0
  0
LINE
  5
22C
  8
0
  6
CONTINUOUS
 62
     2
 10
30.059434
 20
2.1210209999999989
 30
0.0
 11
30.126434
 21
2.1210209999999989
 31
0.0
  0
LINE
  5
22D
  8
0
  6
CONTINUOUS
 62
     2
 10
30.204559
 20
2.4022709999999989
 30
0.0
 11
30.271559
 21
2.4022709999999989
 31
0.0
  0
LINE
  5
22E
  8
0
  6
CONTINUOUS
 62
     2
 10
30.059434
 20
2.4022709999999989
 30
0.0
 11
30.126434
 21
2.4022709999999989
 31
0.0
  0
LINE
  5
22F
  8
0
  6
CONTINUOUS
 62
     2
 10
30.302809000000011
 20
2.4022709999999989
 30
0.0
 11
30.302809000000011
 21
2.1210209999999989
 31
0.0
  0
LINE
  5
230
  8
0
  6
CONTINUOUS
 62
     2
 10
30.459059000000011
 20
2.1880209999999991
 30
0.0
 11
30.459059000000011
 21
2.1210209999999989
 31
0.0
  0
LINE
  5
231
  8
0
  6
CONTINUOUS
 62
     2
 10
30.302809000000011
 20
2.1210209999999989
 30
0.0
 11
30.459059000000011
 21
2.1210209999999989
 31
0.0
  0
LINE
  5
232
  8
0
  6
CONTINUOUS
 62
     2
 10
30.369809
 20
2.1880209999999991
 30
0.0
 11
30.369809
 21
2.4022709999999989
 31
0.0
  0
LINE
  5
233
  8
0
  6
CONTINUOUS
 62
     2
 10
30.369809
 20
2.1880209999999991
 30
0.0
 11
30.459059000000011
 21
2.1880209999999991
 31
0.0
  0
LINE
  5
234
  8
0
  6
CONTINUOUS
 62
     2
 10
30.302809000000011
 20
2.4022709999999989
 30
0.0
 11
30.369809
 21
2.4022709999999989
 31
0.0
  0
LINE
  5
235
  8
0
  6
CONTINUOUS
 62
     2
 10
30.490309
 20
2.1210209999999989
 30
0.0
 11
30.646559
 21
2.1210209999999989
 31
0.0
  0
LINE
  5
236
  8
0
  6
CONTINUOUS
 62
     2
 10
30.646559
 20
2.1880209999999991
 30
0.0
 11
30.646559
 21
2.1210209999999989
 31
0.0
  0
LINE
  5
237
  8
0
  6
CONTINUOUS
 62
     2
 10
30.557309
 20
2.1880209999999991
 30
0.0
 11
30.646559
 21
2.1880209999999991
 31
0.0
  0
LINE
  5
238
  8
0
  6
CONTINUOUS
 62
     2
 10
30.557309
 20
2.2359584999999988
 30
0.0
 11
30.557309
 21
2.1880209999999991
 31
0.0
  0
LINE
  5
239
  8
0
  6
CONTINUOUS
 62
     2
 10
30.557309
 20
2.3352710000000001
 30
0.0
 11
30.646559
 21
2.3352710000000001
 31
0.0
  0
LINE
  5
23A
  8
0
  6
CONTINUOUS
 62
     2
 10
30.490309
 20
2.4022709999999989
 30
0.0
 11
30.490309
 21
2.1210209999999989
 31
0.0
  0
LINE
  5
23B
  8
0
  6
CONTINUOUS
 62
     2
 10
30.646559
 20
2.3352710000000001
 30
0.0
 11
30.646559
 21
2.4022709999999989
 31
0.0
  0
LINE
  5
23C
  8
0
  6
CONTINUOUS
 62
     2
 10
30.490309
 20
2.4022709999999989
 30
0.0
 11
30.646559
 21
2.4022709999999989
 31
0.0
  0
LINE
  5
23D
  8
0
  6
CONTINUOUS
 62
     2
 10
30.557309
 20
2.287333499999999
 30
0.0
 11
30.646559
 21
2.287333499999999
 31
0.0
  0
LINE
  5
23E
  8
0
  6
CONTINUOUS
 62
     2
 10
30.646559
 20
2.287333499999999
 30
0.0
 11
30.646559
 21
2.2359584999999988
 31
0.0
  0
LINE
  5
23F
  8
0
  6
CONTINUOUS
 62
     2
 10
30.557309
 20
2.2359584999999988
 30
0.0
 11
30.646559
 21
2.2359584999999988
 31
0.0
  0
LINE
  5
240
  8
0
  6
CONTINUOUS
 62
     2
 10
30.557309
 20
2.287333499999999
 30
0.0
 11
30.557309
 21
2.3352710000000001
 31
0.0
  0
LINE
  5
241
  8
0
  6
CONTINUOUS
 62
     2
 10
30.677809000000011
 20
2.1210209999999989
 30
0.0
 11
30.677809000000011
 21
2.4022709999999989
 31
0.0
  0
LINE
  5
242
  8
0
  6
CONTINUOUS
 62
     2
 10
30.744809000000011
 20
2.2303959999999989
 30
0.0
 11
30.744809000000011
 21
2.1210209999999989
 31
0.0
  0
ARC
  5
243
  8
0
  6
CONTINUOUS
 62
     2
 10
30.7793715
 20
2.3163334999999989
 30
0.0
 40
0.0859375
 50
304.16794025310003
 51
90.0
  0
LINE
  5
244
  8
0
  6
CONTINUOUS
 62
     2
 10
30.7793715
 20
2.4022709999999989
 30
0.0
 11
30.677809000000011
 21
2.4022709999999989
 31
0.0
  0
LINE
  5
245
  8
0
  6
CONTINUOUS
 62
     2
 10
30.778184
 20
2.3477709999999989
 30
0.0
 11
30.744809000000011
 21
2.3477709999999989
 31
0.0
  0
LINE
  5
246
  8
0
  6
CONTINUOUS
 62
     2
 10
30.8276357616
 20
2.2452292458000001
 30
0.0
 11
30.896559
 21
2.1210209999999989
 31
0.0
  0
LINE
  5
247
  8
0
  6
CONTINUOUS
 62
     2
 10
30.819935052600002
 20
2.1210209999999989
 30
0.0
 11
30.759242792199998
 21
2.2303959999999989
 31
0.0
  0
LINE
  5
248
  8
0
  6
CONTINUOUS
 62
     2
 10
30.677809000000011
 20
2.1210209999999989
 30
0.0
 11
30.744809000000011
 21
2.1210209999999989
 31
0.0
  0
LINE
  5
249
  8
0
  6
CONTINUOUS
 62
     2
 10
30.819935052600002
 20
2.1210209999999989
 30
0.0
 11
30.896559
 21
2.1210209999999989
 31
0.0
  0
LINE
  5
24A
  8
0
  6
CONTINUOUS
 62
     2
 10
30.778184
 20
2.2864584999999988
 30
0.0
 11
30.744809000000011
 21
2.2864584999999988
 31
0.0
  0
LINE
  5
24B
  8
0
  6
CONTINUOUS
 62
     2
 10
30.744809000000011
 20
2.3477709999999989
 30
0.0
 11
30.744809000000011
 21
2.2864584999999988
 31
0.0
  0
LINE
  5
24C
  8
0
  6
CONTINUOUS
 62
     2
 10
30.744809000000011
 20
2.2303959999999989
 30
0.0
 11
30.759242792199998
 21
2.2303959999999989
 31
0.0
  0
POLYLINE
  5
24D
  8
0
  6
CONTINUOUS
 62
     2
 66
     1
 10
0.0
 20
0.0
 30
0.0
  0
VERTEX
  5
505
  8
0
  6
CONTINUOUS
 62
     2
 10
30.896559
 20
2.1210209999999989
 30
0.0
  0
VERTEX
  5
506
  8
0
  6
CONTINUOUS
 62
     2
 10
30.819935052600002
 20
2.1210209999999989
 30
0.0
  0
VERTEX
  5
507
  8
0
  6
CONTINUOUS
 62
     2
 10
30.759242792199998
 20
2.2303959999999989
 30
0.0
  0
VERTEX
  5
508
  8
0
  6
CONTINUOUS
 62
     2
 10
30.744809000000011
 20
2.2303959999999989
 30
0.0
  0
VERTEX
  5
509
  8
0
  6
CONTINUOUS
 62
     2
 10
30.744809000000011
 20
2.1210209999999989
 30
0.0
  0
VERTEX
  5
50A
  8
0
  6
CONTINUOUS
 62
     2
 10
30.677809000000011
 20
2.1210209999999989
 30
0.0
  0
VERTEX
  5
50B
  8
0
  6
CONTINUOUS
 62
     2
 10
30.677809000000011
 20
2.3477709999999989
 30
0.0
  0
VERTEX
  5
50C
  8
0
  6
CONTINUOUS
 62
     2
 10
30.744809000000011
 20
2.3477709999999989
 30
0.0
  0
VERTEX
  5
50D
  8
0
  6
CONTINUOUS
 62
     2
 10
30.744809000000011
 20
2.2864584999999988
 30
0.0
  0
VERTEX
  5
50E
  8
0
  6
CONTINUOUS
 62
     2
 10
30.778184
 20
2.2864584999999988
 30
0.0
  0
VERTEX
  5
50F
  8
0
  6
CONTINUOUS
 62
     2
 10
30.858650134000001
 20
2.2864584999999988
 30
0.0
  0
VERTEX
  5
510
  8
0
  6
CONTINUOUS
 62
     2
 10
30.849768317900001
 20
2.2670431161999991
 30
0.0
  0
VERTEX
  5
511
  8
0
  6
CONTINUOUS
 62
     2
 10
30.8276357616
 20
2.2452292458000001
 30
0.0
  0
VERTEX
  5
512
  8
0
  6
CONTINUOUS
 62
     2
 10
30.896559
 20
2.1210209999999989
 30
0.0
  0
SEQEND
  5
513
  8
0
  6
CONTINUOUS
 62
     2
  0
INSERT
  5
24E
  8
0
  6
CONTINUOUS
 62
     2
  2
*U12
 10
0.0
 20
0.0
 30
0.0
1001
ACAD
1002
{
1000
R14_HATCH_DATA
1000
24E
1011
1.0
1021
0.0
1031
-0.0
1021
0.0
1031
0.0
1011
0.0
1021
0.0
1031
-0.0
1021
1.0
1031
0.0
1011
0.0
1021
0.0
1031
-0.0
1021
0.0
1031
1.0
1040
0.0
1010
0.0
1020
0.0
1030
1.0
1000
SOLID
1070
     1
1070
     1
1071
        1
1071
        1
1071
       13
1070
     1
1040
30.896559
1040
2.1210209999999989
1040
30.819935052600002
1040
2.1210209999999989
1070
     1
1040
30.819935052600002
1040
2.1210209999999989
1040
30.759242792199998
1040
2.2303959999999989
1070
     1
1040
30.759242792199998
1040
2.2303959999999989
1040
30.744809000000011
1040
2.2303959999999989
1070
     1
1040
30.744809000000011
1040
2.2303959999999989
1040
30.744809000000011
1040
2.1210209999999989
1070
     1
1040
30.744809000000011
1040
2.1210209999999989
1040
30.677809000000011
1040
2.1210209999999989
1070
     1
1040
30.677809000000011
1040
2.1210209999999989
1040
30.677809000000011
1040
2.3477709999999989
1070
     1
1040
30.677809000000011
1040
2.3477709999999989
1040
30.744809000000011
1040
2.3477709999999989
1070
     1
1040
30.744809000000011
1040
2.3477709999999989
1040
30.744809000000011
1040
2.2864584999999988
1070
     1
1040
30.744809000000011
1040
2.2864584999999988
1040
30.778184
1040
2.2864584999999988
1070
     1
1040
30.778184
1040
2.2864584999999988
1040
30.858650134000001
1040
2.2864584999999988
1070
     1
1040
30.858650134000001
1040
2.2864584999999988
1040
30.849768317900001
1040
2.2670431161999991
1070
     1
1040
30.849768317900001
1040
2.2670431161999991
1040
30.8276357616
1040
2.2452292458000001
1070
     1
1040
30.8276357616
1040
2.2452292458000001
1040
30.896559
1040
2.1210209999999989
1071
        1
1005
24D
1070
     0
1070
     1
1071
        1
1040
0.0
1040
0.0
1040
0.0
1002
}
  0
POLYLINE
  5
24F
  8
0
  6
CONTINUOUS
 62
     2
 66
     1
 10
0.0
 20
0.0
 30
0.0
  0
VERTEX
  5
53B
  8
0
  6
CONTINUOUS
 62
     2
 10
30.677809000000011
 20
2.3477709999999989
 30
0.0
  0
VERTEX
  5
53C
  8
0
  6
CONTINUOUS
 62
     2
 10
30.677809000000011
 20
2.4022709999999989
 30
0.0
  0
VERTEX
  5
53D
  8
0
  6
CONTINUOUS
 62
     2
 10
30.7793715
 20
2.4022709999999989
 30
0.0
  0
VERTEX
  5
53E
  8
0
  6
CONTINUOUS
 62
     2
 10
30.8099349823
 20
2.3966524109999989
 30
0.0
  0
VERTEX
  5
53F
  8
0
  6
CONTINUOUS
 62
     2
 10
30.836501986999998
 20
2.3805313299000002
 30
0.0
  0
VERTEX
  5
540
  8
0
  6
CONTINUOUS
 62
     2
 10
30.855598615500011
 20
2.356015747599999
 30
0.0
  0
VERTEX
  5
541
  8
0
  6
CONTINUOUS
 62
     2
 10
30.8647277946
 20
2.3263113190000002
 30
0.0
  0
VERTEX
  5
542
  8
0
  6
CONTINUOUS
 62
     2
 10
30.862695794099999
 20
2.2953021917999998
 30
0.0
  0
VERTEX
  5
543
  8
0
  6
CONTINUOUS
 62
     2
 10
30.858650134000001
 20
2.2864584999999988
 30
0.0
  0
VERTEX
  5
544
  8
0
  6
CONTINUOUS
 62
     2
 10
30.778184
 20
2.2864584999999988
 30
0.0
  0
VERTEX
  5
545
  8
0
  6
CONTINUOUS
 62
     2
 10
30.793512124999999
 20
2.290565658699999
 30
0.0
  0
VERTEX
  5
546
  8
0
  6
CONTINUOUS
 62
     2
 10
30.804733091300001
 20
2.3017866250000001
 30
0.0
  0
VERTEX
  5
547
  8
0
  6
CONTINUOUS
 62
     2
 10
30.808840249999999
 20
2.31711475
 30
0.0
  0
VERTEX
  5
548
  8
0
  6
CONTINUOUS
 62
     2
 10
30.804733091300001
 20
2.332442874999999
 30
0.0
  0
VERTEX
  5
549
  8
0
  6
CONTINUOUS
 62
     2
 10
30.793512124999999
 20
2.3436638413000002
 30
0.0
  0
VERTEX
  5
54A
  8
0
  6
CONTINUOUS
 62
     2
 10
30.778184
 20
2.3477709999999989
 30
0.0
  0
VERTEX
  5
54B
  8
0
  6
CONTINUOUS
 62
     2
 10
30.744809000000011
 20
2.3477709999999989
 30
0.0
  0
VERTEX
  5
54C
  8
0
  6
CONTINUOUS
 62
     2
 10
30.677809000000011
 20
2.3477709999999989
 30
0.0
  0
SEQEND
  5
54D
  8
0
  6
CONTINUOUS
 62
     2
  0
INSERT
  5
250
  8
0
  6
CONTINUOUS
 62
     2
  2
*U13
 10
0.0
 20
0.0
 30
0.0
1001
ACAD
1002
{
1000
R14_HATCH_DATA
1000
250
1011
1.0
1021
0.0
1031
-0.0
1021
0.0
1031
0.0
1011
0.0
1021
0.0
1031
-0.0
1021
1.0
1031
0.0
1011
0.0
1021
0.0
1031
-0.0
1021
0.0
1031
1.0
1040
0.0
1010
0.0
1020
0.0
1030
1.0
1000
SOLID
1070
     1
1070
     1
1071
        1
1071
        1
1071
       17
1070
     1
1040
30.677809000000011
1040
2.3477709999999989
1040
30.677809000000011
1040
2.4022709999999989
1070
     1
1040
30.677809000000011
1040
2.4022709999999989
1040
30.7793715
1040
2.4022709999999989
1070
     1
1040
30.7793715
1040
2.4022709999999989
1040
30.8099349823
1040
2.3966524109999989
1070
     1
1040
30.8099349823
1040
2.3966524109999989
1040
30.836501986999998
1040
2.3805313299000002
1070
     1
1040
30.836501986999998
1040
2.3805313299000002
1040
30.855598615500011
1040
2.356015747599999
1070
     1
1040
30.855598615500011
1040
2.356015747599999
1040
30.8647277946
1040
2.3263113190000002
1070
     1
1040
30.8647277946
1040
2.3263113190000002
1040
30.862695794099999
1040
2.2953021917999998
1070
     1
1040
30.862695794099999
1040
2.2953021917999998
1040
30.858650134000001
1040
2.2864584999999988
1070
     1
1040
30.858650134000001
1040
2.2864584999999988
1040
30.778184
1040
2.2864584999999988
1070
     1
1040
30.778184
1040
2.2864584999999988
1040
30.793512124999999
1040
2.290565658699999
1070
     1
1040
30.793512124999999
1040
2.290565658699999
1040
30.804733091300001
1040
2.3017866250000001
1070
     1
1040
30.804733091300001
1040
2.3017866250000001
1040
30.808840249999999
1040
2.31711475
1070
     1
1040
30.808840249999999
1040
2.31711475
1040
30.804733091300001
1040
2.332442874999999
1070
     1
1040
30.804733091300001
1040
2.332442874999999
1040
30.793512124999999
1040
2.3436638413000002
1070
     1
1040
30.793512124999999
1040
2.3436638413000002
1040
30.778184
1040
2.3477709999999989
1070
     1
1040
30.778184
1040
2.3477709999999989
1040
30.744809000000011
1040
2.3477709999999989
1070
     1
1040
30.744809000000011
1040
2.3477709999999989
1040
30.677809000000011
1040
2.3477709999999989
1071
        1
1005
24F
1070
     0
1070
     1
1071
        1
1040
0.0
1040
0.0
1040
0.0
1002
}
  0
POLYLINE
  5
251
  8
0
  6
CONTINUOUS
 62
     2
 66
     1
 10
0.0
 20
0.0
 30
0.0
  0
VERTEX
  5
589
  8
0
  6
CONTINUOUS
 62
     2
 10
29.595184
 20
2.1210209999999989
 30
0.0
  0
VERTEX
  5
58A
  8
0
  6
CONTINUOUS
 62
     2
 10
29.528184
 20
2.1210209999999989
 30
0.0
  0
VERTEX
  5
58B
  8
0
  6
CONTINUOUS
 62
     2
 10
29.528184
 20
2.4022709999999989
 30
0.0
  0
VERTEX
  5
58C
  8
0
  6
CONTINUOUS
 62
     2
 10
29.595184
 20
2.4022709999999989
 30
0.0
  0
VERTEX
  5
58D
  8
0
  6
CONTINUOUS
 62
     2
 10
29.595184
 20
2.3140233086999991
 30
0.0
  0
VERTEX
  5
58E
  8
0
  6
CONTINUOUS
 62
     2
 10
29.683431691300001
 20
2.4022709999999989
 30
0.0
  0
VERTEX
  5
58F
  8
0
  6
CONTINUOUS
 62
     2
 10
29.778184
 20
2.4022709999999989
 30
0.0
  0
VERTEX
  5
590
  8
0
  6
CONTINUOUS
 62
     2
 10
29.65318400000001
 20
2.2772709999999989
 30
0.0
  0
VERTEX
  5
591
  8
0
  6
CONTINUOUS
 62
     2
 10
29.778184
 20
2.1210209999999989
 30
0.0
  0
VERTEX
  5
592
  8
0
  6
CONTINUOUS
 62
     2
 10
29.692382135199999
 20
2.1210209999999989
 30
0.0
  0
VERTEX
  5
593
  8
0
  6
CONTINUOUS
 62
     2
 10
29.595184
 20
2.242518668999999
 30
0.0
  0
VERTEX
  5
594
  8
0
  6
CONTINUOUS
 62
     2
 10
29.595184
 20
2.1210209999999989
 30
0.0
  0
SEQEND
  5
595
  8
0
  6
CONTINUOUS
 62
     2
  0
INSERT
  5
252
  8
0
  6
CONTINUOUS
 62
     2
  2
*U14
 10
0.0
 20
0.0
 30
0.0
1001
ACAD
1002
{
1000
R14_HATCH_DATA
1000
252
1011
1.0
1021
0.0
1031
-0.0
1021
0.0
1031
0.0
1011
0.0
1021
0.0
1031
-0.0
1021
1.0
1031
0.0
1011
0.0
1021
0.0
1031
-0.0
1021
0.0
1031
1.0
1040
0.0
1010
0.0
1020
0.0
1030
1.0
1000
SOLID
1070
     1
1070
     1
1071
        1
1071
        1
1071
       11
1070
     1
1040
29.595184
1040
2.1210209999999989
1040
29.528184
1040
2.1210209999999989
1070
     1
1040
29.528184
1040
2.1210209999999989
1040
29.528184
1040
2.4022709999999989
1070
     1
1040
29.528184
1040
2.4022709999999989
1040
29.595184
1040
2.4022709999999989
1070
     1
1040
29.595184
1040
2.4022709999999989
1040
29.595184
1040
2.3140233086999991
1070
     1
1040
29.595184
1040
2.3140233086999991
1040
29.683431691300001
1040
2.4022709999999989
1070
     1
1040
29.683431691300001
1040
2.4022709999999989
1040
29.778184
1040
2.4022709999999989
1070
     1
1040
29.778184
1040
2.4022709999999989
1040
29.65318400000001
1040
2.2772709999999989
1070
     1
1040
29.65318400000001
1040
2.2772709999999989
1040
29.778184
1040
2.1210209999999989
1070
     1
1040
29.778184
1040
2.1210209999999989
1040
29.692382135199999
1040
2.1210209999999989
1070
     1
1040
29.692382135199999
1040
2.1210209999999989
1040
29.595184
1040
2.242518668999999
1070
     1
1040
29.595184
1040
2.242518668999999
1040
29.595184
1040
2.1210209999999989
1071
        1
1005
251
1070
     0
1070
     1
1071
        1
1040
0.0
1040
0.0
1040
0.0
1002
}
  0
POLYLINE
  5
253
  8
0
  6
CONTINUOUS
 62
     2
 66
     1
 10
0.0
 20
0.0
 30
0.0
  0
VERTEX
  5
5B7
  8
0
  6
CONTINUOUS
 62
     2
 10
29.88755900000001
 20
2.1210209999999989
 30
0.0
  0
VERTEX
  5
5B8
  8
0
  6
CONTINUOUS
 62
     2
 10
29.844103485200002
 20
2.1279036773999991
 30
0.0
  0
VERTEX
  5
5B9
  8
0
  6
CONTINUOUS
 62
     2
 10
29.8049016989
 20
2.1478779852000001
 30
0.0
  0
VERTEX
  5
5BA
  8
0
  6
CONTINUOUS
 62
     2
 10
29.773790985200002
 20
2.1789886989
 30
0.0
  0
VERTEX
  5
5BB
  8
0
  6
CONTINUOUS
 62
     2
 10
29.7538166774
 20
2.2181904852000001
 30
0.0
  0
VERTEX
  5
5BC
  8
0
  6
CONTINUOUS
 62
     2
 10
29.74693400000001
 20
2.2616459999999989
 30
0.0
  0
VERTEX
  5
5BD
  8
0
  6
CONTINUOUS
 62
     2
 10
29.7538166774
 20
2.3051015148
 30
0.0
  0
VERTEX
  5
5BE
  8
0
  6
CONTINUOUS
 62
     2
 10
29.769028770599999
 20
2.3349569287
 30
0.0
  0
VERTEX
  5
5BF
  8
0
  6
CONTINUOUS
 62
     2
 10
29.894352258000001
 20
2.3349569287
 30
0.0
  0
VERTEX
  5
5C0
  8
0
  6
CONTINUOUS
 62
     2
 10
29.867410562399989
 20
2.3324604130000002
 30
0.0
  0
VERTEX
  5
5C1
  8
0
  6
CONTINUOUS
 62
     2
 10
29.8431900249
 20
2.3204000183999991
 30
0.0
  0
VERTEX
  5
5C2
  8
0
  6
CONTINUOUS
 62
     2
 10
29.824961763400001
 20
2.3004045679999998
 30
0.0
  0
VERTEX
  5
5C3
  8
0
  6
CONTINUOUS
 62
     2
 10
29.8151876055
 20
2.2751745581999989
 30
0.0
  0
VERTEX
  5
5C4
  8
0
  6
CONTINUOUS
 62
     2
 10
29.8151876055
 20
2.2481174417999998
 30
0.0
  0
VERTEX
  5
5C5
  8
0
  6
CONTINUOUS
 62
     2
 10
29.824961763400001
 20
2.2228874319999989
 30
0.0
  0
VERTEX
  5
5C6
  8
0
  6
CONTINUOUS
 62
     2
 10
29.8431900249
 20
2.2028919816000001
 30
0.0
  0
VERTEX
  5
5C7
  8
0
  6
CONTINUOUS
 62
     2
 10
29.867410562399989
 20
2.190831586999999
 30
0.0
  0
VERTEX
  5
5C8
  8
0
  6
CONTINUOUS
 62
     2
 10
29.894352258000001
 20
2.1883350713
 30
0.0
  0
VERTEX
  5
5C9
  8
0
  6
CONTINUOUS
 62
     2
 10
30.006089229400001
 20
2.1883350713
 30
0.0
  0
VERTEX
  5
5CA
  8
0
  6
CONTINUOUS
 62
     2
 10
30.001327014800001
 20
2.1789886989
 30
0.0
  0
VERTEX
  5
5CB
  8
0
  6
CONTINUOUS
 62
     2
 10
29.970216301099999
 20
2.1478779852000001
 30
0.0
  0
VERTEX
  5
5CC
  8
0
  6
CONTINUOUS
 62
     2
 10
29.931014514800001
 20
2.1279036773999991
 30
0.0
  0
VERTEX
  5
5CD
  8
0
  6
CONTINUOUS
 62
     2
 10
29.88755900000001
 20
2.1210209999999989
 30
0.0
  0
SEQEND
  5
5CE
  8
0
  6
CONTINUOUS
 62
     2
  0
INSERT
  5
254
  8
0
  6
CONTINUOUS
 62
     2
  2
*U15
 10
0.0
 20
0.0
 30
0.0
1001
ACAD
1002
{
1000
R14_HATCH_DATA
1000
254
1011
1.0
1021
0.0
1031
-0.0
1021
0.0
1031
0.0
1011
0.0
1021
0.0
1031
-0.0
1021
1.0
1031
0.0
1011
0.0
1021
0.0
1031
-0.0
1021
0.0
1031
1.0
1040
0.0
1010
0.0
1020
0.0
1030
1.0
1000
SOLID
1070
     1
1070
     1
1071
        1
1071
        1
1071
       22
1070
     1
1040
29.88755900000001
1040
2.1210209999999989
1040
29.844103485200002
1040
2.1279036773999991
1070
     1
1040
29.844103485200002
1040
2.1279036773999991
1040
29.8049016989
1040
2.1478779852000001
1070
     1
1040
29.8049016989
1040
2.1478779852000001
1040
29.773790985200002
1040
2.1789886989
1070
     1
1040
29.773790985200002
1040
2.1789886989
1040
29.7538166774
1040
2.2181904852000001
1070
     1
1040
29.7538166774
1040
2.2181904852000001
1040
29.74693400000001
1040
2.2616459999999989
1070
     1
1040
29.74693400000001
1040
2.2616459999999989
1040
29.7538166774
1040
2.3051015148
1070
     1
1040
29.7538166774
1040
2.3051015148
1040
29.769028770599999
1040
2.3349569287
1070
     1
1040
29.769028770599999
1040
2.3349569287
1040
29.894352258000001
1040
2.3349569287
1070
     1
1040
29.894352258000001
1040
2.3349569287
1040
29.867410562399989
1040
2.3324604130000002
1070
     1
1040
29.867410562399989
1040
2.3324604130000002
1040
29.8431900249
1040
2.3204000183999991
1070
     1
1040
29.8431900249
1040
2.3204000183999991
1040
29.824961763400001
1040
2.3004045679999998
1070
     1
1040
29.824961763400001
1040
2.3004045679999998
1040
29.8151876055
1040
2.2751745581999989
1070
     1
1040
29.8151876055
1040
2.2751745581999989
1040
29.8151876055
1040
2.2481174417999998
1070
     1
1040
29.8151876055
1040
2.2481174417999998
1040
29.824961763400001
1040
2.2228874319999989
1070
     1
1040
29.824961763400001
1040
2.2228874319999989
1040
29.8431900249
1040
2.2028919816000001
1070
     1
1040
29.8431900249
1040
2.2028919816000001
1040
29.867410562399989
1040
2.190831586999999
1070
     1
1040
29.867410562399989
1040
2.190831586999999
1040
29.894352258000001
1040
2.1883350713
1070
     1
1040
29.894352258000001
1040
2.1883350713
1040
30.006089229400001
1040
2.1883350713
1070
     1
1040
30.006089229400001
1040
2.1883350713
1040
30.001327014800001
1040
2.1789886989
1070
     1
1040
30.001327014800001
1040
2.1789886989
1040
29.970216301099999
1040
2.1478779852000001
1070
     1
1040
29.970216301099999
1040
2.1478779852000001
1040
29.931014514800001
1040
2.1279036773999991
1070
     1
1040
29.931014514800001
1040
2.1279036773999991
1040
29.88755900000001
1040
2.1210209999999989
1071
        1
1005
253
1070
     0
1070
     1
1071
        1
1040
0.0
1040
0.0
1040
0.0
1002
}
  0
POLYLINE
  5
255
  8
0
  6
CONTINUOUS
 62
     2
 66
     1
 10
0.0
 20
0.0
 30
0.0
  0
VERTEX
  5
615
  8
0
  6
CONTINUOUS
 62
     2
 10
29.769028770599999
 20
2.3349569287
 30
0.0
  0
VERTEX
  5
616
  8
0
  6
CONTINUOUS
 62
     2
 10
29.773790985200002
 20
2.3443033011000001
 30
0.0
  0
VERTEX
  5
617
  8
0
  6
CONTINUOUS
 62
     2
 10
29.8049016989
 20
2.3754140148
 30
0.0
  0
VERTEX
  5
618
  8
0
  6
CONTINUOUS
 62
     2
 10
29.844103485200002
 20
2.3953883226000001
 30
0.0
  0
VERTEX
  5
619
  8
0
  6
CONTINUOUS
 62
     2
 10
29.88755900000001
 20
2.4022709999999989
 30
0.0
  0
VERTEX
  5
61A
  8
0
  6
CONTINUOUS
 62
     2
 10
29.931014514800001
 20
2.3953883226000001
 30
0.0
  0
VERTEX
  5
61B
  8
0
  6
CONTINUOUS
 62
     2
 10
29.970216301099999
 20
2.3754140148
 30
0.0
  0
VERTEX
  5
61C
  8
0
  6
CONTINUOUS
 62
     2
 10
30.001327014800001
 20
2.3443033011000001
 30
0.0
  0
VERTEX
  5
61D
  8
0
  6
CONTINUOUS
 62
     2
 10
30.021301322599999
 20
2.3051015148
 30
0.0
  0
VERTEX
  5
61E
  8
0
  6
CONTINUOUS
 62
     2
 10
30.02818400000001
 20
2.2616459999999989
 30
0.0
  0
VERTEX
  5
61F
  8
0
  6
CONTINUOUS
 62
     2
 10
30.021301322599999
 20
2.2181904852000001
 30
0.0
  0
VERTEX
  5
620
  8
0
  6
CONTINUOUS
 62
     2
 10
30.006089229400001
 20
2.1883350713
 30
0.0
  0
VERTEX
  5
621
  8
0
  6
CONTINUOUS
 62
     2
 10
29.894352258000001
 20
2.1883350713
 30
0.0
  0
VERTEX
  5
622
  8
0
  6
CONTINUOUS
 62
     2
 10
29.920376486399999
 20
2.1957396026999998
 30
0.0
  0
VERTEX
  5
623
  8
0
  6
CONTINUOUS
 62
     2
 10
29.941968531499999
 20
2.2120451582
 30
0.0
  0
VERTEX
  5
624
  8
0
  6
CONTINUOUS
 62
     2
 10
29.9562122679
 20
2.2350495822999989
 30
0.0
  0
VERTEX
  5
625
  8
0
  6
CONTINUOUS
 62
     2
 10
29.961183999999999
 20
2.2616459999999989
 30
0.0
  0
VERTEX
  5
626
  8
0
  6
CONTINUOUS
 62
     2
 10
29.9562122679
 20
2.2882424176999998
 30
0.0
  0
VERTEX
  5
627
  8
0
  6
CONTINUOUS
 62
     2
 10
29.941968531499999
 20
2.3112468418000001
 30
0.0
  0
VERTEX
  5
628
  8
0
  6
CONTINUOUS
 62
     2
 10
29.920376486399999
 20
2.327552397299999
 30
0.0
  0
VERTEX
  5
629
  8
0
  6
CONTINUOUS
 62
     2
 10
29.894352258000001
 20
2.3349569287
 30
0.0
  0
VERTEX
  5
62A
  8
0
  6
CONTINUOUS
 62
     2
 10
29.769028770599999
 20
2.3349569287
 30
0.0
  0
SEQEND
  5
62B
  8
0
  6
CONTINUOUS
 62
     2
  0
INSERT
  5
256
  8
0
  6
CONTINUOUS
 62
     2
  2
*U16
 10
0.0
 20
0.0
 30
0.0
1001
ACAD
1002
{
1000
R14_HATCH_DATA
1000
256
1011
1.0
1021
0.0
1031
-0.0
1021
0.0
1031
0.0
1011
0.0
1021
0.0
1031
-0.0
1021
1.0
1031
0.0
1011
0.0
1021
0.0
1031
-0.0
1021
0.0
1031
1.0
1040
0.0
1010
0.0
1020
0.0
1030
1.0
1000
SOLID
1070
     1
1070
     1
1071
        1
1071
        1
1071
       21
1070
     1
1040
29.769028770599999
1040
2.3349569287
1040
29.773790985200002
1040
2.3443033011000001
1070
     1
1040
29.773790985200002
1040
2.3443033011000001
1040
29.8049016989
1040
2.3754140148
1070
     1
1040
29.8049016989
1040
2.3754140148
1040
29.844103485200002
1040
2.3953883226000001
1070
     1
1040
29.844103485200002
1040
2.3953883226000001
1040
29.88755900000001
1040
2.4022709999999989
1070
     1
1040
29.88755900000001
1040
2.4022709999999989
1040
29.931014514800001
1040
2.3953883226000001
1070
     1
1040
29.931014514800001
1040
2.3953883226000001
1040
29.970216301099999
1040
2.3754140148
1070
     1
1040
29.970216301099999
1040
2.3754140148
1040
30.001327014800001
1040
2.3443033011000001
1070
     1
1040
30.001327014800001
1040
2.3443033011000001
1040
30.021301322599999
1040
2.3051015148
1070
     1
1040
30.021301322599999
1040
2.3051015148
1040
30.02818400000001
1040
2.2616459999999989
1070
     1
1040
30.02818400000001
1040
2.2616459999999989
1040
30.021301322599999
1040
2.2181904852000001
1070
     1
1040
30.021301322599999
1040
2.2181904852000001
1040
30.006089229400001
1040
2.1883350713
1070
     1
1040
30.006089229400001
1040
2.1883350713
1040
29.894352258000001
1040
2.1883350713
1070
     1
1040
29.894352258000001
1040
2.1883350713
1040
29.920376486399999
1040
2.1957396026999998
1070
     1
1040
29.920376486399999
1040
2.1957396026999998
1040
29.941968531499999
1040
2.2120451582
1070
     1
1040
29.941968531499999
1040
2.2120451582
1040
29.9562122679
1040
2.2350495822999989
1070
     1
1040
29.9562122679
1040
2.2350495822999989
1040
29.961183999999999
1040
2.2616459999999989
1070
     1
1040
29.961183999999999
1040
2.2616459999999989
1040
29.9562122679
1040
2.2882424176999998
1070
     1
1040
29.9562122679
1040
2.2882424176999998
1040
29.941968531499999
1040
2.3112468418000001
1070
     1
1040
29.941968531499999
1040
2.3112468418000001
1040
29.920376486399999
1040
2.327552397299999
1070
     1
1040
29.920376486399999
1040
2.327552397299999
1040
29.894352258000001
1040
2.3349569287
1070
     1
1040
29.894352258000001
1040
2.3349569287
1040
29.769028770599999
1040
2.3349569287
1071
        1
1005
255
1070
     0
1070
     1
1071
        1
1040
0.0
1040
0.0
1040
0.0
1002
}
  0
POLYLINE
  5
257
  8
0
  6
CONTINUOUS
 62
     2
 66
     1
 10
0.0
 20
0.0
 30
0.0
  0
VERTEX
  5
66A
  8
0
  6
CONTINUOUS
 62
     2
 10
30.126434
 20
2.1210209999999989
 30
0.0
  0
VERTEX
  5
66B
  8
0
  6
CONTINUOUS
 62
     2
 10
30.059434
 20
2.1210209999999989
 30
0.0
  0
VERTEX
  5
66C
  8
0
  6
CONTINUOUS
 62
     2
 10
30.059434
 20
2.4022709999999989
 30
0.0
  0
VERTEX
  5
66D
  8
0
  6
CONTINUOUS
 62
     2
 10
30.126434
 20
2.4022709999999989
 30
0.0
  0
VERTEX
  5
66E
  8
0
  6
CONTINUOUS
 62
     2
 10
30.126434
 20
2.310770999999999
 30
0.0
  0
VERTEX
  5
66F
  8
0
  6
CONTINUOUS
 62
     2
 10
30.204559
 20
2.310770999999999
 30
0.0
  0
VERTEX
  5
670
  8
0
  6
CONTINUOUS
 62
     2
 10
30.204559
 20
2.4022709999999989
 30
0.0
  0
VERTEX
  5
671
  8
0
  6
CONTINUOUS
 62
     2
 10
30.271559
 20
2.4022709999999989
 30
0.0
  0
VERTEX
  5
672
  8
0
  6
CONTINUOUS
 62
     2
 10
30.271559
 20
2.1210209999999989
 30
0.0
  0
VERTEX
  5
673
  8
0
  6
CONTINUOUS
 62
     2
 10
30.204559
 20
2.1210209999999989
 30
0.0
  0
VERTEX
  5
674
  8
0
  6
CONTINUOUS
 62
     2
 10
30.204559
 20
2.2437709999999988
 30
0.0
  0
VERTEX
  5
675
  8
0
  6
CONTINUOUS
 62
     2
 10
30.126434
 20
2.2437709999999988
 30
0.0
  0
VERTEX
  5
676
  8
0
  6
CONTINUOUS
 62
     2
 10
30.126434
 20
2.1210209999999989
 30
0.0
  0
SEQEND
  5
677
  8
0
  6
CONTINUOUS
 62
     2
  0
INSERT
  5
258
  8
0
  6
CONTINUOUS
 62
     2
  2
*U17
 10
0.0
 20
0.0
 30
0.0
1001
ACAD
1002
{
1000
R14_HATCH_DATA
1000
258
1011
1.0
1021
0.0
1031
-0.0
1021
0.0
1031
0.0
1011
0.0
1021
0.0
1031
-0.0
1021
1.0
1031
0.0
1011
0.0
1021
0.0
1031
-0.0
1021
0.0
1031
1.0
1040
0.0
1010
0.0
1020
0.0
1030
1.0
1000
SOLID
1070
     1
1070
     1
1071
        1
1071
        1
1071
       12
1070
     1
1040
30.126434
1040
2.1210209999999989
1040
30.059434
1040
2.1210209999999989
1070
     1
1040
30.059434
1040
2.1210209999999989
1040
30.059434
1040
2.4022709999999989
1070
     1
1040
30.059434
1040
2.4022709999999989
1040
30.126434
1040
2.4022709999999989
1070
     1
1040
30.126434
1040
2.4022709999999989
1040
30.126434
1040
2.310770999999999
1070
     1
1040
30.126434
1040
2.310770999999999
1040
30.204559
1040
2.310770999999999
1070
     1
1040
30.204559
1040
2.310770999999999
1040
30.204559
1040
2.4022709999999989
1070
     1
1040
30.204559
1040
2.4022709999999989
1040
30.271559
1040
2.4022709999999989
1070
     1
1040
30.271559
1040
2.4022709999999989
1040
30.271559
1040
2.1210209999999989
1070
     1
1040
30.271559
1040
2.1210209999999989
1040
30.204559
1040
2.1210209999999989
1070
     1
1040
30.204559
1040
2.1210209999999989
1040
30.204559
1040
2.2437709999999988
1070
     1
1040
30.204559
1040
2.2437709999999988
1040
30.126434
1040
2.2437709999999988
1070
     1
1040
30.126434
1040
2.2437709999999988
1040
30.126434
1040
2.1210209999999989
1071
        1
1005
257
1070
     0
1070
     1
1071
        1
1040
0.0
1040
0.0
1040
0.0
1002
}
  0
POLYLINE
  5
259
  8
0
  6
CONTINUOUS
 62
     2
 66
     1
 10
0.0
 20
0.0
 30
0.0
  0
VERTEX
  5
69B
  8
0
  6
CONTINUOUS
 62
     2
 10
30.459059000000011
 20
2.1210209999999989
 30
0.0
  0
VERTEX
  5
69C
  8
0
  6
CONTINUOUS
 62
     2
 10
30.302809000000011
 20
2.1210209999999989
 30
0.0
  0
VERTEX
  5
69D
  8
0
  6
CONTINUOUS
 62
     2
 10
30.302809000000011
 20
2.4022709999999989
 30
0.0
  0
VERTEX
  5
69E
  8
0
  6
CONTINUOUS
 62
     2
 10
30.369809
 20
2.4022709999999989
 30
0.0
  0
VERTEX
  5
69F
  8
0
  6
CONTINUOUS
 62
     2
 10
30.369809
 20
2.1880209999999991
 30
0.0
  0
VERTEX
  5
6A0
  8
0
  6
CONTINUOUS
 62
     2
 10
30.459059000000011
 20
2.1880209999999991
 30
0.0
  0
VERTEX
  5
6A1
  8
0
  6
CONTINUOUS
 62
     2
 10
30.459059000000011
 20
2.1210209999999989
 30
0.0
  0
SEQEND
  5
6A2
  8
0
  6
CONTINUOUS
 62
     2
  0
INSERT
  5
25A
  8
0
  6
CONTINUOUS
 62
     2
  2
*U18
 10
0.0
 20
0.0
 30
0.0
1001
ACAD
1002
{
1000
R14_HATCH_DATA
1000
25A
1011
1.0
1021
0.0
1031
-0.0
1021
0.0
1031
0.0
1011
0.0
1021
0.0
1031
-0.0
1021
1.0
1031
0.0
1011
0.0
1021
0.0
1031
-0.0
1021
0.0
1031
1.0
1040
0.0
1010
0.0
1020
0.0
1030
1.0
1000
SOLID
1070
     1
1070
     1
1071
        1
1071
        1
1071
        6
1070
     1
1040
30.459059000000011
1040
2.1210209999999989
1040
30.302809000000011
1040
2.1210209999999989
1070
     1
1040
30.302809000000011
1040
2.1210209999999989
1040
30.302809000000011
1040
2.4022709999999989
1070
     1
1040
30.302809000000011
1040
2.4022709999999989
1040
30.369809
1040
2.4022709999999989
1070
     1
1040
30.369809
1040
2.4022709999999989
1040
30.369809
1040
2.1880209999999991
1070
     1
1040
30.369809
1040
2.1880209999999991
1040
30.459059000000011
1040
2.1880209999999991
1070
     1
1040
30.459059000000011
1040
2.1880209999999991
1040
30.459059000000011
1040
2.1210209999999989
1071
        1
1005
259
1070
     0
1070
     1
1071
        1
1040
0.0
1040
0.0
1040
0.0
1002
}
  0
POLYLINE
  5
25B
  8
0
  6
CONTINUOUS
 62
     2
 66
     1
 10
0.0
 20
0.0
 30
0.0
  0
VERTEX
  5
6B4
  8
0
  6
CONTINUOUS
 62
     2
 10
30.646559
 20
2.1210209999999989
 30
0.0
  0
VERTEX
  5
6B5
  8
0
  6
CONTINUOUS
 62
     2
 10
30.490309
 20
2.1210209999999989
 30
0.0
  0
VERTEX
  5
6B6
  8
0
  6
CONTINUOUS
 62
     2
 10
30.490309
 20
2.4022709999999989
 30
0.0
  0
VERTEX
  5
6B7
  8
0
  6
CONTINUOUS
 62
     2
 10
30.646559
 20
2.4022709999999989
 30
0.0
  0
VERTEX
  5
6B8
  8
0
  6
CONTINUOUS
 62
     2
 10
30.646559
 20
2.3352710000000001
 30
0.0
  0
VERTEX
  5
6B9
  8
0
  6
CONTINUOUS
 62
     2
 10
30.557309
 20
2.3352710000000001
 30
0.0
  0
VERTEX
  5
6BA
  8
0
  6
CONTINUOUS
 62
     2
 10
30.557309
 20
2.287333499999999
 30
0.0
  0
VERTEX
  5
6BB
  8
0
  6
CONTINUOUS
 62
     2
 10
30.646559
 20
2.287333499999999
 30
0.0
  0
VERTEX
  5
6BC
  8
0
  6
CONTINUOUS
 62
     2
 10
30.646559
 20
2.2359584999999988
 30
0.0
  0
VERTEX
  5
6BD
  8
0
  6
CONTINUOUS
 62
     2
 10
30.557309
 20
2.2359584999999988
 30
0.0
  0
VERTEX
  5
6BE
  8
0
  6
CONTINUOUS
 62
     2
 10
30.557309
 20
2.1880209999999991
 30
0.0
  0
VERTEX
  5
6BF
  8
0
  6
CONTINUOUS
 62
     2
 10
30.646559
 20
2.1880209999999991
 30
0.0
  0
VERTEX
  5
6C0
  8
0
  6
CONTINUOUS
 62
     2
 10
30.646559
 20
2.1210209999999989
 30
0.0
  0
SEQEND
  5
6C1
  8
0
  6
CONTINUOUS
 62
     2
  0
INSERT
  5
25C
  8
0
  6
CONTINUOUS
 62
     2
  2
*U19
 10
0.0
 20
0.0
 30
0.0
1001
ACAD
1002
{
1000
R14_HATCH_DATA
1000
25C
1011
1.0
1021
0.0
1031
-0.0
1021
0.0
1031
0.0
1011
0.0
1021
0.0
1031
-0.0
1021
1.0
1031
0.0
1011
0.0
1021
0.0
1031
-0.0
1021
0.0
1031
1.0
1040
0.0
1010
0.0
1020
0.0
1030
1.0
1000
SOLID
1070
     1
1070
     1
1071
        1
1071
        1
1071
       12
1070
     1
1040
30.646559
1040
2.1210209999999989
1040
30.490309
1040
2.1210209999999989
1070
     1
1040
30.490309
1040
2.1210209999999989
1040
30.490309
1040
2.4022709999999989
1070
     1
1040
30.490309
1040
2.4022709999999989
1040
30.646559
1040
2.4022709999999989
1070
     1
1040
30.646559
1040
2.4022709999999989
1040
30.646559
1040
2.3352710000000001
1070
     1
1040
30.646559
1040
2.3352710000000001
1040
30.557309
1040
2.3352710000000001
1070
     1
1040
30.557309
1040
2.3352710000000001
1040
30.557309
1040
2.287333499999999
1070
     1
1040
30.557309
1040
2.287333499999999
1040
30.646559
1040
2.287333499999999
1070
     1
1040
30.646559
1040
2.287333499999999
1040
30.646559
1040
2.2359584999999988
1070
     1
1040
30.646559
1040
2.2359584999999988
1040
30.557309
1040
2.2359584999999988
1070
     1
1040
30.557309
1040
2.2359584999999988
1040
30.557309
1040
2.1880209999999991
1070
     1
1040
30.557309
1040
2.1880209999999991
1040
30.646559
1040
2.1880209999999991
1070
     1
1040
30.646559
1040
2.1880209999999991
1040
30.646559
1040
2.1210209999999989
1071
        1
1005
25B
1070
     0
1070
     1
1071
        1
1040
0.0
1040
0.0
1040
0.0
1002
}
  0
ENDBLK
  5
25D
  8
0
  6
BYBLOCK
 62
     0
  0
BLOCK
  8
DEFAULT_2
  6
HIDDEN
 62
     8
  2
C_ARROW_BL1
 70
     0
 10
17.0
 20
21.774999999999999
 30
0.0
  3
C_ARROW_BL1
  1

  0
LINE
  5
25F
  8
DEFAULT_2
  6
HIDDEN
 62
     8
 10
17.0
 20
21.587499999999999
 30
0.0
 11
17.09375
 21
21.774999999999999
 31
0.0
  0
LINE
  5
260
  8
DEFAULT_2
  6
HIDDEN
 62
     8
 10
17.0
 20
21.587499999999999
 30
0.0
 11
16.90625
 21
21.774999999999999
 31
0.0
  0
LINE
  5
261
  8
DEFAULT_2
  6
HIDDEN
 62
     8
 10
16.9765625
 20
21.774999999999999
 30
0.0
 11
16.90625
 21
21.774999999999999
 31
0.0
  0
LINE
  5
262
  8
DEFAULT_2
  6
HIDDEN
 62
     8
 10
16.9765625
 20
21.962499999999999
 30
0.0
 11
16.9765625
 21
21.774999999999999
 31
0.0
  0
LINE
  5
263
  8
DEFAULT_2
  6
HIDDEN
 62
     8
 10
16.9765625
 20
21.962499999999999
 30
0.0
 11
17.0234375
 21
21.962499999999999
 31
0.0
  0
LINE
  5
264
  8
DEFAULT_2
  6
HIDDEN
 62
     8
 10
17.0234375
 20
21.774999999999999
 30
0.0
 11
17.0234375
 21
21.962499999999999
 31
0.0
  0
LINE
  5
265
  8
DEFAULT_2
  6
HIDDEN
 62
     8
 10
17.09375
 20
21.774999999999999
 30
0.0
 11
17.0234375
 21
21.774999999999999
 31
0.0
  0
POLYLINE
  5
266
  8
DEFAULT_2
  6
HIDDEN
 62
     8
 66
     1
 10
0.0
 20
0.0
 30
0.0
  0
VERTEX
  5
6E5
  8
DEFAULT_2
  6
HIDDEN
 62
     8
 10
17.0
 20
21.587499999999999
 30
0.0
  0
VERTEX
  5
6E6
  8
DEFAULT_2
  6
HIDDEN
 62
     8
 10
16.90625
 20
21.774999999999999
 30
0.0
  0
VERTEX
  5
6E7
  8
DEFAULT_2
  6
HIDDEN
 62
     8
 10
16.9765625
 20
21.774999999999999
 30
0.0
  0
VERTEX
  5
6E8
  8
DEFAULT_2
  6
HIDDEN
 62
     8
 10
16.9765625
 20
21.962499999999999
 30
0.0
  0
VERTEX
  5
6E9
  8
DEFAULT_2
  6
HIDDEN
 62
     8
 10
17.0234375
 20
21.962499999999999
 30
0.0
  0
VERTEX
  5
6EA
  8
DEFAULT_2
  6
HIDDEN
 62
     8
 10
17.0234375
 20
21.774999999999999
 30
0.0
  0
VERTEX
  5
6EB
  8
DEFAULT_2
  6
HIDDEN
 62
     8
 10
17.09375
 20
21.774999999999999
 30
0.0
  0
VERTEX
  5
6EC
  8
DEFAULT_2
  6
HIDDEN
 62
     8
 10
17.0
 20
21.587499999999999
 30
0.0
  0
SEQEND
  5
6ED
  8
DEFAULT_2
  6
HIDDEN
 62
     8
  0
INSERT
  5
267
  8
DEFAULT_2
  6
CONTINUOUS
 62
     8
  2
*U20
 10
0.0
 20
0.0
 30
0.0
1001
ACAD
1002
{
1000
R14_HATCH_DATA
1000
267
1011
1.0
1021
0.0
1031
-0.0
1021
0.0
1031
0.0
1011
0.0
1021
0.0
1031
-0.0
1021
1.0
1031
0.0
1011
0.0
1021
0.0
1031
-0.0
1021
0.0
1031
1.0
1040
0.0
1010
0.0
1020
0.0
1030
1.0
1000
SOLID
1070
     1
1070
     1
1071
        1
1071
        1
1071
        7
1070
     1
1040
17.0
1040
21.587499999999999
1040
16.90625
1040
21.774999999999999
1070
     1
1040
16.90625
1040
21.774999999999999
1040
16.9765625
1040
21.774999999999999
1070
     1
1040
16.9765625
1040
21.774999999999999
1040
16.9765625
1040
21.962499999999999
1070
     1
1040
16.9765625
1040
21.962499999999999
1040
17.0234375
1040
21.962499999999999
1070
     1
1040
17.0234375
1040
21.962499999999999
1040
17.0234375
1040
21.774999999999999
1070
     1
1040
17.0234375
1040
21.774999999999999
1040
17.09375
1040
21.774999999999999
1070
     1
1040
17.09375
1040
21.774999999999999
1040
17.0
1040
21.587499999999999
1071
        1
1005
266
1070
     0
1070
     1
1071
        1
1040
0.0
1040
0.0
1040
0.0
1002
}
  0
ENDBLK
  5
268
  8
0
  6
BYBLOCK
 62
     0
  0
BLOCK
  8
DEFAULT_2
  6
HIDDEN
 62
     8
  2
C_ARROW_BL2
 70
     0
 10
0.3375
 20
11.0
 30
0.0
  3
C_ARROW_BL2
  1

  0
LINE
  5
26A
  8
DEFAULT_2
  6
HIDDEN
 62
     8
 10
0.525
 20
11.0
 30
0.0
 11
0.3375
 21
11.09375
 31
0.0
  0
LINE
  5
26B
  8
DEFAULT_2
  6
HIDDEN
 62
     8
 10
0.525
 20
11.0
 30
0.0
 11
0.3375
 21
10.90625
 31
0.0
  0
LINE
  5
26C
  8
DEFAULT_2
  6
HIDDEN
 62
     8
 10
0.3375
 20
10.9765625
 30
0.0
 11
0.3375
 21
10.90625
 31
0.0
  0
LINE
  5
26D
  8
DEFAULT_2
  6
HIDDEN
 62
     8
 10
0.15
 20
10.9765625
 30
0.0
 11
0.3375
 21
10.9765625
 31
0.0
  0
LINE
  5
26E
  8
DEFAULT_2
  6
HIDDEN
 62
     8
 10
0.15
 20
10.9765625
 30
0.0
 11
0.15
 21
11.0234375
 31
0.0
  0
LINE
  5
26F
  8
DEFAULT_2
  6
HIDDEN
 62
     8
 10
0.3375
 20
11.0234375
 30
0.0
 11
0.15
 21
11.0234375
 31
0.0
  0
LINE
  5
270
  8
DEFAULT_2
  6
HIDDEN
 62
     8
 10
0.3375
 20
11.09375
 30
0.0
 11
0.3375
 21
11.0234375
 31
0.0
  0
POLYLINE
  5
271
  8
DEFAULT_2
  6
HIDDEN
 62
     8
 66
     1
 10
0.0
 20
0.0
 30
0.0
  0
VERTEX
  5
6FE
  8
DEFAULT_2
  6
HIDDEN
 62
     8
 10
0.525
 20
11.0
 30
0.0
  0
VERTEX
  5
6FF
  8
DEFAULT_2
  6
HIDDEN
 62
     8
 10
0.3375
 20
10.90625
 30
0.0
  0
VERTEX
  5
700
  8
DEFAULT_2
  6
HIDDEN
 62
     8
 10
0.3375
 20
10.9765625
 30
0.0
  0
VERTEX
  5
701
  8
DEFAULT_2
  6
HIDDEN
 62
     8
 10
0.15
 20
10.9765625
 30
0.0
  0
VERTEX
  5
702
  8
DEFAULT_2
  6
HIDDEN
 62
     8
 10
0.15
 20
11.0234375
 30
0.0
  0
VERTEX
  5
703
  8
DEFAULT_2
  6
HIDDEN
 62
     8
 10
0.3375
 20
11.0234375
 30
0.0
  0
VERTEX
  5
704
  8
DEFAULT_2
  6
HIDDEN
 62
     8
 10
0.3375
 20
11.09375
 30
0.0
  0
VERTEX
  5
705
  8
DEFAULT_2
  6
HIDDEN
 62
     8
 10
0.525
 20
11.0
 30
0.0
  0
SEQEND
  5
706
  8
DEFAULT_2
  6
HIDDEN
 62
     8
  0
INSERT
  5
272
  8
DEFAULT_2
  6
CONTINUOUS
 62
     8
  2
*U21
 10
0.0
 20
0.0
 30
0.0
1001
ACAD
1002
{
1000
R14_HATCH_DATA
1000
272
1011
1.0
1021
0.0
1031
-0.0
1021
0.0
1031
0.0
1011
0.0
1021
0.0
1031
-0.0
1021
1.0
1031
0.0
1011
0.0
1021
0.0
1031
-0.0
1021
0.0
1031
1.0
1040
0.0
1010
0.0
1020
0.0
1030
1.0
1000
SOLID
1070
     1
1070
     1
1071
        1
1071
        1
1071
        7
1070
     1
1040
0.525
1040
11.0
1040
0.3375
1040
10.90625
1070
     1
1040
0.3375
1040
10.90625
1040
0.3375
1040
10.9765625
1070
     1
1040
0.3375
1040
10.9765625
1040
0.15
1040
10.9765625
1070
     1
1040
0.15
1040
10.9765625
1040
0.15
1040
11.0234375
1070
     1
1040
0.15
1040
11.0234375
1040
0.3375
1040
11.0234375
1070
     1
1040
0.3375
1040
11.0234375
1040
0.3375
1040
11.09375
1070
     1
1040
0.3375
1040
11.09375
1040
0.525
1040
11.0
1071
        1
1005
271
1070
     0
1070
     1
1071
        1
1040
0.0
1040
0.0
1040
0.0
1002
}
  0
ENDBLK
  5
273
  8
0
  6
BYBLOCK
 62
     0
  0
BLOCK
  8
DEFAULT_2
  6
HIDDEN
 62
     8
  2
C_ARROW_BL3
 70
     0
 10
17.0
 20
0.4
 30
0.0
  3
C_ARROW_BL3
  1

  0
LINE
  5
275
  8
DEFAULT_2
  6
HIDDEN
 62
     8
 10
17.0
 20
0.5875
 30
0.0
 11
16.90625
 21
0.4
 31
0.0
  0
LINE
  5
276
  8
DEFAULT_2
  6
HIDDEN
 62
     8
 10
17.0
 20
0.5875
 30
0.0
 11
17.09375
 21
0.4
 31
0.0
  0
LINE
  5
277
  8
DEFAULT_2
  6
HIDDEN
 62
     8
 10
17.0234375
 20
0.4
 30
0.0
 11
17.09375
 21
0.4
 31
0.0
  0
LINE
  5
278
  8
DEFAULT_2
  6
HIDDEN
 62
     8
 10
17.0234375
 20
0.2125
 30
0.0
 11
17.0234375
 21
0.4
 31
0.0
  0
LINE
  5
279
  8
DEFAULT_2
  6
HIDDEN
 62
     8
 10
17.0234375
 20
0.2125
 30
0.0
 11
16.9765625
 21
0.2125
 31
0.0
  0
LINE
  5
27A
  8
DEFAULT_2
  6
HIDDEN
 62
     8
 10
16.9765625
 20
0.4
 30
0.0
 11
16.9765625
 21
0.2125
 31
0.0
  0
LINE
  5
27B
  8
DEFAULT_2
  6
HIDDEN
 62
     8
 10
16.90625
 20
0.4
 30
0.0
 11
16.9765625
 21
0.4
 31
0.0
  0
POLYLINE
  5
27C
  8
DEFAULT_2
  6
HIDDEN
 62
     8
 66
     1
 10
0.0
 20
0.0
 30
0.0
  0
VERTEX
  5
71C
  8
DEFAULT_2
  6
HIDDEN
 62
     8
 10
17.0
 20
0.5875
 30
0.0
  0
VERTEX
  5
71D
  8
DEFAULT_2
  6
HIDDEN
 62
     8
 10
17.09375
 20
0.4
 30
0.0
  0
VERTEX
  5
71E
  8
DEFAULT_2
  6
HIDDEN
 62
     8
 10
17.0234375
 20
0.4
 30
0.0
  0
VERTEX
  5
71F
  8
DEFAULT_2
  6
HIDDEN
 62
     8
 10
17.0234375
 20
0.2125
 30
0.0
  0
VERTEX
  5
720
  8
DEFAULT_2
  6
HIDDEN
 62
     8
 10
16.9765625
 20
0.2125
 30
0.0
  0
VERTEX
  5
721
  8
DEFAULT_2
  6
HIDDEN
 62
     8
 10
16.9765625
 20
0.4
 30
0.0
  0
VERTEX
  5
722
  8
DEFAULT_2
  6
HIDDEN
 62
     8
 10
16.90625
 20
0.4
 30
0.0
  0
VERTEX
  5
723
  8
DEFAULT_2
  6
HIDDEN
 62
     8
 10
17.0
 20
0.5875
 30
0.0
  0
SEQEND
  5
724
  8
DEFAULT_2
  6
HIDDEN
 62
     8
  0
INSERT
  5
27D
  8
DEFAULT_2
  6
CONTINUOUS
 62
     8
  2
*U22
 10
0.0
 20
0.0
 30
0.0
1001
ACAD
1002
{
1000
R14_HATCH_DATA
1000
27D
1011
1.0
1021
0.0
1031
-0.0
1021
0.0
1031
0.0
1011
0.0
1021
0.0
1031
-0.0
1021
1.0
1031
0.0
1011
0.0
1021
0.0
1031
-0.0
1021
0.0
1031
1.0
1040
0.0
1010
0.0
1020
0.0
1030
1.0
1000
SOLID
1070
     1
1070
     1
1071
        1
1071
        1
1071
        7
1070
     1
1040
17.0
1040
0.5875
1040
17.09375
1040
0.4
1070
     1
1040
17.09375
1040
0.4
1040
17.0234375
1040
0.4
1070
     1
1040
17.0234375
1040
0.4
1040
17.0234375
1040
0.2125
1070
     1
1040
17.0234375
1040
0.2125
1040
16.9765625
1040
0.2125
1070
     1
1040
16.9765625
1040
0.2125
1040
16.9765625
1040
0.4
1070
     1
1040
16.9765625
1040
0.4
1040
16.90625
1040
0.4
1070
     1
1040
16.90625
1040
0.4
1040
17.0
1040
0.5875
1071
        1
1005
27C
1070
     0
1070
     1
1071
        1
1040
0.0
1040
0.0
1040
0.0
1002
}
  0
ENDBLK
  5
27E
  8
0
  6
BYBLOCK
 62
     0
  0
BLOCK
  8
DEFAULT_2
  6
HIDDEN
 62
     8
  2
C_ARROW_BL4
 70
     0
 10
33.712499999999999
 20
11.0
 30
0.0
  3
C_ARROW_BL4
  1

  0
LINE
  5
280
  8
DEFAULT_2
  6
HIDDEN
 62
     8
 10
33.524999999999999
 20
11.0
 30
0.0
 11
33.712499999999999
 21
10.90625
 31
0.0
  0
LINE
  5
281
  8
DEFAULT_2
  6
HIDDEN
 62
     8
 10
33.524999999999999
 20
11.0
 30
0.0
 11
33.712499999999999
 21
11.09375
 31
0.0
  0
LINE
  5
282
  8
DEFAULT_2
  6
HIDDEN
 62
     8
 10
33.712499999999999
 20
11.0234375
 30
0.0
 11
33.712499999999999
 21
11.09375
 31
0.0
  0
LINE
  5
283
  8
DEFAULT_2
  6
HIDDEN
 62
     8
 10
33.899999999999999
 20
11.0234375
 30
0.0
 11
33.712499999999999
 21
11.0234375
 31
0.0
  0
LINE
  5
284
  8
DEFAULT_2
  6
HIDDEN
 62
     8
 10
33.899999999999999
 20
11.0234375
 30
0.0
 11
33.899999999999999
 21
10.9765625
 31
0.0
  0
LINE
  5
285
  8
DEFAULT_2
  6
HIDDEN
 62
     8
 10
33.712499999999999
 20
10.9765625
 30
0.0
 11
33.899999999999999
 21
10.9765625
 31
0.0
  0
LINE
  5
286
  8
DEFAULT_2
  6
HIDDEN
 62
     8
 10
33.712499999999999
 20
10.90625
 30
0.0
 11
33.712499999999999
 21
10.9765625
 31
0.0
  0
POLYLINE
  5
287
  8
DEFAULT_2
  6
HIDDEN
 62
     8
 66
     1
 10
0.0
 20
0.0
 30
0.0
  0
VERTEX
  5
735
  8
DEFAULT_2
  6
HIDDEN
 62
     8
 10
33.524999999999999
 20
11.0
 30
0.0
  0
VERTEX
  5
736
  8
DEFAULT_2
  6
HIDDEN
 62
     8
 10
33.712499999999999
 20
11.09375
 30
0.0
  0
VERTEX
  5
737
  8
DEFAULT_2
  6
HIDDEN
 62
     8
 10
33.712499999999999
 20
11.0234375
 30
0.0
  0
VERTEX
  5
738
  8
DEFAULT_2
  6
HIDDEN
 62
     8
 10
33.899999999999999
 20
11.0234375
 30
0.0
  0
VERTEX
  5
739
  8
DEFAULT_2
  6
HIDDEN
 62
     8
 10
33.899999999999999
 20
10.9765625
 30
0.0
  0
VERTEX
  5
73A
  8
DEFAULT_2
  6
HIDDEN
 62
     8
 10
33.712499999999999
 20
10.9765625
 30
0.0
  0
VERTEX
  5
73B
  8
DEFAULT_2
  6
HIDDEN
 62
     8
 10
33.712499999999999
 20
10.90625
 30
0.0
  0
VERTEX
  5
73C
  8
DEFAULT_2
  6
HIDDEN
 62
     8
 10
33.524999999999999
 20
11.0
 30
0.0
  0
SEQEND
  5
73D
  8
DEFAULT_2
  6
HIDDEN
 62
     8
  0
INSERT
  5
288
  8
DEFAULT_2
  6
CONTINUOUS
 62
     8
  2
*U23
 10
0.0
 20
0.0
 30
0.0
1001
ACAD
1002
{
1000
R14_HATCH_DATA
1000
288
1011
1.0
1021
0.0
1031
-0.0
1021
0.0
1031
0.0
1011
0.0
1021
0.0
1031
-0.0
1021
1.0
1031
0.0
1011
0.0
1021
0.0
1031
-0.0
1021
0.0
1031
1.0
1040
0.0
1010
0.0
1020
0.0
1030
1.0
1000
SOLID
1070
     1
1070
     1
1071
        1
1071
        1
1071
        7
1070
     1
1040
33.524999999999999
1040
11.0
1040
33.712499999999999
1040
11.09375
1070
     1
1040
33.712499999999999
1040
11.09375
1040
33.712499999999999
1040
11.0234375
1070
     1
1040
33.712499999999999
1040
11.0234375
1040
33.899999999999999
1040
11.0234375
1070
     1
1040
33.899999999999999
1040
11.0234375
1040
33.899999999999999
1040
10.9765625
1070
     1
1040
33.899999999999999
1040
10.9765625
1040
33.712499999999999
1040
10.9765625
1070
     1
1040
33.712499999999999
1040
10.9765625
1040
33.712499999999999
1040
10.90625
1070
     1
1040
33.712499999999999
1040
10.90625
1040
33.524999999999999
1040
11.0
1071
        1
1005
287
1070
     0
1070
     1
1071
        1
1040
0.0
1040
0.0
1040
0.0
1002
}
  0
ENDBLK
  5
289
  8
0
  6
BYBLOCK
 62
     0
  0
BLOCK
  8
0
  6
CONTINUOUS
 62
     2
  2
*D6
 70
     1
 10
0.0
 20
0.0
 30
0.0
  3
*D6
  1

  0
TEXT
  5
28B
  8
0
  6
CONTINUOUS
 62
     2
 10
13.835214880600001
 20
7.7943415008999999
 30
0.0
 40
0.15625
  1
"
 41
0.8
  0
TEXT
  5
28C
  8
0
  6
CONTINUOUS
 62
     2
 10
13.210214880600001
 20
7.5599665008999999
 30
0.0
 40
0.15625
  1
(27,9 cm)
 41
0.8
  0
TEXT
  5
28D
  8
0
  6
CONTINUOUS
 62
     2
 10
13.585214880600001
 20
7.7943415008999999
 30
0.0
 40
0.15625
  1
11
 41
0.8
  0
LINE
  5
28E
  8
0
  6
CONTINUOUS
 62
     2
 10
13.822646583199999
 20
3.8244999979999998
 30
0.0
 11
13.897714880600001
 21
3.8244999979999998
 31
0.0
  0
LINE
  5
28F
  8
0
  6
CONTINUOUS
 62
     2
 10
13.822646583199999
 20
14.824500002000001
 30
0.0
 11
13.897714880600001
 21
14.824500002000001
 31
0.0
  0
LINE
  5
290
  8
0
  6
CONTINUOUS
 62
     2
 10
13.772714880600001
 20
3.8244999979999998
 30
0.0
 11
13.772714880600001
 21
7.4818415008999999
 31
0.0
  0
LINE
  5
291
  8
0
  6
CONTINUOUS
 62
     2
 10
13.772714880600001
 20
14.824500002000001
 30
0.0
 11
13.772714880600001
 21
8.0287165008999999
 31
0.0
  0
INSERT
  5
292
  8
0
  6
CONTINUOUS
 62
     2
  2
_ARROW_FILLED
 10
13.772714880600001
 20
3.8244999979999998
 30
0.0
 41
0.1875
 42
0.1875
 43
0.1875
 50
270.0
  0
INSERT
  5
293
  8
0
  6
CONTINUOUS
 62
     2
  2
_ARROW_FILLED
 10
13.772714880600001
 20
14.824500002000001
 30
0.0
 41
0.1875
 42
0.1875
 43
0.1875
 50
90.0
  0
ENDBLK
  5
294
  8
0
  6
BYBLOCK
 62
     0
  0
BLOCK
  8
0
  6
CONTINUOUS
 62
     2
  2
*D7
 70
     1
 10
0.0
 20
0.0
 30
0.0
  3
*D7
  1

  0
TEXT
  5
296
  8
0
  6
CONTINUOUS
 62
     2
 10
11.856495605899999
 20
9.2460296422999981
 30
0.0
 40
0.15625
  1
"
 41
0.8
  0
TEXT
  5
297
  8
0
  6
CONTINUOUS
 62
     2
 10
10.918995605899999
 20
9.0116546422999981
 30
0.0
 40
0.15625
  1
(46,5 cm)
 41
0.8
  0
TEXT
  5
298
  8
0
  6
CONTINUOUS
 62
     2
 10
10.981495605899999
 20
9.2460296422999981
 30
0.0
 40
0.15625
  1
18-5/16
 41
0.8
  0
LINE
  5
299
  8
0
  6
CONTINUOUS
 62
     2
 10
4.6044332630999989
 20
9.2620000000000005
 30
0.0
 11
4.6044332630999989
 21
9.1991546422999981
 31
0.0
  0
LINE
  5
29A
  8
0
  6
CONTINUOUS
 62
     2
 10
22.915859903400001
 20
9.2620000000000005
 30
0.0
 11
22.915859903400001
 21
9.1991546422999981
 31
0.0
  0
LINE
  5
29B
  8
0
  6
CONTINUOUS
 62
     2
 10
4.6044332630999989
 20
9.3241546422999981
 30
0.0
 11
10.840870605899999
 21
9.3241546422999981
 31
0.0
  0
LINE
  5
29C
  8
0
  6
CONTINUOUS
 62
     2
 10
22.915859903400001
 20
9.3241546422999981
 30
0.0
 11
12.122120605899999
 21
9.3241546422999981
 31
0.0
  0
INSERT
  5
29D
  8
0
  6
CONTINUOUS
 62
     2
  2
_ARROW_FILLED
 10
4.6044332630999989
 20
9.3241546422999981
 30
0.0
 41
0.1875
 42
0.1875
 43
0.1875
 50
180.0
  0
INSERT
  5
29E
  8
0
  6
CONTINUOUS
 62
     2
  2
_ARROW_FILLED
 10
22.915859903400001
 20
9.3241546422999981
 30
0.0
 41
0.1875
 42
0.1875
 43
0.1875
  0
ENDBLK
  5
29F
  8
0
  6
BYBLOCK
 62
     0
  0
BLOCK
  8
___SYMBOL
  6
CONTINUOUS
 62
     2
  2
KOHLER_BL5
 70
     0
 10
15.3861657314
 20
14.136506491900001
 30
0.0
  3
KOHLER_BL5
  1

  0
LINE
  5
2A1
  8
___SYMBOL
  6
CONTINUOUS
 62
     2
 10
14.427451700600001
 20
14.4601529777
 30
0.0
 11
14.2141482604
 21
14.2065047187
 31
0.0
  0
LINE
  5
2A2
  8
___SYMBOL
  6
CONTINUOUS
 62
     2
 10
14.235389899099999
 20
14.4601529777
 30
0.0
 11
14.427451700600001
 21
14.4601529777
 31
0.0
  0
LINE
  5
2A3
  8
___SYMBOL
  6
CONTINUOUS
 62
     2
 10
14.235389899099999
 20
14.4601529777
 30
0.0
 11
14.0976257399
 21
14.296331797000001
 31
0.0
  0
LINE
  5
2A4
  8
___SYMBOL
  6
CONTINUOUS
 62
     2
 10
14.0976257399
 20
14.4601529777
 30
0.0
 11
14.0976257399
 21
14.296331797000001
 31
0.0
  0
LINE
  5
2A5
  8
___SYMBOL
  6
CONTINUOUS
 62
     2
 10
13.923125522499999
 20
14.4601529777
 30
0.0
 11
14.0976257399
 21
14.4601529777
 31
0.0
  0
LINE
  5
2A6
  8
___SYMBOL
  6
CONTINUOUS
 62
     2
 10
13.923125522499999
 20
14.4601529777
 30
0.0
 11
13.923125522499999
 21
13.874215357000001
 31
0.0
  0
LINE
  5
2A7
  8
___SYMBOL
  6
CONTINUOUS
 62
     2
 10
14.0976257399
 20
13.874239360400001
 30
0.0
 11
13.923125522499999
 21
13.874215357000001
 31
0.0
  0
LINE
  5
2A8
  8
___SYMBOL
  6
CONTINUOUS
 62
     2
 10
14.0976257399
 20
14.0757391834
 30
0.0
 11
14.0976257399
 21
13.874239360400001
 31
0.0
  0
LINE
  5
2A9
  8
___SYMBOL
  6
CONTINUOUS
 62
     2
 10
14.2513636715
 20
13.874239360400001
 30
0.0
 11
14.0976257399
 21
14.0757391834
 31
0.0
  0
LINE
  5
2AA
  8
___SYMBOL
  6
CONTINUOUS
 62
     2
 10
14.2513636715
 20
13.874239360400001
 30
0.0
 11
14.467656081199999
 21
13.874239360400001
 31
0.0
  0
LINE
  5
2AB
  8
___SYMBOL
  6
CONTINUOUS
 62
     2
 10
14.467656081199999
 20
13.874239360400001
 30
0.0
 11
14.2141482604
 21
14.2065047187
 31
0.0
  0
SOLID
  5
2AC
  8
___SYMBOL
  6
CONTINUOUS
 62
     2
 10
14.0976257399
 20
14.296331797000001
 30
0.0
 11
14.235389899099999
 21
14.4601529777
 31
0.0
 12
14.427451700600001
 22
14.4601529777
 32
0.0
 13
14.427451700600001
 23
14.4601529777
 33
0.0
  0
SOLID
  5
2AD
  8
___SYMBOL
  6
CONTINUOUS
 62
     2
 10
14.427451700600001
 20
14.4601529777
 30
0.0
 11
14.2141482604
 21
14.2065047187
 31
0.0
 12
14.0976257399
 22
14.296331797000001
 32
0.0
 13
14.0976257399
 23
14.296331797000001
 33
0.0
  0
SOLID
  5
2AE
  8
___SYMBOL
  6
CONTINUOUS
 62
     2
 10
14.0976257399
 20
14.0757391834
 30
0.0
 11
14.2141482604
 21
14.2065047187
 31
0.0
 12
14.2513636715
 22
13.874239360400001
 32
0.0
 13
14.2513636715
 23
13.874239360400001
 33
0.0
  0
SOLID
  5
2AF
  8
___SYMBOL
  6
CONTINUOUS
 62
     2
 10
14.2141482604
 20
14.2065047187
 30
0.0
 11
14.467656081199999
 21
13.874239360400001
 31
0.0
 12
14.2513636715
 22
13.874239360400001
 32
0.0
 13
14.2513636715
 23
13.874239360400001
 33
0.0
  0
SOLID
  5
2B0
  8
___SYMBOL
  6
CONTINUOUS
 62
     2
 10
14.0976257399
 20
13.874239360400001
 30
0.0
 11
13.923125522499999
 21
13.874215357000001
 31
0.0
 12
14.0976257399
 22
14.0757391834
 32
0.0
 13
14.0976257399
 23
14.0757391834
 33
0.0
  0
SOLID
  5
2B1
  8
___SYMBOL
  6
CONTINUOUS
 62
     2
 10
14.2141482604
 20
14.2065047187
 30
0.0
 11
14.0976257399
 21
14.0757391834
 31
0.0
 12
14.0976257399
 22
14.296331797000001
 32
0.0
 13
14.0976257399
 23
14.296331797000001
 33
0.0
  0
SOLID
  5
2B2
  8
___SYMBOL
  6
CONTINUOUS
 62
     2
 10
14.0976257399
 20
14.0757391834
 30
0.0
 11
13.923125522499999
 21
13.874215357000001
 31
0.0
 12
14.0976257399
 22
14.296331797000001
 32
0.0
 13
14.0976257399
 23
14.296331797000001
 33
0.0
  0
SOLID
  5
2B3
  8
___SYMBOL
  6
CONTINUOUS
 62
     2
 10
14.0976257399
 20
14.296331797000001
 30
0.0
 11
13.923125522499999
 21
13.874215357000001
 31
0.0
 12
14.0976257399
 22
14.4601529777
 32
0.0
 13
14.0976257399
 23
14.4601529777
 33
0.0
  0
SOLID
  5
2B4
  8
___SYMBOL
  6
CONTINUOUS
 62
     2
 10
13.923125522499999
 20
13.874215357000001
 30
0.0
 11
13.923125522499999
 21
14.4601529777
 31
0.0
 12
14.0976257399
 22
14.4601529777
 32
0.0
 13
14.0976257399
 23
14.4601529777
 33
0.0
  0
CIRCLE
  5
2B5
  8
___SYMBOL
  6
CONTINUOUS
 62
     2
 10
14.6441649082
 20
14.1660749173
 30
0.0
 40
0.2980565746999999
  0
CIRCLE
  5
2B6
  8
___SYMBOL
  6
CONTINUOUS
 62
     2
 10
14.6441649082
 20
14.1660749173
 30
0.0
 40
0.1247694082
  0
SOLID
  5
2B7
  8
___SYMBOL
  6
CONTINUOUS
 62
     2
 10
14.552060361400001
 20
14.449543564800001
 30
0.0
 11
14.6130095125
 21
14.4624987068
 31
0.0
 12
14.6753203039
 22
14.4624987068
 32
0.0
 13
14.6753203039
 23
14.4624987068
 33
0.0
  0
SOLID
  5
2B8
  8
___SYMBOL
  6
CONTINUOUS
 62
     2
 10
14.6753203039
 20
14.4624987068
 30
0.0
 11
14.7362694551
 21
14.449543564800001
 31
0.0
 12
14.552060361400001
 22
14.449543564800001
 32
0.0
 13
14.552060361400001
 23
14.449543564800001
 33
0.0
  0
SOLID
  5
2B9
  8
___SYMBOL
  6
CONTINUOUS
 62
     2
 10
14.4951366209
 20
14.424199482700001
 30
0.0
 11
14.552060361400001
 21
14.449543564800001
 31
0.0
 12
14.7362694551
 22
14.449543564800001
 32
0.0
 13
14.7362694551
 23
14.449543564800001
 33
0.0
  0
SOLID
  5
2BA
  8
___SYMBOL
  6
CONTINUOUS
 62
     2
 10
14.7362694551
 20
14.449543564800001
 30
0.0
 11
14.793193195600001
 21
14.424199482700001
 31
0.0
 12
14.4951366209
 22
14.424199482700001
 32
0.0
 13
14.4951366209
 23
14.424199482700001
 33
0.0
  0
SOLID
  5
2BB
  8
___SYMBOL
  6
CONTINUOUS
 62
     2
 10
14.4447261317
 20
14.3875741184
 30
0.0
 11
14.4951366209
 21
14.424199482700001
 31
0.0
 12
14.793193195600001
 22
14.424199482700001
 32
0.0
 13
14.793193195600001
 23
14.424199482700001
 33
0.0
  0
SOLID
  5
2BC
  8
___SYMBOL
  6
CONTINUOUS
 62
     2
 10
14.793193195600001
 20
14.424199482700001
 30
0.0
 11
14.8436036848
 21
14.3875741184
 31
0.0
 12
14.4447261317
 22
14.3875741184
 32
0.0
 13
14.4447261317
 23
14.3875741184
 33
0.0
  0
SOLID
  5
2BD
  8
___SYMBOL
  6
CONTINUOUS
 62
     2
 10
14.403032074
 20
14.3412681762
 30
0.0
 11
14.4447261317
 21
14.3875741184
 31
0.0
 12
14.8436036848
 22
14.3875741184
 32
0.0
 13
14.8436036848
 23
14.3875741184
 33
0.0
  0
SOLID
  5
2BE
  8
___SYMBOL
  6
CONTINUOUS
 62
     2
 10
14.8436036848
 20
14.3875741184
 30
0.0
 11
14.885297742400001
 21
14.3412681762
 31
0.0
 12
14.403032074
 22
14.3412681762
 32
0.0
 13
14.403032074
 23
14.3412681762
 33
0.0
  0
SOLID
  5
2BF
  8
___SYMBOL
  6
CONTINUOUS
 62
     2
 10
14.6441649082
 20
14.2908443255
 30
0.0
 11
14.3718766783
 21
14.2873054479
 31
0.0
 12
14.885297742400001
 22
14.3412681762
 32
0.0
 13
14.885297742400001
 23
14.3412681762
 33
0.0
  0
SOLID
  5
2C0
  8
___SYMBOL
  6
CONTINUOUS
 62
     2
 10
14.3718766783
 20
14.2873054479
 30
0.0
 11
14.403032074
 21
14.3412681762
 31
0.0
 12
14.885297742400001
 22
14.3412681762
 32
0.0
 13
14.885297742400001
 23
14.3412681762
 33
0.0
  0
SOLID
  5
2C1
  8
___SYMBOL
  6
CONTINUOUS
 62
     2
 10
14.885297742400001
 20
14.3412681762
 30
0.0
 11
14.9164531381
 21
14.2873054479
 31
0.0
 12
14.6441649082
 22
14.2908443255
 32
0.0
 13
14.6441649082
 23
14.2908443255
 33
0.0
  0
SOLID
  5
2C2
  8
___SYMBOL
  6
CONTINUOUS
 62
     2
 10
14.6441649082
 20
14.2908443255
 30
0.0
 11
14.605609040699999
 21
14.284737676000001
 31
0.0
 12
14.3718766783
 22
14.2873054479
 32
0.0
 13
14.3718766783
 23
14.2873054479
 33
0.0
  0
SOLID
  5
2C3
  8
___SYMBOL
  6
CONTINUOUS
 62
     2
 10
14.6827207758
 20
14.284737676000001
 30
0.0
 11
14.6441649082
 21
14.2908443255
 31
0.0
 12
14.9164531381
 22
14.2873054479
 32
0.0
 13
14.9164531381
 23
14.2873054479
 33
0.0
  0
SOLID
  5
2C4
  8
___SYMBOL
  6
CONTINUOUS
 62
     2
 10
14.5432243366
 20
14.2394125354
 30
0.0
 11
14.3526215848
 21
14.2280443637
 31
0.0
 12
14.5708272901
 22
14.2670154889
 32
0.0
 13
14.5708272901
 23
14.2670154889
 33
0.0
  0
SOLID
  5
2C5
  8
___SYMBOL
  6
CONTINUOUS
 62
     2
 10
14.5708272901
 20
14.2670154889
 30
0.0
 11
14.3526215848
 21
14.2280443637
 31
0.0
 12
14.605609040699999
 22
14.284737676000001
 32
0.0
 13
14.605609040699999
 23
14.284737676000001
 33
0.0
  0
SOLID
  5
2C6
  8
___SYMBOL
  6
CONTINUOUS
 62
     2
 10
14.3526215848
 20
14.2280443637
 30
0.0
 11
14.3718766783
 21
14.2873054479
 31
0.0
 12
14.605609040699999
 22
14.284737676000001
 32
0.0
 13
14.605609040699999
 23
14.284737676000001
 33
0.0
  0
SOLID
  5
2C7
  8
___SYMBOL
  6
CONTINUOUS
 62
     2
 10
14.6827207758
 20
14.284737676000001
 30
0.0
 11
14.9164531381
 21
14.2873054479
 31
0.0
 12
14.717502526300001
 22
14.2670154889
 32
0.0
 13
14.717502526300001
 23
14.2670154889
 33
0.0
  0
SOLID
  5
2C8
  8
___SYMBOL
  6
CONTINUOUS
 62
     2
 10
14.717502526300001
 20
14.2670154889
 30
0.0
 11
14.9164531381
 21
14.2873054479
 31
0.0
 12
14.745105479899999
 22
14.2394125354
 32
0.0
 13
14.745105479899999
 23
14.2394125354
 33
0.0
  0
SOLID
  5
2C9
  8
___SYMBOL
  6
CONTINUOUS
 62
     2
 10
14.9164531381
 20
14.2873054479
 30
0.0
 11
14.9357082316
 21
14.2280443637
 31
0.0
 12
14.745105479899999
 22
14.2394125354
 32
0.0
 13
14.745105479899999
 23
14.2394125354
 33
0.0
  0
SOLID
  5
2CA
  8
___SYMBOL
  6
CONTINUOUS
 62
     2
 10
14.5432243366
 20
14.2394125354
 30
0.0
 11
14.525502149499999
 21
14.204630784800001
 31
0.0
 12
14.3526215848
 22
14.2280443637
 32
0.0
 13
14.3526215848
 23
14.2280443637
 33
0.0
  0
SOLID
  5
2CB
  8
___SYMBOL
  6
CONTINUOUS
 62
     2
 10
14.762827667
 20
14.204630784800001
 30
0.0
 11
14.745105479899999
 21
14.2394125354
 31
0.0
 12
14.9357082316
 22
14.2280443637
 32
0.0
 13
14.9357082316
 23
14.2280443637
 33
0.0
  0
SOLID
  5
2CC
  8
___SYMBOL
  6
CONTINUOUS
 62
     2
 10
14.3461083336
 20
14.1660749173
 30
0.0
 11
14.3526215848
 21
14.2280443637
 31
0.0
 12
14.525502149499999
 22
14.204630784800001
 32
0.0
 13
14.525502149499999
 23
14.204630784800001
 33
0.0
  0
SOLID
  5
2CD
  8
___SYMBOL
  6
CONTINUOUS
 62
     2
 10
14.525502149499999
 20
14.204630784800001
 30
0.0
 11
14.5193955
 21
14.1660749173
 31
0.0
 12
14.3461083336
 22
14.1660749173
 32
0.0
 13
14.3461083336
 23
14.1660749173
 33
0.0
  0
SOLID
  5
2CE
  8
___SYMBOL
  6
CONTINUOUS
 62
     2
 10
14.762827667
 20
14.204630784800001
 30
0.0
 11
14.9357082316
 21
14.2280443637
 31
0.0
 12
14.768934316499999
 22
14.1660749173
 32
0.0
 13
14.768934316499999
 23
14.1660749173
 33
0.0
  0
SOLID
  5
2CF
  8
___SYMBOL
  6
CONTINUOUS
 62
     2
 10
14.9357082316
 20
14.2280443637
 30
0.0
 11
14.942221482900001
 21
14.1660749173
 31
0.0
 12
14.768934316499999
 22
14.1660749173
 32
0.0
 13
14.768934316499999
 23
14.1660749173
 33
0.0
  0
SOLID
  5
2D0
  8
___SYMBOL
  6
CONTINUOUS
 62
     2
 10
14.762827667
 20
14.1275190497
 30
0.0
 11
14.768934316499999
 21
14.1660749173
 31
0.0
 12
14.942221482900001
 22
14.1660749173
 32
0.0
 13
14.942221482900001
 23
14.1660749173
 33
0.0
  0
SOLID
  5
2D1
  8
___SYMBOL
  6
CONTINUOUS
 62
     2
 10
14.525502149499999
 20
14.1275190497
 30
0.0
 11
14.3526215848
 21
14.1041054709
 31
0.0
 12
14.5193955
 22
14.1660749173
 32
0.0
 13
14.5193955
 23
14.1660749173
 33
0.0
  0
SOLID
  5
2D2
  8
___SYMBOL
  6
CONTINUOUS
 62
     2
 10
14.3526215848
 20
14.1041054709
 30
0.0
 11
14.3461083336
 21
14.1660749173
 31
0.0
 12
14.5193955
 22
14.1660749173
 32
0.0
 13
14.5193955
 23
14.1660749173
 33
0.0
  0
SOLID
  5
2D3
  8
___SYMBOL
  6
CONTINUOUS
 62
     2
 10
14.942221482900001
 20
14.1660749173
 30
0.0
 11
14.9357082316
 21
14.1041054709
 31
0.0
 12
14.762827667
 22
14.1275190497
 32
0.0
 13
14.762827667
 23
14.1275190497
 33
0.0
  0
SOLID
  5
2D4
  8
___SYMBOL
  6
CONTINUOUS
 62
     2
 10
14.525502149499999
 20
14.1275190497
 30
0.0
 11
14.5432243366
 21
14.0927372992
 31
0.0
 12
14.3526215848
 22
14.1041054709
 32
0.0
 13
14.3526215848
 23
14.1041054709
 33
0.0
  0
SOLID
  5
2D5
  8
___SYMBOL
  6
CONTINUOUS
 62
     2
 10
14.745105479899999
 20
14.0927372992
 30
0.0
 11
14.762827667
 21
14.1275190497
 31
0.0
 12
14.9357082316
 22
14.1041054709
 32
0.0
 13
14.9357082316
 23
14.1041054709
 33
0.0
  0
SOLID
  5
2D6
  8
___SYMBOL
  6
CONTINUOUS
 62
     2
 10
14.605609040699999
 20
14.0474121585
 30
0.0
 11
14.3718766783
 21
14.044844386599999
 31
0.0
 12
14.5708272901
 22
14.065134345600001
 32
0.0
 13
14.5708272901
 23
14.065134345600001
 33
0.0
  0
SOLID
  5
2D7
  8
___SYMBOL
  6
CONTINUOUS
 62
     2
 10
14.5708272901
 20
14.065134345600001
 30
0.0
 11
14.3718766783
 21
14.044844386599999
 31
0.0
 12
14.5432243366
 22
14.0927372992
 32
0.0
 13
14.5432243366
 23
14.0927372992
 33
0.0
  0
SOLID
  5
2D8
  8
___SYMBOL
  6
CONTINUOUS
 62
     2
 10
14.3718766783
 20
14.044844386599999
 30
0.0
 11
14.3526215848
 21
14.1041054709
 31
0.0
 12
14.5432243366
 22
14.0927372992
 32
0.0
 13
14.5432243366
 23
14.0927372992
 33
0.0
  0
SOLID
  5
2D9
  8
___SYMBOL
  6
CONTINUOUS
 62
     2
 10
14.745105479899999
 20
14.0927372992
 30
0.0
 11
14.9357082316
 21
14.1041054709
 31
0.0
 12
14.717502526300001
 22
14.065134345600001
 32
0.0
 13
14.717502526300001
 23
14.065134345600001
 33
0.0
  0
SOLID
  5
2DA
  8
___SYMBOL
  6
CONTINUOUS
 62
     2
 10
14.717502526300001
 20
14.065134345600001
 30
0.0
 11
14.9357082316
 21
14.1041054709
 31
0.0
 12
14.6827207758
 22
14.0474121585
 32
0.0
 13
14.6827207758
 23
14.0474121585
 33
0.0
  0
SOLID
  5
2DB
  8
___SYMBOL
  6
CONTINUOUS
 62
     2
 10
14.9357082316
 20
14.1041054709
 30
0.0
 11
14.9164531381
 21
14.044844386599999
 31
0.0
 12
14.6827207758
 22
14.0474121585
 32
0.0
 13
14.6827207758
 23
14.0474121585
 33
0.0
  0
SOLID
  5
2DC
  8
___SYMBOL
  6
CONTINUOUS
 62
     2
 10
14.605609040699999
 20
14.0474121585
 30
0.0
 11
14.6441649082
 21
14.041305509000001
 31
0.0
 12
14.3718766783
 22
14.044844386599999
 32
0.0
 13
14.3718766783
 23
14.044844386599999
 33
0.0
  0
SOLID
  5
2DD
  8
___SYMBOL
  6
CONTINUOUS
 62
     2
 10
14.6441649082
 20
14.041305509000001
 30
0.0
 11
14.6827207758
 21
14.0474121585
 31
0.0
 12
14.9164531381
 22
14.044844386599999
 32
0.0
 13
14.9164531381
 23
14.044844386599999
 33
0.0
  0
SOLID
  5
2DE
  8
___SYMBOL
  6
CONTINUOUS
 62
     2
 10
14.403032074
 20
13.990881658299999
 30
0.0
 11
14.3718766783
 21
14.044844386599999
 31
0.0
 12
14.6441649082
 22
14.041305509000001
 32
0.0
 13
14.6441649082
 23
14.041305509000001
 33
0.0
  0
SOLID
  5
2DF
  8
___SYMBOL
  6
CONTINUOUS
 62
     2
 10
14.6441649082
 20
14.041305509000001
 30
0.0
 11
14.9164531381
 21
14.044844386599999
 31
0.0
 12
14.403032074
 22
13.990881658299999
 32
0.0
 13
14.403032074
 23
13.990881658299999
 33
0.0
  0
SOLID
  5
2E0
  8
___SYMBOL
  6
CONTINUOUS
 62
     2
 10
14.9164531381
 20
14.044844386599999
 30
0.0
 11
14.885297742400001
 21
13.990881658299999
 31
0.0
 12
14.403032074
 22
13.990881658299999
 32
0.0
 13
14.403032074
 23
13.990881658299999
 33
0.0
  0
SOLID
  5
2E1
  8
___SYMBOL
  6
CONTINUOUS
 62
     2
 10
14.4447261317
 20
13.944575716099999
 30
0.0
 11
14.403032074
 21
13.990881658299999
 31
0.0
 12
14.885297742400001
 22
13.990881658299999
 32
0.0
 13
14.885297742400001
 23
13.990881658299999
 33
0.0
  0
SOLID
  5
2E2
  8
___SYMBOL
  6
CONTINUOUS
 62
     2
 10
14.885297742400001
 20
13.990881658299999
 30
0.0
 11
14.8436036848
 21
13.944575716099999
 31
0.0
 12
14.4447261317
 22
13.944575716099999
 32
0.0
 13
14.4447261317
 23
13.944575716099999
 33
0.0
  0
SOLID
  5
2E3
  8
___SYMBOL
  6
CONTINUOUS
 62
     2
 10
14.4951366209
 20
13.9079503518
 30
0.0
 11
14.4447261317
 21
13.944575716099999
 31
0.0
 12
14.8436036848
 22
13.944575716099999
 32
0.0
 13
14.8436036848
 23
13.944575716099999
 33
0.0
  0
SOLID
  5
2E4
  8
___SYMBOL
  6
CONTINUOUS
 62
     2
 10
14.8436036848
 20
13.944575716099999
 30
0.0
 11
14.793193195600001
 21
13.9079503518
 31
0.0
 12
14.4951366209
 22
13.9079503518
 32
0.0
 13
14.4951366209
 23
13.9079503518
 33
0.0
  0
SOLID
  5
2E5
  8
___SYMBOL
  6
CONTINUOUS
 62
     2
 10
14.552060361400001
 20
13.8826062697
 30
0.0
 11
14.4951366209
 21
13.9079503518
 31
0.0
 12
14.793193195600001
 22
13.9079503518
 32
0.0
 13
14.793193195600001
 23
13.9079503518
 33
0.0
  0
SOLID
  5
2E6
  8
___SYMBOL
  6
CONTINUOUS
 62
     2
 10
14.793193195600001
 20
13.9079503518
 30
0.0
 11
14.7362694551
 21
13.8826062697
 31
0.0
 12
14.552060361400001
 22
13.8826062697
 32
0.0
 13
14.552060361400001
 23
13.8826062697
 33
0.0
  0
SOLID
  5
2E7
  8
___SYMBOL
  6
CONTINUOUS
 62
     2
 10
14.6130095125
 20
13.869651127699999
 30
0.0
 11
14.552060361400001
 21
13.8826062697
 31
0.0
 12
14.7362694551
 22
13.8826062697
 32
0.0
 13
14.7362694551
 23
13.8826062697
 33
0.0
  0
SOLID
  5
2E8
  8
___SYMBOL
  6
CONTINUOUS
 62
     2
 10
14.7362694551
 20
13.8826062697
 30
0.0
 11
14.6753203039
 21
13.869651127699999
 31
0.0
 12
14.6130095125
 22
13.869651127699999
 32
0.0
 13
14.6130095125
 23
13.869651127699999
 33
0.0
  0
LINE
  5
2E9
  8
___SYMBOL
  6
CONTINUOUS
 62
     2
 10
15.436800873999999
 20
14.4601529777
 30
0.0
 11
15.436800873999999
 21
13.874239360400001
 31
0.0
  0
LINE
  5
2EA
  8
___SYMBOL
  6
CONTINUOUS
 62
     2
 10
15.436800873999999
 20
13.874239360400001
 30
0.0
 11
15.272067203200001
 21
13.874239360400001
 31
0.0
  0
LINE
  5
2EB
  8
___SYMBOL
  6
CONTINUOUS
 62
     2
 10
15.272067203200001
 20
14.102563957699999
 30
0.0
 11
15.272067203200001
 21
13.874239360400001
 31
0.0
  0
LINE
  5
2EC
  8
___SYMBOL
  6
CONTINUOUS
 62
     2
 10
15.124070400200001
 20
14.102563957699999
 30
0.0
 11
15.272067203200001
 21
14.102563957699999
 31
0.0
  0
LINE
  5
2ED
  8
___SYMBOL
  6
CONTINUOUS
 62
     2
 10
15.124070400200001
 20
14.102563957699999
 30
0.0
 11
15.124070400200001
 21
13.874239360400001
 31
0.0
  0
LINE
  5
2EE
  8
___SYMBOL
  6
CONTINUOUS
 62
     2
 10
15.124070400200001
 20
13.874239360400001
 30
0.0
 11
14.9593367294
 21
13.874239360400001
 31
0.0
  0
LINE
  5
2EF
  8
___SYMBOL
  6
CONTINUOUS
 62
     2
 10
14.9593367294
 20
14.4601529777
 30
0.0
 11
14.9593367294
 21
13.874239360400001
 31
0.0
  0
LINE
  5
2F0
  8
___SYMBOL
  6
CONTINUOUS
 62
     2
 10
14.9593367294
 20
14.4601529777
 30
0.0
 11
15.124070400200001
 21
14.4601529777
 31
0.0
  0
LINE
  5
2F1
  8
___SYMBOL
  6
CONTINUOUS
 62
     2
 10
15.124070400200001
 20
14.4601529777
 30
0.0
 11
15.124070400200001
 21
14.2397692301
 31
0.0
  0
LINE
  5
2F2
  8
___SYMBOL
  6
CONTINUOUS
 62
     2
 10
15.124070400200001
 20
14.2397692301
 30
0.0
 11
15.272067203200001
 21
14.2397692301
 31
0.0
  0
LINE
  5
2F3
  8
___SYMBOL
  6
CONTINUOUS
 62
     2
 10
15.272067203200001
 20
14.4601529777
 30
0.0
 11
15.272067203200001
 21
14.2397692301
 31
0.0
  0
LINE
  5
2F4
  8
___SYMBOL
  6
CONTINUOUS
 62
     2
 10
15.272067203200001
 20
14.4601529777
 30
0.0
 11
15.436800873999999
 21
14.4601529777
 31
0.0
  0
SOLID
  5
2F5
  8
___SYMBOL
  6
CONTINUOUS
 62
     2
 10
15.272067203200001
 20
14.2397692301
 30
0.0
 11
15.272067203200001
 21
14.4601529777
 31
0.0
 12
15.436800873999999
 22
14.4601529777
 32
0.0
 13
15.436800873999999
 23
14.4601529777
 33
0.0
  0
SOLID
  5
2F6
  8
___SYMBOL
  6
CONTINUOUS
 62
     2
 10
15.272067203200001
 20
14.2397692301
 30
0.0
 11
15.124070400200001
 21
14.102563957699999
 31
0.0
 12
15.124070400200001
 22
14.2397692301
 32
0.0
 13
15.124070400200001
 23
14.2397692301
 33
0.0
  0
SOLID
  5
2F7
  8
___SYMBOL
  6
CONTINUOUS
 62
     2
 10
15.124070400200001
 20
14.102563957699999
 30
0.0
 11
14.9593367294
 21
13.874239360400001
 31
0.0
 12
15.124070400200001
 22
14.2397692301
 32
0.0
 13
15.124070400200001
 23
14.2397692301
 33
0.0
  0
SOLID
  5
2F8
  8
___SYMBOL
  6
CONTINUOUS
 62
     2
 10
15.124070400200001
 20
14.2397692301
 30
0.0
 11
14.9593367294
 21
13.874239360400001
 31
0.0
 12
15.124070400200001
 22
14.4601529777
 32
0.0
 13
15.124070400200001
 23
14.4601529777
 33
0.0
  0
SOLID
  5
2F9
  8
___SYMBOL
  6
CONTINUOUS
 62
     2
 10
14.9593367294
 20
13.874239360400001
 30
0.0
 11
14.9593367294
 21
14.4601529777
 31
0.0
 12
15.124070400200001
 22
14.4601529777
 32
0.0
 13
15.124070400200001
 23
14.4601529777
 33
0.0
  0
SOLID
  5
2FA
  8
___SYMBOL
  6
CONTINUOUS
 62
     2
 10
15.124070400200001
 20
14.102563957699999
 30
0.0
 11
15.124070400200001
 21
13.874239360400001
 31
0.0
 12
14.9593367294
 22
13.874239360400001
 32
0.0
 13
14.9593367294
 23
13.874239360400001
 33
0.0
  0
SOLID
  5
2FB
  8
___SYMBOL
  6
CONTINUOUS
 62
     2
 10
15.124070400200001
 20
14.102563957699999
 30
0.0
 11
15.272067203200001
 21
14.2397692301
 31
0.0
 12
15.272067203200001
 22
14.102563957699999
 32
0.0
 13
15.272067203200001
 23
14.102563957699999
 33
0.0
  0
SOLID
  5
2FC
  8
___SYMBOL
  6
CONTINUOUS
 62
     2
 10
15.272067203200001
 20
14.2397692301
 30
0.0
 11
15.436800873999999
 21
14.4601529777
 31
0.0
 12
15.272067203200001
 22
14.102563957699999
 32
0.0
 13
15.272067203200001
 23
14.102563957699999
 33
0.0
  0
SOLID
  5
2FD
  8
___SYMBOL
  6
CONTINUOUS
 62
     2
 10
15.272067203200001
 20
14.102563957699999
 30
0.0
 11
15.436800873999999
 21
14.4601529777
 31
0.0
 12
15.272067203200001
 22
13.874239360400001
 32
0.0
 13
15.272067203200001
 23
13.874239360400001
 33
0.0
  0
SOLID
  5
2FE
  8
___SYMBOL
  6
CONTINUOUS
 62
     2
 10
15.436800873999999
 20
14.4601529777
 30
0.0
 11
15.436800873999999
 21
13.874239360400001
 31
0.0
 12
15.272067203200001
 22
13.874239360400001
 32
0.0
 13
15.272067203200001
 23
13.874239360400001
 33
0.0
  0
LINE
  5
2FF
  8
___SYMBOL
  6
CONTINUOUS
 62
     2
 10
15.631891770299999
 20
13.874239360400001
 30
0.0
 11
15.7945758313
 21
13.874239360400001
 31
0.0
  0
LINE
  5
300
  8
___SYMBOL
  6
CONTINUOUS
 62
     2
 10
15.631891770299999
 20
13.874239360400001
 30
0.0
 11
15.4818457158
 21
13.874239360400001
 31
0.0
  0
LINE
  5
301
  8
___SYMBOL
  6
CONTINUOUS
 62
     2
 10
15.4818457158
 20
13.874239360400001
 30
0.0
 11
15.4818457158
 21
14.4601529777
 31
0.0
  0
LINE
  5
302
  8
___SYMBOL
  6
CONTINUOUS
 62
     2
 10
15.4818457158
 20
14.4601529777
 30
0.0
 11
15.631891770299999
 21
14.4601529777
 31
0.0
  0
LINE
  5
303
  8
___SYMBOL
  6
CONTINUOUS
 62
     2
 10
15.631891770299999
 20
14.4601529777
 30
0.0
 11
15.631891770299999
 21
14.0154661098
 31
0.0
  0
LINE
  5
304
  8
___SYMBOL
  6
CONTINUOUS
 62
     2
 10
15.631891770299999
 20
14.0154661098
 30
0.0
 11
15.7945758313
 21
14.0154661098
 31
0.0
  0
LINE
  5
305
  8
___SYMBOL
  6
CONTINUOUS
 62
     2
 10
15.7945758313
 20
14.0154661098
 30
0.0
 11
15.7945758313
 21
13.874239360400001
 31
0.0
  0
SOLID
  5
306
  8
___SYMBOL
  6
CONTINUOUS
 62
     2
 10
15.7945758313
 20
14.0154661098
 30
0.0
 11
15.4818457158
 21
13.874239360400001
 31
0.0
 12
15.631891770299999
 22
14.0154661098
 32
0.0
 13
15.631891770299999
 23
14.0154661098
 33
0.0
  0
SOLID
  5
307
  8
___SYMBOL
  6
CONTINUOUS
 62
     2
 10
15.631891770299999
 20
14.0154661098
 30
0.0
 11
15.4818457158
 21
13.874239360400001
 31
0.0
 12
15.631891770299999
 22
14.4601529777
 32
0.0
 13
15.631891770299999
 23
14.4601529777
 33
0.0
  0
SOLID
  5
308
  8
___SYMBOL
  6
CONTINUOUS
 62
     2
 10
15.4818457158
 20
13.874239360400001
 30
0.0
 11
15.4818457158
 21
14.4601529777
 31
0.0
 12
15.631891770299999
 22
14.4601529777
 32
0.0
 13
15.631891770299999
 23
14.4601529777
 33
0.0
  0
SOLID
  5
309
  8
___SYMBOL
  6
CONTINUOUS
 62
     2
 10
15.4818457158
 20
13.874239360400001
 30
0.0
 11
15.7945758313
 21
14.0154661098
 31
0.0
 12
15.631891770299999
 22
13.874239360400001
 32
0.0
 13
15.631891770299999
 23
13.874239360400001
 33
0.0
  0
SOLID
  5
30A
  8
___SYMBOL
  6
CONTINUOUS
 62
     2
 10
15.7945758313
 20
14.0154661098
 30
0.0
 11
15.7945758313
 21
13.874239360400001
 31
0.0
 12
15.631891770299999
 22
13.874239360400001
 32
0.0
 13
15.631891770299999
 23
13.874239360400001
 33
0.0
  0
LINE
  5
30B
  8
___SYMBOL
  6
CONTINUOUS
 62
     2
 10
16.132827726799999
 20
14.0953876365
 30
0.0
 11
16.132827726799999
 21
14.2397692301
 31
0.0
  0
LINE
  5
30C
  8
___SYMBOL
  6
CONTINUOUS
 62
     2
 10
15.9819702117
 20
14.2397692301
 30
0.0
 11
16.132827726799999
 21
14.2397692301
 31
0.0
  0
LINE
  5
30D
  8
___SYMBOL
  6
CONTINUOUS
 62
     2
 10
15.9819702117
 20
14.3173935888
 30
0.0
 11
15.9819702117
 21
14.2397692301
 31
0.0
  0
LINE
  5
30E
  8
___SYMBOL
  6
CONTINUOUS
 62
     2
 10
15.9819702117
 20
14.3173935888
 30
0.0
 11
16.132827726799999
 21
14.3173935888
 31
0.0
  0
LINE
  5
30F
  8
___SYMBOL
  6
CONTINUOUS
 62
     2
 10
16.132827726799999
 20
14.3173935888
 30
0.0
 11
16.132827726799999
 21
14.4601529777
 31
0.0
  0
LINE
  5
310
  8
___SYMBOL
  6
CONTINUOUS
 62
     2
 10
15.9961745343
 20
14.4601529777
 30
0.0
 11
16.132827726799999
 21
14.4601529777
 31
0.0
  0
LINE
  5
311
  8
___SYMBOL
  6
CONTINUOUS
 62
     2
 10
15.8237235684
 20
14.4601529777
 30
0.0
 11
15.9961745343
 21
14.4601529777
 31
0.0
  0
LINE
  5
312
  8
___SYMBOL
  6
CONTINUOUS
 62
     2
 10
15.8237235684
 20
13.874239360400001
 30
0.0
 11
15.8237235684
 21
14.4601529777
 31
0.0
  0
LINE
  5
313
  8
___SYMBOL
  6
CONTINUOUS
 62
     2
 10
15.8237235684
 20
13.874239360400001
 30
0.0
 11
16.132827726799999
 21
13.874239360400001
 31
0.0
  0
LINE
  5
314
  8
___SYMBOL
  6
CONTINUOUS
 62
     2
 10
16.132827726799999
 20
13.874239360400001
 30
0.0
 11
16.132827726799999
 21
14.0154661098
 31
0.0
  0
LINE
  5
315
  8
___SYMBOL
  6
CONTINUOUS
 62
     2
 10
15.9819702117
 20
14.0154661098
 30
0.0
 11
16.132827726799999
 21
14.0154661098
 31
0.0
  0
LINE
  5
316
  8
___SYMBOL
  6
CONTINUOUS
 62
     2
 10
15.9819702117
 20
14.0953876365
 30
0.0
 11
15.9819702117
 21
14.0154661098
 31
0.0
  0
LINE
  5
317
  8
___SYMBOL
  6
CONTINUOUS
 62
     2
 10
15.9819702117
 20
14.0953876365
 30
0.0
 11
16.132827726799999
 21
14.0953876365
 31
0.0
  0
SOLID
  5
318
  8
___SYMBOL
  6
CONTINUOUS
 62
     2
 10
16.132827726799999
 20
14.4601529777
 30
0.0
 11
16.132827726799999
 21
14.3173935888
 31
0.0
 12
15.9819702117
 22
14.3173935888
 32
0.0
 13
15.9819702117
 23
14.3173935888
 33
0.0
  0
SOLID
  5
319
  8
___SYMBOL
  6
CONTINUOUS
 62
     2
 10
16.132827726799999
 20
14.2397692301
 30
0.0
 11
16.132827726799999
 21
14.0953876365
 31
0.0
 12
15.9819702117
 22
14.0953876365
 32
0.0
 13
15.9819702117
 23
14.0953876365
 33
0.0
  0
SOLID
  5
31A
  8
___SYMBOL
  6
CONTINUOUS
 62
     2
 10
16.132827726799999
 20
14.0154661098
 30
0.0
 11
15.8237235684
 21
13.874239360400001
 31
0.0
 12
15.9819702117
 22
14.0154661098
 32
0.0
 13
15.9819702117
 23
14.0154661098
 33
0.0
  0
SOLID
  5
31B
  8
___SYMBOL
  6
CONTINUOUS
 62
     2
 10
15.9819702117
 20
14.0154661098
 30
0.0
 11
15.8237235684
 21
13.874239360400001
 31
0.0
 12
15.9819702117
 22
14.0953876365
 32
0.0
 13
15.9819702117
 23
14.0953876365
 33
0.0
  0
SOLID
  5
31C
  8
___SYMBOL
  6
CONTINUOUS
 62
     2
 10
16.132827726799999
 20
14.2397692301
 30
0.0
 11
15.9819702117
 21
14.0953876365
 31
0.0
 12
15.9819702117
 22
14.2397692301
 32
0.0
 13
15.9819702117
 23
14.2397692301
 33
0.0
  0
SOLID
  5
31D
  8
___SYMBOL
  6
CONTINUOUS
 62
     2
 10
15.9819702117
 20
14.0953876365
 30
0.0
 11
15.8237235684
 21
13.874239360400001
 31
0.0
 12
15.9819702117
 22
14.2397692301
 32
0.0
 13
15.9819702117
 23
14.2397692301
 33
0.0
  0
SOLID
  5
31E
  8
___SYMBOL
  6
CONTINUOUS
 62
     2
 10
15.9819702117
 20
14.2397692301
 30
0.0
 11
15.8237235684
 21
13.874239360400001
 31
0.0
 12
15.9819702117
 22
14.3173935888
 32
0.0
 13
15.9819702117
 23
14.3173935888
 33
0.0
  0
SOLID
  5
31F
  8
___SYMBOL
  6
CONTINUOUS
 62
     2
 10
16.132827726799999
 20
14.4601529777
 30
0.0
 11
15.9819702117
 21
14.3173935888
 31
0.0
 12
15.9961745343
 22
14.4601529777
 32
0.0
 13
15.9961745343
 23
14.4601529777
 33
0.0
  0
SOLID
  5
320
  8
___SYMBOL
  6
CONTINUOUS
 62
     2
 10
15.9819702117
 20
14.3173935888
 30
0.0
 11
15.8237235684
 21
13.874239360400001
 31
0.0
 12
15.9961745343
 22
14.4601529777
 32
0.0
 13
15.9961745343
 23
14.4601529777
 33
0.0
  0
SOLID
  5
321
  8
___SYMBOL
  6
CONTINUOUS
 62
     2
 10
15.8237235684
 20
13.874239360400001
 30
0.0
 11
15.8237235684
 21
14.4601529777
 31
0.0
 12
15.9961745343
 22
14.4601529777
 32
0.0
 13
15.9961745343
 23
14.4601529777
 33
0.0
  0
SOLID
  5
322
  8
___SYMBOL
  6
CONTINUOUS
 62
     2
 10
16.132827726799999
 20
14.0154661098
 30
0.0
 11
16.132827726799999
 21
13.874239360400001
 31
0.0
 12
15.8237235684
 22
13.874239360400001
 32
0.0
 13
15.8237235684
 23
13.874239360400001
 33
0.0
  0
LINE
  5
323
  8
___SYMBOL
  6
CONTINUOUS
 62
     2
 10
16.643078104899999
 20
13.874239360400001
 30
0.0
 11
16.4836348706
 21
14.125821887900001
 31
0.0
  0
ARC
  5
324
  8
___SYMBOL
  6
CONTINUOUS
 62
     2
 10
16.4111956269
 20
14.2851434766
 30
0.0
 40
0.1750166067
 50
294.4500166359
 51
90.0
  0
LINE
  5
325
  8
___SYMBOL
  6
CONTINUOUS
 62
     2
 10
16.177647939100002
 20
14.4601529777
 30
0.0
 11
16.4111956269
 21
14.4601529777
 31
0.0
  0
LINE
  5
326
  8
___SYMBOL
  6
CONTINUOUS
 62
     2
 10
16.177647939100002
 20
13.874239360400001
 30
0.0
 11
16.177647939100002
 21
14.4601529777
 31
0.0
  0
LINE
  5
327
  8
___SYMBOL
  6
CONTINUOUS
 62
     2
 10
16.177647939100002
 20
13.874239360400001
 30
0.0
 11
16.3283037534
 21
13.874239360400001
 31
0.0
  0
LINE
  5
328
  8
___SYMBOL
  6
CONTINUOUS
 62
     2
 10
16.3283037534
 20
14.0711957205
 30
0.0
 11
16.3283037534
 21
13.874239360400001
 31
0.0
  0
LINE
  5
329
  8
___SYMBOL
  6
CONTINUOUS
 62
     2
 10
16.453127175700001
 20
13.874239360400001
 30
0.0
 11
16.3283037534
 21
14.0711957205
 31
0.0
  0
LINE
  5
32A
  8
___SYMBOL
  6
CONTINUOUS
 62
     2
 10
16.453127175700001
 20
13.874239360400001
 30
0.0
 11
16.643078104899999
 21
13.874239360400001
 31
0.0
  0
LINE
  5
32B
  8
___SYMBOL
  6
CONTINUOUS
 62
     2
 10
16.3283037534
 20
14.2104710235
 30
0.0
 11
16.3806435007
 21
14.2104710235
 31
0.0
  0
ARC
  5
32C
  8
___SYMBOL
  6
CONTINUOUS
 62
     2
 10
16.384233529799999
 20
14.2639624201
 30
0.0
 40
0.0536117321
 50
266.1604009902
 51
89.999891051199995
  0
LINE
  5
32D
  8
___SYMBOL
  6
CONTINUOUS
 62
     2
 10
16.384233631800001
 20
14.317574152200001
 30
0.0
 11
16.3283037534
 21
14.317574152200001
 31
0.0
  0
LINE
  5
32E
  8
___SYMBOL
  6
CONTINUOUS
 62
     2
 10
16.3283037534
 20
14.317574152200001
 30
0.0
 11
16.3283037534
 21
14.2104710235
 31
0.0
  0
SOLID
  5
32F
  8
___SYMBOL
  6
CONTINUOUS
 62
     2
 10
16.4111956269
 20
14.4601600833
 30
0.0
 11
16.458128647900001
 21
14.4537498352
 31
0.0
 12
16.177647939100002
 22
14.4601529777
 32
0.0
 13
16.177647939100002
 23
14.4601529777
 33
0.0
  0
SOLID
  5
330
  8
___SYMBOL
  6
CONTINUOUS
 62
     2
 10
16.3283037534
 20
14.317574152200001
 30
0.0
 11
16.582243480599999
 21
14.322203487399999
 31
0.0
 12
16.384233631800001
 22
14.317574152200001
 32
0.0
 13
16.384233631800001
 23
14.317574152200001
 33
0.0
  0
SOLID
  5
331
  8
___SYMBOL
  6
CONTINUOUS
 62
     2
 10
16.384233631800001
 20
14.317574152200001
 30
0.0
 11
16.582243480599999
 21
14.322203487399999
 31
0.0
 12
16.4079562121
 22
14.3120399841
 32
0.0
 13
16.4079562121
 23
14.3120399841
 33
0.0
  0
SOLID
  5
332
  8
___SYMBOL
  6
CONTINUOUS
 62
     2
 10
16.4079562121
 20
14.3120399841
 30
0.0
 11
16.582243480599999
 21
14.322203487399999
 31
0.0
 12
16.426781198699999
 22
14.296580109900001
 32
0.0
 13
16.426781198699999
 23
14.296580109900001
 33
0.0
  0
SOLID
  5
333
  8
___SYMBOL
  6
CONTINUOUS
 62
     2
 10
16.582243480599999
 20
14.322203487399999
 30
0.0
 11
16.585916726800001
 21
14.274977361199999
 31
0.0
 12
16.426781198699999
 22
14.296580109900001
 32
0.0
 13
16.426781198699999
 23
14.296580109900001
 33
0.0
  0
SOLID
  5
334
  8
___SYMBOL
  6
CONTINUOUS
 62
     2
 10
16.436822136699998
 20
14.274386250499999
 30
0.0
 11
16.426781198699999
 21
14.296580109900001
 31
0.0
 12
16.585916726800001
 22
14.274977361199999
 32
0.0
 13
16.585916726800001
 23
14.274977361199999
 33
0.0
  0
SOLID
  5
335
  8
___SYMBOL
  6
CONTINUOUS
 62
     2
 10
16.436822136699998
 20
14.274386250499999
 30
0.0
 11
16.585916726800001
 21
14.274977361199999
 31
0.0
 12
16.436006055099998
 22
14.250040371200001
 32
0.0
 13
16.436006055099998
 23
14.250040371200001
 33
0.0
  0
SOLID
  5
336
  8
___SYMBOL
  6
CONTINUOUS
 62
     2
 10
16.436006055099998
 20
14.250040371200001
 30
0.0
 11
16.585916726800001
 21
14.274977361199999
 31
0.0
 12
16.4245014354
 22
14.228568725800001
 32
0.0
 13
16.4245014354
 23
14.228568725800001
 33
0.0
  0
SOLID
  5
337
  8
___SYMBOL
  6
CONTINUOUS
 62
     2
 10
16.585916726800001
 20
14.274977361199999
 30
0.0
 11
16.5767911236
 21
14.2284959337
 31
0.0
 12
16.4245014354
 22
14.228568725800001
 32
0.0
 13
16.4245014354
 23
14.228568725800001
 33
0.0
  0
SOLID
  5
338
  8
___SYMBOL
  6
CONTINUOUS
 62
     2
 10
16.404683428599999
 20
14.214404177
 30
0.0
 11
16.4245014354
 21
14.228568725800001
 31
0.0
 12
16.5767911236
 22
14.2284959337
 32
0.0
 13
16.5767911236
 23
14.2284959337
 33
0.0
  0
SOLID
  5
339
  8
___SYMBOL
  6
CONTINUOUS
 62
     2
 10
16.404683428599999
 20
14.214404177
 30
0.0
 11
16.5767911236
 21
14.2284959337
 31
0.0
 12
16.3806435007
 22
14.2104710235
 32
0.0
 13
16.3806435007
 23
14.2104710235
 33
0.0
  0
SOLID
  5
33A
  8
___SYMBOL
  6
CONTINUOUS
 62
     2
 10
16.5767911236
 20
14.2284959337
 30
0.0
 11
16.555535149099999
 21
14.1861641101
 31
0.0
 12
16.3806435007
 22
14.2104710235
 32
0.0
 13
16.3806435007
 23
14.2104710235
 33
0.0
  0
SOLID
  5
33B
  8
___SYMBOL
  6
CONTINUOUS
 62
     2
 10
16.4836348706
 20
14.125821887900001
 30
0.0
 11
16.3283037534
 21
14.0711957205
 31
0.0
 12
16.523705867699999
 22
14.1510828248
 32
0.0
 13
16.523705867699999
 23
14.1510828248
 33
0.0
  0
SOLID
  5
33C
  8
___SYMBOL
  6
CONTINUOUS
 62
     2
 10
16.523705867699999
 20
14.1510828248
 30
0.0
 11
16.3283037534
 21
14.0711957205
 31
0.0
 12
16.555535149099999
 22
14.1861641101
 32
0.0
 13
16.555535149099999
 23
14.1861641101
 33
0.0
  0
SOLID
  5
33D
  8
___SYMBOL
  6
CONTINUOUS
 62
     2
 10
16.555535149099999
 20
14.1861641101
 30
0.0
 11
16.3283037534
 21
14.0711957205
 31
0.0
 12
16.3806435007
 22
14.2104710235
 32
0.0
 13
16.3806435007
 23
14.2104710235
 33
0.0
  0
SOLID
  5
33E
  8
___SYMBOL
  6
CONTINUOUS
 62
     2
 10
16.3283037534
 20
14.0711957205
 30
0.0
 11
16.177647939100002
 21
13.874239360400001
 31
0.0
 12
16.3806435007
 22
14.2104710235
 32
0.0
 13
16.3806435007
 23
14.2104710235
 33
0.0
  0
SOLID
  5
33F
  8
___SYMBOL
  6
CONTINUOUS
 62
     2
 10
16.3806435007
 20
14.2104710235
 30
0.0
 11
16.177647939100002
 21
13.874239360400001
 31
0.0
 12
16.3283037534
 22
14.2104710235
 32
0.0
 13
16.3283037534
 23
14.2104710235
 33
0.0
  0
SOLID
  5
340
  8
___SYMBOL
  6
CONTINUOUS
 62
     2
 10
16.3283037534
 20
14.2104710235
 30
0.0
 11
16.177647939100002
 21
13.874239360400001
 31
0.0
 12
16.3283037534
 22
14.317574152200001
 32
0.0
 13
16.3283037534
 23
14.317574152200001
 33
0.0
  0
SOLID
  5
341
  8
___SYMBOL
  6
CONTINUOUS
 62
     2
 10
16.582243480599999
 20
14.322203487399999
 30
0.0
 11
16.3283037534
 21
14.317574152200001
 31
0.0
 12
16.566040461299998
 22
14.3667148557
 32
0.0
 13
16.566040461299998
 23
14.3667148557
 33
0.0
  0
SOLID
  5
342
  8
___SYMBOL
  6
CONTINUOUS
 62
     2
 10
16.566040461299998
 20
14.3667148557
 30
0.0
 11
16.3283037534
 21
14.317574152200001
 31
0.0
 12
16.538494589300001
 22
14.4052508736
 32
0.0
 13
16.538494589300001
 23
14.4052508736
 33
0.0
  0
SOLID
  5
343
  8
___SYMBOL
  6
CONTINUOUS
 62
     2
 10
16.538494589300001
 20
14.4052508736
 30
0.0
 11
16.3283037534
 21
14.317574152200001
 31
0.0
 12
16.501623682999998
 22
14.434988661
 32
0.0
 13
16.501623682999998
 23
14.434988661
 33
0.0
  0
SOLID
  5
344
  8
___SYMBOL
  6
CONTINUOUS
 62
     2
 10
16.501623682999998
 20
14.434988661
 30
0.0
 11
16.3283037534
 21
14.317574152200001
 31
0.0
 12
16.458128647900001
 22
14.4537498352
 32
0.0
 13
16.458128647900001
 23
14.4537498352
 33
0.0
  0
SOLID
  5
345
  8
___SYMBOL
  6
CONTINUOUS
 62
     2
 10
16.458128647900001
 20
14.4537498352
 30
0.0
 11
16.3283037534
 21
14.317574152200001
 31
0.0
 12
16.177647939100002
 22
14.4601529777
 32
0.0
 13
16.177647939100002
 23
14.4601529777
 33
0.0
  0
SOLID
  5
346
  8
___SYMBOL
  6
CONTINUOUS
 62
     2
 10
16.177647939100002
 20
13.874239360400001
 30
0.0
 11
16.177647939100002
 21
14.4601529777
 31
0.0
 12
16.3283037534
 22
14.317574152200001
 32
0.0
 13
16.3283037534
 23
14.317574152200001
 33
0.0
  0
SOLID
  5
347
  8
___SYMBOL
  6
CONTINUOUS
 62
     2
 10
16.3283037534
 20
14.0711957205
 30
0.0
 11
16.3283037534
 21
13.874239360400001
 31
0.0
 12
16.177647939100002
 22
13.874239360400001
 32
0.0
 13
16.177647939100002
 23
13.874239360400001
 33
0.0
  0
SOLID
  5
348
  8
___SYMBOL
  6
CONTINUOUS
 62
     2
 10
16.3283037534
 20
14.0711957205
 30
0.0
 11
16.4836348706
 21
14.125821887900001
 31
0.0
 12
16.453127175700001
 22
13.874239360400001
 32
0.0
 13
16.453127175700001
 23
13.874239360400001
 33
0.0
  0
SOLID
  5
349
  8
___SYMBOL
  6
CONTINUOUS
 62
     2
 10
16.4836348706
 20
14.125821887900001
 30
0.0
 11
16.643078104899999
 21
13.874239360400001
 31
0.0
 12
16.453127175700001
 22
13.874239360400001
 32
0.0
 13
16.453127175700001
 23
13.874239360400001
 33
0.0
  0
CIRCLE
  5
34A
  8
___SYMBOL
  6
CONTINUOUS
 62
     2
 10
16.783848071800001
 20
13.874239360400001
 30
0.0
 40
0.0653578685
  0
LINE
  5
34B
  8
___SYMBOL
  6
CONTINUOUS
 62
     2
 10
16.779560048800001
 20
13.873701611
 30
0.0
 11
16.811428059800001
 21
13.8413986714
 31
0.0
  0
LINE
  5
34C
  8
___SYMBOL
  6
CONTINUOUS
 62
     2
 10
16.7679620732
 20
13.8413986714
 30
0.0
 11
16.7679620732
 21
13.9073648667
 31
0.0
  0
LINE
  5
34D
  8
___SYMBOL
  6
CONTINUOUS
 62
     2
 10
16.7679620732
 20
13.9073648667
 30
0.0
 11
16.7922414049
 21
13.9073648667
 31
0.0
  0
ARC
  5
34E
  8
___SYMBOL
  6
CONTINUOUS
 62
     2
 10
16.7922414049
 20
13.890533418
 30
0.0
 40
0.0168314487
 50
270.0
 51
90.0
  0
LINE
  5
34F
  8
___SYMBOL
  6
CONTINUOUS
 62
     2
 10
16.7922414049
 20
13.873701611
 30
0.0
 11
16.7679620732
 21
13.873701611
 31
0.0
  0
ENDBLK
  5
350
  8
0
  6
BYBLOCK
 62
     0
  0
BLOCK
  8
TABLE_BL6
  2
TABLE_BL6
 70
     0
 10
30.5250002292
 20
2.187500031399999
 30
0.0
  3
TABLE_BL6
  1

  0
LINE
  5
352
  8
TABLE_BL6
  6
CONTINUOUS
 62
     2
 10
33.52500022920001
 20
0.5875000314
 30
0.0
 11
27.5250002292
 21
0.5875000314
 31
0.0
  0
LINE
  5
353
  8
TABLE_BL6
  6
CONTINUOUS
 62
     2
 10
33.52500022920001
 20
0.5875000314
 30
0.0
 11
33.52500022920001
 21
3.7875000314
 31
0.0
  0
LINE
  5
354
  8
TABLE_BL6
  6
CONTINUOUS
 62
     2
 10
33.52500022920001
 20
1.0175000314
 30
0.0
 11
28.895000229200001
 21
1.0175000314
 31
0.0
  0
LINE
  5
355
  8
TABLE_BL6
  6
CONTINUOUS
 62
     2
 10
33.52500022920001
 20
1.7175000314
 30
0.0
 11
31.675000229199998
 21
1.7175000314
 31
0.0
  0
LINE
  5
356
  8
TABLE_BL6
  6
CONTINUOUS
 62
     2
 10
28.895000229200001
 20
1.7175000314
 30
0.0
 11
27.5250002292
 21
1.7175000314
 31
0.0
  0
LINE
  5
357
  8
TABLE_BL6
  6
CONTINUOUS
 62
     2
 10
33.52500022920001
 20
1.857500031399999
 30
0.0
 11
28.895000229200001
 21
1.857500031399999
 31
0.0
  0
LINE
  5
358
  8
TABLE_BL6
  6
CONTINUOUS
 62
     2
 10
33.52500022920001
 20
2.5175000314
 30
0.0
 11
28.895000229200001
 21
2.5175000314
 31
0.0
  0
LINE
  5
359
  8
TABLE_BL6
  6
CONTINUOUS
 62
     2
 10
32.6850002292
 20
2.7375000313999989
 30
0.0
 11
28.895000229200001
 21
2.7375000313999989
 31
0.0
  0
LINE
  5
35A
  8
TABLE_BL6
  6
CONTINUOUS
 62
     2
 10
33.52500022920001
 20
3.2075000313999991
 30
0.0
 11
28.895000229200001
 21
3.2075000313999991
 31
0.0
  0
LINE
  5
35B
  8
TABLE_BL6
  6
CONTINUOUS
 62
     2
 10
33.52500022920001
 20
3.5375000314
 30
0.0
 11
27.5250002292
 21
3.5375000314
 31
0.0
  0
LINE
  5
35C
  8
TABLE_BL6
  6
CONTINUOUS
 62
     2
 10
33.52500022920001
 20
3.7875000314
 30
0.0
 11
27.5250002292
 21
3.7875000314
 31
0.0
  0
LINE
  5
35D
  8
TABLE_BL6
  6
CONTINUOUS
 62
     2
 10
33.015000229199998
 20
0.5875000314
 30
0.0
 11
33.015000229199998
 21
1.0175000314
 31
0.0
  0
LINE
  5
35E
  8
TABLE_BL6
  6
CONTINUOUS
 62
     2
 10
32.6850002292
 20
2.5175000314
 30
0.0
 11
32.6850002292
 21
3.5375000314
 31
0.0
  0
LINE
  5
35F
  8
TABLE_BL6
  6
CONTINUOUS
 62
     2
 10
31.965000229200001
 20
2.7375000313999989
 30
0.0
 11
31.965000229200001
 21
3.5375000314
 31
0.0
  0
LINE
  5
360
  8
TABLE_BL6
  6
CONTINUOUS
 62
     2
 10
31.675000229199998
 20
1.7175000314
 30
0.0
 11
31.675000229199998
 21
2.7375000313999989
 31
0.0
  0
LINE
  5
361
  8
TABLE_BL6
  6
CONTINUOUS
 62
     2
 10
30.995000229199999
 20
2.7375000313999989
 30
0.0
 11
30.995000229199999
 21
3.5375000314
 31
0.0
  0
LINE
  5
362
  8
TABLE_BL6
  6
CONTINUOUS
 62
     2
 10
29.9150002292
 20
2.7375000313999989
 30
0.0
 11
29.9150002292
 21
3.2075000313999991
 31
0.0
  0
LINE
  5
363
  8
TABLE_BL6
  6
CONTINUOUS
 62
     2
 10
28.895000229200001
 20
0.5875000314
 30
0.0
 11
28.895000229200001
 21
3.5375000314
 31
0.0
  0
LINE
  5
364
  8
TABLE_BL6
  6
CONTINUOUS
 62
     2
 10
27.5250002292
 20
0.5875000314
 30
0.0
 11
27.5250002292
 21
3.7875000314
 31
0.0
  0
INSERT
  5
365
  8
0
  2
*U24
 10
0.0
 20
0.0
 30
0.0
  0
TEXT
  5
366
  8
TABLE_BL6
  6
CONTINUOUS
 62
     2
 10
30.283000229199999
 20
0.6825000314000002
 30
0.0
 40
0.24
  1
114635-7
 41
0.8
 72
     1
 11
30.955000229199999
 21
0.6825000314000002
 31
0.0
  0
TEXT
  5
367
  8
TABLE_BL6
  6
CONTINUOUS
 62
     2
 10
29.530000229199999
 20
1.2475000313999991
 30
0.0
 40
0.24
  1
TEMPLATE, LAVATORY
 41
0.8
 72
     1
 11
31.210000229200009
 21
1.2475000313999991
 31
0.0
  0
TEXT
  5
368
  8
TABLE_BL6
  6
CONTINUOUS
 62
     2
 10
32.711666895866671
 20
1.7375000313999991
 30
0.0
 40
0.1
  1
MODEL NAME
 41
0.8
 72
     2
 11
33.485000229200011
 21
1.7375000313999991
 31
0.0
  0
TEXT
  5
369
  8
TABLE_BL6
  6
CONTINUOUS
 62
     2
 10
27.565000229199999
 20
1.917500031399999
 30
0.0
 40
0.1
  1
    ANG %%p 
 41
0.8366666667
  0
TEXT
  5
36A
  8
TABLE_BL6
  6
CONTINUOUS
 62
     2
 10
28.4016668959
 20
1.917500031399999
 30
0.0
 40
0.1
  1
3.0
 41
0.8
  0
TEXT
  5
36B
  8
TABLE_BL6
  6
CONTINUOUS
 62
     2
 10
27.565000229199999
 20
2.1375000313999988
 30
0.0
 40
0.1
  1
     .X %%p
 41
0.8407407406999999
  0
TEXT
  5
36C
  8
TABLE_BL6
  6
CONTINUOUS
 62
     2
 10
28.321666895900002
 20
2.1375000313999988
 30
0.0
 40
0.1
  1
 
 41
0.8
  0
TEXT
  5
36D
  8
TABLE_BL6
  6
CONTINUOUS
 62
     2
 10
28.4016668959
 20
2.1375000313999988
 30
0.0
 40
0.1
  1
0.1
 41
0.8
  0
TEXT
  5
36E
  8
TABLE_BL6
  6
CONTINUOUS
 62
     2
 10
27.565000229199999
 20
2.357500031399999
 30
0.0
 40
0.1
  1
    .XX %%p 
 41
0.8366666667
  0
TEXT
  5
36F
  8
TABLE_BL6
  6
CONTINUOUS
 62
     2
 10
28.4016668959
 20
2.357500031399999
 30
0.0
 40
0.1
  1
0.20
 41
0.8
  0
TEXT
  5
370
  8
TABLE_BL6
  6
CONTINUOUS
 62
     2
 10
27.565000229199999
 20
2.5775000314000001
 30
0.0
 40
0.1
  1
   .XXX %%p 
 41
0.8366666667
  0
TEXT
  5
371
  8
TABLE_BL6
  6
CONTINUOUS
 62
     2
 10
28.4016668959
 20
2.5775000314000001
 30
0.0
 40
0.1
  1
0.010
 41
0.8
  0
TEXT
  5
372
  8
TABLE_BL6
  6
CONTINUOUS
 62
     2
 10
30.241666895866668
 20
2.7875000314
 30
0.0
 40
0.1
  1
11.16.99
 41
0.8
 72
     1
 11
30.455000229199999
 21
2.7875000314
 31
0.0
  0
TEXT
  5
373
  8
TABLE_BL6
  6
CONTINUOUS
 62
     2
 10
29.29833356253334
 20
2.7875000314
 30
0.0
 40
0.1
  1
FJF
 41
0.8
 72
     1
 11
29.405000229199999
 21
2.7875000314
 31
0.0
  0
TEXT
  5
374
  8
TABLE_BL6
  6
CONTINUOUS
 62
     2
 10
32.978333562533336
 20
3.2575000313999989
 30
0.0
 40
0.1
  1
1.000
 41
0.8
 72
     1
 11
33.105000229200002
 21
3.2575000313999989
 31
0.0
  0
TEXT
  5
375
  8
TABLE_BL6
  6
CONTINUOUS
 62
     2
 10
32.085000229199999
 20
3.2575000313999989
 30
0.0
 40
0.1
  1
06.27.03
 41
0.8
 72
     1
 11
32.3250002292
 21
3.2575000313999989
 31
0.0
  0
TEXT
  5
376
  8
TABLE_BL6
  6
CONTINUOUS
 62
     2
 10
31.24000022920001
 20
3.2575000313999989
 30
0.0
 40
0.1
  1
06.27.03
 41
0.8
 72
     1
 11
31.480000229200002
 21
3.2575000313999989
 31
0.0
  0
TEXT
  5
377
  8
TABLE_BL6
  6
CONTINUOUS
 62
     2
 10
29.47833356253334
 20
3.2575000313999989
 30
0.0
 40
0.1
  1
PAUL LEFEBER
 41
0.8
 72
     1
 11
29.945000229200001
 21
3.2575000313999989
 31
0.0
  0
ENDBLK
  5
378
  8
0
  6
BYBLOCK
 62
     0
  0
BLOCK
  8
TABLE_BL7
  2
TABLE_BL7
 70
     0
 10
25.275000490299998
 20
2.1875000178000001
 30
0.0
  3
TABLE_BL7
  1

  0
LINE
  5
37A
  8
TABLE_BL7
  6
CONTINUOUS
 62
     2
 10
27.525000490299998
 20
0.5875000178000001
 30
0.0
 11
23.025000490299998
 21
0.5875000178000001
 31
0.0
  0
LINE
  5
37B
  8
TABLE_BL7
  6
CONTINUOUS
 62
     2
 10
27.525000490299998
 20
0.5875000178000001
 30
0.0
 11
27.525000490299998
 21
3.7875000177999989
 31
0.0
  0
LINE
  5
37C
  8
TABLE_BL7
  6
CONTINUOUS
 62
     2
 10
27.525000490299998
 20
0.8475000178
 30
0.0
 11
23.025000490299998
 21
0.8475000178
 31
0.0
  0
LINE
  5
37D
  8
TABLE_BL7
  6
CONTINUOUS
 62
     2
 10
27.525000490299998
 20
1.1075000178000001
 30
0.0
 11
23.025000490299998
 21
1.1075000178000001
 31
0.0
  0
LINE
  5
37E
  8
TABLE_BL7
  6
CONTINUOUS
 62
     2
 10
27.525000490299998
 20
1.3505000177999991
 30
0.0
 11
23.025000490299998
 21
1.3505000177999991
 31
0.0
  0
LINE
  5
37F
  8
TABLE_BL7
  6
CONTINUOUS
 62
     2
 10
27.525000490299998
 20
1.5935000178000001
 30
0.0
 11
23.025000490299998
 21
1.5935000178000001
 31
0.0
  0
LINE
  5
380
  8
TABLE_BL7
  6
CONTINUOUS
 62
     2
 10
27.525000490299998
 20
1.8365000177999991
 30
0.0
 11
23.025000490299998
 21
1.8365000177999991
 31
0.0
  0
LINE
  5
381
  8
TABLE_BL7
  6
CONTINUOUS
 62
     2
 10
27.525000490299998
 20
2.0795000178
 30
0.0
 11
23.025000490299998
 21
2.0795000178
 31
0.0
  0
LINE
  5
382
  8
TABLE_BL7
  6
CONTINUOUS
 62
     2
 10
27.525000490299998
 20
2.322500017799999
 30
0.0
 11
23.025000490299998
 21
2.322500017799999
 31
0.0
  0
LINE
  5
383
  8
TABLE_BL7
  6
CONTINUOUS
 62
     2
 10
27.525000490299998
 20
2.5655000177999989
 30
0.0
 11
23.025000490299998
 21
2.5655000177999989
 31
0.0
  0
LINE
  5
384
  8
TABLE_BL7
  6
CONTINUOUS
 62
     2
 10
27.525000490299998
 20
2.8085000177999988
 30
0.0
 11
23.025000490299998
 21
2.8085000177999988
 31
0.0
  0
LINE
  5
385
  8
TABLE_BL7
  6
CONTINUOUS
 62
     2
 10
27.525000490299998
 20
3.0515000177999991
 30
0.0
 11
23.025000490299998
 21
3.0515000177999991
 31
0.0
  0
LINE
  5
386
  8
TABLE_BL7
  6
CONTINUOUS
 62
     2
 10
27.525000490299998
 20
3.294500017799999
 30
0.0
 11
23.025000490299998
 21
3.294500017799999
 31
0.0
  0
LINE
  5
387
  8
TABLE_BL7
  6
CONTINUOUS
 62
     2
 10
27.525000490299998
 20
3.5375000177999989
 30
0.0
 11
23.025000490299998
 21
3.5375000177999989
 31
0.0
  0
LINE
  5
388
  8
TABLE_BL7
  6
CONTINUOUS
 62
     2
 10
27.525000490299998
 20
3.7875000177999989
 30
0.0
 11
23.025000490299998
 21
3.7875000177999989
 31
0.0
  0
LINE
  5
389
  8
TABLE_BL7
  6
CONTINUOUS
 62
     2
 10
26.8750004903
 20
0.8475000178
 30
0.0
 11
26.8750004903
 21
3.5375000177999989
 31
0.0
  0
LINE
  5
38A
  8
TABLE_BL7
  6
CONTINUOUS
 62
     2
 10
24.80500049030001
 20
0.8475000178
 30
0.0
 11
24.80500049030001
 21
3.5375000177999989
 31
0.0
  0
LINE
  5
38B
  8
TABLE_BL7
  6
CONTINUOUS
 62
     2
 10
24.245000490300001
 20
0.8475000178
 30
0.0
 11
24.245000490300001
 21
3.5375000177999989
 31
0.0
  0
LINE
  5
38C
  8
TABLE_BL7
  6
CONTINUOUS
 62
     2
 10
23.615000490300002
 20
0.8475000178
 30
0.0
 11
23.615000490300002
 21
3.5375000177999989
 31
0.0
  0
LINE
  5
38D
  8
TABLE_BL7
  6
CONTINUOUS
 62
     2
 10
23.025000490299998
 20
0.5875000178000001
 30
0.0
 11
23.025000490299998
 21
3.7875000177999989
 31
0.0
  0
TEXT
  5
38E
  8
TABLE_BL7
  6
CONTINUOUS
 62
     2
 10
26.960000490300011
 20
1.1790000177999991
 30
0.0
 40
0.1
  1
06.27.03
 41
0.8
 72
     1
 11
27.200000490299999
 21
1.1790000177999991
 31
0.0
  0
TEXT
  5
38F
  8
TABLE_BL7
  6
CONTINUOUS
 62
     2
 10
25.200000490299999
 20
1.1790000177999991
 30
0.0
 40
0.1
  1
SEE PCI #P0303475
 41
0.8
 72
     1
 11
25.84000049030001
 21
1.1790000177999991
 31
0.0
  0
TEXT
  5
390
  8
TABLE_BL7
  6
CONTINUOUS
 62
     2
 10
24.41833382363334
 20
1.1790000177999991
 30
0.0
 40
0.1
  1
DEL
 41
0.8
 72
     1
 11
24.525000490299998
 21
1.1790000177999991
 31
0.0
  0
TEXT
  5
391
  8
TABLE_BL7
  6
CONTINUOUS
 62
     2
 10
23.86333382363334
 20
1.1790000177999991
 30
0.0
 40
0.1
  1
BC
 41
0.8
 72
     1
 11
23.930000490299999
 21
1.1790000177999991
 31
0.0
  0
TEXT
  5
392
  8
TABLE_BL7
  6
CONTINUOUS
 62
     2
 10
23.306667156966672
 20
1.1790000177999991
 30
0.0
 40
0.1
  1
1
 41
0.8
 72
     1
 11
23.3200004903
 21
1.1790000177999991
 31
0.0
  0
ENDBLK
  5
393
  8
0
  6
BYBLOCK
 62
     0
  0
BLOCK
  8
0
  2
*U12
 70
     1
 10
0.0
 20
0.0
 30
0.0
  3
*U12
  1

  0
SOLID
  5
515
  8
0
  6
CONTINUOUS
 62
     2
 10
30.677809000000011
 20
2.3477709999999989
 30
0.0
 11
30.677809000000011
 21
2.3477709999999989
 31
0.0
 12
30.744809000000011
 22
2.3477709999999989
 32
0.0
 13
30.744809000000011
 23
2.3477709999999989
 33
0.0
210
0.0
220
0.0
230
1.0
  0
SOLID
  5
516
  8
0
  6
CONTINUOUS
 62
     2
 10
30.677809000000011
 20
2.3477709999999989
 30
0.0
 11
30.677809000000011
 21
2.2864584999999988
 31
0.0
 12
30.744809000000011
 22
2.2864584999999988
 32
0.0
 13
30.744809000000011
 23
2.2864584999999988
 33
0.0
210
0.0
220
0.0
230
1.0
  0
SOLID
  5
517
  8
0
  6
CONTINUOUS
 62
     2
 10
-30.677809000000011
 20
2.3477709999999989
 30
0.0
 11
-30.744809000000011
 21
2.3477709999999989
 31
0.0
 12
-30.744809000000011
 22
2.2864584999999988
 32
0.0
 13
-30.744809000000011
 23
2.2864584999999988
 33
0.0
210
0.0
220
0.0
230
-1.0
  0
SOLID
  5
518
  8
0
  6
CONTINUOUS
 62
     2
 10
30.744809000000011
 20
2.2864584999999988
 30
0.0
 11
30.744809000000011
 21
2.2864584999999988
 31
0.0
 12
30.778184
 22
2.2864584999999988
 32
0.0
 13
30.778184
 23
2.2864584999999988
 33
0.0
210
0.0
220
0.0
230
1.0
  0
SOLID
  5
519
  8
0
  6
CONTINUOUS
 62
     2
 10
30.778184
 20
2.2864584999999988
 30
0.0
 11
30.778184
 21
2.2864584999999988
 31
0.0
 12
30.858650134000001
 22
2.2864584999999988
 32
0.0
 13
30.858650134000001
 23
2.2864584999999988
 33
0.0
210
0.0
220
0.0
230
1.0
  0
SOLID
  5
51A
  8
0
  6
CONTINUOUS
 62
     2
 10
30.677809000000011
 20
2.2864584999999988
 30
0.0
 11
30.677809000000011
 21
2.2670431161999991
 31
0.0
 12
30.849768317900001
 22
2.2670431161999991
 32
0.0
 13
30.849768317900001
 23
2.2670431161999991
 33
0.0
  0
SOLID
  5
51B
  8
0
  6
CONTINUOUS
 62
     2
 10
-30.677809000000011
 20
2.2864584999999988
 30
0.0
 11
-30.858650134000001
 21
2.2864584999999988
 31
0.0
 12
-30.849768317900001
 22
2.2670431161999991
 32
0.0
 13
-30.849768317900001
 23
2.2670431161999991
 33
0.0
210
0.0
220
0.0
230
-1.0
  0
SOLID
  5
51C
  8
0
  6
CONTINUOUS
 62
     2
 10
30.677809000000011
 20
2.2670431161999991
 30
0.0
 11
30.677809000000011
 21
2.2452292458000001
 31
0.0
 12
30.8276357616
 22
2.2452292458000001
 32
0.0
 13
30.8276357616
 23
2.2452292458000001
 33
0.0
210
0.0
220
0.0
230
1.0
  0
SOLID
  5
51D
  8
0
  6
CONTINUOUS
 62
     2
 10
-30.677809000000011
 20
2.2670431161999991
 30
0.0
 11
-30.849768317900001
 21
2.2670431161999991
 31
0.0
 12
-30.8276357616
 22
2.2452292458000001
 32
0.0
 13
-30.8276357616
 23
2.2452292458000001
 33
0.0
210
0.0
220
0.0
230
-1.0
  0
SOLID
  5
51E
  8
0
  6
CONTINUOUS
 62
     2
 10
30.677809000000011
 20
2.2452292458000001
 30
0.0
 11
30.677809000000011
 21
2.2303959999999989
 31
0.0
 12
30.83586673958326
 22
2.2303959999999989
 32
0.0
 13
30.83586673958326
 23
2.2303959999999989
 33
0.0
210
0.0
220
0.0
230
1.0
  0
SOLID
  5
51F
  8
0
  6
CONTINUOUS
 62
     2
 10
-30.677809000000011
 20
2.2452292458000001
 30
0.0
 11
-30.8276357616
 21
2.2452292458000001
 31
0.0
 12
-30.83586673958326
 22
2.2303959999999989
 32
0.0
 13
-30.83586673958326
 23
2.2303959999999989
 33
0.0
210
0.0
220
0.0
230
-1.0
  0
SOLID
  5
520
  8
0
  6
CONTINUOUS
 62
     2
 10
30.744809000000011
 20
2.2303959999999989
 30
0.0
 11
30.744809000000011
 21
2.2303959999999989
 31
0.0
 12
30.759242792199998
 22
2.2303959999999989
 32
0.0
 13
30.759242792199998
 23
2.2303959999999989
 33
0.0
210
0.0
220
0.0
230
1.0
  0
SOLID
  5
521
  8
0
  6
CONTINUOUS
 62
     2
 10
30.677809000000011
 20
2.2303959999999989
 30
0.0
 11
30.677809000000011
 21
2.1210209999999989
 31
0.0
 12
30.744809000000011
 22
2.1210209999999989
 32
0.0
 13
30.744809000000011
 23
2.1210209999999989
 33
0.0
210
0.0
220
0.0
230
1.0
  0
SOLID
  5
522
  8
0
  6
CONTINUOUS
 62
     2
 10
-30.677809000000011
 20
2.2303959999999989
 30
0.0
 11
-30.744809000000011
 21
2.2303959999999989
 31
0.0
 12
-30.744809000000011
 22
2.1210209999999989
 32
0.0
 13
-30.744809000000011
 23
2.1210209999999989
 33
0.0
210
0.0
220
0.0
230
-1.0
  0
SOLID
  5
523
  8
0
  6
CONTINUOUS
 62
     2
 10
30.759242792199998
 20
2.2303959999999989
 30
0.0
 11
30.819935052600002
 21
2.1210209999999989
 31
0.0
 12
30.896559
 22
2.1210209999999989
 32
0.0
 13
30.896559
 23
2.1210209999999989
 33
0.0
  0
SOLID
  5
524
  8
0
  6
CONTINUOUS
 62
     2
 10
-30.759242792199998
 20
2.2303959999999989
 30
0.0
 11
-30.83586673958326
 21
2.2303959999999989
 31
0.0
 12
-30.896559
 22
2.1210209999999989
 32
0.0
 13
-30.896559
 23
2.1210209999999989
 33
0.0
210
0.0
220
0.0
230
-1.0
  0
SOLID
  5
525
  8
0
  6
CONTINUOUS
 62
     2
 10
30.677809000000011
 20
2.1210209999999989
 30
0.0
 11
30.677809000000011
 21
2.1210209999999989
 31
0.0
 12
30.744809000000011
 22
2.1210209999999989
 32
0.0
 13
30.744809000000011
 23
2.1210209999999989
 33
0.0
210
0.0
220
0.0
230
1.0
  0
SOLID
  5
526
  8
0
  6
CONTINUOUS
 62
     2
 10
30.819935052600002
 20
2.1210209999999989
 30
0.0
 11
30.819935052600002
 21
2.1210209999999989
 31
0.0
 12
30.896559
 22
2.1210209999999989
 32
0.0
 13
30.896559
 23
2.1210209999999989
 33
0.0
210
0.0
220
0.0
230
1.0
  0
LINE
  5
527
  8
0
  6
CONTINUOUS
 62
     2
 10
30.677809000000011
 20
2.3477709999999989
 30
0.0
 11
30.744809000000011
 21
2.3477709999999989
 31
0.0
  0
LINE
  5
528
  8
0
  6
CONTINUOUS
 62
     2
 10
30.677809000000011
 20
2.3477709999999989
 30
0.0
 11
30.677809000000011
 21
2.2864584999999988
 31
0.0
  0
LINE
  5
529
  8
0
  6
CONTINUOUS
 62
     2
 10
30.744809000000011
 20
2.3477709999999989
 30
0.0
 11
30.744809000000011
 21
2.2864584999999988
 31
0.0
  0
LINE
  5
52A
  8
0
  6
CONTINUOUS
 62
     2
 10
30.744809000000011
 20
2.2864584999999988
 30
0.0
 11
30.778184
 21
2.2864584999999988
 31
0.0
  0
LINE
  5
52B
  8
0
  6
CONTINUOUS
 62
     2
 10
30.778184
 20
2.2864584999999988
 30
0.0
 11
30.858650134000001
 21
2.2864584999999988
 31
0.0
  0
LINE
  5
52C
  8
0
  6
CONTINUOUS
 62
     2
 10
30.677809000000011
 20
2.2864584999999988
 30
0.0
 11
30.677809000000011
 21
2.2670431161999991
 31
0.0
  0
LINE
  5
52D
  8
0
  6
CONTINUOUS
 62
     2
 10
30.858650134000001
 20
2.2864584999999988
 30
0.0
 11
30.849768317900001
 21
2.2670431161999991
 31
0.0
  0
LINE
  5
52E
  8
0
  6
CONTINUOUS
 62
     2
 10
30.677809000000011
 20
2.2670431161999991
 30
0.0
 11
30.677809000000011
 21
2.2452292458000001
 31
0.0
  0
LINE
  5
52F
  8
0
  6
CONTINUOUS
 62
     2
 10
30.849768317900001
 20
2.2670431161999991
 30
0.0
 11
30.8276357616
 21
2.2452292458000001
 31
0.0
  0
LINE
  5
530
  8
0
  6
CONTINUOUS
 62
     2
 10
30.677809000000011
 20
2.2452292458000001
 30
0.0
 11
30.677809000000011
 21
2.2303959999999989
 31
0.0
  0
LINE
  5
531
  8
0
  6
CONTINUOUS
 62
     2
 10
30.8276357616
 20
2.2452292458000001
 30
0.0
 11
30.83586673958326
 21
2.2303959999999989
 31
0.0
  0
LINE
  5
532
  8
0
  6
CONTINUOUS
 62
     2
 10
30.744809000000011
 20
2.2303959999999989
 30
0.0
 11
30.759242792199998
 21
2.2303959999999989
 31
0.0
  0
LINE
  5
533
  8
0
  6
CONTINUOUS
 62
     2
 10
30.677809000000011
 20
2.2303959999999989
 30
0.0
 11
30.677809000000011
 21
2.1210209999999989
 31
0.0
  0
LINE
  5
534
  8
0
  6
CONTINUOUS
 62
     2
 10
30.744809000000011
 20
2.2303959999999989
 30
0.0
 11
30.744809000000011
 21
2.1210209999999989
 31
0.0
  0
LINE
  5
535
  8
0
  6
CONTINUOUS
 62
     2
 10
30.759242792199998
 20
2.2303959999999989
 30
0.0
 11
30.819935052600002
 21
2.1210209999999989
 31
0.0
  0
LINE
  5
536
  8
0
  6
CONTINUOUS
 62
     2
 10
30.83586673958326
 20
2.2303959999999989
 30
0.0
 11
30.896559
 21
2.1210209999999989
 31
0.0
  0
LINE
  5
537
  8
0
  6
CONTINUOUS
 62
     2
 10
30.677809000000011
 20
2.1210209999999989
 30
0.0
 11
30.744809000000011
 21
2.1210209999999989
 31
0.0
  0
LINE
  5
538
  8
0
  6
CONTINUOUS
 62
     2
 10
30.819935052600002
 20
2.1210209999999989
 30
0.0
 11
30.896559
 21
2.1210209999999989
 31
0.0
  0
ENDBLK
  5
53A
  8
0
  0
BLOCK
  8
0
  2
*U13
 70
     1
 10
0.0
 20
0.0
 30
0.0
  3
*U13
  1

  0
SOLID
  5
54F
  8
0
  6
CONTINUOUS
 62
     2
 10
30.677809000000011
 20
2.4022709999999989
 30
0.0
 11
30.677809000000011
 21
2.4022709999999989
 31
0.0
 12
30.7793715
 22
2.4022709999999989
 32
0.0
 13
30.7793715
 23
2.4022709999999989
 33
0.0
210
0.0
220
0.0
230
1.0
  0
SOLID
  5
550
  8
0
  6
CONTINUOUS
 62
     2
 10
30.677809000000011
 20
2.4022709999999989
 30
0.0
 11
30.677809000000011
 21
2.3966524109999989
 31
0.0
 12
30.8099349823
 22
2.3966524109999989
 32
0.0
 13
30.8099349823
 23
2.3966524109999989
 33
0.0
210
0.0
220
0.0
230
1.0
  0
SOLID
  5
551
  8
0
  6
CONTINUOUS
 62
     2
 10
-30.677809000000011
 20
2.4022709999999989
 30
0.0
 11
-30.7793715
 21
2.4022709999999989
 31
0.0
 12
-30.8099349823
 22
2.3966524109999989
 32
0.0
 13
-30.8099349823
 23
2.3966524109999989
 33
0.0
210
0.0
220
0.0
230
-1.0
  0
SOLID
  5
552
  8
0
  6
CONTINUOUS
 62
     2
 10
30.677809000000011
 20
2.3966524109999989
 30
0.0
 11
30.677809000000011
 21
2.3805313299000002
 31
0.0
 12
30.836501986999998
 22
2.3805313299000002
 32
0.0
 13
30.836501986999998
 23
2.3805313299000002
 33
0.0
210
0.0
220
0.0
230
1.0
  0
SOLID
  5
553
  8
0
  6
CONTINUOUS
 62
     2
 10
-30.677809000000011
 20
2.3966524109999989
 30
0.0
 11
-30.8099349823
 21
2.3966524109999989
 31
0.0
 12
-30.836501986999998
 22
2.3805313299000002
 32
0.0
 13
-30.836501986999998
 23
2.3805313299000002
 33
0.0
210
0.0
220
0.0
230
-1.0
  0
SOLID
  5
554
  8
0
  6
CONTINUOUS
 62
     2
 10
30.677809000000011
 20
2.3805313299000002
 30
0.0
 11
30.677809000000011
 21
2.356015747599999
 31
0.0
 12
30.855598615500011
 22
2.356015747599999
 32
0.0
 13
30.855598615500011
 23
2.356015747599999
 33
0.0
210
0.0
220
0.0
230
1.0
  0
SOLID
  5
555
  8
0
  6
CONTINUOUS
 62
     2
 10
-30.677809000000011
 20
2.3805313299000002
 30
0.0
 11
-30.836501986999998
 21
2.3805313299000002
 31
0.0
 12
-30.855598615500011
 22
2.356015747599999
 32
0.0
 13
-30.855598615500011
 23
2.356015747599999
 33
0.0
210
0.0
220
0.0
230
-1.0
  0
SOLID
  5
556
  8
0
  6
CONTINUOUS
 62
     2
 10
30.677809000000011
 20
2.356015747599999
 30
0.0
 11
30.677809000000011
 21
2.3477709999999989
 31
0.0
 12
30.858132506270579
 22
2.3477709999999989
 32
0.0
 13
30.858132506270579
 23
2.3477709999999989
 33
0.0
210
0.0
220
0.0
230
1.0
  0
SOLID
  5
557
  8
0
  6
CONTINUOUS
 62
     2
 10
-30.677809000000011
 20
2.356015747599999
 30
0.0
 11
-30.855598615500011
 21
2.356015747599999
 31
0.0
 12
-30.858132506270579
 22
2.3477709999999989
 32
0.0
 13
-30.858132506270579
 23
2.3477709999999989
 33
0.0
210
0.0
220
0.0
230
-1.0
  0
SOLID
  5
558
  8
0
  6
CONTINUOUS
 62
     2
 10
30.677809000000011
 20
2.3477709999999989
 30
0.0
 11
30.677809000000011
 21
2.3477709999999989
 31
0.0
 12
30.744809000000011
 22
2.3477709999999989
 32
0.0
 13
30.744809000000011
 23
2.3477709999999989
 33
0.0
210
0.0
220
0.0
230
1.0
  0
SOLID
  5
559
  8
0
  6
CONTINUOUS
 62
     2
 10
30.744809000000011
 20
2.3477709999999989
 30
0.0
 11
30.744809000000011
 21
2.3477709999999989
 31
0.0
 12
30.778184
 22
2.3477709999999989
 32
0.0
 13
30.778184
 23
2.3477709999999989
 33
0.0
210
0.0
220
0.0
230
1.0
  0
SOLID
  5
55A
  8
0
  6
CONTINUOUS
 62
     2
 10
30.778184
 20
2.3477709999999989
 30
0.0
 11
30.793512124999999
 21
2.3436638413000002
 31
0.0
 12
30.859394775539219
 22
2.3436638413000002
 32
0.0
 13
30.859394775539219
 23
2.3436638413000002
 33
0.0
210
0.0
220
0.0
230
1.0
  0
SOLID
  5
55B
  8
0
  6
CONTINUOUS
 62
     2
 10
-30.778184
 20
2.3477709999999989
 30
0.0
 11
-30.858132506270579
 21
2.3477709999999989
 31
0.0
 12
-30.859394775539219
 22
2.3436638413000002
 32
0.0
 13
-30.859394775539219
 23
2.3436638413000002
 33
0.0
210
0.0
220
0.0
230
-1.0
  0
SOLID
  5
55C
  8
0
  6
CONTINUOUS
 62
     2
 10
30.793512124999999
 20
2.3436638413000002
 30
0.0
 11
30.804733091300001
 21
2.332442874999999
 31
0.0
 12
30.86284335933146
 22
2.332442874999999
 32
0.0
 13
30.86284335933146
 23
2.332442874999999
 33
0.0
210
0.0
220
0.0
230
1.0
  0
SOLID
  5
55D
  8
0
  6
CONTINUOUS
 62
     2
 10
-30.793512124999999
 20
2.3436638413000002
 30
0.0
 11
-30.859394775539219
 21
2.3436638413000002
 31
0.0
 12
-30.86284335933146
 22
2.332442874999999
 32
0.0
 13
-30.86284335933146
 23
2.332442874999999
 33
0.0
210
0.0
220
0.0
230
-1.0
  0
SOLID
  5
55E
  8
0
  6
CONTINUOUS
 62
     2
 10
30.804733091300001
 20
2.332442874999999
 30
0.0
 11
30.806376036772448
 21
2.3263113190000002
 31
0.0
 12
30.8647277946
 22
2.3263113190000002
 32
0.0
 13
30.8647277946
 23
2.3263113190000002
 33
0.0
210
0.0
220
0.0
230
1.0
  0
SOLID
  5
55F
  8
0
  6
CONTINUOUS
 62
     2
 10
-30.804733091300001
 20
2.332442874999999
 30
0.0
 11
-30.86284335933146
 21
2.332442874999999
 31
0.0
 12
-30.8647277946
 22
2.3263113190000002
 32
0.0
 13
-30.8647277946
 23
2.3263113190000002
 33
0.0
210
0.0
220
0.0
230
-1.0
  0
SOLID
  5
560
  8
0
  6
CONTINUOUS
 62
     2
 10
30.806376036772448
 20
2.3263113190000002
 30
0.0
 11
30.808840249999999
 21
2.31711475
 31
0.0
 12
30.864125151620541
 22
2.31711475
 32
0.0
 13
30.864125151620541
 23
2.31711475
 33
0.0
  0
SOLID
  5
561
  8
0
  6
CONTINUOUS
 62
     2
 10
-30.806376036772448
 20
2.3263113190000002
 30
0.0
 11
-30.8647277946
 21
2.3263113190000002
 31
0.0
 12
-30.864125151620541
 22
2.31711475
 32
0.0
 13
-30.864125151620541
 23
2.31711475
 33
0.0
210
0.0
220
0.0
230
-1.0
  0
SOLID
  5
562
  8
0
  6
CONTINUOUS
 62
     2
 10
30.808840249999999
 20
2.31711475
 30
0.0
 11
30.804733091300001
 21
2.3017866250000001
 31
0.0
 12
30.86312071323492
 22
2.3017866250000001
 32
0.0
 13
30.86312071323492
 23
2.3017866250000001
 33
0.0
210
0.0
220
0.0
230
1.0
  0
SOLID
  5
563
  8
0
  6
CONTINUOUS
 62
     2
 10
-30.808840249999999
 20
2.31711475
 30
0.0
 11
-30.864125151620541
 21
2.31711475
 31
0.0
 12
-30.86312071323492
 22
2.3017866250000001
 32
0.0
 13
-30.86312071323492
 23
2.3017866250000001
 33
0.0
210
0.0
220
0.0
230
-1.0
  0
SOLID
  5
564
  8
0
  6
CONTINUOUS
 62
     2
 10
30.804733091300001
 20
2.3017866250000001
 30
0.0
 11
30.7982486581
 21
2.2953021917999998
 31
0.0
 12
30.862695794099999
 22
2.2953021917999998
 32
0.0
 13
30.862695794099999
 23
2.2953021917999998
 33
0.0
  0
SOLID
  5
565
  8
0
  6
CONTINUOUS
 62
     2
 10
-30.804733091300001
 20
2.3017866250000001
 30
0.0
 11
-30.86312071323492
 21
2.3017866250000001
 31
0.0
 12
-30.862695794099999
 22
2.2953021917999998
 32
0.0
 13
-30.862695794099999
 23
2.2953021917999998
 33
0.0
210
0.0
220
0.0
230
-1.0
  0
SOLID
  5
566
  8
0
  6
CONTINUOUS
 62
     2
 10
30.7982486581
 20
2.2953021917999998
 30
0.0
 11
30.793512124999999
 21
2.290565658699999
 31
0.0
 12
30.860529006359279
 22
2.290565658699999
 32
0.0
 13
30.860529006359279
 23
2.290565658699999
 33
0.0
210
0.0
220
0.0
230
1.0
  0
SOLID
  5
567
  8
0
  6
CONTINUOUS
 62
     2
 10
-30.7982486581
 20
2.2953021917999998
 30
0.0
 11
-30.862695794099999
 21
2.2953021917999998
 31
0.0
 12
-30.860529006359279
 22
2.290565658699999
 32
0.0
 13
-30.860529006359279
 23
2.290565658699999
 33
0.0
210
0.0
220
0.0
230
-1.0
  0
SOLID
  5
568
  8
0
  6
CONTINUOUS
 62
     2
 10
30.793512124999999
 20
2.290565658699999
 30
0.0
 11
30.778184
 21
2.2864584999999988
 31
0.0
 12
30.858650134000001
 22
2.2864584999999988
 32
0.0
 13
30.858650134000001
 23
2.2864584999999988
 33
0.0
210
0.0
220
0.0
230
1.0
  0
SOLID
  5
569
  8
0
  6
CONTINUOUS
 62
     2
 10
-30.793512124999999
 20
2.290565658699999
 30
0.0
 11
-30.860529006359279
 21
2.290565658699999
 31
0.0
 12
-30.858650134000001
 22
2.2864584999999988
 32
0.0
 13
-30.858650134000001
 23
2.2864584999999988
 33
0.0
210
0.0
220
0.0
230
-1.0
  0
SOLID
  5
56A
  8
0
  6
CONTINUOUS
 62
     2
 10
30.778184
 20
2.2864584999999988
 30
0.0
 11
30.778184
 21
2.2864584999999988
 31
0.0
 12
30.858650134000001
 22
2.2864584999999988
 32
0.0
 13
30.858650134000001
 23
2.2864584999999988
 33
0.0
210
0.0
220
0.0
230
1.0
  0
LINE
  5
56B
  8
0
  6
CONTINUOUS
 62
     2
 10
30.677809000000011
 20
2.4022709999999989
 30
0.0
 11
30.7793715
 21
2.4022709999999989
 31
0.0
  0
LINE
  5
56C
  8
0
  6
CONTINUOUS
 62
     2
 10
30.677809000000011
 20
2.4022709999999989
 30
0.0
 11
30.677809000000011
 21
2.3966524109999989
 31
0.0
  0
LINE
  5
56D
  8
0
  6
CONTINUOUS
 62
     2
 10
30.7793715
 20
2.4022709999999989
 30
0.0
 11
30.8099349823
 21
2.3966524109999989
 31
0.0
  0
LINE
  5
56E
  8
0
  6
CONTINUOUS
 62
     2
 10
30.677809000000011
 20
2.3966524109999989
 30
0.0
 11
30.677809000000011
 21
2.3805313299000002
 31
0.0
  0
LINE
  5
56F
  8
0
  6
CONTINUOUS
 62
     2
 10
30.8099349823
 20
2.3966524109999989
 30
0.0
 11
30.836501986999998
 21
2.3805313299000002
 31
0.0
  0
LINE
  5
570
  8
0
  6
CONTINUOUS
 62
     2
 10
30.677809000000011
 20
2.3805313299000002
 30
0.0
 11
30.677809000000011
 21
2.356015747599999
 31
0.0
  0
LINE
  5
571
  8
0
  6
CONTINUOUS
 62
     2
 10
30.836501986999998
 20
2.3805313299000002
 30
0.0
 11
30.855598615500011
 21
2.356015747599999
 31
0.0
  0
LINE
  5
572
  8
0
  6
CONTINUOUS
 62
     2
 10
30.677809000000011
 20
2.356015747599999
 30
0.0
 11
30.677809000000011
 21
2.3477709999999989
 31
0.0
  0
LINE
  5
573
  8
0
  6
CONTINUOUS
 62
     2
 10
30.855598615500011
 20
2.356015747599999
 30
0.0
 11
30.858132506270579
 21
2.3477709999999989
 31
0.0
  0
LINE
  5
574
  8
0
  6
CONTINUOUS
 62
     2
 10
30.677809000000011
 20
2.3477709999999989
 30
0.0
 11
30.744809000000011
 21
2.3477709999999989
 31
0.0
  0
LINE
  5
575
  8
0
  6
CONTINUOUS
 62
     2
 10
30.744809000000011
 20
2.3477709999999989
 30
0.0
 11
30.778184
 21
2.3477709999999989
 31
0.0
  0
LINE
  5
576
  8
0
  6
CONTINUOUS
 62
     2
 10
30.778184
 20
2.3477709999999989
 30
0.0
 11
30.793512124999999
 21
2.3436638413000002
 31
0.0
  0
LINE
  5
577
  8
0
  6
CONTINUOUS
 62
     2
 10
30.858132506270579
 20
2.3477709999999989
 30
0.0
 11
30.859394775539219
 21
2.3436638413000002
 31
0.0
  0
LINE
  5
578
  8
0
  6
CONTINUOUS
 62
     2
 10
30.793512124999999
 20
2.3436638413000002
 30
0.0
 11
30.804733091300001
 21
2.332442874999999
 31
0.0
  0
LINE
  5
579
  8
0
  6
CONTINUOUS
 62
     2
 10
30.859394775539219
 20
2.3436638413000002
 30
0.0
 11
30.86284335933146
 21
2.332442874999999
 31
0.0
  0
LINE
  5
57A
  8
0
  6
CONTINUOUS
 62
     2
 10
30.804733091300001
 20
2.332442874999999
 30
0.0
 11
30.806376036772448
 21
2.3263113190000002
 31
0.0
  0
LINE
  5
57B
  8
0
  6
CONTINUOUS
 62
     2
 10
30.86284335933146
 20
2.332442874999999
 30
0.0
 11
30.8647277946
 21
2.3263113190000002
 31
0.0
  0
LINE
  5
57C
  8
0
  6
CONTINUOUS
 62
     2
 10
30.806376036772448
 20
2.3263113190000002
 30
0.0
 11
30.808840249999999
 21
2.31711475
 31
0.0
  0
LINE
  5
57D
  8
0
  6
CONTINUOUS
 62
     2
 10
30.8647277946
 20
2.3263113190000002
 30
0.0
 11
30.864125151620541
 21
2.31711475
 31
0.0
  0
LINE
  5
57E
  8
0
  6
CONTINUOUS
 62
     2
 10
30.808840249999999
 20
2.31711475
 30
0.0
 11
30.804733091300001
 21
2.3017866250000001
 31
0.0
  0
LINE
  5
57F
  8
0
  6
CONTINUOUS
 62
     2
 10
30.864125151620541
 20
2.31711475
 30
0.0
 11
30.86312071323492
 21
2.3017866250000001
 31
0.0
  0
LINE
  5
580
  8
0
  6
CONTINUOUS
 62
     2
 10
30.804733091300001
 20
2.3017866250000001
 30
0.0
 11
30.7982486581
 21
2.2953021917999998
 31
0.0
  0
LINE
  5
581
  8
0
  6
CONTINUOUS
 62
     2
 10
30.86312071323492
 20
2.3017866250000001
 30
0.0
 11
30.862695794099999
 21
2.2953021917999998
 31
0.0
  0
LINE
  5
582
  8
0
  6
CONTINUOUS
 62
     2
 10
30.7982486581
 20
2.2953021917999998
 30
0.0
 11
30.793512124999999
 21
2.290565658699999
 31
0.0
  0
LINE
  5
583
  8
0
  6
CONTINUOUS
 62
     2
 10
30.862695794099999
 20
2.2953021917999998
 30
0.0
 11
30.860529006359279
 21
2.290565658699999
 31
0.0
  0
LINE
  5
584
  8
0
  6
CONTINUOUS
 62
     2
 10
30.793512124999999
 20
2.290565658699999
 30
0.0
 11
30.778184
 21
2.2864584999999988
 31
0.0
  0
LINE
  5
585
  8
0
  6
CONTINUOUS
 62
     2
 10
30.860529006359279
 20
2.290565658699999
 30
0.0
 11
30.858650134000001
 21
2.2864584999999988
 31
0.0
  0
LINE
  5
586
  8
0
  6
CONTINUOUS
 62
     2
 10
30.778184
 20
2.2864584999999988
 30
0.0
 11
30.858650134000001
 21
2.2864584999999988
 31
0.0
  0
ENDBLK
  5
588
  8
0
  0
BLOCK
  8
0
  2
*U14
 70
     1
 10
0.0
 20
0.0
 30
0.0
  3
*U14
  1

  0
SOLID
  5
597
  8
0
  6
CONTINUOUS
 62
     2
 10
29.528184
 20
2.4022709999999989
 30
0.0
 11
29.528184
 21
2.4022709999999989
 31
0.0
 12
29.595184
 22
2.4022709999999989
 32
0.0
 13
29.595184
 23
2.4022709999999989
 33
0.0
210
0.0
220
0.0
230
1.0
  0
SOLID
  5
598
  8
0
  6
CONTINUOUS
 62
     2
 10
29.683431691300001
 20
2.4022709999999989
 30
0.0
 11
29.683431691300001
 21
2.4022709999999989
 31
0.0
 12
29.778184
 22
2.4022709999999989
 32
0.0
 13
29.778184
 23
2.4022709999999989
 33
0.0
210
0.0
220
0.0
230
1.0
  0
SOLID
  5
599
  8
0
  6
CONTINUOUS
 62
     2
 10
29.528184
 20
2.4022709999999989
 30
0.0
 11
29.528184
 21
2.3140233086999991
 31
0.0
 12
29.595184
 22
2.3140233086999991
 32
0.0
 13
29.595184
 23
2.3140233086999991
 33
0.0
210
0.0
220
0.0
230
1.0
  0
SOLID
  5
59A
  8
0
  6
CONTINUOUS
 62
     2
 10
-29.528184
 20
2.4022709999999989
 30
0.0
 11
-29.595184
 21
2.4022709999999989
 31
0.0
 12
-29.595184
 22
2.3140233086999991
 32
0.0
 13
-29.595184
 23
2.3140233086999991
 33
0.0
210
0.0
220
0.0
230
-1.0
  0
SOLID
  5
59B
  8
0
  6
CONTINUOUS
 62
     2
 10
29.683431691300001
 20
2.4022709999999989
 30
0.0
 11
29.595184
 21
2.3140233086999991
 31
0.0
 12
29.689936308699998
 22
2.3140233086999991
 32
0.0
 13
29.689936308699998
 23
2.3140233086999991
 33
0.0
210
0.0
220
0.0
230
1.0
  0
SOLID
  5
59C
  8
0
  6
CONTINUOUS
 62
     2
 10
-29.683431691300001
 20
2.4022709999999989
 30
0.0
 11
-29.778184
 21
2.4022709999999989
 31
0.0
 12
-29.689936308699998
 22
2.3140233086999991
 32
0.0
 13
-29.689936308699998
 23
2.3140233086999991
 33
0.0
210
0.0
220
0.0
230
-1.0
  0
SOLID
  5
59D
  8
0
  6
CONTINUOUS
 62
     2
 10
29.528184
 20
2.3140233086999991
 30
0.0
 11
29.528184
 21
2.2772709999999989
 31
0.0
 12
29.65318400000001
 22
2.2772709999999989
 32
0.0
 13
29.65318400000001
 23
2.2772709999999989
 33
0.0
210
0.0
220
0.0
230
1.0
  0
SOLID
  5
59E
  8
0
  6
CONTINUOUS
 62
     2
 10
-29.528184
 20
2.3140233086999991
 30
0.0
 11
-29.689936308699998
 21
2.3140233086999991
 31
0.0
 12
-29.65318400000001
 22
2.2772709999999989
 32
0.0
 13
-29.65318400000001
 23
2.2772709999999989
 33
0.0
210
0.0
220
0.0
230
-1.0
  0
SOLID
  5
59F
  8
0
  6
CONTINUOUS
 62
     2
 10
29.528184
 20
2.2772709999999989
 30
0.0
 11
29.528184
 21
2.242518668999999
 31
0.0
 12
29.6809858648
 22
2.242518668999999
 32
0.0
 13
29.6809858648
 23
2.242518668999999
 33
0.0
210
0.0
220
0.0
230
1.0
  0
SOLID
  5
5A0
  8
0
  6
CONTINUOUS
 62
     2
 10
-29.528184
 20
2.2772709999999989
 30
0.0
 11
-29.65318400000001
 21
2.2772709999999989
 31
0.0
 12
-29.6809858648
 22
2.242518668999999
 32
0.0
 13
-29.6809858648
 23
2.242518668999999
 33
0.0
210
0.0
220
0.0
230
-1.0
  0
SOLID
  5
5A1
  8
0
  6
CONTINUOUS
 62
     2
 10
29.528184
 20
2.242518668999999
 30
0.0
 11
29.528184
 21
2.1210209999999989
 31
0.0
 12
29.595184
 22
2.1210209999999989
 32
0.0
 13
29.595184
 23
2.1210209999999989
 33
0.0
210
0.0
220
0.0
230
1.0
  0
SOLID
  5
5A2
  8
0
  6
CONTINUOUS
 62
     2
 10
-29.528184
 20
2.242518668999999
 30
0.0
 11
-29.595184
 21
2.242518668999999
 31
0.0
 12
-29.595184
 22
2.1210209999999989
 32
0.0
 13
-29.595184
 23
2.1210209999999989
 33
0.0
210
0.0
220
0.0
230
-1.0
  0
SOLID
  5
5A3
  8
0
  6
CONTINUOUS
 62
     2
 10
29.595184
 20
2.242518668999999
 30
0.0
 11
29.692382135199999
 21
2.1210209999999989
 31
0.0
 12
29.778184
 22
2.1210209999999989
 32
0.0
 13
29.778184
 23
2.1210209999999989
 33
0.0
210
0.0
220
0.0
230
1.0
  0
SOLID
  5
5A4
  8
0
  6
CONTINUOUS
 62
     2
 10
-29.595184
 20
2.242518668999999
 30
0.0
 11
-29.6809858648
 21
2.242518668999999
 31
0.0
 12
-29.778184
 22
2.1210209999999989
 32
0.0
 13
-29.778184
 23
2.1210209999999989
 33
0.0
210
0.0
220
0.0
230
-1.0
  0
SOLID
  5
5A5
  8
0
  6
CONTINUOUS
 62
     2
 10
29.528184
 20
2.1210209999999989
 30
0.0
 11
29.528184
 21
2.1210209999999989
 31
0.0
 12
29.595184
 22
2.1210209999999989
 32
0.0
 13
29.595184
 23
2.1210209999999989
 33
0.0
210
0.0
220
0.0
230
1.0
  0
SOLID
  5
5A6
  8
0
  6
CONTINUOUS
 62
     2
 10
29.692382135199999
 20
2.1210209999999989
 30
0.0
 11
29.692382135199999
 21
2.1210209999999989
 31
0.0
 12
29.778184
 22
2.1210209999999989
 32
0.0
 13
29.778184
 23
2.1210209999999989
 33
0.0
210
0.0
220
0.0
230
1.0
  0
LINE
  5
5A7
  8
0
  6
CONTINUOUS
 62
     2
 10
29.528184
 20
2.4022709999999989
 30
0.0
 11
29.595184
 21
2.4022709999999989
 31
0.0
  0
LINE
  5
5A8
  8
0
  6
CONTINUOUS
 62
     2
 10
29.683431691300001
 20
2.4022709999999989
 30
0.0
 11
29.778184
 21
2.4022709999999989
 31
0.0
  0
LINE
  5
5A9
  8
0
  6
CONTINUOUS
 62
     2
 10
29.528184
 20
2.4022709999999989
 30
0.0
 11
29.528184
 21
2.3140233086999991
 31
0.0
  0
LINE
  5
5AA
  8
0
  6
CONTINUOUS
 62
     2
 10
29.595184
 20
2.4022709999999989
 30
0.0
 11
29.595184
 21
2.3140233086999991
 31
0.0
  0
LINE
  5
5AB
  8
0
  6
CONTINUOUS
 62
     2
 10
29.683431691300001
 20
2.4022709999999989
 30
0.0
 11
29.595184
 21
2.3140233086999991
 31
0.0
  0
LINE
  5
5AC
  8
0
  6
CONTINUOUS
 62
     2
 10
29.778184
 20
2.4022709999999989
 30
0.0
 11
29.689936308699998
 21
2.3140233086999991
 31
0.0
  0
LINE
  5
5AD
  8
0
  6
CONTINUOUS
 62
     2
 10
29.528184
 20
2.3140233086999991
 30
0.0
 11
29.528184
 21
2.2772709999999989
 31
0.0
  0
LINE
  5
5AE
  8
0
  6
CONTINUOUS
 62
     2
 10
29.689936308699998
 20
2.3140233086999991
 30
0.0
 11
29.65318400000001
 21
2.2772709999999989
 31
0.0
  0
LINE
  5
5AF
  8
0
  6
CONTINUOUS
 62
     2
 10
29.528184
 20
2.2772709999999989
 30
0.0
 11
29.528184
 21
2.242518668999999
 31
0.0
  0
LINE
  5
5B0
  8
0
  6
CONTINUOUS
 62
     2
 10
29.65318400000001
 20
2.2772709999999989
 30
0.0
 11
29.6809858648
 21
2.242518668999999
 31
0.0
  0
LINE
  5
5B1
  8
0
  6
CONTINUOUS
 62
     2
 10
29.528184
 20
2.242518668999999
 30
0.0
 11
29.528184
 21
2.1210209999999989
 31
0.0
  0
LINE
  5
5B2
  8
0
  6
CONTINUOUS
 62
     2
 10
29.6809858648
 20
2.242518668999999
 30
0.0
 11
29.778184
 21
2.1210209999999989
 31
0.0
  0
LINE
  5
5B3
  8
0
  6
CONTINUOUS
 62
     2
 10
29.528184
 20
2.1210209999999989
 30
0.0
 11
29.595184
 21
2.1210209999999989
 31
0.0
  0
LINE
  5
5B4
  8
0
  6
CONTINUOUS
 62
     2
 10
29.692382135199999
 20
2.1210209999999989
 30
0.0
 11
29.778184
 21
2.1210209999999989
 31
0.0
  0
ENDBLK
  5
5B6
  8
0
  0
BLOCK
  8
0
  2
*U15
 70
     1
 10
0.0
 20
0.0
 30
0.0
  3
*U15
  1

  0
SOLID
  5
5D0
  8
0
  6
CONTINUOUS
 62
     2
 10
29.769028770599999
 20
2.3349569287
 30
0.0
 11
29.769028770599999
 21
2.3349569287
 31
0.0
 12
29.894352258000001
 22
2.3349569287
 32
0.0
 13
29.894352258000001
 23
2.3349569287
 33
0.0
210
0.0
220
0.0
230
1.0
  0
SOLID
  5
5D1
  8
0
  6
CONTINUOUS
 62
     2
 10
29.769028770599999
 20
2.3349569287
 30
0.0
 11
29.767756732314719
 21
2.3324604130000002
 31
0.0
 12
29.867410562399989
 22
2.3324604130000002
 32
0.0
 13
29.867410562399989
 23
2.3324604130000002
 33
0.0
210
0.0
220
0.0
230
1.0
  0
SOLID
  5
5D2
  8
0
  6
CONTINUOUS
 62
     2
 10
-29.769028770599999
 20
2.3349569287
 30
0.0
 11
-29.894352258000001
 21
2.3349569287
 31
0.0
 12
-29.867410562399989
 22
2.3324604130000002
 32
0.0
 13
-29.867410562399989
 23
2.3324604130000002
 33
0.0
210
0.0
220
0.0
230
-1.0
  0
SOLID
  5
5D3
  8
0
  6
CONTINUOUS
 62
     2
 10
29.767756732314719
 20
2.3324604130000002
 30
0.0
 11
29.761611654329919
 21
2.3204000183999991
 31
0.0
 12
29.8431900249
 22
2.3204000183999991
 32
0.0
 13
29.8431900249
 23
2.3204000183999991
 33
0.0
210
0.0
220
0.0
230
1.0
  0
SOLID
  5
5D4
  8
0
  6
CONTINUOUS
 62
     2
 10
-29.767756732314719
 20
2.3324604130000002
 30
0.0
 11
-29.867410562399989
 21
2.3324604130000002
 31
0.0
 12
-29.8431900249
 22
2.3204000183999991
 32
0.0
 13
-29.8431900249
 23
2.3204000183999991
 33
0.0
210
0.0
220
0.0
230
-1.0
  0
SOLID
  5
5D5
  8
0
  6
CONTINUOUS
 62
     2
 10
29.761611654329919
 20
2.3204000183999991
 30
0.0
 11
29.7538166774
 21
2.3051015148
 31
0.0
 12
29.829243596157418
 22
2.3051015148
 32
0.0
 13
29.829243596157418
 23
2.3051015148
 33
0.0
210
0.0
220
0.0
230
1.0
  0
SOLID
  5
5D6
  8
0
  6
CONTINUOUS
 62
     2
 10
-29.761611654329919
 20
2.3204000183999991
 30
0.0
 11
-29.8431900249
 21
2.3204000183999991
 31
0.0
 12
-29.829243596157418
 22
2.3051015148
 32
0.0
 13
-29.829243596157418
 23
2.3051015148
 33
0.0
210
0.0
220
0.0
230
-1.0
  0
SOLID
  5
5D7
  8
0
  6
CONTINUOUS
 62
     2
 10
29.7538166774
 20
2.3051015148
 30
0.0
 11
29.753072754108828
 21
2.3004045679999998
 31
0.0
 12
29.824961763400001
 22
2.3004045679999998
 32
0.0
 13
29.824961763400001
 23
2.3004045679999998
 33
0.0
210
0.0
220
0.0
230
1.0
  0
SOLID
  5
5D8
  8
0
  6
CONTINUOUS
 62
     2
 10
-29.7538166774
 20
2.3051015148
 30
0.0
 11
-29.829243596157418
 21
2.3051015148
 31
0.0
 12
-29.824961763400001
 22
2.3004045679999998
 32
0.0
 13
-29.824961763400001
 23
2.3004045679999998
 33
0.0
210
0.0
220
0.0
230
-1.0
  0
SOLID
  5
5D9
  8
0
  6
CONTINUOUS
 62
     2
 10
29.753072754108828
 20
2.3004045679999998
 30
0.0
 11
29.749076713121831
 21
2.2751745581999989
 31
0.0
 12
29.8151876055
 22
2.2751745581999989
 32
0.0
 13
29.8151876055
 23
2.2751745581999989
 33
0.0
210
0.0
220
0.0
230
1.0
  0
SOLID
  5
5DA
  8
0
  6
CONTINUOUS
 62
     2
 10
-29.753072754108828
 20
2.3004045679999998
 30
0.0
 11
-29.824961763400001
 21
2.3004045679999998
 31
0.0
 12
-29.8151876055
 22
2.2751745581999989
 32
0.0
 13
-29.8151876055
 23
2.2751745581999989
 33
0.0
210
0.0
220
0.0
230
-1.0
  0
SOLID
  5
5DB
  8
0
  6
CONTINUOUS
 62
     2
 10
29.749076713121831
 20
2.2751745581999989
 30
0.0
 11
29.74693400000001
 21
2.2616459999999989
 31
0.0
 12
29.8151876055
 22
2.2616459999999989
 32
0.0
 13
29.8151876055
 23
2.2616459999999989
 33
0.0
210
0.0
220
0.0
230
1.0
  0
SOLID
  5
5DC
  8
0
  6
CONTINUOUS
 62
     2
 10
-29.749076713121831
 20
2.2751745581999989
 30
0.0
 11
-29.8151876055
 21
2.2751745581999989
 31
0.0
 12
-29.8151876055
 22
2.2616459999999989
 32
0.0
 13
-29.8151876055
 23
2.2616459999999989
 33
0.0
210
0.0
220
0.0
230
-1.0
  0
SOLID
  5
5DD
  8
0
  6
CONTINUOUS
 62
     2
 10
29.74693400000001
 20
2.2616459999999989
 30
0.0
 11
29.749076713121831
 21
2.2481174417999998
 31
0.0
 12
29.8151876055
 22
2.2481174417999998
 32
0.0
 13
29.8151876055
 23
2.2481174417999998
 33
0.0
210
0.0
220
0.0
230
1.0
  0
SOLID
  5
5DE
  8
0
  6
CONTINUOUS
 62
     2
 10
-29.74693400000001
 20
2.2616459999999989
 30
0.0
 11
-29.8151876055
 21
2.2616459999999989
 31
0.0
 12
-29.8151876055
 22
2.2481174417999998
 32
0.0
 13
-29.8151876055
 23
2.2481174417999998
 33
0.0
210
0.0
220
0.0
230
-1.0
  0
SOLID
  5
5DF
  8
0
  6
CONTINUOUS
 62
     2
 10
29.749076713121831
 20
2.2481174417999998
 30
0.0
 11
29.753072754108828
 21
2.2228874319999989
 31
0.0
 12
29.824961763400001
 22
2.2228874319999989
 32
0.0
 13
29.824961763400001
 23
2.2228874319999989
 33
0.0
210
0.0
220
0.0
230
1.0
  0
SOLID
  5
5E0
  8
0
  6
CONTINUOUS
 62
     2
 10
-29.749076713121831
 20
2.2481174417999998
 30
0.0
 11
-29.8151876055
 21
2.2481174417999998
 31
0.0
 12
-29.824961763400001
 22
2.2228874319999989
 32
0.0
 13
-29.824961763400001
 23
2.2228874319999989
 33
0.0
210
0.0
220
0.0
230
-1.0
  0
SOLID
  5
5E1
  8
0
  6
CONTINUOUS
 62
     2
 10
29.753072754108828
 20
2.2228874319999989
 30
0.0
 11
29.7538166774
 21
2.2181904852000001
 31
0.0
 12
29.829243596157418
 22
2.2181904852000001
 32
0.0
 13
29.829243596157418
 23
2.2181904852000001
 33
0.0
210
0.0
220
0.0
230
1.0
  0
SOLID
  5
5E2
  8
0
  6
CONTINUOUS
 62
     2
 10
-29.753072754108828
 20
2.2228874319999989
 30
0.0
 11
-29.824961763400001
 21
2.2228874319999989
 31
0.0
 12
-29.829243596157418
 22
2.2181904852000001
 32
0.0
 13
-29.829243596157418
 23
2.2181904852000001
 33
0.0
210
0.0
220
0.0
230
-1.0
  0
SOLID
  5
5E3
  8
0
  6
CONTINUOUS
 62
     2
 10
29.7538166774
 20
2.2181904852000001
 30
0.0
 11
29.761611654329041
 21
2.2028919816000001
 31
0.0
 12
29.8431900249
 22
2.2028919816000001
 32
0.0
 13
29.8431900249
 23
2.2028919816000001
 33
0.0
210
0.0
220
0.0
230
1.0
  0
SOLID
  5
5E4
  8
0
  6
CONTINUOUS
 62
     2
 10
-29.7538166774
 20
2.2181904852000001
 30
0.0
 11
-29.829243596157418
 21
2.2181904852000001
 31
0.0
 12
-29.8431900249
 22
2.2028919816000001
 32
0.0
 13
-29.8431900249
 23
2.2028919816000001
 33
0.0
210
0.0
220
0.0
230
-1.0
  0
SOLID
  5
5E5
  8
0
  6
CONTINUOUS
 62
     2
 10
29.761611654329041
 20
2.2028919816000001
 30
0.0
 11
29.767756732313149
 21
2.190831586999999
 31
0.0
 12
29.867410562399989
 22
2.190831586999999
 32
0.0
 13
29.867410562399989
 23
2.190831586999999
 33
0.0
210
0.0
220
0.0
230
1.0
  0
SOLID
  5
5E6
  8
0
  6
CONTINUOUS
 62
     2
 10
-29.761611654329041
 20
2.2028919816000001
 30
0.0
 11
-29.8431900249
 21
2.2028919816000001
 31
0.0
 12
-29.867410562399989
 22
2.190831586999999
 32
0.0
 13
-29.867410562399989
 23
2.190831586999999
 33
0.0
210
0.0
220
0.0
230
-1.0
  0
SOLID
  5
5E7
  8
0
  6
CONTINUOUS
 62
     2
 10
29.767756732313149
 20
2.190831586999999
 30
0.0
 11
29.76902877059829
 21
2.1883350713
 31
0.0
 12
29.894352258000001
 22
2.1883350713
 32
0.0
 13
29.894352258000001
 23
2.1883350713
 33
0.0
210
0.0
220
0.0
230
1.0
  0
SOLID
  5
5E8
  8
0
  6
CONTINUOUS
 62
     2
 10
-29.767756732313149
 20
2.190831586999999
 30
0.0
 11
-29.867410562399989
 21
2.190831586999999
 31
0.0
 12
-29.894352258000001
 22
2.1883350713
 32
0.0
 13
-29.894352258000001
 23
2.1883350713
 33
0.0
210
0.0
220
0.0
230
-1.0
  0
SOLID
  5
5E9
  8
0
  6
CONTINUOUS
 62
     2
 10
29.894352258000001
 20
2.1883350713
 30
0.0
 11
29.894352258000001
 21
2.1883350713
 31
0.0
 12
30.006089229400001
 22
2.1883350713
 32
0.0
 13
30.006089229400001
 23
2.1883350713
 33
0.0
210
0.0
220
0.0
230
1.0
  0
SOLID
  5
5EA
  8
0
  6
CONTINUOUS
 62
     2
 10
29.76902877059829
 20
2.1883350713
 30
0.0
 11
29.773790985200002
 21
2.1789886989
 31
0.0
 12
30.001327014800001
 22
2.1789886989
 32
0.0
 13
30.001327014800001
 23
2.1789886989
 33
0.0
210
0.0
220
0.0
230
1.0
  0
SOLID
  5
5EB
  8
0
  6
CONTINUOUS
 62
     2
 10
-29.76902877059829
 20
2.1883350713
 30
0.0
 11
-30.006089229400001
 21
2.1883350713
 31
0.0
 12
-30.001327014800001
 22
2.1789886989
 32
0.0
 13
-30.001327014800001
 23
2.1789886989
 33
0.0
210
0.0
220
0.0
230
-1.0
  0
SOLID
  5
5EC
  8
0
  6
CONTINUOUS
 62
     2
 10
29.773790985200002
 20
2.1789886989
 30
0.0
 11
29.8049016989
 21
2.1478779852000001
 31
0.0
 12
29.970216301099999
 22
2.1478779852000001
 32
0.0
 13
29.970216301099999
 23
2.1478779852000001
 33
0.0
210
0.0
220
0.0
230
1.0
  0
SOLID
  5
5ED
  8
0
  6
CONTINUOUS
 62
     2
 10
-29.773790985200002
 20
2.1789886989
 30
0.0
 11
-30.001327014800001
 21
2.1789886989
 31
0.0
 12
-29.970216301099999
 22
2.1478779852000001
 32
0.0
 13
-29.970216301099999
 23
2.1478779852000001
 33
0.0
210
0.0
220
0.0
230
-1.0
  0
SOLID
  5
5EE
  8
0
  6
CONTINUOUS
 62
     2
 10
29.8049016989
 20
2.1478779852000001
 30
0.0
 11
29.844103485200002
 21
2.1279036773999991
 31
0.0
 12
29.931014514800001
 22
2.1279036773999991
 32
0.0
 13
29.931014514800001
 23
2.1279036773999991
 33
0.0
210
0.0
220
0.0
230
1.0
  0
SOLID
  5
5EF
  8
0
  6
CONTINUOUS
 62
     2
 10
-29.8049016989
 20
2.1478779852000001
 30
0.0
 11
-29.970216301099999
 21
2.1478779852000001
 31
0.0
 12
-29.931014514800001
 22
2.1279036773999991
 32
0.0
 13
-29.931014514800001
 23
2.1279036773999991
 33
0.0
210
0.0
220
0.0
230
-1.0
  0
SOLID
  5
5F0
  8
0
  6
CONTINUOUS
 62
     2
 10
-29.844103485200002
 20
2.1279036773999991
 30
0.0
 11
-29.931014514800001
 21
2.1279036773999991
 31
0.0
 12
-29.88755900000001
 22
2.1210209999999989
 32
0.0
 13
-29.88755900000001
 23
2.1210209999999989
 33
0.0
210
0.0
220
0.0
230
-1.0
  0
LINE
  5
5F1
  8
0
  6
CONTINUOUS
 62
     2
 10
29.769028770599999
 20
2.3349569287
 30
0.0
 11
29.894352258000001
 21
2.3349569287
 31
0.0
  0
LINE
  5
5F2
  8
0
  6
CONTINUOUS
 62
     2
 10
29.769028770599999
 20
2.3349569287
 30
0.0
 11
29.767756732314719
 21
2.3324604130000002
 31
0.0
  0
LINE
  5
5F3
  8
0
  6
CONTINUOUS
 62
     2
 10
29.894352258000001
 20
2.3349569287
 30
0.0
 11
29.867410562399989
 21
2.3324604130000002
 31
0.0
  0
LINE
  5
5F4
  8
0
  6
CONTINUOUS
 62
     2
 10
29.767756732314719
 20
2.3324604130000002
 30
0.0
 11
29.761611654329919
 21
2.3204000183999991
 31
0.0
  0
LINE
  5
5F5
  8
0
  6
CONTINUOUS
 62
     2
 10
29.867410562399989
 20
2.3324604130000002
 30
0.0
 11
29.8431900249
 21
2.3204000183999991
 31
0.0
  0
LINE
  5
5F6
  8
0
  6
CONTINUOUS
 62
     2
 10
29.761611654329919
 20
2.3204000183999991
 30
0.0
 11
29.7538166774
 21
2.3051015148
 31
0.0
  0
LINE
  5
5F7
  8
0
  6
CONTINUOUS
 62
     2
 10
29.8431900249
 20
2.3204000183999991
 30
0.0
 11
29.829243596157418
 21
2.3051015148
 31
0.0
  0
LINE
  5
5F8
  8
0
  6
CONTINUOUS
 62
     2
 10
29.7538166774
 20
2.3051015148
 30
0.0
 11
29.753072754108828
 21
2.3004045679999998
 31
0.0
  0
LINE
  5
5F9
  8
0
  6
CONTINUOUS
 62
     2
 10
29.829243596157418
 20
2.3051015148
 30
0.0
 11
29.824961763400001
 21
2.3004045679999998
 31
0.0
  0
LINE
  5
5FA
  8
0
  6
CONTINUOUS
 62
     2
 10
29.753072754108828
 20
2.3004045679999998
 30
0.0
 11
29.749076713121831
 21
2.2751745581999989
 31
0.0
  0
LINE
  5
5FB
  8
0
  6
CONTINUOUS
 62
     2
 10
29.824961763400001
 20
2.3004045679999998
 30
0.0
 11
29.8151876055
 21
2.2751745581999989
 31
0.0
  0
LINE
  5
5FC
  8
0
  6
CONTINUOUS
 62
     2
 10
29.749076713121831
 20
2.2751745581999989
 30
0.0
 11
29.74693400000001
 21
2.2616459999999989
 31
0.0
  0
LINE
  5
5FD
  8
0
  6
CONTINUOUS
 62
     2
 10
29.8151876055
 20
2.2751745581999989
 30
0.0
 11
29.8151876055
 21
2.2616459999999989
 31
0.0
  0
LINE
  5
5FE
  8
0
  6
CONTINUOUS
 62
     2
 10
29.74693400000001
 20
2.2616459999999989
 30
0.0
 11
29.749076713121831
 21
2.2481174417999998
 31
0.0
  0
LINE
  5
5FF
  8
0
  6
CONTINUOUS
 62
     2
 10
29.8151876055
 20
2.2616459999999989
 30
0.0
 11
29.8151876055
 21
2.2481174417999998
 31
0.0
  0
LINE
  5
600
  8
0
  6
CONTINUOUS
 62
     2
 10
29.749076713121831
 20
2.2481174417999998
 30
0.0
 11
29.753072754108828
 21
2.2228874319999989
 31
0.0
  0
LINE
  5
601
  8
0
  6
CONTINUOUS
 62
     2
 10
29.8151876055
 20
2.2481174417999998
 30
0.0
 11
29.824961763400001
 21
2.2228874319999989
 31
0.0
  0
LINE
  5
602
  8
0
  6
CONTINUOUS
 62
     2
 10
29.753072754108828
 20
2.2228874319999989
 30
0.0
 11
29.7538166774
 21
2.2181904852000001
 31
0.0
  0
LINE
  5
603
  8
0
  6
CONTINUOUS
 62
     2
 10
29.824961763400001
 20
2.2228874319999989
 30
0.0
 11
29.829243596157418
 21
2.2181904852000001
 31
0.0
  0
LINE
  5
604
  8
0
  6
CONTINUOUS
 62
     2
 10
29.7538166774
 20
2.2181904852000001
 30
0.0
 11
29.761611654329041
 21
2.2028919816000001
 31
0.0
  0
LINE
  5
605
  8
0
  6
CONTINUOUS
 62
     2
 10
29.829243596157418
 20
2.2181904852000001
 30
0.0
 11
29.8431900249
 21
2.2028919816000001
 31
0.0
  0
LINE
  5
606
  8
0
  6
CONTINUOUS
 62
     2
 10
29.761611654329041
 20
2.2028919816000001
 30
0.0
 11
29.767756732313149
 21
2.190831586999999
 31
0.0
  0
LINE
  5
607
  8
0
  6
CONTINUOUS
 62
     2
 10
29.8431900249
 20
2.2028919816000001
 30
0.0
 11
29.867410562399989
 21
2.190831586999999
 31
0.0
  0
LINE
  5
608
  8
0
  6
CONTINUOUS
 62
     2
 10
29.767756732313149
 20
2.190831586999999
 30
0.0
 11
29.76902877059829
 21
2.1883350713
 31
0.0
  0
LINE
  5
609
  8
0
  6
CONTINUOUS
 62
     2
 10
29.867410562399989
 20
2.190831586999999
 30
0.0
 11
29.894352258000001
 21
2.1883350713
 31
0.0
  0
LINE
  5
60A
  8
0
  6
CONTINUOUS
 62
     2
 10
29.894352258000001
 20
2.1883350713
 30
0.0
 11
30.006089229400001
 21
2.1883350713
 31
0.0
  0
LINE
  5
60B
  8
0
  6
CONTINUOUS
 62
     2
 10
29.76902877059829
 20
2.1883350713
 30
0.0
 11
29.773790985200002
 21
2.1789886989
 31
0.0
  0
LINE
  5
60C
  8
0
  6
CONTINUOUS
 62
     2
 10
30.006089229400001
 20
2.1883350713
 30
0.0
 11
30.001327014800001
 21
2.1789886989
 31
0.0
  0
LINE
  5
60D
  8
0
  6
CONTINUOUS
 62
     2
 10
29.773790985200002
 20
2.1789886989
 30
0.0
 11
29.8049016989
 21
2.1478779852000001
 31
0.0
  0
LINE
  5
60E
  8
0
  6
CONTINUOUS
 62
     2
 10
30.001327014800001
 20
2.1789886989
 30
0.0
 11
29.970216301099999
 21
2.1478779852000001
 31
0.0
  0
LINE
  5
60F
  8
0
  6
CONTINUOUS
 62
     2
 10
29.8049016989
 20
2.1478779852000001
 30
0.0
 11
29.844103485200002
 21
2.1279036773999991
 31
0.0
  0
LINE
  5
610
  8
0
  6
CONTINUOUS
 62
     2
 10
29.970216301099999
 20
2.1478779852000001
 30
0.0
 11
29.931014514800001
 21
2.1279036773999991
 31
0.0
  0
LINE
  5
611
  8
0
  6
CONTINUOUS
 62
     2
 10
29.931014514800001
 20
2.1279036773999991
 30
0.0
 11
29.88755900000001
 21
2.1210209999999989
 31
0.0
  0
LINE
  5
612
  8
0
  6
CONTINUOUS
 62
     2
 10
29.88755900000001
 20
2.1210209999999989
 30
0.0
 11
29.844103485200002
 21
2.1279036773999991
 31
0.0
  0
ENDBLK
  5
614
  8
0
  0
BLOCK
  8
0
  2
*U16
 70
     1
 10
0.0
 20
0.0
 30
0.0
  3
*U16
  1

  0
SOLID
  5
62D
  8
0
  6
CONTINUOUS
 62
     2
 10
29.88755900000001
 20
2.4022709999999989
 30
0.0
 11
29.844103485200002
 21
2.3953883226000001
 31
0.0
 12
29.931014514800001
 22
2.3953883226000001
 32
0.0
 13
29.931014514800001
 23
2.3953883226000001
 33
0.0
210
0.0
220
0.0
230
1.0
  0
SOLID
  5
62E
  8
0
  6
CONTINUOUS
 62
     2
 10
29.844103485200002
 20
2.3953883226000001
 30
0.0
 11
29.8049016989
 21
2.3754140148
 31
0.0
 12
29.970216301099999
 22
2.3754140148
 32
0.0
 13
29.970216301099999
 23
2.3754140148
 33
0.0
  0
SOLID
  5
62F
  8
0
  6
CONTINUOUS
 62
     2
 10
-29.844103485200002
 20
2.3953883226000001
 30
0.0
 11
-29.931014514800001
 21
2.3953883226000001
 31
0.0
 12
-29.970216301099999
 22
2.3754140148
 32
0.0
 13
-29.970216301099999
 23
2.3754140148
 33
0.0
210
0.0
220
0.0
230
-1.0
  0
SOLID
  5
630
  8
0
  6
CONTINUOUS
 62
     2
 10
29.8049016989
 20
2.3754140148
 30
0.0
 11
29.773790985200002
 21
2.3443033011000001
 31
0.0
 12
30.001327014800001
 22
2.3443033011000001
 32
0.0
 13
30.001327014800001
 23
2.3443033011000001
 33
0.0
210
0.0
220
0.0
230
1.0
  0
SOLID
  5
631
  8
0
  6
CONTINUOUS
 62
     2
 10
-29.8049016989
 20
2.3754140148
 30
0.0
 11
-29.970216301099999
 21
2.3754140148
 31
0.0
 12
-30.001327014800001
 22
2.3443033011000001
 32
0.0
 13
-30.001327014800001
 23
2.3443033011000001
 33
0.0
210
0.0
220
0.0
230
-1.0
  0
SOLID
  5
632
  8
0
  6
CONTINUOUS
 62
     2
 10
29.773790985200002
 20
2.3443033011000001
 30
0.0
 11
29.769028770599999
 21
2.3349569287
 31
0.0
 12
30.00608922940172
 22
2.3349569287
 32
0.0
 13
30.00608922940172
 23
2.3349569287
 33
0.0
  0
SOLID
  5
633
  8
0
  6
CONTINUOUS
 62
     2
 10
-29.773790985200002
 20
2.3443033011000001
 30
0.0
 11
-30.001327014800001
 21
2.3443033011000001
 31
0.0
 12
-30.00608922940172
 22
2.3349569287
 32
0.0
 13
-30.00608922940172
 23
2.3349569287
 33
0.0
210
0.0
220
0.0
230
-1.0
  0
SOLID
  5
634
  8
0
  6
CONTINUOUS
 62
     2
 10
29.769028770599999
 20
2.3349569287
 30
0.0
 11
29.769028770599999
 21
2.3349569287
 31
0.0
 12
29.894352258000001
 22
2.3349569287
 32
0.0
 13
29.894352258000001
 23
2.3349569287
 33
0.0
210
0.0
220
0.0
230
1.0
  0
SOLID
  5
635
  8
0
  6
CONTINUOUS
 62
     2
 10
29.894352258000001
 20
2.3349569287
 30
0.0
 11
29.920376486399999
 21
2.327552397299999
 31
0.0
 12
30.00986202659433
 22
2.327552397299999
 32
0.0
 13
30.00986202659433
 23
2.327552397299999
 33
0.0
210
0.0
220
0.0
230
1.0
  0
SOLID
  5
636
  8
0
  6
CONTINUOUS
 62
     2
 10
-29.894352258000001
 20
2.3349569287
 30
0.0
 11
-30.00608922940172
 21
2.3349569287
 31
0.0
 12
-30.00986202659433
 22
2.327552397299999
 32
0.0
 13
-30.00986202659433
 23
2.327552397299999
 33
0.0
210
0.0
220
0.0
230
-1.0
  0
SOLID
  5
637
  8
0
  6
CONTINUOUS
 62
     2
 10
29.920376486399999
 20
2.327552397299999
 30
0.0
 11
29.941968531499999
 21
2.3112468418000001
 31
0.0
 12
30.018170122095761
 22
2.3112468418000001
 32
0.0
 13
30.018170122095761
 23
2.3112468418000001
 33
0.0
210
0.0
220
0.0
230
1.0
  0
SOLID
  5
638
  8
0
  6
CONTINUOUS
 62
     2
 10
-29.920376486399999
 20
2.327552397299999
 30
0.0
 11
-30.00986202659433
 21
2.327552397299999
 31
0.0
 12
-30.018170122095761
 22
2.3112468418000001
 32
0.0
 13
-30.018170122095761
 23
2.3112468418000001
 33
0.0
210
0.0
220
0.0
230
-1.0
  0
SOLID
  5
639
  8
0
  6
CONTINUOUS
 62
     2
 10
29.941968531499999
 20
2.3112468418000001
 30
0.0
 11
29.94577355689422
 21
2.3051015148
 31
0.0
 12
30.021301322599999
 22
2.3051015148
 32
0.0
 13
30.021301322599999
 23
2.3051015148
 33
0.0
  0
SOLID
  5
63A
  8
0
  6
CONTINUOUS
 62
     2
 10
-29.941968531499999
 20
2.3112468418000001
 30
0.0
 11
-30.018170122095761
 21
2.3112468418000001
 31
0.0
 12
-30.021301322599999
 22
2.3051015148
 32
0.0
 13
-30.021301322599999
 23
2.3051015148
 33
0.0
210
0.0
220
0.0
230
-1.0
  0
SOLID
  5
63B
  8
0
  6
CONTINUOUS
 62
     2
 10
29.94577355689422
 20
2.3051015148
 30
0.0
 11
29.9562122679
 21
2.2882424176999998
 31
0.0
 12
30.02397154126221
 22
2.2882424176999998
 32
0.0
 13
30.02397154126221
 23
2.2882424176999998
 33
0.0
210
0.0
220
0.0
230
1.0
  0
SOLID
  5
63C
  8
0
  6
CONTINUOUS
 62
     2
 10
-29.94577355689422
 20
2.3051015148
 30
0.0
 11
-30.021301322599999
 21
2.3051015148
 31
0.0
 12
-30.02397154126221
 22
2.2882424176999998
 32
0.0
 13
-30.02397154126221
 23
2.2882424176999998
 33
0.0
210
0.0
220
0.0
230
-1.0
  0
SOLID
  5
63D
  8
0
  6
CONTINUOUS
 62
     2
 10
29.9562122679
 20
2.2882424176999998
 30
0.0
 11
29.961183999999999
 21
2.2616459999999989
 31
0.0
 12
30.02818400000001
 22
2.2616459999999989
 32
0.0
 13
30.02818400000001
 23
2.2616459999999989
 33
0.0
210
0.0
220
0.0
230
1.0
  0
SOLID
  5
63E
  8
0
  6
CONTINUOUS
 62
     2
 10
-29.9562122679
 20
2.2882424176999998
 30
0.0
 11
-30.02397154126221
 21
2.2882424176999998
 31
0.0
 12
-30.02818400000001
 22
2.2616459999999989
 32
0.0
 13
-30.02818400000001
 23
2.2616459999999989
 33
0.0
210
0.0
220
0.0
230
-1.0
  0
SOLID
  5
63F
  8
0
  6
CONTINUOUS
 62
     2
 10
29.961183999999999
 20
2.2616459999999989
 30
0.0
 11
29.9562122679
 21
2.2350495822999989
 31
0.0
 12
30.02397154126221
 22
2.2350495822999989
 32
0.0
 13
30.02397154126221
 23
2.2350495822999989
 33
0.0
210
0.0
220
0.0
230
1.0
  0
SOLID
  5
640
  8
0
  6
CONTINUOUS
 62
     2
 10
-29.961183999999999
 20
2.2616459999999989
 30
0.0
 11
-30.02818400000001
 21
2.2616459999999989
 31
0.0
 12
-30.02397154126221
 22
2.2350495822999989
 32
0.0
 13
-30.02397154126221
 23
2.2350495822999989
 33
0.0
210
0.0
220
0.0
230
-1.0
  0
SOLID
  5
641
  8
0
  6
CONTINUOUS
 62
     2
 10
29.9562122679
 20
2.2350495822999989
 30
0.0
 11
29.94577355689422
 21
2.2181904852000001
 31
0.0
 12
30.021301322599999
 22
2.2181904852000001
 32
0.0
 13
30.021301322599999
 23
2.2181904852000001
 33
0.0
210
0.0
220
0.0
230
1.0
  0
SOLID
  5
642
  8
0
  6
CONTINUOUS
 62
     2
 10
-29.9562122679
 20
2.2350495822999989
 30
0.0
 11
-30.02397154126221
 21
2.2350495822999989
 31
0.0
 12
-30.021301322599999
 22
2.2181904852000001
 32
0.0
 13
-30.021301322599999
 23
2.2181904852000001
 33
0.0
210
0.0
220
0.0
230
-1.0
  0
SOLID
  5
643
  8
0
  6
CONTINUOUS
 62
     2
 10
29.94577355689422
 20
2.2181904852000001
 30
0.0
 11
29.941968531499999
 21
2.2120451582
 31
0.0
 12
30.018170122095409
 22
2.2120451582
 32
0.0
 13
30.018170122095409
 23
2.2120451582
 33
0.0
210
0.0
220
0.0
230
1.0
  0
SOLID
  5
644
  8
0
  6
CONTINUOUS
 62
     2
 10
-29.94577355689422
 20
2.2181904852000001
 30
0.0
 11
-30.021301322599999
 21
2.2181904852000001
 31
0.0
 12
-30.018170122095409
 22
2.2120451582
 32
0.0
 13
-30.018170122095409
 23
2.2120451582
 33
0.0
210
0.0
220
0.0
230
-1.0
  0
SOLID
  5
645
  8
0
  6
CONTINUOUS
 62
     2
 10
29.941968531499999
 20
2.2120451582
 30
0.0
 11
29.920376486399999
 21
2.1957396026999998
 31
0.0
 12
30.009862026593051
 22
2.1957396026999998
 32
0.0
 13
30.009862026593051
 23
2.1957396026999998
 33
0.0
  0
SOLID
  5
646
  8
0
  6
CONTINUOUS
 62
     2
 10
-29.941968531499999
 20
2.2120451582
 30
0.0
 11
-30.018170122095409
 21
2.2120451582
 31
0.0
 12
-30.009862026593051
 22
2.1957396026999998
 32
0.0
 13
-30.009862026593051
 23
2.1957396026999998
 33
0.0
210
0.0
220
0.0
230
-1.0
  0
SOLID
  5
647
  8
0
  6
CONTINUOUS
 62
     2
 10
29.920376486399999
 20
2.1957396026999998
 30
0.0
 11
29.894352258000001
 21
2.1883350713
 31
0.0
 12
30.006089229400001
 22
2.1883350713
 32
0.0
 13
30.006089229400001
 23
2.1883350713
 33
0.0
210
0.0
220
0.0
230
1.0
  0
SOLID
  5
648
  8
0
  6
CONTINUOUS
 62
     2
 10
-29.920376486399999
 20
2.1957396026999998
 30
0.0
 11
-30.009862026593051
 21
2.1957396026999998
 31
0.0
 12
-30.006089229400001
 22
2.1883350713
 32
0.0
 13
-30.006089229400001
 23
2.1883350713
 33
0.0
210
0.0
220
0.0
230
-1.0
  0
SOLID
  5
649
  8
0
  6
CONTINUOUS
 62
     2
 10
29.894352258000001
 20
2.1883350713
 30
0.0
 11
29.894352258000001
 21
2.1883350713
 31
0.0
 12
30.006089229400001
 22
2.1883350713
 32
0.0
 13
30.006089229400001
 23
2.1883350713
 33
0.0
210
0.0
220
0.0
230
1.0
  0
LINE
  5
64A
  8
0
  6
CONTINUOUS
 62
     2
 10
29.88755900000001
 20
2.4022709999999989
 30
0.0
 11
29.844103485200002
 21
2.3953883226000001
 31
0.0
  0
LINE
  5
64B
  8
0
  6
CONTINUOUS
 62
     2
 10
29.931014514800001
 20
2.3953883226000001
 30
0.0
 11
29.88755900000001
 21
2.4022709999999989
 31
0.0
  0
LINE
  5
64C
  8
0
  6
CONTINUOUS
 62
     2
 10
29.844103485200002
 20
2.3953883226000001
 30
0.0
 11
29.8049016989
 21
2.3754140148
 31
0.0
  0
LINE
  5
64D
  8
0
  6
CONTINUOUS
 62
     2
 10
29.931014514800001
 20
2.3953883226000001
 30
0.0
 11
29.970216301099999
 21
2.3754140148
 31
0.0
  0
LINE
  5
64E
  8
0
  6
CONTINUOUS
 62
     2
 10
29.8049016989
 20
2.3754140148
 30
0.0
 11
29.773790985200002
 21
2.3443033011000001
 31
0.0
  0
LINE
  5
64F
  8
0
  6
CONTINUOUS
 62
     2
 10
29.970216301099999
 20
2.3754140148
 30
0.0
 11
30.001327014800001
 21
2.3443033011000001
 31
0.0
  0
LINE
  5
650
  8
0
  6
CONTINUOUS
 62
     2
 10
29.773790985200002
 20
2.3443033011000001
 30
0.0
 11
29.769028770599999
 21
2.3349569287
 31
0.0
  0
LINE
  5
651
  8
0
  6
CONTINUOUS
 62
     2
 10
30.001327014800001
 20
2.3443033011000001
 30
0.0
 11
30.00608922940172
 21
2.3349569287
 31
0.0
  0
LINE
  5
652
  8
0
  6
CONTINUOUS
 62
     2
 10
29.769028770599999
 20
2.3349569287
 30
0.0
 11
29.894352258000001
 21
2.3349569287
 31
0.0
  0
LINE
  5
653
  8
0
  6
CONTINUOUS
 62
     2
 10
29.894352258000001
 20
2.3349569287
 30
0.0
 11
29.920376486399999
 21
2.327552397299999
 31
0.0
  0
LINE
  5
654
  8
0
  6
CONTINUOUS
 62
     2
 10
30.00608922940172
 20
2.3349569287
 30
0.0
 11
30.00986202659433
 21
2.327552397299999
 31
0.0
  0
LINE
  5
655
  8
0
  6
CONTINUOUS
 62
     2
 10
29.920376486399999
 20
2.327552397299999
 30
0.0
 11
29.941968531499999
 21
2.3112468418000001
 31
0.0
  0
LINE
  5
656
  8
0
  6
CONTINUOUS
 62
     2
 10
30.00986202659433
 20
2.327552397299999
 30
0.0
 11
30.018170122095761
 21
2.3112468418000001
 31
0.0
  0
LINE
  5
657
  8
0
  6
CONTINUOUS
 62
     2
 10
29.941968531499999
 20
2.3112468418000001
 30
0.0
 11
29.94577355689422
 21
2.3051015148
 31
0.0
  0
LINE
  5
658
  8
0
  6
CONTINUOUS
 62
     2
 10
30.018170122095761
 20
2.3112468418000001
 30
0.0
 11
30.021301322599999
 21
2.3051015148
 31
0.0
  0
LINE
  5
659
  8
0
  6
CONTINUOUS
 62
     2
 10
29.94577355689422
 20
2.3051015148
 30
0.0
 11
29.9562122679
 21
2.2882424176999998
 31
0.0
  0
LINE
  5
65A
  8
0
  6
CONTINUOUS
 62
     2
 10
30.021301322599999
 20
2.3051015148
 30
0.0
 11
30.02397154126221
 21
2.2882424176999998
 31
0.0
  0
LINE
  5
65B
  8
0
  6
CONTINUOUS
 62
     2
 10
29.9562122679
 20
2.2882424176999998
 30
0.0
 11
29.961183999999999
 21
2.2616459999999989
 31
0.0
  0
LINE
  5
65C
  8
0
  6
CONTINUOUS
 62
     2
 10
30.02397154126221
 20
2.2882424176999998
 30
0.0
 11
30.02818400000001
 21
2.2616459999999989
 31
0.0
  0
LINE
  5
65D
  8
0
  6
CONTINUOUS
 62
     2
 10
29.961183999999999
 20
2.2616459999999989
 30
0.0
 11
29.9562122679
 21
2.2350495822999989
 31
0.0
  0
LINE
  5
65E
  8
0
  6
CONTINUOUS
 62
     2
 10
30.02818400000001
 20
2.2616459999999989
 30
0.0
 11
30.02397154126221
 21
2.2350495822999989
 31
0.0
  0
LINE
  5
65F
  8
0
  6
CONTINUOUS
 62
     2
 10
29.9562122679
 20
2.2350495822999989
 30
0.0
 11
29.94577355689422
 21
2.2181904852000001
 31
0.0
  0
LINE
  5
660
  8
0
  6
CONTINUOUS
 62
     2
 10
30.02397154126221
 20
2.2350495822999989
 30
0.0
 11
30.021301322599999
 21
2.2181904852000001
 31
0.0
  0
LINE
  5
661
  8
0
  6
CONTINUOUS
 62
     2
 10
29.94577355689422
 20
2.2181904852000001
 30
0.0
 11
29.941968531499999
 21
2.2120451582
 31
0.0
  0
LINE
  5
662
  8
0
  6
CONTINUOUS
 62
     2
 10
30.021301322599999
 20
2.2181904852000001
 30
0.0
 11
30.018170122095409
 21
2.2120451582
 31
0.0
  0
LINE
  5
663
  8
0
  6
CONTINUOUS
 62
     2
 10
29.941968531499999
 20
2.2120451582
 30
0.0
 11
29.920376486399999
 21
2.1957396026999998
 31
0.0
  0
LINE
  5
664
  8
0
  6
CONTINUOUS
 62
     2
 10
30.018170122095409
 20
2.2120451582
 30
0.0
 11
30.009862026593051
 21
2.1957396026999998
 31
0.0
  0
LINE
  5
665
  8
0
  6
CONTINUOUS
 62
     2
 10
29.920376486399999
 20
2.1957396026999998
 30
0.0
 11
29.894352258000001
 21
2.1883350713
 31
0.0
  0
LINE
  5
666
  8
0
  6
CONTINUOUS
 62
     2
 10
30.009862026593051
 20
2.1957396026999998
 30
0.0
 11
30.006089229400001
 21
2.1883350713
 31
0.0
  0
LINE
  5
667
  8
0
  6
CONTINUOUS
 62
     2
 10
29.894352258000001
 20
2.1883350713
 30
0.0
 11
30.006089229400001
 21
2.1883350713
 31
0.0
  0
ENDBLK
  5
669
  8
0
  0
BLOCK
  8
0
  2
*U17
 70
     1
 10
0.0
 20
0.0
 30
0.0
  3
*U17
  1

  0
SOLID
  5
679
  8
0
  6
CONTINUOUS
 62
     2
 10
30.059434
 20
2.4022709999999989
 30
0.0
 11
30.059434
 21
2.4022709999999989
 31
0.0
 12
30.126434
 22
2.4022709999999989
 32
0.0
 13
30.126434
 23
2.4022709999999989
 33
0.0
210
0.0
220
0.0
230
1.0
  0
SOLID
  5
67A
  8
0
  6
CONTINUOUS
 62
     2
 10
30.204559
 20
2.4022709999999989
 30
0.0
 11
30.204559
 21
2.4022709999999989
 31
0.0
 12
30.271559
 22
2.4022709999999989
 32
0.0
 13
30.271559
 23
2.4022709999999989
 33
0.0
210
0.0
220
0.0
230
1.0
  0
SOLID
  5
67B
  8
0
  6
CONTINUOUS
 62
     2
 10
30.059434
 20
2.4022709999999989
 30
0.0
 11
30.059434
 21
2.310770999999999
 31
0.0
 12
30.126434
 22
2.310770999999999
 32
0.0
 13
30.126434
 23
2.310770999999999
 33
0.0
210
0.0
220
0.0
230
1.0
  0
SOLID
  5
67C
  8
0
  6
CONTINUOUS
 62
     2
 10
-30.059434
 20
2.4022709999999989
 30
0.0
 11
-30.126434
 21
2.4022709999999989
 31
0.0
 12
-30.126434
 22
2.310770999999999
 32
0.0
 13
-30.126434
 23
2.310770999999999
 33
0.0
210
0.0
220
0.0
230
-1.0
  0
SOLID
  5
67D
  8
0
  6
CONTINUOUS
 62
     2
 10
30.204559
 20
2.4022709999999989
 30
0.0
 11
30.204559
 21
2.310770999999999
 31
0.0
 12
30.271559
 22
2.310770999999999
 32
0.0
 13
30.271559
 23
2.310770999999999
 33
0.0
210
0.0
220
0.0
230
1.0
  0
SOLID
  5
67E
  8
0
  6
CONTINUOUS
 62
     2
 10
-30.204559
 20
2.4022709999999989
 30
0.0
 11
-30.271559
 21
2.4022709999999989
 31
0.0
 12
-30.271559
 22
2.310770999999999
 32
0.0
 13
-30.271559
 23
2.310770999999999
 33
0.0
210
0.0
220
0.0
230
-1.0
  0
SOLID
  5
67F
  8
0
  6
CONTINUOUS
 62
     2
 10
30.126434
 20
2.310770999999999
 30
0.0
 11
30.126434
 21
2.310770999999999
 31
0.0
 12
30.204559
 22
2.310770999999999
 32
0.0
 13
30.204559
 23
2.310770999999999
 33
0.0
210
0.0
220
0.0
230
1.0
  0
SOLID
  5
680
  8
0
  6
CONTINUOUS
 62
     2
 10
30.059434
 20
2.310770999999999
 30
0.0
 11
30.059434
 21
2.2437709999999988
 31
0.0
 12
30.271559
 22
2.2437709999999988
 32
0.0
 13
30.271559
 23
2.2437709999999988
 33
0.0
210
0.0
220
0.0
230
1.0
  0
SOLID
  5
681
  8
0
  6
CONTINUOUS
 62
     2
 10
-30.059434
 20
2.310770999999999
 30
0.0
 11
-30.271559
 21
2.310770999999999
 31
0.0
 12
-30.271559
 22
2.2437709999999988
 32
0.0
 13
-30.271559
 23
2.2437709999999988
 33
0.0
210
0.0
220
0.0
230
-1.0
  0
SOLID
  5
682
  8
0
  6
CONTINUOUS
 62
     2
 10
30.126434
 20
2.2437709999999988
 30
0.0
 11
30.126434
 21
2.2437709999999988
 31
0.0
 12
30.204559
 22
2.2437709999999988
 32
0.0
 13
30.204559
 23
2.2437709999999988
 33
0.0
210
0.0
220
0.0
230
1.0
  0
SOLID
  5
683
  8
0
  6
CONTINUOUS
 62
     2
 10
30.059434
 20
2.2437709999999988
 30
0.0
 11
30.059434
 21
2.1210209999999989
 31
0.0
 12
30.126434
 22
2.1210209999999989
 32
0.0
 13
30.126434
 23
2.1210209999999989
 33
0.0
210
0.0
220
0.0
230
1.0
  0
SOLID
  5
684
  8
0
  6
CONTINUOUS
 62
     2
 10
-30.059434
 20
2.2437709999999988
 30
0.0
 11
-30.126434
 21
2.2437709999999988
 31
0.0
 12
-30.126434
 22
2.1210209999999989
 32
0.0
 13
-30.126434
 23
2.1210209999999989
 33
0.0
210
0.0
220
0.0
230
-1.0
  0
SOLID
  5
685
  8
0
  6
CONTINUOUS
 62
     2
 10
30.204559
 20
2.2437709999999988
 30
0.0
 11
30.204559
 21
2.1210209999999989
 31
0.0
 12
30.271559
 22
2.1210209999999989
 32
0.0
 13
30.271559
 23
2.1210209999999989
 33
0.0
210
0.0
220
0.0
230
1.0
  0
SOLID
  5
686
  8
0
  6
CONTINUOUS
 62
     2
 10
-30.204559
 20
2.2437709999999988
 30
0.0
 11
-30.271559
 21
2.2437709999999988
 31
0.0
 12
-30.271559
 22
2.1210209999999989
 32
0.0
 13
-30.271559
 23
2.1210209999999989
 33
0.0
210
0.0
220
0.0
230
-1.0
  0
SOLID
  5
687
  8
0
  6
CONTINUOUS
 62
     2
 10
30.059434
 20
2.1210209999999989
 30
0.0
 11
30.059434
 21
2.1210209999999989
 31
0.0
 12
30.126434
 22
2.1210209999999989
 32
0.0
 13
30.126434
 23
2.1210209999999989
 33
0.0
210
0.0
220
0.0
230
1.0
  0
SOLID
  5
688
  8
0
  6
CONTINUOUS
 62
     2
 10
30.204559
 20
2.1210209999999989
 30
0.0
 11
30.204559
 21
2.1210209999999989
 31
0.0
 12
30.271559
 22
2.1210209999999989
 32
0.0
 13
30.271559
 23
2.1210209999999989
 33
0.0
210
0.0
220
0.0
230
1.0
  0
LINE
  5
689
  8
0
  6
CONTINUOUS
 62
     2
 10
30.059434
 20
2.4022709999999989
 30
0.0
 11
30.126434
 21
2.4022709999999989
 31
0.0
  0
LINE
  5
68A
  8
0
  6
CONTINUOUS
 62
     2
 10
30.204559
 20
2.4022709999999989
 30
0.0
 11
30.271559
 21
2.4022709999999989
 31
0.0
  0
LINE
  5
68B
  8
0
  6
CONTINUOUS
 62
     2
 10
30.059434
 20
2.4022709999999989
 30
0.0
 11
30.059434
 21
2.310770999999999
 31
0.0
  0
LINE
  5
68C
  8
0
  6
CONTINUOUS
 62
     2
 10
30.126434
 20
2.4022709999999989
 30
0.0
 11
30.126434
 21
2.310770999999999
 31
0.0
  0
LINE
  5
68D
  8
0
  6
CONTINUOUS
 62
     2
 10
30.204559
 20
2.4022709999999989
 30
0.0
 11
30.204559
 21
2.310770999999999
 31
0.0
  0
LINE
  5
68E
  8
0
  6
CONTINUOUS
 62
     2
 10
30.271559
 20
2.4022709999999989
 30
0.0
 11
30.271559
 21
2.310770999999999
 31
0.0
  0
LINE
  5
68F
  8
0
  6
CONTINUOUS
 62
     2
 10
30.126434
 20
2.310770999999999
 30
0.0
 11
30.204559
 21
2.310770999999999
 31
0.0
  0
LINE
  5
690
  8
0
  6
CONTINUOUS
 62
     2
 10
30.059434
 20
2.310770999999999
 30
0.0
 11
30.059434
 21
2.2437709999999988
 31
0.0
  0
LINE
  5
691
  8
0
  6
CONTINUOUS
 62
     2
 10
30.271559
 20
2.310770999999999
 30
0.0
 11
30.271559
 21
2.2437709999999988
 31
0.0
  0
LINE
  5
692
  8
0
  6
CONTINUOUS
 62
     2
 10
30.126434
 20
2.2437709999999988
 30
0.0
 11
30.204559
 21
2.2437709999999988
 31
0.0
  0
LINE
  5
693
  8
0
  6
CONTINUOUS
 62
     2
 10
30.059434
 20
2.2437709999999988
 30
0.0
 11
30.059434
 21
2.1210209999999989
 31
0.0
  0
LINE
  5
694
  8
0
  6
CONTINUOUS
 62
     2
 10
30.126434
 20
2.2437709999999988
 30
0.0
 11
30.126434
 21
2.1210209999999989
 31
0.0
  0
LINE
  5
695
  8
0
  6
CONTINUOUS
 62
     2
 10
30.204559
 20
2.2437709999999988
 30
0.0
 11
30.204559
 21
2.1210209999999989
 31
0.0
  0
LINE
  5
696
  8
0
  6
CONTINUOUS
 62
     2
 10
30.271559
 20
2.2437709999999988
 30
0.0
 11
30.271559
 21
2.1210209999999989
 31
0.0
  0
LINE
  5
697
  8
0
  6
CONTINUOUS
 62
     2
 10
30.059434
 20
2.1210209999999989
 30
0.0
 11
30.126434
 21
2.1210209999999989
 31
0.0
  0
LINE
  5
698
  8
0
  6
CONTINUOUS
 62
     2
 10
30.204559
 20
2.1210209999999989
 30
0.0
 11
30.271559
 21
2.1210209999999989
 31
0.0
  0
ENDBLK
  5
69A
  8
0
  0
BLOCK
  8
0
  2
*U18
 70
     1
 10
0.0
 20
0.0
 30
0.0
  3
*U18
  1

  0
SOLID
  5
6A4
  8
0
  6
CONTINUOUS
 62
     2
 10
30.302809000000011
 20
2.4022709999999989
 30
0.0
 11
30.302809000000011
 21
2.4022709999999989
 31
0.0
 12
30.369809
 22
2.4022709999999989
 32
0.0
 13
30.369809
 23
2.4022709999999989
 33
0.0
210
0.0
220
0.0
230
1.0
  0
SOLID
  5
6A5
  8
0
  6
CONTINUOUS
 62
     2
 10
30.302809000000011
 20
2.4022709999999989
 30
0.0
 11
30.302809000000011
 21
2.1880209999999991
 31
0.0
 12
30.369809
 22
2.1880209999999991
 32
0.0
 13
30.369809
 23
2.1880209999999991
 33
0.0
  0
SOLID
  5
6A6
  8
0
  6
CONTINUOUS
 62
     2
 10
-30.302809000000011
 20
2.4022709999999989
 30
0.0
 11
-30.369809
 21
2.4022709999999989
 31
0.0
 12
-30.369809
 22
2.1880209999999991
 32
0.0
 13
-30.369809
 23
2.1880209999999991
 33
0.0
210
0.0
220
0.0
230
-1.0
  0
SOLID
  5
6A7
  8
0
  6
CONTINUOUS
 62
     2
 10
30.369809
 20
2.1880209999999991
 30
0.0
 11
30.369809
 21
2.1880209999999991
 31
0.0
 12
30.459059000000011
 22
2.1880209999999991
 32
0.0
 13
30.459059000000011
 23
2.1880209999999991
 33
0.0
210
0.0
220
0.0
230
1.0
  0
SOLID
  5
6A8
  8
0
  6
CONTINUOUS
 62
     2
 10
30.302809000000011
 20
2.1880209999999991
 30
0.0
 11
30.302809000000011
 21
2.1210209999999989
 31
0.0
 12
30.459059000000011
 22
2.1210209999999989
 32
0.0
 13
30.459059000000011
 23
2.1210209999999989
 33
0.0
210
0.0
220
0.0
230
1.0
  0
SOLID
  5
6A9
  8
0
  6
CONTINUOUS
 62
     2
 10
-30.302809000000011
 20
2.1880209999999991
 30
0.0
 11
-30.459059000000011
 21
2.1880209999999991
 31
0.0
 12
-30.459059000000011
 22
2.1210209999999989
 32
0.0
 13
-30.459059000000011
 23
2.1210209999999989
 33
0.0
210
0.0
220
0.0
230
-1.0
  0
SOLID
  5
6AA
  8
0
  6
CONTINUOUS
 62
     2
 10
30.302809000000011
 20
2.1210209999999989
 30
0.0
 11
30.302809000000011
 21
2.1210209999999989
 31
0.0
 12
30.459059000000011
 22
2.1210209999999989
 32
0.0
 13
30.459059000000011
 23
2.1210209999999989
 33
0.0
210
0.0
220
0.0
230
1.0
  0
LINE
  5
6AB
  8
0
  6
CONTINUOUS
 62
     2
 10
30.302809000000011
 20
2.4022709999999989
 30
0.0
 11
30.369809
 21
2.4022709999999989
 31
0.0
  0
LINE
  5
6AC
  8
0
  6
CONTINUOUS
 62
     2
 10
30.302809000000011
 20
2.4022709999999989
 30
0.0
 11
30.302809000000011
 21
2.1880209999999991
 31
0.0
  0
LINE
  5
6AD
  8
0
  6
CONTINUOUS
 62
     2
 10
30.369809
 20
2.4022709999999989
 30
0.0
 11
30.369809
 21
2.1880209999999991
 31
0.0
  0
LINE
  5
6AE
  8
0
  6
CONTINUOUS
 62
     2
 10
30.369809
 20
2.1880209999999991
 30
0.0
 11
30.459059000000011
 21
2.1880209999999991
 31
0.0
  0
LINE
  5
6AF
  8
0
  6
CONTINUOUS
 62
     2
 10
30.302809000000011
 20
2.1880209999999991
 30
0.0
 11
30.302809000000011
 21
2.1210209999999989
 31
0.0
  0
LINE
  5
6B0
  8
0
  6
CONTINUOUS
 62
     2
 10
30.459059000000011
 20
2.1880209999999991
 30
0.0
 11
30.459059000000011
 21
2.1210209999999989
 31
0.0
  0
LINE
  5
6B1
  8
0
  6
CONTINUOUS
 62
     2
 10
30.302809000000011
 20
2.1210209999999989
 30
0.0
 11
30.459059000000011
 21
2.1210209999999989
 31
0.0
  0
ENDBLK
  5
6B3
  8
0
  0
BLOCK
  8
0
  2
*U19
 70
     1
 10
0.0
 20
0.0
 30
0.0
  3
*U19
  1

  0
SOLID
  5
6C3
  8
0
  6
CONTINUOUS
 62
     2
 10
30.490309
 20
2.4022709999999989
 30
0.0
 11
30.490309
 21
2.4022709999999989
 31
0.0
 12
30.646559
 22
2.4022709999999989
 32
0.0
 13
30.646559
 23
2.4022709999999989
 33
0.0
210
0.0
220
0.0
230
1.0
  0
SOLID
  5
6C4
  8
0
  6
CONTINUOUS
 62
     2
 10
30.490309
 20
2.4022709999999989
 30
0.0
 11
30.490309
 21
2.3352710000000001
 31
0.0
 12
30.646559
 22
2.3352710000000001
 32
0.0
 13
30.646559
 23
2.3352710000000001
 33
0.0
210
0.0
220
0.0
230
1.0
  0
SOLID
  5
6C5
  8
0
  6
CONTINUOUS
 62
     2
 10
-30.490309
 20
2.4022709999999989
 30
0.0
 11
-30.646559
 21
2.4022709999999989
 31
0.0
 12
-30.646559
 22
2.3352710000000001
 32
0.0
 13
-30.646559
 23
2.3352710000000001
 33
0.0
210
0.0
220
0.0
230
-1.0
  0
SOLID
  5
6C6
  8
0
  6
CONTINUOUS
 62
     2
 10
30.557309
 20
2.3352710000000001
 30
0.0
 11
30.557309
 21
2.3352710000000001
 31
0.0
 12
30.646559
 22
2.3352710000000001
 32
0.0
 13
30.646559
 23
2.3352710000000001
 33
0.0
210
0.0
220
0.0
230
1.0
  0
SOLID
  5
6C7
  8
0
  6
CONTINUOUS
 62
     2
 10
30.490309
 20
2.3352710000000001
 30
0.0
 11
30.490309
 21
2.287333499999999
 31
0.0
 12
30.557309
 22
2.287333499999999
 32
0.0
 13
30.557309
 23
2.287333499999999
 33
0.0
  0
SOLID
  5
6C8
  8
0
  6
CONTINUOUS
 62
     2
 10
-30.490309
 20
2.3352710000000001
 30
0.0
 11
-30.557309
 21
2.3352710000000001
 31
0.0
 12
-30.557309
 22
2.287333499999999
 32
0.0
 13
-30.557309
 23
2.287333499999999
 33
0.0
210
0.0
220
0.0
230
-1.0
  0
SOLID
  5
6C9
  8
0
  6
CONTINUOUS
 62
     2
 10
30.557309
 20
2.287333499999999
 30
0.0
 11
30.557309
 21
2.287333499999999
 31
0.0
 12
30.646559
 22
2.287333499999999
 32
0.0
 13
30.646559
 23
2.287333499999999
 33
0.0
210
0.0
220
0.0
230
1.0
  0
SOLID
  5
6CA
  8
0
  6
CONTINUOUS
 62
     2
 10
30.490309
 20
2.287333499999999
 30
0.0
 11
30.490309
 21
2.2359584999999988
 31
0.0
 12
30.646559
 22
2.2359584999999988
 32
0.0
 13
30.646559
 23
2.2359584999999988
 33
0.0
210
0.0
220
0.0
230
1.0
  0
SOLID
  5
6CB
  8
0
  6
CONTINUOUS
 62
     2
 10
-30.490309
 20
2.287333499999999
 30
0.0
 11
-30.646559
 21
2.287333499999999
 31
0.0
 12
-30.646559
 22
2.2359584999999988
 32
0.0
 13
-30.646559
 23
2.2359584999999988
 33
0.0
210
0.0
220
0.0
230
-1.0
  0
SOLID
  5
6CC
  8
0
  6
CONTINUOUS
 62
     2
 10
30.557309
 20
2.2359584999999988
 30
0.0
 11
30.557309
 21
2.2359584999999988
 31
0.0
 12
30.646559
 22
2.2359584999999988
 32
0.0
 13
30.646559
 23
2.2359584999999988
 33
0.0
210
0.0
220
0.0
230
1.0
  0
SOLID
  5
6CD
  8
0
  6
CONTINUOUS
 62
     2
 10
30.490309
 20
2.2359584999999988
 30
0.0
 11
30.490309
 21
2.1880209999999991
 31
0.0
 12
30.557309
 22
2.1880209999999991
 32
0.0
 13
30.557309
 23
2.1880209999999991
 33
0.0
210
0.0
220
0.0
230
1.0
  0
SOLID
  5
6CE
  8
0
  6
CONTINUOUS
 62
     2
 10
-30.490309
 20
2.2359584999999988
 30
0.0
 11
-30.557309
 21
2.2359584999999988
 31
0.0
 12
-30.557309
 22
2.1880209999999991
 32
0.0
 13
-30.557309
 23
2.1880209999999991
 33
0.0
210
0.0
220
0.0
230
-1.0
  0
SOLID
  5
6CF
  8
0
  6
CONTINUOUS
 62
     2
 10
30.557309
 20
2.1880209999999991
 30
0.0
 11
30.557309
 21
2.1880209999999991
 31
0.0
 12
30.646559
 22
2.1880209999999991
 32
0.0
 13
30.646559
 23
2.1880209999999991
 33
0.0
210
0.0
220
0.0
230
1.0
  0
SOLID
  5
6D0
  8
0
  6
CONTINUOUS
 62
     2
 10
30.490309
 20
2.1880209999999991
 30
0.0
 11
30.490309
 21
2.1210209999999989
 31
0.0
 12
30.646559
 22
2.1210209999999989
 32
0.0
 13
30.646559
 23
2.1210209999999989
 33
0.0
210
0.0
220
0.0
230
1.0
  0
SOLID
  5
6D1
  8
0
  6
CONTINUOUS
 62
     2
 10
-30.490309
 20
2.1880209999999991
 30
0.0
 11
-30.646559
 21
2.1880209999999991
 31
0.0
 12
-30.646559
 22
2.1210209999999989
 32
0.0
 13
-30.646559
 23
2.1210209999999989
 33
0.0
210
0.0
220
0.0
230
-1.0
  0
SOLID
  5
6D2
  8
0
  6
CONTINUOUS
 62
     2
 10
30.490309
 20
2.1210209999999989
 30
0.0
 11
30.490309
 21
2.1210209999999989
 31
0.0
 12
30.646559
 22
2.1210209999999989
 32
0.0
 13
30.646559
 23
2.1210209999999989
 33
0.0
210
0.0
220
0.0
230
1.0
  0
LINE
  5
6D3
  8
0
  6
CONTINUOUS
 62
     2
 10
30.490309
 20
2.4022709999999989
 30
0.0
 11
30.646559
 21
2.4022709999999989
 31
0.0
  0
LINE
  5
6D4
  8
0
  6
CONTINUOUS
 62
     2
 10
30.490309
 20
2.4022709999999989
 30
0.0
 11
30.490309
 21
2.3352710000000001
 31
0.0
  0
LINE
  5
6D5
  8
0
  6
CONTINUOUS
 62
     2
 10
30.646559
 20
2.4022709999999989
 30
0.0
 11
30.646559
 21
2.3352710000000001
 31
0.0
  0
LINE
  5
6D6
  8
0
  6
CONTINUOUS
 62
     2
 10
30.557309
 20
2.3352710000000001
 30
0.0
 11
30.646559
 21
2.3352710000000001
 31
0.0
  0
LINE
  5
6D7
  8
0
  6
CONTINUOUS
 62
     2
 10
30.490309
 20
2.3352710000000001
 30
0.0
 11
30.490309
 21
2.287333499999999
 31
0.0
  0
LINE
  5
6D8
  8
0
  6
CONTINUOUS
 62
     2
 10
30.557309
 20
2.3352710000000001
 30
0.0
 11
30.557309
 21
2.287333499999999
 31
0.0
  0
LINE
  5
6D9
  8
0
  6
CONTINUOUS
 62
     2
 10
30.557309
 20
2.287333499999999
 30
0.0
 11
30.646559
 21
2.287333499999999
 31
0.0
  0
LINE
  5
6DA
  8
0
  6
CONTINUOUS
 62
     2
 10
30.490309
 20
2.287333499999999
 30
0.0
 11
30.490309
 21
2.2359584999999988
 31
0.0
  0
LINE
  5
6DB
  8
0
  6
CONTINUOUS
 62
     2
 10
30.646559
 20
2.287333499999999
 30
0.0
 11
30.646559
 21
2.2359584999999988
 31
0.0
  0
LINE
  5
6DC
  8
0
  6
CONTINUOUS
 62
     2
 10
30.557309
 20
2.2359584999999988
 30
0.0
 11
30.646559
 21
2.2359584999999988
 31
0.0
  0
LINE
  5
6DD
  8
0
  6
CONTINUOUS
 62
     2
 10
30.490309
 20
2.2359584999999988
 30
0.0
 11
30.490309
 21
2.1880209999999991
 31
0.0
  0
LINE
  5
6DE
  8
0
  6
CONTINUOUS
 62
     2
 10
30.557309
 20
2.2359584999999988
 30
0.0
 11
30.557309
 21
2.1880209999999991
 31
0.0
  0
LINE
  5
6DF
  8
0
  6
CONTINUOUS
 62
     2
 10
30.557309
 20
2.1880209999999991
 30
0.0
 11
30.646559
 21
2.1880209999999991
 31
0.0
  0
LINE
  5
6E0
  8
0
  6
CONTINUOUS
 62
     2
 10
30.490309
 20
2.1880209999999991
 30
0.0
 11
30.490309
 21
2.1210209999999989
 31
0.0
  0
LINE
  5
6E1
  8
0
  6
CONTINUOUS
 62
     2
 10
30.646559
 20
2.1880209999999991
 30
0.0
 11
30.646559
 21
2.1210209999999989
 31
0.0
  0
LINE
  5
6E2
  8
0
  6
CONTINUOUS
 62
     2
 10
30.490309
 20
2.1210209999999989
 30
0.0
 11
30.646559
 21
2.1210209999999989
 31
0.0
  0
ENDBLK
  5
6E4
  8
0
  0
BLOCK
  8
0
  2
*U20
 70
     1
 10
0.0
 20
0.0
 30
0.0
  3
*U20
  1

  0
SOLID
  5
6EF
  8
DEFAULT_2
  6
CONTINUOUS
 62
     8
 10
16.9765625
 20
21.962499999999999
 30
0.0
 11
16.9765625
 21
21.962499999999999
 31
0.0
 12
17.0234375
 22
21.962499999999999
 32
0.0
 13
17.0234375
 23
21.962499999999999
 33
0.0
210
0.0
220
0.0
230
1.0
  0
SOLID
  5
6F0
  8
DEFAULT_2
  6
CONTINUOUS
 62
     8
 10
16.9765625
 20
21.962499999999999
 30
0.0
 11
16.9765625
 21
21.774999999999999
 31
0.0
 12
17.0234375
 22
21.774999999999999
 32
0.0
 13
17.0234375
 23
21.774999999999999
 33
0.0
210
0.0
220
0.0
230
1.0
  0
SOLID
  5
6F1
  8
DEFAULT_2
  6
CONTINUOUS
 62
     8
 10
-16.9765625
 20
21.962499999999999
 30
0.0
 11
-17.0234375
 21
21.962499999999999
 31
0.0
 12
-17.0234375
 22
21.774999999999999
 32
0.0
 13
-17.0234375
 23
21.774999999999999
 33
0.0
210
0.0
220
0.0
230
-1.0
  0
SOLID
  5
6F2
  8
DEFAULT_2
  6
CONTINUOUS
 62
     8
 10
16.90625
 20
21.774999999999999
 30
0.0
 11
16.90625
 21
21.774999999999999
 31
0.0
 12
16.9765625
 22
21.774999999999999
 32
0.0
 13
16.9765625
 23
21.774999999999999
 33
0.0
210
0.0
220
0.0
230
1.0
  0
SOLID
  5
6F3
  8
DEFAULT_2
  6
CONTINUOUS
 62
     8
 10
17.0234375
 20
21.774999999999999
 30
0.0
 11
17.0234375
 21
21.774999999999999
 31
0.0
 12
17.09375
 22
21.774999999999999
 32
0.0
 13
17.09375
 23
21.774999999999999
 33
0.0
210
0.0
220
0.0
230
1.0
  0
SOLID
  5
6F4
  8
DEFAULT_2
  6
CONTINUOUS
 62
     8
 10
-16.90625
 20
21.774999999999999
 30
0.0
 11
-17.09375
 21
21.774999999999999
 31
0.0
 12
-17.0
 22
21.587499999999999
 32
0.0
 13
-17.0
 23
21.587499999999999
 33
0.0
210
0.0
220
0.0
230
-1.0
  0
LINE
  5
6F5
  8
DEFAULT_2
  6
CONTINUOUS
 62
     8
 10
16.9765625
 20
21.962499999999999
 30
0.0
 11
17.0234375
 21
21.962499999999999
 31
0.0
  0
LINE
  5
6F6
  8
DEFAULT_2
  6
CONTINUOUS
 62
     8
 10
16.9765625
 20
21.962499999999999
 30
0.0
 11
16.9765625
 21
21.774999999999999
 31
0.0
  0
LINE
  5
6F7
  8
DEFAULT_2
  6
CONTINUOUS
 62
     8
 10
17.0234375
 20
21.962499999999999
 30
0.0
 11
17.0234375
 21
21.774999999999999
 31
0.0
  0
LINE
  5
6F8
  8
DEFAULT_2
  6
CONTINUOUS
 62
     8
 10
16.90625
 20
21.774999999999999
 30
0.0
 11
16.9765625
 21
21.774999999999999
 31
0.0
  0
LINE
  5
6F9
  8
DEFAULT_2
  6
CONTINUOUS
 62
     8
 10
17.0234375
 20
21.774999999999999
 30
0.0
 11
17.09375
 21
21.774999999999999
 31
0.0
  0
LINE
  5
6FA
  8
DEFAULT_2
  6
CONTINUOUS
 62
     8
 10
17.09375
 20
21.774999999999999
 30
0.0
 11
17.0
 21
21.587499999999999
 31
0.0
  0
LINE
  5
6FB
  8
DEFAULT_2
  6
CONTINUOUS
 62
     8
 10
17.0
 20
21.587499999999999
 30
0.0
 11
16.90625
 21
21.774999999999999
 31
0.0
  0
ENDBLK
  5
6FD
  8
0
  0
BLOCK
  8
0
  2
*U21
 70
     1
 10
0.0
 20
0.0
 30
0.0
  3
*U21
  1

  0
SOLID
  5
708
  8
DEFAULT_2
  6
CONTINUOUS
 62
     8
 10
0.3375
 20
11.09375
 30
0.0
 11
0.3375
 21
11.0234375
 31
0.0
 12
0.478125
 22
11.0234375
 32
0.0
 13
0.478125
 23
11.0234375
 33
0.0
210
0.0
220
0.0
230
1.0
  0
SOLID
  5
709
  8
DEFAULT_2
  6
CONTINUOUS
 62
     8
 10
0.15
 20
11.0234375
 30
0.0
 11
0.15
 21
11.0234375
 31
0.0
 12
0.3375
 22
11.0234375
 32
0.0
 13
0.3375
 23
11.0234375
 33
0.0
210
0.0
220
0.0
230
1.0
  0
SOLID
  5
70A
  8
DEFAULT_2
  6
CONTINUOUS
 62
     8
 10
0.15
 20
11.0234375
 30
0.0
 11
0.15
 21
11.0
 31
0.0
 12
0.525
 22
11.0
 32
0.0
 13
0.525
 23
11.0
 33
0.0
210
0.0
220
0.0
230
1.0
  0
SOLID
  5
70B
  8
DEFAULT_2
  6
CONTINUOUS
 62
     8
 10
-0.15
 20
11.0234375
 30
0.0
 11
-0.478125
 21
11.0234375
 31
0.0
 12
-0.525
 22
11.0
 32
0.0
 13
-0.525
 23
11.0
 33
0.0
210
0.0
220
0.0
230
-1.0
  0
SOLID
  5
70C
  8
DEFAULT_2
  6
CONTINUOUS
 62
     8
 10
0.15
 20
11.0
 30
0.0
 11
0.15
 21
10.9765625
 31
0.0
 12
0.478125
 22
10.9765625
 32
0.0
 13
0.478125
 23
10.9765625
 33
0.0
210
0.0
220
0.0
230
1.0
  0
SOLID
  5
70D
  8
DEFAULT_2
  6
CONTINUOUS
 62
     8
 10
-0.15
 20
11.0
 30
0.0
 11
-0.525
 21
11.0
 31
0.0
 12
-0.478125
 22
10.9765625
 32
0.0
 13
-0.478125
 23
10.9765625
 33
0.0
210
0.0
220
0.0
230
-1.0
  0
SOLID
  5
70E
  8
DEFAULT_2
  6
CONTINUOUS
 62
     8
 10
0.15
 20
10.9765625
 30
0.0
 11
0.15
 21
10.9765625
 31
0.0
 12
0.3375
 22
10.9765625
 32
0.0
 13
0.3375
 23
10.9765625
 33
0.0
210
0.0
220
0.0
230
1.0
  0
SOLID
  5
70F
  8
DEFAULT_2
  6
CONTINUOUS
 62
     8
 10
-0.3375
 20
10.9765625
 30
0.0
 11
-0.478125
 21
10.9765625
 31
0.0
 12
-0.3375
 22
10.90625
 32
0.0
 13
-0.3375
 23
10.90625
 33
0.0
210
0.0
220
0.0
230
-1.0
  0
LINE
  5
710
  8
DEFAULT_2
  6
CONTINUOUS
 62
     8
 10
0.3375
 20
11.09375
 30
0.0
 11
0.3375
 21
11.0234375
 31
0.0
  0
LINE
  5
711
  8
DEFAULT_2
  6
CONTINUOUS
 62
     8
 10
0.478125
 20
11.0234375
 30
0.0
 11
0.3375
 21
11.09375
 31
0.0
  0
LINE
  5
712
  8
DEFAULT_2
  6
CONTINUOUS
 62
     8
 10
0.15
 20
11.0234375
 30
0.0
 11
0.3375
 21
11.0234375
 31
0.0
  0
LINE
  5
713
  8
DEFAULT_2
  6
CONTINUOUS
 62
     8
 10
0.15
 20
11.0234375
 30
0.0
 11
0.15
 21
11.0
 31
0.0
  0
LINE
  5
714
  8
DEFAULT_2
  6
CONTINUOUS
 62
     8
 10
0.478125
 20
11.0234375
 30
0.0
 11
0.525
 21
11.0
 31
0.0
  0
LINE
  5
715
  8
DEFAULT_2
  6
CONTINUOUS
 62
     8
 10
0.15
 20
11.0
 30
0.0
 11
0.15
 21
10.9765625
 31
0.0
  0
LINE
  5
716
  8
DEFAULT_2
  6
CONTINUOUS
 62
     8
 10
0.525
 20
11.0
 30
0.0
 11
0.478125
 21
10.9765625
 31
0.0
  0
LINE
  5
717
  8
DEFAULT_2
  6
CONTINUOUS
 62
     8
 10
0.15
 20
10.9765625
 30
0.0
 11
0.3375
 21
10.9765625
 31
0.0
  0
LINE
  5
718
  8
DEFAULT_2
  6
CONTINUOUS
 62
     8
 10
0.478125
 20
10.9765625
 30
0.0
 11
0.3375
 21
10.90625
 31
0.0
  0
LINE
  5
719
  8
DEFAULT_2
  6
CONTINUOUS
 62
     8
 10
0.3375
 20
10.90625
 30
0.0
 11
0.3375
 21
10.9765625
 31
0.0
  0
ENDBLK
  5
71B
  8
0
  0
BLOCK
  8
0
  2
*U22
 70
     1
 10
0.0
 20
0.0
 30
0.0
  3
*U22
  1

  0
SOLID
  5
726
  8
DEFAULT_2
  6
CONTINUOUS
 62
     8
 10
17.0
 20
0.5875
 30
0.0
 11
16.90625
 21
0.4
 31
0.0
 12
17.09375
 22
0.4
 32
0.0
 13
17.09375
 23
0.4
 33
0.0
210
0.0
220
0.0
230
1.0
  0
SOLID
  5
727
  8
DEFAULT_2
  6
CONTINUOUS
 62
     8
 10
16.90625
 20
0.4
 30
0.0
 11
16.90625
 21
0.4
 31
0.0
 12
16.9765625
 22
0.4
 32
0.0
 13
16.9765625
 23
0.4
 33
0.0
210
0.0
220
0.0
230
1.0
  0
SOLID
  5
728
  8
DEFAULT_2
  6
CONTINUOUS
 62
     8
 10
17.0234375
 20
0.4
 30
0.0
 11
17.0234375
 21
0.4
 31
0.0
 12
17.09375
 22
0.4
 32
0.0
 13
17.09375
 23
0.4
 33
0.0
210
0.0
220
0.0
230
1.0
  0
SOLID
  5
729
  8
DEFAULT_2
  6
CONTINUOUS
 62
     8
 10
16.9765625
 20
0.4
 30
0.0
 11
16.9765625
 21
0.2125
 31
0.0
 12
17.0234375
 22
0.2125
 32
0.0
 13
17.0234375
 23
0.2125
 33
0.0
210
0.0
220
0.0
230
1.0
  0
SOLID
  5
72A
  8
DEFAULT_2
  6
CONTINUOUS
 62
     8
 10
-16.9765625
 20
0.4
 30
0.0
 11
-17.0234375
 21
0.4
 31
0.0
 12
-17.0234375
 22
0.2125
 32
0.0
 13
-17.0234375
 23
0.2125
 33
0.0
210
0.0
220
0.0
230
-1.0
  0
SOLID
  5
72B
  8
DEFAULT_2
  6
CONTINUOUS
 62
     8
 10
16.9765625
 20
0.2125
 30
0.0
 11
16.9765625
 21
0.2125
 31
0.0
 12
17.0234375
 22
0.2125
 32
0.0
 13
17.0234375
 23
0.2125
 33
0.0
210
0.0
220
0.0
230
1.0
  0
LINE
  5
72C
  8
DEFAULT_2
  6
CONTINUOUS
 62
     8
 10
17.0
 20
0.5875
 30
0.0
 11
16.90625
 21
0.4
 31
0.0
  0
LINE
  5
72D
  8
DEFAULT_2
  6
CONTINUOUS
 62
     8
 10
17.09375
 20
0.4
 30
0.0
 11
17.0
 21
0.5875
 31
0.0
  0
LINE
  5
72E
  8
DEFAULT_2
  6
CONTINUOUS
 62
     8
 10
16.90625
 20
0.4
 30
0.0
 11
16.9765625
 21
0.4
 31
0.0
  0
LINE
  5
72F
  8
DEFAULT_2
  6
CONTINUOUS
 62
     8
 10
17.0234375
 20
0.4
 30
0.0
 11
17.09375
 21
0.4
 31
0.0
  0
LINE
  5
730
  8
DEFAULT_2
  6
CONTINUOUS
 62
     8
 10
16.9765625
 20
0.4
 30
0.0
 11
16.9765625
 21
0.2125
 31
0.0
  0
LINE
  5
731
  8
DEFAULT_2
  6
CONTINUOUS
 62
     8
 10
17.0234375
 20
0.4
 30
0.0
 11
17.0234375
 21
0.2125
 31
0.0
  0
LINE
  5
732
  8
DEFAULT_2
  6
CONTINUOUS
 62
     8
 10
16.9765625
 20
0.2125
 30
0.0
 11
17.0234375
 21
0.2125
 31
0.0
  0
ENDBLK
  5
734
  8
0
  0
BLOCK
  8
0
  2
*U23
 70
     1
 10
0.0
 20
0.0
 30
0.0
  3
*U23
  1

  0
SOLID
  5
73F
  8
DEFAULT_2
  6
CONTINUOUS
 62
     8
 10
33.712499999999999
 20
11.09375
 30
0.0
 11
33.571874999999999
 21
11.0234375
 31
0.0
 12
33.712499999999999
 22
11.0234375
 32
0.0
 13
33.712499999999999
 23
11.0234375
 33
0.0
210
0.0
220
0.0
230
1.0
  0
SOLID
  5
740
  8
DEFAULT_2
  6
CONTINUOUS
 62
     8
 10
33.712499999999999
 20
11.0234375
 30
0.0
 11
33.712499999999999
 21
11.0234375
 31
0.0
 12
33.899999999999999
 22
11.0234375
 32
0.0
 13
33.899999999999999
 23
11.0234375
 33
0.0
210
0.0
220
0.0
230
1.0
  0
SOLID
  5
741
  8
DEFAULT_2
  6
CONTINUOUS
 62
     8
 10
33.571874999999999
 20
11.0234375
 30
0.0
 11
33.524999999999999
 21
11.0
 31
0.0
 12
33.899999999999999
 22
11.0
 32
0.0
 13
33.899999999999999
 23
11.0
 33
0.0
210
0.0
220
0.0
230
1.0
  0
SOLID
  5
742
  8
DEFAULT_2
  6
CONTINUOUS
 62
     8
 10
-33.571874999999999
 20
11.0234375
 30
0.0
 11
-33.899999999999999
 21
11.0234375
 31
0.0
 12
-33.899999999999999
 22
11.0
 32
0.0
 13
-33.899999999999999
 23
11.0
 33
0.0
210
0.0
220
0.0
230
-1.0
  0
SOLID
  5
743
  8
DEFAULT_2
  6
CONTINUOUS
 62
     8
 10
33.524999999999999
 20
11.0
 30
0.0
 11
33.571874999999999
 21
10.9765625
 31
0.0
 12
33.899999999999999
 22
10.9765625
 32
0.0
 13
33.899999999999999
 23
10.9765625
 33
0.0
  0
SOLID
  5
744
  8
DEFAULT_2
  6
CONTINUOUS
 62
     8
 10
-33.524999999999999
 20
11.0
 30
0.0
 11
-33.899999999999999
 21
11.0
 31
0.0
 12
-33.899999999999999
 22
10.9765625
 32
0.0
 13
-33.899999999999999
 23
10.9765625
 33
0.0
210
0.0
220
0.0
230
-1.0
  0
SOLID
  5
745
  8
DEFAULT_2
  6
CONTINUOUS
 62
     8
 10
33.712499999999999
 20
10.9765625
 30
0.0
 11
33.712499999999999
 21
10.9765625
 31
0.0
 12
33.899999999999999
 22
10.9765625
 32
0.0
 13
33.899999999999999
 23
10.9765625
 33
0.0
210
0.0
220
0.0
230
1.0
  0
SOLID
  5
746
  8
DEFAULT_2
  6
CONTINUOUS
 62
     8
 10
-33.571874999999999
 20
10.9765625
 30
0.0
 11
-33.712499999999999
 21
10.9765625
 31
0.0
 12
-33.712499999999999
 22
10.90625
 32
0.0
 13
-33.712499999999999
 23
10.90625
 33
0.0
210
0.0
220
0.0
230
-1.0
  0
LINE
  5
747
  8
DEFAULT_2
  6
CONTINUOUS
 62
     8
 10
33.712499999999999
 20
11.09375
 30
0.0
 11
33.571874999999999
 21
11.0234375
 31
0.0
  0
LINE
  5
748
  8
DEFAULT_2
  6
CONTINUOUS
 62
     8
 10
33.712499999999999
 20
11.0234375
 30
0.0
 11
33.712499999999999
 21
11.09375
 31
0.0
  0
LINE
  5
749
  8
DEFAULT_2
  6
CONTINUOUS
 62
     8
 10
33.712499999999999
 20
11.0234375
 30
0.0
 11
33.899999999999999
 21
11.0234375
 31
0.0
  0
LINE
  5
74A
  8
DEFAULT_2
  6
CONTINUOUS
 62
     8
 10
33.571874999999999
 20
11.0234375
 30
0.0
 11
33.524999999999999
 21
11.0
 31
0.0
  0
LINE
  5
74B
  8
DEFAULT_2
  6
CONTINUOUS
 62
     8
 10
33.899999999999999
 20
11.0234375
 30
0.0
 11
33.899999999999999
 21
11.0
 31
0.0
  0
LINE
  5
74C
  8
DEFAULT_2
  6
CONTINUOUS
 62
     8
 10
33.524999999999999
 20
11.0
 30
0.0
 11
33.571874999999999
 21
10.9765625
 31
0.0
  0
LINE
  5
74D
  8
DEFAULT_2
  6
CONTINUOUS
 62
     8
 10
33.899999999999999
 20
11.0
 30
0.0
 11
33.899999999999999
 21
10.9765625
 31
0.0
  0
LINE
  5
74E
  8
DEFAULT_2
  6
CONTINUOUS
 62
     8
 10
33.712499999999999
 20
10.9765625
 30
0.0
 11
33.899999999999999
 21
10.9765625
 31
0.0
  0
LINE
  5
74F
  8
DEFAULT_2
  6
CONTINUOUS
 62
     8
 10
33.712499999999999
 20
10.9765625
 30
0.0
 11
33.712499999999999
 21
10.90625
 31
0.0
  0
LINE
  5
750
  8
DEFAULT_2
  6
CONTINUOUS
 62
     8
 10
33.712499999999999
 20
10.90625
 30
0.0
 11
33.571874999999999
 21
10.9765625
 31
0.0
  0
ENDBLK
  5
752
  8
0
  0
BLOCK
  8
0
  2
*U24
 70
     1
 10
0.0
 20
0.0
 30
0.0
  3
*U24
  1

  0
TEXT
  5
754
  8
TABLE_BL6
 62
     2
 10
33.070000229199998
 20
0.6375000314000001
 30
0.0
 40
0.1
  1
1 of 1
 41
0.8
  0
ENDBLK
  5
756
  8
0
  0
BLOCK
  8
0
  2
*U25
 70
     1
 10
0.0
 20
0.0
 30
0.0
  3
*U25
  1

  0
TEXT
  5
758
  8
0
 62
     2
 10
24.6983056443
 20
17.0298894029
 30
0.0
 40
0.156
  1
The template and the label suffixes circled
  7
TEXTSTYLE_2
  0
TEXT
  5
759
  8
0
 62
     2
 10
24.6983056443
 20
16.769889402899999
 30
0.0
 40
0.156
  1
must match for proper cut-out.
  7
TEXTSTYLE_2
  0
TEXT
  5
75A
  8
0
 62
     2
 10
24.6983056443
 20
16.50988940289999
 30
0.0
 40
0.156
  1
A fin de realizar el corte apropiado, la plantilla y
  7
TEXTSTYLE_2
  0
TEXT
  5
75B
  8
0
 62
     2
 10
24.6983056443
 20
16.249889402899989
 30
0.0
 40
0.156
  1
os sufijos de la etiqueta demarcados deben concordar.
  7
TEXTSTYLE_2
  0
TEXT
  5
75C
  8
0
 62
     2
 10
24.6983056443
 20
15.989889402899991
 30
0.0
 40
0.156
  1
A fin de découper l'ouverture correctement, le gabarit
  7
TEXTSTYLE_2
  0
TEXT
  5
75D
  8
0
 62
     2
 10
24.6983056443
 20
15.729889402899991
 30
0.0
 40
0.156
  1
et les suffixes encerclés doivent correspondre.
  7
TEXTSTYLE_2
  0
ENDBLK
  5
75F
  8
0
  0
BLOCK
  8
0
  2
*U26
 70
     1
 10
0.0
 20
0.0
 30
0.0
  3
*U26
  1

  0
TEXT
  5
761
  8
0
 62
     2
 10
24.6603307739
 20
19.213444450400001
 30
0.0
 40
0.156
  1
PACKAGING/UPC LABEL ON BOX
  7
TEXTSTYLE_2
  0
TEXT
  5
762
  8
0
 62
     2
 10
24.6603307739
 20
18.953444450399999
 30
0.0
 40
0.156
  1
ETIQUETA DE EMBALAJE / UPC EN LA CAJA
  7
TEXTSTYLE_2
  0
TEXT
  5
763
  8
0
 62
     2
 10
24.6603307739
 20
18.693444450400001
 30
0.0
 40
0.156
  1
ETIQUETTE D'EMBALLAGE / UPC SUR LA BOÎTE
  7
TEXTSTYLE_2
  0
ENDBLK
  5
765
  8
0
  0
BLOCK
  8
0
  2
*U27
 70
     1
 10
0.0
 20
0.0
 30
0.0
  3
*U27
  1

  0
TEXT
  5
767
  8
0
 62
     2
 10
7.2008718894568027
 20
12.8107408112065
 30
0.0
 40
0.156
  1
WHEN PLOTTING TEMPLATE FULL SIZE:
  7
TEXTSTYLE_2
  0
TEXT
  5
768
  8
0
 62
     2
 10
7.2008718894568027
 20
12.5507408112065
 30
0.0
 40
0.156
  1
Make sure horizontal and vertical dimensions
  7
TEXTSTYLE_2
  0
TEXT
  5
769
  8
0
 62
     2
 10
7.2008718894568027
 20
12.290740811206501
 30
0.0
 40
0.156
  1
match the dimensions labeled on the template.
  7
TEXTSTYLE_2
  0
TEXT
  5
76A
  8
0
 62
     2
 10
7.2008718894568027
 20
11.770740811206499
 30
0.0
 40
0.156
  1
AL TRAZAR UNA PLANTILLA A ESCALA,
  7
TEXTSTYLE_2
  0
TEXT
  5
76B
  8
0
 62
     2
 10
7.2008718894568027
 20
11.5107408112065
 30
0.0
 40
0.156
  1
asegúrese de que las dimensiones horizontales
  7
TEXTSTYLE_2
  0
TEXT
  5
76C
  8
0
 62
     2
 10
7.2008718894568027
 20
11.2507408112065
 30
0.0
 40
0.156
  1
y verticales concuerden con las dimensiones
  7
TEXTSTYLE_2
  0
TEXT
  5
76D
  8
0
 62
     2
 10
7.2008718894568027
 20
10.9907408112065
 30
0.0
 40
0.156
  1
marcadas en la plantilla.
  7
TEXTSTYLE_2
  0
TEXT
  5
76E
  8
0
 62
     2
 10
7.2008718894568027
 20
10.4707408112065
 30
0.0
 40
0.156
  1
AU MOMENT DE TRACER UN GABARIT À L'ÉCHELLE,
  7
TEXTSTYLE_2
  0
TEXT
  5
76F
  8
0
 62
     2
 10
7.2008718894568027
 20
10.210740811206501
 30
0.0
 40
0.156
  1
s'assurer que les dimensions horizotales et
  7
TEXTSTYLE_2
  0
TEXT
  5
770
  8
0
 62
     2
 10
7.2008718894568027
 20
9.9507408112065026
 30
0.0
 40
0.156
  1
verticales correspondent avec les dimensions
  7
TEXTSTYLE_2
  0
TEXT
  5
771
  8
0
 62
     2
 10
7.2008718894568027
 20
9.6907408112065028
 30
0.0
 40
0.156
  1
sur le gabarit.
  7
TEXTSTYLE_2
  0
ENDBLK
  5
773
  8
0
  0
BLOCK
  8
0
  2
*U28
 70
     1
 10
0.0
 20
0.0
 30
0.0
  3
*U28
  1

  0
TEXT
  5
775
  8
0
 62
     2
 10
13.923549947
 20
13.461907739300001
 30
0.0
 40
0.25
  1
CUT-OUT TEMPLATE
  7
TEXTSTYLE_2
  0
TEXT
  5
776
  8
0
 62
     2
 10
13.923549947
 20
13.045241072633329
 30
0.0
 40
0.25
  1
UNDERCOUNTER LAVATORY
  7
TEXTSTYLE_2
  0
TEXT
  5
777
  8
0
 62
     2
 10
13.923549947
 20
12.62857440596667
 30
0.0
 40
0.25
  1
PLANTILLA DE RECORTE
  7
TEXTSTYLE_2
  0
TEXT
  5
778
  8
0
 62
     2
 10
13.923549947
 20
12.211907739300001
 30
0.0
 40
0.25
  1
LAVABO MONTADO DEBAJO
  7
TEXTSTYLE_2
  0
TEXT
  5
779
  8
0
 62
     2
 10
13.923549947
 20
11.79524107263334
 30
0.0
 40
0.25
  1
DEL MOSTRADOR
  7
TEXTSTYLE_2
  0
TEXT
  5
77A
  8
0
 62
     2
 10
13.923549947
 20
11.37857440596667
 30
0.0
 40
0.25
  1
GABARIT
  7
TEXTSTYLE_2
  0
TEXT
  5
77B
  8
0
 62
     2
 10
13.923549947
 20
10.961907739300001
 30
0.0
 40
0.25
  1
LAVABO SOUS-COMPTOIR
  7
TEXTSTYLE_2
  0
TEXT
  5
77C
  8
0
 62
     2
 10
13.923549947
 20
10.54524107263334
 30
0.0
 40
0.25
  1
THOREAU  2907-4U-**-BA
  7
TEXTSTYLE_2
  0
TEXT
  5
77D
  8
0
 62
     2
 10
13.923549947
 20
9.7119077393000062
 30
0.0
 40
0.25
  1
THOREAU  2907-8U-**-BA
  7
TEXTSTYLE_2
  0
ENDBLK
  5
77F
  8
0
  0
BLOCK
  8
0
  2
*U29
 70
     1
 10
0.0
 20
0.0
 30
0.0
  3
*U29
  1

  0
TEXT
  5
781
  8
___NOTE
 62
     2
 10
17.707998888314101
 20
7.7618989073999991
 30
0.0
 40
0.15625
  1
RIM OF LAVATORY
 41
0.8
  0
TEXT
  5
782
  8
___NOTE
 62
     2
 10
17.707998888314101
 20
7.501482240733333
 30
0.0
 40
0.15625
  1
REBORDE DEL LAVABO
 41
0.8
  0
TEXT
  5
783
  8
___NOTE
 62
     2
 10
17.707998888314101
 20
7.2410655740666661
 30
0.0
 40
0.15625
  1
REBORD DE LAVABO
 41
0.8
  0
ENDBLK
  5
785
  8
0
  0
BLOCK
  8
0
  2
*U30
 70
     1
 10
0.0
 20
0.0
 30
0.0
  3
*U30
  1

  0
TEXT
  5
787
  8
___NOTE
 62
     2
 10
15.5875747963967
 20
6.6365722588000002
 30
0.0
 40
0.15625
  1
CUT ALONG THIS LINE
 41
0.8
  0
TEXT
  5
788
  8
___NOTE
 62
     2
 10
15.5875747963967
 20
6.3761555921333333
 30
0.0
 40
0.15625
  1
CORTE A LO LARGO DE ESTA LÍNEA
 41
0.8
  0
TEXT
  5
789
  8
___NOTE
 62
     2
 10
15.5875747963967
 20
6.1157389254666663
 30
0.0
 40
0.15625
  1
DÉCOUPER AU LONG DE CETTE LIGNE
 41
0.8
  0
ENDBLK
  5
78B
  8
0
  0
BLOCK
  8
0
  2
*U31
 70
     1
 10
0.0
 20
0.0
 30
0.0
  3
*U31
  1

  0
TEXT
  5
78D
  8
___NOTE
 62
     2
 10
23.5095286719
 20
20.5469304569
 30
0.0
 40
0.15625
  1
MOUNTING HARDWARE HOLE LOCATIONS (8 REQUIRED)
 41
0.8
  0
TEXT
  5
78E
  8
___NOTE
 62
     2
 10
23.5095286719
 20
20.286513790233329
 30
0.0
 40
0.15625
  1
UBICACIONES DE LOS ORIFICIOS PARA EL MATERIAL DE FIJACIÓN (SE REQUIREN 8)
 41
0.8
  0
TEXT
  5
78F
  8
___NOTE
 62
     2
 10
23.5095286719
 20
20.026097123566672
 30
0.0
 40
0.15625
  1
LOCATION DES TROUS POUR LES PIÈCES DE FIXATION (8 NÉCESSAIRES)
 41
0.8
  0
ENDBLK
  5
791
  8
0
  0
BLOCK
  8
0
  2
*U32
 70
     1
 10
0.0
 20
0.0
 30
0.0
  3
*U32
  1

  0
TEXT
  5
793
  8
___NOTE
 62
     2
 10
18.4107739098
 20
17.4258455045
 30
0.0
 40
0.15625
  1
8" FITTING
 41
0.8
  0
TEXT
  5
794
  8
___NOTE
 62
     2
 10
18.4107739098
 20
17.165428837833328
 30
0.0
 40
0.15625
  1
ORIFICIOS A 8" (20,3 cm)
 41
0.8
  0
TEXT
  5
795
  8
___NOTE
 62
     2
 10
18.4107739098
 20
16.905012171166661
 30
0.0
 40
0.15625
  1
ESPACEMENT DE 8" (20,3 cm)
 41
0.8
  0
ENDBLK
  5
797
  8
0
  0
BLOCK
  8
0
  2
*U33
 70
     1
 10
0.0
 20
0.0
 30
0.0
  3
*U33
  1

  0
TEXT
  5
799
  8
___NOTE
 62
     2
 10
16.192537872500001
 20
16.160662088799999
 30
0.0
 40
0.15625
  1
4" FITTING
 41
0.8
  0
TEXT
  5
79A
  8
___NOTE
 62
     2
 10
16.192537872500001
 20
15.900245422133329
 30
0.0
 40
0.15625
  1
ORIFICIOS A 4" (10,2 cm)
 41
0.8
  0
TEXT
  5
79B
  8
___NOTE
 62
     2
 10
16.192537872500001
 20
15.63982875546667
 30
0.0
 40
0.15625
  1
ESPACEMENT DE 4" (10,2 cm)
 41
0.8
  0
ENDBLK
  5
79D
  8
0
  0
BLOCK
  8
0
  2
*U34
 70
     1
 10
0.0
 20
0.0
 30
0.0
  3
*U34
  1

  0
TEXT
  5
79F
  8
___NOTE
 62
     2
 10
14.359980565500001
 20
18.570323078099999
 30
0.0
 40
0.15625
  1
4" & 8" FITTING
 41
0.8
  0
TEXT
  5
7A0
  8
___NOTE
 62
     2
 10
14.359980565500001
 20
18.309906411433332
 30
0.0
 40
0.15625
  1
ORIFICIOS A 4" Y 8" (10,2 cm Y 20,3 cm)
 41
0.8
  0
TEXT
  5
7A1
  8
___NOTE
 62
     2
 10
14.359980565500001
 20
18.04948974476666
 30
0.0
 40
0.15625
  1
ESPACEMENT DE 4" ET 8" (10,2 cm Y 20,3 cm)
 41
0.8
  0
ENDBLK
  5
7A3
  8
0
  0
BLOCK
  8
0
  2
*U35
 70
     1
 10
0.0
 20
0.0
 30
0.0
  3
*U35
  1

  0
TEXT
  5
7A5
  8
0
 62
     2
 10
10.018076307999999
 20
16.140412836700001
 30
0.0
 40
0.15625
  1
4" FITTING
 41
0.8
  0
TEXT
  5
7A6
  8
0
 62
     2
 10
10.018076307999999
 20
15.87999617003333
 30
0.0
 40
0.15625
  1
ORIFICIOS A 4" (10,2 cm)
 41
0.8
  0
TEXT
  5
7A7
  8
0
 62
     2
 10
10.018076307999999
 20
15.61957950336666
 30
0.0
 40
0.15625
  1
ESPACEMENT DE 4" (10,2 cm)
 41
0.8
  0
ENDBLK
  5
7A9
  8
0
  0
BLOCK
  8
0
  2
*U36
 70
     1
 10
0.0
 20
0.0
 30
0.0
  3
*U36
  1

  0
TEXT
  5
7AB
  8
0
 62
     2
 10
6.6105531563867688
 20
17.470600052199998
 30
0.0
 40
0.15625
  1
8" FITTING
 41
0.8
  0
TEXT
  5
7AC
  8
0
 62
     2
 10
6.6105531563867688
 20
17.21018338553333
 30
0.0
 40
0.15625
  1
ORIFICIOS A 8" (20,3 cm)
 41
0.8
  0
TEXT
  5
7AD
  8
0
 62
     2
 10
6.6105531563867688
 20
16.949766718866659
 30
0.0
 40
0.15625
  1
ESPACEMENT DE 8" (20,3 cm)
 41
0.8
  0
ENDBLK
  5
7AF
  8
0
  0
ENDSEC
  0
SECTION
  2
ENTITIES
  0
SOLID
  5
3D0
  8
0
  6
CONTINUOUS
 62
     2
 10
25.2457879034
 20
17.782451129199998
 30
0.0
 11
25.2457879034
 21
17.917601129200001
 31
0.0
 12
26.196571236800001
 22
17.917601129200001
 32
0.0
 13
26.196571236800001
 23
17.917601129200001
 33
0.0
  0
SOLID
  5
3D1
  8
0
  6
CONTINUOUS
 62
     2
 10
26.196571236800001
 20
17.917601129200001
 30
0.0
 11
26.196571236800001
 21
17.782451129199998
 31
0.0
 12
25.2457879034
 22
17.782451129199998
 32
0.0
 13
25.2457879034
 23
17.782451129199998
 33
0.0
  0
SOLID
  5
3D2
  8
0
  6
CONTINUOUS
 62
     2
 10
25.2457879034
 20
17.463992795900001
 30
0.0
 11
25.2457879034
 21
17.5028594626
 31
0.0
 12
26.196571236800001
 22
17.5028594626
 32
0.0
 13
26.196571236800001
 23
17.5028594626
 33
0.0
  0
SOLID
  5
3D3
  8
0
  6
CONTINUOUS
 62
     2
 10
26.196571236800001
 20
17.5028594626
 30
0.0
 11
26.196571236800001
 21
17.463992795900001
 31
0.0
 12
25.2457879034
 22
17.463992795900001
 32
0.0
 13
25.2457879034
 23
17.463992795900001
 33
0.0
  0
SOLID
  5
3D4
  8
0
  6
CONTINUOUS
 62
     2
 10
25.297621236800001
 20
17.967601129199998
 30
0.0
 11
25.297621236800001
 21
18.036101129199999
 31
0.0
 12
26.2484045701
 22
18.036101129199999
 32
0.0
 13
26.2484045701
 23
18.036101129199999
 33
0.0
  0
SOLID
  5
3D5
  8
0
  6
CONTINUOUS
 62
     2
 10
26.2484045701
 20
18.036101129199999
 30
0.0
 11
26.2484045701
 21
17.967601129199998
 31
0.0
 12
25.297621236800001
 22
17.967601129199998
 32
0.0
 13
25.297621236800001
 23
17.967601129199998
 33
0.0
  0
SOLID
  5
3D6
  8
0
  6
CONTINUOUS
 62
     2
 10
25.297621236800001
 20
18.1083177959
 30
0.0
 11
25.297621236800001
 21
18.176809462600001
 31
0.0
 12
26.2484045701
 22
18.176809462600001
 32
0.0
 13
26.2484045701
 23
18.176809462600001
 33
0.0
  0
SOLID
  5
3D7
  8
0
  6
CONTINUOUS
 62
     2
 10
26.2484045701
 20
18.176809462600001
 30
0.0
 11
26.2484045701
 21
18.1083177959
 31
0.0
 12
25.297621236800001
 22
18.1083177959
 32
0.0
 13
25.297621236800001
 23
18.1083177959
 33
0.0
  0
SOLID
  5
3D8
  8
0
  6
CONTINUOUS
 62
     2
 10
25.297621236800001
 20
18.219409462600002
 30
0.0
 11
25.297621236800001
 21
18.287901129200002
 31
0.0
 12
26.2484045701
 22
18.287901129200002
 32
0.0
 13
26.2484045701
 23
18.287901129200002
 33
0.0
  0
SOLID
  5
3D9
  8
0
  6
CONTINUOUS
 62
     2
 10
26.2484045701
 20
18.287901129200002
 30
0.0
 11
26.2484045701
 21
18.219409462600002
 31
0.0
 12
25.297621236800001
 22
18.219409462600002
 32
0.0
 13
25.297621236800001
 23
18.219409462600002
 33
0.0
  0
SOLID
  5
3DA
  8
0
  6
CONTINUOUS
 62
     2
 10
25.297621236800001
 20
18.3304927959
 30
0.0
 11
25.297621236800001
 21
18.3989927959
 31
0.0
 12
26.2484045701
 22
18.3989927959
 32
0.0
 13
26.2484045701
 23
18.3989927959
 33
0.0
  0
SOLID
  5
3DB
  8
0
  6
CONTINUOUS
 62
     2
 10
26.2484045701
 20
18.3989927959
 30
0.0
 11
26.2484045701
 21
18.3304927959
 31
0.0
 12
25.297621236800001
 22
18.3304927959
 32
0.0
 13
25.297621236800001
 23
18.3304927959
 33
0.0
  0
SOLID
  5
3DC
  8
0
  6
CONTINUOUS
 62
     2
 10
25.297621236800001
 20
18.441584462600002
 30
0.0
 11
25.297621236800001
 21
18.510084462599998
 31
0.0
 12
26.2484045701
 22
18.510084462599998
 32
0.0
 13
26.2484045701
 23
18.510084462599998
 33
0.0
  0
SOLID
  5
3DD
  8
0
  6
CONTINUOUS
 62
     2
 10
26.2484045701
 20
18.510084462599998
 30
0.0
 11
26.2484045701
 21
18.441584462600002
 31
0.0
 12
25.297621236800001
 22
18.441584462600002
 32
0.0
 13
25.297621236800001
 23
18.441584462600002
 33
0.0
  0
SOLID
  5
3DE
  8
0
  6
CONTINUOUS
 62
     2
 10
27.010462903400001
 20
17.782451129199998
 30
0.0
 11
27.010462903400001
 21
17.917601129200001
 31
0.0
 12
27.391521236799999
 22
17.917601129200001
 32
0.0
 13
27.391521236799999
 23
17.917601129200001
 33
0.0
  0
SOLID
  5
3DF
  8
0
  6
CONTINUOUS
 62
     2
 10
27.391521236799999
 20
17.917601129200001
 30
0.0
 11
27.391521236799999
 21
17.782451129199998
 31
0.0
 12
27.010462903400001
 22
17.782451129199998
 32
0.0
 13
27.010462903400001
 23
17.782451129199998
 33
0.0
  0
DIMENSION
  5
3E0
  8
0
  6
CONTINUOUS
 62
     2
  2
*D6
 10
13.772714880600001
 20
14.824500002000001
 30
0.0
 11
13.772714880600001
 21
7.7552790008999999
 31
0.0
 70
   128
  1
<>"\P(27,9 cm)
 13
13.897714880600001
 23
3.8244999979999998
 33
0.0
 14
13.897714880600001
 24
14.824500002000001
 34
0.0
 50
90.0
  0
DIMENSION
  5
3E1
  8
0
  6
CONTINUOUS
 62
     2
  2
*D7
 10
22.915859903400001
 20
9.3241546422999981
 30
0.0
 11
11.481495605899999
 21
9.2069671422999981
 31
0.0
 70
   128
  1
<>"\P(46,5 cm)
 13
4.6044332630999989
 23
9.1991546422999981
 33
0.0
 14
22.915859903400001
 24
9.1991546422999981
 34
0.0
  0
INSERT
  5
3E2
  8
0
  2
*U25
 10
0.0
 20
0.0
 30
0.0
  0
INSERT
  5
3E3
  8
0
  2
*U26
 10
0.0
 20
0.0
 30
0.0
  0
TEXT
  5
3E4
  8
0
  6
CONTINUOUS
 62
     2
 10
16.094259999999998
 20
4.484405999999999
 30
0.0
 40
0.094
  1
2003 KOHLER CO.
  0
INSERT
  5
3E5
  8
0
  2
*U27
 10
0.0
 20
0.0
 30
0.0
  0
TEXT
  5
3E6
  8
0
  6
CONTINUOUS
 62
     2
 10
10.277281
 20
4.484405999999999
 30
0.0
 40
0.094
  1
114635-7-BC
  0
TEXT
  5
3E7
  8
0
  6
CONTINUOUS
 62
     2
 10
15.987278
 20
4.506386
 30
0.0
 40
0.05625
  1
C
  0
INSERT
  5
3E8
  8
0
  2
*U28
 10
0.0
 20
0.0
 30
0.0
  0
TEXT
  5
3E9
  8
0
  6
CONTINUOUS
 62
     2
 10
15.636292929407521
 20
10.70120247854662
 30
0.0
 40
0.094
  1
TM
  0
TEXT
  5
3EA
  8
0
  6
CONTINUOUS
 62
     2
 10
10.277279999999999
 20
1.378058999999999
 30
0.0
 40
0.094
  1
114635-7-BC
  0
INSERT
  5
3EB
  8
0
  2
*U29
 10
0.0
 20
0.0
 30
0.0
  0
LINE
  5
3EC
  8
___NOTE
  6
CONTINUOUS
 62
     2
 10
23.588533186700001
 20
5.6698968575000004
 30
0.0
 11
20.007507216099999
 21
7.8400239073999991
 31
0.0
  0
LINE
  5
3ED
  8
___NOTE
  6
CONTINUOUS
 62
     2
 10
20.007507216099999
 20
7.8400239073999991
 30
0.0
 11
19.757507216099999
 21
7.8400239073999991
 31
0.0
  0
SOLID
  5
3EE
  8
___NOTE
  6
CONTINUOUS
 62
     2
 10
23.411983905900001
 20
5.7403465841000001
 30
0.0
 11
23.588533186700001
 21
5.6698968575000004
 31
0.0
 12
23.444375670300001
 22
5.7937977169000003
 32
0.0
 13
23.444375670300001
 23
5.7937977169000003
 33
0.0
  0
INSERT
  5
3EF
  8
0
  2
*U30
 10
0.0
 20
0.0
 30
0.0
  0
LINE
  5
3F0
  8
___NOTE
  6
CONTINUOUS
 62
     2
 10
20.479253746000001
 20
5.5884078111999989
 30
0.0
 11
19.259624367299999
 21
6.7146972588000002
 31
0.0
  0
LINE
  5
3F1
  8
___NOTE
  6
CONTINUOUS
 62
     2
 10
19.259624367299999
 20
6.7146972588000002
 30
0.0
 11
17.91929761548371
 21
6.7146972588000002
 31
0.0
  0
SOLID
  5
3F2
  8
___NOTE
  6
CONTINUOUS
 62
     2
 10
20.320303886200001
 20
5.6926563342999987
 30
0.0
 11
20.479253746000001
 21
5.5884078111999989
 31
0.0
 12
20.362706102299999
 22
5.7385725848999991
 32
0.0
 13
20.362706102299999
 23
5.7385725848999991
 33
0.0
  0
INSERT
  5
3F3
  8
0
  2
*U31
 10
0.0
 20
0.0
 30
0.0
  0
LINE
  5
3F4
  8
___NOTE
  6
CONTINUOUS
 62
     2
 10
21.341693329000002
 20
18.5588297129
 30
0.0
 11
23.2595286719
 21
20.6250554569
 31
0.0
  0
LINE
  5
3F5
  8
___NOTE
  6
CONTINUOUS
 62
     2
 10
23.2595286719
 20
20.6250554569
 30
0.0
 11
23.5095286719
 21
20.6250554569
 31
0.0
  0
SOLID
  5
3F6
  8
___NOTE
  6
CONTINUOUS
 62
     2
 10
21.446344999800001
 20
18.7175144327
 30
0.0
 11
21.341693329000002
 21
18.5588297129
 31
0.0
 12
21.492153467200001
 22
18.674995797899999
 32
0.0
 13
21.492153467200001
 23
18.674995797899999
 33
0.0
  0
TEXT
  5
3F7
  8
0
  6
CONTINUOUS
 62
     2
 10
25.240688761299999
 20
17.6036822487
 30
0.0
 40
0.1066666667
  1
XXXXX-XX-X-XX
 41
0.85
  0
TEXT
  5
3F8
  8
0
  6
CONTINUOUS
 62
     2
 10
27.196998040099999
 20
17.466567379200001
 30
0.0
 40
0.0516666667
  1
xxxxxx-xx
 41
0.8
  0
INSERT
  5
3F9
  8
0
  2
*U32
 10
0.0
 20
0.0
 30
0.0
  0
LINE
  5
3FA
  8
___NOTE
  6
CONTINUOUS
 62
     2
 10
17.760000000000002
 20
16.866140000000001
 30
0.0
 11
18.1607739098
 21
17.5039705045
 31
0.0
  0
LINE
  5
3FB
  8
___NOTE
  6
CONTINUOUS
 62
     2
 10
18.1607739098
 20
17.5039705045
 30
0.0
 11
18.4107739098
 21
17.5039705045
 31
0.0
  0
SOLID
  5
3FC
  8
___NOTE
  6
CONTINUOUS
 62
     2
 10
17.833295575800001
 20
17.041526918199999
 30
0.0
 11
17.760000000000002
 21
16.866140000000001
 31
0.0
 12
17.886215896500001
 22
17.0082750061
 32
0.0
 13
17.886215896500001
 23
17.0082750061
 33
0.0
  0
INSERT
  5
3FD
  8
0
  2
*U33
 10
0.0
 20
0.0
 30
0.0
  0
LINE
  5
3FE
  8
___NOTE
  6
CONTINUOUS
 62
     2
 10
15.76
 20
17.486529999999998
 30
0.0
 11
15.942537872500001
 21
16.238787088799999
 31
0.0
  0
LINE
  5
3FF
  8
___NOTE
  6
CONTINUOUS
 62
     2
 10
15.942537872500001
 20
16.238787088799999
 30
0.0
 11
16.192537872500001
 21
16.238787088799999
 31
0.0
  0
SOLID
  5
400
  8
___NOTE
  6
CONTINUOUS
 62
     2
 10
15.8180621748
 20
17.3055283526
 30
0.0
 11
15.76
 21
17.486529999999998
 31
0.0
 12
15.7562204419
 22
17.296481249799999
 32
0.0
 13
15.7562204419
 23
17.296481249799999
 33
0.0
  0
INSERT
  5
401
  8
0
  2
*U34
 10
0.0
 20
0.0
 30
0.0
  0
LINE
  5
402
  8
___NOTE
  6
CONTINUOUS
 62
     2
 10
13.76
 20
17.486930000000001
 30
0.0
 11
14.109980565500001
 21
18.648448078099999
 31
0.0
  0
LINE
  5
403
  8
___NOTE
  6
CONTINUOUS
 62
     2
 10
14.109980565500001
 20
18.648448078099999
 30
0.0
 11
14.359980565500001
 21
18.648448078099999
 31
0.0
  0
SOLID
  5
404
  8
___NOTE
  6
CONTINUOUS
 62
     2
 10
13.784172719300001
 20
17.675473077700001
 30
0.0
 11
13.76
 21
17.486930000000001
 31
0.0
 12
13.844015192100001
 22
17.657441759099999
 32
0.0
 13
13.844015192100001
 23
17.657441759099999
 33
0.0
  0
INSERT
  5
405
  8
0
  2
*U35
 10
0.0
 20
0.0
 30
0.0
  0
LINE
  5
406
  8
0
  6
CONTINUOUS
 62
     2
 10
11.76
 20
17.486529999999998
 30
0.0
 11
11.518076307999999
 21
16.218537836700001
 31
0.0
  0
LINE
  5
407
  8
0
  6
CONTINUOUS
 62
     2
 10
11.518076307999999
 20
16.218537836700001
 30
0.0
 11
11.268076307999999
 21
16.218537836700001
 31
0.0
  0
SOLID
  5
408
  8
0
  6
CONTINUOUS
 62
     2
 10
11.755556515
 20
17.296495613800001
 30
0.0
 11
11.76
 21
17.486529999999998
 31
0.0
 12
11.6941639294
 22
17.3082088731
 32
0.0
 13
11.6941639294
 23
17.3082088731
 33
0.0
  0
INSERT
  5
409
  8
0
  2
*U36
 10
0.0
 20
0.0
 30
0.0
  0
LINE
  5
40A
  8
0
  6
CONTINUOUS
 62
     2
 10
9.7599999999999998
 20
16.866140000000001
 30
0.0
 11
9.6619406401999992
 21
17.548725052199998
 31
0.0
  0
LINE
  5
40B
  8
0
  6
CONTINUOUS
 62
     2
 10
9.6619406401999992
 20
17.548725052199998
 30
0.0
 11
7.8507669000530589
 21
17.548725052199998
 31
0.0
  0
SOLID
  5
40C
  8
0
  6
CONTINUOUS
 62
     2
 10
9.7024052531000002
 20
17.047290924999999
 30
0.0
 11
9.7599999999999998
 21
16.866140000000001
 31
0.0
 12
9.7642701340000002
 22
17.056178360499999
 32
0.0
 13
9.7642701340000002
 23
17.056178360499999
 33
0.0
  0
TEXT
  5
40E
  8
0
  6
CONTINUOUS
 62
     2
 10
15.636292929407521
 20
9.9506474753466261
 30
0.0
 40
0.094
  1
TM
  0
INSERT
  5
40F
  8
___SYMBOL
  6
CONTINUOUS
 62
     2
  2
KOHLER_BL5
 10
15.3861657314
 20
14.136506491900001
 30
0.0
  0
LINE
  5
415
  8
0
  6
CONTINUOUS
 62
     7
 10
1.262049999999999
 20
10.719569999999999
 30
0.0
 11
1.262049999999999
 21
11.219569999999999
 31
0.0
  0
LINE
  5
417
  8
0
  6
CONTINUOUS
 62
     7
 10
4.6139599999999987
 20
9.5545500000000008
 30
0.0
 11
4.6211299999999991
 21
9.6349800000000005
 31
0.0
  0
LINE
  5
418
  8
0
  6
CONTINUOUS
 62
     7
 10
6.1950399999999997
 20
3.6540099999999991
 30
0.0
 11
6.1950399999999997
 21
3.1540099999999991
 31
0.0
  0
LINE
  5
419
  8
0
  6
CONTINUOUS
 62
     7
 10
6.1950399999999997
 20
18.283930000000002
 30
0.0
 11
6.1950399999999997
 21
18.783930000000002
 31
0.0
  0
LINE
  5
420
  8
0
  6
CONTINUOUS
 62
     7
 10
13.51
 20
1.47102
 30
0.0
 11
14.01
 21
1.47102
 31
0.0
  0
LINE
  5
44B
  8
0
  6
CONTINUOUS
 62
     7
 10
9.7599999999999998
 20
16.616140000000001
 30
0.0
 11
9.7599999999999998
 21
17.116140000000001
 31
0.0
  0
LINE
  5
44D
  8
0
  6
CONTINUOUS
 62
     7
 10
21.574960000000001
 20
3.4040099999999991
 30
0.0
 11
21.074960000000001
 21
3.4040099999999991
 31
0.0
  0
LINE
  5
44E
  8
0
  6
CONTINUOUS
 62
     7
 10
5.9450399999999997
 20
3.4040099999999991
 30
0.0
 11
6.4450399999999997
 21
3.4040099999999991
 31
0.0
  0
LINE
  5
451
  8
0
  6
CONTINUOUS
 62
     7
 10
11.76
 20
17.236529999999998
 30
0.0
 11
11.76
 21
17.736529999999998
 31
0.0
  0
LINE
  5
456
  8
DEFAULT_1
  6
CENTER
 62
     7
 10
13.76
 20
21.03473
 30
0.0
 11
13.76
 21
17.73692999999999
 31
0.0
  0
LINE
  5
457
  8
DEFAULT_1
  6
CENTER
 62
     7
 10
13.76
 20
17.236930000000001
 30
0.0
 11
13.76
 21
14.821350000000001
 31
0.0
  0
LINE
  5
458
  8
DEFAULT_1
  6
CENTER
 62
     7
 10
13.76
 20
3.781849999999999
 30
0.0
 11
13.76
 21
0.9393499999999999
 31
0.0
  0
LINE
  5
459
  8
0
  6
CONTINUOUS
 62
     7
 10
13.76
 20
17.236930000000001
 30
0.0
 11
13.76
 21
17.73692999999999
 31
0.0
  0
LINE
  5
45A
  8
0
  6
CONTINUOUS
 62
     7
 10
15.76
 20
17.236529999999998
 30
0.0
 11
15.76
 21
17.736529999999998
 31
0.0
  0
LINE
  5
45B
  8
0
  6
CONTINUOUS
 62
     7
 10
3.7353379999999992
 20
9.3245000000000005
 30
0.0
 11
4.8040409999999998
 21
9.3245000000000005
 31
0.0
  0
LINE
  5
45C
  8
0
  6
CONTINUOUS
 62
     7
 10
22.774021999999999
 20
9.3245000000000005
 30
0.0
 11
23.842725000000002
 21
9.3245000000000005
 31
0.0
  0
LINE
  5
461
  8
DEFAULT_1
  6
CENTER
 62
     7
 10
26.758030000000002
 20
10.968970000000001
 30
0.0
 11
24.832429000000001
 21
10.968970000000001
 31
0.0
  0
LINE
  5
462
  8
DEFAULT_1
  6
CENTER
 62
     7
 10
2.7721969999999998
 20
10.968970000000001
 30
0.0
 11
0.76197
 21
10.968970000000001
 31
0.0
  0
LINE
  5
467
  8
0
  6
CONTINUOUS
 62
     7
 10
17.760000000000002
 20
16.616140000000001
 30
0.0
 11
17.760000000000002
 21
17.116140000000001
 31
0.0
  0
POLYLINE
  5
468
  8
0
  6
CONTINUOUS
 62
     7
 66
     1
 10
0.0
 20
0.0
 30
0.0
  0
VERTEX
  5
7B0
  8
0
  6
CONTINUOUS
 62
     7
 10
19.03093477483511
 20
10.96678784846336
 30
0.0
  0
VERTEX
  5
7B1
  8
0
  6
CONTINUOUS
 62
     7
 10
18.93675519833511
 20
10.927403618463361
 30
0.0
  0
VERTEX
  5
7B2
  8
0
  6
CONTINUOUS
 62
     7
 10
18.86041981213511
 20
10.859630134763361
 30
0.0
  0
VERTEX
  5
7B3
  8
0
  6
CONTINUOUS
 62
     7
 10
18.810165083235109
 20
10.77078004856336
 30
0.0
  0
VERTEX
  5
7B4
  8
0
  6
CONTINUOUS
 62
     7
 10
18.791413417035109
 20
10.67044014336336
 30
0.0
  0
VERTEX
  5
7B5
  8
0
  6
CONTINUOUS
 62
     7
 10
18.806188088835111
 20
10.56943693566336
 30
0.0
  0
VERTEX
  5
7B6
  8
0
  6
CONTINUOUS
 62
     7
 10
18.852894934735112
 20
10.47866851136336
 30
0.0
  0
VERTEX
  5
7B7
  8
0
  6
CONTINUOUS
 62
     7
 10
18.926494360235111
 20
10.407928639363361
 30
0.0
  0
VERTEX
  5
7B8
  8
0
  6
CONTINUOUS
 62
     7
 10
19.01904510413511
 20
10.364850039763359
 30
0.0
  0
VERTEX
  5
7B9
  8
0
  6
CONTINUOUS
 62
     7
 10
19.120561087935108
 20
10.35408082496336
 30
0.0
  0
VERTEX
  5
7BA
  8
0
  6
CONTINUOUS
 62
     7
 10
19.22008889813511
 20
10.37678297636336
 30
0.0
  0
VERTEX
  5
7BB
  8
0
  6
CONTINUOUS
 62
     7
 10
19.306889641835109
 20
10.43050696756336
 30
0.0
  0
VERTEX
  5
7BC
  8
0
  6
CONTINUOUS
 62
     7
 10
19.371597656535108
 20
10.509456065363359
 30
0.0
  0
VERTEX
  5
7BD
  8
0
  6
CONTINUOUS
 62
     7
 10
19.40723105013511
 20
10.605111787263359
 30
0.0
  0
VERTEX
  5
7BE
  8
0
  6
CONTINUOUS
 62
     7
 10
19.409945035835111
 20
10.70715303266336
 30
0.0
  0
VERTEX
  5
7BF
  8
0
  6
CONTINUOUS
 62
     7
 10
19.379446779135112
 20
10.80456971316336
 30
0.0
  0
VERTEX
  5
7C0
  8
0
  6
CONTINUOUS
 62
     7
 10
19.319026993335111
 20
10.886850723263359
 30
0.0
  0
VERTEX
  5
7C1
  8
0
  6
CONTINUOUS
 62
     7
 10
19.235204877535111
 20
10.945118072663361
 30
0.0
  0
VERTEX
  5
7C2
  8
0
  6
CONTINUOUS
 62
     7
 10
19.137024705135111
 20
10.97308480686336
 30
0.0
  0
VERTEX
  5
7C3
  8
0
  6
CONTINUOUS
 62
     7
 10
19.035079960835109
 20
10.967733359463359
 30
0.0
  0
SEQEND
  5
7C4
  8
0
  6
CONTINUOUS
 62
     7
  0
POLYLINE
  5
469
  8
0
  6
CONTINUOUS
 62
     7
 66
     1
 10
0.0
 20
0.0
 30
0.0
  0
VERTEX
  5
7C5
  8
0
  6
CONTINUOUS
 62
     7
 10
19.043760907435519
 20
10.15213059660161
 30
0.0
  0
VERTEX
  5
7C6
  8
0
  6
CONTINUOUS
 62
     7
 10
18.949581330935519
 20
10.112746366601611
 30
0.0
  0
VERTEX
  5
7C7
  8
0
  6
CONTINUOUS
 62
     7
 10
18.873245944735519
 20
10.044972882801609
 30
0.0
  0
VERTEX
  5
7C8
  8
0
  6
CONTINUOUS
 62
     7
 10
18.822991215835518
 20
9.9561227967016084
 30
0.0
  0
VERTEX
  5
7C9
  8
0
  6
CONTINUOUS
 62
     7
 10
18.804239549635518
 20
9.8557828915016081
 30
0.0
  0
VERTEX
  5
7CA
  8
0
  6
CONTINUOUS
 62
     7
 10
18.81901422143552
 20
9.7547796838016083
 30
0.0
  0
VERTEX
  5
7CB
  8
0
  6
CONTINUOUS
 62
     7
 10
18.865721067335521
 20
9.6640112595016081
 30
0.0
  0
VERTEX
  5
7CC
  8
0
  6
CONTINUOUS
 62
     7
 10
18.93932049283552
 20
9.5932713875016074
 30
0.0
  0
VERTEX
  5
7CD
  8
0
  6
CONTINUOUS
 62
     7
 10
19.031871236735519
 20
9.5501927879016062
 30
0.0
  0
VERTEX
  5
7CE
  8
0
  6
CONTINUOUS
 62
     7
 10
19.133387220535521
 20
9.5394235731016082
 30
0.0
  0
VERTEX
  5
7CF
  8
0
  6
CONTINUOUS
 62
     7
 10
19.232915030735519
 20
9.5621257244016071
 30
0.0
  0
VERTEX
  5
7D0
  8
0
  6
CONTINUOUS
 62
     7
 10
19.319715774435519
 20
9.6158497157016072
 30
0.0
  0
VERTEX
  5
7D1
  8
0
  6
CONTINUOUS
 62
     7
 10
19.384423789135521
 20
9.6947988135016079
 30
0.0
  0
VERTEX
  5
7D2
  8
0
  6
CONTINUOUS
 62
     7
 10
19.420057182735519
 20
9.7904545354016062
 30
0.0
  0
VERTEX
  5
7D3
  8
0
  6
CONTINUOUS
 62
     7
 10
19.422771168435521
 20
9.8924957808016085
 30
0.0
  0
VERTEX
  5
7D4
  8
0
  6
CONTINUOUS
 62
     7
 10
19.392272911735521
 20
9.989912461201607
 30
0.0
  0
VERTEX
  5
7D5
  8
0
  6
CONTINUOUS
 62
     7
 10
19.33185312593552
 20
10.07219347140161
 30
0.0
  0
VERTEX
  5
7D6
  8
0
  6
CONTINUOUS
 62
     7
 10
19.24803101013552
 20
10.130460820801609
 30
0.0
  0
VERTEX
  5
7D7
  8
0
  6
CONTINUOUS
 62
     7
 10
19.149850837735521
 20
10.158427555001611
 30
0.0
  0
VERTEX
  5
7D8
  8
0
  6
CONTINUOUS
 62
     7
 10
19.047906093435511
 20
10.15307610760161
 30
0.0
  0
SEQEND
  5
7D9
  8
0
  6
CONTINUOUS
 62
     7
  0
LINE
  5
46B
  8
0
  6
CONTINUOUS
 62
     7
 10
21.324960000000001
 20
3.6540099999999991
 30
0.0
 11
21.324960000000001
 21
3.1540099999999991
 31
0.0
  0
LINE
  5
46C
  8
0
  6
CONTINUOUS
 62
     7
 10
21.324960000000001
 20
18.283930000000002
 30
0.0
 11
21.324960000000001
 21
18.783930000000002
 31
0.0
  0
LINE
  5
473
  8
0
  6
CONTINUOUS
 62
     7
 10
18.010000000000002
 20
16.866140000000001
 30
0.0
 11
17.510000000000002
 21
16.866140000000001
 31
0.0
  0
LINE
  5
474
  8
0
  6
CONTINUOUS
 62
     7
 10
9.5099999999999998
 20
16.866140000000001
 30
0.0
 11
10.01
 21
16.866140000000001
 31
0.0
  0
POLYLINE
  5
475
  8
0
  6
CONTINUOUS
 62
     7
 66
     1
 10
0.0
 20
0.0
 30
0.0
  0
VERTEX
  5
7DA
  8
0
  6
CONTINUOUS
 62
     7
 10
22.915858886700001
 20
9.3244997558999998
 30
0.0
  0
VERTEX
  5
7DB
  8
0
  6
CONTINUOUS
 62
     7
 10
22.690100463899999
 20
10.5383354492
 30
0.0
  0
VERTEX
  5
7DC
  8
0
  6
CONTINUOUS
 62
     7
 10
22.006680542000002
 20
11.7139491577
 30
0.0
  0
VERTEX
  5
7DD
  8
0
  6
CONTINUOUS
 62
     7
 10
20.925483032199999
 20
12.7483302612
 30
0.0
  0
VERTEX
  5
7DE
  8
0
  6
CONTINUOUS
 62
     7
 10
19.459712402299999
 20
13.628844970699999
 30
0.0
  0
VERTEX
  5
7DF
  8
0
  6
CONTINUOUS
 62
     7
 10
17.7378024902
 20
14.278339599600001
 30
0.0
  0
VERTEX
  5
7E0
  8
0
  6
CONTINUOUS
 62
     7
 10
15.780788513199999
 20
14.6888837891
 30
0.0
  0
VERTEX
  5
7E1
  8
0
  6
CONTINUOUS
 62
     7
 10
13.760146972699999
 20
14.824499877899999
 30
0.0
  0
VERTEX
  5
7E2
  8
0
  6
CONTINUOUS
 62
     7
 10
11.739504394500001
 20
14.6888837891
 30
0.0
  0
VERTEX
  5
7E3
  8
0
  6
CONTINUOUS
 62
     7
 10
9.7824904175
 20
14.278339599600001
 30
0.0
  0
VERTEX
  5
7E4
  8
0
  6
CONTINUOUS
 62
     7
 10
8.0605810241999993
 20
13.628844970699999
 30
0.0
  0
VERTEX
  5
7E5
  8
0
  6
CONTINUOUS
 62
     7
 10
6.5948103942999987
 20
12.7483302612
 30
0.0
  0
VERTEX
  5
7E6
  8
0
  6
CONTINUOUS
 62
     7
 10
5.5136113280999988
 20
11.7139491577
 30
0.0
  0
VERTEX
  5
7E7
  8
0
  6
CONTINUOUS
 62
     7
 10
4.8301919250000003
 20
10.5383354492
 30
0.0
  0
VERTEX
  5
7E8
  8
0
  6
CONTINUOUS
 62
     7
 10
4.6044335022
 20
9.3244997558999998
 30
0.0
  0
VERTEX
  5
7E9
  8
0
  6
CONTINUOUS
 62
     7
 10
4.8301919250000003
 20
8.1106640624999997
 30
0.0
  0
VERTEX
  5
7EA
  8
0
  6
CONTINUOUS
 62
     7
 10
5.5136113280999988
 20
6.9350513916000001
 30
0.0
  0
VERTEX
  5
7EB
  8
0
  6
CONTINUOUS
 62
     7
 10
6.5948103942999987
 20
5.9006692504999991
 30
0.0
  0
VERTEX
  5
7EC
  8
0
  6
CONTINUOUS
 62
     7
 10
8.0605810241999993
 20
5.0201550598000004
 30
0.0
  0
VERTEX
  5
7ED
  8
0
  6
CONTINUOUS
 62
     7
 10
9.7824904175
 20
4.3706593932999986
 30
0.0
  0
VERTEX
  5
7EE
  8
0
  6
CONTINUOUS
 62
     7
 10
11.739504394500001
 20
3.9601167602999992
 30
0.0
  0
VERTEX
  5
7EF
  8
0
  6
CONTINUOUS
 62
     7
 10
13.760146972699999
 20
3.824499633799999
 30
0.0
  0
VERTEX
  5
7F0
  8
0
  6
CONTINUOUS
 62
     7
 10
15.780788513199999
 20
3.9601167602999992
 30
0.0
  0
VERTEX
  5
7F1
  8
0
  6
CONTINUOUS
 62
     7
 10
17.7378024902
 20
4.3706593932999986
 30
0.0
  0
VERTEX
  5
7F2
  8
0
  6
CONTINUOUS
 62
     7
 10
19.459712402299999
 20
5.0201550598000004
 30
0.0
  0
VERTEX
  5
7F3
  8
0
  6
CONTINUOUS
 62
     7
 10
20.925483032199999
 20
5.9006692504999991
 30
0.0
  0
VERTEX
  5
7F4
  8
0
  6
CONTINUOUS
 62
     7
 10
22.006682617199999
 20
6.9350513916000001
 30
0.0
  0
VERTEX
  5
7F5
  8
0
  6
CONTINUOUS
 62
     7
 10
22.690100463899999
 20
8.1106640624999997
 30
0.0
  0
VERTEX
  5
7F6
  8
0
  6
CONTINUOUS
 62
     7
 10
22.915858886700001
 20
9.3244997558999998
 30
0.0
  0
SEQEND
  5
7F7
  8
0
  6
CONTINUOUS
 62
     7
  0
LINE
  5
476
  8
0
  6
CONTINUOUS
 62
     2
 10
27.657454570100001
 20
17.363059462599999
 30
0.0
 11
25.154604570099998
 21
17.363059462599999
 31
0.0
  0
LINE
  5
477
  8
0
  6
CONTINUOUS
 62
     2
 10
27.619504570099998
 20
17.437967795900001
 30
0.0
 11
25.1916795701
 21
17.437967795900001
 31
0.0
  0
LINE
  5
478
  8
0
  6
CONTINUOUS
 62
     7
 10
16.010000000000002
 20
17.486529999999998
 30
0.0
 11
15.51
 21
17.486529999999998
 31
0.0
  0
LINE
  5
479
  8
0
  6
CONTINUOUS
 62
     7
 10
11.51
 20
17.486529999999998
 30
0.0
 11
12.01
 21
17.486529999999998
 31
0.0
  0
LINE
  5
47A
  8
0
  6
CONTINUOUS
 62
     7
 10
13.51
 20
17.486930000000001
 30
0.0
 11
14.01
 21
17.486930000000001
 31
0.0
  0
LINE
  5
47B
  8
0
  6
CONTINUOUS
 62
     2
 10
25.154604570099998
 20
17.363059462599999
 30
0.0
 11
25.154604570099998
 21
18.577401129199998
 31
0.0
  0
LINE
  5
47C
  8
0
  6
CONTINUOUS
 62
     2
 10
25.1916795701
 20
17.437967795900001
 30
0.0
 11
25.1916795701
 21
18.541334462599998
 31
0.0
  0
LINE
  5
47E
  8
0
  6
CONTINUOUS
 62
     7
 10
21.574960000000001
 20
18.533930000000002
 30
0.0
 11
21.074960000000001
 21
18.533930000000002
 31
0.0
  0
LINE
  5
47F
  8
0
  6
CONTINUOUS
 62
     7
 10
5.9450399999999997
 20
18.533930000000002
 30
0.0
 11
6.4450399999999997
 21
18.533930000000002
 31
0.0
  0
LINE
  5
480
  8
0
  6
CONTINUOUS
 62
     2
 10
25.1916795701
 20
18.541334462599998
 30
0.0
 11
27.619504570099998
 21
18.541334462599998
 31
0.0
  0
LINE
  5
481
  8
0
  6
CONTINUOUS
 62
     2
 10
25.154604570099998
 20
18.577401129199998
 30
0.0
 11
27.657454570100001
 21
18.577401129199998
 31
0.0
  0
LINE
  5
486
  8
0
  6
CONTINUOUS
 62
     7
 10
26.257950000000001
 20
10.719569999999999
 30
0.0
 11
26.257950000000001
 21
11.219569999999999
 31
0.0
  0
LINE
  5
487
  8
0
  6
CONTINUOUS
 62
     7
 10
13.51
 20
20.466930000000001
 30
0.0
 11
14.01
 21
20.466930000000001
 31
0.0
  0
LINE
  5
488
  8
0
  6
CONTINUOUS
 62
     2
 10
27.619504570099998
 20
18.541334462599998
 30
0.0
 11
27.619504570099998
 21
17.437967795900001
 31
0.0
  0
LINE
  5
489
  8
0
  6
CONTINUOUS
 62
     2
 10
27.657454570100001
 20
18.577401129199998
 30
0.0
 11
27.657454570100001
 21
17.363059462599999
 31
0.0
  0
ARC
  5
4B0
  8
0
  6
DASHED
 62
     7
 10
13.759998
 20
16.995750999999998
 30
0.0
 40
15.024730999999999
 50
236.45423600000001
 51
303.54577499999999
  0
ARC
  5
4B1
  8
0
  6
DASHED
 62
     7
 10
13.760005
 20
4.9422209999999991
 30
0.0
 40
15.024709
 50
56.4542
 51
123.5458
  0
ARC
  5
4B2
  8
0
  6
DASHED
 62
     7
 10
9.3185699999999994
 20
10.968970000000001
 30
0.0
 40
7.5565220000000002
 50
120.72945799999999
 51
239.27043800000001
  0
ARC
  5
4B3
  8
0
  6
DASHED
 62
     7
 10
18.201440000000002
 20
10.968970000000001
 30
0.0
 40
7.5565169999999986
 50
300.72943199999997
 51
59.270541999999999
  0
CIRCLE
  5
4B7
  8
0
  6
CONTINUOUS
 62
     7
 10
26.330496419599999
 20
17.6599668343
 30
0.0
 40
0.1077122644
  0
CIRCLE
  5
4BB
  8
0
  6
CONTINUOUS
 62
     2
 10
16.006257999999999
 20
4.5347010000000001
 30
0.0
 40
0.043768
  0
CIRCLE
  5
4BD
  8
0
  6
CONTINUOUS
 62
     7
 10
6.1950399999999997
 20
3.4040099999999991
 30
0.0
 40
0.03
  0
CIRCLE
  5
4BE
  8
0
  6
CONTINUOUS
 62
     7
 10
13.76
 20
1.47102
 30
0.0
 40
0.03
  0
CIRCLE
  5
4BF
  8
0
  6
CONTINUOUS
 62
     7
 10
1.262049999999999
 20
10.969569999999999
 30
0.0
 40
0.03
  0
CIRCLE
  5
4C0
  8
0
  6
CONTINUOUS
 62
     7
 10
6.1950399999999997
 20
18.533930000000002
 30
0.0
 40
0.03
  0
CIRCLE
  5
4C1
  8
0
  6
CONTINUOUS
 62
     7
 10
13.76
 20
20.466930000000001
 30
0.0
 40
0.03
  0
CIRCLE
  5
4C2
  8
0
  6
CONTINUOUS
 62
     7
 10
21.324960000000001
 20
3.4040099999999991
 30
0.0
 40
0.03
  0
CIRCLE
  5
4C3
  8
0
  6
CONTINUOUS
 62
     7
 10
21.324960000000001
 20
18.533930000000002
 30
0.0
 40
0.03
  0
CIRCLE
  5
4C4
  8
0
  6
CONTINUOUS
 62
     7
 10
26.257960000000001
 20
10.969569999999999
 30
0.0
 40
0.03
  0
ENDSEC
  0
EOF
