999
DXF file: 1068371_7_B.dxf
999
Pro/ENGINEER 2016130 by Parametric Technology Corporation
  0
SECTION
  2
HEADER
  9
$EXTMAX
 10
44.0
 20
34.0
 30
0.0
  9
$EXTMIN
 10
0.0
 20
0.0
 30
0.0
  9
$LIMMIN
 10
0.0
 20
0.0
  9
$LIMMAX
 10
44.0
 20
34.0
  9
$VIEWCTR
 10
22.0
 20
17.0
  9
$VIEWSIZE
 40
34.0
  9
$CLAYER
  8
0
  9
$LTSCALE
 40
2.42
  9
$CELTYPE
  6
BYLAYER
  9
$DIMSCALE
 40
1.0
  9
$DIMASZ
 40
0.1875
  9
$DIMEXO
 40
0.0625
  9
$DIMDLI
 40
1.672
  9
$DIMEXE
 40
0.125
  9
$DIMCEN
 40
0.396
  9
$DIMLFAC
 40
1.0
  9
$DIMBLK
  1
_FILLED
  9
$DIMALT
 70
0
  9
$DIMALTF
 40
25.4
  9
$DIMTXT
 40
0.15625
  9
$AUNITS
 70
0
  9
$PDMODE
 70
3
  9
$PDSIZE
 40
0.3125
  9
$TILEMODE
 70
1
  0
ENDSEC
  0
SECTION
  2
TABLES
  0
TABLE
  2
LTYPE
 70
6
  0
LTYPE
  2
BYBLOCK
 70
0
  3

 72
65
 73
0
 40
0.0
  0
LTYPE
  2
BYLAYER
 70
0
  3

 72
65
 73
0
 40
0.0
  0
LTYPE
  2
CONTINUOUS
 70
64
  3
Solid line
 72
65
 73
0
 40
0.0
  0
LTYPE
  2
CENTER
 70
64
  3
____ _ ____ _ ____ _ ____ _ ____ _ ____ _ ____
 72
65
 73
4
 40
0.6
 49
0.375
 49
-0.075
 49
0.075
 49
-0.075
  0
LTYPE
  2
HIDDEN
 70
64
  3
- - - - - - - - - - - - - - - - - - - -
 72
65
 73
2
 40
0.2
 49
0.1
 49
-0.1
  0
LTYPE
  2
PHANTOM
 70
64
  3
_____ _ _ _____ _ _ _____ _ _ _____
 72
65
 73
6
 40
0.8
 49
0.45
 49
-0.05
 49
0.1
 49
-0.05
 49
0.1
 49
-0.05
  0
LTYPE
  2
DOT
 70
64
  3
. . . . . . . . . . . . . . . . . . . .
 72
65
 73
2
 40
0.2
 49
0.1
 49
-0.1
  0
LTYPE
  2
DASHED
 70
64
  3
- - - - - - - - - - - - - - - - - - - -
 72
65
 73
2
 40
0.2
 49
0.1
 49
-0.1
  0
ENDTAB
  0
TABLE
  2
LAYER
 70
36
  0
LAYER
  2
0
 70
0
 62
7
  6
CONTINUOUS
  0
LAYER
  2
DEFAULT_1
 70
0
 62
7
  6
CENTER
  0
LAYER
  2
DEFAULT_2
 70
0
 62
8
  6
HIDDEN
  0
LAYER
  2
DEFAULT_3
 70
0
 62
7
  6
PHANTOM
  0
LAYER
  2
DATUMS
 70
0
 62
7
  6
CONTINUOUS
  0
LAYER
  2
DATUM_AXIS
 70
0
 62
7
  6
CONTINUOUS
  0
LAYER
  2
DATUM_CSYS
 70
0
 62
7
  6
CONTINUOUS
  0
LAYER
  2
DATUM_PLANE
 70
0
 62
7
  6
CONTINUOUS
  0
LAYER
  2
DATUM_POINT
 70
0
 62
7
  6
CONTINUOUS
  0
LAYER
  2
_CURVE
 70
0
 62
7
  6
CONTINUOUS
  0
LAYER
  2
_SURFACE
 70
0
 62
7
  6
CONTINUOUS
  0
LAYER
  2
__REF_CURVE
 70
0
 62
7
  6
CONTINUOUS
  0
LAYER
  2
__REF_SURFACE
 70
0
 62
7
  6
CONTINUOUS
  0
LAYER
  2
___NOTE
 70
0
 62
7
  6
CONTINUOUS
  0
LAYER
  2
___SYMBOL
 70
0
 62
7
  6
CONTINUOUS
  0
ENDTAB
  0
TABLE
  2
STYLE
 70
1
  0
STYLE
  2
STANDARD
 70
0
 40
0.0
 41
0.8
 50
0.0
 71
0
 42
0.2
  3
txt
  4

  0
STYLE
  2
TEXTSTYLE_1
 70
0
 40
0.0
 41
0.8
 50
0.0
 71
0
 42
0.2
  3
gdt
  4

  0
STYLE
  2
TEXTSTYLE_2
 70
0
 40
0.0
 41
1.0
 50
0.0
 71
0
 42
0.2
  3
txt
  4

  0
ENDTAB
  0
ENDSEC
  0
SECTION
  2
BLOCKS
  0
BLOCK
  8
___SYMBOL
 62
2
  6
CONTINUOUS
  2
SCISSORS_BL1
 70
64
 10
36.8955947839
 20
22.957233221
  0
LINE
  8
___SYMBOL
 62
7
  6
CONTINUOUS
 10
36.8669945093
 20
23.0672814191
 11
36.7623867209
 21
23.5840291673
  0
LINE
  8
___SYMBOL
 62
7
  6
CONTINUOUS
 10
36.8218401607
 20
23.039747082
 11
36.7623867209
 21
23.5840291673
  0
LINE
  8
___SYMBOL
 62
7
  6
CONTINUOUS
 10
36.8924391408
 20
22.9779763599
 11
36.8909760345
 21
23.0254395396
  0
LINE
  8
___SYMBOL
 62
7
  6
CONTINUOUS
 10
36.906261889
 20
23.0260741964
 11
36.907735063
 21
22.978284421
  0
LINE
  8
___SYMBOL
 62
7
  6
CONTINUOUS
 10
36.9007383449
 20
23.1916190163
 11
37.0759384419
 21
23.5749427184
  0
LINE
  8
___SYMBOL
 62
7
  6
CONTINUOUS
 10
36.7942367779
 20
22.9505669223
 11
36.8245972656
 21
23.0078853191
  0
LINE
  8
___SYMBOL
 62
7
  6
CONTINUOUS
 10
36.9634091074
 20
23.0138643744
 11
37.0759384419
 21
23.373840413
  0
LINE
  8
___SYMBOL
 62
7
  6
CONTINUOUS
 10
36.9359983996
 20
23.0916100463
 11
36.8669945093
 21
23.0672814191
  0
LINE
  8
___SYMBOL
 62
7
  6
CONTINUOUS
 10
36.9863803297
 20
22.9487105255
 11
36.9329126481
 21
22.8196636376
  0
LINE
  8
___SYMBOL
 62
7
  6
CONTINUOUS
 10
36.8444890901
 20
22.8238744734
 11
36.8856278802
 21
22.8666203951
  0
LINE
  8
___SYMBOL
 62
7
  6
CONTINUOUS
 10
36.7623867209
 20
23.5840291673
 11
36.9863803297
 21
22.9487105255
  0
LINE
  8
___SYMBOL
 62
7
  6
CONTINUOUS
 10
36.8444890901
 20
22.8238744734
 11
36.7942367779
 21
22.9505669223
  0
ARC
  8
___SYMBOL
 62
7
  6
CONTINUOUS
 10
36.7542800425
 20
23.4743915657
 40
0.3370083978
 50
342.6406360869
 51
17.3593639131
  0
ARC
  8
___SYMBOL
 62
7
  6
CONTINUOUS
 10
37.1136486647
 20
23.0489480758
 40
0.2919535259
 50
181.8059909349
 51
231.752660067
  0
CIRCLE
  8
___SYMBOL
 62
7
  6
CONTINUOUS
 10
36.8996073434
 20
23.0019514686
 40
0.0250237681
  0
ARC
  8
___SYMBOL
 62
7
  6
CONTINUOUS
 10
37.0484346331
 20
22.6544550444
 40
0.0136349325
 50
185.3133793157
 51
314.0675041521
  0
ARC
  8
___SYMBOL
 62
7
  6
CONTINUOUS
 10
36.7360838111
 20
22.6474358464
 40
0.01363482
 50
233.3109272841
 51
359.4467240969
  0
POLYLINE
  8
___SYMBOL
 62
7
  6
CONTINUOUS
 66
1
 70
0
  0
VERTEX
  8
___SYMBOL
 62
7
  6
CONTINUOUS
 10
37.0132067802
 20
22.4353630986
  0
VERTEX
  8
___SYMBOL
 62
7
  6
CONTINUOUS
 10
37.0100900882
 20
22.4449287455
  0
VERTEX
  8
___SYMBOL
 62
7
  6
CONTINUOUS
 10
37.0072363489
 20
22.4545700688
  0
VERTEX
  8
___SYMBOL
 62
7
  6
CONTINUOUS
 10
37.0046341608
 20
22.4642818231
  0
VERTEX
  8
___SYMBOL
 62
7
  6
CONTINUOUS
 10
37.0022721224
 20
22.4740587632
  0
VERTEX
  8
___SYMBOL
 62
7
  6
CONTINUOUS
 10
37.0001388324
 20
22.4838956436
  0
VERTEX
  8
___SYMBOL
 62
7
  6
CONTINUOUS
 10
36.9982228892
 20
22.4937872191
  0
VERTEX
  8
___SYMBOL
 62
7
  6
CONTINUOUS
 10
36.9965128915
 20
22.5037282442
  0
VERTEX
  8
___SYMBOL
 62
7
  6
CONTINUOUS
 10
36.9949974378
 20
22.5137134737
  0
VERTEX
  8
___SYMBOL
 62
7
  6
CONTINUOUS
 10
36.9936651267
 20
22.5237376622
  0
VERTEX
  8
___SYMBOL
 62
7
  6
CONTINUOUS
 10
36.9925045567
 20
22.5337955644
  0
VERTEX
  8
___SYMBOL
 62
7
  6
CONTINUOUS
 10
36.9915043264
 20
22.5438819349
  0
VERTEX
  8
___SYMBOL
 62
7
  6
CONTINUOUS
 10
36.9906530343
 20
22.5539915284
  0
VERTEX
  8
___SYMBOL
 62
7
  6
CONTINUOUS
 10
36.989939279
 20
22.5641190995
  0
VERTEX
  8
___SYMBOL
 62
7
  6
CONTINUOUS
 10
36.9893516591
 20
22.5742594029
  0
VERTEX
  8
___SYMBOL
 62
7
  6
CONTINUOUS
 10
36.9888787732
 20
22.5844071933
  0
VERTEX
  8
___SYMBOL
 62
7
  6
CONTINUOUS
 10
36.9885092197
 20
22.5945572253
  0
VERTEX
  8
___SYMBOL
 62
7
  6
CONTINUOUS
 10
36.9882315973
 20
22.6047042536
  0
VERTEX
  8
___SYMBOL
 62
7
  6
CONTINUOUS
 10
36.9880345045
 20
22.6148430328
  0
VERTEX
  8
___SYMBOL
 62
7
  6
CONTINUOUS
 10
36.9879065398
 20
22.6249683177
  0
VERTEX
  8
___SYMBOL
 62
7
  6
CONTINUOUS
 10
36.987836302
 20
22.6350748628
  0
VERTEX
  8
___SYMBOL
 62
7
  6
CONTINUOUS
 10
36.9878081059
 20
22.6499313489
  0
VERTEX
  8
___SYMBOL
 62
7
  6
CONTINUOUS
 10
36.987808962
 20
22.6647564253
  0
VERTEX
  8
___SYMBOL
 62
7
  6
CONTINUOUS
 10
36.9877672938
 20
22.679570783
  0
VERTEX
  8
___SYMBOL
 62
7
  6
CONTINUOUS
 10
36.9876115249
 20
22.6943951131
  0
VERTEX
  8
___SYMBOL
 62
7
  6
CONTINUOUS
 10
36.9872700787
 20
22.7092501066
  0
VERTEX
  8
___SYMBOL
 62
7
  6
CONTINUOUS
 10
36.987029135
 20
22.7160934965
  0
VERTEX
  8
___SYMBOL
 62
7
  6
CONTINUOUS
 10
36.9867149066
 20
22.7229412107
  0
VERTEX
  8
___SYMBOL
 62
7
  6
CONTINUOUS
 10
36.9863084729
 20
22.7297867213
  0
VERTEX
  8
___SYMBOL
 62
7
  6
CONTINUOUS
 10
36.9857909129
 20
22.7366235002
  0
VERTEX
  8
___SYMBOL
 62
7
  6
CONTINUOUS
 10
36.9851433059
 20
22.7434450195
  0
VERTEX
  8
___SYMBOL
 62
7
  6
CONTINUOUS
 10
36.984346731
 20
22.750244751
  0
VERTEX
  8
___SYMBOL
 62
7
  6
CONTINUOUS
 10
36.9833822674
 20
22.7570161669
  0
VERTEX
  8
___SYMBOL
 62
7
  6
CONTINUOUS
 10
36.9822309943
 20
22.7637527389
  0
VERTEX
  8
___SYMBOL
 62
7
  6
CONTINUOUS
 10
36.980873991
 20
22.7704479393
  0
VERTEX
  8
___SYMBOL
 62
7
  6
CONTINUOUS
 10
36.9792923364
 20
22.7770952398
  0
VERTEX
  8
___SYMBOL
 62
7
  6
CONTINUOUS
 10
36.97746711
 20
22.7836881125
  0
VERTEX
  8
___SYMBOL
 62
7
  6
CONTINUOUS
 10
36.9753793908
 20
22.7902200294
  0
VERTEX
  8
___SYMBOL
 62
7
  6
CONTINUOUS
 10
36.9743835091
 20
22.793025333
  0
VERTEX
  8
___SYMBOL
 62
7
  6
CONTINUOUS
 10
36.9733016852
 20
22.7957954698
  0
VERTEX
  8
___SYMBOL
 62
7
  6
CONTINUOUS
 10
36.972100784
 20
22.7985079363
  0
VERTEX
  8
___SYMBOL
 62
7
  6
CONTINUOUS
 10
36.9707476704
 20
22.8011402292
  0
VERTEX
  8
___SYMBOL
 62
7
  6
CONTINUOUS
 10
36.9692092092
 20
22.8036698449
  0
VERTEX
  8
___SYMBOL
 62
7
  6
CONTINUOUS
 10
36.9674522655
 20
22.80607428
  0
VERTEX
  8
___SYMBOL
 62
7
  6
CONTINUOUS
 10
36.9655245695
 20
22.8082594685
  0
VERTEX
  8
___SYMBOL
 62
7
  6
CONTINUOUS
 10
36.9633861758
 20
22.8102955669
  0
VERTEX
  8
___SYMBOL
 62
7
  6
CONTINUOUS
 10
36.961061402
 20
22.8121714246
  0
VERTEX
  8
___SYMBOL
 62
7
  6
CONTINUOUS
 10
36.9585745659
 20
22.8138758911
  0
VERTEX
  8
___SYMBOL
 62
7
  6
CONTINUOUS
 10
36.9559499851
 20
22.8153978157
  0
VERTEX
  8
___SYMBOL
 62
7
  6
CONTINUOUS
 10
36.9532119773
 20
22.8167260479
  0
VERTEX
  8
___SYMBOL
 62
7
  6
CONTINUOUS
 10
36.95038486
 20
22.8178494371
  0
VERTEX
  8
___SYMBOL
 62
7
  6
CONTINUOUS
 10
36.947492951
 20
22.8187568327
  0
VERTEX
  8
___SYMBOL
 62
7
  6
CONTINUOUS
 10
36.9445605679
 20
22.8194370843
  0
VERTEX
  8
___SYMBOL
 62
7
  6
CONTINUOUS
 10
36.9416120284
 20
22.8198790411
  0
VERTEX
  8
___SYMBOL
 62
7
  6
CONTINUOUS
 10
36.9386716502
 20
22.8200715526
  0
VERTEX
  8
___SYMBOL
 62
7
  6
CONTINUOUS
 10
36.9357637508
 20
22.8200034683
  0
VERTEX
  8
___SYMBOL
 62
7
  6
CONTINUOUS
 10
36.9329126481
 20
22.8196636376
  0
SEQEND
  0
POLYLINE
  8
___SYMBOL
 62
7
  6
CONTINUOUS
 66
1
 70
0
  0
VERTEX
  8
___SYMBOL
 62
7
  6
CONTINUOUS
 10
37.0348582885
 20
22.6531924074
  0
VERTEX
  8
___SYMBOL
 62
7
  6
CONTINUOUS
 10
37.0342769285
 20
22.6603438728
  0
VERTEX
  8
___SYMBOL
 62
7
  6
CONTINUOUS
 10
37.0338524858
 20
22.6675014177
  0
VERTEX
  8
___SYMBOL
 62
7
  6
CONTINUOUS
 10
37.0335438857
 20
22.6756266795
  0
VERTEX
  8
___SYMBOL
 62
7
  6
CONTINUOUS
 10
37.0334016221
 20
22.6837415616
  0
VERTEX
  8
___SYMBOL
 62
7
  6
CONTINUOUS
 10
37.0334060257
 20
22.6918553042
  0
VERTEX
  8
___SYMBOL
 62
7
  6
CONTINUOUS
 10
37.0335374276
 20
22.6999771477
  0
VERTEX
  8
___SYMBOL
 62
7
  6
CONTINUOUS
 10
37.0337761584
 20
22.7081163322
  0
VERTEX
  8
___SYMBOL
 62
7
  6
CONTINUOUS
 10
37.0341025493
 20
22.716282098
  0
VERTEX
  8
___SYMBOL
 62
7
  6
CONTINUOUS
 10
37.034496931
 20
22.7244836853
  0
VERTEX
  8
___SYMBOL
 62
7
  6
CONTINUOUS
 10
37.0349396344
 20
22.7327303345
  0
VERTEX
  8
___SYMBOL
 62
7
  6
CONTINUOUS
 10
37.0352335272
 20
22.7379564756
  0
VERTEX
  8
___SYMBOL
 62
7
  6
CONTINUOUS
 10
37.0355264836
 20
22.7431993761
  0
VERTEX
  8
___SYMBOL
 62
7
  6
CONTINUOUS
 10
37.0358061745
 20
22.7484542048
  0
VERTEX
  8
___SYMBOL
 62
7
  6
CONTINUOUS
 10
37.0360602712
 20
22.7537161303
  0
VERTEX
  8
___SYMBOL
 62
7
  6
CONTINUOUS
 10
37.0362764446
 20
22.7589803212
  0
VERTEX
  8
___SYMBOL
 62
7
  6
CONTINUOUS
 10
37.0364423659
 20
22.7642419463
  0
VERTEX
  8
___SYMBOL
 62
7
  6
CONTINUOUS
 10
37.0365457061
 20
22.7694961742
  0
VERTEX
  8
___SYMBOL
 62
7
  6
CONTINUOUS
 10
37.0365741364
 20
22.7747381736
  0
VERTEX
  8
___SYMBOL
 62
7
  6
CONTINUOUS
 10
37.0365153278
 20
22.7799631132
  0
VERTEX
  8
___SYMBOL
 62
7
  6
CONTINUOUS
 10
37.0363569514
 20
22.7851661616
  0
VERTEX
  8
___SYMBOL
 62
7
  6
CONTINUOUS
 10
37.0360866783
 20
22.7903424876
  0
VERTEX
  8
___SYMBOL
 62
7
  6
CONTINUOUS
 10
37.0356921796
 20
22.7954872597
  0
VERTEX
  8
___SYMBOL
 62
7
  6
CONTINUOUS
 10
37.0351611263
 20
22.8005956467
  0
VERTEX
  8
___SYMBOL
 62
7
  6
CONTINUOUS
 10
37.0344811896
 20
22.8056628172
  0
VERTEX
  8
___SYMBOL
 62
7
  6
CONTINUOUS
 10
37.0336400406
 20
22.81068394
  0
VERTEX
  8
___SYMBOL
 62
7
  6
CONTINUOUS
 10
37.0326253503
 20
22.8156541836
  0
VERTEX
  8
___SYMBOL
 62
7
  6
CONTINUOUS
 10
37.0314247898
 20
22.8205687169
  0
VERTEX
  8
___SYMBOL
 62
7
  6
CONTINUOUS
 10
37.0300260303
 20
22.8254227083
  0
VERTEX
  8
___SYMBOL
 62
7
  6
CONTINUOUS
 10
37.0284167427
 20
22.8302113267
  0
VERTEX
  8
___SYMBOL
 62
7
  6
CONTINUOUS
 10
37.0267125516
 20
22.8346338578
  0
VERTEX
  8
___SYMBOL
 62
7
  6
CONTINUOUS
 10
37.0248311369
 20
22.8390005409
  0
VERTEX
  8
___SYMBOL
 62
7
  6
CONTINUOUS
 10
37.0227907223
 20
22.8433170982
  0
VERTEX
  8
___SYMBOL
 62
7
  6
CONTINUOUS
 10
37.0206095316
 20
22.8475892516
  0
VERTEX
  8
___SYMBOL
 62
7
  6
CONTINUOUS
 10
37.0183057886
 20
22.8518227231
  0
VERTEX
  8
___SYMBOL
 62
7
  6
CONTINUOUS
 10
37.015897717
 20
22.8560232348
  0
VERTEX
  8
___SYMBOL
 62
7
  6
CONTINUOUS
 10
37.0134035408
 20
22.8601965085
  0
VERTEX
  8
___SYMBOL
 62
7
  6
CONTINUOUS
 10
37.0108414837
 20
22.8643482664
  0
VERTEX
  8
___SYMBOL
 62
7
  6
CONTINUOUS
 10
37.0082297694
 20
22.8684842305
  0
VERTEX
  8
___SYMBOL
 62
7
  6
CONTINUOUS
 10
37.0055866218
 20
22.8726101226
  0
VERTEX
  8
___SYMBOL
 62
7
  6
CONTINUOUS
 10
37.0036822071
 20
22.8755709939
  0
VERTEX
  8
___SYMBOL
 62
7
  6
CONTINUOUS
 10
37.0017950608
 20
22.8785377387
  0
VERTEX
  8
___SYMBOL
 62
7
  6
CONTINUOUS
 10
36.9999492632
 20
22.8815184739
  0
VERTEX
  8
___SYMBOL
 62
7
  6
CONTINUOUS
 10
36.9981688948
 20
22.8845213161
  0
VERTEX
  8
___SYMBOL
 62
7
  6
CONTINUOUS
 10
36.9964780361
 20
22.8875543823
  0
VERTEX
  8
___SYMBOL
 62
7
  6
CONTINUOUS
 10
36.9949007676
 20
22.890625789
  0
VERTEX
  8
___SYMBOL
 62
7
  6
CONTINUOUS
 10
36.9934611695
 20
22.8937436532
  0
VERTEX
  8
___SYMBOL
 62
7
  6
CONTINUOUS
 10
36.9921833225
 20
22.8969160915
  0
VERTEX
  8
___SYMBOL
 62
7
  6
CONTINUOUS
 10
36.991091307
 20
22.9001512208
  0
VERTEX
  8
___SYMBOL
 62
7
  6
CONTINUOUS
 10
36.9902510557
 20
22.9032456018
  0
VERTEX
  8
___SYMBOL
 62
7
  6
CONTINUOUS
 10
36.9895749915
 20
22.9063930667
  0
VERTEX
  8
___SYMBOL
 62
7
  6
CONTINUOUS
 10
36.9890428167
 20
22.9095844688
  0
VERTEX
  8
___SYMBOL
 62
7
  6
CONTINUOUS
 10
36.9886342335
 20
22.9128106616
  0
VERTEX
  8
___SYMBOL
 62
7
  6
CONTINUOUS
 10
36.9883289441
 20
22.9160624982
  0
VERTEX
  8
___SYMBOL
 62
7
  6
CONTINUOUS
 10
36.9881066507
 20
22.9193308321
  0
VERTEX
  8
___SYMBOL
 62
7
  6
CONTINUOUS
 10
36.9879470557
 20
22.9226065164
  0
VERTEX
  8
___SYMBOL
 62
7
  6
CONTINUOUS
 10
36.9878298612
 20
22.9258804046
  0
VERTEX
  8
___SYMBOL
 62
7
  6
CONTINUOUS
 10
36.9877183923
 20
22.929718648
  0
VERTEX
  8
___SYMBOL
 62
7
  6
CONTINUOUS
 10
36.9876020865
 20
22.933542547
  0
VERTEX
  8
___SYMBOL
 62
7
  6
CONTINUOUS
 10
36.9874455355
 20
22.9373528931
  0
VERTEX
  8
___SYMBOL
 62
7
  6
CONTINUOUS
 10
36.9872133311
 20
22.9411504773
  0
VERTEX
  8
___SYMBOL
 62
7
  6
CONTINUOUS
 10
36.9868700653
 20
22.9449360911
  0
VERTEX
  8
___SYMBOL
 62
7
  6
CONTINUOUS
 10
36.9863803297
 20
22.9487105255
  0
SEQEND
  0
POLYLINE
  8
___SYMBOL
 62
7
  6
CONTINUOUS
 66
1
 70
0
  0
VERTEX
  8
___SYMBOL
 62
7
  6
CONTINUOUS
 10
36.7897369186
 20
22.4714425764
  0
VERTEX
  8
___SYMBOL
 62
7
  6
CONTINUOUS
 10
36.791600747
 20
22.479368659
  0
VERTEX
  8
___SYMBOL
 62
7
  6
CONTINUOUS
 10
36.7932370842
 20
22.4873404463
  0
VERTEX
  8
___SYMBOL
 62
7
  6
CONTINUOUS
 10
36.7946587856
 20
22.4953537879
  0
VERTEX
  8
___SYMBOL
 62
7
  6
CONTINUOUS
 10
36.7958787065
 20
22.5034045333
  0
VERTEX
  8
___SYMBOL
 62
7
  6
CONTINUOUS
 10
36.7969097023
 20
22.511488532
  0
VERTEX
  8
___SYMBOL
 62
7
  6
CONTINUOUS
 10
36.7977646283
 20
22.5196016336
  0
VERTEX
  8
___SYMBOL
 62
7
  6
CONTINUOUS
 10
36.79845634
 20
22.5277396876
  0
VERTEX
  8
___SYMBOL
 62
7
  6
CONTINUOUS
 10
36.7989976928
 20
22.5358985436
  0
VERTEX
  8
___SYMBOL
 62
7
  6
CONTINUOUS
 10
36.7994015419
 20
22.544074051
  0
VERTEX
  8
___SYMBOL
 62
7
  6
CONTINUOUS
 10
36.7996807429
 20
22.5522620596
  0
VERTEX
  8
___SYMBOL
 62
7
  6
CONTINUOUS
 10
36.799848151
 20
22.5604584187
  0
VERTEX
  8
___SYMBOL
 62
7
  6
CONTINUOUS
 10
36.7999166217
 20
22.5686589779
  0
VERTEX
  8
___SYMBOL
 62
7
  6
CONTINUOUS
 10
36.7998990103
 20
22.5768595868
  0
VERTEX
  8
___SYMBOL
 62
7
  6
CONTINUOUS
 10
36.7997581803
 20
22.5881748237
  0
VERTEX
  8
___SYMBOL
 62
7
  6
CONTINUOUS
 10
36.7995184188
 20
22.5994793834
  0
VERTEX
  8
___SYMBOL
 62
7
  6
CONTINUOUS
 10
36.7992203621
 20
22.6107704045
  0
VERTEX
  8
___SYMBOL
 62
7
  6
CONTINUOUS
 10
36.7989046465
 20
22.6220450258
  0
VERTEX
  8
___SYMBOL
 62
7
  6
CONTINUOUS
 10
36.7986119081
 20
22.633300386
  0
VERTEX
  8
___SYMBOL
 62
7
  6
CONTINUOUS
 10
36.7983827832
 20
22.6445336238
  0
VERTEX
  8
___SYMBOL
 62
7
  6
CONTINUOUS
 10
36.7982579081
 20
22.655741878
  0
VERTEX
  8
___SYMBOL
 62
7
  6
CONTINUOUS
 10
36.798277919
 20
22.6669222872
  0
VERTEX
  8
___SYMBOL
 62
7
  6
CONTINUOUS
 10
36.7984834522
 20
22.6780719902
  0
VERTEX
  8
___SYMBOL
 62
7
  6
CONTINUOUS
 10
36.7989504752
 20
22.6902297627
  0
VERTEX
  8
___SYMBOL
 62
7
  6
CONTINUOUS
 10
36.799633458
 20
22.7023835341
  0
VERTEX
  8
___SYMBOL
 62
7
  6
CONTINUOUS
 10
36.8004780464
 20
22.7145694245
  0
VERTEX
  8
___SYMBOL
 62
7
  6
CONTINUOUS
 10
36.8014298865
 20
22.726823554
  0
VERTEX
  8
___SYMBOL
 62
7
  6
CONTINUOUS
 10
36.8024346242
 20
22.7391820427
  0
VERTEX
  8
___SYMBOL
 62
7
  6
CONTINUOUS
 10
36.8034379055
 20
22.7516810108
  0
VERTEX
  8
___SYMBOL
 62
7
  6
CONTINUOUS
 10
36.8037339491
 20
22.7554639978
  0
VERTEX
  8
___SYMBOL
 62
7
  6
CONTINUOUS
 10
36.8040433051
 20
22.7592537597
  0
VERTEX
  8
___SYMBOL
 62
7
  6
CONTINUOUS
 10
36.8043843148
 20
22.763041159
  0
VERTEX
  8
___SYMBOL
 62
7
  6
CONTINUOUS
 10
36.8047753194
 20
22.7668170584
  0
VERTEX
  8
___SYMBOL
 62
7
  6
CONTINUOUS
 10
36.80523466
 20
22.7705723204
  0
VERTEX
  8
___SYMBOL
 62
7
  6
CONTINUOUS
 10
36.805780678
 20
22.7742978077
  0
VERTEX
  8
___SYMBOL
 62
7
  6
CONTINUOUS
 10
36.8064317145
 20
22.7779843827
  0
VERTEX
  8
___SYMBOL
 62
7
  6
CONTINUOUS
 10
36.8072061106
 20
22.7816229081
  0
VERTEX
  8
___SYMBOL
 62
7
  6
CONTINUOUS
 10
36.8081222077
 20
22.7852042465
  0
VERTEX
  8
___SYMBOL
 62
7
  6
CONTINUOUS
 10
36.809198347
 20
22.7887192604
  0
VERTEX
  8
___SYMBOL
 62
7
  6
CONTINUOUS
 10
36.8104528695
 20
22.7921588124
  0
VERTEX
  8
___SYMBOL
 62
7
  6
CONTINUOUS
 10
36.8119041166
 20
22.7955137651
  0
VERTEX
  8
___SYMBOL
 62
7
  6
CONTINUOUS
 10
36.8135704295
 20
22.7987749811
  0
VERTEX
  8
___SYMBOL
 62
7
  6
CONTINUOUS
 10
36.8154701493
 20
22.801933323
  0
VERTEX
  8
___SYMBOL
 62
7
  6
CONTINUOUS
 10
36.8173811725
 20
22.8046671923
  0
VERTEX
  8
___SYMBOL
 62
7
  6
CONTINUOUS
 10
36.8194801505
 20
22.8072966478
  0
VERTEX
  8
___SYMBOL
 62
7
  6
CONTINUOUS
 10
36.8217529025
 20
22.8098072127
  0
VERTEX
  8
___SYMBOL
 62
7
  6
CONTINUOUS
 10
36.8241852477
 20
22.8121844105
  0
VERTEX
  8
___SYMBOL
 62
7
  6
CONTINUOUS
 10
36.8267630054
 20
22.8144137645
  0
VERTEX
  8
___SYMBOL
 62
7
  6
CONTINUOUS
 10
36.8294719947
 20
22.8164807979
  0
VERTEX
  8
___SYMBOL
 62
7
  6
CONTINUOUS
 10
36.832298035
 20
22.8183710341
  0
VERTEX
  8
___SYMBOL
 62
7
  6
CONTINUOUS
 10
36.8352269455
 20
22.8200699964
  0
VERTEX
  8
___SYMBOL
 62
7
  6
CONTINUOUS
 10
36.8382445453
 20
22.8215632082
  0
VERTEX
  8
___SYMBOL
 62
7
  6
CONTINUOUS
 10
36.8413366538
 20
22.8228361927
  0
VERTEX
  8
___SYMBOL
 62
7
  6
CONTINUOUS
 10
36.8444890901
 20
22.8238744734
  0
SEQEND
  0
POLYLINE
  8
___SYMBOL
 62
7
  6
CONTINUOUS
 66
1
 70
0
  0
VERTEX
  8
___SYMBOL
 62
7
  6
CONTINUOUS
 10
36.7497179953
 20
22.647304184
  0
VERTEX
  8
___SYMBOL
 62
7
  6
CONTINUOUS
 10
36.749754964
 20
22.6612671103
  0
VERTEX
  8
___SYMBOL
 62
7
  6
CONTINUOUS
 10
36.7496466981
 20
22.675240874
  0
VERTEX
  8
___SYMBOL
 62
7
  6
CONTINUOUS
 10
36.7495201096
 20
22.6853879911
  0
VERTEX
  8
___SYMBOL
 62
7
  6
CONTINUOUS
 10
36.7493832901
 20
22.6955494015
  0
VERTEX
  8
___SYMBOL
 62
7
  6
CONTINUOUS
 10
36.7492624215
 20
22.7057175888
  0
VERTEX
  8
___SYMBOL
 62
7
  6
CONTINUOUS
 10
36.7491836858
 20
22.7158850367
  0
VERTEX
  8
___SYMBOL
 62
7
  6
CONTINUOUS
 10
36.7491732651
 20
22.7260442286
  0
VERTEX
  8
___SYMBOL
 62
7
  6
CONTINUOUS
 10
36.7492573413
 20
22.7361876484
  0
VERTEX
  8
___SYMBOL
 62
7
  6
CONTINUOUS
 10
36.7494620966
 20
22.7463077795
  0
VERTEX
  8
___SYMBOL
 62
7
  6
CONTINUOUS
 10
36.7498137128
 20
22.7563971056
  0
VERTEX
  8
___SYMBOL
 62
7
  6
CONTINUOUS
 10
36.750338372
 20
22.7664481104
  0
VERTEX
  8
___SYMBOL
 62
7
  6
CONTINUOUS
 10
36.7510622562
 20
22.7764532774
  0
VERTEX
  8
___SYMBOL
 62
7
  6
CONTINUOUS
 10
36.7515742598
 20
22.7821218551
  0
VERTEX
  8
___SYMBOL
 62
7
  6
CONTINUOUS
 10
36.7521719535
 20
22.7877746965
  0
VERTEX
  8
___SYMBOL
 62
7
  6
CONTINUOUS
 10
36.7528680884
 20
22.7934133303
  0
VERTEX
  8
___SYMBOL
 62
7
  6
CONTINUOUS
 10
36.7536754156
 20
22.7990392849
  0
VERTEX
  8
___SYMBOL
 62
7
  6
CONTINUOUS
 10
36.7546066864
 20
22.8046540888
  0
VERTEX
  8
___SYMBOL
 62
7
  6
CONTINUOUS
 10
36.7556746518
 20
22.8102592706
  0
VERTEX
  8
___SYMBOL
 62
7
  6
CONTINUOUS
 10
36.7568920629
 20
22.8158563588
  0
VERTEX
  8
___SYMBOL
 62
7
  6
CONTINUOUS
 10
36.7582716709
 20
22.8214468818
  0
VERTEX
  8
___SYMBOL
 62
7
  6
CONTINUOUS
 10
36.7598262269
 20
22.8270323683
  0
VERTEX
  8
___SYMBOL
 62
7
  6
CONTINUOUS
 10
36.761568482
 20
22.8326143468
  0
VERTEX
  8
___SYMBOL
 62
7
  6
CONTINUOUS
 10
36.7635111873
 20
22.8381943457
  0
VERTEX
  8
___SYMBOL
 62
7
  6
CONTINUOUS
 10
36.765667094
 20
22.8437738936
  0
VERTEX
  8
___SYMBOL
 62
7
  6
CONTINUOUS
 10
36.7680489533
 20
22.849354519
  0
VERTEX
  8
___SYMBOL
 62
7
  6
CONTINUOUS
 10
36.7694102594
 20
22.8523238234
  0
VERTEX
  8
___SYMBOL
 62
7
  6
CONTINUOUS
 10
36.770828465
 20
22.8552935048
  0
VERTEX
  8
___SYMBOL
 62
7
  6
CONTINUOUS
 10
36.7722929315
 20
22.8582632027
  0
VERTEX
  8
___SYMBOL
 62
7
  6
CONTINUOUS
 10
36.77379302
 20
22.8612325568
  0
VERTEX
  8
___SYMBOL
 62
7
  6
CONTINUOUS
 10
36.7753180921
 20
22.8642012067
  0
VERTEX
  8
___SYMBOL
 62
7
  6
CONTINUOUS
 10
36.7768575089
 20
22.867168792
  0
VERTEX
  8
___SYMBOL
 62
7
  6
CONTINUOUS
 10
36.7784006318
 20
22.8701349523
  0
VERTEX
  8
___SYMBOL
 62
7
  6
CONTINUOUS
 10
36.7799368221
 20
22.8730993272
  0
VERTEX
  8
___SYMBOL
 62
7
  6
CONTINUOUS
 10
36.7814554411
 20
22.8760615563
  0
VERTEX
  8
___SYMBOL
 62
7
  6
CONTINUOUS
 10
36.7829458502
 20
22.8790212792
  0
VERTEX
  8
___SYMBOL
 62
7
  6
CONTINUOUS
 10
36.7843974107
 20
22.8819781355
  0
VERTEX
  8
___SYMBOL
 62
7
  6
CONTINUOUS
 10
36.7857994839
 20
22.8849317649
  0
VERTEX
  8
___SYMBOL
 62
7
  6
CONTINUOUS
 10
36.7871414311
 20
22.8878818069
  0
VERTEX
  8
___SYMBOL
 62
7
  6
CONTINUOUS
 10
36.7884126137
 20
22.8908279012
  0
VERTEX
  8
___SYMBOL
 62
7
  6
CONTINUOUS
 10
36.7896023929
 20
22.8937696873
  0
VERTEX
  8
___SYMBOL
 62
7
  6
CONTINUOUS
 10
36.7907001301
 20
22.8967068049
  0
VERTEX
  8
___SYMBOL
 62
7
  6
CONTINUOUS
 10
36.7916951866
 20
22.8996388936
  0
VERTEX
  8
___SYMBOL
 62
7
  6
CONTINUOUS
 10
36.7925769238
 20
22.9025655929
  0
VERTEX
  8
___SYMBOL
 62
7
  6
CONTINUOUS
 10
36.7933347028
 20
22.9054865426
  0
VERTEX
  8
___SYMBOL
 62
7
  6
CONTINUOUS
 10
36.7939578852
 20
22.9084013821
  0
VERTEX
  8
___SYMBOL
 62
7
  6
CONTINUOUS
 10
36.7944358321
 20
22.9113097512
  0
VERTEX
  8
___SYMBOL
 62
7
  6
CONTINUOUS
 10
36.7947579049
 20
22.9142112894
  0
VERTEX
  8
___SYMBOL
 62
7
  6
CONTINUOUS
 10
36.794913465
 20
22.9171056363
  0
VERTEX
  8
___SYMBOL
 62
7
  6
CONTINUOUS
 10
36.7948918736
 20
22.9199924316
  0
VERTEX
  8
___SYMBOL
 62
7
  6
CONTINUOUS
 10
36.794682492
 20
22.9228713148
  0
VERTEX
  8
___SYMBOL
 62
7
  6
CONTINUOUS
 10
36.7942746817
 20
22.9257419255
  0
VERTEX
  8
___SYMBOL
 62
7
  6
CONTINUOUS
 10
36.7936578039
 20
22.9286039035
  0
VERTEX
  8
___SYMBOL
 62
7
  6
CONTINUOUS
 10
36.7928212198
 20
22.9314568881
  0
VERTEX
  8
___SYMBOL
 62
7
  6
CONTINUOUS
 10
36.7923427215
 20
22.9328320828
  0
VERTEX
  8
___SYMBOL
 62
7
  6
CONTINUOUS
 10
36.7918508648
 20
22.9342162793
  0
VERTEX
  8
___SYMBOL
 62
7
  6
CONTINUOUS
 10
36.7913859236
 20
22.9356206576
  0
VERTEX
  8
___SYMBOL
 62
7
  6
CONTINUOUS
 10
36.7909881716
 20
22.9370563975
  0
VERTEX
  8
___SYMBOL
 62
7
  6
CONTINUOUS
 10
36.7906978827
 20
22.9385346786
  0
VERTEX
  8
___SYMBOL
 62
7
  6
CONTINUOUS
 10
36.7905533163
 20
22.9399723975
  0
VERTEX
  8
___SYMBOL
 62
7
  6
CONTINUOUS
 10
36.7905410319
 20
22.9414359912
  0
VERTEX
  8
___SYMBOL
 62
7
  6
CONTINUOUS
 10
36.790661956
 20
22.9429035701
  0
VERTEX
  8
___SYMBOL
 62
7
  6
CONTINUOUS
 10
36.7909170154
 20
22.9443532448
  0
VERTEX
  8
___SYMBOL
 62
7
  6
CONTINUOUS
 10
36.7913071369
 20
22.9457631257
  0
VERTEX
  8
___SYMBOL
 62
7
  6
CONTINUOUS
 10
36.7918332472
 20
22.9471113235
  0
VERTEX
  8
___SYMBOL
 62
7
  6
CONTINUOUS
 10
36.7924962729
 20
22.9483759485
  0
VERTEX
  8
___SYMBOL
 62
7
  6
CONTINUOUS
 10
36.793297141
 20
22.9495351113
  0
VERTEX
  8
___SYMBOL
 62
7
  6
CONTINUOUS
 10
36.7942367779
 20
22.9505669223
  0
SEQEND
  0
POLYLINE
  8
___SYMBOL
 62
7
  6
CONTINUOUS
 66
1
 70
0
  0
VERTEX
  8
___SYMBOL
 62
7
  6
CONTINUOUS
 10
37.1305245101
 20
22.3870690919
  0
VERTEX
  8
___SYMBOL
 62
7
  6
CONTINUOUS
 10
37.1501237691
 20
22.3908849365
  0
VERTEX
  8
___SYMBOL
 62
7
  6
CONTINUOUS
 10
37.1688182727
 20
22.4004441434
  0
VERTEX
  8
___SYMBOL
 62
7
  6
CONTINUOUS
 10
37.184970295
 20
22.4149091253
  0
VERTEX
  8
___SYMBOL
 62
7
  6
CONTINUOUS
 10
37.1983822509
 20
22.4341034161
  0
VERTEX
  8
___SYMBOL
 62
7
  6
CONTINUOUS
 10
37.2078791885
 20
22.4563448743
  0
VERTEX
  8
___SYMBOL
 62
7
  6
CONTINUOUS
 10
37.2133448428
 20
22.4813621058
  0
VERTEX
  8
___SYMBOL
 62
7
  6
CONTINUOUS
 10
37.2143005458
 20
22.5069628397
  0
VERTEX
  8
___SYMBOL
 62
7
  6
CONTINUOUS
 10
37.2108455799
 20
22.532347373
  0
VERTEX
  8
___SYMBOL
 62
7
  6
CONTINUOUS
 10
37.2029592615
 20
22.5567100149
  0
VERTEX
  8
___SYMBOL
 62
7
  6
CONTINUOUS
 10
37.1913326488
 20
22.5779161917
  0
VERTEX
  8
___SYMBOL
 62
7
  6
CONTINUOUS
 10
37.1761076986
 20
22.5957065931
  0
VERTEX
  8
___SYMBOL
 62
7
  6
CONTINUOUS
 10
37.1586184106
 20
22.6085225274
  0
VERTEX
  8
___SYMBOL
 62
7
  6
CONTINUOUS
 10
37.1390784816
 20
22.6162075593
  0
VERTEX
  8
___SYMBOL
 62
7
  6
CONTINUOUS
 10
37.1192000995
 20
22.6180881571
  0
VERTEX
  8
___SYMBOL
 62
7
  6
CONTINUOUS
 10
37.0996009493
 20
22.6142724213
  0
VERTEX
  8
___SYMBOL
 62
7
  6
CONTINUOUS
 10
37.0809063369
 20
22.6047132144
  0
VERTEX
  8
___SYMBOL
 62
7
  6
CONTINUOUS
 10
37.0647544234
 20
22.5902481237
  0
VERTEX
  8
___SYMBOL
 62
7
  6
CONTINUOUS
 10
37.0513423586
 20
22.5710538329
  0
VERTEX
  8
___SYMBOL
 62
7
  6
CONTINUOUS
 10
37.0418455299
 20
22.5488123747
  0
VERTEX
  8
___SYMBOL
 62
7
  6
CONTINUOUS
 10
37.0363797667
 20
22.5237951432
  0
VERTEX
  8
___SYMBOL
 62
7
  6
CONTINUOUS
 10
37.0354240638
 20
22.4981944093
  0
VERTEX
  8
___SYMBOL
 62
7
  6
CONTINUOUS
 10
37.0388790296
 20
22.4728098761
  0
VERTEX
  8
___SYMBOL
 62
7
  6
CONTINUOUS
 10
37.0467653481
 20
22.4484472341
  0
VERTEX
  8
___SYMBOL
 62
7
  6
CONTINUOUS
 10
37.0583920696
 20
22.4272410574
  0
VERTEX
  8
___SYMBOL
 62
7
  6
CONTINUOUS
 10
37.0736170198
 20
22.4094506559
  0
VERTEX
  8
___SYMBOL
 62
7
  6
CONTINUOUS
 10
37.0911063078
 20
22.3966347216
  0
VERTEX
  8
___SYMBOL
 62
7
  6
CONTINUOUS
 10
37.1106461279
 20
22.3889497986
  0
VERTEX
  8
___SYMBOL
 62
7
  6
CONTINUOUS
 10
37.1305245101
 20
22.3870690919
  0
SEQEND
  0
POLYLINE
  8
___SYMBOL
 62
7
  6
CONTINUOUS
 66
1
 70
0
  0
VERTEX
  8
___SYMBOL
 62
7
  6
CONTINUOUS
 10
37.0132067801
 20
22.4353630986
  0
VERTEX
  8
___SYMBOL
 62
7
  6
CONTINUOUS
 10
37.018722298
 20
22.4188579098
  0
VERTEX
  8
___SYMBOL
 62
7
  6
CONTINUOUS
 10
37.0254465467
 20
22.403306139
  0
VERTEX
  8
___SYMBOL
 62
7
  6
CONTINUOUS
 10
37.0333029502
 20
22.3888848912
  0
VERTEX
  8
___SYMBOL
 62
7
  6
CONTINUOUS
 10
37.042202039
 20
22.3757583965
  0
VERTEX
  8
___SYMBOL
 62
7
  6
CONTINUOUS
 10
37.0520424697
 20
22.3640761405
  0
VERTEX
  8
___SYMBOL
 62
7
  6
CONTINUOUS
 10
37.0627121786
 20
22.3539711617
  0
VERTEX
  8
___SYMBOL
 62
7
  6
CONTINUOUS
 10
37.0740896582
 20
22.3455585364
  0
VERTEX
  8
___SYMBOL
 62
7
  6
CONTINUOUS
 10
37.0860453409
 20
22.3389340682
  0
VERTEX
  8
___SYMBOL
 62
7
  6
CONTINUOUS
 10
37.0984430746
 20
22.3341731971
  0
VERTEX
  8
___SYMBOL
 62
7
  6
CONTINUOUS
 10
37.1111416727
 20
22.3313301403
  0
VERTEX
  8
___SYMBOL
 62
7
  6
CONTINUOUS
 10
37.1239965227
 20
22.3304372746
  0
VERTEX
  8
___SYMBOL
 62
7
  6
CONTINUOUS
 10
37.1368612325
 20
22.3315047682
  0
VERTEX
  8
___SYMBOL
 62
7
  6
CONTINUOUS
 10
37.1495892978
 20
22.3345204643
  0
VERTEX
  8
___SYMBOL
 62
7
  6
CONTINUOUS
 10
37.1620357704
 20
22.3394500199
  0
VERTEX
  8
___SYMBOL
 62
7
  6
CONTINUOUS
 10
37.1740589089
 20
22.3462372969
  0
VERTEX
  8
___SYMBOL
 62
7
  6
CONTINUOUS
 10
37.1855217928
 20
22.3548050013
  0
VERTEX
  8
___SYMBOL
 62
7
  6
CONTINUOUS
 10
37.1962938819
 20
22.3650555633
  0
VERTEX
  8
___SYMBOL
 62
7
  6
CONTINUOUS
 10
37.2062525029
 20
22.3768722487
  0
VERTEX
  8
___SYMBOL
 62
7
  6
CONTINUOUS
 10
37.2152842461
 20
22.3901204883
  0
VERTEX
  8
___SYMBOL
 62
7
  6
CONTINUOUS
 10
37.2232862574
 20
22.4046494099
  0
VERTEX
  8
___SYMBOL
 62
7
  6
CONTINUOUS
 10
37.2301674092
 20
22.4202935571
  0
VERTEX
  8
___SYMBOL
 62
7
  6
CONTINUOUS
 10
37.2358493384
 20
22.4368747732
  0
VERTEX
  8
___SYMBOL
 62
7
  6
CONTINUOUS
 10
37.2402673388
 20
22.4542042299
  0
VERTEX
  8
___SYMBOL
 62
7
  6
CONTINUOUS
 10
37.2433710978
 20
22.472084578
  0
VERTEX
  8
___SYMBOL
 62
7
  6
CONTINUOUS
 10
37.2451252697
 20
22.4903121947
  0
VERTEX
  8
___SYMBOL
 62
7
  6
CONTINUOUS
 10
37.2455098776
 20
22.5086795025
  0
VERTEX
  8
___SYMBOL
 62
7
  6
CONTINUOUS
 10
37.2445205418
 20
22.526977333
  0
VERTEX
  8
___SYMBOL
 62
7
  6
CONTINUOUS
 10
37.2421685287
 20
22.5449973092
  0
VERTEX
  8
___SYMBOL
 62
7
  6
CONTINUOUS
 10
37.2384806235
 20
22.562534218
  0
VERTEX
  8
___SYMBOL
 62
7
  6
CONTINUOUS
 10
37.2334988241
 20
22.5793883479
  0
VERTEX
  8
___SYMBOL
 62
7
  6
CONTINUOUS
 10
37.2272798637
 20
22.5953677625
  0
VERTEX
  8
___SYMBOL
 62
7
  6
CONTINUOUS
 10
37.2198945643
 20
22.6102904873
  0
VERTEX
  8
___SYMBOL
 62
7
  6
CONTINUOUS
 10
37.2114270304
 20
22.6239865808
  0
VERTEX
  8
___SYMBOL
 62
7
  6
CONTINUOUS
 10
37.2019736907
 20
22.6363000711
  0
VERTEX
  8
___SYMBOL
 62
7
  6
CONTINUOUS
 10
37.1916422008
 20
22.647090731
  0
VERTEX
  8
___SYMBOL
 62
7
  6
CONTINUOUS
 10
37.1805502164
 20
22.6562356757
  0
VERTEX
  8
___SYMBOL
 62
7
  6
CONTINUOUS
 10
37.1688240539
 20
22.6636307618
  0
VERTEX
  8
___SYMBOL
 62
7
  6
CONTINUOUS
 10
37.1565972518
 20
22.6691917736
  0
VERTEX
  8
___SYMBOL
 62
7
  6
CONTINUOUS
 10
37.1440090499
 20
22.6728553817
  0
VERTEX
  8
___SYMBOL
 62
7
  6
CONTINUOUS
 10
37.1312028036
 20
22.6745798648
  0
VERTEX
  8
___SYMBOL
 62
7
  6
CONTINUOUS
 10
37.1183243513
 20
22.6743455842
  0
VERTEX
  8
___SYMBOL
 62
7
  6
CONTINUOUS
 10
37.1055203541
 20
22.672155208
  0
VERTEX
  8
___SYMBOL
 62
7
  6
CONTINUOUS
 10
37.0929366247
 20
22.6680336804
  0
VERTEX
  8
___SYMBOL
 62
7
  6
CONTINUOUS
 10
37.0807164677
 20
22.6620279376
  0
VERTEX
  8
___SYMBOL
 62
7
  6
CONTINUOUS
 10
37.0689990472
 20
22.6542063735
  0
VERTEX
  8
___SYMBOL
 62
7
  6
CONTINUOUS
 10
37.0579178021
 20
22.6446580608
  0
SEQEND
  0
POLYLINE
  8
___SYMBOL
 62
7
  6
CONTINUOUS
 66
1
 70
0
  0
VERTEX
  8
___SYMBOL
 62
7
  6
CONTINUOUS
 10
36.6802843416
 20
22.3999148545
  0
VERTEX
  8
___SYMBOL
 62
7
  6
CONTINUOUS
 10
36.6989172291
 20
22.4050854916
  0
VERTEX
  8
___SYMBOL
 62
7
  6
CONTINUOUS
 10
36.716244802
 20
22.4159139252
  0
VERTEX
  8
___SYMBOL
 62
7
  6
CONTINUOUS
 10
36.7307487566
 20
22.4314510927
  0
VERTEX
  8
___SYMBOL
 62
7
  6
CONTINUOUS
 10
36.7422519737
 20
22.4515073561
  0
VERTEX
  8
___SYMBOL
 62
7
  6
CONTINUOUS
 10
36.7497465509
 20
22.4743253495
  0
VERTEX
  8
___SYMBOL
 62
7
  6
CONTINUOUS
 10
36.7531408803
 20
22.4996263852
  0
VERTEX
  8
___SYMBOL
 62
7
  6
CONTINUOUS
 10
36.7521375501
 20
22.5251933718
  0
VERTEX
  8
___SYMBOL
 62
7
  6
CONTINUOUS
 10
36.7468926688
 20
22.5502368392
  0
VERTEX
  8
___SYMBOL
 62
7
  6
CONTINUOUS
 10
36.7374468965
 20
22.5739525119
  0
VERTEX
  8
___SYMBOL
 62
7
  6
CONTINUOUS
 10
36.724627914
 20
22.5942627511
  0
VERTEX
  8
___SYMBOL
 62
7
  6
CONTINUOUS
 10
36.7085922111
 20
22.610919133
  0
VERTEX
  8
___SYMBOL
 62
7
  6
CONTINUOUS
 10
36.6907449835
 20
22.622462357
  0
VERTEX
  8
___SYMBOL
 62
7
  6
CONTINUOUS
 10
36.6713041738
 20
22.6287514464
  0
VERTEX
  8
___SYMBOL
 62
7
  6
CONTINUOUS
 10
36.6519732062
 20
22.6292352309
  0
VERTEX
  8
___SYMBOL
 62
7
  6
CONTINUOUS
 10
36.6333403187
 20
22.6240644849
  0
VERTEX
  8
___SYMBOL
 62
7
  6
CONTINUOUS
 10
36.6160127457
 20
22.6132361602
  0
VERTEX
  8
___SYMBOL
 62
7
  6
CONTINUOUS
 10
36.6015087912
 20
22.5976989926
  0
VERTEX
  8
___SYMBOL
 62
7
  6
CONTINUOUS
 10
36.5900055196
 20
22.5776426205
  0
VERTEX
  8
___SYMBOL
 62
7
  6
CONTINUOUS
 10
36.5825109969
 20
22.5548246271
  0
VERTEX
  8
___SYMBOL
 62
7
  6
CONTINUOUS
 10
36.5791166674
 20
22.5295237002
  0
VERTEX
  8
___SYMBOL
 62
7
  6
CONTINUOUS
 10
36.5801199977
 20
22.5039567136
  0
VERTEX
  8
___SYMBOL
 62
7
  6
CONTINUOUS
 10
36.585364879
 20
22.4789132462
  0
VERTEX
  8
___SYMBOL
 62
7
  6
CONTINUOUS
 10
36.5948106513
 20
22.4551974647
  0
VERTEX
  8
___SYMBOL
 62
7
  6
CONTINUOUS
 10
36.6076296337
 20
22.4348873342
  0
VERTEX
  8
___SYMBOL
 62
7
  6
CONTINUOUS
 10
36.6236653366
 20
22.4182309524
  0
VERTEX
  8
___SYMBOL
 62
7
  6
CONTINUOUS
 10
36.6415125642
 20
22.4066877284
  0
VERTEX
  8
___SYMBOL
 62
7
  6
CONTINUOUS
 10
36.660953374
 20
22.4003986389
  0
VERTEX
  8
___SYMBOL
 62
7
  6
CONTINUOUS
 10
36.6802843416
 20
22.3999148545
  0
SEQEND
  0
POLYLINE
  8
___SYMBOL
 62
7
  6
CONTINUOUS
 66
1
 70
0
  0
VERTEX
  8
___SYMBOL
 62
7
  6
CONTINUOUS
 10
36.7279373849
 20
22.636502226
  0
VERTEX
  8
___SYMBOL
 62
7
  6
CONTINUOUS
 10
36.7154822956
 20
22.6446019492
  0
VERTEX
  8
___SYMBOL
 62
7
  6
CONTINUOUS
 10
36.702426188
 20
22.6508038601
  0
VERTEX
  8
___SYMBOL
 62
7
  6
CONTINUOUS
 10
36.688935205
 20
22.6550290375
  0
VERTEX
  8
___SYMBOL
 62
7
  6
CONTINUOUS
 10
36.6751810235
 20
22.6572237148
  0
VERTEX
  8
___SYMBOL
 62
7
  6
CONTINUOUS
 10
36.6613386694
 20
22.6573599639
  0
VERTEX
  8
___SYMBOL
 62
7
  6
CONTINUOUS
 10
36.6475842909
 20
22.6554360512
  0
VERTEX
  8
___SYMBOL
 62
7
  6
CONTINUOUS
 10
36.6340929165
 20
22.651476459
  0
VERTEX
  8
___SYMBOL
 62
7
  6
CONTINUOUS
 10
36.6210362281
 20
22.6455315742
  0
VERTEX
  8
___SYMBOL
 62
7
  6
CONTINUOUS
 10
36.6085803759
 20
22.6376770473
  0
VERTEX
  8
___SYMBOL
 62
7
  6
CONTINUOUS
 10
36.5968838643
 20
22.6280128296
  0
VERTEX
  8
___SYMBOL
 62
7
  6
CONTINUOUS
 10
36.586095535
 20
22.616661901
  0
VERTEX
  8
___SYMBOL
 62
7
  6
CONTINUOUS
 10
36.5763526726
 20
22.6037687055
  0
VERTEX
  8
___SYMBOL
 62
7
  6
CONTINUOUS
 10
36.5677792581
 20
22.589497313
  0
VERTEX
  8
___SYMBOL
 62
7
  6
CONTINUOUS
 10
36.5604843906
 20
22.5740293311
  0
VERTEX
  8
___SYMBOL
 62
7
  6
CONTINUOUS
 10
36.5545608995
 20
22.5575615945
  0
VERTEX
  8
___SYMBOL
 62
7
  6
CONTINUOUS
 10
36.5500841631
 20
22.5403036602
  0
VERTEX
  8
___SYMBOL
 62
7
  6
CONTINUOUS
 10
36.5471111492
 20
22.5224751405
  0
VERTEX
  8
___SYMBOL
 62
7
  6
CONTINUOUS
 10
36.5456796902
 20
22.5043029085
  0
VERTEX
  8
___SYMBOL
 62
7
  6
CONTINUOUS
 10
36.5458080018
 20
22.4860182116
  0
VERTEX
  8
___SYMBOL
 62
7
  6
CONTINUOUS
 10
36.5474944514
 20
22.4678537278
  0
VERTEX
  8
___SYMBOL
 62
7
  6
CONTINUOUS
 10
36.5507175782
 20
22.4500406056
  0
VERTEX
  8
___SYMBOL
 62
7
  6
CONTINUOUS
 10
36.5554363671
 20
22.4328055224
  0
VERTEX
  8
___SYMBOL
 62
7
  6
CONTINUOUS
 10
36.5615907701
 20
22.4163677998
  0
VERTEX
  8
___SYMBOL
 62
7
  6
CONTINUOUS
 10
36.5691024705
 20
22.4009366126
  0
VERTEX
  8
___SYMBOL
 62
7
  6
CONTINUOUS
 10
36.5778758797
 20
22.3867083274
  0
VERTEX
  8
___SYMBOL
 62
7
  6
CONTINUOUS
 10
36.5877993534
 20
22.3738640034
  0
VERTEX
  8
___SYMBOL
 62
7
  6
CONTINUOUS
 10
36.5987466125
 20
22.3625670884
  0
VERTEX
  8
___SYMBOL
 62
7
  6
CONTINUOUS
 10
36.6105783498
 20
22.352961339
  0
VERTEX
  8
___SYMBOL
 62
7
  6
CONTINUOUS
 10
36.6231440029
 20
22.3451689913
  0
VERTEX
  8
___SYMBOL
 62
7
  6
CONTINUOUS
 10
36.6362836702
 20
22.3392892052
  0
VERTEX
  8
___SYMBOL
 62
7
  6
CONTINUOUS
 10
36.6498301454
 20
22.3353968028
  0
VERTEX
  8
___SYMBOL
 62
7
  6
CONTINUOUS
 10
36.6636110456
 20
22.333541316
  0
VERTEX
  8
___SYMBOL
 62
7
  6
CONTINUOUS
 10
36.6774510047
 20
22.3337463565
  0
VERTEX
  8
___SYMBOL
 62
7
  6
CONTINUOUS
 10
36.6911739051
 20
22.3360093151
  0
VERTEX
  8
___SYMBOL
 62
7
  6
CONTINUOUS
 10
36.7046051188
 20
22.340301395
  0
VERTEX
  8
___SYMBOL
 62
7
  6
CONTINUOUS
 10
36.7175737295
 20
22.346567978
  0
VERTEX
  8
___SYMBOL
 62
7
  6
CONTINUOUS
 10
36.7299147078
 20
22.3547293202
  0
VERTEX
  8
___SYMBOL
 62
7
  6
CONTINUOUS
 10
36.7414710111
 20
22.364681566
  0
VERTEX
  8
___SYMBOL
 62
7
  6
CONTINUOUS
 10
36.752095582
 20
22.37629807
  0
VERTEX
  8
___SYMBOL
 62
7
  6
CONTINUOUS
 10
36.7616532196
 20
22.3894310089
  0
VERTEX
  8
___SYMBOL
 62
7
  6
CONTINUOUS
 10
36.7700223001
 20
22.4039132619
  0
VERTEX
  8
___SYMBOL
 62
7
  6
CONTINUOUS
 10
36.7770963244
 20
22.4195605382
  0
VERTEX
  8
___SYMBOL
 62
7
  6
CONTINUOUS
 10
36.7827852735
 20
22.4361737214
  0
VERTEX
  8
___SYMBOL
 62
7
  6
CONTINUOUS
 10
36.7870167539
 20
22.4535414038
  0
VERTEX
  8
___SYMBOL
 62
7
  6
CONTINUOUS
 10
36.7897369186
 20
22.4714425764
  0
SEQEND
  0
ENDBLK
  8
0
  6
BYBLOCK
 62
0
  0
BLOCK
  8
___SYMBOL
 62
2
  6
CONTINUOUS
  2
COPYRIGHT_YEAR_BL0
 70
64
 10
31.85660481
 20
6.6050781909
  0
TEXT
  8
___SYMBOL
 62
2
  6
CONTINUOUS
 10
31.4829145065
 20
6.5698046909
  7
STANDARD
 40
0.0704997506
  1
2006 KOHLER CO.
 41
0.8
 72
0
  0
TEXT
  8
___SYMBOL
 62
7
  6
CONTINUOUS
 10
31.4028890406
 20
6.5862896328
  7
TEXTSTYLE_2
 40
0.0421873503
  1
C
 41
1.0
 72
0
  0
CIRCLE
  8
___SYMBOL
 62
7
  6
CONTINUOUS
 10
31.41712399
 20
6.6075258074
 40
0.0328258835
  0
ENDBLK
  8
0
  6
BYBLOCK
 62
0
  0
BLOCK
  8
0
  2
_FILLED
 70
64
 10
0.0
 20
0.0
  0
SOLID
  8
0
  6
BYBLOCK
 62
0
 10
0.0
 20
0.0
 11
-1.0
 21
0.1666666667
 12
-1.0
 22
-0.1666666667
 13
-1.0
 23
-0.1666666667
  0
ENDBLK
  8
0
  6
BYBLOCK
 62
0
  0
BLOCK
  8
0
 62
2
  6
CONTINUOUS
  2
*D0
 70
65
 10
0.0
 20
0.0
  0
TEXT
  8
0
 62
2
  6
CONTINUOUS
 10
34.2609553836
 20
8.5022377064
  7
TEXTSTYLE_1
 40
0.15625
  1
n
 41
1.0
 72
2
 11
34.4692887169
 21
8.5022377064
  0
TEXT
  8
0
 62
2
  6
CONTINUOUS
 10
34.4692887169
 20
8.5022377064
  7
STANDARD
 40
0.15625
  1
1-1/2
 41
0.8
 72
2
 11
35.0942887169
 21
8.5022377064
  0
TEXT
  8
0
 62
2
  6
CONTINUOUS
 10
35.0942887169
 20
8.5022377064
  7
STANDARD
 40
0.15625
  1
"
 41
0.8
 72
2
 11
35.2192887169
 21
8.5022377064
  0
TEXT
  8
0
 62
2
  6
CONTINUOUS
 10
34.0942887169
 20
8.2678627064
  7
STANDARD
 40
0.15625
  1
[3,81 cm]
 41
0.8
 72
2
 11
35.2192887169
 21
8.2678627064
  0
LINE
  8
0
 62
2
  6
CONTINUOUS
 10
35.5510119029
 20
8.5196610709
 11
36.153094535
 21
8.072451384
  0
LINE
  8
0
 62
2
  6
CONTINUOUS
 10
36.153094535
 20
8.072451384
 11
35.4692887169
 21
8.5803627064
  0
LINE
  8
0
 62
2
  6
CONTINUOUS
 10
35.4692887169
 20
8.5803627064
 11
35.2974137169
 21
8.5803627064
  0
LINE
  8
0
 62
2
  6
CONTINUOUS
 10
36.7551771672
 20
7.625241697
 11
36.153094535
 21
8.072451384
  0
INSERT
  8
0
 62
2
  6
CONTINUOUS
  2
_FILLED
 10
35.5510119029
 20
8.5196610709
 41
0.1875
 42
0.1875
 43
0.1875
 50
143.3960955065
  0
INSERT
  8
0
 62
2
  6
CONTINUOUS
  2
_FILLED
 10
36.7551771672
 20
7.625241697
 41
0.1875
 42
0.1875
 43
0.1875
 50
323.3960955065
  0
ENDBLK
  8
0
  6
BYBLOCK
 62
0
  0
BLOCK
  8
0
 62
2
  6
CONTINUOUS
  2
*D1
 70
65
 10
0.0
 20
0.0
  0
TEXT
  8
0
 62
2
  6
CONTINUOUS
 10
18.3784431248
 20
14.3792662388
  7
STANDARD
 40
0.15625
  1
32-1/2
 41
0.8
 72
1
 11
18.7534431248
 21
14.3792662388
  0
TEXT
  8
0
 62
2
  6
CONTINUOUS
 10
19.1284431248
 20
14.3792662388
  7
STANDARD
 40
0.15625
  1
"
 41
0.8
 72
1
 11
19.1909431248
 21
14.3792662388
  0
TEXT
  8
0
 62
2
  6
CONTINUOUS
 10
18.1909431248
 20
14.1448912388
  7
STANDARD
 40
0.15625
  1
[82,55 cm]
 41
0.8
 72
1
 11
18.8159431248
 21
14.1448912388
  0
LINE
  8
0
 62
2
  6
CONTINUOUS
 10
4.403094535
 20
14.4573912388
 11
18.3003181248
 21
14.4573912388
  0
LINE
  8
0
 62
2
  6
CONTINUOUS
 10
36.903094535
 20
14.4573912388
 11
19.3315681248
 21
14.4573912388
  0
INSERT
  8
0
 62
2
  6
CONTINUOUS
  2
_FILLED
 10
4.403094535
 20
14.4573912388
 41
0.1875
 42
0.1875
 43
0.1875
 50
180.0
  0
INSERT
  8
0
 62
2
  6
CONTINUOUS
  2
_FILLED
 10
36.903094535
 20
14.4573912388
 41
0.1875
 42
0.1875
 43
0.1875
  0
ENDBLK
  8
0
  6
BYBLOCK
 62
0
  0
BLOCK
  8
0
 62
2
  6
CONTINUOUS
  2
*D2
 70
65
 10
0.0
 20
0.0
  0
TEXT
  8
0
 62
2
  6
CONTINUOUS
 10
23.0176079078
 20
13.7912861202
  7
STANDARD
 40
0.15625
  1
21-1/2
 41
0.8
 72
1
 11
23.3926079078
 21
13.7912861202
  0
TEXT
  8
0
 62
2
  6
CONTINUOUS
 10
23.7676079078
 20
13.7912861202
  7
STANDARD
 40
0.15625
  1
"
 41
0.8
 72
1
 11
23.8301079078
 21
13.7912861202
  0
TEXT
  8
0
 62
2
  6
CONTINUOUS
 10
22.8301079078
 20
13.5569111202
  7
STANDARD
 40
0.15625
  1
[54,61 cm]
 41
0.8
 72
1
 11
23.4551079078
 21
13.5569111202
  0
LINE
  8
0
 62
2
  6
CONTINUOUS
 10
23.4551079078
 20
28.822451384
 11
23.4551079078
 21
14.0256611202
  0
LINE
  8
0
 62
2
  6
CONTINUOUS
 10
23.4551079078
 20
7.322451384
 11
23.4551079078
 21
13.4787861202
  0
INSERT
  8
0
 62
2
  6
CONTINUOUS
  2
_FILLED
 10
23.4551079078
 20
28.822451384
 41
0.1875
 42
0.1875
 43
0.1875
 50
90.0
  0
INSERT
  8
0
 62
2
  6
CONTINUOUS
  2
_FILLED
 10
23.4551079078
 20
7.322451384
 41
0.1875
 42
0.1875
 43
0.1875
 50
270.0
  0
ENDBLK
  8
0
  6
BYBLOCK
 62
0
  0
ENDSEC
  0
SECTION
  2
ENTITIES
  0
SOLID
  8
0
 62
2
  6
CONTINUOUS
 10
8.7969952837
 20
26.2722468243
 11
8.9347594504
 21
26.436068014
 12
9.1268212625
 22
26.436068014
 13
9.1268212625
 23
26.436068014
  0
SOLID
  8
0
 62
2
  6
CONTINUOUS
 10
9.1268212625
 20
26.436068014
 11
8.9135178106
 21
26.1824197411
 12
8.7969952837
 22
26.2722468243
 13
8.7969952837
 23
26.2722468243
  0
SOLID
  8
0
 62
2
  6
CONTINUOUS
 10
8.7969952837
 20
26.0516541986
 11
8.9135178106
 21
26.1824197411
 12
8.9507332238
 22
25.8501543646
 13
8.9507332238
 23
25.8501543646
  0
SOLID
  8
0
 62
2
  6
CONTINUOUS
 10
8.9135178106
 20
26.1824197411
 11
9.1670256453
 21
25.8501543646
 12
8.9507332238
 22
25.8501543646
 13
8.9507332238
 23
25.8501543646
  0
SOLID
  8
0
 62
2
  6
CONTINUOUS
 10
8.7969952837
 20
25.8501543646
 11
8.6224950567
 21
25.8501303612
 12
8.7969952837
 22
26.0516541986
 13
8.7969952837
 23
26.0516541986
  0
SOLID
  8
0
 62
2
  6
CONTINUOUS
 10
8.9135178106
 20
26.1824197411
 11
8.7969952837
 21
26.0516541986
 12
8.7969952837
 22
26.2722468243
 13
8.7969952837
 23
26.2722468243
  0
SOLID
  8
0
 62
2
  6
CONTINUOUS
 10
8.7969952837
 20
26.0516541986
 11
8.6224950567
 21
25.8501303612
 12
8.7969952837
 22
26.2722468243
 13
8.7969952837
 23
26.2722468243
  0
SOLID
  8
0
 62
2
  6
CONTINUOUS
 10
8.7969952837
 20
26.2722468243
 11
8.6224950567
 21
25.8501303612
 12
8.7969952837
 22
26.436068014
 13
8.7969952837
 23
26.436068014
  0
SOLID
  8
0
 62
2
  6
CONTINUOUS
 10
8.6224950567
 20
25.8501303612
 11
8.6224950567
 21
26.436068014
 12
8.7969952837
 22
26.436068014
 13
8.7969952837
 23
26.436068014
  0
SOLID
  8
0
 62
2
  6
CONTINUOUS
 10
9.2514299301
 20
26.4254586005
 11
9.3123790845
 21
26.4384137433
 12
9.3746898794
 22
26.4384137433
 13
9.3746898794
 23
26.4384137433
  0
SOLID
  8
0
 62
2
  6
CONTINUOUS
 10
9.3746898794
 20
26.4384137433
 11
9.4356390339
 21
26.4254586005
 12
9.2514299301
 22
26.4254586005
 13
9.2514299301
 23
26.4254586005
  0
SOLID
  8
0
 62
2
  6
CONTINUOUS
 10
9.1945061865
 20
26.400114517
 11
9.2514299301
 21
26.4254586005
 12
9.4356390339
 22
26.4254586005
 13
9.4356390339
 23
26.4254586005
  0
SOLID
  8
0
 62
2
  6
CONTINUOUS
 10
9.4356390339
 20
26.4254586005
 11
9.4925627774
 21
26.400114517
 12
9.1945061865
 22
26.400114517
 13
9.1945061865
 23
26.400114517
  0
SOLID
  8
0
 62
2
  6
CONTINUOUS
 10
9.1440956945
 20
26.3634891507
 11
9.1945061865
 21
26.400114517
 12
9.4925627774
 22
26.400114517
 13
9.4925627774
 23
26.400114517
  0
SOLID
  8
0
 62
2
  6
CONTINUOUS
 10
9.4925627774
 20
26.400114517
 11
9.5429732694
 21
26.3634891507
 12
9.1440956945
 22
26.3634891507
 13
9.1440956945
 23
26.3634891507
  0
SOLID
  8
0
 62
2
  6
CONTINUOUS
 10
9.1024016346
 20
26.317183206
 11
9.1440956945
 21
26.3634891507
 12
9.5429732694
 22
26.3634891507
 13
9.5429732694
 23
26.3634891507
  0
SOLID
  8
0
 62
2
  6
CONTINUOUS
 10
9.5429732694
 20
26.3634891507
 11
9.5846673294
 21
26.317183206
 12
9.1024016346
 22
26.317183206
 13
9.1024016346
 23
26.317183206
  0
SOLID
  8
0
 62
2
  6
CONTINUOUS
 10
9.343534482
 20
26.2667593525
 11
9.0712462371
 21
26.2632204747
 12
9.5846673294
 22
26.317183206
 13
9.5846673294
 23
26.317183206
  0
SOLID
  8
0
 62
2
  6
CONTINUOUS
 10
9.0712462371
 20
26.2632204747
 11
9.1024016346
 21
26.317183206
 12
9.5846673294
 22
26.317183206
 13
9.5846673294
 23
26.317183206
  0
SOLID
  8
0
 62
2
  6
CONTINUOUS
 10
9.5846673294
 20
26.317183206
 11
9.6158227268
 21
26.2632204747
 12
9.343534482
 22
26.2667593525
 13
9.343534482
 23
26.2667593525
  0
SOLID
  8
0
 62
2
  6
CONTINUOUS
 10
9.343534482
 20
26.2667593525
 11
9.3049786123
 21
26.2606527027
 12
9.0712462371
 22
26.2632204747
 13
9.0712462371
 23
26.2632204747
  0
SOLID
  8
0
 62
2
  6
CONTINUOUS
 10
9.3820903516
 20
26.2606527027
 11
9.343534482
 21
26.2667593525
 12
9.6158227268
 22
26.2632204747
 13
9.6158227268
 23
26.2632204747
  0
SOLID
  8
0
 62
2
  6
CONTINUOUS
 10
9.2425939048
 20
26.2153275596
 11
9.0519911426
 21
26.2039593872
 12
9.2701968598
 22
26.2429305146
 13
9.2701968598
 23
26.2429305146
  0
SOLID
  8
0
 62
2
  6
CONTINUOUS
 10
9.2701968598
 20
26.2429305146
 11
9.0519911426
 21
26.2039593872
 12
9.3049786123
 22
26.2606527027
 13
9.3049786123
 23
26.2606527027
  0
SOLID
  8
0
 62
2
  6
CONTINUOUS
 10
9.0519911426
 20
26.2039593872
 11
9.0712462371
 21
26.2632204747
 12
9.3049786123
 22
26.2606527027
 13
9.3049786123
 23
26.2606527027
  0
SOLID
  8
0
 62
2
  6
CONTINUOUS
 10
9.3820903516
 20
26.2606527027
 11
9.6158227268
 21
26.2632204747
 12
9.4168721041
 22
26.2429305146
 13
9.4168721041
 23
26.2429305146
  0
SOLID
  8
0
 62
2
  6
CONTINUOUS
 10
9.4168721041
 20
26.2429305146
 11
9.6158227268
 21
26.2632204747
 12
9.4444750591
 22
26.2153275596
 13
9.4444750591
 23
26.2153275596
  0
SOLID
  8
0
 62
2
  6
CONTINUOUS
 10
9.6158227268
 20
26.2632204747
 11
9.6350778213
 21
26.2039593872
 12
9.4444750591
 22
26.2153275596
 13
9.4444750591
 23
26.2153275596
  0
SOLID
  8
0
 62
2
  6
CONTINUOUS
 10
9.2425939048
 20
26.2153275596
 11
9.2248717167
 21
26.1805458071
 12
9.0519911426
 22
26.2039593872
 13
9.0519911426
 23
26.2039593872
  0
SOLID
  8
0
 62
2
  6
CONTINUOUS
 10
9.4621972472
 20
26.1805458071
 11
9.4444750591
 21
26.2153275596
 12
9.6350778213
 22
26.2039593872
 13
9.6350778213
 23
26.2039593872
  0
SOLID
  8
0
 62
2
  6
CONTINUOUS
 10
9.045477891
 20
26.1419899375
 11
9.0519911426
 21
26.2039593872
 12
9.2248717167
 22
26.1805458071
 13
9.2248717167
 23
26.1805458071
  0
SOLID
  8
0
 62
2
  6
CONTINUOUS
 10
9.2248717167
 20
26.1805458071
 11
9.2187650669
 21
26.1419899375
 12
9.045477891
 22
26.1419899375
 13
9.045477891
 23
26.1419899375
  0
SOLID
  8
0
 62
2
  6
CONTINUOUS
 10
9.4621972472
 20
26.1805458071
 11
9.6350778213
 21
26.2039593872
 12
9.468303897
 22
26.1419899375
 13
9.468303897
 23
26.1419899375
  0
SOLID
  8
0
 62
2
  6
CONTINUOUS
 10
9.6350778213
 20
26.2039593872
 11
9.6415910729
 21
26.1419899375
 12
9.468303897
 22
26.1419899375
 13
9.468303897
 23
26.1419899375
  0
SOLID
  8
0
 62
2
  6
CONTINUOUS
 10
9.4621972472
 20
26.1034340678
 11
9.468303897
 21
26.1419899375
 12
9.6415910729
 22
26.1419899375
 13
9.6415910729
 23
26.1419899375
  0
SOLID
  8
0
 62
2
  6
CONTINUOUS
 10
9.2248717167
 20
26.1034340678
 11
9.0519911426
 21
26.0800204877
 12
9.2187650669
 22
26.1419899375
 13
9.2187650669
 23
26.1419899375
  0
SOLID
  8
0
 62
2
  6
CONTINUOUS
 10
9.0519911426
 20
26.0800204877
 11
9.045477891
 21
26.1419899375
 12
9.2187650669
 22
26.1419899375
 13
9.2187650669
 23
26.1419899375
  0
SOLID
  8
0
 62
2
  6
CONTINUOUS
 10
9.6415910729
 20
26.1419899375
 11
9.6350778213
 21
26.0800204877
 12
9.4621972472
 22
26.1034340678
 13
9.4621972472
 23
26.1034340678
  0
SOLID
  8
0
 62
2
  6
CONTINUOUS
 10
9.2248717167
 20
26.1034340678
 11
9.2425939048
 21
26.0686523153
 12
9.0519911426
 22
26.0800204877
 13
9.0519911426
 23
26.0800204877
  0
SOLID
  8
0
 62
2
  6
CONTINUOUS
 10
9.4444750591
 20
26.0686523153
 11
9.4621972472
 21
26.1034340678
 12
9.6350778213
 22
26.0800204877
 13
9.6350778213
 23
26.0800204877
  0
SOLID
  8
0
 62
2
  6
CONTINUOUS
 10
9.3049786123
 20
26.0233271722
 11
9.0712462371
 21
26.0207594002
 12
9.2701968598
 22
26.0410493603
 13
9.2701968598
 23
26.0410493603
  0
SOLID
  8
0
 62
2
  6
CONTINUOUS
 10
9.2701968598
 20
26.0410493603
 11
9.0712462371
 21
26.0207594002
 12
9.2425939048
 22
26.0686523153
 13
9.2425939048
 23
26.0686523153
  0
SOLID
  8
0
 62
2
  6
CONTINUOUS
 10
9.0712462371
 20
26.0207594002
 11
9.0519911426
 21
26.0800204877
 12
9.2425939048
 22
26.0686523153
 13
9.2425939048
 23
26.0686523153
  0
SOLID
  8
0
 62
2
  6
CONTINUOUS
 10
9.4444750591
 20
26.0686523153
 11
9.6350778213
 21
26.0800204877
 12
9.4168721041
 22
26.0410493603
 13
9.4168721041
 23
26.0410493603
  0
SOLID
  8
0
 62
2
  6
CONTINUOUS
 10
9.4168721041
 20
26.0410493603
 11
9.6350778213
 21
26.0800204877
 12
9.3820903516
 22
26.0233271722
 13
9.3820903516
 23
26.0233271722
  0
SOLID
  8
0
 62
2
  6
CONTINUOUS
 10
9.6350778213
 20
26.0800204877
 11
9.6158227268
 21
26.0207594002
 12
9.3820903516
 22
26.0233271722
 13
9.3820903516
 23
26.0233271722
  0
SOLID
  8
0
 62
2
  6
CONTINUOUS
 10
9.3049786123
 20
26.0233271722
 11
9.343534482
 21
26.0172205224
 12
9.0712462371
 22
26.0207594002
 13
9.0712462371
 23
26.0207594002
  0
SOLID
  8
0
 62
2
  6
CONTINUOUS
 10
9.343534482
 20
26.0172205224
 11
9.3820903516
 21
26.0233271722
 12
9.6158227268
 22
26.0207594002
 13
9.6158227268
 23
26.0207594002
  0
SOLID
  8
0
 62
2
  6
CONTINUOUS
 10
9.1024016346
 20
25.9667966689
 11
9.0712462371
 21
26.0207594002
 12
9.343534482
 22
26.0172205224
 13
9.343534482
 23
26.0172205224
  0
SOLID
  8
0
 62
2
  6
CONTINUOUS
 10
9.343534482
 20
26.0172205224
 11
9.6158227268
 21
26.0207594002
 12
9.1024016346
 22
25.9667966689
 13
9.1024016346
 23
25.9667966689
  0
SOLID
  8
0
 62
2
  6
CONTINUOUS
 10
9.6158227268
 20
26.0207594002
 11
9.5846673294
 21
25.9667966689
 12
9.1024016346
 22
25.9667966689
 13
9.1024016346
 23
25.9667966689
  0
SOLID
  8
0
 62
2
  6
CONTINUOUS
 10
9.1440956945
 20
25.9204907242
 11
9.1024016346
 21
25.9667966689
 12
9.5846673294
 22
25.9667966689
 13
9.5846673294
 23
25.9667966689
  0
SOLID
  8
0
 62
2
  6
CONTINUOUS
 10
9.5846673294
 20
25.9667966689
 11
9.5429732694
 21
25.9204907242
 12
9.1440956945
 22
25.9204907242
 13
9.1440956945
 23
25.9204907242
  0
SOLID
  8
0
 62
2
  6
CONTINUOUS
 10
9.1945061865
 20
25.8838653579
 11
9.1440956945
 21
25.9204907242
 12
9.5429732694
 22
25.9204907242
 13
9.5429732694
 23
25.9204907242
  0
SOLID
  8
0
 62
2
  6
CONTINUOUS
 10
9.5429732694
 20
25.9204907242
 11
9.4925627774
 21
25.8838653579
 12
9.1945061865
 22
25.8838653579
 13
9.1945061865
 23
25.8838653579
  0
SOLID
  8
0
 62
2
  6
CONTINUOUS
 10
9.2514299301
 20
25.8585212744
 11
9.1945061865
 21
25.8838653579
 12
9.4925627774
 22
25.8838653579
 13
9.4925627774
 23
25.8838653579
  0
SOLID
  8
0
 62
2
  6
CONTINUOUS
 10
9.4925627774
 20
25.8838653579
 11
9.4356390339
 21
25.8585212744
 12
9.2514299301
 22
25.8585212744
 13
9.2514299301
 23
25.8585212744
  0
SOLID
  8
0
 62
2
  6
CONTINUOUS
 10
9.3123790845
 20
25.8455661317
 11
9.2514299301
 21
25.8585212744
 12
9.4356390339
 22
25.8585212744
 13
9.4356390339
 23
25.8585212744
  0
SOLID
  8
0
 62
2
  6
CONTINUOUS
 10
9.4356390339
 20
25.8585212744
 11
9.3746898794
 21
25.8455661317
 12
9.3123790845
 22
25.8455661317
 13
9.3123790845
 23
25.8455661317
  0
SOLID
  8
0
 62
2
  6
CONTINUOUS
 10
9.9714368113
 20
26.2156842543
 11
9.9714368113
 21
26.436068014
 12
10.1361704912
 22
26.436068014
 13
10.1361704912
 23
26.436068014
  0
SOLID
  8
0
 62
2
  6
CONTINUOUS
 10
9.9714368113
 20
26.2156842543
 11
9.8234400002
 21
26.0784789744
 12
9.8234400002
 22
26.2156842543
 13
9.8234400002
 23
26.2156842543
  0
SOLID
  8
0
 62
2
  6
CONTINUOUS
 10
9.8234400002
 20
26.0784789744
 11
9.6587063203
 21
25.8501543646
 12
9.8234400002
 22
26.2156842543
 13
9.8234400002
 23
26.2156842543
  0
SOLID
  8
0
 62
2
  6
CONTINUOUS
 10
9.8234400002
 20
26.2156842543
 11
9.6587063203
 21
25.8501543646
 12
9.8234400002
 22
26.436068014
 13
9.8234400002
 23
26.436068014
  0
SOLID
  8
0
 62
2
  6
CONTINUOUS
 10
9.6587063203
 20
25.8501543646
 11
9.6587063203
 21
26.436068014
 12
9.8234400002
 22
26.436068014
 13
9.8234400002
 23
26.436068014
  0
SOLID
  8
0
 62
2
  6
CONTINUOUS
 10
9.8234400002
 20
26.0784789744
 11
9.8234400002
 21
25.8501543646
 12
9.6587063203
 22
25.8501543646
 13
9.6587063203
 23
25.8501543646
  0
SOLID
  8
0
 62
2
  6
CONTINUOUS
 10
9.8234400002
 20
26.0784789744
 11
9.9714368113
 21
26.2156842543
 12
9.9714368113
 22
26.0784789744
 13
9.9714368113
 23
26.0784789744
  0
SOLID
  8
0
 62
2
  6
CONTINUOUS
 10
9.9714368113
 20
26.2156842543
 11
10.1361704912
 21
26.436068014
 12
9.9714368113
 22
26.0784789744
 13
9.9714368113
 23
26.0784789744
  0
SOLID
  8
0
 62
2
  6
CONTINUOUS
 10
9.9714368113
 20
26.0784789744
 11
10.1361704912
 21
26.436068014
 12
9.9714368113
 22
25.8501543646
 13
9.9714368113
 23
25.8501543646
  0
SOLID
  8
0
 62
2
  6
CONTINUOUS
 10
10.1361704912
 20
26.436068014
 11
10.1361704912
 21
25.8501543646
 12
9.9714368113
 22
25.8501543646
 13
9.9714368113
 23
25.8501543646
  0
SOLID
  8
0
 62
2
  6
CONTINUOUS
 10
10.4939454681
 20
25.9913811218
 11
10.1812153354
 21
25.8501543646
 12
10.3312613981
 22
25.9913811218
 13
10.3312613981
 23
25.9913811218
  0
SOLID
  8
0
 62
2
  6
CONTINUOUS
 10
10.3312613981
 20
25.9913811218
 11
10.1812153354
 21
25.8501543646
 12
10.3312613981
 22
26.436068014
 13
10.3312613981
 23
26.436068014
  0
SOLID
  8
0
 62
2
  6
CONTINUOUS
 10
10.1812153354
 20
25.8501543646
 11
10.1812153354
 21
26.436068014
 12
10.3312613981
 22
26.436068014
 13
10.3312613981
 23
26.436068014
  0
SOLID
  8
0
 62
2
  6
CONTINUOUS
 10
10.1812153354
 20
25.8501543646
 11
10.4939454681
 21
25.9913811218
 12
10.3312613981
 22
25.8501543646
 13
10.3312613981
 23
25.8501543646
  0
SOLID
  8
0
 62
2
  6
CONTINUOUS
 10
10.4939454681
 20
25.9913811218
 11
10.4939454681
 21
25.8501543646
 12
10.3312613981
 22
25.8501543646
 13
10.3312613981
 23
25.8501543646
  0
SOLID
  8
0
 62
2
  6
CONTINUOUS
 10
10.8321973821
 20
26.436068014
 11
10.8321973821
 21
26.2933086172
 12
10.6813398587
 22
26.2933086172
 13
10.6813398587
 23
26.2933086172
  0
SOLID
  8
0
 62
2
  6
CONTINUOUS
 10
10.8321973821
 20
26.2156842543
 11
10.8321973821
 21
26.0713026528
 12
10.6813398587
 22
26.0713026528
 13
10.6813398587
 23
26.0713026528
  0
SOLID
  8
0
 62
2
  6
CONTINUOUS
 10
10.8321973821
 20
25.9913811218
 11
10.5230932067
 21
25.8501543646
 12
10.6813398587
 22
25.9913811218
 13
10.6813398587
 23
25.9913811218
  0
SOLID
  8
0
 62
2
  6
CONTINUOUS
 10
10.6813398587
 20
25.9913811218
 11
10.5230932067
 21
25.8501543646
 12
10.6813398587
 22
26.0713026528
 13
10.6813398587
 23
26.0713026528
  0
SOLID
  8
0
 62
2
  6
CONTINUOUS
 10
10.8321973821
 20
26.2156842543
 11
10.6813398587
 21
26.0713026528
 12
10.6813398587
 22
26.2156842543
 13
10.6813398587
 23
26.2156842543
  0
SOLID
  8
0
 62
2
  6
CONTINUOUS
 10
10.6813398587
 20
26.0713026528
 11
10.5230932067
 21
25.8501543646
 12
10.6813398587
 22
26.2156842543
 13
10.6813398587
 23
26.2156842543
  0
SOLID
  8
0
 62
2
  6
CONTINUOUS
 10
10.6813398587
 20
26.2156842543
 11
10.5230932067
 21
25.8501543646
 12
10.6813398587
 22
26.2933086172
 13
10.6813398587
 23
26.2933086172
  0
SOLID
  8
0
 62
2
  6
CONTINUOUS
 10
10.8321973821
 20
26.436068014
 11
10.6813398587
 21
26.2933086172
 12
10.695544182
 22
26.436068014
 13
10.695544182
 23
26.436068014
  0
SOLID
  8
0
 62
2
  6
CONTINUOUS
 10
10.6813398587
 20
26.2933086172
 11
10.5230932067
 21
25.8501543646
 12
10.695544182
 22
26.436068014
 13
10.695544182
 23
26.436068014
  0
SOLID
  8
0
 62
2
  6
CONTINUOUS
 10
10.5230932067
 20
25.8501543646
 11
10.5230932067
 21
26.436068014
 12
10.695544182
 22
26.436068014
 13
10.695544182
 23
26.436068014
  0
SOLID
  8
0
 62
2
  6
CONTINUOUS
 10
10.8321973821
 20
25.9913811218
 11
10.8321973821
 21
25.8501543646
 12
10.5230932067
 22
25.8501543646
 13
10.5230932067
 23
25.8501543646
  0
SOLID
  8
0
 62
2
  6
CONTINUOUS
 10
11.1105652974
 20
26.4360751196
 11
11.157498321
 21
26.4296648712
 12
10.8770175968
 22
26.436068014
 13
10.8770175968
 23
26.436068014
  0
SOLID
  8
0
 62
2
  6
CONTINUOUS
 10
11.0276734194
 20
26.2934891807
 11
11.2816131604
 21
26.2981185162
 12
11.0836033008
 22
26.2934891807
 13
11.0836033008
 23
26.2934891807
  0
SOLID
  8
0
 62
2
  6
CONTINUOUS
 10
11.0836033008
 20
26.2934891807
 11
11.2816131604
 21
26.2981185162
 12
11.1073258824
 22
26.2879550123
 13
11.1073258824
 23
26.2879550123
  0
SOLID
  8
0
 62
2
  6
CONTINUOUS
 10
11.1073258824
 20
26.2879550123
 11
11.2816131604
 21
26.2981185162
 12
11.1261508701
 22
26.2724951373
 13
11.1261508701
 23
26.2724951373
  0
SOLID
  8
0
 62
2
  6
CONTINUOUS
 10
11.2816131604
 20
26.2981185162
 11
11.2852864069
 21
26.2508923874
 12
11.1261508701
 22
26.2724951373
 13
11.1261508701
 23
26.2724951373
  0
SOLID
  8
0
 62
2
  6
CONTINUOUS
 10
11.1361918086
 20
26.2503012767
 11
11.1261508701
 21
26.2724951373
 12
11.2852864069
 22
26.2508923874
 13
11.2852864069
 23
26.2508923874
  0
SOLID
  8
0
 62
2
  6
CONTINUOUS
 10
11.1361918086
 20
26.2503012767
 11
11.2852864069
 21
26.2508923874
 12
11.1353757269
 22
26.225955396
 13
11.1353757269
 23
26.225955396
  0
SOLID
  8
0
 62
2
  6
CONTINUOUS
 10
11.1353757269
 20
26.225955396
 11
11.2852864069
 21
26.2508923874
 12
11.1238711066
 22
26.2044837494
 13
11.1238711066
 23
26.2044837494
  0
SOLID
  8
0
 62
2
  6
CONTINUOUS
 10
11.2852864069
 20
26.2508923874
 11
11.2761608032
 21
26.2044109573
 12
11.1238711066
 22
26.2044837494
 13
11.1238711066
 23
26.2044837494
  0
SOLID
  8
0
 62
2
  6
CONTINUOUS
 10
11.1040530988
 20
26.1903191999
 11
11.1238711066
 21
26.2044837494
 12
11.2761608032
 22
26.2044109573
 13
11.2761608032
 23
26.2044109573
  0
SOLID
  8
0
 62
2
  6
CONTINUOUS
 10
11.1040530988
 20
26.1903191999
 11
11.2761608032
 21
26.2044109573
 12
11.0800131695
 22
26.1863860461
 13
11.0800131695
 23
26.1863860461
  0
SOLID
  8
0
 62
2
  6
CONTINUOUS
 10
11.2761608032
 20
26.2044109573
 11
11.2549048275
 21
26.1620791314
 12
11.0800131695
 22
26.1863860461
 13
11.0800131695
 23
26.1863860461
  0
SOLID
  8
0
 62
2
  6
CONTINUOUS
 10
11.1830045451
 20
26.1017369059
 11
11.0276734194
 21
26.0471107355
 12
11.2230755444
 22
26.1269978442
 13
11.2230755444
 23
26.1269978442
  0
SOLID
  8
0
 62
2
  6
CONTINUOUS
 10
11.2230755444
 20
26.1269978442
 11
11.0276734194
 21
26.0471107355
 12
11.2549048275
 22
26.1620791314
 13
11.2549048275
 23
26.1620791314
  0
SOLID
  8
0
 62
2
  6
CONTINUOUS
 10
11.2549048275
 20
26.1620791314
 11
11.0276734194
 21
26.0471107355
 12
11.0800131695
 22
26.1863860461
 13
11.0800131695
 23
26.1863860461
  0
SOLID
  8
0
 62
2
  6
CONTINUOUS
 10
11.0276734194
 20
26.0471107355
 11
10.8770175968
 21
25.8501543646
 12
11.0800131695
 22
26.1863860461
 13
11.0800131695
 23
26.1863860461
  0
SOLID
  8
0
 62
2
  6
CONTINUOUS
 10
11.0800131695
 20
26.1863860461
 11
10.8770175968
 21
25.8501543646
 12
11.0276734194
 22
26.1863860461
 13
11.0276734194
 23
26.1863860461
  0
SOLID
  8
0
 62
2
  6
CONTINUOUS
 10
11.0276734194
 20
26.1863860461
 11
10.8770175968
 21
25.8501543646
 12
11.0276734194
 22
26.2934891807
 13
11.0276734194
 23
26.2934891807
  0
SOLID
  8
0
 62
2
  6
CONTINUOUS
 10
11.2816131604
 20
26.2981185162
 11
11.0276734194
 21
26.2934891807
 12
11.2654101403
 22
26.3426298869
 13
11.2654101403
 23
26.3426298869
  0
SOLID
  8
0
 62
2
  6
CONTINUOUS
 10
11.2654101403
 20
26.3426298869
 11
11.0276734194
 21
26.2934891807
 12
11.2378642668
 22
26.3811659068
 13
11.2378642668
 23
26.3811659068
  0
SOLID
  8
0
 62
2
  6
CONTINUOUS
 10
11.2378642668
 20
26.3811659068
 11
11.0276734194
 21
26.2934891807
 12
11.2009933585
 22
26.410903696
 13
11.2009933585
 23
26.410903696
  0
SOLID
  8
0
 62
2
  6
CONTINUOUS
 10
11.2009933585
 20
26.410903696
 11
11.0276734194
 21
26.2934891807
 12
11.157498321
 22
26.4296648712
 13
11.157498321
 23
26.4296648712
  0
SOLID
  8
0
 62
2
  6
CONTINUOUS
 10
11.157498321
 20
26.4296648712
 11
11.0276734194
 21
26.2934891807
 12
10.8770175968
 22
26.436068014
 13
10.8770175968
 23
26.436068014
  0
SOLID
  8
0
 62
2
  6
CONTINUOUS
 10
10.8770175968
 20
25.8501543646
 11
10.8770175968
 21
26.436068014
 12
11.0276734194
 22
26.2934891807
 13
11.0276734194
 23
26.2934891807
  0
SOLID
  8
0
 62
2
  6
CONTINUOUS
 10
11.0276734194
 20
26.0471107355
 11
11.0276734194
 21
25.8501543646
 12
10.8770175968
 22
25.8501543646
 13
10.8770175968
 23
25.8501543646
  0
SOLID
  8
0
 62
2
  6
CONTINUOUS
 10
11.0276734194
 20
26.0471107355
 11
11.1830045451
 21
26.1017369059
 12
11.1524968485
 22
25.8501543646
 13
11.1524968485
 23
25.8501543646
  0
SOLID
  8
0
 62
2
  6
CONTINUOUS
 10
11.1830045451
 20
26.1017369059
 11
11.3424477881
 21
25.8501543646
 12
11.1524968485
 22
25.8501543646
 13
11.1524968485
 23
25.8501543646
  0
DIMENSION
  8
0
 62
2
  6
CONTINUOUS
  2
*D0
 10
35.5510119029
 20
8.5196610709
 11
34.6567887169
 21
8.4631752064
 70
131
 15
36.7551771672
 25
7.625241697
  0
DIMENSION
  8
0
 62
2
  6
CONTINUOUS
  2
*D1
 10
36.903094535
 20
14.4573912388
 11
18.8159431248
 21
14.3402037388
 70
128
 13
4.403094535
 23
8.072451384
 14
36.903094535
 24
8.072451384
  0
DIMENSION
  8
0
 62
2
  6
CONTINUOUS
  2
*D2
 10
23.4551079078
 20
7.322451384
 11
23.4551079078
 21
13.7522236202
 70
128
 13
5.153094535
 23
28.822451384
 14
5.153094535
 24
7.322451384
 50
270.0
  0
TEXT
  8
0
 62
2
  6
CONTINUOUS
 10
8.5989447095
 20
25.4365167438
  7
STANDARD
 40
0.25
  1
CUT-OUT TEMPLATE
 41
0.8
 72
0
  0
TEXT
  8
0
 62
2
  6
CONTINUOUS
 10
8.5989447095
 20
25.0615167438
  7
STANDARD
 40
0.25
  1
SELF-RIMMING SINK
 41
0.8
 72
0
  0
TEXT
  8
0
 62
2
  6
CONTINUOUS
 10
8.5989447095
 20
24.6865167438
  7
STANDARD
 40
0.25
  1
GABARIT
 41
0.8
 72
0
  0
TEXT
  8
0
 62
2
  6
CONTINUOUS
 10
8.5989447095
 20
24.3115167438
  7
STANDARD
 40
0.25
  1
ÉVIER À REBORD INTÉGRÉ
 41
0.8
 72
0
  0
TEXT
  8
0
 62
2
  6
CONTINUOUS
 10
8.5989447095
 20
23.9365167438
  7
STANDARD
 40
0.25
  1
PLANTILLA DE RECORTE
 41
0.8
 72
0
  0
TEXT
  8
0
 62
2
  6
CONTINUOUS
 10
8.5989447095
 20
23.5615167438
  7
STANDARD
 40
0.25
  1
FREGADERO CON BORDE TERMINADO
 41
0.8
 72
0
  0
TEXT
  8
0
 62
2
  6
CONTINUOUS
 10
8.5989447095
 20
23.1865167438
  7
STANDARD
 40
0.25
  1
VERSE       3371-**-AA
 41
0.8
 72
0
  0
TEXT
  8
0
 62
2
  6
CONTINUOUS
 10
8.5989447095
 20
22.8115167438
  7
STANDARD
 40
0.25
  1
 
 41
0.8
 72
0
  0
TEXT
  8
0
 62
2
  6
CONTINUOUS
 10
8.5989447095
 20
22.4365167438
  7
STANDARD
 40
0.25
  1
            3372-**-AA
 41
0.8
 72
0
  0
TEXT
  8
0
 62
2
  6
CONTINUOUS
 10
8.5989447095
 20
22.0615167438
  7
STANDARD
 40
0.25
  1
 
 41
0.8
 72
0
  0
TEXT
  8
0
 62
2
  6
CONTINUOUS
 10
8.5989447095
 20
21.6865167438
  7
STANDARD
 40
0.25
  1
            3373-**-AA
 41
0.8
 72
0
  0
TEXT
  8
0
 62
2
  6
CONTINUOUS
 10
8.5989447095
 20
21.3115167438
  7
STANDARD
 40
0.25
  1
   
 41
0.8
 72
0
  0
TEXT
  8
0
 62
2
  6
CONTINUOUS
 10
8.5989447095
 20
20.9365167438
  7
STANDARD
 40
0.25
  1
           20060-**-AA
 41
0.8
 72
0
  0
TEXT
  8
0
 62
2
  6
CONTINUOUS
 10
9.6588213808
 20
23.3295690201
  7
STANDARD
 40
0.094
  1
TM
 41
0.8
 72
0
  0
TEXT
  8
___NOTE
 62
2
  6
CONTINUOUS
 10
24.6809298801
 20
12.1758130455
  7
STANDARD
 40
0.15625
  1
WHEN PLOTTING TEMPLATE FULL SIZE:
 41
0.8
 72
0
  0
TEXT
  8
___NOTE
 62
2
  6
CONTINUOUS
 10
24.6809298801
 20
11.9414380455
  7
STANDARD
 40
0.15625
  1
Make sure horizontal and vertical dimensions
 41
0.8
 72
0
  0
TEXT
  8
___NOTE
 62
2
  6
CONTINUOUS
 10
24.6809298801
 20
11.7070630455
  7
STANDARD
 40
0.15625
  1
match the dimensions labeled on the template.
 41
0.8
 72
0
  0
TEXT
  8
___NOTE
 62
2
  6
CONTINUOUS
 10
24.6809298801
 20
11.4726880455
  7
STANDARD
 40
0.15625
  1
 
 41
0.8
 72
0
  0
TEXT
  8
___NOTE
 62
2
  6
CONTINUOUS
 10
24.6809298801
 20
11.2383130455
  7
STANDARD
 40
0.15625
  1
AU MOMENT DE TRACER LA DÉCOUPE À L'ÉCHELLE,
 41
0.8
 72
0
  0
TEXT
  8
___NOTE
 62
2
  6
CONTINUOUS
 10
24.6809298801
 20
11.0039380455
  7
STANDARD
 40
0.15625
  1
Assurez vos que les dimensions horizotales et
 41
0.8
 72
0
  0
TEXT
  8
___NOTE
 62
2
  6
CONTINUOUS
 10
24.6809298801
 20
10.7695630455
  7
STANDARD
 40
0.15625
  1
verticales correspondent avec les dimensions du plan.
 41
0.8
 72
0
  0
TEXT
  8
___NOTE
 62
2
  6
CONTINUOUS
 10
24.6809298801
 20
10.5351880455
  7
STANDARD
 40
0.15625
  1
 
 41
0.8
 72
0
  0
TEXT
  8
___NOTE
 62
2
  6
CONTINUOUS
 10
24.6809298801
 20
10.3008130455
  7
STANDARD
 40
0.15625
  1
AL TRAZAR LA PLANTILLA A ESCALA,
 41
0.8
 72
0
  0
TEXT
  8
___NOTE
 62
2
  6
CONTINUOUS
 10
24.6809298801
 20
10.0664380455
  7
STANDARD
 40
0.15625
  1
asegúrese de que las dimensiones horizontales
 41
0.8
 72
0
  0
TEXT
  8
___NOTE
 62
2
  6
CONTINUOUS
 10
24.6809298801
 20
9.8320630455
  7
STANDARD
 40
0.15625
  1
y verticales concuerden con las dimensiones marcadas
 41
0.8
 72
0
  0
TEXT
  8
___NOTE
 62
2
  6
CONTINUOUS
 10
24.6809298801
 20
9.5976880455
  7
STANDARD
 40
0.15625
  1
en la plantilla.
 41
0.8
 72
0
  0
TEXT
  8
___NOTE
 62
2
  6
CONTINUOUS
 10
24.6809298801
 20
9.3633130455
  7
STANDARD
 40
0.15625
  1
 
 41
0.8
 72
0
  0
TEXT
  8
___NOTE
 62
2
  6
CONTINUOUS
 10
24.6809298801
 20
9.1289380455
  7
STANDARD
 40
0.15625
  1
 
 41
0.8
 72
0
  0
TEXT
  8
___NOTE
 62
2
  6
CONTINUOUS
 10
8.0075852786
 20
7.9597236273
  7
STANDARD
 40
0.15625
  1
1068371-7-B
 41
0.8
 72
0
  0
TEXT
  8
___NOTE
 62
2
  6
CONTINUOUS
 10
8.0075852786
 20
7.7253486273
  7
STANDARD
 40
0.15625
  1
 
 41
0.8
 72
0
  0
TEXT
  8
___NOTE
 62
2
  6
CONTINUOUS
 10
8.0075852786
 20
7.4909736273
  7
STANDARD
 40
0.15625
  1
 
 41
0.8
 72
0
  0
TEXT
  8
___NOTE
 62
2
  6
CONTINUOUS
 10
8.0075852786
 20
7.2565986273
  7
STANDARD
 40
0.15625
  1
 
 41
0.8
 72
0
  0
TEXT
  8
___NOTE
 62
2
  6
CONTINUOUS
 10
8.0075852786
 20
7.0222236273
  7
STANDARD
 40
0.15625
  1
 
 41
0.8
 72
0
  0
TEXT
  8
___NOTE
 62
2
  6
CONTINUOUS
 10
8.0075852786
 20
6.7878486273
  7
STANDARD
 40
0.15625
  1
 
 41
0.8
 72
0
  0
TEXT
  8
___NOTE
 62
2
  6
CONTINUOUS
 10
8.0075852786
 20
6.5534736273
  7
STANDARD
 40
0.15625
  1
 
 41
0.8
 72
0
  0
TEXT
  8
___NOTE
 62
2
  6
CONTINUOUS
 10
8.0075852786
 20
6.3190986273
  7
STANDARD
 40
0.15625
  1
1068371-7-B
 41
0.8
 72
0
  0
TEXT
  8
___NOTE
 62
2
  6
CONTINUOUS
 10
32.7586715442
 20
25.0047680775
  7
STANDARD
 40
0.15625
  1
RIM OF SINK
 41
0.8
 72
2
 11
34.1336715442
 21
25.0047680775
  0
TEXT
  8
___NOTE
 62
2
  6
CONTINUOUS
 10
32.3836715442
 20
24.7703930775
  7
STANDARD
 40
0.15625
  1
REBORD D'ÉVIER
 41
0.8
 72
2
 11
34.1336715442
 21
24.7703930775
  0
TEXT
  8
___NOTE
 62
2
  6
CONTINUOUS
 10
31.6336715442
 20
24.5360180775
  7
STANDARD
 40
0.15625
  1
REBORDE DE FREGADERO
 41
0.8
 72
2
 11
34.1336715442
 21
24.5360180775
  0
TEXT
  8
___NOTE
 62
2
  6
CONTINUOUS
 10
34.0086715442
 20
24.3016430775
  7
STANDARD
 40
0.15625
  1
 
 41
0.8
 72
2
 11
34.1336715442
 21
24.3016430775
  0
LINE
  8
___NOTE
 62
2
  6
CONTINUOUS
 10
37.153094535
 20
25.9375164981
 11
34.3836715442
 21
25.0828930775
  0
LINE
  8
___NOTE
 62
2
  6
CONTINUOUS
 10
34.3836715442
 20
25.0828930775
 11
34.1336715442
 21
25.0828930775
  0
SOLID
  8
___NOTE
 62
2
  6
CONTINUOUS
 10
36.9831461069
 20
25.8523675447
 11
37.153094535
 21
25.9375164981
 12
36.9647166316
 22
25.9120885999
 13
36.9647166316
 23
25.9120885999
  0
TEXT
  8
___NOTE
 62
2
  6
CONTINUOUS
 10
31.8567544234
 20
23.1006808796
  7
STANDARD
 40
0.15625
  1
CUT ALONG THIS LINE
 41
0.8
 72
2
 11
34.2317544234
 21
23.1006808796
  0
TEXT
  8
___NOTE
 62
2
  6
CONTINUOUS
 10
30.3567544234
 20
22.8663058796
  7
STANDARD
 40
0.15625
  1
DÉCOUPER AU LONG DE CETTE LIGNE
 41
0.8
 72
2
 11
34.2317544234
 21
22.8663058796
  0
TEXT
  8
___NOTE
 62
2
  6
CONTINUOUS
 10
30.4817544234
 20
22.6319308796
  7
STANDARD
 40
0.15625
  1
CORTE A LO LARGO DE ESTA LÍNEA
 41
0.8
 72
2
 11
34.2317544234
 21
22.6319308796
  0
TEXT
  8
___NOTE
 62
2
  6
CONTINUOUS
 10
34.1067544234
 20
22.3975558796
  7
STANDARD
 40
0.15625
  1
 
 41
0.8
 72
2
 11
34.2317544234
 21
22.3975558796
  0
LINE
  8
___NOTE
 62
2
  6
CONTINUOUS
 10
36.903094535
 20
23.8735115624
 11
34.4817544234
 21
23.1788058796
  0
LINE
  8
___NOTE
 62
2
  6
CONTINUOUS
 10
34.4817544234
 20
23.1788058796
 11
34.2317544234
 21
23.1788058796
  0
SOLID
  8
___NOTE
 62
2
  6
CONTINUOUS
 10
36.7314840348
 20
23.7917640932
 11
36.903094535
 21
23.8735115624
 12
36.7142475854
 22
23.8518403348
 13
36.7142475854
 23
23.8518403348
  0
INSERT
  8
___SYMBOL
 62
2
  6
CONTINUOUS
  2
COPYRIGHT_YEAR_BL0
 10
31.85660481
 20
6.6050781909
  0
INSERT
  8
___SYMBOL
 62
2
  6
CONTINUOUS
  2
SCISSORS_BL1
 10
36.8955947839
 20
22.957233221
  0
LINE
  8
0
 62
7
  6
CONTINUOUS
 10
0.0
 20
0.0
 11
0.0
 21
34.0
  0
LINE
  8
0
 62
7
  6
CONTINUOUS
 10
0.0
 20
0.0
 11
44.0
 21
0.0
  0
LINE
  8
0
 62
2
  6
CONTINUOUS
 10
8.9347594504
 20
26.436068014
 11
8.7969952837
 21
26.2722468243
  0
LINE
  8
0
 62
2
  6
CONTINUOUS
 10
9.1268212625
 20
26.436068014
 11
8.9135178106
 21
26.1824197411
  0
LINE
  8
0
 62
2
  6
CONTINUOUS
 10
8.6224950567
 20
26.436068014
 11
8.6224950567
 21
25.8501303612
  0
LINE
  8
0
 62
2
  6
CONTINUOUS
 10
8.7969952837
 20
26.436068014
 11
8.7969952837
 21
26.2722468243
  0
LINE
  8
0
 62
2
  6
CONTINUOUS
 10
8.7969952837
 20
26.0516541986
 11
8.7969952837
 21
25.8501543646
  0
LINE
  8
0
 62
2
  6
CONTINUOUS
 10
9.6587063203
 20
26.436068014
 11
9.6587063203
 21
25.8501543646
  0
LINE
  8
0
 62
2
  6
CONTINUOUS
 10
9.8234400002
 20
26.436068014
 11
9.8234400002
 21
26.2156842543
  0
LINE
  8
0
 62
2
  6
CONTINUOUS
 10
9.8234400002
 20
26.0784789744
 11
9.8234400002
 21
25.8501543646
  0
LINE
  8
0
 62
2
  6
CONTINUOUS
 10
9.9714368113
 20
26.436068014
 11
9.9714368113
 21
26.2156842543
  0
LINE
  8
0
 62
2
  6
CONTINUOUS
 10
9.9714368113
 20
26.0784789744
 11
9.9714368113
 21
25.8501543646
  0
LINE
  8
0
 62
2
  6
CONTINUOUS
 10
10.1361704912
 20
26.436068014
 11
10.1361704912
 21
25.8501543646
  0
LINE
  8
0
 62
2
  6
CONTINUOUS
 10
10.1812153354
 20
25.8501543646
 11
10.1812153354
 21
26.436068014
  0
LINE
  8
0
 62
2
  6
CONTINUOUS
 10
10.3312613981
 20
26.436068014
 11
10.3312613981
 21
25.9913811218
  0
LINE
  8
0
 62
2
  6
CONTINUOUS
 10
10.4939454681
 20
25.9913811218
 11
10.4939454681
 21
25.8501543646
  0
LINE
  8
0
 62
2
  6
CONTINUOUS
 10
10.5230932067
 20
25.8501543646
 11
10.5230932067
 21
26.436068014
  0
LINE
  8
0
 62
2
  6
CONTINUOUS
 10
10.6813398587
 20
26.2933086172
 11
10.6813398587
 21
26.2156842543
  0
LINE
  8
0
 62
2
  6
CONTINUOUS
 10
10.6813398587
 20
26.0713026528
 11
10.6813398587
 21
25.9913811218
  0
LINE
  8
0
 62
2
  6
CONTINUOUS
 10
10.8321973821
 20
25.8501543646
 11
10.8321973821
 21
25.9913811218
  0
LINE
  8
0
 62
2
  6
CONTINUOUS
 10
10.8321973821
 20
26.0713026528
 11
10.8321973821
 21
26.2156842543
  0
LINE
  8
0
 62
2
  6
CONTINUOUS
 10
10.8321973821
 20
26.2933086172
 11
10.8321973821
 21
26.436068014
  0
LINE
  8
0
 62
2
  6
CONTINUOUS
 10
10.8770175968
 20
25.8501543646
 11
10.8770175968
 21
26.436068014
  0
LINE
  8
0
 62
2
  6
CONTINUOUS
 10
11.0276734194
 20
26.2934891807
 11
11.0276734194
 21
26.1863860461
  0
LINE
  8
0
 62
2
  6
CONTINUOUS
 10
11.0276734194
 20
26.0471107355
 11
11.0276734194
 21
25.8501543646
  0
LINE
  8
0
 62
2
  6
CONTINUOUS
 10
11.4673317633
 20
25.8173136739
 11
11.4673317633
 21
25.8832798727
  0
POLYLINE
  8
0
 62
7
  6
CONTINUOUS
 66
1
 70
0
  0
VERTEX
  8
0
 62
7
  6
CONTINUOUS
 10
12.7463542464
 20
23.5072284296
  0
VERTEX
  8
0
 62
7
  6
CONTINUOUS
 10
12.7250748275
 20
23.5011417832
  0
VERTEX
  8
0
 62
7
  6
CONTINUOUS
 10
12.704468777
 20
23.4930643671
  0
VERTEX
  8
0
 62
7
  6
CONTINUOUS
 10
12.6847218954
 20
23.4830690137
  0
VERTEX
  8
0
 62
7
  6
CONTINUOUS
 10
12.6660122361
 20
23.471245849
  0
VERTEX
  8
0
 62
7
  6
CONTINUOUS
 10
12.6485085003
 20
23.45770148
  0
VERTEX
  8
0
 62
7
  6
CONTINUOUS
 10
12.6323685154
 20
23.4425580335
  0
VERTEX
  8
0
 62
7
  6
CONTINUOUS
 10
12.6177378123
 20
23.4259520547
  0
VERTEX
  8
0
 62
7
  6
CONTINUOUS
 10
12.6047483131
 20
23.4080332762
  0
VERTEX
  8
0
 62
7
  6
CONTINUOUS
 10
12.5935171412
 20
23.388963268
  0
VERTEX
  8
0
 62
7
  6
CONTINUOUS
 10
12.5841455658
 20
23.3689139803
  0
VERTEX
  8
0
 62
7
  6
CONTINUOUS
 10
12.5767180884
 20
23.3480661933
  0
VERTEX
  8
0
 62
7
  6
CONTINUOUS
 10
12.5713016811
 20
23.3266078871
  0
VERTEX
  8
0
 62
7
  6
CONTINUOUS
 10
12.5679451824
 20
23.3047325469
  0
VERTEX
  8
0
 62
7
  6
CONTINUOUS
 10
12.5666788573
 20
23.2826374179
  0
VERTEX
  8
0
 62
7
  6
CONTINUOUS
 10
12.5675141238
 20
23.2605217272
  0
VERTEX
  8
0
 62
7
  6
CONTINUOUS
 10
12.5704434506
 20
23.2385848876
  0
VERTEX
  8
0
 62
7
  6
CONTINUOUS
 10
12.5754404245
 20
23.2170246987
  0
VERTEX
  8
0
 62
7
  6
CONTINUOUS
 10
12.5824599888
 20
23.1960355644
  0
VERTEX
  8
0
 62
7
  6
CONTINUOUS
 10
12.5914388498
 20
23.1758067392
  0
VERTEX
  8
0
 62
7
  6
CONTINUOUS
 10
12.6022960467
 20
23.1565206223
  0
VERTEX
  8
0
 62
7
  6
CONTINUOUS
 10
12.6149336826
 20
23.1383511125
  0
VERTEX
  8
0
 62
7
  6
CONTINUOUS
 10
12.6292378065
 20
23.1214620404
  0
VERTEX
  8
0
 62
7
  6
CONTINUOUS
 10
12.6450794412
 20
23.1060056913
  0
VERTEX
  8
0
 62
7
  6
CONTINUOUS
 10
12.6623157459
 20
23.0921214319
  0
VERTEX
  8
0
 62
7
  6
CONTINUOUS
 10
12.6807913046
 20
23.0799344535
  0
VERTEX
  8
0
 62
7
  6
CONTINUOUS
 10
12.7003395269
 20
23.0695546437
  0
VERTEX
  8
0
 62
7
  6
CONTINUOUS
 10
12.7207841506
 20
23.061075595
  0
VERTEX
  8
0
 62
7
  6
CONTINUOUS
 10
12.741940831
 20
23.0545737612
  0
VERTEX
  8
0
 62
7
  6
CONTINUOUS
 10
12.7636188025
 20
23.050107768
  0
VERTEX
  8
0
 62
7
  6
CONTINUOUS
 10
12.7856225995
 20
23.0477178843
  0
VERTEX
  8
0
 62
7
  6
CONTINUOUS
 10
12.8077538184
 20
23.0474256591
  0
VERTEX
  8
0
 62
7
  6
CONTINUOUS
 10
12.8298129065
 20
23.0492337275
  0
VERTEX
  8
0
 62
7
  6
CONTINUOUS
 10
12.8516009618
 20
23.0531257864
  0
VERTEX
  8
0
 62
7
  6
CONTINUOUS
 10
12.8729215259
 20
23.059066742
  0
VERTEX
  8
0
 62
7
  6
CONTINUOUS
 10
12.8935823558
 20
23.0670030259
  0
VERTEX
  8
0
 62
7
  6
CONTINUOUS
 10
12.913397157
 20
23.0768630783
  0
VERTEX
  8
0
 62
7
  6
CONTINUOUS
 10
12.9321872636
 20
23.0885579932
  0
VERTEX
  8
0
 62
7
  6
CONTINUOUS
 10
12.9497832493
 20
23.1019823199
  0
VERTEX
  8
0
 62
7
  6
CONTINUOUS
 10
12.9660264547
 20
23.1170150142
  0
VERTEX
  8
0
 62
7
  6
CONTINUOUS
 10
12.9807704182
 20
23.1335205294
  0
VERTEX
  8
0
 62
7
  6
CONTINUOUS
 10
12.9938821965
 20
23.1513500387
  0
VERTEX
  8
0
 62
7
  6
CONTINUOUS
 10
13.0052435636
 20
23.1703427772
  0
VERTEX
  8
0
 62
7
  6
CONTINUOUS
 10
13.0147520764
 20
23.1903274913
  0
VERTEX
  8
0
 62
7
  6
CONTINUOUS
 10
13.0223219986
 20
23.211123983
  0
VERTEX
  8
0
 62
7
  6
CONTINUOUS
 10
13.0278850738
 20
23.2325447348
  0
VERTEX
  8
0
 62
7
  6
CONTINUOUS
 10
13.0313911409
 20
23.2543966002
  0
VERTEX
  8
0
 62
7
  6
CONTINUOUS
 10
13.0328085864
 20
23.2764825456
  0
VERTEX
  8
0
 62
7
  6
CONTINUOUS
 10
13.0321246296
 20
23.2986034265
  0
VERTEX
  8
0
 62
7
  6
CONTINUOUS
 10
13.0293454375
 20
23.3205597837
  0
VERTEX
  8
0
 62
7
  6
CONTINUOUS
 10
13.0244960695
 20
23.3421536413
  0
VERTEX
  8
0
 62
7
  6
CONTINUOUS
 10
13.0176202514
 20
23.3631902919
  0
VERTEX
  8
0
 62
7
  6
CONTINUOUS
 10
13.0087799809
 20
23.3834800525
  0
VERTEX
  8
0
 62
7
  6
CONTINUOUS
 10
12.998054969
 20
23.4028399747
  0
VERTEX
  8
0
 62
7
  6
CONTINUOUS
 10
12.9855419208
 20
23.421095494
  0
VERTEX
  8
0
 62
7
  6
CONTINUOUS
 10
12.9713536638
 20
23.4380820042
  0
VERTEX
  8
0
 62
7
  6
CONTINUOUS
 10
12.9556181307
 20
23.4536463416
  0
VERTEX
  8
0
 62
7
  6
CONTINUOUS
 10
12.9384772053
 20
23.4676481658
  0
VERTEX
  8
0
 62
7
  6
CONTINUOUS
 10
12.9200854439
 20
23.4799612252
  0
VERTEX
  8
0
 62
7
  6
CONTINUOUS
 10
12.900608681
 20
23.4904744957
  0
VERTEX
  8
0
 62
7
  6
CONTINUOUS
 10
12.8802225346
 20
23.4990931811
  0
VERTEX
  8
0
 62
7
  6
CONTINUOUS
 10
12.8591108223
 20
23.5057395688
  0
VERTEX
  8
0
 62
7
  6
CONTINUOUS
 10
12.8374639039
 20
23.5103537295
  0
VERTEX
  8
0
 62
7
  6
CONTINUOUS
 10
12.8154769652
 20
23.5128940583
  0
VERTEX
  8
0
 62
7
  6
CONTINUOUS
 10
12.7933482579
 20
23.5133376497
  0
VERTEX
  8
0
 62
7
  6
CONTINUOUS
 10
12.7712773117
 20
23.5116805038
  0
VERTEX
  8
0
 62
7
  6
CONTINUOUS
 10
12.7494631359
 20
23.5079375629
  0
SEQEND
  0
POLYLINE
  8
0
 62
7
  6
CONTINUOUS
 66
1
 70
0
  0
VERTEX
  8
0
 62
7
  6
CONTINUOUS
 10
12.747942857
 20
22.7632693687
  0
VERTEX
  8
0
 62
7
  6
CONTINUOUS
 10
12.7266634381
 20
22.7571827223
  0
VERTEX
  8
0
 62
7
  6
CONTINUOUS
 10
12.7060573876
 20
22.7491053062
  0
VERTEX
  8
0
 62
7
  6
CONTINUOUS
 10
12.686310506
 20
22.7391099528
  0
VERTEX
  8
0
 62
7
  6
CONTINUOUS
 10
12.6676008467
 20
22.7272867881
  0
VERTEX
  8
0
 62
7
  6
CONTINUOUS
 10
12.6500971109
 20
22.7137424191
  0
VERTEX
  8
0
 62
7
  6
CONTINUOUS
 10
12.633957126
 20
22.6985989726
  0
VERTEX
  8
0
 62
7
  6
CONTINUOUS
 10
12.6193264229
 20
22.6819929938
  0
VERTEX
  8
0
 62
7
  6
CONTINUOUS
 10
12.6063369237
 20
22.6640742153
  0
VERTEX
  8
0
 62
7
  6
CONTINUOUS
 10
12.5951057518
 20
22.6450042071
  0
VERTEX
  8
0
 62
7
  6
CONTINUOUS
 10
12.5857341764
 20
22.6249549194
  0
VERTEX
  8
0
 62
7
  6
CONTINUOUS
 10
12.578306699
 20
22.6041071324
  0
VERTEX
  8
0
 62
7
  6
CONTINUOUS
 10
12.5728902917
 20
22.5826488262
  0
VERTEX
  8
0
 62
7
  6
CONTINUOUS
 10
12.569533793
 20
22.560773486
  0
VERTEX
  8
0
 62
7
  6
CONTINUOUS
 10
12.5682674679
 20
22.538678357
  0
VERTEX
  8
0
 62
7
  6
CONTINUOUS
 10
12.5691027344
 20
22.5165626663
  0
VERTEX
  8
0
 62
7
  6
CONTINUOUS
 10
12.5720320611
 20
22.4946258267
  0
VERTEX
  8
0
 62
7
  6
CONTINUOUS
 10
12.5770290351
 20
22.4730656378
  0
VERTEX
  8
0
 62
7
  6
CONTINUOUS
 10
12.5840485994
 20
22.4520765035
  0
VERTEX
  8
0
 62
7
  6
CONTINUOUS
 10
12.5930274603
 20
22.4318476783
  0
VERTEX
  8
0
 62
7
  6
CONTINUOUS
 10
12.6038846573
 20
22.4125615614
  0
VERTEX
  8
0
 62
7
  6
CONTINUOUS
 10
12.6165222932
 20
22.3943920516
  0
VERTEX
  8
0
 62
7
  6
CONTINUOUS
 10
12.6308264171
 20
22.3775029795
  0
VERTEX
  8
0
 62
7
  6
CONTINUOUS
 10
12.6466680518
 20
22.3620466304
  0
VERTEX
  8
0
 62
7
  6
CONTINUOUS
 10
12.6639043565
 20
22.348162371
  0
VERTEX
  8
0
 62
7
  6
CONTINUOUS
 10
12.6823799152
 20
22.3359753926
  0
VERTEX
  8
0
 62
7
  6
CONTINUOUS
 10
12.7019281375
 20
22.3255955828
  0
VERTEX
  8
0
 62
7
  6
CONTINUOUS
 10
12.7223727612
 20
22.3171165341
  0
VERTEX
  8
0
 62
7
  6
CONTINUOUS
 10
12.7435294415
 20
22.3106147003
  0
VERTEX
  8
0
 62
7
  6
CONTINUOUS
 10
12.7652074131
 20
22.3061487071
  0
VERTEX
  8
0
 62
7
  6
CONTINUOUS
 10
12.7872112101
 20
22.3037588234
  0
VERTEX
  8
0
 62
7
  6
CONTINUOUS
 10
12.809342429
 20
22.3034665982
  0
VERTEX
  8
0
 62
7
  6
CONTINUOUS
 10
12.8314015171
 20
22.3052746666
  0
VERTEX
  8
0
 62
7
  6
CONTINUOUS
 10
12.8531895724
 20
22.3091667255
  0
VERTEX
  8
0
 62
7
  6
CONTINUOUS
 10
12.8745101365
 20
22.3151076811
  0
VERTEX
  8
0
 62
7
  6
CONTINUOUS
 10
12.8951709664
 20
22.323043965
  0
VERTEX
  8
0
 62
7
  6
CONTINUOUS
 10
12.9149857676
 20
22.3329040174
  0
VERTEX
  8
0
 62
7
  6
CONTINUOUS
 10
12.9337758742
 20
22.3445989323
  0
VERTEX
  8
0
 62
7
  6
CONTINUOUS
 10
12.9513718599
 20
22.358023259
  0
VERTEX
  8
0
 62
7
  6
CONTINUOUS
 10
12.9676150653
 20
22.3730559533
  0
VERTEX
  8
0
 62
7
  6
CONTINUOUS
 10
12.9823590288
 20
22.3895614685
  0
VERTEX
  8
0
 62
7
  6
CONTINUOUS
 10
12.9954708071
 20
22.4073909778
  0
VERTEX
  8
0
 62
7
  6
CONTINUOUS
 10
13.0068321742
 20
22.4263837163
  0
VERTEX
  8
0
 62
7
  6
CONTINUOUS
 10
13.016340687
 20
22.4463684304
  0
VERTEX
  8
0
 62
7
  6
CONTINUOUS
 10
13.0239106092
 20
22.4671649221
  0
VERTEX
  8
0
 62
7
  6
CONTINUOUS
 10
13.0294736844
 20
22.4885856739
  0
VERTEX
  8
0
 62
7
  6
CONTINUOUS
 10
13.0329797514
 20
22.5104375393
  0
VERTEX
  8
0
 62
7
  6
CONTINUOUS
 10
13.034397197
 20
22.5325234847
  0
VERTEX
  8
0
 62
7
  6
CONTINUOUS
 10
13.0337132401
 20
22.5546443656
  0
VERTEX
  8
0
 62
7
  6
CONTINUOUS
 10
13.030934048
 20
22.5766007228
  0
VERTEX
  8
0
 62
7
  6
CONTINUOUS
 10
13.0260846801
 20
22.5981945803
  0
VERTEX
  8
0
 62
7
  6
CONTINUOUS
 10
13.019208862
 20
22.619231231
  0
VERTEX
  8
0
 62
7
  6
CONTINUOUS
 10
13.0103685915
 20
22.6395209916
  0
VERTEX
  8
0
 62
7
  6
CONTINUOUS
 10
12.9996435796
 20
22.6588809138
  0
VERTEX
  8
0
 62
7
  6
CONTINUOUS
 10
12.9871305314
 20
22.6771364331
  0
VERTEX
  8
0
 62
7
  6
CONTINUOUS
 10
12.9729422744
 20
22.6941229433
  0
VERTEX
  8
0
 62
7
  6
CONTINUOUS
 10
12.9572067413
 20
22.7096872807
  0
VERTEX
  8
0
 62
7
  6
CONTINUOUS
 10
12.9400658159
 20
22.7236891049
  0
VERTEX
  8
0
 62
7
  6
CONTINUOUS
 10
12.9216740545
 20
22.7360021643
  0
VERTEX
  8
0
 62
7
  6
CONTINUOUS
 10
12.9021972916
 20
22.7465154348
  0
VERTEX
  8
0
 62
7
  6
CONTINUOUS
 10
12.8818111452
 20
22.7551341202
  0
VERTEX
  8
0
 62
7
  6
CONTINUOUS
 10
12.8606994329
 20
22.7617805078
  0
VERTEX
  8
0
 62
7
  6
CONTINUOUS
 10
12.8390525145
 20
22.7663946685
  0
VERTEX
  8
0
 62
7
  6
CONTINUOUS
 10
12.8170655758
 20
22.7689349974
  0
VERTEX
  8
0
 62
7
  6
CONTINUOUS
 10
12.7949368685
 20
22.7693785888
  0
VERTEX
  8
0
 62
7
  6
CONTINUOUS
 10
12.7728659223
 20
22.7677214429
  0
VERTEX
  8
0
 62
7
  6
CONTINUOUS
 10
12.7510517465
 20
22.763978502
  0
SEQEND
  0
POLYLINE
  8
0
 62
7
  6
CONTINUOUS
 66
1
 70
0
  0
VERTEX
  8
0
 62
7
  6
CONTINUOUS
 10
12.7534401719
 20
22.0218364903
  0
VERTEX
  8
0
 62
7
  6
CONTINUOUS
 10
12.732160753
 20
22.0157498439
  0
VERTEX
  8
0
 62
7
  6
CONTINUOUS
 10
12.7115547026
 20
22.0076724278
  0
VERTEX
  8
0
 62
7
  6
CONTINUOUS
 10
12.6918078209
 20
21.9976770744
  0
VERTEX
  8
0
 62
7
  6
CONTINUOUS
 10
12.6730981617
 20
21.9858539097
  0
VERTEX
  8
0
 62
7
  6
CONTINUOUS
 10
12.6555944259
 20
21.9723095407
  0
VERTEX
  8
0
 62
7
  6
CONTINUOUS
 10
12.639454441
 20
21.9571660942
  0
VERTEX
  8
0
 62
7
  6
CONTINUOUS
 10
12.6248237379
 20
21.9405601154
  0
VERTEX
  8
0
 62
7
  6
CONTINUOUS
 10
12.6118342386
 20
21.9226413369
  0
VERTEX
  8
0
 62
7
  6
CONTINUOUS
 10
12.6006030667
 20
21.9035713287
  0
VERTEX
  8
0
 62
7
  6
CONTINUOUS
 10
12.5912314913
 20
21.883522041
  0
VERTEX
  8
0
 62
7
  6
CONTINUOUS
 10
12.583804014
 20
21.862674254
  0
VERTEX
  8
0
 62
7
  6
CONTINUOUS
 10
12.5783876067
 20
21.8412159478
  0
VERTEX
  8
0
 62
7
  6
CONTINUOUS
 10
12.575031108
 20
21.8193406076
  0
VERTEX
  8
0
 62
7
  6
CONTINUOUS
 10
12.5737647828
 20
21.7972454786
  0
VERTEX
  8
0
 62
7
  6
CONTINUOUS
 10
12.5746000493
 20
21.7751297879
  0
VERTEX
  8
0
 62
7
  6
CONTINUOUS
 10
12.5775293761
 20
21.7531929483
  0
VERTEX
  8
0
 62
7
  6
CONTINUOUS
 10
12.58252635
 20
21.7316327594
  0
VERTEX
  8
0
 62
7
  6
CONTINUOUS
 10
12.5895459144
 20
21.7106436251
  0
VERTEX
  8
0
 62
7
  6
CONTINUOUS
 10
12.5985247753
 20
21.6904147999
  0
VERTEX
  8
0
 62
7
  6
CONTINUOUS
 10
12.6093819723
 20
21.671128683
  0
VERTEX
  8
0
 62
7
  6
CONTINUOUS
 10
12.6220196081
 20
21.6529591732
  0
VERTEX
  8
0
 62
7
  6
CONTINUOUS
 10
12.6363237321
 20
21.6360701011
  0
VERTEX
  8
0
 62
7
  6
CONTINUOUS
 10
12.6521653668
 20
21.620613752
  0
VERTEX
  8
0
 62
7
  6
CONTINUOUS
 10
12.6694016715
 20
21.6067294926
  0
VERTEX
  8
0
 62
7
  6
CONTINUOUS
 10
12.6878772301
 20
21.5945425142
  0
VERTEX
  8
0
 62
7
  6
CONTINUOUS
 10
12.7074254524
 20
21.5841627044
  0
VERTEX
  8
0
 62
7
  6
CONTINUOUS
 10
12.7278700762
 20
21.5756836557
  0
VERTEX
  8
0
 62
7
  6
CONTINUOUS
 10
12.7490267565
 20
21.5691818219
  0
VERTEX
  8
0
 62
7
  6
CONTINUOUS
 10
12.7707047281
 20
21.5647158287
  0
VERTEX
  8
0
 62
7
  6
CONTINUOUS
 10
12.7927085251
 20
21.562325945
  0
VERTEX
  8
0
 62
7
  6
CONTINUOUS
 10
12.8148397439
 20
21.5620337198
  0
VERTEX
  8
0
 62
7
  6
CONTINUOUS
 10
12.8368988321
 20
21.5638417882
  0
VERTEX
  8
0
 62
7
  6
CONTINUOUS
 10
12.8586868874
 20
21.5677338471
  0
VERTEX
  8
0
 62
7
  6
CONTINUOUS
 10
12.8800074515
 20
21.5736748027
  0
VERTEX
  8
0
 62
7
  6
CONTINUOUS
 10
12.9006682813
 20
21.5816110866
  0
VERTEX
  8
0
 62
7
  6
CONTINUOUS
 10
12.9204830825
 20
21.591471139
  0
VERTEX
  8
0
 62
7
  6
CONTINUOUS
 10
12.9392731892
 20
21.6031660539
  0
VERTEX
  8
0
 62
7
  6
CONTINUOUS
 10
12.9568691749
 20
21.6165903806
  0
VERTEX
  8
0
 62
7
  6
CONTINUOUS
 10
12.9731123803
 20
21.6316230749
  0
VERTEX
  8
0
 62
7
  6
CONTINUOUS
 10
12.9878563437
 20
21.6481285901
  0
VERTEX
  8
0
 62
7
  6
CONTINUOUS
 10
13.0009681221
 20
21.6659580994
  0
VERTEX
  8
0
 62
7
  6
CONTINUOUS
 10
13.0123294892
 20
21.6849508379
  0
VERTEX
  8
0
 62
7
  6
CONTINUOUS
 10
13.021838002
 20
21.704935552
  0
VERTEX
  8
0
 62
7
  6
CONTINUOUS
 10
13.0294079242
 20
21.7257320437
  0
VERTEX
  8
0
 62
7
  6
CONTINUOUS
 10
13.0349709993
 20
21.7471527955
  0
VERTEX
  8
0
 62
7
  6
CONTINUOUS
 10
13.0384770664
 20
21.7690046609
  0
VERTEX
  8
0
 62
7
  6
CONTINUOUS
 10
13.039894512
 20
21.7910906063
  0
VERTEX
  8
0
 62
7
  6
CONTINUOUS
 10
13.0392105551
 20
21.8132114872
  0
VERTEX
  8
0
 62
7
  6
CONTINUOUS
 10
13.036431363
 20
21.8351678444
  0
VERTEX
  8
0
 62
7
  6
CONTINUOUS
 10
13.031581995
 20
21.8567617019
  0
VERTEX
  8
0
 62
7
  6
CONTINUOUS
 10
13.0247061769
 20
21.8777983526
  0
VERTEX
  8
0
 62
7
  6
CONTINUOUS
 10
13.0158659065
 20
21.8980881132
  0
VERTEX
  8
0
 62
7
  6
CONTINUOUS
 10
13.0051408946
 20
21.9174480354
  0
VERTEX
  8
0
 62
7
  6
CONTINUOUS
 10
12.9926278464
 20
21.9357035547
  0
VERTEX
  8
0
 62
7
  6
CONTINUOUS
 10
12.9784395894
 20
21.9526900649
  0
VERTEX
  8
0
 62
7
  6
CONTINUOUS
 10
12.9627040562
 20
21.9682544023
  0
VERTEX
  8
0
 62
7
  6
CONTINUOUS
 10
12.9455631309
 20
21.9822562265
  0
VERTEX
  8
0
 62
7
  6
CONTINUOUS
 10
12.9271713694
 20
21.9945692859
  0
VERTEX
  8
0
 62
7
  6
CONTINUOUS
 10
12.9076946066
 20
22.0050825564
  0
VERTEX
  8
0
 62
7
  6
CONTINUOUS
 10
12.8873084602
 20
22.0137012418
  0
VERTEX
  8
0
 62
7
  6
CONTINUOUS
 10
12.8661967478
 20
22.0203476295
  0
VERTEX
  8
0
 62
7
  6
CONTINUOUS
 10
12.8445498295
 20
22.0249617901
  0
VERTEX
  8
0
 62
7
  6
CONTINUOUS
 10
12.8225628908
 20
22.027502119
  0
VERTEX
  8
0
 62
7
  6
CONTINUOUS
 10
12.8004341834
 20
22.0279457104
  0
VERTEX
  8
0
 62
7
  6
CONTINUOUS
 10
12.7783632373
 20
22.0262885645
  0
VERTEX
  8
0
 62
7
  6
CONTINUOUS
 10
12.7565490614
 20
22.0225456236
  0
SEQEND
  0
POLYLINE
  8
0
 62
7
  6
CONTINUOUS
 66
1
 70
0
  0
VERTEX
  8
0
 62
7
  6
CONTINUOUS
 10
12.7417313109
 20
21.2729385742
  0
VERTEX
  8
0
 62
7
  6
CONTINUOUS
 10
12.720451892
 20
21.2668519277
  0
VERTEX
  8
0
 62
7
  6
CONTINUOUS
 10
12.6998458415
 20
21.2587745116
  0
VERTEX
  8
0
 62
7
  6
CONTINUOUS
 10
12.6800989599
 20
21.2487791582
  0
VERTEX
  8
0
 62
7
  6
CONTINUOUS
 10
12.6613893006
 20
21.2369559935
  0
VERTEX
  8
0
 62
7
  6
CONTINUOUS
 10
12.6438855648
 20
21.2234116245
  0
VERTEX
  8
0
 62
7
  6
CONTINUOUS
 10
12.6277455799
 20
21.208268178
  0
VERTEX
  8
0
 62
7
  6
CONTINUOUS
 10
12.6131148768
 20
21.1916621992
  0
VERTEX
  8
0
 62
7
  6
CONTINUOUS
 10
12.6001253776
 20
21.1737434208
  0
VERTEX
  8
0
 62
7
  6
CONTINUOUS
 10
12.5888942057
 20
21.1546734125
  0
VERTEX
  8
0
 62
7
  6
CONTINUOUS
 10
12.5795226303
 20
21.1346241248
  0
VERTEX
  8
0
 62
7
  6
CONTINUOUS
 10
12.5720951529
 20
21.1137763378
  0
VERTEX
  8
0
 62
7
  6
CONTINUOUS
 10
12.5666787456
 20
21.0923180317
  0
VERTEX
  8
0
 62
7
  6
CONTINUOUS
 10
12.5633222469
 20
21.0704426914
  0
VERTEX
  8
0
 62
7
  6
CONTINUOUS
 10
12.5620559218
 20
21.0483475624
  0
VERTEX
  8
0
 62
7
  6
CONTINUOUS
 10
12.5628911883
 20
21.0262318718
  0
VERTEX
  8
0
 62
7
  6
CONTINUOUS
 10
12.565820515
 20
21.0042950321
  0
VERTEX
  8
0
 62
7
  6
CONTINUOUS
 10
12.570817489
 20
20.9827348433
  0
VERTEX
  8
0
 62
7
  6
CONTINUOUS
 10
12.5778370533
 20
20.9617457089
  0
VERTEX
  8
0
 62
7
  6
CONTINUOUS
 10
12.5868159143
 20
20.9415168838
  0
VERTEX
  8
0
 62
7
  6
CONTINUOUS
 10
12.5976731112
 20
20.9222307668
  0
VERTEX
  8
0
 62
7
  6
CONTINUOUS
 10
12.6103107471
 20
20.904061257
  0
VERTEX
  8
0
 62
7
  6
CONTINUOUS
 10
12.624614871
 20
20.8871721849
  0
VERTEX
  8
0
 62
7
  6
CONTINUOUS
 10
12.6404565057
 20
20.8717158359
  0
VERTEX
  8
0
 62
7
  6
CONTINUOUS
 10
12.6576928104
 20
20.8578315764
  0
VERTEX
  8
0
 62
7
  6
CONTINUOUS
 10
12.6761683691
 20
20.8456445981
  0
VERTEX
  8
0
 62
7
  6
CONTINUOUS
 10
12.6957165914
 20
20.8352647883
  0
VERTEX
  8
0
 62
7
  6
CONTINUOUS
 10
12.7161612151
 20
20.8267857396
  0
VERTEX
  8
0
 62
7
  6
CONTINUOUS
 10
12.7373178955
 20
20.8202839058
  0
VERTEX
  8
0
 62
7
  6
CONTINUOUS
 10
12.758995867
 20
20.8158179125
  0
VERTEX
  8
0
 62
7
  6
CONTINUOUS
 10
12.780999664
 20
20.8134280288
  0
VERTEX
  8
0
 62
7
  6
CONTINUOUS
 10
12.8031308829
 20
20.8131358037
  0
VERTEX
  8
0
 62
7
  6
CONTINUOUS
 10
12.825189971
 20
20.8149438721
  0
VERTEX
  8
0
 62
7
  6
CONTINUOUS
 10
12.8469780263
 20
20.818835931
  0
VERTEX
  8
0
 62
7
  6
CONTINUOUS
 10
12.8682985904
 20
20.8247768865
  0
VERTEX
  8
0
 62
7
  6
CONTINUOUS
 10
12.8889594203
 20
20.8327131704
  0
VERTEX
  8
0
 62
7
  6
CONTINUOUS
 10
12.9087742215
 20
20.8425732228
  0
VERTEX
  8
0
 62
7
  6
CONTINUOUS
 10
12.9275643281
 20
20.8542681377
  0
VERTEX
  8
0
 62
7
  6
CONTINUOUS
 10
12.9451603138
 20
20.8676924645
  0
VERTEX
  8
0
 62
7
  6
CONTINUOUS
 10
12.9614035192
 20
20.8827251587
  0
VERTEX
  8
0
 62
7
  6
CONTINUOUS
 10
12.9761474827
 20
20.8992306739
  0
VERTEX
  8
0
 62
7
  6
CONTINUOUS
 10
12.989259261
 20
20.9170601832
  0
VERTEX
  8
0
 62
7
  6
CONTINUOUS
 10
13.0006206281
 20
20.9360529217
  0
VERTEX
  8
0
 62
7
  6
CONTINUOUS
 10
13.0101291409
 20
20.9560376358
  0
VERTEX
  8
0
 62
7
  6
CONTINUOUS
 10
13.0176990631
 20
20.9768341276
  0
VERTEX
  8
0
 62
7
  6
CONTINUOUS
 10
13.0232621383
 20
20.9982548794
  0
VERTEX
  8
0
 62
7
  6
CONTINUOUS
 10
13.0267682053
 20
21.0201067448
  0
VERTEX
  8
0
 62
7
  6
CONTINUOUS
 10
13.0281856509
 20
21.0421926901
  0
VERTEX
  8
0
 62
7
  6
CONTINUOUS
 10
13.0275016941
 20
21.0643135711
  0
VERTEX
  8
0
 62
7
  6
CONTINUOUS
 10
13.0247225019
 20
21.0862699282
  0
VERTEX
  8
0
 62
7
  6
CONTINUOUS
 10
13.019873134
 20
21.1078637858
  0
VERTEX
  8
0
 62
7
  6
CONTINUOUS
 10
13.0129973159
 20
21.1289004364
  0
VERTEX
  8
0
 62
7
  6
CONTINUOUS
 10
13.0041570454
 20
21.1491901971
  0
VERTEX
  8
0
 62
7
  6
CONTINUOUS
 10
12.9934320335
 20
21.1685501192
  0
VERTEX
  8
0
 62
7
  6
CONTINUOUS
 10
12.9809189853
 20
21.1868056385
  0
VERTEX
  8
0
 62
7
  6
CONTINUOUS
 10
12.9667307283
 20
21.2037921488
  0
VERTEX
  8
0
 62
7
  6
CONTINUOUS
 10
12.9509951952
 20
21.2193564862
  0
VERTEX
  8
0
 62
7
  6
CONTINUOUS
 10
12.9338542698
 20
21.2333583103
  0
VERTEX
  8
0
 62
7
  6
CONTINUOUS
 10
12.9154625084
 20
21.2456713698
  0
VERTEX
  8
0
 62
7
  6
CONTINUOUS
 10
12.8959857455
 20
21.2561846402
  0
VERTEX
  8
0
 62
7
  6
CONTINUOUS
 10
12.8755995991
 20
21.2648033257
  0
VERTEX
  8
0
 62
7
  6
CONTINUOUS
 10
12.8544878868
 20
21.2714497133
  0
VERTEX
  8
0
 62
7
  6
CONTINUOUS
 10
12.8328409684
 20
21.276063874
  0
VERTEX
  8
0
 62
7
  6
CONTINUOUS
 10
12.8108540297
 20
21.2786042028
  0
VERTEX
  8
0
 62
7
  6
CONTINUOUS
 10
12.7887253224
 20
21.2790477942
  0
VERTEX
  8
0
 62
7
  6
CONTINUOUS
 10
12.7666543762
 20
21.2773906484
  0
VERTEX
  8
0
 62
7
  6
CONTINUOUS
 10
12.7448402004
 20
21.2736477074
  0
SEQEND
  0
LINE
  8
0
 62
2
  6
CONTINUOUS
 10
8.9507332238
 20
25.8501543646
 11
8.7969952837
 21
26.0516541986
  0
LINE
  8
0
 62
2
  6
CONTINUOUS
 10
9.1670256453
 20
25.8501543646
 11
8.9135178106
 21
26.1824197411
  0
LINE
  8
0
 62
2
  6
CONTINUOUS
 10
11.1524968485
 20
25.8501543646
 11
11.0276734194
 21
26.0471107355
  0
LINE
  8
0
 62
2
  6
CONTINUOUS
 10
11.3424477881
 20
25.8501543646
 11
11.1830045451
 21
26.1017369059
  0
LINE
  8
0
 62
2
  6
CONTINUOUS
 10
11.4789297395
 20
25.8496166152
 11
11.5107977522
 21
25.8173136739
  0
LINE
  8
0
 62
2
  6
CONTINUOUS
 10
8.7969952837
 20
25.8501543646
 11
8.6224950567
 21
25.8501303612
  0
LINE
  8
0
 62
2
  6
CONTINUOUS
 10
11.4916110962
 20
25.8496166152
 11
11.4673317633
 21
25.8496166152
  0
LINE
  8
0
 62
2
  6
CONTINUOUS
 10
10.1361704912
 20
25.8501543646
 11
9.9714368113
 21
25.8501543646
  0
LINE
  8
0
 62
2
  6
CONTINUOUS
 10
9.8234400002
 20
25.8501543646
 11
9.6587063203
 21
25.8501543646
  0
LINE
  8
0
 62
2
  6
CONTINUOUS
 10
8.9507332238
 20
25.8501543646
 11
9.1670256453
 21
25.8501543646
  0
LINE
  8
0
 62
2
  6
CONTINUOUS
 10
10.1812153354
 20
25.8501543646
 11
10.4939454681
 21
25.8501543646
  0
LINE
  8
0
 62
2
  6
CONTINUOUS
 10
10.5230932067
 20
25.8501543646
 11
10.8321973821
 21
25.8501543646
  0
LINE
  8
0
 62
2
  6
CONTINUOUS
 10
10.8770175968
 20
25.8501543646
 11
11.0276734194
 21
25.8501543646
  0
LINE
  8
0
 62
2
  6
CONTINUOUS
 10
11.1524968485
 20
25.8501543646
 11
11.3424477881
 21
25.8501543646
  0
LINE
  8
0
 62
2
  6
CONTINUOUS
 10
11.4673317633
 20
25.8832798727
 11
11.4916110962
 21
25.8832798727
  0
LINE
  8
0
 62
2
  6
CONTINUOUS
 10
10.3312613981
 20
25.9913811218
 11
10.4939454681
 21
25.9913811218
  0
LINE
  8
0
 62
2
  6
CONTINUOUS
 10
10.6813398587
 20
25.9913811218
 11
10.8321973821
 21
25.9913811218
  0
LINE
  8
0
 62
2
  6
CONTINUOUS
 10
10.6813398587
 20
26.0713026528
 11
10.8321973821
 21
26.0713026528
  0
LINE
  8
0
 62
2
  6
CONTINUOUS
 10
9.8234400002
 20
26.0784789744
 11
9.9714368113
 21
26.0784789744
  0
LINE
  8
0
 62
2
  6
CONTINUOUS
 10
11.0276734194
 20
26.1863860461
 11
11.0800131695
 21
26.1863860461
  0
LINE
  8
0
 62
2
  6
CONTINUOUS
 10
9.8234400002
 20
26.2156842543
 11
9.9714368113
 21
26.2156842543
  0
LINE
  8
0
 62
2
  6
CONTINUOUS
 10
10.6813398587
 20
26.2156842543
 11
10.8321973821
 21
26.2156842543
  0
LINE
  8
0
 62
2
  6
CONTINUOUS
 10
10.6813398587
 20
26.2933086172
 11
10.8321973821
 21
26.2933086172
  0
LINE
  8
0
 62
2
  6
CONTINUOUS
 10
11.0836033008
 20
26.2934891807
 11
11.0276734194
 21
26.2934891807
  0
LINE
  8
0
 62
2
  6
CONTINUOUS
 10
8.6224950567
 20
26.436068014
 11
8.7969952837
 21
26.436068014
  0
LINE
  8
0
 62
2
  6
CONTINUOUS
 10
8.9347594504
 20
26.436068014
 11
9.1268212625
 21
26.436068014
  0
LINE
  8
0
 62
2
  6
CONTINUOUS
 10
9.6587063203
 20
26.436068014
 11
9.8234400002
 21
26.436068014
  0
LINE
  8
0
 62
2
  6
CONTINUOUS
 10
9.9714368113
 20
26.436068014
 11
10.1361704912
 21
26.436068014
  0
LINE
  8
0
 62
2
  6
CONTINUOUS
 10
10.1812153354
 20
26.436068014
 11
10.3312613981
 21
26.436068014
  0
LINE
  8
0
 62
2
  6
CONTINUOUS
 10
10.5230932067
 20
26.436068014
 11
10.8321973821
 21
26.436068014
  0
LINE
  8
0
 62
2
  6
CONTINUOUS
 10
10.8770175968
 20
26.436068014
 11
11.1105652974
 21
26.436068014
  0
LINE
  8
0
 62
7
  6
CONTINUOUS
 10
0.0
 20
34.0
 11
44.0
 21
34.0
  0
LINE
  8
0
 62
7
  6
CONTINUOUS
 10
44.0
 20
0.0
 11
44.0
 21
34.0
  0
LINE
  8
_CURVE
 62
8
  6
DASHED
 10
4.153094535
 20
8.072451384
 11
4.153094535
 21
28.072451384
  0
LINE
  8
_CURVE
 62
7
  6
CONTINUOUS
 10
4.403094535
 20
8.072451384
 11
4.403094535
 21
28.072451384
  0
LINE
  8
_CURVE
 62
8
  6
DASHED
 10
36.153094535
 20
7.072451384
 11
5.153094535
 21
7.072451384
  0
LINE
  8
_CURVE
 62
7
  6
CONTINUOUS
 10
36.153094535
 20
7.322451384
 11
5.153094535
 21
7.322451384
  0
LINE
  8
_CURVE
 62
8
  6
CENTER
 10
20.653094535
 20
6.322451384
 11
20.653094535
 21
8.322451384
  0
LINE
  8
_CURVE
 62
8
  6
CENTER
 10
20.653094535
 20
27.822451384
 11
20.653094535
 21
29.822451384
  0
LINE
  8
_CURVE
 62
8
  6
CENTER
 10
5.403094535
 20
18.072451384
 11
3.403094535
 21
18.072451384
  0
LINE
  8
_CURVE
 62
8
  6
CENTER
 10
35.903094535
 20
18.072451384
 11
37.903094535
 21
18.072451384
  0
LINE
  8
_CURVE
 62
7
  6
CONTINUOUS
 10
5.153094535
 20
28.822451384
 11
36.153094535
 21
28.822451384
  0
LINE
  8
_CURVE
 62
8
  6
DASHED
 10
5.153094535
 20
29.072451384
 11
36.153094535
 21
29.072451384
  0
LINE
  8
_CURVE
 62
7
  6
CONTINUOUS
 10
36.903094535
 20
28.072451384
 11
36.903094535
 21
8.072451384
  0
LINE
  8
_CURVE
 62
8
  6
DASHED
 10
37.153094535
 20
28.072451384
 11
37.153094535
 21
8.072451384
  0
CIRCLE
  8
0
 62
2
  6
CONTINUOUS
 10
9.343534482
 20
26.1419899375
 40
0.298056591
  0
ARC
  8
0
 62
2
  6
CONTINUOUS
 10
11.1105652974
 20
26.2610585033
 40
0.1750166163
 50
294.4500166359
 51
90.0
  0
CIRCLE
  8
0
 62
2
  6
CONTINUOUS
 10
9.343534482
 20
26.1419899375
 40
0.1247694151
  0
CIRCLE
  8
0
 62
2
  6
CONTINUOUS
 10
11.4832177627
 20
25.8501543646
 40
0.0653578721
  0
ARC
  8
0
 62
2
  6
CONTINUOUS
 10
11.0836031989
 20
26.2398774456
 40
0.053611735
 50
266.1604009902
 51
89.9998910512
  0
ARC
  8
0
 62
2
  6
CONTINUOUS
 10
11.4916110962
 20
25.8664484231
 40
0.0168314496
 50
270.0
 51
90.0
  0
ARC
  8
_CURVE
 62
8
  6
DASHED
 10
5.153094535
 20
28.072451384
 40
1.0
 50
90.0
 51
180.0
  0
ARC
  8
_CURVE
 62
8
  6
DASHED
 10
5.153094535
 20
8.072451384
 40
1.0
 50
180.0
 51
270.0
  0
ARC
  8
_CURVE
 62
8
  6
DASHED
 10
36.153094535
 20
8.072451384
 40
1.0
 50
270.0
 51
360.0
  0
ARC
  8
_CURVE
 62
8
  6
DASHED
 10
36.153094535
 20
28.072451384
 40
1.0
 50
0.0
 51
90.0
  0
ARC
  8
_CURVE
 62
7
  6
CONTINUOUS
 10
5.153094535
 20
28.072451384
 40
0.75
 50
90.0
 51
180.0
  0
ARC
  8
_CURVE
 62
7
  6
CONTINUOUS
 10
5.153094535
 20
8.072451384
 40
0.75
 50
180.0
 51
270.0
  0
ARC
  8
_CURVE
 62
7
  6
CONTINUOUS
 10
36.153094535
 20
8.072451384
 40
0.75
 50
270.0
 51
360.0
  0
ARC
  8
_CURVE
 62
7
  6
CONTINUOUS
 10
36.153094535
 20
28.072451384
 40
0.75
 50
0.0
 51
90.0
  0
ARC
  8
0
 62
2
  6
CONTINUOUS
 10
36.153094535
 20
8.072451384
 40
0.75
 50
138.6324538157
 51
270.0
  0
ENDSEC
  0
EOF
