999
DXF file: 1040322-7.dxf
999
Pro/ENGINEER 2005030 by Parametric Technology Corporation
0
SECTION
2
HEADER
9
$EXTMAX
10
44.0000000000
20
34.0000000000
30
0.0000000000
9
$EXTMIN
10
0.0000000000
20
0.0000000000
30
0.0000000000
9
$LIMMIN
10
0.0000000000
20
0.0000000000
9
$LIMMAX
10
44.0000000000
20
34.0000000000
9
$VIEWCTR
10
22.0000000000
20
17.0000000000
9
$VIEWSIZE
40
34.0000000000
9
$CLAYER
8
0
9
$LTSCALE
40
2.4200000000
9
$CELTYPE
6
BYLAYER
9
$DIMSCALE
40
1
9
$DIMASZ
40
0.1875000000
9
$DIMEXO
40
0.2750000000
9
$DIMDLI
40
1.6720000000
9
$DIMEXE
40
0.7920000000
9
$DIMCEN
40
0.3960000000
9
$DIMLFAC
40
1.0000000000
9
$DIMBLK
1
_FILLED
9
$DIMTXT
40
0.1562500000
9
$PDMODE
70
3
9
$PDSIZE
40
0.3125000000
0
ENDSEC
0
SECTION
2
TABLES
0
TABLE
2
LTYPE
70
6
0
LTYPE
2
BYBLOCK
70
0
3

72
65
73
0
40
0.0
0
LTYPE
2
BYLAYER
70
0
3

72
65
73
0
40
0.0
0
LTYPE
2
CONTINUOUS
70
64
3
Solid line
72
65
73
0
40
0
0
LTYPE
2
CENTER
70
64
3
____ _ ____ _ ____ _ ____ _ ____ _ ____ _ ____
72
65
73
4
40
0.6
49
0.375
49
-0.075
49
0.075
49
-0.075
0
LTYPE
2
HIDDEN
70
64
3
- - - - - - - - - - - - - - - - - - - -
72
65
73
2
40
0.2
49
0.1
49
-0.1
0
LTYPE
2
PHANTOM
70
64
3
_____ _ _ _____ _ _ _____ _ _ _____
72
65
73
6
40
0.8
49
0.45
49
-0.05
49
0.1
49
-0.05
49
0.1
49
-0.05
0
LTYPE
2
DOT
70
64
3
. . . . . . . . . . . . . . . . . . . .
72
65
73
2
40
0.2
49
0.1
49
-0.1
0
LTYPE
2
DASHED
70
64
3
- - - - - - - - - - - - - - - - - - - -
72
65
73
2
40
0.2
49
0.1
49
-0.1
0
ENDTAB
0
TABLE
2
LAYER
70
36
0
LAYER
2
0
70
0
62
7
6
CONTINUOUS
0
LAYER
2
DEFAULT_1
70
0
62
7
6
CENTER
0
LAYER
2
DEFAULT_2
70
0
62
8
6
HIDDEN
0
LAYER
2
DEFAULT_3
70
0
62
7
6
PHANTOM
0
LAYER
2
_2D_DELETED_OBJS
70
0
62
7
6
CONTINUOUS
0
LAYER
2
DATUMS
70
0
62
7
6
CONTINUOUS
0
LAYER
2
DATUM_AXIS
70
0
62
7
6
CONTINUOUS
0
LAYER
2
DATUM_CSYS
70
0
62
7
6
CONTINUOUS
0
LAYER
2
DATUM_PLANE
70
0
62
7
6
CONTINUOUS
0
LAYER
2
DATUM_POINT
70
0
62
7
6
CONTINUOUS
0
LAYER
2
_CURVE
70
0
62
7
6
CONTINUOUS
0
LAYER
2
_SURFACE
70
0
62
7
6
CONTINUOUS
0
LAYER
2
__REF_CURVE
70
0
62
7
6
CONTINUOUS
0
LAYER
2
__REF_SURFACE
70
0
62
7
6
CONTINUOUS
0
LAYER
2
___NOTE
70
0
62
7
6
CONTINUOUS
0
LAYER
2
___SYMBOL
70
0
62
7
6
CONTINUOUS
0
ENDTAB
0
TABLE
2
STYLE
70
1
0
STYLE
2
STANDARD
70
0
40
0.0
41
0.8000000000
50
0.0
71
0
42
0.2
3
txt
4

0
ENDTAB
0
ENDSEC
0
SECTION
2
BLOCKS
0
BLOCK
8
0
62
2
6
CONTINUOUS
2
*D0
70
65
10
0.0000000000
20
0.0000000000
0
TEXT
8
0
62
2
6
CONTINUOUS
10
19.4782431669
20
15.1582233755
7
STANDARD
40
0.1562500000
1
"
41
0.8000000000
72
0
0
TEXT
8
0
62
2
6
CONTINUOUS
10
18.7282431669
20
14.9238483755
7
STANDARD
40
0.1562500000
1
[41,2 cm]
41
0.8000000000
72
0
0
TEXT
8
0
62
2
6
CONTINUOUS
10
18.7282431669
20
15.1582233755
7
STANDARD
40
0.1562500000
1
16-1/4
41
0.8000000000
72
0
0
LINE
8
0
62
2
6
CONTINUOUS
10
19.6629733878
20
8.6347452661
11
19.0407431669
21
8.6347452661
0
LINE
8
0
62
2
6
CONTINUOUS
10
21.9182042620
20
24.8724260002
11
19.0407431669
21
24.8724260002
0
LINE
8
0
62
2
6
CONTINUOUS
10
19.1657431669
20
8.6347452661
11
19.1657431669
21
14.8457233755
0
LINE
8
0
62
2
6
CONTINUOUS
10
19.1657431669
20
24.8724260002
11
19.1657431669
21
15.3925983755
0
INSERT
8
0
62
2
6
CONTINUOUS
2
_FILLED
10
19.1657431669
20
8.6347452661
41
  0.187500
42
  0.187500
43
  0.187500
50
270.000000
0
INSERT
8
0
62
2
6
CONTINUOUS
2
_FILLED
10
19.1657431669
20
24.8724260002
41
  0.187500
42
  0.187500
43
  0.187500
50
 90.000000
0
ENDBLK
8
0
6
BYBLOCK
62
0
0
BLOCK
8
0
62
2
6
CONTINUOUS
2
*D1
70
65
10
0.0000000000
20
0.0000000000
0
TEXT
8
0
62
2
6
CONTINUOUS
10
18.2076643265
20
16.0243427103
7
STANDARD
40
0.1562500000
1
"
41
0.8000000000
72
0
0
TEXT
8
0
62
2
6
CONTINUOUS
10
17.3326643265
20
15.7899677103
7
STANDARD
40
0.1562500000
1
[82,1 cm]
41
0.8000000000
72
0
0
TEXT
8
0
62
2
6
CONTINUOUS
10
17.3326643265
20
16.0243427103
7
STANDARD
40
0.1562500000
1
32-5/16
41
0.8000000000
72
0
0
LINE
8
0
62
2
6
CONTINUOUS
10
5.8205097370
20
14.9706530115
11
5.8205097370
21
16.2274677103
0
LINE
8
0
62
2
6
CONTINUOUS
10
38.1408987869
20
14.9706530115
11
38.1408987869
21
16.2274677103
0
LINE
8
0
62
2
6
CONTINUOUS
10
5.8205097370
20
16.1024677103
11
17.2545393265
21
16.1024677103
0
LINE
8
0
62
2
6
CONTINUOUS
10
38.1408987869
20
16.1024677103
11
18.5357893265
21
16.1024677103
0
INSERT
8
0
62
2
6
CONTINUOUS
2
_FILLED
10
5.8205097370
20
16.1024677103
41
  0.187500
42
  0.187500
43
  0.187500
50
180.000000
0
INSERT
8
0
62
2
6
CONTINUOUS
2
_FILLED
10
38.1408987869
20
16.1024677103
41
  0.187500
42
  0.187500
43
  0.187500
0
ENDBLK
8
0
6
BYBLOCK
62
0
0
BLOCK
8
0
62
2
6
CONTINUOUS
2
*D2
70
65
10
0.0000000000
20
0.0000000000
0
TEXT
8
0
62
2
6
CONTINUOUS
10
25.3075924082
20
17.4452960286
7
STANDARD
40
0.1562500000
1
"
41
0.8000000000
72
0
0
TEXT
8
0
62
2
6
CONTINUOUS
10
24.5575924082
20
17.2109210286
7
STANDARD
40
0.1562500000
1
[42,5 cm]
41
0.8000000000
72
0
0
TEXT
8
0
62
2
6
CONTINUOUS
10
24.5575924082
20
17.4452960286
7
STANDARD
40
0.1562500000
1
16-3/4
41
0.8000000000
72
0
0
LINE
8
0
62
2
6
CONTINUOUS
10
25.6481488980
20
8.3847452661
11
24.8700924082
21
8.3847452661
0
LINE
8
0
62
2
6
CONTINUOUS
10
22.0432042620
20
25.1224292915
11
25.1200924082
21
25.1224292915
0
LINE
8
0
62
2
6
CONTINUOUS
10
24.9950924082
20
8.3847452661
11
24.9950924082
21
17.1327960286
0
LINE
8
0
62
2
6
CONTINUOUS
10
24.9950924082
20
25.1224292915
11
24.9950924082
21
17.6796710286
0
INSERT
8
0
62
2
6
CONTINUOUS
2
_FILLED
10
24.9950924082
20
8.3847452661
41
  0.187500
42
  0.187500
43
  0.187500
50
270.000000
0
INSERT
8
0
62
2
6
CONTINUOUS
2
_FILLED
10
24.9950924082
20
25.1224292915
41
  0.187500
42
  0.187500
43
  0.187500
50
 90.000000
0
ENDBLK
8
0
6
BYBLOCK
62
0
0
BLOCK
8
0
62
2
6
CONTINUOUS
2
*D3
70
65
10
0.0000000000
20
0.0000000000
0
TEXT
8
0
62
2
6
CONTINUOUS
10
26.7077153469
20
16.5057086327
7
STANDARD
40
0.1562500000
1
"
41
0.8000000000
72
0
0
TEXT
8
0
62
2
6
CONTINUOUS
10
25.7077153469
20
16.2713336327
7
STANDARD
40
0.1562500000
1
[83,4 cm]
41
0.8000000000
72
0
0
TEXT
8
0
62
2
6
CONTINUOUS
10
25.7077153469
20
16.5057086327
7
STANDARD
40
0.1562500000
1
32-13/16
41
0.8000000000
72
0
0
LINE
8
0
62
2
6
CONTINUOUS
10
5.5705097492
20
14.9706484349
11
5.5705097492
21
16.7088336327
0
LINE
8
0
62
2
6
CONTINUOUS
10
38.3908987747
20
14.9706484349
11
38.3908987747
21
16.7088336327
0
LINE
8
0
62
2
6
CONTINUOUS
10
5.5705097492
20
16.5838336327
11
25.6295903469
21
16.5838336327
0
LINE
8
0
62
2
6
CONTINUOUS
10
38.3908987747
20
16.5838336327
11
26.9108403469
21
16.5838336327
0
INSERT
8
0
62
2
6
CONTINUOUS
2
_FILLED
10
5.5705097492
20
16.5838336327
41
  0.187500
42
  0.187500
43
  0.187500
50
180.000000
0
INSERT
8
0
62
2
6
CONTINUOUS
2
_FILLED
10
38.3908987747
20
16.5838336327
41
  0.187500
42
  0.187500
43
  0.187500
0
ENDBLK
8
0
6
BYBLOCK
62
0
0
BLOCK
8
___SYMBOL
62
2
6
CONTINUOUS
2
COPYRIGHT_YEAR_BL0
70
64
10
34.0716404124
20
8.9355711340
0
TEXT
8
___SYMBOL
62
2
6
CONTINUOUS
10
33.6979501089
20
8.9002976340
7
STANDARD
40
0.0704997506
1
2004
41
0.8000000000
72
0
0
TEXT
8
___SYMBOL
62
2
6
CONTINUOUS
10
33.9235493107
20
8.9002976340
7
STANDARD
40
0.0704997506
1
 KOHLER CO.
41
0.8000000000
72
0
0
TEXT
8
___SYMBOL
62
7
6
CONTINUOUS
10
33.6179246429
20
8.9167825759
7
STANDARD
40
0.0421873503
1
C
41
1.0000000000
72
0
0
CIRCLE
8
___SYMBOL
62
7
6
CONTINUOUS
10
33.6321595924
20
8.9380187505
40
0.0328258835
0
ENDBLK
8
0
6
BYBLOCK
62
0
0
BLOCK
8
___SYMBOL
62
2
6
CONTINUOUS
2
CUT-OUT_TEMPLATE_SKU_SIN_BL1
70
64
10
14.9778726052
20
20.0239453786
0
TEXT
8
___SYMBOL
62
2
6
CONTINUOUS
10
12.5778725199
20
20.8084995304
7
STANDARD
40
0.2500000089
1
CUT-OUT TEMPLATE
41
0.8000000000
72
0
0
TEXT
8
___SYMBOL
62
2
6
CONTINUOUS
10
12.5778725199
20
20.4334995171
7
STANDARD
40
0.2500000089
1
UNDERCOUNTER SINK
41
0.8000000000
72
0
0
TEXT
8
___SYMBOL
62
2
6
CONTINUOUS
10
12.5778725199
20
20.0584995037
7
STANDARD
40
0.2500000089
1
PLANTILLA DE RECORTE
41
0.8000000000
72
0
0
TEXT
8
___SYMBOL
62
2
6
CONTINUOUS
10
12.5778725199
20
19.6834994904
7
STANDARD
40
0.2500000089
1
FREGADERO MONTADO DEBAJO
41
0.8000000000
72
0
0
TEXT
8
___SYMBOL
62
2
6
CONTINUOUS
10
12.5778725199
20
19.3084994771
7
STANDARD
40
0.2500000089
1
  DEL MOSTRADOR
41
0.8000000000
72
0
0
TEXT
8
___SYMBOL
62
2
6
CONTINUOUS
10
12.5778725199
20
18.9334994637
7
STANDARD
40
0.2500000089
1
PLAN DE DÉCOUPE
41
0.8000000000
72
0
0
TEXT
8
___SYMBOL
62
2
6
CONTINUOUS
10
12.5778725199
20
18.5584994504
7
STANDARD
40
0.2500000089
1
ÉVIER SOUS-COMPTOIR
41
0.8000000000
72
0
0
TEXT
8
___SYMBOL
62
2
6
CONTINUOUS
10
12.5778725199
20
18.1834994371
7
STANDARD
40
0.2500000089
1
UNDERTONE
41
0.8000000000
72
0
0
TEXT
8
___SYMBOL
62
2
6
CONTINUOUS
10
14.3778725839
20
18.1834994371
7
STANDARD
40
0.2500000089
1
   
41
0.8000000000
72
0
0
TEXT
8
___SYMBOL
62
2
6
CONTINUOUS
10
14.9778726052
20
18.1834994371
7
STANDARD
40
0.2500000089
1
3148
41
0.8000000000
72
0
0
TEXT
8
___SYMBOL
62
2
6
CONTINUOUS
10
15.7778726337
20
18.1834994371
7
STANDARD
40
0.2500000089
1
-**-
41
0.8000000000
72
0
0
TEXT
8
___SYMBOL
62
2
6
CONTINUOUS
10
16.5778726621
20
18.1834994371
7
STANDARD
40
0.2500000089
1
AA
41
0.8000000000
72
0
0
LINE
8
___SYMBOL
62
2
6
CONTINUOUS
10
13.1044443148
20
21.8604128056
11
12.8911408554
21
21.6067645237
0
LINE
8
___SYMBOL
62
2
6
CONTINUOUS
10
12.9123824959
20
21.8604128056
11
13.1044443148
21
21.8604128056
0
LINE
8
___SYMBOL
62
2
6
CONTINUOUS
10
12.9123824959
20
21.8604128056
11
12.7746183243
21
21.6965916101
0
LINE
8
___SYMBOL
62
2
6
CONTINUOUS
10
12.7746183243
20
21.8604128056
11
12.7746183243
21
21.6965916101
0
LINE
8
___SYMBOL
62
2
6
CONTINUOUS
10
12.6001180912
20
21.8604128056
11
12.7746183243
21
21.8604128056
0
LINE
8
___SYMBOL
62
2
6
CONTINUOUS
10
12.6001180912
20
21.8604128056
11
12.6001180912
21
21.2744751320
0
LINE
8
___SYMBOL
62
2
6
CONTINUOUS
10
12.7746183243
20
21.2744991354
11
12.6001180912
21
21.2744751320
0
LINE
8
___SYMBOL
62
2
6
CONTINUOUS
10
12.7746183243
20
21.4759989766
11
12.7746183243
21
21.2744991354
0
LINE
8
___SYMBOL
62
2
6
CONTINUOUS
10
12.9283562698
20
21.2744991354
11
12.7746183243
21
21.4759989766
0
LINE
8
___SYMBOL
62
2
6
CONTINUOUS
10
12.9283562698
20
21.2744991354
11
13.1446486991
21
21.2744991354
0
LINE
8
___SYMBOL
62
2
6
CONTINUOUS
10
13.1446486991
20
21.2744991354
11
12.8911408554
21
21.6067645237
0
SOLID
8
___SYMBOL
62
2
6
CONTINUOUS
10
12.7746183243
20
21.6965916101
11
12.9123824959
21
21.8604128056
12
13.1044443148
22
21.8604128056
13
13.1044443148
23
21.8604128056
0
SOLID
8
___SYMBOL
62
2
6
CONTINUOUS
10
13.1044443148
20
21.8604128056
11
12.8911408554
21
21.6067645237
12
12.7746183243
22
21.6965916101
13
12.7746183243
23
21.6965916101
0
SOLID
8
___SYMBOL
62
2
6
CONTINUOUS
10
12.7746183243
20
21.4759989766
11
12.8911408554
21
21.6067645237
12
12.9283562698
22
21.2744991354
13
12.9283562698
23
21.2744991354
0
SOLID
8
___SYMBOL
62
2
6
CONTINUOUS
10
12.8911408554
20
21.6067645237
11
13.1446486991
21
21.2744991354
12
12.9283562698
22
21.2744991354
13
12.9283562698
23
21.2744991354
0
SOLID
8
___SYMBOL
62
2
6
CONTINUOUS
10
12.7746183243
20
21.2744991354
11
12.6001180912
21
21.2744751320
12
12.7746183243
22
21.4759989766
13
12.7746183243
23
21.4759989766
0
SOLID
8
___SYMBOL
62
2
6
CONTINUOUS
10
12.8911408554
20
21.6067645237
11
12.7746183243
21
21.4759989766
12
12.7746183243
22
21.6965916101
13
12.7746183243
23
21.6965916101
0
SOLID
8
___SYMBOL
62
2
6
CONTINUOUS
10
12.7746183243
20
21.4759989766
11
12.6001180912
21
21.2744751320
12
12.7746183243
22
21.6965916101
13
12.7746183243
23
21.6965916101
0
SOLID
8
___SYMBOL
62
2
6
CONTINUOUS
10
12.7746183243
20
21.6965916101
11
12.6001180912
21
21.2744751320
12
12.7746183243
22
21.8604128056
13
12.7746183243
23
21.8604128056
0
SOLID
8
___SYMBOL
62
2
6
CONTINUOUS
10
12.6001180912
20
21.2744751320
11
12.6001180912
21
21.8604128056
12
12.7746183243
22
21.8604128056
13
12.7746183243
23
21.8604128056
0
CIRCLE
8
___SYMBOL
62
2
6
CONTINUOUS
10
13.3211575420
20
21.5663347186
40
0.2980566016
0
CIRCLE
8
___SYMBOL
62
2
6
CONTINUOUS
10
13.3211575420
20
21.5663347186
40
0.1247694195
0
SOLID
8
___SYMBOL
62
2
6
CONTINUOUS
10
13.2290529868
20
21.8498033918
11
13.2900021435
21
21.8627585349
12
13.3523129405
22
21.8627585349
13
13.3523129405
23
21.8627585349
0
SOLID
8
___SYMBOL
62
2
6
CONTINUOUS
10
13.3523129405
20
21.8627585349
11
13.4132620972
21
21.8498033918
12
13.2290529868
22
21.8498033918
13
13.2290529868
23
21.8498033918
0
SOLID
8
___SYMBOL
62
2
6
CONTINUOUS
10
13.1721292412
20
21.8244593074
11
13.2290529868
21
21.8498033918
12
13.4132620972
22
21.8498033918
13
13.4132620972
23
21.8498033918
0
SOLID
8
___SYMBOL
62
2
6
CONTINUOUS
10
13.4132620972
20
21.8498033918
11
13.4701858428
21
21.8244593074
12
13.1721292412
22
21.8244593074
13
13.1721292412
23
21.8244593074
0
SOLID
8
___SYMBOL
62
2
6
CONTINUOUS
10
13.1217187475
20
21.7878339398
11
13.1721292412
21
21.8244593074
12
13.4701858428
22
21.8244593074
13
13.4701858428
23
21.8244593074
0
SOLID
8
___SYMBOL
62
2
6
CONTINUOUS
10
13.4701858428
20
21.8244593074
11
13.5205963365
21
21.7878339398
12
13.1217187475
22
21.7878339398
13
13.1217187475
23
21.7878339398
0
SOLID
8
___SYMBOL
62
2
6
CONTINUOUS
10
13.0800246860
20
21.7415279934
11
13.1217187475
21
21.7878339398
12
13.5205963365
22
21.7878339398
13
13.5205963365
23
21.7878339398
0
SOLID
8
___SYMBOL
62
2
6
CONTINUOUS
10
13.5205963365
20
21.7878339398
11
13.5622903980
21
21.7415279934
12
13.0800246860
22
21.7415279934
13
13.0800246860
23
21.7415279934
0
SOLID
8
___SYMBOL
62
2
6
CONTINUOUS
10
13.3211575420
20
21.6911041381
11
13.0488692875
21
21.6875652602
12
13.5622903980
22
21.7415279934
13
13.5622903980
23
21.7415279934
0
SOLID
8
___SYMBOL
62
2
6
CONTINUOUS
10
13.0488692875
20
21.6875652602
11
13.0800246860
21
21.7415279934
12
13.5622903980
22
21.7415279934
13
13.5622903980
23
21.7415279934
0
SOLID
8
___SYMBOL
62
2
6
CONTINUOUS
10
13.5622903980
20
21.7415279934
11
13.5934457965
21
21.6875652602
12
13.3211575420
22
21.6911041381
13
13.3211575420
23
21.6911041381
0
SOLID
8
___SYMBOL
62
2
6
CONTINUOUS
10
13.3211575420
20
21.6911041381
11
13.2826016710
21
21.6849974881
12
13.0488692875
22
21.6875652602
13
13.0488692875
23
21.6875652602
0
SOLID
8
___SYMBOL
62
2
6
CONTINUOUS
10
13.3597134130
20
21.6849974881
11
13.3211575420
21
21.6911041381
12
13.5934457965
22
21.6875652602
13
13.5934457965
23
21.6875652602
0
SOLID
8
___SYMBOL
62
2
6
CONTINUOUS
10
13.2202169612
20
21.6396723433
11
13.0296141923
21
21.6283041706
12
13.2478199173
22
21.6672752994
13
13.2478199173
23
21.6672752994
0
SOLID
8
___SYMBOL
62
2
6
CONTINUOUS
10
13.2478199173
20
21.6672752994
11
13.0296141923
21
21.6283041706
12
13.2826016710
22
21.6849974881
13
13.2826016710
23
21.6849974881
0
SOLID
8
___SYMBOL
62
2
6
CONTINUOUS
10
13.0296141923
20
21.6283041706
11
13.0488692875
21
21.6875652602
12
13.2826016710
22
21.6849974881
13
13.2826016710
23
21.6849974881
0
SOLID
8
___SYMBOL
62
2
6
CONTINUOUS
10
13.3597134130
20
21.6849974881
11
13.5934457965
21
21.6875652602
12
13.3944951667
22
21.6672752994
13
13.3944951667
23
21.6672752994
0
SOLID
8
___SYMBOL
62
2
6
CONTINUOUS
10
13.3944951667
20
21.6672752994
11
13.5934457965
21
21.6875652602
12
13.4220981228
22
21.6396723433
13
13.4220981228
23
21.6396723433
0
SOLID
8
___SYMBOL
62
2
6
CONTINUOUS
10
13.5934457965
20
21.6875652602
11
13.6127008917
21
21.6283041706
12
13.4220981228
22
21.6396723433
13
13.4220981228
23
21.6396723433
0
SOLID
8
___SYMBOL
62
2
6
CONTINUOUS
10
13.2202169612
20
21.6396723433
11
13.2024947725
21
21.6048905896
12
13.0296141923
22
21.6283041706
13
13.0296141923
23
21.6283041706
0
SOLID
8
___SYMBOL
62
2
6
CONTINUOUS
10
13.4398203115
20
21.6048905896
11
13.4220981228
21
21.6396723433
12
13.6127008917
22
21.6283041706
13
13.6127008917
23
21.6283041706
0
SOLID
8
___SYMBOL
62
2
6
CONTINUOUS
10
13.0231009404
20
21.5663347186
11
13.0296141923
21
21.6283041706
12
13.2024947725
22
21.6048905896
13
13.2024947725
23
21.6048905896
0
SOLID
8
___SYMBOL
62
2
6
CONTINUOUS
10
13.2024947725
20
21.6048905896
11
13.1963881225
21
21.5663347186
12
13.0231009404
22
21.5663347186
13
13.0231009404
23
21.5663347186
0
SOLID
8
___SYMBOL
62
2
6
CONTINUOUS
10
13.4398203115
20
21.6048905896
11
13.6127008917
21
21.6283041706
12
13.4459269615
22
21.5663347186
13
13.4459269615
23
21.5663347186
0
SOLID
8
___SYMBOL
62
2
6
CONTINUOUS
10
13.6127008917
20
21.6283041706
11
13.6192141436
21
21.5663347186
12
13.4459269615
22
21.5663347186
13
13.4459269615
23
21.5663347186
0
SOLID
8
___SYMBOL
62
2
6
CONTINUOUS
10
13.4398203115
20
21.5277788476
11
13.4459269615
21
21.5663347186
12
13.6192141436
22
21.5663347186
13
13.6192141436
23
21.5663347186
0
SOLID
8
___SYMBOL
62
2
6
CONTINUOUS
10
13.2024947725
20
21.5277788476
11
13.0296141923
21
21.5043652666
12
13.1963881225
22
21.5663347186
13
13.1963881225
23
21.5663347186
0
SOLID
8
___SYMBOL
62
2
6
CONTINUOUS
10
13.0296141923
20
21.5043652666
11
13.0231009404
21
21.5663347186
12
13.1963881225
22
21.5663347186
13
13.1963881225
23
21.5663347186
0
SOLID
8
___SYMBOL
62
2
6
CONTINUOUS
10
13.6192141436
20
21.5663347186
11
13.6127008917
21
21.5043652666
12
13.4398203115
22
21.5277788476
13
13.4398203115
23
21.5277788476
0
SOLID
8
___SYMBOL
62
2
6
CONTINUOUS
10
13.2024947725
20
21.5277788476
11
13.2202169612
21
21.4929970939
12
13.0296141923
22
21.5043652666
13
13.0296141923
23
21.5043652666
0
SOLID
8
___SYMBOL
62
2
6
CONTINUOUS
10
13.4220981228
20
21.4929970939
11
13.4398203115
21
21.5277788476
12
13.6127008917
22
21.5043652666
13
13.6127008917
23
21.5043652666
0
SOLID
8
___SYMBOL
62
2
6
CONTINUOUS
10
13.2826016710
20
21.4476719492
11
13.0488692875
21
21.4451041770
12
13.2478199173
22
21.4653941379
13
13.2478199173
23
21.4653941379
0
SOLID
8
___SYMBOL
62
2
6
CONTINUOUS
10
13.2478199173
20
21.4653941379
11
13.0488692875
21
21.4451041770
12
13.2202169612
22
21.4929970939
13
13.2202169612
23
21.4929970939
0
SOLID
8
___SYMBOL
62
2
6
CONTINUOUS
10
13.0488692875
20
21.4451041770
11
13.0296141923
21
21.5043652666
12
13.2202169612
22
21.4929970939
13
13.2202169612
23
21.4929970939
0
SOLID
8
___SYMBOL
62
2
6
CONTINUOUS
10
13.4220981228
20
21.4929970939
11
13.6127008917
21
21.5043652666
12
13.3944951667
22
21.4653941379
13
13.3944951667
23
21.4653941379
0
SOLID
8
___SYMBOL
62
2
6
CONTINUOUS
10
13.3944951667
20
21.4653941379
11
13.6127008917
21
21.5043652666
12
13.3597134130
22
21.4476719492
13
13.3597134130
23
21.4476719492
0
SOLID
8
___SYMBOL
62
2
6
CONTINUOUS
10
13.6127008917
20
21.5043652666
11
13.5934457965
21
21.4451041770
12
13.3597134130
22
21.4476719492
13
13.3597134130
23
21.4476719492
0
SOLID
8
___SYMBOL
62
2
6
CONTINUOUS
10
13.2826016710
20
21.4476719492
11
13.3211575420
21
21.4415652991
12
13.0488692875
22
21.4451041770
13
13.0488692875
23
21.4451041770
0
SOLID
8
___SYMBOL
62
2
6
CONTINUOUS
10
13.3211575420
20
21.4415652991
11
13.3597134130
21
21.4476719492
12
13.5934457965
22
21.4451041770
13
13.5934457965
23
21.4451041770
0
SOLID
8
___SYMBOL
62
2
6
CONTINUOUS
10
13.0800246860
20
21.3911414439
11
13.0488692875
21
21.4451041770
12
13.3211575420
22
21.4415652991
13
13.3211575420
23
21.4415652991
0
SOLID
8
___SYMBOL
62
2
6
CONTINUOUS
10
13.3211575420
20
21.4415652991
11
13.5934457965
21
21.4451041770
12
13.0800246860
22
21.3911414439
13
13.0800246860
23
21.3911414439
0
SOLID
8
___SYMBOL
62
2
6
CONTINUOUS
10
13.5934457965
20
21.4451041770
11
13.5622903980
21
21.3911414439
12
13.0800246860
22
21.3911414439
13
13.0800246860
23
21.3911414439
0
SOLID
8
___SYMBOL
62
2
6
CONTINUOUS
10
13.1217187475
20
21.3448354974
11
13.0800246860
21
21.3911414439
12
13.5622903980
22
21.3911414439
13
13.5622903980
23
21.3911414439
0
SOLID
8
___SYMBOL
62
2
6
CONTINUOUS
10
13.5622903980
20
21.3911414439
11
13.5205963365
21
21.3448354974
12
13.1217187475
22
21.3448354974
13
13.1217187475
23
21.3448354974
0
SOLID
8
___SYMBOL
62
2
6
CONTINUOUS
10
13.1721292412
20
21.3082101299
11
13.1217187475
21
21.3448354974
12
13.5205963365
22
21.3448354974
13
13.5205963365
23
21.3448354974
0
SOLID
8
___SYMBOL
62
2
6
CONTINUOUS
10
13.5205963365
20
21.3448354974
11
13.4701858428
21
21.3082101299
12
13.1721292412
22
21.3082101299
13
13.1721292412
23
21.3082101299
0
SOLID
8
___SYMBOL
62
2
6
CONTINUOUS
10
13.2290529868
20
21.2828660455
11
13.1721292412
21
21.3082101299
12
13.4701858428
22
21.3082101299
13
13.4701858428
23
21.3082101299
0
SOLID
8
___SYMBOL
62
2
6
CONTINUOUS
10
13.4701858428
20
21.3082101299
11
13.4132620972
21
21.2828660455
12
13.2290529868
22
21.2828660455
13
13.2290529868
23
21.2828660455
0
SOLID
8
___SYMBOL
62
2
6
CONTINUOUS
10
13.2900021435
20
21.2699109023
11
13.2290529868
21
21.2828660455
12
13.4132620972
22
21.2828660455
13
13.4132620972
23
21.2828660455
0
SOLID
8
___SYMBOL
62
2
6
CONTINUOUS
10
13.4132620972
20
21.2828660455
11
13.3523129405
21
21.2699109023
12
13.2900021435
22
21.2699109023
13
13.2900021435
23
21.2699109023
0
LINE
8
___SYMBOL
62
2
6
CONTINUOUS
10
14.1137935794
20
21.8604128056
11
14.1137935794
21
21.2744991354
0
LINE
8
___SYMBOL
62
2
6
CONTINUOUS
10
14.1137935794
20
21.2744991354
11
13.9490598937
21
21.2744991354
0
LINE
8
___SYMBOL
62
2
6
CONTINUOUS
10
13.9490598937
20
21.5028237533
11
13.9490598937
21
21.2744991354
0
LINE
8
___SYMBOL
62
2
6
CONTINUOUS
10
13.8010630773
20
21.5028237533
11
13.9490598937
21
21.5028237533
0
LINE
8
___SYMBOL
62
2
6
CONTINUOUS
10
13.8010630773
20
21.5028237533
11
13.8010630773
21
21.2744991354
0
LINE
8
___SYMBOL
62
2
6
CONTINUOUS
10
13.8010630773
20
21.2744991354
11
13.6363293916
21
21.2744991354
0
LINE
8
___SYMBOL
62
2
6
CONTINUOUS
10
13.6363293916
20
21.8604128056
11
13.6363293916
21
21.2744991354
0
LINE
8
___SYMBOL
62
2
6
CONTINUOUS
10
13.6363293916
20
21.8604128056
11
13.8010630773
21
21.8604128056
0
LINE
8
___SYMBOL
62
2
6
CONTINUOUS
10
13.8010630773
20
21.8604128056
11
13.8010630773
21
21.6400290381
0
LINE
8
___SYMBOL
62
2
6
CONTINUOUS
10
13.8010630773
20
21.6400290381
11
13.9490598937
21
21.6400290381
0
LINE
8
___SYMBOL
62
2
6
CONTINUOUS
10
13.9490598937
20
21.8604128056
11
13.9490598937
21
21.6400290381
0
LINE
8
___SYMBOL
62
2
6
CONTINUOUS
10
13.9490598937
20
21.8604128056
11
14.1137935794
21
21.8604128056
0
SOLID
8
___SYMBOL
62
2
6
CONTINUOUS
10
13.9490598937
20
21.6400290381
11
13.9490598937
21
21.8604128056
12
14.1137935794
22
21.8604128056
13
14.1137935794
23
21.8604128056
0
SOLID
8
___SYMBOL
62
2
6
CONTINUOUS
10
13.9490598937
20
21.6400290381
11
13.8010630773
21
21.5028237533
12
13.8010630773
22
21.6400290381
13
13.8010630773
23
21.6400290381
0
SOLID
8
___SYMBOL
62
2
6
CONTINUOUS
10
13.8010630773
20
21.5028237533
11
13.6363293916
21
21.2744991354
12
13.8010630773
22
21.6400290381
13
13.8010630773
23
21.6400290381
0
SOLID
8
___SYMBOL
62
2
6
CONTINUOUS
10
13.8010630773
20
21.6400290381
11
13.6363293916
21
21.2744991354
12
13.8010630773
22
21.8604128056
13
13.8010630773
23
21.8604128056
0
SOLID
8
___SYMBOL
62
2
6
CONTINUOUS
10
13.6363293916
20
21.2744991354
11
13.6363293916
21
21.8604128056
12
13.8010630773
22
21.8604128056
13
13.8010630773
23
21.8604128056
0
SOLID
8
___SYMBOL
62
2
6
CONTINUOUS
10
13.8010630773
20
21.5028237533
11
13.8010630773
21
21.2744991354
12
13.6363293916
22
21.2744991354
13
13.6363293916
23
21.2744991354
0
SOLID
8
___SYMBOL
62
2
6
CONTINUOUS
10
13.8010630773
20
21.5028237533
11
13.9490598937
21
21.6400290381
12
13.9490598937
22
21.5028237533
13
13.9490598937
23
21.5028237533
0
SOLID
8
___SYMBOL
62
2
6
CONTINUOUS
10
13.9490598937
20
21.6400290381
11
14.1137935794
21
21.8604128056
12
13.9490598937
22
21.5028237533
13
13.9490598937
23
21.5028237533
0
SOLID
8
___SYMBOL
62
2
6
CONTINUOUS
10
13.9490598937
20
21.5028237533
11
14.1137935794
21
21.8604128056
12
13.9490598937
22
21.2744991354
13
13.9490598937
23
21.2744991354
0
SOLID
8
___SYMBOL
62
2
6
CONTINUOUS
10
14.1137935794
20
21.8604128056
11
14.1137935794
21
21.2744991354
12
13.9490598937
22
21.2744991354
13
13.9490598937
23
21.2744991354
0
LINE
8
___SYMBOL
62
2
6
CONTINUOUS
10
14.3088844933
20
21.2744991354
11
14.4715685690
21
21.2744991354
0
LINE
8
___SYMBOL
62
2
6
CONTINUOUS
10
14.3088844933
20
21.2744991354
11
14.1588384252
21
21.2744991354
0
LINE
8
___SYMBOL
62
2
6
CONTINUOUS
10
14.1588384252
20
21.2744991354
11
14.1588384252
21
21.8604128056
0
LINE
8
___SYMBOL
62
2
6
CONTINUOUS
10
14.1588384252
20
21.8604128056
11
14.3088844933
21
21.8604128056
0
LINE
8
___SYMBOL
62
2
6
CONTINUOUS
10
14.3088844933
20
21.8604128056
11
14.3088844933
21
21.4157258976
0
LINE
8
___SYMBOL
62
2
6
CONTINUOUS
10
14.3088844933
20
21.4157258976
11
14.4715685690
21
21.4157258976
0
LINE
8
___SYMBOL
62
2
6
CONTINUOUS
10
14.4715685690
20
21.4157258976
11
14.4715685690
21
21.2744991354
0
SOLID
8
___SYMBOL
62
2
6
CONTINUOUS
10
14.4715685690
20
21.4157258976
11
14.1588384252
21
21.2744991354
12
14.3088844933
22
21.4157258976
13
14.3088844933
23
21.4157258976
0
SOLID
8
___SYMBOL
62
2
6
CONTINUOUS
10
14.3088844933
20
21.4157258976
11
14.1588384252
21
21.2744991354
12
14.3088844933
22
21.8604128056
13
14.3088844933
23
21.8604128056
0
SOLID
8
___SYMBOL
62
2
6
CONTINUOUS
10
14.1588384252
20
21.2744991354
11
14.1588384252
21
21.8604128056
12
14.3088844933
22
21.8604128056
13
14.3088844933
23
21.8604128056
0
SOLID
8
___SYMBOL
62
2
6
CONTINUOUS
10
14.1588384252
20
21.2744991354
11
14.4715685690
21
21.4157258976
12
14.3088844933
22
21.2744991354
13
14.3088844933
23
21.2744991354
0
SOLID
8
___SYMBOL
62
2
6
CONTINUOUS
10
14.4715685690
20
21.4157258976
11
14.4715685690
21
21.2744991354
12
14.3088844933
22
21.2744991354
13
14.3088844933
23
21.2744991354
0
LINE
8
___SYMBOL
62
2
6
CONTINUOUS
10
14.8098204951
20
21.4956474314
11
14.8098204951
21
21.6400290381
0
LINE
8
___SYMBOL
62
2
6
CONTINUOUS
10
14.6589629663
20
21.6400290381
11
14.8098204951
21
21.6400290381
0
LINE
8
___SYMBOL
62
2
6
CONTINUOUS
10
14.6589629663
20
21.7176534038
11
14.6589629663
21
21.6400290381
0
LINE
8
___SYMBOL
62
2
6
CONTINUOUS
10
14.6589629663
20
21.7176534038
11
14.8098204951
21
21.7176534038
0
LINE
8
___SYMBOL
62
2
6
CONTINUOUS
10
14.8098204951
20
21.7176534038
11
14.8098204951
21
21.8604128056
0
LINE
8
___SYMBOL
62
2
6
CONTINUOUS
10
14.6731672901
20
21.8604128056
11
14.8098204951
21
21.8604128056
0
LINE
8
___SYMBOL
62
2
6
CONTINUOUS
10
14.5007163087
20
21.8604128056
11
14.6731672901
21
21.8604128056
0
LINE
8
___SYMBOL
62
2
6
CONTINUOUS
10
14.5007163087
20
21.2744991354
11
14.5007163087
21
21.8604128056
0
LINE
8
___SYMBOL
62
2
6
CONTINUOUS
10
14.5007163087
20
21.2744991354
11
14.8098204951
21
21.2744991354
0
LINE
8
___SYMBOL
62
2
6
CONTINUOUS
10
14.8098204951
20
21.2744991354
11
14.8098204951
21
21.4157258976
0
LINE
8
___SYMBOL
62
2
6
CONTINUOUS
10
14.6589629663
20
21.4157258976
11
14.8098204951
21
21.4157258976
0
LINE
8
___SYMBOL
62
2
6
CONTINUOUS
10
14.6589629663
20
21.4956474314
11
14.6589629663
21
21.4157258976
0
LINE
8
___SYMBOL
62
2
6
CONTINUOUS
10
14.6589629663
20
21.4956474314
11
14.8098204951
21
21.4956474314
0
SOLID
8
___SYMBOL
62
2
6
CONTINUOUS
10
14.8098204951
20
21.8604128056
11
14.8098204951
21
21.7176534038
12
14.6589629663
22
21.7176534038
13
14.6589629663
23
21.7176534038
0
SOLID
8
___SYMBOL
62
2
6
CONTINUOUS
10
14.8098204951
20
21.6400290381
11
14.8098204951
21
21.4956474314
12
14.6589629663
22
21.4956474314
13
14.6589629663
23
21.4956474314
0
SOLID
8
___SYMBOL
62
2
6
CONTINUOUS
10
14.8098204951
20
21.4157258976
11
14.5007163087
21
21.2744991354
12
14.6589629663
22
21.4157258976
13
14.6589629663
23
21.4157258976
0
SOLID
8
___SYMBOL
62
2
6
CONTINUOUS
10
14.6589629663
20
21.4157258976
11
14.5007163087
21
21.2744991354
12
14.6589629663
22
21.4956474314
13
14.6589629663
23
21.4956474314
0
SOLID
8
___SYMBOL
62
2
6
CONTINUOUS
10
14.8098204951
20
21.6400290381
11
14.6589629663
21
21.4956474314
12
14.6589629663
22
21.6400290381
13
14.6589629663
23
21.6400290381
0
SOLID
8
___SYMBOL
62
2
6
CONTINUOUS
10
14.6589629663
20
21.4956474314
11
14.5007163087
21
21.2744991354
12
14.6589629663
22
21.6400290381
13
14.6589629663
23
21.6400290381
0
SOLID
8
___SYMBOL
62
2
6
CONTINUOUS
10
14.6589629663
20
21.6400290381
11
14.5007163087
21
21.2744991354
12
14.6589629663
22
21.7176534038
13
14.6589629663
23
21.7176534038
0
SOLID
8
___SYMBOL
62
2
6
CONTINUOUS
10
14.8098204951
20
21.8604128056
11
14.6589629663
21
21.7176534038
12
14.6731672901
22
21.8604128056
13
14.6731672901
23
21.8604128056
0
SOLID
8
___SYMBOL
62
2
6
CONTINUOUS
10
14.6589629663
20
21.7176534038
11
14.5007163087
21
21.2744991354
12
14.6731672901
22
21.8604128056
13
14.6731672901
23
21.8604128056
0
SOLID
8
___SYMBOL
62
2
6
CONTINUOUS
10
14.5007163087
20
21.2744991354
11
14.5007163087
21
21.8604128056
12
14.6731672901
22
21.8604128056
13
14.6731672901
23
21.8604128056
0
SOLID
8
___SYMBOL
62
2
6
CONTINUOUS
10
14.8098204951
20
21.4157258976
11
14.8098204951
21
21.2744991354
12
14.5007163087
22
21.2744991354
13
14.5007163087
23
21.2744991354
0
LINE
8
___SYMBOL
62
2
6
CONTINUOUS
10
15.3200709192
20
21.2744991354
11
15.1606276705
21
21.5260816856
0
ARC
8
___SYMBOL
62
2
6
CONTINUOUS
10
15.0881884203
20
21.6854032887
40
0.1750166225
50
294.4500166359
51
90.0000000000
0
LINE
8
___SYMBOL
62
2
6
CONTINUOUS
10
14.8546407113
20
21.8604128056
11
15.0881884203
21
21.8604128056
0
LINE
8
___SYMBOL
62
2
6
CONTINUOUS
10
14.8546407113
20
21.2744991354
11
14.8546407113
21
21.8604128056
0
LINE
8
___SYMBOL
62
2
6
CONTINUOUS
10
14.8546407113
20
21.2744991354
11
15.0052965393
21
21.2744991354
0
LINE
8
___SYMBOL
62
2
6
CONTINUOUS
10
15.0052965393
20
21.4714555132
11
15.0052965393
21
21.2744991354
0
LINE
8
___SYMBOL
62
2
6
CONTINUOUS
10
15.1301199729
20
21.2744991354
11
15.0052965393
21
21.4714555132
0
LINE
8
___SYMBOL
62
2
6
CONTINUOUS
10
15.1301199729
20
21.2744991354
11
15.3200709192
21
21.2744991354
0
LINE
8
___SYMBOL
62
2
6
CONTINUOUS
10
15.0052965393
20
21.6107308289
11
15.0576362913
21
21.6107308289
0
ARC
8
___SYMBOL
62
2
6
CONTINUOUS
10
15.0612263208
20
21.6642222303
40
0.0536117369
50
266.1604009902
51
89.9998910512
0
LINE
8
___SYMBOL
62
2
6
CONTINUOUS
10
15.0612264227
20
21.7178339672
11
15.0052965393
21
21.7178339672
0
LINE
8
___SYMBOL
62
2
6
CONTINUOUS
10
15.0052965393
20
21.7178339672
11
15.0052965393
21
21.6107308289
0
SOLID
8
___SYMBOL
62
2
6
CONTINUOUS
10
15.0881884203
20
21.8604199112
11
15.1351214455
21
21.8540096626
12
14.8546407113
22
21.8604128056
13
14.8546407113
23
21.8604128056
0
SOLID
8
___SYMBOL
62
2
6
CONTINUOUS
10
15.0052965393
20
21.7178339672
11
15.2592362894
21
21.7224633029
12
15.0612264227
22
21.7178339672
13
15.0612264227
23
21.7178339672
0
SOLID
8
___SYMBOL
62
2
6
CONTINUOUS
10
15.0612264227
20
21.7178339672
11
15.2592362894
21
21.7224633029
12
15.0849490051
22
21.7122997987
13
15.0849490051
23
21.7122997987
0
SOLID
8
___SYMBOL
62
2
6
CONTINUOUS
10
15.0849490051
20
21.7122997987
11
15.2592362894
21
21.7224633029
12
15.1037739935
22
21.6968399231
13
15.1037739935
23
21.6968399231
0
SOLID
8
___SYMBOL
62
2
6
CONTINUOUS
10
15.2592362894
20
21.7224633029
11
15.2629095359
21
21.6752371724
12
15.1037739935
22
21.6968399231
13
15.1037739935
23
21.6968399231
0
SOLID
8
___SYMBOL
62
2
6
CONTINUOUS
10
15.1138149324
20
21.6746460617
11
15.1037739935
21
21.6968399231
12
15.2629095359
22
21.6752371724
13
15.2629095359
23
21.6752371724
0
SOLID
8
___SYMBOL
62
2
6
CONTINUOUS
10
15.1138149324
20
21.6746460617
11
15.2629095359
21
21.6752371724
12
15.1129988507
22
21.6503001801
13
15.1129988507
23
21.6503001801
0
SOLID
8
___SYMBOL
62
2
6
CONTINUOUS
10
15.1129988507
20
21.6503001801
11
15.2629095359
21
21.6752371724
12
15.1014942299
22
21.6288285327
13
15.1014942299
23
21.6288285327
0
SOLID
8
___SYMBOL
62
2
6
CONTINUOUS
10
15.2629095359
20
21.6752371724
11
15.2537839319
21
21.6287557407
12
15.1014942299
22
21.6288285327
13
15.1014942299
23
21.6288285327
0
SOLID
8
___SYMBOL
62
2
6
CONTINUOUS
10
15.0816762214
20
21.6146639827
11
15.1014942299
21
21.6288285327
12
15.2537839319
22
21.6287557407
13
15.2537839319
23
21.6287557407
0
SOLID
8
___SYMBOL
62
2
6
CONTINUOUS
10
15.0816762214
20
21.6146639827
11
15.2537839319
21
21.6287557407
12
15.0576362913
22
21.6107308289
13
15.0576362913
23
21.6107308289
0
SOLID
8
___SYMBOL
62
2
6
CONTINUOUS
10
15.2537839319
20
21.6287557407
11
15.2325279555
21
21.5864239133
12
15.0576362913
22
21.6107308289
13
15.0576362913
23
21.6107308289
0
SOLID
8
___SYMBOL
62
2
6
CONTINUOUS
10
15.1606276705
20
21.5260816856
11
15.0052965393
21
21.4714555132
12
15.2006986712
22
21.5513426248
13
15.2006986712
23
21.5513426248
0
SOLID
8
___SYMBOL
62
2
6
CONTINUOUS
10
15.2006986712
20
21.5513426248
11
15.0052965393
21
21.4714555132
12
15.2325279555
22
21.5864239133
13
15.2325279555
23
21.5864239133
0
SOLID
8
___SYMBOL
62
2
6
CONTINUOUS
10
15.2325279555
20
21.5864239133
11
15.0052965393
21
21.4714555132
12
15.0576362913
22
21.6107308289
13
15.0576362913
23
21.6107308289
0
SOLID
8
___SYMBOL
62
2
6
CONTINUOUS
10
15.0052965393
20
21.4714555132
11
14.8546407113
21
21.2744991354
12
15.0576362913
22
21.6107308289
13
15.0576362913
23
21.6107308289
0
SOLID
8
___SYMBOL
62
2
6
CONTINUOUS
10
15.0576362913
20
21.6107308289
11
14.8546407113
21
21.2744991354
12
15.0052965393
22
21.6107308289
13
15.0052965393
23
21.6107308289
0
SOLID
8
___SYMBOL
62
2
6
CONTINUOUS
10
15.0052965393
20
21.6107308289
11
14.8546407113
21
21.2744991354
12
15.0052965393
22
21.7178339672
13
15.0052965393
23
21.7178339672
0
SOLID
8
___SYMBOL
62
2
6
CONTINUOUS
10
15.2592362894
20
21.7224633029
11
15.0052965393
21
21.7178339672
12
15.2430332687
22
21.7669746752
13
15.2430332687
23
21.7669746752
0
SOLID
8
___SYMBOL
62
2
6
CONTINUOUS
10
15.2430332687
20
21.7669746752
11
15.0052965393
21
21.7178339672
12
15.2154873942
22
21.8055106965
13
15.2154873942
23
21.8055106965
0
SOLID
8
___SYMBOL
62
2
6
CONTINUOUS
10
15.2154873942
20
21.8055106965
11
15.0052965393
21
21.7178339672
12
15.1786164845
22
21.8352484867
13
15.1786164845
23
21.8352484867
0
SOLID
8
___SYMBOL
62
2
6
CONTINUOUS
10
15.1786164845
20
21.8352484867
11
15.0052965393
21
21.7178339672
12
15.1351214455
22
21.8540096626
13
15.1351214455
23
21.8540096626
0
SOLID
8
___SYMBOL
62
2
6
CONTINUOUS
10
15.1351214455
20
21.8540096626
11
15.0052965393
21
21.7178339672
12
14.8546407113
22
21.8604128056
13
14.8546407113
23
21.8604128056
0
SOLID
8
___SYMBOL
62
2
6
CONTINUOUS
10
14.8546407113
20
21.2744991354
11
14.8546407113
21
21.8604128056
12
15.0052965393
22
21.7178339672
13
15.0052965393
23
21.7178339672
0
SOLID
8
___SYMBOL
62
2
6
CONTINUOUS
10
15.0052965393
20
21.4714555132
11
15.0052965393
21
21.2744991354
12
14.8546407113
22
21.2744991354
13
14.8546407113
23
21.2744991354
0
SOLID
8
___SYMBOL
62
2
6
CONTINUOUS
10
15.0052965393
20
21.4714555132
11
15.1606276705
21
21.5260816856
12
15.1301199729
22
21.2744991354
13
15.1301199729
23
21.2744991354
0
SOLID
8
___SYMBOL
62
2
6
CONTINUOUS
10
15.1606276705
20
21.5260816856
11
15.3200709192
21
21.2744991354
12
15.1301199729
22
21.2744991354
13
15.1301199729
23
21.2744991354
0
CIRCLE
8
___SYMBOL
62
2
6
CONTINUOUS
10
15.4608408988
20
21.2744991354
40
0.0653578744
0
LINE
8
___SYMBOL
62
2
6
CONTINUOUS
10
15.4565528754
20
21.2739613860
11
15.4884208893
21
21.2416584435
0
LINE
8
___SYMBOL
62
2
6
CONTINUOUS
10
15.4449548988
20
21.2416584435
11
15.4449548988
21
21.3076246447
0
LINE
8
___SYMBOL
62
2
6
CONTINUOUS
10
15.4449548988
20
21.3076246447
11
15.4692342326
21
21.3076246447
0
ARC
8
___SYMBOL
62
2
6
CONTINUOUS
10
15.4692342326
20
21.2907931945
40
0.0168314502
50
270.0000000000
51
90.0000000000
0
LINE
8
___SYMBOL
62
2
6
CONTINUOUS
10
15.4692342326
20
21.2739613860
11
15.4449548988
21
21.2739613860
0
ENDBLK
8
0
6
BYBLOCK
62
0
0
BLOCK
8
___SYMBOL
62
2
6
CONTINUOUS
2
PACKAGING_UPC_BL2
70
64
10
31.1576280763
20
12.5832474070
0
TEXT
8
___SYMBOL
62
7
6
CONTINUOUS
10
29.6236271880
20
13.1102507084
7
STANDARD
40
0.0593587494
1
XXXXX-XX-X-XX
41
0.8258950223
72
0
0
TEXT
8
___SYMBOL
62
7
6
CONTINUOUS
10
31.2576071720
20
12.9810857097
7
STANDARD
40
0.0445192496
1
xxxxxx-xx
41
0.6740211631
72
0
0
TEXT
8
___SYMBOL
62
2
6
CONTINUOUS
10
28.4932828905
20
14.6538793732
7
STANDARD
40
0.1562500055
1
PACKAGING/UPC LABEL ON BOX
41
0.8000000000
72
0
0
TEXT
8
___SYMBOL
62
2
6
CONTINUOUS
10
28.4932828905
20
14.4195043649
7
STANDARD
40
0.1562500055
1
ETIQUETA DE EMBALAJE/UPC EN LA CAJA
41
0.8000000000
72
0
0
TEXT
8
___SYMBOL
62
2
6
CONTINUOUS
10
28.4932828905
20
14.1851293635
7
STANDARD
40
0.1562500003
1
ETIQUETTE D'EMBALLAGE/UPC SUR LA BOÎTE
41
0.7999999985
72
0
0
TEXT
8
___SYMBOL
62
2
6
CONTINUOUS
10
28.4701279812
20
12.4657404533
7
STANDARD
40
0.1562500055
1
The template and the label suffixes circled
41
0.8000000000
72
0
0
TEXT
8
___SYMBOL
62
2
6
CONTINUOUS
10
28.4701279812
20
12.2313654450
7
STANDARD
40
0.1562500055
1
must match for proper cut-out.
41
0.8000000000
72
0
0
TEXT
8
___SYMBOL
62
2
6
CONTINUOUS
10
28.4701279812
20
11.9969904436
7
STANDARD
40
0.1562500003
1
 
41
0.7999999985
72
0
0
TEXT
8
___SYMBOL
62
2
6
CONTINUOUS
10
28.4701279812
20
11.7626154367
7
STANDARD
40
0.1562500055
1
A fin de realizar el corte apropiado, la
41
0.8000000000
72
0
0
TEXT
8
___SYMBOL
62
2
6
CONTINUOUS
10
28.4701279812
20
11.5282404353
7
STANDARD
40
0.1562500003
1
plantilla y los sufijos de la etiqueta
41
0.7999999985
72
0
0
TEXT
8
___SYMBOL
62
2
6
CONTINUOUS
10
28.4701279812
20
11.2938654353
7
STANDARD
40
0.1562500003
1
demarcados deben concordar.
41
0.7999999985
72
0
0
TEXT
8
___SYMBOL
62
2
6
CONTINUOUS
10
28.4701279812
20
11.0594904353
7
STANDARD
40
0.1562500003
1
 
41
0.7999999985
72
0
0
TEXT
8
___SYMBOL
62
2
6
CONTINUOUS
10
28.4701279812
20
10.8251154353
7
STANDARD
40
0.1562500003
1
Afin de découper l'ouverture correctement,
41
0.7999999985
72
0
0
TEXT
8
___SYMBOL
62
2
6
CONTINUOUS
10
28.4701279812
20
10.5907404353
7
STANDARD
40
0.1562500003
1
le gabarit et les suffixes encerclés
41
0.7999999985
72
0
0
TEXT
8
___SYMBOL
62
2
6
CONTINUOUS
10
28.4701279812
20
10.3563654353
7
STANDARD
40
0.1562500003
1
doivent correspondre
41
0.7999999985
72
0
0
LINE
8
___SYMBOL
62
7
6
CONTINUOUS
10
31.6124321685
20
12.9543557099
11
29.4273896899
21
12.9543557099
0
LINE
8
___SYMBOL
62
7
6
CONTINUOUS
10
29.4273896899
20
12.9543557099
11
29.4273896899
21
13.9473857002
0
LINE
8
___SYMBOL
62
7
6
CONTINUOUS
10
29.4273896899
20
13.9473857002
11
31.6124321685
21
13.9473857002
0
LINE
8
___SYMBOL
62
7
6
CONTINUOUS
10
31.6124321685
20
13.9473857002
11
31.6124321685
21
12.9543557099
0
LINE
8
___SYMBOL
62
7
6
CONTINUOUS
10
29.3940221902
20
13.9798456999
11
31.6465871682
21
13.9798456999
0
LINE
8
___SYMBOL
62
7
6
CONTINUOUS
10
31.6465871682
20
13.9798456999
11
31.6465871682
21
12.8869382106
0
LINE
8
___SYMBOL
62
7
6
CONTINUOUS
10
31.6465871682
20
12.8869382106
11
29.3940221902
21
12.8869382106
0
LINE
8
___SYMBOL
62
7
6
CONTINUOUS
10
29.3940221902
20
12.8869382106
11
29.3940221902
21
13.9798456999
0
LINE
8
___SYMBOL
62
7
6
CONTINUOUS
10
31.4072471705
20
13.3860257057
11
31.4072471705
21
13.2643907069
0
LINE
8
___SYMBOL
62
7
6
CONTINUOUS
10
31.4072471705
20
13.2643907069
11
31.0642946739
21
13.2643907069
0
LINE
8
___SYMBOL
62
7
6
CONTINUOUS
10
31.0642946739
20
13.2643907069
11
31.0642946739
21
13.3860257057
0
LINE
8
___SYMBOL
62
7
6
CONTINUOUS
10
31.0642946739
20
13.3860257057
11
31.4072471705
21
13.3860257057
0
SOLID
8
___SYMBOL
62
7
6
CONTINUOUS
10
31.0642946739
20
13.2643906978
11
31.0642946739
21
13.3860256980
12
31.4072471705
22
13.3860256980
13
31.4072471705
23
13.3860256980
0
SOLID
8
___SYMBOL
62
7
6
CONTINUOUS
10
31.4072471705
20
13.3860256980
11
31.4072471705
21
13.2643906978
12
31.0642946739
22
13.2643906978
13
31.0642946739
23
13.2643906978
0
LINE
8
___SYMBOL
62
7
6
CONTINUOUS
10
30.3317921810
20
13.3860257057
11
30.3317921810
21
13.2643907069
0
LINE
8
___SYMBOL
62
7
6
CONTINUOUS
10
30.3317921810
20
13.2643907069
11
29.4760871894
21
13.2643907069
0
LINE
8
___SYMBOL
62
7
6
CONTINUOUS
10
29.4760871894
20
13.2643907069
11
29.4760871894
21
13.3860257057
0
LINE
8
___SYMBOL
62
7
6
CONTINUOUS
10
29.4760871894
20
13.3860257057
11
30.3317921810
21
13.3860257057
0
SOLID
8
___SYMBOL
62
7
6
CONTINUOUS
10
29.4760871894
20
13.2643906978
11
29.4760871894
21
13.3860256980
12
30.3317921810
22
13.3860256980
13
30.3317921810
23
13.3860256980
0
SOLID
8
___SYMBOL
62
7
6
CONTINUOUS
10
30.3317921810
20
13.3860256980
11
30.3317921810
21
13.2643906978
12
29.4760871894
22
13.2643906978
13
29.4760871894
23
13.2643906978
0
LINE
8
___SYMBOL
62
7
6
CONTINUOUS
10
30.3317921810
20
13.0127582094
11
30.3317921810
21
12.9777782097
0
LINE
8
___SYMBOL
62
7
6
CONTINUOUS
10
30.3317921810
20
12.9777782097
11
29.4760871894
21
12.9777782097
0
LINE
8
___SYMBOL
62
7
6
CONTINUOUS
10
29.4760871894
20
12.9777782097
11
29.4760871894
21
13.0127582094
0
LINE
8
___SYMBOL
62
7
6
CONTINUOUS
10
29.4760871894
20
13.0127582094
11
30.3317921810
21
13.0127582094
0
SOLID
8
___SYMBOL
62
7
6
CONTINUOUS
10
29.4760871894
20
12.9777782113
11
29.4760871894
21
13.0127581933
12
30.3317921810
22
13.0127581933
13
30.3317921810
23
13.0127581933
0
SOLID
8
___SYMBOL
62
7
6
CONTINUOUS
10
30.3317921810
20
13.0127581933
11
30.3317921810
21
12.9777782113
12
29.4760871894
22
12.9777782113
13
29.4760871894
23
12.9777782113
0
POLYLINE
8
___SYMBOL
62
7
6
CONTINUOUS
66
1
70
0
0
VERTEX
8
___SYMBOL
62
7
6
CONTINUOUS
10
30.1977971344
20
13.2245358275
0
VERTEX
8
___SYMBOL
62
7
6
CONTINUOUS
10
30.1873105889
20
13.2213177470
0
VERTEX
8
___SYMBOL
62
7
6
CONTINUOUS
10
30.1773451711
20
13.2167335828
0
VERTEX
8
___SYMBOL
62
7
6
CONTINUOUS
10
30.1680779418
20
13.2108647840
0
VERTEX
8
___SYMBOL
62
7
6
CONTINUOUS
10
30.1596735569
20
13.2038156248
0
VERTEX
8
___SYMBOL
62
7
6
CONTINUOUS
10
30.1522813414
20
13.1957113512
0
VERTEX
8
___SYMBOL
62
7
6
CONTINUOUS
10
30.1460326368
20
13.1866959563
0
VERTEX
8
___SYMBOL
62
7
6
CONTINUOUS
10
30.1410384671
20
13.1769296212
0
VERTEX
8
___SYMBOL
62
7
6
CONTINUOUS
10
30.1373875663
20
13.1665858697
0
VERTEX
8
___SYMBOL
62
7
6
CONTINUOUS
10
30.1351448020
20
13.1558484846
0
VERTEX
8
___SYMBOL
62
7
6
CONTINUOUS
10
30.1343500225
20
13.1449082427
0
VERTEX
8
___SYMBOL
62
7
6
CONTINUOUS
10
30.1350173491
20
13.1339595250
0
VERTEX
8
___SYMBOL
62
7
6
CONTINUOUS
10
30.1371349250
20
13.1231968633
0
VERTEX
8
___SYMBOL
62
7
6
CONTINUOUS
10
30.1406651262
20
13.1128114834
0
VERTEX
8
___SYMBOL
62
7
6
CONTINUOUS
10
30.1455452296
20
13.1029879079
0
VERTEX
8
___SYMBOL
62
7
6
CONTINUOUS
10
30.1516885280
20
13.0939006774
0
VERTEX
8
___SYMBOL
62
7
6
CONTINUOUS
10
30.1589858701
20
13.0857112495
0
VERTEX
8
___SYMBOL
62
7
6
CONTINUOUS
10
30.1673076001
20
13.0785651302
0
VERTEX
8
___SYMBOL
62
7
6
CONTINUOUS
10
30.1765058615
20
13.0725892883
0
VERTEX
8
___SYMBOL
62
7
6
CONTINUOUS
10
30.1864172240
20
13.0678898997
0
VERTEX
8
___SYMBOL
62
7
6
CONTINUOUS
10
30.1968655870
20
13.0645504610
0
VERTEX
8
___SYMBOL
62
7
6
CONTINUOUS
10
30.2076653090
20
13.0626303058
0
VERTEX
8
___SYMBOL
62
7
6
CONTINUOUS
10
30.2186245057
20
13.0621635504
0
VERTEX
8
___SYMBOL
62
7
6
CONTINUOUS
10
30.2295484592
20
13.0631584880
0
VERTEX
8
___SYMBOL
62
7
6
CONTINUOUS
10
30.2402430778
20
13.0655974410
0
VERTEX
8
___SYMBOL
62
7
6
CONTINUOUS
10
30.2505183446
20
13.0694370751
0
VERTEX
8
___SYMBOL
62
7
6
CONTINUOUS
10
30.2601916936
20
13.0746091697
0
VERTEX
8
___SYMBOL
62
7
6
CONTINUOUS
10
30.2690912531
20
13.0810218293
0
VERTEX
8
___SYMBOL
62
7
6
CONTINUOUS
10
30.2770589001
20
13.0885611168
0
VERTEX
8
___SYMBOL
62
7
6
CONTINUOUS
10
30.2839530691
20
13.0970930778
0
VERTEX
8
___SYMBOL
62
7
6
CONTINUOUS
10
30.2896512678
20
13.1064661204
0
VERTEX
8
___SYMBOL
62
7
6
CONTINUOUS
10
30.2940522533
20
13.1165137088
0
VERTEX
8
___SYMBOL
62
7
6
CONTINUOUS
10
30.2970778309
20
13.1270573221
0
VERTEX
8
___SYMBOL
62
7
6
CONTINUOUS
10
30.2986742436
20
13.1379096264
0
VERTEX
8
___SYMBOL
62
7
6
CONTINUOUS
10
30.2988131271
20
13.1488778031
0
VERTEX
8
___SYMBOL
62
7
6
CONTINUOUS
10
30.2974920139
20
13.1597669748
0
VERTEX
8
___SYMBOL
62
7
6
CONTINUOUS
10
30.2947343767
20
13.1703836678
0
VERTEX
8
___SYMBOL
62
7
6
CONTINUOUS
10
30.2905892120
20
13.1805392498
0
VERTEX
8
___SYMBOL
62
7
6
CONTINUOUS
10
30.2851301691
20
13.1900532811
0
VERTEX
8
___SYMBOL
62
7
6
CONTINUOUS
10
30.2784542418
20
13.1987567209
0
VERTEX
8
___SYMBOL
62
7
6
CONTINUOUS
10
30.2706800448
20
13.2064949307
0
VERTEX
8
___SYMBOL
62
7
6
CONTINUOUS
10
30.2619457062
20
13.2131304214
0
VERTEX
8
___SYMBOL
62
7
6
CONTINUOUS
10
30.2524064138
20
13.2185452970
0
VERTEX
8
___SYMBOL
62
7
6
CONTINUOUS
10
30.2422316572
20
13.2226433483
0
VERTEX
8
___SYMBOL
62
7
6
CONTINUOUS
10
30.2316022167
20
13.2253517632
0
VERTEX
8
___SYMBOL
62
7
6
CONTINUOUS
10
30.2207069511
20
13.2266224199
0
VERTEX
8
___SYMBOL
62
7
6
CONTINUOUS
10
30.2097394424
20
13.2264327418
0
VERTEX
8
___SYMBOL
62
7
6
CONTINUOUS
10
30.1988945561
20
13.2247860992
0
SEQEND
0
LINE
8
___SYMBOL
62
7
6
CONTINUOUS
10
30.3784421806
20
13.9192607005
11
30.3784421806
21
13.8576107011
0
LINE
8
___SYMBOL
62
7
6
CONTINUOUS
10
30.3784421806
20
13.8576107011
11
29.5227371889
21
13.8576107011
0
LINE
8
___SYMBOL
62
7
6
CONTINUOUS
10
29.5227371889
20
13.8576107011
11
29.5227371889
21
13.9192607005
0
LINE
8
___SYMBOL
62
7
6
CONTINUOUS
10
29.5227371889
20
13.9192607005
11
30.3784421806
21
13.9192607005
0
SOLID
8
___SYMBOL
62
7
6
CONTINUOUS
10
29.5227371889
20
13.8576106970
11
29.5227371889
21
13.9192606871
12
30.3784421806
22
13.9192606871
13
30.3784421806
23
13.9192606871
0
SOLID
8
___SYMBOL
62
7
6
CONTINUOUS
10
30.3784421806
20
13.9192606871
11
30.3784421806
21
13.8576106970
12
29.5227371889
22
13.8576106970
13
29.5227371889
23
13.8576106970
0
LINE
8
___SYMBOL
62
7
6
CONTINUOUS
10
30.3784421806
20
13.8192782015
11
30.3784421806
21
13.7576282021
0
LINE
8
___SYMBOL
62
7
6
CONTINUOUS
10
30.3784421806
20
13.7576282021
11
29.5227371889
21
13.7576282021
0
LINE
8
___SYMBOL
62
7
6
CONTINUOUS
10
29.5227371889
20
13.7576282021
11
29.5227371889
21
13.8192782015
0
LINE
8
___SYMBOL
62
7
6
CONTINUOUS
10
29.5227371889
20
13.8192782015
11
30.3784421806
21
13.8192782015
0
SOLID
8
___SYMBOL
62
7
6
CONTINUOUS
10
29.5227371889
20
13.7576281888
11
29.5227371889
21
13.8192782129
12
30.3784421806
22
13.8192782129
13
30.3784421806
23
13.8192782129
0
SOLID
8
___SYMBOL
62
7
6
CONTINUOUS
10
30.3784421806
20
13.8192782129
11
30.3784421806
21
13.7576281888
12
29.5227371889
22
13.7576281888
13
29.5227371889
23
13.7576281888
0
LINE
8
___SYMBOL
62
7
6
CONTINUOUS
10
30.3784421806
20
13.7192957025
11
30.3784421806
21
13.6576532031
0
LINE
8
___SYMBOL
62
7
6
CONTINUOUS
10
30.3784421806
20
13.6576532031
11
29.5227371889
21
13.6576532031
0
LINE
8
___SYMBOL
62
7
6
CONTINUOUS
10
29.5227371889
20
13.6576532031
11
29.5227371889
21
13.7192957025
0
LINE
8
___SYMBOL
62
7
6
CONTINUOUS
10
29.5227371889
20
13.7192957025
11
30.3784421806
21
13.7192957025
0
SOLID
8
___SYMBOL
62
7
6
CONTINUOUS
10
29.5227371889
20
13.6576531946
11
29.5227371889
21
13.7192957047
12
30.3784421806
22
13.7192957047
13
30.3784421806
23
13.7192957047
0
SOLID
8
___SYMBOL
62
7
6
CONTINUOUS
10
30.3784421806
20
13.7192957047
11
30.3784421806
21
13.6576531946
12
29.5227371889
22
13.6576531946
13
29.5227371889
23
13.6576531946
0
LINE
8
___SYMBOL
62
7
6
CONTINUOUS
10
30.3784421806
20
13.6193132034
11
30.3784421806
21
13.5576707040
0
LINE
8
___SYMBOL
62
7
6
CONTINUOUS
10
30.3784421806
20
13.5576707040
11
29.5227371889
21
13.5576707040
0
LINE
8
___SYMBOL
62
7
6
CONTINUOUS
10
29.5227371889
20
13.5576707040
11
29.5227371889
21
13.6193132034
0
LINE
8
___SYMBOL
62
7
6
CONTINUOUS
10
29.5227371889
20
13.6193132034
11
30.3784421806
21
13.6193132034
0
SOLID
8
___SYMBOL
62
7
6
CONTINUOUS
10
29.5227371889
20
13.5576707204
11
29.5227371889
21
13.6193131965
12
30.3784421806
22
13.6193131965
13
30.3784421806
23
13.6193131965
0
SOLID
8
___SYMBOL
62
7
6
CONTINUOUS
10
30.3784421806
20
13.6193131965
11
30.3784421806
21
13.5576707204
12
29.5227371889
22
13.5576707204
13
29.5227371889
23
13.5576707204
0
LINE
8
___SYMBOL
62
7
6
CONTINUOUS
10
30.3784421806
20
13.4926757047
11
30.3784421806
21
13.4310257053
0
LINE
8
___SYMBOL
62
7
6
CONTINUOUS
10
30.3784421806
20
13.4310257053
11
29.5227371889
21
13.4310257053
0
LINE
8
___SYMBOL
62
7
6
CONTINUOUS
10
29.5227371889
20
13.4310257053
11
29.5227371889
21
13.4926757047
0
LINE
8
___SYMBOL
62
7
6
CONTINUOUS
10
29.5227371889
20
13.4926757047
11
30.3784421806
21
13.4926757047
0
SOLID
8
___SYMBOL
62
7
6
CONTINUOUS
10
29.5227371889
20
13.4310257181
11
29.5227371889
21
13.4926757083
12
30.3784421806
22
13.4926757083
13
30.3784421806
23
13.4926757083
0
SOLID
8
___SYMBOL
62
7
6
CONTINUOUS
10
30.3784421806
20
13.4926757083
11
30.3784421806
21
13.4310257181
12
29.5227371889
22
13.4310257181
13
29.5227371889
23
13.4310257181
0
ENDBLK
8
0
6
BYBLOCK
62
0
0
BLOCK
8
___SYMBOL
62
2
6
CONTINUOUS
2
TEMPLATE_NUMBER_BL3
70
64
10
9.9264250442
20
8.8716210186
0
TEXT
8
___SYMBOL
62
2
6
CONTINUOUS
10
9.6162251417
20
8.8363710297
7
STANDARD
40
0.0704999778
1
1040322-7
41
0.8000000000
72
0
0
TEXT
8
___SYMBOL
62
2
6
CONTINUOUS
10
10.1238249821
20
8.8363710297
7
STANDARD
40
0.0704999778
1
-
41
0.8000000000
72
0
0
TEXT
8
___SYMBOL
62
2
6
CONTINUOUS
10
10.1802249644
20
8.8363710297
7
STANDARD
40
0.0704999778
1
A
41
0.8000000000
72
0
0
ENDBLK
8
0
6
BYBLOCK
62
0
0
BLOCK
8
___SYMBOL
62
2
6
CONTINUOUS
2
TEMPLATE_NUMBER_BL4
70
64
10
9.9415062901
20
7.2303365316
0
TEXT
8
___SYMBOL
62
2
6
CONTINUOUS
10
9.6313063877
20
7.1950865427
7
STANDARD
40
0.0704999778
1
1040322-7
41
0.8000000000
72
0
0
TEXT
8
___SYMBOL
62
2
6
CONTINUOUS
10
10.1389062281
20
7.1950865427
7
STANDARD
40
0.0704999778
1
-
41
0.8000000000
72
0
0
TEXT
8
___SYMBOL
62
2
6
CONTINUOUS
10
10.1953062104
20
7.1950865427
7
STANDARD
40
0.0704999778
1
A
41
0.8000000000
72
0
0
ENDBLK
8
0
6
BYBLOCK
62
0
0
BLOCK
8
___SYMBOL
62
2
6
CONTINUOUS
2
WHEN_PLOTTING_TEMPLATE_N_BL5
70
64
10
13.2202126868
20
12.4877065373
0
TEXT
8
___SYMBOL
62
2
6
CONTINUOUS
10
9.9077124544
20
13.6986441222
7
STANDARD
40
0.1562500110
1
WHEN PLOTTING TEMPLATE FULL SIZE:
41
0.8000000000
72
0
0
TEXT
8
___SYMBOL
62
2
6
CONTINUOUS
10
9.9077124544
20
13.4642691058
7
STANDARD
40
0.1562500110
1
Make sure horizontal and vertical dimensions
41
0.8000000000
72
0
0
TEXT
8
___SYMBOL
62
2
6
CONTINUOUS
10
9.9077124544
20
13.2298940893
7
STANDARD
40
0.1562500110
1
match the dimensions labeled on the template.
41
0.8000000000
72
0
0
TEXT
8
___SYMBOL
62
2
6
CONTINUOUS
10
9.9077124544
20
12.9955190729
7
STANDARD
40
0.1562500110
1
 
41
0.8000000000
72
0
0
TEXT
8
___SYMBOL
62
2
6
CONTINUOUS
10
9.9077124544
20
12.7611440564
7
STANDARD
40
0.1562500110
1
AL TRAZAR LA PLANTILLA A ESCALA,
41
0.8000000000
72
0
0
TEXT
8
___SYMBOL
62
2
6
CONTINUOUS
10
9.9077124544
20
12.5267690400
7
STANDARD
40
0.1562500110
1
asegúrese de que las dimensiones horizontales
41
0.8000000000
72
0
0
TEXT
8
___SYMBOL
62
2
6
CONTINUOUS
10
9.9077124544
20
12.2923940236
7
STANDARD
40
0.1562500110
1
y verticales concuerden con las dimensiones marcadas
41
0.8000000000
72
0
0
TEXT
8
___SYMBOL
62
2
6
CONTINUOUS
10
9.9077124544
20
12.0580190071
7
STANDARD
40
0.1562500110
1
en la plantilla.
41
0.8000000000
72
0
0
TEXT
8
___SYMBOL
62
2
6
CONTINUOUS
10
9.9077124544
20
11.8236439907
7
STANDARD
40
0.1562500110
1
 
41
0.8000000000
72
0
0
TEXT
8
___SYMBOL
62
2
6
CONTINUOUS
10
9.9077124544
20
11.5892689742
7
STANDARD
40
0.1562500110
1
AU MOMENT DE TRACER LA DÉCOUPE À L'ÉCHELLE,
41
0.8000000000
72
0
0
TEXT
8
___SYMBOL
62
2
6
CONTINUOUS
10
9.9077124544
20
11.3548939578
7
STANDARD
40
0.1562500110
1
Assurez vos que les dimensions horizotales et
41
0.8000000000
72
0
0
TEXT
8
___SYMBOL
62
2
6
CONTINUOUS
10
9.9077124544
20
11.1205189413
7
STANDARD
40
0.1562500110
1
verticales correspondent avec les dimensions du plan.
41
0.8000000000
72
0
0
ENDBLK
8
0
6
BYBLOCK
62
0
0
BLOCK
8
___SYMBOL
62
2
6
CONTINUOUS
2
REVEAL-NOREVEAL_BL6
70
64
10
28.8075148438
20
19.7925527652
0
LINE
8
___SYMBOL
62
7
6
CONTINUOUS
10
29.4355179903
20
19.7960427652
11
28.1227479903
21
19.8934627652
0
LINE
8
___SYMBOL
62
7
6
CONTINUOUS
10
28.1227479903
20
19.8934627652
11
28.0514679903
21
19.9920627652
0
LINE
8
___SYMBOL
62
7
6
CONTINUOUS
10
28.0514679903
20
19.9920627652
11
28.0906679903
21
20.0110727652
0
LINE
8
___SYMBOL
62
7
6
CONTINUOUS
10
28.0906679903
20
20.0110727652
11
28.1488879903
21
19.9255327652
0
LINE
8
___SYMBOL
62
7
6
CONTINUOUS
10
28.1488879903
20
19.9255327652
11
29.4188879903
21
19.8376227652
0
LINE
8
___SYMBOL
62
7
6
CONTINUOUS
10
28.9496179903
20
20.0110727652
11
28.9496179903
21
20.2712527652
0
LINE
8
___SYMBOL
62
7
6
CONTINUOUS
10
28.9496179903
20
20.2712527652
11
28.7500279903
21
20.2712527652
0
LINE
8
___SYMBOL
62
7
6
CONTINUOUS
10
28.8070579903
20
19.8799739269
11
28.8070579903
21
20.2334727652
0
LINE
8
___SYMBOL
62
7
6
CONTINUOUS
10
28.8070579903
20
20.2334727652
11
28.8505379903
21
20.2712527652
0
LINE
8
___SYMBOL
62
7
6
CONTINUOUS
10
28.8505379903
20
20.2712527652
11
28.8975779903
21
20.2334727652
0
LINE
8
___SYMBOL
62
7
6
CONTINUOUS
10
28.8975779903
20
19.8737080897
11
28.8975779903
21
20.2334727652
0
LINE
8
___SYMBOL
62
7
6
CONTINUOUS
10
28.8975779903
20
20.2334727652
11
28.8070579903
21
20.2334727652
0
LINE
8
___SYMBOL
62
7
6
CONTINUOUS
10
28.8070579903
20
20.1351027652
11
28.8975779903
21
20.1351027652
0
LINE
8
___SYMBOL
62
7
6
CONTINUOUS
10
28.8975879903
20
20.1351027652
11
28.8505379903
21
20.1728827652
0
LINE
8
___SYMBOL
62
7
6
CONTINUOUS
10
28.8505379903
20
20.1728827652
11
28.8070579903
21
20.1351027652
0
LINE
8
___SYMBOL
62
2
6
CONTINUOUS
10
29.5875879903
20
20.1408127652
11
29.4430312043
21
20.0110727652
0
LINE
8
___SYMBOL
62
7
6
CONTINUOUS
10
28.8975779903
20
19.8359630214
11
28.8975779903
21
19.7592127652
0
LINE
8
___SYMBOL
62
7
6
CONTINUOUS
10
28.8975779903
20
19.7592127652
11
28.9424879903
21
19.6998127652
0
LINE
8
___SYMBOL
62
7
6
CONTINUOUS
10
28.9424879903
20
19.6998127652
11
28.7607179903
21
19.6998127652
0
LINE
8
___SYMBOL
62
7
6
CONTINUOUS
10
28.7607179903
20
19.6998127652
11
28.8070579903
21
19.7592127652
0
LINE
8
___SYMBOL
62
7
6
CONTINUOUS
10
28.8070579903
20
19.7592127652
11
28.8070579903
21
19.8426804650
0
POLYLINE
8
___SYMBOL
62
7
6
CONTINUOUS
66
1
70
0
0
VERTEX
8
___SYMBOL
62
7
6
CONTINUOUS
10
29.5875879903
20
20.4179727652
0
VERTEX
8
___SYMBOL
62
7
6
CONTINUOUS
10
29.5876568275
20
20.4197424239
0
VERTEX
8
___SYMBOL
62
7
6
CONTINUOUS
10
29.5876580157
20
20.4215129311
0
VERTEX
8
___SYMBOL
62
7
6
CONTINUOUS
10
29.5875919956
20
20.4232826381
0
VERTEX
8
___SYMBOL
62
7
6
CONTINUOUS
10
29.5874592080
20
20.4250498964
0
VERTEX
8
___SYMBOL
62
7
6
CONTINUOUS
10
29.5872600936
20
20.4268130575
0
VERTEX
8
___SYMBOL
62
7
6
CONTINUOUS
10
29.5869950931
20
20.4285704728
0
VERTEX
8
___SYMBOL
62
7
6
CONTINUOUS
10
29.5866646473
20
20.4303204939
0
VERTEX
8
___SYMBOL
62
7
6
CONTINUOUS
10
29.5862691969
20
20.4320614722
0
VERTEX
8
___SYMBOL
62
7
6
CONTINUOUS
10
29.5858091827
20
20.4337917591
0
VERTEX
8
___SYMBOL
62
7
6
CONTINUOUS
10
29.5852850454
20
20.4355097062
0
VERTEX
8
___SYMBOL
62
7
6
CONTINUOUS
10
29.5846972257
20
20.4372136649
0
VERTEX
8
___SYMBOL
62
7
6
CONTINUOUS
10
29.5840461643
20
20.4389019866
0
VERTEX
8
___SYMBOL
62
7
6
CONTINUOUS
10
29.5833323021
20
20.4405730229
0
VERTEX
8
___SYMBOL
62
7
6
CONTINUOUS
10
29.5825560797
20
20.4422251252
0
VERTEX
8
___SYMBOL
62
7
6
CONTINUOUS
10
29.5817179379
20
20.4438566449
0
VERTEX
8
___SYMBOL
62
7
6
CONTINUOUS
10
29.5808183174
20
20.4454659336
0
VERTEX
8
___SYMBOL
62
7
6
CONTINUOUS
10
29.5798576590
20
20.4470513427
0
VERTEX
8
___SYMBOL
62
7
6
CONTINUOUS
10
29.5788365633
20
20.4486112884
0
VERTEX
8
___SYMBOL
62
7
6
CONTINUOUS
10
29.5777562704
20
20.4501444455
0
VERTEX
8
___SYMBOL
62
7
6
CONTINUOUS
10
29.5766181804
20
20.4516495535
0
VERTEX
8
___SYMBOL
62
7
6
CONTINUOUS
10
29.5754236933
20
20.4531253521
0
VERTEX
8
___SYMBOL
62
7
6
CONTINUOUS
10
29.5741742092
20
20.4545705808
0
VERTEX
8
___SYMBOL
62
7
6
CONTINUOUS
10
29.5728711282
20
20.4559839791
0
VERTEX
8
___SYMBOL
62
7
6
CONTINUOUS
10
29.5715158502
20
20.4573642866
0
VERTEX
8
___SYMBOL
62
7
6
CONTINUOUS
10
29.5701097754
20
20.4587102428
0
VERTEX
8
___SYMBOL
62
7
6
CONTINUOUS
10
29.5686543038
20
20.4600205873
0
VERTEX
8
___SYMBOL
62
7
6
CONTINUOUS
10
29.5671508354
20
20.4612940597
0
VERTEX
8
___SYMBOL
62
7
6
CONTINUOUS
10
29.5656007703
20
20.4625293994
0
VERTEX
8
___SYMBOL
62
7
6
CONTINUOUS
10
29.5640055085
20
20.4637253461
0
VERTEX
8
___SYMBOL
62
7
6
CONTINUOUS
10
29.5623664502
20
20.4648806393
0
VERTEX
8
___SYMBOL
62
7
6
CONTINUOUS
10
29.5606849952
20
20.4659940185
0
VERTEX
8
___SYMBOL
62
7
6
CONTINUOUS
10
29.5589625437
20
20.4670642234
0
VERTEX
8
___SYMBOL
62
7
6
CONTINUOUS
10
29.5572004958
20
20.4680899934
0
VERTEX
8
___SYMBOL
62
7
6
CONTINUOUS
10
29.5554002515
20
20.4690700680
0
VERTEX
8
___SYMBOL
62
7
6
CONTINUOUS
10
29.5534443821
20
20.4700615016
0
VERTEX
8
___SYMBOL
62
7
6
CONTINUOUS
10
29.5514492145
20
20.4709991474
0
VERTEX
8
___SYMBOL
62
7
6
CONTINUOUS
10
29.5494171137
20
20.4718823843
0
VERTEX
8
___SYMBOL
62
7
6
CONTINUOUS
10
29.5473504450
20
20.4727105912
0
VERTEX
8
___SYMBOL
62
7
6
CONTINUOUS
10
29.5452515734
20
20.4734831469
0
VERTEX
8
___SYMBOL
62
7
6
CONTINUOUS
10
29.5431228642
20
20.4741994301
0
VERTEX
8
___SYMBOL
62
7
6
CONTINUOUS
10
29.5409666823
20
20.4748588198
0
VERTEX
8
___SYMBOL
62
7
6
CONTINUOUS
10
29.5387853930
20
20.4754606947
0
VERTEX
8
___SYMBOL
62
7
6
CONTINUOUS
10
29.5365813613
20
20.4760044337
0
VERTEX
8
___SYMBOL
62
7
6
CONTINUOUS
10
29.5343569525
20
20.4764894155
0
VERTEX
8
___SYMBOL
62
7
6
CONTINUOUS
10
29.5321145317
20
20.4769150191
0
VERTEX
8
___SYMBOL
62
7
6
CONTINUOUS
10
29.5298564639
20
20.4772806233
0
VERTEX
8
___SYMBOL
62
7
6
CONTINUOUS
10
29.5275851144
20
20.4775856068
0
VERTEX
8
___SYMBOL
62
7
6
CONTINUOUS
10
29.5253028482
20
20.4778293486
0
VERTEX
8
___SYMBOL
62
7
6
CONTINUOUS
10
29.5235692060
20
20.4779727652
0
SEQEND
0
LINE
8
___SYMBOL
62
7
6
CONTINUOUS
10
28.8070579903
20
20.0110727652
11
27.8739779903
21
20.0110727652
0
LINE
8
___SYMBOL
62
7
6
CONTINUOUS
10
27.8739779903
20
20.0110727652
11
27.8497379903
21
20.1194227652
0
LINE
8
___SYMBOL
62
7
6
CONTINUOUS
10
27.8497379903
20
20.1194227652
11
27.9024879903
21
20.1764527652
0
LINE
8
___SYMBOL
62
7
6
CONTINUOUS
10
27.9024879903
20
20.1764527652
11
27.8739779903
21
20.2933527652
0
LINE
8
___SYMBOL
62
7
6
CONTINUOUS
10
27.8739779903
20
20.2933527652
11
27.9466779903
21
20.3389727652
0
LINE
8
___SYMBOL
62
7
6
CONTINUOUS
10
27.9466779903
20
20.3389727652
11
27.9495279903
21
20.4316427652
0
LINE
8
___SYMBOL
62
7
6
CONTINUOUS
10
27.9495279903
20
20.4316427652
11
28.0407779903
21
20.4779727652
0
LINE
8
___SYMBOL
62
7
6
CONTINUOUS
10
28.0407779903
20
20.4779727652
11
29.5235692060
21
20.4779727652
0
LINE
8
___SYMBOL
62
7
6
CONTINUOUS
10
28.8975779903
20
20.0110727652
11
29.5875879903
21
20.0110727652
0
LINE
8
___SYMBOL
62
7
6
CONTINUOUS
10
29.5875879903
20
20.0110727652
11
29.5875879903
21
20.4179727652
0
LINE
8
___SYMBOL
62
2
6
CONTINUOUS
10
29.5319879903
20
20.0110727652
11
29.5875879903
21
20.0609727652
0
LINE
8
___SYMBOL
62
2
6
CONTINUOUS
10
29.3445320489
20
20.0110727652
11
29.5875879903
21
20.2292027652
0
LINE
8
___SYMBOL
62
2
6
CONTINUOUS
10
29.2365099903
20
20.0110727652
11
29.5875879903
21
20.3261427652
0
LINE
8
___SYMBOL
62
2
6
CONTINUOUS
10
29.1364362767
20
20.0110727652
11
29.5875879903
21
20.4159527652
0
LINE
8
___SYMBOL
62
2
6
CONTINUOUS
10
29.0267381721
20
20.0110727652
11
29.5510951873
21
20.4711581089
0
LINE
8
___SYMBOL
62
2
6
CONTINUOUS
10
28.9496179903
20
20.0443227652
11
29.4328331399
21
20.4779727652
0
LINE
8
___SYMBOL
62
2
6
CONTINUOUS
10
28.9496179903
20
20.1511027652
11
29.3138483051
21
20.4779727652
0
LINE
8
___SYMBOL
62
2
6
CONTINUOUS
10
28.9496179903
20
20.2512927652
11
29.2021999982
21
20.4779727652
0
LINE
8
___SYMBOL
62
2
6
CONTINUOUS
10
28.4628359907
20
20.0110727652
11
28.7500279903
21
20.2688080368
0
LINE
8
___SYMBOL
62
2
6
CONTINUOUS
10
28.3511934503
20
20.0110727652
11
28.8714499934
21
20.4779727652
0
LINE
8
___SYMBOL
62
2
6
CONTINUOUS
10
28.2428476974
20
20.0110727652
11
28.7631088559
21
20.4779727652
0
LINE
8
___SYMBOL
62
2
6
CONTINUOUS
10
28.8636479903
20
20.2713827652
11
29.0938462677
21
20.4779727652
0
LINE
8
___SYMBOL
62
2
6
CONTINUOUS
10
28.6819328163
20
20.0110727652
11
28.7500279903
21
20.0721827652
0
LINE
8
___SYMBOL
62
2
6
CONTINUOUS
10
28.1335159907
20
20.0110727652
11
28.6537782885
21
20.4779727652
0
LINE
8
___SYMBOL
62
2
6
CONTINUOUS
10
28.0218570579
20
20.0110727652
11
28.5425979903
21
20.4783927652
0
LINE
8
___SYMBOL
62
2
6
CONTINUOUS
10
27.9135176974
20
20.0110727652
11
28.4337788559
21
20.4779727652
0
LINE
8
___SYMBOL
62
2
6
CONTINUOUS
10
27.8613549139
20
20.0674964585
11
28.3187483101
21
20.4779727652
0
LINE
8
___SYMBOL
62
2
6
CONTINUOUS
10
27.8968552516
20
20.1995487722
11
28.2070999890
21
20.4779727652
0
LINE
8
___SYMBOL
62
2
6
CONTINUOUS
10
27.9467576908
20
20.3415642898
11
28.0987589282
21
20.4779727652
0
LINE
8
___SYMBOL
62
7
6
CONTINUOUS
10
28.8070579903
20
19.7592127652
11
28.8975779903
21
19.7592127652
0
LINE
8
___SYMBOL
62
2
6
CONTINUOUS
10
28.5737568320
20
20.0110727652
11
28.7500279903
21
20.1692627652
0
LINE
8
___SYMBOL
62
2
6
CONTINUOUS
10
28.7527521283
20
20.2712527652
11
28.9830982885
21
20.4779727652
0
LINE
8
___SYMBOL
62
7
6
CONTINUOUS
10
28.7500279903
20
20.2712527652
11
28.7500279903
21
20.0110727652
0
LINE
8
___SYMBOL
62
7
6
CONTINUOUS
10
29.5150656381
20
19.9041627652
11
29.4355179903
21
19.7960427652
0
LINE
8
___SYMBOL
62
7
6
CONTINUOUS
10
29.4175241936
20
19.8357589433
11
29.4673095594
21
19.9041627652
0
LINE
8
___SYMBOL
62
7
6
CONTINUOUS
10
29.7652889416
20
19.1200527652
11
29.7652889416
21
19.8209927652
0
POLYLINE
8
___SYMBOL
62
7
6
CONTINUOUS
66
1
70
0
0
VERTEX
8
___SYMBOL
62
7
6
CONTINUOUS
10
29.7652916973
20
19.8209918977
0
VERTEX
8
___SYMBOL
62
7
6
CONTINUOUS
10
29.7652283499
20
19.8251317048
0
VERTEX
8
___SYMBOL
62
7
6
CONTINUOUS
10
29.7650390260
20
19.8292650279
0
VERTEX
8
___SYMBOL
62
7
6
CONTINUOUS
10
29.7647247688
20
19.8333876533
0
VERTEX
8
___SYMBOL
62
7
6
CONTINUOUS
10
29.7642866214
20
19.8374953670
0
VERTEX
8
___SYMBOL
62
7
6
CONTINUOUS
10
29.7637256267
20
19.8415839550
0
VERTEX
8
___SYMBOL
62
7
6
CONTINUOUS
10
29.7630428278
20
19.8456492035
0
VERTEX
8
___SYMBOL
62
7
6
CONTINUOUS
10
29.7622392678
20
19.8496868985
0
VERTEX
8
___SYMBOL
62
7
6
CONTINUOUS
10
29.7613159897
20
19.8536928262
0
VERTEX
8
___SYMBOL
62
7
6
CONTINUOUS
10
29.7602740366
20
19.8576627726
0
VERTEX
8
___SYMBOL
62
7
6
CONTINUOUS
10
29.7591144515
20
19.8615925238
0
VERTEX
8
___SYMBOL
62
7
6
CONTINUOUS
10
29.7578382775
20
19.8654778659
0
VERTEX
8
___SYMBOL
62
7
6
CONTINUOUS
10
29.7564465577
20
19.8693145849
0
VERTEX
8
___SYMBOL
62
7
6
CONTINUOUS
10
29.7549403350
20
19.8730984671
0
VERTEX
8
___SYMBOL
62
7
6
CONTINUOUS
10
29.7533206525
20
19.8768252984
0
VERTEX
8
___SYMBOL
62
7
6
CONTINUOUS
10
29.7515885534
20
19.8804908650
0
VERTEX
8
___SYMBOL
62
7
6
CONTINUOUS
10
29.7497450805
20
19.8840909529
0
VERTEX
8
___SYMBOL
62
7
6
CONTINUOUS
10
29.7477915814
20
19.8876215334
0
VERTEX
8
___SYMBOL
62
7
6
CONTINUOUS
10
29.7457306203
20
19.8910793185
0
VERTEX
8
___SYMBOL
62
7
6
CONTINUOUS
10
29.7435650660
20
19.8944612056
0
VERTEX
8
___SYMBOL
62
7
6
CONTINUOUS
10
29.7412977873
20
19.8977640917
0
VERTEX
8
___SYMBOL
62
7
6
CONTINUOUS
10
29.7389316527
20
19.9009848742
0
VERTEX
8
___SYMBOL
62
7
6
CONTINUOUS
10
29.7364695311
20
19.9041204503
0
VERTEX
8
___SYMBOL
62
7
6
CONTINUOUS
10
29.7339142911
20
19.9071677172
0
VERTEX
8
___SYMBOL
62
7
6
CONTINUOUS
10
29.7312688014
20
19.9101235721
0
VERTEX
8
___SYMBOL
62
7
6
CONTINUOUS
10
29.7285359307
20
19.9129849122
0
VERTEX
8
___SYMBOL
62
7
6
CONTINUOUS
10
29.7257185478
20
19.9157486349
0
VERTEX
8
___SYMBOL
62
7
6
CONTINUOUS
10
29.7228195213
20
19.9184116372
0
VERTEX
8
___SYMBOL
62
7
6
CONTINUOUS
10
29.7198417200
20
19.9209708165
0
VERTEX
8
___SYMBOL
62
7
6
CONTINUOUS
10
29.7167880125
20
19.9234230700
0
VERTEX
8
___SYMBOL
62
7
6
CONTINUOUS
10
29.7136612676
20
19.9257652949
0
VERTEX
8
___SYMBOL
62
7
6
CONTINUOUS
10
29.7104643539
20
19.9279943884
0
VERTEX
8
___SYMBOL
62
7
6
CONTINUOUS
10
29.7072001403
20
19.9301072478
0
VERTEX
8
___SYMBOL
62
7
6
CONTINUOUS
10
29.7040691728
20
19.9319871377
0
VERTEX
8
___SYMBOL
62
7
6
CONTINUOUS
10
29.7008843794
20
19.9337603768
0
VERTEX
8
___SYMBOL
62
7
6
CONTINUOUS
10
29.6976490080
20
19.9354260248
0
VERTEX
8
___SYMBOL
62
7
6
CONTINUOUS
10
29.6943663067
20
19.9369831411
0
VERTEX
8
___SYMBOL
62
7
6
CONTINUOUS
10
29.6910395237
20
19.9384307851
0
VERTEX
8
___SYMBOL
62
7
6
CONTINUOUS
10
29.6876719070
20
19.9397680166
0
VERTEX
8
___SYMBOL
62
7
6
CONTINUOUS
10
29.6842667048
20
19.9409938948
0
VERTEX
8
___SYMBOL
62
7
6
CONTINUOUS
10
29.6808271651
20
19.9421074794
0
VERTEX
8
___SYMBOL
62
7
6
CONTINUOUS
10
29.6773565359
20
19.9431078298
0
VERTEX
8
___SYMBOL
62
7
6
CONTINUOUS
10
29.6738580655
20
19.9439940055
0
VERTEX
8
___SYMBOL
62
7
6
CONTINUOUS
10
29.6703350018
20
19.9447650661
0
VERTEX
8
___SYMBOL
62
7
6
CONTINUOUS
10
29.6667905930
20
19.9454200710
0
VERTEX
8
___SYMBOL
62
7
6
CONTINUOUS
10
29.6632280872
20
19.9459580798
0
VERTEX
8
___SYMBOL
62
7
6
CONTINUOUS
10
29.6596507324
20
19.9463781519
0
VERTEX
8
___SYMBOL
62
7
6
CONTINUOUS
10
29.6560617768
20
19.9466793469
0
VERTEX
8
___SYMBOL
62
7
6
CONTINUOUS
10
29.6524644684
20
19.9468607243
0
VERTEX
8
___SYMBOL
62
7
6
CONTINUOUS
10
29.6488620553
20
19.9469213435
0
SEQEND
0
LINE
8
___SYMBOL
62
7
6
CONTINUOUS
10
29.7248989416
20
19.1067127652
11
29.7248989416
21
19.8186127652
0
POLYLINE
8
___SYMBOL
62
7
6
CONTINUOUS
66
1
70
0
0
VERTEX
8
___SYMBOL
62
7
6
CONTINUOUS
10
29.7248988217
20
19.8186139249
0
VERTEX
8
___SYMBOL
62
7
6
CONTINUOUS
10
29.7248576629
20
19.8214424119
0
VERTEX
8
___SYMBOL
62
7
6
CONTINUOUS
10
29.7247346514
20
19.8242649538
0
VERTEX
8
___SYMBOL
62
7
6
CONTINUOUS
10
29.7245304500
20
19.8270787460
0
VERTEX
8
___SYMBOL
62
7
6
CONTINUOUS
10
29.7242457215
20
19.8298809837
0
VERTEX
8
___SYMBOL
62
7
6
CONTINUOUS
10
29.7238811287
20
19.8326688623
0
VERTEX
8
___SYMBOL
62
7
6
CONTINUOUS
10
29.7234373345
20
19.8354395771
0
VERTEX
8
___SYMBOL
62
7
6
CONTINUOUS
10
29.7229150017
20
19.8381903233
0
VERTEX
8
___SYMBOL
62
7
6
CONTINUOUS
10
29.7223147931
20
19.8409182964
0
VERTEX
8
___SYMBOL
62
7
6
CONTINUOUS
10
29.7216373715
20
19.8436206917
0
VERTEX
8
___SYMBOL
62
7
6
CONTINUOUS
10
29.7208833998
20
19.8462947043
0
VERTEX
8
___SYMBOL
62
7
6
CONTINUOUS
10
29.7200535408
20
19.8489375298
0
VERTEX
8
___SYMBOL
62
7
6
CONTINUOUS
10
29.7191484573
20
19.8515463634
0
VERTEX
8
___SYMBOL
62
7
6
CONTINUOUS
10
29.7181688121
20
19.8541184003
0
VERTEX
8
___SYMBOL
62
7
6
CONTINUOUS
10
29.7171152681
20
19.8566508360
0
VERTEX
8
___SYMBOL
62
7
6
CONTINUOUS
10
29.7159884881
20
19.8591408658
0
VERTEX
8
___SYMBOL
62
7
6
CONTINUOUS
10
29.7147891350
20
19.8615856849
0
VERTEX
8
___SYMBOL
62
7
6
CONTINUOUS
10
29.7135180654
20
19.8639826137
0
VERTEX
8
___SYMBOL
62
7
6
CONTINUOUS
10
29.7121769122
20
19.8663294720
0
VERTEX
8
___SYMBOL
62
7
6
CONTINUOUS
10
29.7107675020
20
19.8686242047
0
VERTEX
8
___SYMBOL
62
7
6
CONTINUOUS
10
29.7092916615
20
19.8708647568
0
VERTEX
8
___SYMBOL
62
7
6
CONTINUOUS
10
29.7077512172
20
19.8730490730
0
VERTEX
8
___SYMBOL
62
7
6
CONTINUOUS
10
29.7061479960
20
19.8751750983
0
VERTEX
8
___SYMBOL
62
7
6
CONTINUOUS
10
29.7044838245
20
19.8772407776
0
VERTEX
8
___SYMBOL
62
7
6
CONTINUOUS
10
29.7027605294
20
19.8792440556
0
VERTEX
8
___SYMBOL
62
7
6
CONTINUOUS
10
29.7009799373
20
19.8811828774
0
VERTEX
8
___SYMBOL
62
7
6
CONTINUOUS
10
29.6991438748
20
19.8830551877
0
VERTEX
8
___SYMBOL
62
7
6
CONTINUOUS
10
29.6972541688
20
19.8848589315
0
VERTEX
8
___SYMBOL
62
7
6
CONTINUOUS
10
29.6953126458
20
19.8865920536
0
VERTEX
8
___SYMBOL
62
7
6
CONTINUOUS
10
29.6933211325
20
19.8882524989
0
VERTEX
8
___SYMBOL
62
7
6
CONTINUOUS
10
29.6912814556
20
19.8898382123
0
VERTEX
8
___SYMBOL
62
7
6
CONTINUOUS
10
29.6891954417
20
19.8913471386
0
VERTEX
8
___SYMBOL
62
7
6
CONTINUOUS
10
29.6870649176
20
19.8927772227
0
VERTEX
8
___SYMBOL
62
7
6
CONTINUOUS
10
29.6850207871
20
19.8940495037
0
VERTEX
8
___SYMBOL
62
7
6
CONTINUOUS
10
29.6829409253
20
19.8952495030
0
VERTEX
8
___SYMBOL
62
7
6
CONTINUOUS
10
29.6808274107
20
19.8963765988
0
VERTEX
8
___SYMBOL
62
7
6
CONTINUOUS
10
29.6786823217
20
19.8974301693
0
VERTEX
8
___SYMBOL
62
7
6
CONTINUOUS
10
29.6765077367
20
19.8984095927
0
VERTEX
8
___SYMBOL
62
7
6
CONTINUOUS
10
29.6743057342
20
19.8993142473
0
VERTEX
8
___SYMBOL
62
7
6
CONTINUOUS
10
29.6720783925
20
19.9001435111
0
VERTEX
8
___SYMBOL
62
7
6
CONTINUOUS
10
29.6698277902
20
19.9008967624
0
VERTEX
8
___SYMBOL
62
7
6
CONTINUOUS
10
29.6675560057
20
19.9015733795
0
VERTEX
8
___SYMBOL
62
7
6
CONTINUOUS
10
29.6652651173
20
19.9021727404
0
VERTEX
8
___SYMBOL
62
7
6
CONTINUOUS
10
29.6629572035
20
19.9026942234
0
VERTEX
8
___SYMBOL
62
7
6
CONTINUOUS
10
29.6606343427
20
19.9031372068
0
VERTEX
8
___SYMBOL
62
7
6
CONTINUOUS
10
29.6582986134
20
19.9035010686
0
VERTEX
8
___SYMBOL
62
7
6
CONTINUOUS
10
29.6559520941
20
19.9037851872
0
VERTEX
8
___SYMBOL
62
7
6
CONTINUOUS
10
29.6535968630
20
19.9039889406
0
VERTEX
8
___SYMBOL
62
7
6
CONTINUOUS
10
29.6512349987
20
19.9041117072
0
VERTEX
8
___SYMBOL
62
7
6
CONTINUOUS
10
29.6488685796
20
19.9041528650
0
SEQEND
0
LINE
8
___SYMBOL
62
7
6
CONTINUOUS
10
29.6488689416
20
19.9041527652
11
29.2354289416
21
19.9041527652
0
LINE
8
___SYMBOL
62
7
6
CONTINUOUS
10
29.2354289416
20
19.9041527652
11
29.2354289416
21
19.9469227652
0
LINE
8
___SYMBOL
62
7
6
CONTINUOUS
10
29.2354289416
20
19.9469227652
11
29.6488689416
21
19.9469227652
0
LINE
8
___SYMBOL
62
2
6
CONTINUOUS
10
29.6822807053
20
19.8956113479
11
29.7143795272
21
19.9252417861
0
LINE
8
___SYMBOL
62
7
6
CONTINUOUS
10
29.2727689416
20
19.9540527652
11
29.2697089416
21
19.9601627652
0
LINE
8
___SYMBOL
62
7
6
CONTINUOUS
10
29.2697089416
20
19.9601627652
11
29.2656389416
21
19.9611727652
0
LINE
8
___SYMBOL
62
7
6
CONTINUOUS
10
29.2656389416
20
19.9611727652
11
29.2615689416
21
19.9632127652
0
LINE
8
___SYMBOL
62
7
6
CONTINUOUS
10
29.2615689416
20
19.9632127652
11
29.2574889416
21
19.9672927652
0
LINE
8
___SYMBOL
62
7
6
CONTINUOUS
10
29.2574889416
20
19.9672927652
11
29.2523989416
21
19.9662727652
0
LINE
8
___SYMBOL
62
7
6
CONTINUOUS
10
29.3776589416
20
19.9571027652
11
29.3817289416
21
19.9591427652
0
LINE
8
___SYMBOL
62
7
6
CONTINUOUS
10
29.3817289416
20
19.9591427652
11
29.3857989416
21
19.9601627652
0
LINE
8
___SYMBOL
62
7
6
CONTINUOUS
10
29.3857989416
20
19.9601627652
11
29.3939489416
21
19.9560827652
0
LINE
8
___SYMBOL
62
7
6
CONTINUOUS
10
29.3939489416
20
19.9560827652
11
29.3980189416
21
19.9560827652
0
LINE
8
___SYMBOL
62
7
6
CONTINUOUS
10
29.5184589416
20
19.9581227652
11
29.5245689416
21
19.9611727652
0
LINE
8
___SYMBOL
62
7
6
CONTINUOUS
10
29.5245689416
20
19.9611727652
11
29.5347489416
21
19.9581227652
0
LINE
8
___SYMBOL
62
7
6
CONTINUOUS
10
29.5115089416
20
19.9958027652
11
29.5074389416
21
19.9958027652
0
LINE
8
___SYMBOL
62
7
6
CONTINUOUS
10
29.5074389416
20
19.9958027652
11
29.4962389416
21
20.0039527652
0
LINE
8
___SYMBOL
62
7
6
CONTINUOUS
10
29.4962389416
20
20.0039527652
11
29.4880889416
21
20.0039527652
0
LINE
8
___SYMBOL
62
7
6
CONTINUOUS
10
29.4880889416
20
20.0039527652
11
29.4880889416
21
19.9978327652
0
LINE
8
___SYMBOL
62
7
6
CONTINUOUS
10
29.3807089416
20
19.9978327652
11
29.3807089416
21
20.0029327652
0
LINE
8
___SYMBOL
62
7
6
CONTINUOUS
10
29.3807089416
20
20.0029327652
11
29.3847789416
21
20.0039527652
0
LINE
8
___SYMBOL
62
7
6
CONTINUOUS
10
29.3847789416
20
20.0039527652
11
29.3888589416
21
20.0029327652
0
LINE
8
___SYMBOL
62
7
6
CONTINUOUS
10
29.3888589416
20
20.0029327652
11
29.3939489416
21
19.9958027652
0
LINE
8
___SYMBOL
62
7
6
CONTINUOUS
10
29.3939489416
20
19.9958027652
11
29.3990389416
21
19.9937627652
0
LINE
8
___SYMBOL
62
7
6
CONTINUOUS
10
29.3990389416
20
19.9937627652
11
29.4041289416
21
19.9937627652
0
POLYLINE
8
___SYMBOL
62
7
6
CONTINUOUS
66
1
70
0
0
VERTEX
8
___SYMBOL
62
7
6
CONTINUOUS
10
29.2442517952
20
19.9479438350
0
VERTEX
8
___SYMBOL
62
7
6
CONTINUOUS
10
29.2425765116
20
19.9494194747
0
VERTEX
8
___SYMBOL
62
7
6
CONTINUOUS
10
29.2409470325
20
19.9508769598
0
VERTEX
8
___SYMBOL
62
7
6
CONTINUOUS
10
29.2393630878
20
19.9523164550
0
VERTEX
8
___SYMBOL
62
7
6
CONTINUOUS
10
29.2378244073
20
19.9537381253
0
VERTEX
8
___SYMBOL
62
7
6
CONTINUOUS
10
29.2363307211
20
19.9551421354
0
VERTEX
8
___SYMBOL
62
7
6
CONTINUOUS
10
29.2348817588
20
19.9565286501
0
VERTEX
8
___SYMBOL
62
7
6
CONTINUOUS
10
29.2334772503
20
19.9578978342
0
VERTEX
8
___SYMBOL
62
7
6
CONTINUOUS
10
29.2321169256
20
19.9592498526
0
VERTEX
8
___SYMBOL
62
7
6
CONTINUOUS
10
29.2308005144
20
19.9605848700
0
VERTEX
8
___SYMBOL
62
7
6
CONTINUOUS
10
29.2295277467
20
19.9619030512
0
VERTEX
8
___SYMBOL
62
7
6
CONTINUOUS
10
29.2282983522
20
19.9632045610
0
VERTEX
8
___SYMBOL
62
7
6
CONTINUOUS
10
29.2271120609
20
19.9644895642
0
VERTEX
8
___SYMBOL
62
7
6
CONTINUOUS
10
29.2259686026
20
19.9657582257
0
VERTEX
8
___SYMBOL
62
7
6
CONTINUOUS
10
29.2248677072
20
19.9670107103
0
VERTEX
8
___SYMBOL
62
7
6
CONTINUOUS
10
29.2238091045
20
19.9682471826
0
VERTEX
8
___SYMBOL
62
7
6
CONTINUOUS
10
29.2227925244
20
19.9694678076
0
VERTEX
8
___SYMBOL
62
7
6
CONTINUOUS
10
29.2218176967
20
19.9706727501
0
VERTEX
8
___SYMBOL
62
7
6
CONTINUOUS
10
29.2208843513
20
19.9718621748
0
VERTEX
8
___SYMBOL
62
7
6
CONTINUOUS
10
29.2199922180
20
19.9730362466
0
VERTEX
8
___SYMBOL
62
7
6
CONTINUOUS
10
29.2191410268
20
19.9741951302
0
VERTEX
8
___SYMBOL
62
7
6
CONTINUOUS
10
29.2183305075
20
19.9753389904
0
VERTEX
8
___SYMBOL
62
7
6
CONTINUOUS
10
29.2175604188
20
19.9764679808
0
VERTEX
8
___SYMBOL
62
7
6
CONTINUOUS
10
29.2168306357
20
19.9775822090
0
VERTEX
8
___SYMBOL
62
7
6
CONTINUOUS
10
29.2161410617
20
19.9786817718
0
VERTEX
8
___SYMBOL
62
7
6
CONTINUOUS
10
29.2154916007
20
19.9797667654
0
VERTEX
8
___SYMBOL
62
7
6
CONTINUOUS
10
29.2148821564
20
19.9808372865
0
VERTEX
8
___SYMBOL
62
7
6
CONTINUOUS
10
29.2143126325
20
19.9818934316
0
VERTEX
8
___SYMBOL
62
7
6
CONTINUOUS
10
29.2137829328
20
19.9829352970
0
VERTEX
8
___SYMBOL
62
7
6
CONTINUOUS
10
29.2132929611
20
19.9839629793
0
VERTEX
8
___SYMBOL
62
7
6
CONTINUOUS
10
29.2128426209
20
19.9849765751
0
VERTEX
8
___SYMBOL
62
7
6
CONTINUOUS
10
29.2124318162
20
19.9859761807
0
VERTEX
8
___SYMBOL
62
7
6
CONTINUOUS
10
29.2120604506
20
19.9869618928
0
VERTEX
8
___SYMBOL
62
7
6
CONTINUOUS
10
29.2117284278
20
19.9879338077
0
VERTEX
8
___SYMBOL
62
7
6
CONTINUOUS
10
29.2114356517
20
19.9888920220
0
VERTEX
8
___SYMBOL
62
7
6
CONTINUOUS
10
29.2111820259
20
19.9898366322
0
VERTEX
8
___SYMBOL
62
7
6
CONTINUOUS
10
29.2109354824
20
19.9909216120
0
VERTEX
8
___SYMBOL
62
7
6
CONTINUOUS
10
29.2107419430
20
19.9919883596
0
VERTEX
8
___SYMBOL
62
7
6
CONTINUOUS
10
29.2106012548
20
19.9930370283
0
VERTEX
8
___SYMBOL
62
7
6
CONTINUOUS
10
29.2105132650
20
19.9940677713
0
VERTEX
8
___SYMBOL
62
7
6
CONTINUOUS
10
29.2104778208
20
19.9950807418
0
VERTEX
8
___SYMBOL
62
7
6
CONTINUOUS
10
29.2104947692
20
19.9960760930
0
VERTEX
8
___SYMBOL
62
7
6
CONTINUOUS
10
29.2105639971
20
19.9970539648
0
VERTEX
8
___SYMBOL
62
7
6
CONTINUOUS
10
29.2106855505
20
19.9980144434
0
VERTEX
8
___SYMBOL
62
7
6
CONTINUOUS
10
29.2108595150
20
19.9989576016
0
VERTEX
8
___SYMBOL
62
7
6
CONTINUOUS
10
29.2110859763
20
19.9998835122
0
VERTEX
8
___SYMBOL
62
7
6
CONTINUOUS
10
29.2113650199
20
20.0007922480
0
VERTEX
8
___SYMBOL
62
7
6
CONTINUOUS
10
29.2116967316
20
20.0016838818
0
VERTEX
8
___SYMBOL
62
7
6
CONTINUOUS
10
29.2120811970
20
20.0025584865
0
VERTEX
8
___SYMBOL
62
7
6
CONTINUOUS
10
29.2125185017
20
20.0034161349
0
VERTEX
8
___SYMBOL
62
7
6
CONTINUOUS
10
29.2130087314
20
20.0042568997
0
VERTEX
8
___SYMBOL
62
7
6
CONTINUOUS
10
29.2135519718
20
20.0050808538
0
VERTEX
8
___SYMBOL
62
7
6
CONTINUOUS
10
29.2141483084
20
20.0058880700
0
VERTEX
8
___SYMBOL
62
7
6
CONTINUOUS
10
29.2147978269
20
20.0066786211
0
VERTEX
8
___SYMBOL
62
7
6
CONTINUOUS
10
29.2155006130
20
20.0074525800
0
VERTEX
8
___SYMBOL
62
7
6
CONTINUOUS
10
29.2162567524
20
20.0082100193
0
VERTEX
8
___SYMBOL
62
7
6
CONTINUOUS
10
29.2170663306
20
20.0089510121
0
VERTEX
8
___SYMBOL
62
7
6
CONTINUOUS
10
29.2179294333
20
20.0096756310
0
VERTEX
8
___SYMBOL
62
7
6
CONTINUOUS
10
29.2188461462
20
20.0103839488
0
VERTEX
8
___SYMBOL
62
7
6
CONTINUOUS
10
29.2198165549
20
20.0110760385
0
SEQEND
0
LINE
8
___SYMBOL
62
7
6
CONTINUOUS
10
29.5460522640
20
20.0110727652
11
29.5623189416
21
20.0029327652
0
LINE
8
___SYMBOL
62
7
6
CONTINUOUS
10
29.5623189416
20
20.0029327652
11
29.5653789416
21
19.9988527652
0
LINE
8
___SYMBOL
62
7
6
CONTINUOUS
10
29.5653789416
20
19.9988527652
11
29.5674189416
21
19.9907127652
0
LINE
8
___SYMBOL
62
7
6
CONTINUOUS
10
29.5674189416
20
19.9907127652
11
29.5674189416
21
19.9846027652
0
LINE
8
___SYMBOL
62
7
6
CONTINUOUS
10
29.5674189416
20
19.9846027652
11
29.5663989416
21
19.9795127652
0
LINE
8
___SYMBOL
62
7
6
CONTINUOUS
10
29.5663989416
20
19.9795127652
11
29.5582489416
21
19.9744127652
0
LINE
8
___SYMBOL
62
7
6
CONTINUOUS
10
29.5582489416
20
19.9744127652
11
29.5460289416
21
19.9733927652
0
LINE
8
___SYMBOL
62
7
6
CONTINUOUS
10
29.5460289416
20
19.9733927652
11
29.5338089416
21
19.9703427652
0
LINE
8
___SYMBOL
62
7
6
CONTINUOUS
10
29.5338089416
20
19.9703427652
11
29.5266789416
21
19.9703427652
0
LINE
8
___SYMBOL
62
7
6
CONTINUOUS
10
29.5266789416
20
19.9703427652
11
29.5185389416
21
19.9683027652
0
LINE
8
___SYMBOL
62
7
6
CONTINUOUS
10
29.5185389416
20
19.9683027652
11
29.4910389416
21
19.9683027652
0
LINE
8
___SYMBOL
62
7
6
CONTINUOUS
10
29.4910389416
20
19.9683027652
11
29.4867599000
21
19.9697322267
0
LINE
8
___SYMBOL
62
7
6
CONTINUOUS
10
29.4867599000
20
19.9697322267
11
29.4418089416
21
19.9683027652
0
LINE
8
___SYMBOL
62
7
6
CONTINUOUS
10
29.4418089416
20
19.9683027652
11
29.4326389416
21
19.9703427652
0
LINE
8
___SYMBOL
62
7
6
CONTINUOUS
10
29.4326389416
20
19.9703427652
11
29.3939489416
21
19.9744127652
0
LINE
8
___SYMBOL
62
7
6
CONTINUOUS
10
29.3939489416
20
19.9744127652
11
29.3847789416
21
19.9683027652
0
LINE
8
___SYMBOL
62
7
6
CONTINUOUS
10
29.3847789416
20
19.9683027652
11
29.3796889416
21
19.9662727652
0
LINE
8
___SYMBOL
62
7
6
CONTINUOUS
10
29.3796889416
20
19.9662727652
11
29.3460889416
21
19.9632127652
0
LINE
8
___SYMBOL
62
7
6
CONTINUOUS
10
29.3460889416
20
19.9632127652
11
29.2982289416
21
19.9652527652
0
LINE
8
___SYMBOL
62
7
6
CONTINUOUS
10
29.2982289416
20
19.9652527652
11
29.2880489416
21
19.9652527652
0
LINE
8
___SYMBOL
62
7
6
CONTINUOUS
10
29.2880489416
20
19.9652527652
11
29.2778589416
21
19.9672927652
0
LINE
8
___SYMBOL
62
7
6
CONTINUOUS
10
29.2778589416
20
19.9672927652
11
29.2635989416
21
19.9754327652
0
LINE
8
___SYMBOL
62
7
6
CONTINUOUS
10
29.2635989416
20
19.9754327652
11
29.2625889416
21
19.9795127652
0
LINE
8
___SYMBOL
62
7
6
CONTINUOUS
10
29.2625889416
20
19.9795127652
11
29.2523989416
21
19.9825627652
0
LINE
8
___SYMBOL
62
7
6
CONTINUOUS
10
29.2523989416
20
19.9825627652
11
29.2401789416
21
19.9927427652
0
LINE
8
___SYMBOL
62
7
6
CONTINUOUS
10
29.2401789416
20
19.9927427652
11
29.2371289416
21
19.9968227652
0
LINE
8
___SYMBOL
62
7
6
CONTINUOUS
10
29.2371289416
20
19.9968227652
11
29.2371289416
21
20.0029327652
0
LINE
8
___SYMBOL
62
7
6
CONTINUOUS
10
29.2371289416
20
20.0029327652
11
29.2391589416
21
20.0070027652
0
LINE
8
___SYMBOL
62
7
6
CONTINUOUS
10
29.2391589416
20
20.0070027652
11
29.2442589416
21
20.0110727652
0
POLYLINE
8
___SYMBOL
62
7
6
CONTINUOUS
66
1
70
0
0
VERTEX
8
___SYMBOL
62
7
6
CONTINUOUS
10
29.4489327252
20
19.9886774913
0
VERTEX
8
___SYMBOL
62
7
6
CONTINUOUS
10
29.4487289704
20
19.9889070813
0
VERTEX
8
___SYMBOL
62
7
6
CONTINUOUS
10
29.4485177071
20
19.9891297766
0
VERTEX
8
___SYMBOL
62
7
6
CONTINUOUS
10
29.4482992079
20
19.9893453912
0
VERTEX
8
___SYMBOL
62
7
6
CONTINUOUS
10
29.4480737455
20
19.9895537389
0
VERTEX
8
___SYMBOL
62
7
6
CONTINUOUS
10
29.4478415926
20
19.9897546338
0
VERTEX
8
___SYMBOL
62
7
6
CONTINUOUS
10
29.4476030218
20
19.9899478898
0
VERTEX
8
___SYMBOL
62
7
6
CONTINUOUS
10
29.4473583059
20
19.9901333209
0
VERTEX
8
___SYMBOL
62
7
6
CONTINUOUS
10
29.4471077174
20
19.9903107409
0
VERTEX
8
___SYMBOL
62
7
6
CONTINUOUS
10
29.4468515292
20
19.9904799639
0
VERTEX
8
___SYMBOL
62
7
6
CONTINUOUS
10
29.4465900138
20
19.9906408037
0
VERTEX
8
___SYMBOL
62
7
6
CONTINUOUS
10
29.4463234440
20
19.9907930744
0
VERTEX
8
___SYMBOL
62
7
6
CONTINUOUS
10
29.4460520925
20
19.9909365899
0
VERTEX
8
___SYMBOL
62
7
6
CONTINUOUS
10
29.4457762319
20
19.9910711640
0
VERTEX
8
___SYMBOL
62
7
6
CONTINUOUS
10
29.4454961348
20
19.9911966109
0
VERTEX
8
___SYMBOL
62
7
6
CONTINUOUS
10
29.4452120741
20
19.9913127444
0
VERTEX
8
___SYMBOL
62
7
6
CONTINUOUS
10
29.4449243223
20
19.9914193784
0
VERTEX
8
___SYMBOL
62
7
6
CONTINUOUS
10
29.4446331621
20
19.9915163538
0
VERTEX
8
___SYMBOL
62
7
6
CONTINUOUS
10
29.4443389158
20
19.9916036181
0
VERTEX
8
___SYMBOL
62
7
6
CONTINUOUS
10
29.4440419158
20
19.9916811459
0
VERTEX
8
___SYMBOL
62
7
6
CONTINUOUS
10
29.4437424943
20
19.9917489116
0
VERTEX
8
___SYMBOL
62
7
6
CONTINUOUS
10
29.4434409836
20
19.9918068898
0
VERTEX
8
___SYMBOL
62
7
6
CONTINUOUS
10
29.4431377160
20
19.9918550548
0
VERTEX
8
___SYMBOL
62
7
6
CONTINUOUS
10
29.4428330239
20
19.9918933812
0
VERTEX
8
___SYMBOL
62
7
6
CONTINUOUS
10
29.4425272395
20
19.9919218435
0
VERTEX
8
___SYMBOL
62
7
6
CONTINUOUS
10
29.4422206950
20
19.9919404161
0
VERTEX
8
___SYMBOL
62
7
6
CONTINUOUS
10
29.4419137229
20
19.9919490735
0
VERTEX
8
___SYMBOL
62
7
6
CONTINUOUS
10
29.4416066554
20
19.9919477901
0
VERTEX
8
___SYMBOL
62
7
6
CONTINUOUS
10
29.4412998248
20
19.9919365405
0
VERTEX
8
___SYMBOL
62
7
6
CONTINUOUS
10
29.4409935634
20
19.9919152991
0
VERTEX
8
___SYMBOL
62
7
6
CONTINUOUS
10
29.4406882035
20
19.9918840405
0
VERTEX
8
___SYMBOL
62
7
6
CONTINUOUS
10
29.4403840774
20
19.9918427390
0
VERTEX
8
___SYMBOL
62
7
6
CONTINUOUS
10
29.4400815173
20
19.9917913691
0
VERTEX
8
___SYMBOL
62
7
6
CONTINUOUS
10
29.4397808499
20
19.9917299333
0
VERTEX
8
___SYMBOL
62
7
6
CONTINUOUS
10
29.4394823788
20
19.9916585459
0
VERTEX
8
___SYMBOL
62
7
6
CONTINUOUS
10
29.4391864019
20
19.9915773490
0
VERTEX
8
___SYMBOL
62
7
6
CONTINUOUS
10
29.4388932171
20
19.9914864850
0
VERTEX
8
___SYMBOL
62
7
6
CONTINUOUS
10
29.4386031223
20
19.9913860959
0
VERTEX
8
___SYMBOL
62
7
6
CONTINUOUS
10
29.4383164154
20
19.9912763241
0
VERTEX
8
___SYMBOL
62
7
6
CONTINUOUS
10
29.4380333943
20
19.9911573118
0
VERTEX
8
___SYMBOL
62
7
6
CONTINUOUS
10
29.4377543570
20
19.9910292011
0
VERTEX
8
___SYMBOL
62
7
6
CONTINUOUS
10
29.4374796013
20
19.9908921344
0
VERTEX
8
___SYMBOL
62
7
6
CONTINUOUS
10
29.4372094252
20
19.9907462538
0
VERTEX
8
___SYMBOL
62
7
6
CONTINUOUS
10
29.4369441265
20
19.9905917015
0
VERTEX
8
___SYMBOL
62
7
6
CONTINUOUS
10
29.4366840032
20
19.9904286199
0
VERTEX
8
___SYMBOL
62
7
6
CONTINUOUS
10
29.4364293531
20
19.9902571510
0
VERTEX
8
___SYMBOL
62
7
6
CONTINUOUS
10
29.4361804742
20
19.9900774372
0
VERTEX
8
___SYMBOL
62
7
6
CONTINUOUS
10
29.4359376644
20
19.9898896206
0
VERTEX
8
___SYMBOL
62
7
6
CONTINUOUS
10
29.4357012216
20
19.9896938435
0
SEQEND
0
POLYLINE
8
___SYMBOL
62
7
6
CONTINUOUS
66
1
70
0
0
VERTEX
8
___SYMBOL
62
7
6
CONTINUOUS
10
29.3145200013
20
19.9886726714
0
VERTEX
8
___SYMBOL
62
7
6
CONTINUOUS
10
29.3142801646
20
19.9890685618
0
VERTEX
8
___SYMBOL
62
7
6
CONTINUOUS
10
29.3140273172
20
19.9894562583
0
VERTEX
8
___SYMBOL
62
7
6
CONTINUOUS
10
29.3137618134
20
19.9898354108
0
VERTEX
8
___SYMBOL
62
7
6
CONTINUOUS
10
29.3134840072
20
19.9902056691
0
VERTEX
8
___SYMBOL
62
7
6
CONTINUOUS
10
29.3131942527
20
19.9905666830
0
VERTEX
8
___SYMBOL
62
7
6
CONTINUOUS
10
29.3128929039
20
19.9909181025
0
VERTEX
8
___SYMBOL
62
7
6
CONTINUOUS
10
29.3125803149
20
19.9912595773
0
VERTEX
8
___SYMBOL
62
7
6
CONTINUOUS
10
29.3122568398
20
19.9915907573
0
VERTEX
8
___SYMBOL
62
7
6
CONTINUOUS
10
29.3119228327
20
19.9919112924
0
VERTEX
8
___SYMBOL
62
7
6
CONTINUOUS
10
29.3115786477
20
19.9922208323
0
VERTEX
8
___SYMBOL
62
7
6
CONTINUOUS
10
29.3112246388
20
19.9925190271
0
VERTEX
8
___SYMBOL
62
7
6
CONTINUOUS
10
29.3108611600
20
19.9928055264
0
VERTEX
8
___SYMBOL
62
7
6
CONTINUOUS
10
29.3104885656
20
19.9930799801
0
VERTEX
8
___SYMBOL
62
7
6
CONTINUOUS
10
29.3101072095
20
19.9933420381
0
VERTEX
8
___SYMBOL
62
7
6
CONTINUOUS
10
29.3097174458
20
19.9935913503
0
VERTEX
8
___SYMBOL
62
7
6
CONTINUOUS
10
29.3093196286
20
19.9938275665
0
VERTEX
8
___SYMBOL
62
7
6
CONTINUOUS
10
29.3089141340
20
19.9940503735
0
VERTEX
8
___SYMBOL
62
7
6
CONTINUOUS
10
29.3085014261
20
19.9942596063
0
VERTEX
8
___SYMBOL
62
7
6
CONTINUOUS
10
29.3080819911
20
19.9944551370
0
VERTEX
8
___SYMBOL
62
7
6
CONTINUOUS
10
29.3076563150
20
19.9946368376
0
VERTEX
8
___SYMBOL
62
7
6
CONTINUOUS
10
29.3072248841
20
19.9948045800
0
VERTEX
8
___SYMBOL
62
7
6
CONTINUOUS
10
29.3067881845
20
19.9949582364
0
VERTEX
8
___SYMBOL
62
7
6
CONTINUOUS
10
29.3063467023
20
19.9950976786
0
VERTEX
8
___SYMBOL
62
7
6
CONTINUOUS
10
29.3059009236
20
19.9952227787
0
VERTEX
8
___SYMBOL
62
7
6
CONTINUOUS
10
29.3054513347
20
19.9953334087
0
VERTEX
8
___SYMBOL
62
7
6
CONTINUOUS
10
29.3049984216
20
19.9954294407
0
VERTEX
8
___SYMBOL
62
7
6
CONTINUOUS
10
29.3045426704
20
19.9955107466
0
VERTEX
8
___SYMBOL
62
7
6
CONTINUOUS
10
29.3040845674
20
19.9955771984
0
VERTEX
8
___SYMBOL
62
7
6
CONTINUOUS
10
29.3036245986
20
19.9956286682
0
VERTEX
8
___SYMBOL
62
7
6
CONTINUOUS
10
29.3031632502
20
19.9956650280
0
VERTEX
8
___SYMBOL
62
7
6
CONTINUOUS
10
29.3027010084
20
19.9956861497
0
VERTEX
8
___SYMBOL
62
7
6
CONTINUOUS
10
29.3022383592
20
19.9956919054
0
VERTEX
8
___SYMBOL
62
7
6
CONTINUOUS
10
29.3017757879
20
19.9956822102
0
VERTEX
8
___SYMBOL
62
7
6
CONTINUOUS
10
29.3013137761
20
19.9956571514
0
VERTEX
8
___SYMBOL
62
7
6
CONTINUOUS
10
29.3008528043
20
19.9956168593
0
VERTEX
8
___SYMBOL
62
7
6
CONTINUOUS
10
29.3003933531
20
19.9955614645
0
VERTEX
8
___SYMBOL
62
7
6
CONTINUOUS
10
29.2999359033
20
19.9954910972
0
VERTEX
8
___SYMBOL
62
7
6
CONTINUOUS
10
29.2994809353
20
19.9954058879
0
VERTEX
8
___SYMBOL
62
7
6
CONTINUOUS
10
29.2990289299
20
19.9953059670
0
VERTEX
8
___SYMBOL
62
7
6
CONTINUOUS
10
29.2985803675
20
19.9951914649
0
VERTEX
8
___SYMBOL
62
7
6
CONTINUOUS
10
29.2981357289
20
19.9950625119
0
VERTEX
8
___SYMBOL
62
7
6
CONTINUOUS
10
29.2976954947
20
19.9949192385
0
VERTEX
8
___SYMBOL
62
7
6
CONTINUOUS
10
29.2972601454
20
19.9947617751
0
VERTEX
8
___SYMBOL
62
7
6
CONTINUOUS
10
29.2968301617
20
19.9945902521
0
VERTEX
8
___SYMBOL
62
7
6
CONTINUOUS
10
29.2964060242
20
19.9944047998
0
VERTEX
8
___SYMBOL
62
7
6
CONTINUOUS
10
29.2959882134
20
19.9942055486
0
VERTEX
8
___SYMBOL
62
7
6
CONTINUOUS
10
29.2955772102
20
19.9939926291
0
VERTEX
8
___SYMBOL
62
7
6
CONTINUOUS
10
29.2951734949
20
19.9937661714
0
SEQEND
0
LINE
8
___SYMBOL
62
7
6
CONTINUOUS
10
29.4438489416
20
19.9550727652
11
29.4407889416
21
19.9591427652
0
LINE
8
___SYMBOL
62
7
6
CONTINUOUS
10
29.4407889416
20
19.9591427652
11
29.4367189416
21
19.9601627652
0
LINE
8
___SYMBOL
62
7
6
CONTINUOUS
10
29.4367189416
20
19.9601627652
11
29.4265289416
21
19.9601627652
0
POLYLINE
8
___SYMBOL
62
7
6
CONTINUOUS
66
1
70
0
0
VERTEX
8
___SYMBOL
62
7
6
CONTINUOUS
10
29.4838310799
20
19.9581250709
0
VERTEX
8
___SYMBOL
62
7
6
CONTINUOUS
10
29.4840002980
20
19.9579612691
0
VERTEX
8
___SYMBOL
62
7
6
CONTINUOUS
10
29.4841748800
20
19.9578031800
0
VERTEX
8
___SYMBOL
62
7
6
CONTINUOUS
10
29.4843546055
20
19.9576509308
0
VERTEX
8
___SYMBOL
62
7
6
CONTINUOUS
10
29.4845392539
20
19.9575046483
0
VERTEX
8
___SYMBOL
62
7
6
CONTINUOUS
10
29.4847286048
20
19.9573644595
0
VERTEX
8
___SYMBOL
62
7
6
CONTINUOUS
10
29.4849224379
20
19.9572304913
0
VERTEX
8
___SYMBOL
62
7
6
CONTINUOUS
10
29.4851205325
20
19.9571028708
0
VERTEX
8
___SYMBOL
62
7
6
CONTINUOUS
10
29.4853226684
20
19.9569817249
0
VERTEX
8
___SYMBOL
62
7
6
CONTINUOUS
10
29.4855286250
20
19.9568671806
0
VERTEX
8
___SYMBOL
62
7
6
CONTINUOUS
10
29.4857381820
20
19.9567593648
0
VERTEX
8
___SYMBOL
62
7
6
CONTINUOUS
10
29.4859511188
20
19.9566584046
0
VERTEX
8
___SYMBOL
62
7
6
CONTINUOUS
10
29.4861672151
20
19.9565644269
0
VERTEX
8
___SYMBOL
62
7
6
CONTINUOUS
10
29.4863862504
20
19.9564775586
0
VERTEX
8
___SYMBOL
62
7
6
CONTINUOUS
10
29.4866080042
20
19.9563979268
0
VERTEX
8
___SYMBOL
62
7
6
CONTINUOUS
10
29.4868322561
20
19.9563256583
0
VERTEX
8
___SYMBOL
62
7
6
CONTINUOUS
10
29.4870587857
20
19.9562608803
0
VERTEX
8
___SYMBOL
62
7
6
CONTINUOUS
10
29.4872873664
20
19.9562036984
0
VERTEX
8
___SYMBOL
62
7
6
CONTINUOUS
10
29.4875177474
20
19.9561541339
0
VERTEX
8
___SYMBOL
62
7
6
CONTINUOUS
10
29.4877496717
20
19.9561121869
0
VERTEX
8
___SYMBOL
62
7
6
CONTINUOUS
10
29.4879828824
20
19.9560778574
0
VERTEX
8
___SYMBOL
62
7
6
CONTINUOUS
10
29.4882171225
20
19.9560511455
0
VERTEX
8
___SYMBOL
62
7
6
CONTINUOUS
10
29.4884521351
20
19.9560320511
0
VERTEX
8
___SYMBOL
62
7
6
CONTINUOUS
10
29.4886876631
20
19.9560205745
0
VERTEX
8
___SYMBOL
62
7
6
CONTINUOUS
10
29.4889234498
20
19.9560167156
0
VERTEX
8
___SYMBOL
62
7
6
CONTINUOUS
10
29.4891592380
20
19.9560204744
0
VERTEX
8
___SYMBOL
62
7
6
CONTINUOUS
10
29.4893947708
20
19.9560318511
0
VERTEX
8
___SYMBOL
62
7
6
CONTINUOUS
10
29.4896297914
20
19.9560508457
0
VERTEX
8
___SYMBOL
62
7
6
CONTINUOUS
10
29.4898640427
20
19.9560774583
0
VERTEX
8
___SYMBOL
62
7
6
CONTINUOUS
10
29.4900972678
20
19.9561116888
0
VERTEX
8
___SYMBOL
62
7
6
CONTINUOUS
10
29.4903292097
20
19.9561535374
0
VERTEX
8
___SYMBOL
62
7
6
CONTINUOUS
10
29.4905596115
20
19.9562030041
0
VERTEX
8
___SYMBOL
62
7
6
CONTINUOUS
10
29.4907882162
20
19.9562600889
0
VERTEX
8
___SYMBOL
62
7
6
CONTINUOUS
10
29.4910147730
20
19.9563247709
0
VERTEX
8
___SYMBOL
62
7
6
CONTINUOUS
10
29.4912390552
20
19.9563969441
0
VERTEX
8
___SYMBOL
62
7
6
CONTINUOUS
10
29.4914608425
20
19.9564764819
0
VERTEX
8
___SYMBOL
62
7
6
CONTINUOUS
10
29.4916799142
20
19.9565632572
0
VERTEX
8
___SYMBOL
62
7
6
CONTINUOUS
10
29.4918960499
20
19.9566571432
0
VERTEX
8
___SYMBOL
62
7
6
CONTINUOUS
10
29.4921090292
20
19.9567580131
0
VERTEX
8
___SYMBOL
62
7
6
CONTINUOUS
10
29.4923186314
20
19.9568657399
0
VERTEX
8
___SYMBOL
62
7
6
CONTINUOUS
10
29.4925246361
20
19.9569801968
0
VERTEX
8
___SYMBOL
62
7
6
CONTINUOUS
10
29.4927268228
20
19.9571012569
0
VERTEX
8
___SYMBOL
62
7
6
CONTINUOUS
10
29.4929249711
20
19.9572287933
0
VERTEX
8
___SYMBOL
62
7
6
CONTINUOUS
10
29.4931188604
20
19.9573626792
0
VERTEX
8
___SYMBOL
62
7
6
CONTINUOUS
10
29.4933082702
20
19.9575027876
0
VERTEX
8
___SYMBOL
62
7
6
CONTINUOUS
10
29.4934929800
20
19.9576489918
0
VERTEX
8
___SYMBOL
62
7
6
CONTINUOUS
10
29.4936727694
20
19.9578011648
0
VERTEX
8
___SYMBOL
62
7
6
CONTINUOUS
10
29.4938474178
20
19.9579591797
0
VERTEX
8
___SYMBOL
62
7
6
CONTINUOUS
10
29.4940167048
20
19.9581229096
0
SEQEND
0
POLYLINE
8
___SYMBOL
62
7
6
CONTINUOUS
66
1
70
0
0
VERTEX
8
___SYMBOL
62
7
6
CONTINUOUS
10
29.2350905715
20
19.9703438040
0
VERTEX
8
___SYMBOL
62
7
6
CONTINUOUS
10
29.2350347465
20
19.9706925722
0
VERTEX
8
___SYMBOL
62
7
6
CONTINUOUS
10
29.2349673522
20
19.9710393077
0
VERTEX
8
___SYMBOL
62
7
6
CONTINUOUS
10
29.2348885390
20
19.9713836600
0
VERTEX
8
___SYMBOL
62
7
6
CONTINUOUS
10
29.2347984572
20
19.9717252788
0
VERTEX
8
___SYMBOL
62
7
6
CONTINUOUS
10
29.2346972570
20
19.9720638135
0
VERTEX
8
___SYMBOL
62
7
6
CONTINUOUS
10
29.2345850887
20
19.9723989137
0
VERTEX
8
___SYMBOL
62
7
6
CONTINUOUS
10
29.2344621028
20
19.9727302290
0
VERTEX
8
___SYMBOL
62
7
6
CONTINUOUS
10
29.2343284494
20
19.9730574088
0
VERTEX
8
___SYMBOL
62
7
6
CONTINUOUS
10
29.2341842789
20
19.9733801027
0
VERTEX
8
___SYMBOL
62
7
6
CONTINUOUS
10
29.2340297416
20
19.9736979603
0
VERTEX
8
___SYMBOL
62
7
6
CONTINUOUS
10
29.2338649878
20
19.9740106311
0
VERTEX
8
___SYMBOL
62
7
6
CONTINUOUS
10
29.2336901678
20
19.9743177647
0
VERTEX
8
___SYMBOL
62
7
6
CONTINUOUS
10
29.2335054319
20
19.9746190105
0
VERTEX
8
___SYMBOL
62
7
6
CONTINUOUS
10
29.2333109304
20
19.9749140182
0
VERTEX
8
___SYMBOL
62
7
6
CONTINUOUS
10
29.2331068137
20
19.9752024373
0
VERTEX
8
___SYMBOL
62
7
6
CONTINUOUS
10
29.2328932320
20
19.9754839173
0
VERTEX
8
___SYMBOL
62
7
6
CONTINUOUS
10
29.2326703619
20
19.9757581277
0
VERTEX
8
___SYMBOL
62
7
6
CONTINUOUS
10
29.2324384853
20
19.9760248174
0
VERTEX
8
___SYMBOL
62
7
6
CONTINUOUS
10
29.2321979102
20
19.9762837556
0
VERTEX
8
___SYMBOL
62
7
6
CONTINUOUS
10
29.2319489448
20
19.9765347109
0
VERTEX
8
___SYMBOL
62
7
6
CONTINUOUS
10
29.2316918971
20
19.9767774525
0
VERTEX
8
___SYMBOL
62
7
6
CONTINUOUS
10
29.2314270753
20
19.9770117492
0
VERTEX
8
___SYMBOL
62
7
6
CONTINUOUS
10
29.2311547875
20
19.9772373699
0
VERTEX
8
___SYMBOL
62
7
6
CONTINUOUS
10
29.2308753417
20
19.9774540836
0
VERTEX
8
___SYMBOL
62
7
6
CONTINUOUS
10
29.2305890462
20
19.9776616592
0
VERTEX
8
___SYMBOL
62
7
6
CONTINUOUS
10
29.2302962089
20
19.9778598657
0
VERTEX
8
___SYMBOL
62
7
6
CONTINUOUS
10
29.2299971380
20
19.9780484719
0
VERTEX
8
___SYMBOL
62
7
6
CONTINUOUS
10
29.2296921416
20
19.9782272468
0
VERTEX
8
___SYMBOL
62
7
6
CONTINUOUS
10
29.2293815278
20
19.9783959594
0
VERTEX
8
___SYMBOL
62
7
6
CONTINUOUS
10
29.2290656048
20
19.9785543785
0
VERTEX
8
___SYMBOL
62
7
6
CONTINUOUS
10
29.2287446805
20
19.9787022732
0
VERTEX
8
___SYMBOL
62
7
6
CONTINUOUS
10
29.2284190631
20
19.9788394122
0
VERTEX
8
___SYMBOL
62
7
6
CONTINUOUS
10
29.2280890725
20
19.9789655954
0
VERTEX
8
___SYMBOL
62
7
6
CONTINUOUS
10
29.2277550754
20
19.9790807459
0
VERTEX
8
___SYMBOL
62
7
6
CONTINUOUS
10
29.2274174502
20
19.9791848175
0
VERTEX
8
___SYMBOL
62
7
6
CONTINUOUS
10
29.2270765754
20
19.9792777642
0
VERTEX
8
___SYMBOL
62
7
6
CONTINUOUS
10
29.2267328294
20
19.9793595399
0
VERTEX
8
___SYMBOL
62
7
6
CONTINUOUS
10
29.2263865907
20
19.9794300984
0
VERTEX
8
___SYMBOL
62
7
6
CONTINUOUS
10
29.2260382378
20
19.9794893937
0
VERTEX
8
___SYMBOL
62
7
6
CONTINUOUS
10
29.2256881490
20
19.9795373797
0
VERTEX
8
___SYMBOL
62
7
6
CONTINUOUS
10
29.2253367028
20
19.9795740102
0
VERTEX
8
___SYMBOL
62
7
6
CONTINUOUS
10
29.2249842778
20
19.9795992393
0
VERTEX
8
___SYMBOL
62
7
6
CONTINUOUS
10
29.2246312523
20
19.9796130207
0
VERTEX
8
___SYMBOL
62
7
6
CONTINUOUS
10
29.2242780047
20
19.9796153084
0
VERTEX
8
___SYMBOL
62
7
6
CONTINUOUS
10
29.2239249136
20
19.9796060563
0
VERTEX
8
___SYMBOL
62
7
6
CONTINUOUS
10
29.2235723574
20
19.9795852183
0
VERTEX
8
___SYMBOL
62
7
6
CONTINUOUS
10
29.2232207146
20
19.9795527482
0
VERTEX
8
___SYMBOL
62
7
6
CONTINUOUS
10
29.2228703635
20
19.9795086001
0
SEQEND
0
POLYLINE
8
___SYMBOL
62
7
6
CONTINUOUS
66
1
70
0
0
VERTEX
8
___SYMBOL
62
7
6
CONTINUOUS
10
29.3552532127
20
19.9866314220
0
VERTEX
8
___SYMBOL
62
7
6
CONTINUOUS
10
29.3552008576
20
19.9867806067
0
VERTEX
8
___SYMBOL
62
7
6
CONTINUOUS
10
29.3551435788
20
19.9869279665
0
VERTEX
8
___SYMBOL
62
7
6
CONTINUOUS
10
29.3550814701
20
19.9870733595
0
VERTEX
8
___SYMBOL
62
7
6
CONTINUOUS
10
29.3550146252
20
19.9872166437
0
VERTEX
8
___SYMBOL
62
7
6
CONTINUOUS
10
29.3549431378
20
19.9873576771
0
VERTEX
8
___SYMBOL
62
7
6
CONTINUOUS
10
29.3548671017
20
19.9874963180
0
VERTEX
8
___SYMBOL
62
7
6
CONTINUOUS
10
29.3547866108
20
19.9876324242
0
VERTEX
8
___SYMBOL
62
7
6
CONTINUOUS
10
29.3547017586
20
19.9877658540
0
VERTEX
8
___SYMBOL
62
7
6
CONTINUOUS
10
29.3546126391
20
19.9878964653
0
VERTEX
8
___SYMBOL
62
7
6
CONTINUOUS
10
29.3545193458
20
19.9880241162
0
VERTEX
8
___SYMBOL
62
7
6
CONTINUOUS
10
29.3544219727
20
19.9881486648
0
VERTEX
8
___SYMBOL
62
7
6
CONTINUOUS
10
29.3543206134
20
19.9882699691
0
VERTEX
8
___SYMBOL
62
7
6
CONTINUOUS
10
29.3542153618
20
19.9883878873
0
VERTEX
8
___SYMBOL
62
7
6
CONTINUOUS
10
29.3541063114
20
19.9885022774
0
VERTEX
8
___SYMBOL
62
7
6
CONTINUOUS
10
29.3539935562
20
19.9886129974
0
VERTEX
8
___SYMBOL
62
7
6
CONTINUOUS
10
29.3538771899
20
19.9887199055
0
VERTEX
8
___SYMBOL
62
7
6
CONTINUOUS
10
29.3537573161
20
19.9888228704
0
VERTEX
8
___SYMBOL
62
7
6
CONTINUOUS
10
29.3536340785
20
19.9889218045
0
VERTEX
8
___SYMBOL
62
7
6
CONTINUOUS
10
29.3535076304
20
19.9890166308
0
VERTEX
8
___SYMBOL
62
7
6
CONTINUOUS
10
29.3533781255
20
19.9891072724
0
VERTEX
8
___SYMBOL
62
7
6
CONTINUOUS
10
29.3532457172
20
19.9891936523
0
VERTEX
8
___SYMBOL
62
7
6
CONTINUOUS
10
29.3531105590
20
19.9892756936
0
VERTEX
8
___SYMBOL
62
7
6
CONTINUOUS
10
29.3529728044
20
19.9893533193
0
VERTEX
8
___SYMBOL
62
7
6
CONTINUOUS
10
29.3528326069
20
19.9894264526
0
VERTEX
8
___SYMBOL
62
7
6
CONTINUOUS
10
29.3526901200
20
19.9894950163
0
VERTEX
8
___SYMBOL
62
7
6
CONTINUOUS
10
29.3525454972
20
19.9895589337
0
VERTEX
8
___SYMBOL
62
7
6
CONTINUOUS
10
29.3523988919
20
19.9896181278
0
VERTEX
8
___SYMBOL
62
7
6
CONTINUOUS
10
29.3522504578
20
19.9896725216
0
VERTEX
8
___SYMBOL
62
7
6
CONTINUOUS
10
29.3521003482
20
19.9897220382
0
VERTEX
8
___SYMBOL
62
7
6
CONTINUOUS
10
29.3519487167
20
19.9897666007
0
VERTEX
8
___SYMBOL
62
7
6
CONTINUOUS
10
29.3517957168
20
19.9898061321
0
VERTEX
8
___SYMBOL
62
7
6
CONTINUOUS
10
29.3516415020
20
19.9898405554
0
VERTEX
8
___SYMBOL
62
7
6
CONTINUOUS
10
29.3514862284
20
19.9898698083
0
VERTEX
8
___SYMBOL
62
7
6
CONTINUOUS
10
29.3513300632
20
19.9898938860
0
VERTEX
8
___SYMBOL
62
7
6
CONTINUOUS
10
29.3511731762
20
19.9899127984
0
VERTEX
8
___SYMBOL
62
7
6
CONTINUOUS
10
29.3510157371
20
19.9899265553
0
VERTEX
8
___SYMBOL
62
7
6
CONTINUOUS
10
29.3508579157
20
19.9899351665
0
VERTEX
8
___SYMBOL
62
7
6
CONTINUOUS
10
29.3506998819
20
19.9899386420
0
VERTEX
8
___SYMBOL
62
7
6
CONTINUOUS
10
29.3505418054
20
19.9899369914
0
VERTEX
8
___SYMBOL
62
7
6
CONTINUOUS
10
29.3503838560
20
19.9899302247
0
VERTEX
8
___SYMBOL
62
7
6
CONTINUOUS
10
29.3502262035
20
19.9899183517
0
VERTEX
8
___SYMBOL
62
7
6
CONTINUOUS
10
29.3500690177
20
19.9899013821
0
VERTEX
8
___SYMBOL
62
7
6
CONTINUOUS
10
29.3499124683
20
19.9898793259
0
VERTEX
8
___SYMBOL
62
7
6
CONTINUOUS
10
29.3497567253
20
19.9898521928
0
VERTEX
8
___SYMBOL
62
7
6
CONTINUOUS
10
29.3496019583
20
19.9898199927
0
VERTEX
8
___SYMBOL
62
7
6
CONTINUOUS
10
29.3494483372
20
19.9897827354
0
VERTEX
8
___SYMBOL
62
7
6
CONTINUOUS
10
29.3492960317
20
19.9897404308
0
VERTEX
8
___SYMBOL
62
7
6
CONTINUOUS
10
29.3491452117
20
19.9896930887
0
SEQEND
0
POLYLINE
8
___SYMBOL
62
7
6
CONTINUOUS
66
1
70
0
0
VERTEX
8
___SYMBOL
62
7
6
CONTINUOUS
10
29.5788120612
20
19.9851222813
0
VERTEX
8
___SYMBOL
62
7
6
CONTINUOUS
10
29.5788922720
20
19.9853068510
0
VERTEX
8
___SYMBOL
62
7
6
CONTINUOUS
10
29.5789663068
20
19.9854939795
0
VERTEX
8
___SYMBOL
62
7
6
CONTINUOUS
10
29.5790341304
20
19.9856834534
0
VERTEX
8
___SYMBOL
62
7
6
CONTINUOUS
10
29.5790957075
20
19.9858750589
0
VERTEX
8
___SYMBOL
62
7
6
CONTINUOUS
10
29.5791510028
20
19.9860685826
0
VERTEX
8
___SYMBOL
62
7
6
CONTINUOUS
10
29.5791999810
20
19.9862638108
0
VERTEX
8
___SYMBOL
62
7
6
CONTINUOUS
10
29.5792426069
20
19.9864605301
0
VERTEX
8
___SYMBOL
62
7
6
CONTINUOUS
10
29.5792788452
20
19.9866585267
0
VERTEX
8
___SYMBOL
62
7
6
CONTINUOUS
10
29.5793086607
20
19.9868575872
0
VERTEX
8
___SYMBOL
62
7
6
CONTINUOUS
10
29.5793320179
20
19.9870574979
0
VERTEX
8
___SYMBOL
62
7
6
CONTINUOUS
10
29.5793488818
20
19.9872580454
0
VERTEX
8
___SYMBOL
62
7
6
CONTINUOUS
10
29.5793592170
20
19.9874590159
0
VERTEX
8
___SYMBOL
62
7
6
CONTINUOUS
10
29.5793629882
20
19.9876601960
0
VERTEX
8
___SYMBOL
62
7
6
CONTINUOUS
10
29.5793601601
20
19.9878613721
0
VERTEX
8
___SYMBOL
62
7
6
CONTINUOUS
10
29.5793506975
20
19.9880623305
0
VERTEX
8
___SYMBOL
62
7
6
CONTINUOUS
10
29.5793345651
20
19.9882628578
0
VERTEX
8
___SYMBOL
62
7
6
CONTINUOUS
10
29.5793117463
20
19.9884627418
0
VERTEX
8
___SYMBOL
62
7
6
CONTINUOUS
10
29.5792822992
20
19.9886617764
0
VERTEX
8
___SYMBOL
62
7
6
CONTINUOUS
10
29.5792463004
20
19.9888597569
0
VERTEX
8
___SYMBOL
62
7
6
CONTINUOUS
10
29.5792038266
20
19.9890564788
0
VERTEX
8
___SYMBOL
62
7
6
CONTINUOUS
10
29.5791549546
20
19.9892517373
0
VERTEX
8
___SYMBOL
62
7
6
CONTINUOUS
10
29.5790997610
20
19.9894453279
0
VERTEX
8
___SYMBOL
62
7
6
CONTINUOUS
10
29.5790383225
20
19.9896370458
0
VERTEX
8
___SYMBOL
62
7
6
CONTINUOUS
10
29.5789707160
20
19.9898266864
0
VERTEX
8
___SYMBOL
62
7
6
CONTINUOUS
10
29.5788970180
20
19.9900140451
0
VERTEX
8
___SYMBOL
62
7
6
CONTINUOUS
10
29.5788173052
20
19.9901989172
0
VERTEX
8
___SYMBOL
62
7
6
CONTINUOUS
10
29.5787316544
20
19.9903810982
0
VERTEX
8
___SYMBOL
62
7
6
CONTINUOUS
10
29.5786401423
20
19.9905603833
0
VERTEX
8
___SYMBOL
62
7
6
CONTINUOUS
10
29.5785428456
20
19.9907365678
0
VERTEX
8
___SYMBOL
62
7
6
CONTINUOUS
10
29.5784398409
20
19.9909094473
0
VERTEX
8
___SYMBOL
62
7
6
CONTINUOUS
10
29.5783312051
20
19.9910788169
0
VERTEX
8
___SYMBOL
62
7
6
CONTINUOUS
10
29.5782170147
20
19.9912444721
0
VERTEX
8
___SYMBOL
62
7
6
CONTINUOUS
10
29.5780973615
20
19.9914062194
0
VERTEX
8
___SYMBOL
62
7
6
CONTINUOUS
10
29.5779723976
20
19.9915639097
0
VERTEX
8
___SYMBOL
62
7
6
CONTINUOUS
10
29.5778422897
20
19.9917174054
0
VERTEX
8
___SYMBOL
62
7
6
CONTINUOUS
10
29.5777072050
20
19.9918665686
0
VERTEX
8
___SYMBOL
62
7
6
CONTINUOUS
10
29.5775673104
20
19.9920112614
0
VERTEX
8
___SYMBOL
62
7
6
CONTINUOUS
10
29.5774227729
20
19.9921513461
0
VERTEX
8
___SYMBOL
62
7
6
CONTINUOUS
10
29.5772737594
20
19.9922866849
0
VERTEX
8
___SYMBOL
62
7
6
CONTINUOUS
10
29.5771204370
20
19.9924171400
0
VERTEX
8
___SYMBOL
62
7
6
CONTINUOUS
10
29.5769629726
20
19.9925425734
0
VERTEX
8
___SYMBOL
62
7
6
CONTINUOUS
10
29.5768015332
20
19.9926628476
0
VERTEX
8
___SYMBOL
62
7
6
CONTINUOUS
10
29.5766362857
20
19.9927778245
0
VERTEX
8
___SYMBOL
62
7
6
CONTINUOUS
10
29.5764673972
20
19.9928873665
0
VERTEX
8
___SYMBOL
62
7
6
CONTINUOUS
10
29.5762950346
20
19.9929913357
0
VERTEX
8
___SYMBOL
62
7
6
CONTINUOUS
10
29.5761193649
20
19.9930895943
0
VERTEX
8
___SYMBOL
62
7
6
CONTINUOUS
10
29.5759405551
20
19.9931820045
0
VERTEX
8
___SYMBOL
62
7
6
CONTINUOUS
10
29.5757587721
20
19.9932684285
0
SEQEND
0
LINE
8
___SYMBOL
62
7
6
CONTINUOUS
10
29.5704463721
20
19.9615090757
11
29.5551763721
21
19.9635490757
0
LINE
8
___SYMBOL
62
7
6
CONTINUOUS
10
29.5551763721
20
19.9635490757
11
29.5490663721
21
19.9655790757
0
LINE
8
___SYMBOL
62
7
6
CONTINUOUS
10
29.5490663721
20
19.9655790757
11
29.5419363721
21
19.9655790757
0
LINE
8
___SYMBOL
62
2
6
CONTINUOUS
10
29.2686989416
20
19.9041527652
11
29.3150289416
21
19.9469227652
0
LINE
8
___SYMBOL
62
2
6
CONTINUOUS
10
29.3233489416
20
19.9041527652
11
29.3696789416
21
19.9469227652
0
LINE
8
___SYMBOL
62
2
6
CONTINUOUS
10
29.3910589416
20
19.9041527652
11
29.4373989416
21
19.9469227652
0
LINE
8
___SYMBOL
62
2
6
CONTINUOUS
10
29.4504689416
20
19.9041527652
11
29.4967989416
21
19.9469227652
0
LINE
8
___SYMBOL
62
2
6
CONTINUOUS
10
29.5086789416
20
19.9041527652
11
29.5550089416
21
19.9469227652
0
LINE
8
___SYMBOL
62
2
6
CONTINUOUS
10
29.5656989416
20
19.9041527652
11
29.6120389416
21
19.9469227652
0
LINE
8
___SYMBOL
62
2
6
CONTINUOUS
10
29.6298589416
20
19.9041527652
11
29.6731889918
21
19.9441497346
0
LINE
8
___SYMBOL
62
2
6
CONTINUOUS
10
29.7163606735
20
19.8583408090
11
29.7478883364
21
19.8874528151
0
LINE
8
___SYMBOL
62
2
6
CONTINUOUS
10
29.7248989416
20
19.7934841402
11
29.7652889416
21
19.8307727652
0
LINE
8
___SYMBOL
62
2
6
CONTINUOUS
10
29.7248989416
20
19.7314327652
11
29.7652889416
21
19.7687127652
0
LINE
8
___SYMBOL
62
2
6
CONTINUOUS
10
29.7248989416
20
19.6613427652
11
29.7652889416
21
19.6986227652
0
LINE
8
___SYMBOL
62
2
6
CONTINUOUS
10
29.7248989416
20
19.5912427652
11
29.7652889416
21
19.6285327652
0
LINE
8
___SYMBOL
62
2
6
CONTINUOUS
10
29.7248989416
20
19.5152127652
11
29.7652889416
21
19.5524927652
0
LINE
8
___SYMBOL
62
2
6
CONTINUOUS
10
29.7248989416
20
19.4498727652
11
29.7652889416
21
19.4871527652
0
LINE
8
___SYMBOL
62
2
6
CONTINUOUS
10
29.7248989416
20
19.3833427652
11
29.7652889416
21
19.4206227652
0
LINE
8
___SYMBOL
62
2
6
CONTINUOUS
10
29.7248989416
20
19.3061227652
11
29.7652889416
21
19.3434027652
0
LINE
8
___SYMBOL
62
2
6
CONTINUOUS
10
29.7248989416
20
19.2372127652
11
29.7652889416
21
19.2744927652
0
LINE
8
___SYMBOL
62
2
6
CONTINUOUS
10
29.7248989416
20
19.1671227652
11
29.7652889416
21
19.2044027652
0
LINE
8
___SYMBOL
62
2
6
CONTINUOUS
10
29.7248989416
20
19.1089096883
11
29.7652889416
21
19.1461927652
0
POLYLINE
8
___SYMBOL
62
7
6
CONTINUOUS
66
1
70
0
0
VERTEX
8
___SYMBOL
62
7
6
CONTINUOUS
10
29.5875879903
20
20.0110727652
0
VERTEX
8
___SYMBOL
62
7
6
CONTINUOUS
10
29.5875912044
20
20.0099524196
0
VERTEX
8
___SYMBOL
62
7
6
CONTINUOUS
10
29.5876003272
20
20.0088145197
0
VERTEX
8
___SYMBOL
62
7
6
CONTINUOUS
10
29.5876145791
20
20.0076601036
0
VERTEX
8
___SYMBOL
62
7
6
CONTINUOUS
10
29.5876331808
20
20.0064902096
0
VERTEX
8
___SYMBOL
62
7
6
CONTINUOUS
10
29.5876553528
20
20.0053058757
0
VERTEX
8
___SYMBOL
62
7
6
CONTINUOUS
10
29.5876803157
20
20.0041081401
0
VERTEX
8
___SYMBOL
62
7
6
CONTINUOUS
10
29.5877072901
20
20.0028980410
0
VERTEX
8
___SYMBOL
62
7
6
CONTINUOUS
10
29.5877354966
20
20.0016766165
0
VERTEX
8
___SYMBOL
62
7
6
CONTINUOUS
10
29.5877641557
20
20.0004449047
0
VERTEX
8
___SYMBOL
62
7
6
CONTINUOUS
10
29.5877924880
20
19.9992039439
0
VERTEX
8
___SYMBOL
62
7
6
CONTINUOUS
10
29.5878197142
20
19.9979547721
0
VERTEX
8
___SYMBOL
62
7
6
CONTINUOUS
10
29.5878450546
20
19.9966984276
0
VERTEX
8
___SYMBOL
62
7
6
CONTINUOUS
10
29.5878677301
20
19.9954359484
0
VERTEX
8
___SYMBOL
62
7
6
CONTINUOUS
10
29.5878869610
20
19.9941683727
0
VERTEX
8
___SYMBOL
62
7
6
CONTINUOUS
10
29.5879019680
20
19.9928967388
0
VERTEX
8
___SYMBOL
62
7
6
CONTINUOUS
10
29.5879119717
20
19.9916220846
0
VERTEX
8
___SYMBOL
62
7
6
CONTINUOUS
10
29.5879161926
20
19.9903454484
0
VERTEX
8
___SYMBOL
62
7
6
CONTINUOUS
10
29.5879138513
20
19.9890678684
0
VERTEX
8
___SYMBOL
62
7
6
CONTINUOUS
10
29.5879041685
20
19.9877903826
0
VERTEX
8
___SYMBOL
62
7
6
CONTINUOUS
10
29.5878863646
20
19.9865140292
0
VERTEX
8
___SYMBOL
62
7
6
CONTINUOUS
10
29.5878596602
20
19.9852398465
0
VERTEX
8
___SYMBOL
62
7
6
CONTINUOUS
10
29.5878232759
20
19.9839688724
0
VERTEX
8
___SYMBOL
62
7
6
CONTINUOUS
10
29.5877764323
20
19.9827021453
0
VERTEX
8
___SYMBOL
62
7
6
CONTINUOUS
10
29.5877183500
20
19.9814407032
0
VERTEX
8
___SYMBOL
62
7
6
CONTINUOUS
10
29.5876482495
20
19.9801855843
0
VERTEX
8
___SYMBOL
62
7
6
CONTINUOUS
10
29.5875653515
20
19.9789378267
0
VERTEX
8
___SYMBOL
62
7
6
CONTINUOUS
10
29.5874688764
20
19.9776984686
0
VERTEX
8
___SYMBOL
62
7
6
CONTINUOUS
10
29.5873580449
20
19.9764685481
0
VERTEX
8
___SYMBOL
62
7
6
CONTINUOUS
10
29.5872320775
20
19.9752491035
0
VERTEX
8
___SYMBOL
62
7
6
CONTINUOUS
10
29.5870901949
20
19.9740411727
0
VERTEX
8
___SYMBOL
62
7
6
CONTINUOUS
10
29.5869316175
20
19.9728457941
0
VERTEX
8
___SYMBOL
62
7
6
CONTINUOUS
10
29.5867555660
20
19.9716640057
0
VERTEX
8
___SYMBOL
62
7
6
CONTINUOUS
10
29.5865612609
20
19.9704968458
0
VERTEX
8
___SYMBOL
62
7
6
CONTINUOUS
10
29.5863479229
20
19.9693453523
0
VERTEX
8
___SYMBOL
62
7
6
CONTINUOUS
10
29.5861147724
20
19.9682105636
0
VERTEX
8
___SYMBOL
62
7
6
CONTINUOUS
10
29.5858610301
20
19.9670935177
0
VERTEX
8
___SYMBOL
62
7
6
CONTINUOUS
10
29.5855859165
20
19.9659952529
0
VERTEX
8
___SYMBOL
62
7
6
CONTINUOUS
10
29.5852886523
20
19.9649168071
0
VERTEX
8
___SYMBOL
62
7
6
CONTINUOUS
10
29.5849684579
20
19.9638592187
0
VERTEX
8
___SYMBOL
62
7
6
CONTINUOUS
10
29.5846245540
20
19.9628235258
0
VERTEX
8
___SYMBOL
62
7
6
CONTINUOUS
10
29.5842561611
20
19.9618107665
0
VERTEX
8
___SYMBOL
62
7
6
CONTINUOUS
10
29.5838624999
20
19.9608219789
0
VERTEX
8
___SYMBOL
62
7
6
CONTINUOUS
10
29.5834427908
20
19.9598582012
0
VERTEX
8
___SYMBOL
62
7
6
CONTINUOUS
10
29.5829962545
20
19.9589204716
0
VERTEX
8
___SYMBOL
62
7
6
CONTINUOUS
10
29.5825221116
20
19.9580098282
0
VERTEX
8
___SYMBOL
62
7
6
CONTINUOUS
10
29.5820195825
20
19.9571273092
0
VERTEX
8
___SYMBOL
62
7
6
CONTINUOUS
10
29.5814878880
20
19.9562739527
0
VERTEX
8
___SYMBOL
62
7
6
CONTINUOUS
10
29.5809262485
20
19.9554507969
0
VERTEX
8
___SYMBOL
62
7
6
CONTINUOUS
10
29.5803338846
20
19.9546588799
0
VERTEX
8
___SYMBOL
62
7
6
CONTINUOUS
10
29.5797100170
20
19.9538992399
0
VERTEX
8
___SYMBOL
62
7
6
CONTINUOUS
10
29.5790538661
20
19.9531729150
0
VERTEX
8
___SYMBOL
62
7
6
CONTINUOUS
10
29.5783646526
20
19.9524809434
0
VERTEX
8
___SYMBOL
62
7
6
CONTINUOUS
10
29.5776415971
20
19.9518243632
0
VERTEX
8
___SYMBOL
62
7
6
CONTINUOUS
10
29.5768839200
20
19.9512042125
0
VERTEX
8
___SYMBOL
62
7
6
CONTINUOUS
10
29.5760908421
20
19.9506215296
0
VERTEX
8
___SYMBOL
62
7
6
CONTINUOUS
10
29.5752615838
20
19.9500773526
0
VERTEX
8
___SYMBOL
62
7
6
CONTINUOUS
10
29.5745547293
20
19.9496609706
0
VERTEX
8
___SYMBOL
62
7
6
CONTINUOUS
10
29.5738226416
20
19.9492716985
0
VERTEX
8
___SYMBOL
62
7
6
CONTINUOUS
10
29.5730648922
20
19.9489101070
0
VERTEX
8
___SYMBOL
62
7
6
CONTINUOUS
10
29.5722810524
20
19.9485767668
0
VERTEX
8
___SYMBOL
62
7
6
CONTINUOUS
10
29.5714706938
20
19.9482722489
0
VERTEX
8
___SYMBOL
62
7
6
CONTINUOUS
10
29.5706333879
20
19.9479971240
0
VERTEX
8
___SYMBOL
62
7
6
CONTINUOUS
10
29.5697687061
20
19.9477519628
0
VERTEX
8
___SYMBOL
62
7
6
CONTINUOUS
10
29.5688762198
20
19.9475373362
0
VERTEX
8
___SYMBOL
62
7
6
CONTINUOUS
10
29.5679555006
20
19.9473538149
0
VERTEX
8
___SYMBOL
62
7
6
CONTINUOUS
10
29.5670061200
20
19.9472019696
0
VERTEX
8
___SYMBOL
62
7
6
CONTINUOUS
10
29.5660276493
20
19.9470823713
0
VERTEX
8
___SYMBOL
62
7
6
CONTINUOUS
10
29.5650196601
20
19.9469955906
0
VERTEX
8
___SYMBOL
62
7
6
CONTINUOUS
10
29.5639817238
20
19.9469421983
0
VERTEX
8
___SYMBOL
62
7
6
CONTINUOUS
10
29.5629134119
20
19.9469227652
0
SEQEND
0
ENDBLK
8
0
6
BYBLOCK
62
0
0
BLOCK
8
___SYMBOL
62
2
6
CONTINUOUS
2
REVEAL-NOREVEAL_BL7
70
64
10
29.0040356927
20
18.1249965046
0
LINE
8
___SYMBOL
62
7
6
CONTINUOUS
10
29.8753343148
20
17.4524965046
11
29.8753343148
21
18.1534365046
0
POLYLINE
8
___SYMBOL
62
7
6
CONTINUOUS
66
1
70
0
0
VERTEX
8
___SYMBOL
62
7
6
CONTINUOUS
10
29.8753370706
20
18.1534356371
0
VERTEX
8
___SYMBOL
62
7
6
CONTINUOUS
10
29.8752737231
20
18.1575754442
0
VERTEX
8
___SYMBOL
62
7
6
CONTINUOUS
10
29.8750843992
20
18.1617087674
0
VERTEX
8
___SYMBOL
62
7
6
CONTINUOUS
10
29.8747701421
20
18.1658313928
0
VERTEX
8
___SYMBOL
62
7
6
CONTINUOUS
10
29.8743319946
20
18.1699391064
0
VERTEX
8
___SYMBOL
62
7
6
CONTINUOUS
10
29.8737709999
20
18.1740276945
0
VERTEX
8
___SYMBOL
62
7
6
CONTINUOUS
10
29.8730882010
20
18.1780929429
0
VERTEX
8
___SYMBOL
62
7
6
CONTINUOUS
10
29.8722846410
20
18.1821306380
0
VERTEX
8
___SYMBOL
62
7
6
CONTINUOUS
10
29.8713613629
20
18.1861365656
0
VERTEX
8
___SYMBOL
62
7
6
CONTINUOUS
10
29.8703194098
20
18.1901065120
0
VERTEX
8
___SYMBOL
62
7
6
CONTINUOUS
10
29.8691598247
20
18.1940362632
0
VERTEX
8
___SYMBOL
62
7
6
CONTINUOUS
10
29.8678836507
20
18.1979216053
0
VERTEX
8
___SYMBOL
62
7
6
CONTINUOUS
10
29.8664919309
20
18.2017583244
0
VERTEX
8
___SYMBOL
62
7
6
CONTINUOUS
10
29.8649857082
20
18.2055422065
0
VERTEX
8
___SYMBOL
62
7
6
CONTINUOUS
10
29.8633660257
20
18.2092690378
0
VERTEX
8
___SYMBOL
62
7
6
CONTINUOUS
10
29.8616339266
20
18.2129346044
0
VERTEX
8
___SYMBOL
62
7
6
CONTINUOUS
10
29.8597904538
20
18.2165346923
0
VERTEX
8
___SYMBOL
62
7
6
CONTINUOUS
10
29.8578369546
20
18.2200652728
0
VERTEX
8
___SYMBOL
62
7
6
CONTINUOUS
10
29.8557759935
20
18.2235230580
0
VERTEX
8
___SYMBOL
62
7
6
CONTINUOUS
10
29.8536104393
20
18.2269049450
0
VERTEX
8
___SYMBOL
62
7
6
CONTINUOUS
10
29.8513431605
20
18.2302078312
0
VERTEX
8
___SYMBOL
62
7
6
CONTINUOUS
10
29.8489770259
20
18.2334286137
0
VERTEX
8
___SYMBOL
62
7
6
CONTINUOUS
10
29.8465149043
20
18.2365641897
0
VERTEX
8
___SYMBOL
62
7
6
CONTINUOUS
10
29.8439596643
20
18.2396114566
0
VERTEX
8
___SYMBOL
62
7
6
CONTINUOUS
10
29.8413141746
20
18.2425673115
0
VERTEX
8
___SYMBOL
62
7
6
CONTINUOUS
10
29.8385813039
20
18.2454286517
0
VERTEX
8
___SYMBOL
62
7
6
CONTINUOUS
10
29.8357639210
20
18.2481923743
0
VERTEX
8
___SYMBOL
62
7
6
CONTINUOUS
10
29.8328648945
20
18.2508553767
0
VERTEX
8
___SYMBOL
62
7
6
CONTINUOUS
10
29.8298870932
20
18.2534145560
0
VERTEX
8
___SYMBOL
62
7
6
CONTINUOUS
10
29.8268333857
20
18.2558668095
0
VERTEX
8
___SYMBOL
62
7
6
CONTINUOUS
10
29.8237066408
20
18.2582090344
0
VERTEX
8
___SYMBOL
62
7
6
CONTINUOUS
10
29.8205097272
20
18.2604381279
0
VERTEX
8
___SYMBOL
62
7
6
CONTINUOUS
10
29.8172455135
20
18.2625509873
0
VERTEX
8
___SYMBOL
62
7
6
CONTINUOUS
10
29.8141145460
20
18.2644308771
0
VERTEX
8
___SYMBOL
62
7
6
CONTINUOUS
10
29.8109297526
20
18.2662041163
0
VERTEX
8
___SYMBOL
62
7
6
CONTINUOUS
10
29.8076943812
20
18.2678697642
0
VERTEX
8
___SYMBOL
62
7
6
CONTINUOUS
10
29.8044116799
20
18.2694268805
0
VERTEX
8
___SYMBOL
62
7
6
CONTINUOUS
10
29.8010848969
20
18.2708745246
0
VERTEX
8
___SYMBOL
62
7
6
CONTINUOUS
10
29.7977172803
20
18.2722117560
0
VERTEX
8
___SYMBOL
62
7
6
CONTINUOUS
10
29.7943120780
20
18.2734376342
0
VERTEX
8
___SYMBOL
62
7
6
CONTINUOUS
10
29.7908725383
20
18.2745512188
0
VERTEX
8
___SYMBOL
62
7
6
CONTINUOUS
10
29.7874019092
20
18.2755515692
0
VERTEX
8
___SYMBOL
62
7
6
CONTINUOUS
10
29.7839034387
20
18.2764377449
0
VERTEX
8
___SYMBOL
62
7
6
CONTINUOUS
10
29.7803803751
20
18.2772088055
0
VERTEX
8
___SYMBOL
62
7
6
CONTINUOUS
10
29.7768359663
20
18.2778638105
0
VERTEX
8
___SYMBOL
62
7
6
CONTINUOUS
10
29.7732734604
20
18.2784018192
0
VERTEX
8
___SYMBOL
62
7
6
CONTINUOUS
10
29.7696961057
20
18.2788218914
0
VERTEX
8
___SYMBOL
62
7
6
CONTINUOUS
10
29.7661071500
20
18.2791230864
0
VERTEX
8
___SYMBOL
62
7
6
CONTINUOUS
10
29.7625098416
20
18.2793044637
0
VERTEX
8
___SYMBOL
62
7
6
CONTINUOUS
10
29.7589074285
20
18.2793650830
0
SEQEND
0
POLYLINE
8
___SYMBOL
62
7
6
CONTINUOUS
66
1
70
0
0
VERTEX
8
___SYMBOL
62
7
6
CONTINUOUS
10
29.7589113801
20
18.2793655228
0
VERTEX
8
___SYMBOL
62
7
6
CONTINUOUS
10
29.7602370067
20
18.2797278687
0
VERTEX
8
___SYMBOL
62
7
6
CONTINUOUS
10
29.7615783501
20
18.2801449436
0
VERTEX
8
___SYMBOL
62
7
6
CONTINUOUS
10
29.7629331366
20
18.2806156766
0
VERTEX
8
___SYMBOL
62
7
6
CONTINUOUS
10
29.7642990922
20
18.2811389969
0
VERTEX
8
___SYMBOL
62
7
6
CONTINUOUS
10
29.7656739430
20
18.2817138336
0
VERTEX
8
___SYMBOL
62
7
6
CONTINUOUS
10
29.7670554153
20
18.2823391161
0
VERTEX
8
___SYMBOL
62
7
6
CONTINUOUS
10
29.7684412350
20
18.2830137733
0
VERTEX
8
___SYMBOL
62
7
6
CONTINUOUS
10
29.7698291284
20
18.2837367346
0
VERTEX
8
___SYMBOL
62
7
6
CONTINUOUS
10
29.7712168217
20
18.2845069292
0
VERTEX
8
___SYMBOL
62
7
6
CONTINUOUS
10
29.7726020408
20
18.2853232861
0
VERTEX
8
___SYMBOL
62
7
6
CONTINUOUS
10
29.7739825120
20
18.2861847347
0
VERTEX
8
___SYMBOL
62
7
6
CONTINUOUS
10
29.7753559614
20
18.2870902040
0
VERTEX
8
___SYMBOL
62
7
6
CONTINUOUS
10
29.7768436249
20
18.2881267562
0
VERTEX
8
___SYMBOL
62
7
6
CONTINUOUS
10
29.7783174862
20
18.2892119534
0
VERTEX
8
___SYMBOL
62
7
6
CONTINUOUS
10
29.7797748053
20
18.2903433265
0
VERTEX
8
___SYMBOL
62
7
6
CONTINUOUS
10
29.7812128428
20
18.2915184066
0
VERTEX
8
___SYMBOL
62
7
6
CONTINUOUS
10
29.7826288588
20
18.2927347246
0
VERTEX
8
___SYMBOL
62
7
6
CONTINUOUS
10
29.7840201136
20
18.2939898114
0
VERTEX
8
___SYMBOL
62
7
6
CONTINUOUS
10
29.7853838676
20
18.2952811982
0
VERTEX
8
___SYMBOL
62
7
6
CONTINUOUS
10
29.7867173810
20
18.2966064158
0
VERTEX
8
___SYMBOL
62
7
6
CONTINUOUS
10
29.7880179142
20
18.2979629951
0
VERTEX
8
___SYMBOL
62
7
6
CONTINUOUS
10
29.7892827273
20
18.2993484673
0
VERTEX
8
___SYMBOL
62
7
6
CONTINUOUS
10
29.7905090808
20
18.3007603633
0
VERTEX
8
___SYMBOL
62
7
6
CONTINUOUS
10
29.7916943799
20
18.3021961304
0
VERTEX
8
___SYMBOL
62
7
6
CONTINUOUS
10
29.7928366097
20
18.3036528823
0
VERTEX
8
___SYMBOL
62
7
6
CONTINUOUS
10
29.7939339006
20
18.3051276488
0
VERTEX
8
___SYMBOL
62
7
6
CONTINUOUS
10
29.7949843826
20
18.3066174599
0
VERTEX
8
___SYMBOL
62
7
6
CONTINUOUS
10
29.7959861860
20
18.3081193456
0
VERTEX
8
___SYMBOL
62
7
6
CONTINUOUS
10
29.7969374409
20
18.3096303358
0
VERTEX
8
___SYMBOL
62
7
6
CONTINUOUS
10
29.7978362776
20
18.3111474604
0
VERTEX
8
___SYMBOL
62
7
6
CONTINUOUS
10
29.7986808261
20
18.3126677495
0
VERTEX
8
___SYMBOL
62
7
6
CONTINUOUS
10
29.7994692167
20
18.3141882329
0
VERTEX
8
___SYMBOL
62
7
6
CONTINUOUS
10
29.8001995797
20
18.3157059406
0
VERTEX
8
___SYMBOL
62
7
6
CONTINUOUS
10
29.8008700451
20
18.3172179026
0
VERTEX
8
___SYMBOL
62
7
6
CONTINUOUS
10
29.8014305898
20
18.3185963068
0
VERTEX
8
___SYMBOL
62
7
6
CONTINUOUS
10
29.8019387928
20
18.3199652383
0
VERTEX
8
___SYMBOL
62
7
6
CONTINUOUS
10
29.8023942144
20
18.3213225482
0
VERTEX
8
___SYMBOL
62
7
6
CONTINUOUS
10
29.8027964144
20
18.3226660875
0
VERTEX
8
___SYMBOL
62
7
6
CONTINUOUS
10
29.8031449530
20
18.3239937071
0
VERTEX
8
___SYMBOL
62
7
6
CONTINUOUS
10
29.8034393903
20
18.3253032581
0
VERTEX
8
___SYMBOL
62
7
6
CONTINUOUS
10
29.8036483714
20
18.3264097203
0
VERTEX
8
___SYMBOL
62
7
6
CONTINUOUS
10
29.8038170044
20
18.3274999754
0
VERTEX
8
___SYMBOL
62
7
6
CONTINUOUS
10
29.8039450121
20
18.3285726702
0
VERTEX
8
___SYMBOL
62
7
6
CONTINUOUS
10
29.8040321177
20
18.3296264514
0
VERTEX
8
___SYMBOL
62
7
6
CONTINUOUS
10
29.8040780440
20
18.3306599656
0
VERTEX
8
___SYMBOL
62
7
6
CONTINUOUS
10
29.8040825141
20
18.3316718596
0
VERTEX
8
___SYMBOL
62
7
6
CONTINUOUS
10
29.8040452508
20
18.3326607800
0
VERTEX
8
___SYMBOL
62
7
6
CONTINUOUS
10
29.8039582744
20
18.3336986112
0
VERTEX
8
___SYMBOL
62
7
6
CONTINUOUS
10
29.8038230895
20
18.3347070461
0
VERTEX
8
___SYMBOL
62
7
6
CONTINUOUS
10
29.8036402096
20
18.3356849019
0
VERTEX
8
___SYMBOL
62
7
6
CONTINUOUS
10
29.8034101481
20
18.3366309955
0
VERTEX
8
___SYMBOL
62
7
6
CONTINUOUS
10
29.8031334187
20
18.3375441440
0
VERTEX
8
___SYMBOL
62
7
6
CONTINUOUS
10
29.8028105348
20
18.3384231647
0
VERTEX
8
___SYMBOL
62
7
6
CONTINUOUS
10
29.8024420100
20
18.3392668744
0
VERTEX
8
___SYMBOL
62
7
6
CONTINUOUS
10
29.8020283577
20
18.3400740904
0
VERTEX
8
___SYMBOL
62
7
6
CONTINUOUS
10
29.8015700915
20
18.3408436298
0
VERTEX
8
___SYMBOL
62
7
6
CONTINUOUS
10
29.8010677249
20
18.3415743095
0
VERTEX
8
___SYMBOL
62
7
6
CONTINUOUS
10
29.8005217714
20
18.3422649467
0
VERTEX
8
___SYMBOL
62
7
6
CONTINUOUS
10
29.7999327445
20
18.3429143584
0
VERTEX
8
___SYMBOL
62
7
6
CONTINUOUS
10
29.7993011578
20
18.3435213619
0
SEQEND
0
LINE
8
___SYMBOL
62
7
6
CONTINUOUS
10
29.8349443148
20
17.4391565046
11
29.8349443148
21
18.1510565046
0
POLYLINE
8
___SYMBOL
62
7
6
CONTINUOUS
66
1
70
0
0
VERTEX
8
___SYMBOL
62
7
6
CONTINUOUS
10
29.8349441949
20
18.1510576643
0
VERTEX
8
___SYMBOL
62
7
6
CONTINUOUS
10
29.8349030362
20
18.1538861513
0
VERTEX
8
___SYMBOL
62
7
6
CONTINUOUS
10
29.8347800247
20
18.1567086933
0
VERTEX
8
___SYMBOL
62
7
6
CONTINUOUS
10
29.8345758232
20
18.1595224854
0
VERTEX
8
___SYMBOL
62
7
6
CONTINUOUS
10
29.8342910947
20
18.1623247232
0
VERTEX
8
___SYMBOL
62
7
6
CONTINUOUS
10
29.8339265020
20
18.1651126017
0
VERTEX
8
___SYMBOL
62
7
6
CONTINUOUS
10
29.8334827078
20
18.1678833165
0
VERTEX
8
___SYMBOL
62
7
6
CONTINUOUS
10
29.8329603749
20
18.1706340628
0
VERTEX
8
___SYMBOL
62
7
6
CONTINUOUS
10
29.8323601663
20
18.1733620359
0
VERTEX
8
___SYMBOL
62
7
6
CONTINUOUS
10
29.8316827447
20
18.1760644311
0
VERTEX
8
___SYMBOL
62
7
6
CONTINUOUS
10
29.8309287730
20
18.1787384438
0
VERTEX
8
___SYMBOL
62
7
6
CONTINUOUS
10
29.8300989140
20
18.1813812693
0
VERTEX
8
___SYMBOL
62
7
6
CONTINUOUS
10
29.8291938305
20
18.1839901028
0
VERTEX
8
___SYMBOL
62
7
6
CONTINUOUS
10
29.8282141853
20
18.1865621398
0
VERTEX
8
___SYMBOL
62
7
6
CONTINUOUS
10
29.8271606413
20
18.1890945755
0
VERTEX
8
___SYMBOL
62
7
6
CONTINUOUS
10
29.8260338614
20
18.1915846052
0
VERTEX
8
___SYMBOL
62
7
6
CONTINUOUS
10
29.8248345082
20
18.1940294244
0
VERTEX
8
___SYMBOL
62
7
6
CONTINUOUS
10
29.8235634387
20
18.1964263531
0
VERTEX
8
___SYMBOL
62
7
6
CONTINUOUS
10
29.8222222854
20
18.1987732114
0
VERTEX
8
___SYMBOL
62
7
6
CONTINUOUS
10
29.8208128752
20
18.2010679442
0
VERTEX
8
___SYMBOL
62
7
6
CONTINUOUS
10
29.8193370347
20
18.2033084962
0
VERTEX
8
___SYMBOL
62
7
6
CONTINUOUS
10
29.8177965905
20
18.2054928125
0
VERTEX
8
___SYMBOL
62
7
6
CONTINUOUS
10
29.8161933693
20
18.2076188378
0
VERTEX
8
___SYMBOL
62
7
6
CONTINUOUS
10
29.8145291978
20
18.2096845170
0
VERTEX
8
___SYMBOL
62
7
6
CONTINUOUS
10
29.8128059026
20
18.2116877951
0
VERTEX
8
___SYMBOL
62
7
6
CONTINUOUS
10
29.8110253105
20
18.2136266169
0
VERTEX
8
___SYMBOL
62
7
6
CONTINUOUS
10
29.8091892480
20
18.2154989272
0
VERTEX
8
___SYMBOL
62
7
6
CONTINUOUS
10
29.8072995420
20
18.2173026710
0
VERTEX
8
___SYMBOL
62
7
6
CONTINUOUS
10
29.8053580190
20
18.2190357931
0
VERTEX
8
___SYMBOL
62
7
6
CONTINUOUS
10
29.8033665057
20
18.2206962383
0
VERTEX
8
___SYMBOL
62
7
6
CONTINUOUS
10
29.8013268288
20
18.2222819517
0
VERTEX
8
___SYMBOL
62
7
6
CONTINUOUS
10
29.7992408150
20
18.2237908780
0
VERTEX
8
___SYMBOL
62
7
6
CONTINUOUS
10
29.7971102909
20
18.2252209621
0
VERTEX
8
___SYMBOL
62
7
6
CONTINUOUS
10
29.7950661603
20
18.2264932431
0
VERTEX
8
___SYMBOL
62
7
6
CONTINUOUS
10
29.7929862985
20
18.2276932424
0
VERTEX
8
___SYMBOL
62
7
6
CONTINUOUS
10
29.7908727839
20
18.2288203383
0
VERTEX
8
___SYMBOL
62
7
6
CONTINUOUS
10
29.7887276949
20
18.2298739088
0
VERTEX
8
___SYMBOL
62
7
6
CONTINUOUS
10
29.7865531099
20
18.2308533322
0
VERTEX
8
___SYMBOL
62
7
6
CONTINUOUS
10
29.7843511074
20
18.2317579867
0
VERTEX
8
___SYMBOL
62
7
6
CONTINUOUS
10
29.7821237658
20
18.2325872505
0
VERTEX
8
___SYMBOL
62
7
6
CONTINUOUS
10
29.7798731634
20
18.2333405019
0
VERTEX
8
___SYMBOL
62
7
6
CONTINUOUS
10
29.7776013789
20
18.2340171189
0
VERTEX
8
___SYMBOL
62
7
6
CONTINUOUS
10
29.7753104905
20
18.2346164798
0
VERTEX
8
___SYMBOL
62
7
6
CONTINUOUS
10
29.7730025767
20
18.2351379629
0
VERTEX
8
___SYMBOL
62
7
6
CONTINUOUS
10
29.7706797159
20
18.2355809462
0
VERTEX
8
___SYMBOL
62
7
6
CONTINUOUS
10
29.7683439867
20
18.2359448081
0
VERTEX
8
___SYMBOL
62
7
6
CONTINUOUS
10
29.7659974673
20
18.2362289266
0
VERTEX
8
___SYMBOL
62
7
6
CONTINUOUS
10
29.7636422362
20
18.2364326801
0
VERTEX
8
___SYMBOL
62
7
6
CONTINUOUS
10
29.7612803719
20
18.2365554466
0
VERTEX
8
___SYMBOL
62
7
6
CONTINUOUS
10
29.7589139528
20
18.2365966045
0
SEQEND
0
LINE
8
___SYMBOL
62
7
6
CONTINUOUS
10
29.7589143148
20
18.2365965046
11
29.3454743148
21
18.2365965046
0
LINE
8
___SYMBOL
62
7
6
CONTINUOUS
10
29.3454743148
20
18.2365965046
11
29.3454743148
21
18.2793665046
0
LINE
8
___SYMBOL
62
7
6
CONTINUOUS
10
29.3454743148
20
18.2793665046
11
29.7589143148
21
18.2793665046
0
LINE
8
___SYMBOL
62
7
6
CONTINUOUS
10
29.8217327938
20
18.1995887681
11
29.7185143148
21
18.1284865046
0
LINE
8
___SYMBOL
62
7
6
CONTINUOUS
10
29.7185143148
20
18.1284865046
11
28.4057443148
21
18.2259065046
0
LINE
8
___SYMBOL
62
7
6
CONTINUOUS
10
28.4057443148
20
18.2259065046
11
28.3344643148
21
18.3245065046
0
LINE
8
___SYMBOL
62
7
6
CONTINUOUS
10
28.3344643148
20
18.3245065046
11
28.3736643148
21
18.3435165046
0
LINE
8
___SYMBOL
62
7
6
CONTINUOUS
10
28.3736643148
20
18.3435165046
11
28.4318843148
21
18.2579765046
0
LINE
8
___SYMBOL
62
7
6
CONTINUOUS
10
28.4318843148
20
18.2579765046
11
29.7018843148
21
18.1700665046
0
LINE
8
___SYMBOL
62
7
6
CONTINUOUS
10
29.7018843148
20
18.1700665046
11
29.7926510638
21
18.2278780984
0
LINE
8
___SYMBOL
62
2
6
CONTINUOUS
10
29.7923260785
20
18.2280550874
11
29.8244249004
21
18.2576855256
0
LINE
8
___SYMBOL
62
7
6
CONTINUOUS
10
29.3828143148
20
18.2864965046
11
29.3797543148
21
18.2926065046
0
LINE
8
___SYMBOL
62
7
6
CONTINUOUS
10
29.3797543148
20
18.2926065046
11
29.3756843148
21
18.2936165046
0
LINE
8
___SYMBOL
62
7
6
CONTINUOUS
10
29.3756843148
20
18.2936165046
11
29.3716143148
21
18.2956565046
0
LINE
8
___SYMBOL
62
7
6
CONTINUOUS
10
29.3716143148
20
18.2956565046
11
29.3675343148
21
18.2997365046
0
LINE
8
___SYMBOL
62
7
6
CONTINUOUS
10
29.3675343148
20
18.2997365046
11
29.3624443148
21
18.2987165046
0
LINE
8
___SYMBOL
62
7
6
CONTINUOUS
10
29.4877043148
20
18.2895465046
11
29.4917743148
21
18.2915865046
0
LINE
8
___SYMBOL
62
7
6
CONTINUOUS
10
29.4917743148
20
18.2915865046
11
29.4958443148
21
18.2926065046
0
LINE
8
___SYMBOL
62
7
6
CONTINUOUS
10
29.4958443148
20
18.2926065046
11
29.5039943148
21
18.2885265046
0
LINE
8
___SYMBOL
62
7
6
CONTINUOUS
10
29.5039943148
20
18.2885265046
11
29.5080643148
21
18.2885265046
0
LINE
8
___SYMBOL
62
7
6
CONTINUOUS
10
29.6435043148
20
18.2905665046
11
29.6496143148
21
18.2936165046
0
LINE
8
___SYMBOL
62
7
6
CONTINUOUS
10
29.6496143148
20
18.2936165046
11
29.6597943148
21
18.2905665046
0
LINE
8
___SYMBOL
62
7
6
CONTINUOUS
10
29.6465543148
20
18.3282465046
11
29.6424843148
21
18.3282465046
0
LINE
8
___SYMBOL
62
7
6
CONTINUOUS
10
29.6424843148
20
18.3282465046
11
29.6312843148
21
18.3363965046
0
LINE
8
___SYMBOL
62
7
6
CONTINUOUS
10
29.6312843148
20
18.3363965046
11
29.6231343148
21
18.3363965046
0
LINE
8
___SYMBOL
62
7
6
CONTINUOUS
10
29.6231343148
20
18.3363965046
11
29.6231343148
21
18.3302765046
0
LINE
8
___SYMBOL
62
7
6
CONTINUOUS
10
29.4907543148
20
18.3302765046
11
29.4907543148
21
18.3353765046
0
LINE
8
___SYMBOL
62
7
6
CONTINUOUS
10
29.4907543148
20
18.3353765046
11
29.4948243148
21
18.3363965046
0
LINE
8
___SYMBOL
62
7
6
CONTINUOUS
10
29.4948243148
20
18.3363965046
11
29.4989043148
21
18.3353765046
0
LINE
8
___SYMBOL
62
7
6
CONTINUOUS
10
29.4989043148
20
18.3353765046
11
29.5039943148
21
18.3282465046
0
LINE
8
___SYMBOL
62
7
6
CONTINUOUS
10
29.5039943148
20
18.3282465046
11
29.5090843148
21
18.3262065046
0
LINE
8
___SYMBOL
62
7
6
CONTINUOUS
10
29.5090843148
20
18.3262065046
11
29.5141743148
21
18.3262065046
0
POLYLINE
8
___SYMBOL
62
7
6
CONTINUOUS
66
1
70
0
0
VERTEX
8
___SYMBOL
62
7
6
CONTINUOUS
10
29.3542971685
20
18.2803875745
0
VERTEX
8
___SYMBOL
62
7
6
CONTINUOUS
10
29.3526218848
20
18.2818632141
0
VERTEX
8
___SYMBOL
62
7
6
CONTINUOUS
10
29.3509924057
20
18.2833206992
0
VERTEX
8
___SYMBOL
62
7
6
CONTINUOUS
10
29.3494084610
20
18.2847601945
0
VERTEX
8
___SYMBOL
62
7
6
CONTINUOUS
10
29.3478697806
20
18.2861818648
0
VERTEX
8
___SYMBOL
62
7
6
CONTINUOUS
10
29.3463760943
20
18.2875858749
0
VERTEX
8
___SYMBOL
62
7
6
CONTINUOUS
10
29.3449271320
20
18.2889723896
0
VERTEX
8
___SYMBOL
62
7
6
CONTINUOUS
10
29.3435226235
20
18.2903415737
0
VERTEX
8
___SYMBOL
62
7
6
CONTINUOUS
10
29.3421622988
20
18.2916935920
0
VERTEX
8
___SYMBOL
62
7
6
CONTINUOUS
10
29.3408458877
20
18.2930286094
0
VERTEX
8
___SYMBOL
62
7
6
CONTINUOUS
10
29.3395731199
20
18.2943467906
0
VERTEX
8
___SYMBOL
62
7
6
CONTINUOUS
10
29.3383437255
20
18.2956483004
0
VERTEX
8
___SYMBOL
62
7
6
CONTINUOUS
10
29.3371574342
20
18.2969333037
0
VERTEX
8
___SYMBOL
62
7
6
CONTINUOUS
10
29.3360139759
20
18.2982019652
0
VERTEX
8
___SYMBOL
62
7
6
CONTINUOUS
10
29.3349130804
20
18.2994544497
0
VERTEX
8
___SYMBOL
62
7
6
CONTINUOUS
10
29.3338544777
20
18.3006909221
0
VERTEX
8
___SYMBOL
62
7
6
CONTINUOUS
10
29.3328378976
20
18.3019115471
0
VERTEX
8
___SYMBOL
62
7
6
CONTINUOUS
10
29.3318630699
20
18.3031164895
0
VERTEX
8
___SYMBOL
62
7
6
CONTINUOUS
10
29.3309297245
20
18.3043059143
0
VERTEX
8
___SYMBOL
62
7
6
CONTINUOUS
10
29.3300375912
20
18.3054799860
0
VERTEX
8
___SYMBOL
62
7
6
CONTINUOUS
10
29.3291864000
20
18.3066388696
0
VERTEX
8
___SYMBOL
62
7
6
CONTINUOUS
10
29.3283758807
20
18.3077827299
0
VERTEX
8
___SYMBOL
62
7
6
CONTINUOUS
10
29.3276057920
20
18.3089117202
0
VERTEX
8
___SYMBOL
62
7
6
CONTINUOUS
10
29.3268760089
20
18.3100259485
0
VERTEX
8
___SYMBOL
62
7
6
CONTINUOUS
10
29.3261864349
20
18.3111255112
0
VERTEX
8
___SYMBOL
62
7
6
CONTINUOUS
10
29.3255369739
20
18.3122105049
0
VERTEX
8
___SYMBOL
62
7
6
CONTINUOUS
10
29.3249275296
20
18.3132810260
0
VERTEX
8
___SYMBOL
62
7
6
CONTINUOUS
10
29.3243580058
20
18.3143371710
0
VERTEX
8
___SYMBOL
62
7
6
CONTINUOUS
10
29.3238283061
20
18.3153790364
0
VERTEX
8
___SYMBOL
62
7
6
CONTINUOUS
10
29.3233383343
20
18.3164067188
0
VERTEX
8
___SYMBOL
62
7
6
CONTINUOUS
10
29.3228879941
20
18.3174203145
0
VERTEX
8
___SYMBOL
62
7
6
CONTINUOUS
10
29.3224771894
20
18.3184199202
0
VERTEX
8
___SYMBOL
62
7
6
CONTINUOUS
10
29.3221058238
20
18.3194056322
0
VERTEX
8
___SYMBOL
62
7
6
CONTINUOUS
10
29.3217738010
20
18.3203775471
0
VERTEX
8
___SYMBOL
62
7
6
CONTINUOUS
10
29.3214810249
20
18.3213357614
0
VERTEX
8
___SYMBOL
62
7
6
CONTINUOUS
10
29.3212273991
20
18.3222803716
0
VERTEX
8
___SYMBOL
62
7
6
CONTINUOUS
10
29.3209808556
20
18.3233653514
0
VERTEX
8
___SYMBOL
62
7
6
CONTINUOUS
10
29.3207873162
20
18.3244320991
0
VERTEX
8
___SYMBOL
62
7
6
CONTINUOUS
10
29.3206466280
20
18.3254807678
0
VERTEX
8
___SYMBOL
62
7
6
CONTINUOUS
10
29.3205586382
20
18.3265115107
0
VERTEX
8
___SYMBOL
62
7
6
CONTINUOUS
10
29.3205231940
20
18.3275244812
0
VERTEX
8
___SYMBOL
62
7
6
CONTINUOUS
10
29.3205401424
20
18.3285198325
0
VERTEX
8
___SYMBOL
62
7
6
CONTINUOUS
10
29.3206093703
20
18.3294977043
0
VERTEX
8
___SYMBOL
62
7
6
CONTINUOUS
10
29.3207309237
20
18.3304581829
0
VERTEX
8
___SYMBOL
62
7
6
CONTINUOUS
10
29.3209048883
20
18.3314013411
0
VERTEX
8
___SYMBOL
62
7
6
CONTINUOUS
10
29.3211313495
20
18.3323272516
0
VERTEX
8
___SYMBOL
62
7
6
CONTINUOUS
10
29.3214103932
20
18.3332359874
0
VERTEX
8
___SYMBOL
62
7
6
CONTINUOUS
10
29.3217421048
20
18.3341276213
0
VERTEX
8
___SYMBOL
62
7
6
CONTINUOUS
10
29.3221265702
20
18.3350022260
0
VERTEX
8
___SYMBOL
62
7
6
CONTINUOUS
10
29.3225638749
20
18.3358598743
0
VERTEX
8
___SYMBOL
62
7
6
CONTINUOUS
10
29.3230541047
20
18.3367006391
0
VERTEX
8
___SYMBOL
62
7
6
CONTINUOUS
10
29.3235973450
20
18.3375245932
0
VERTEX
8
___SYMBOL
62
7
6
CONTINUOUS
10
29.3241936816
20
18.3383318095
0
VERTEX
8
___SYMBOL
62
7
6
CONTINUOUS
10
29.3248432001
20
18.3391223606
0
VERTEX
8
___SYMBOL
62
7
6
CONTINUOUS
10
29.3255459863
20
18.3398963194
0
VERTEX
8
___SYMBOL
62
7
6
CONTINUOUS
10
29.3263021256
20
18.3406537588
0
VERTEX
8
___SYMBOL
62
7
6
CONTINUOUS
10
29.3271117038
20
18.3413947515
0
VERTEX
8
___SYMBOL
62
7
6
CONTINUOUS
10
29.3279748065
20
18.3421193704
0
VERTEX
8
___SYMBOL
62
7
6
CONTINUOUS
10
29.3288915194
20
18.3428276883
0
VERTEX
8
___SYMBOL
62
7
6
CONTINUOUS
10
29.3298619281
20
18.3435197779
0
SEQEND
0
LINE
8
___SYMBOL
62
7
6
CONTINUOUS
10
29.2326143148
20
18.3435165046
11
29.2326143148
21
18.6036965046
0
LINE
8
___SYMBOL
62
7
6
CONTINUOUS
10
29.2326143148
20
18.6036965046
11
29.0330243148
21
18.6036965046
0
LINE
8
___SYMBOL
62
7
6
CONTINUOUS
10
29.0900543148
20
18.2124176663
11
29.0900543148
21
18.5659165046
0
LINE
8
___SYMBOL
62
7
6
CONTINUOUS
10
29.0900543148
20
18.5659165046
11
29.1335343148
21
18.6036965046
0
LINE
8
___SYMBOL
62
7
6
CONTINUOUS
10
29.1335343148
20
18.6036965046
11
29.1805743148
21
18.5659165046
0
LINE
8
___SYMBOL
62
7
6
CONTINUOUS
10
29.1805743148
20
18.2061518291
11
29.1805743148
21
18.5659165046
0
LINE
8
___SYMBOL
62
7
6
CONTINUOUS
10
29.1805743148
20
18.5659165046
11
29.0900543148
21
18.5659165046
0
LINE
8
___SYMBOL
62
7
6
CONTINUOUS
10
29.0900543148
20
18.4675465046
11
29.1805743148
21
18.4675465046
0
LINE
8
___SYMBOL
62
7
6
CONTINUOUS
10
29.1805843148
20
18.4675465046
11
29.1335343148
21
18.5053265046
0
LINE
8
___SYMBOL
62
7
6
CONTINUOUS
10
29.1335343148
20
18.5053265046
11
29.0900543148
21
18.4675465046
0
LINE
8
___SYMBOL
62
2
6
CONTINUOUS
10
29.8705843148
20
18.4732565046
11
29.7260275288
21
18.3435165046
0
LINE
8
___SYMBOL
62
7
6
CONTINUOUS
10
29.7310976373
20
18.3435165046
11
29.7473643148
21
18.3353765046
0
LINE
8
___SYMBOL
62
7
6
CONTINUOUS
10
29.7473643148
20
18.3353765046
11
29.7504243148
21
18.3312965046
0
LINE
8
___SYMBOL
62
7
6
CONTINUOUS
10
29.7504243148
20
18.3312965046
11
29.7524643148
21
18.3231565046
0
LINE
8
___SYMBOL
62
7
6
CONTINUOUS
10
29.7524643148
20
18.3231565046
11
29.7524643148
21
18.3170465046
0
LINE
8
___SYMBOL
62
7
6
CONTINUOUS
10
29.7524643148
20
18.3170465046
11
29.7514443148
21
18.3119565046
0
LINE
8
___SYMBOL
62
7
6
CONTINUOUS
10
29.7514443148
20
18.3119565046
11
29.7432943148
21
18.3068565046
0
LINE
8
___SYMBOL
62
7
6
CONTINUOUS
10
29.7432943148
20
18.3068565046
11
29.7310743148
21
18.3058365046
0
LINE
8
___SYMBOL
62
7
6
CONTINUOUS
10
29.7310743148
20
18.3058365046
11
29.7188543148
21
18.3027865046
0
LINE
8
___SYMBOL
62
7
6
CONTINUOUS
10
29.7188543148
20
18.3027865046
11
29.7117243148
21
18.3027865046
0
LINE
8
___SYMBOL
62
7
6
CONTINUOUS
10
29.7117243148
20
18.3027865046
11
29.7035843148
21
18.3007465046
0
LINE
8
___SYMBOL
62
7
6
CONTINUOUS
10
29.7035843148
20
18.3007465046
11
29.6760843148
21
18.3007465046
0
LINE
8
___SYMBOL
62
7
6
CONTINUOUS
10
29.6760843148
20
18.3007465046
11
29.6669243148
21
18.3038065046
0
LINE
8
___SYMBOL
62
7
6
CONTINUOUS
10
29.6669243148
20
18.3038065046
11
29.6638643148
21
18.3068565046
0
LINE
8
___SYMBOL
62
7
6
CONTINUOUS
10
29.6638643148
20
18.3068565046
11
29.6597943148
21
18.3078765046
0
LINE
8
___SYMBOL
62
7
6
CONTINUOUS
10
29.6597943148
20
18.3078765046
11
29.6536843148
21
18.3078765046
0
LINE
8
___SYMBOL
62
7
6
CONTINUOUS
10
29.6536843148
20
18.3078765046
11
29.6424843148
21
18.3099165046
0
LINE
8
___SYMBOL
62
7
6
CONTINUOUS
10
29.6424843148
20
18.3099165046
11
29.6343343148
21
18.3099165046
0
LINE
8
___SYMBOL
62
7
6
CONTINUOUS
10
29.6343343148
20
18.3099165046
11
29.6251743148
21
18.3078765046
0
LINE
8
___SYMBOL
62
7
6
CONTINUOUS
10
29.6251743148
20
18.3078765046
11
29.6200843148
21
18.3038065046
0
LINE
8
___SYMBOL
62
7
6
CONTINUOUS
10
29.6200843148
20
18.3038065046
11
29.6160043148
21
18.3027865046
0
LINE
8
___SYMBOL
62
7
6
CONTINUOUS
10
29.6160043148
20
18.3027865046
11
29.5518543148
21
18.3007465046
0
LINE
8
___SYMBOL
62
7
6
CONTINUOUS
10
29.5518543148
20
18.3007465046
11
29.5426843148
21
18.3027865046
0
LINE
8
___SYMBOL
62
7
6
CONTINUOUS
10
29.5426843148
20
18.3027865046
11
29.5039943148
21
18.3068565046
0
LINE
8
___SYMBOL
62
7
6
CONTINUOUS
10
29.5039943148
20
18.3068565046
11
29.4948243148
21
18.3007465046
0
LINE
8
___SYMBOL
62
7
6
CONTINUOUS
10
29.4948243148
20
18.3007465046
11
29.4897343148
21
18.2987165046
0
LINE
8
___SYMBOL
62
7
6
CONTINUOUS
10
29.4897343148
20
18.2987165046
11
29.4561343148
21
18.2956565046
0
LINE
8
___SYMBOL
62
7
6
CONTINUOUS
10
29.4561343148
20
18.2956565046
11
29.4082743148
21
18.2976965046
0
LINE
8
___SYMBOL
62
7
6
CONTINUOUS
10
29.4082743148
20
18.2976965046
11
29.3980943148
21
18.2976965046
0
LINE
8
___SYMBOL
62
7
6
CONTINUOUS
10
29.3980943148
20
18.2976965046
11
29.3879043148
21
18.2997365046
0
LINE
8
___SYMBOL
62
7
6
CONTINUOUS
10
29.3879043148
20
18.2997365046
11
29.3736443148
21
18.3078765046
0
LINE
8
___SYMBOL
62
7
6
CONTINUOUS
10
29.3736443148
20
18.3078765046
11
29.3726343148
21
18.3119565046
0
LINE
8
___SYMBOL
62
7
6
CONTINUOUS
10
29.3726343148
20
18.3119565046
11
29.3624443148
21
18.3150065046
0
LINE
8
___SYMBOL
62
7
6
CONTINUOUS
10
29.3624443148
20
18.3150065046
11
29.3502243148
21
18.3251865046
0
LINE
8
___SYMBOL
62
7
6
CONTINUOUS
10
29.3502243148
20
18.3251865046
11
29.3471743148
21
18.3292665046
0
LINE
8
___SYMBOL
62
7
6
CONTINUOUS
10
29.3471743148
20
18.3292665046
11
29.3471743148
21
18.3353765046
0
LINE
8
___SYMBOL
62
7
6
CONTINUOUS
10
29.3471743148
20
18.3353765046
11
29.3492043148
21
18.3394465046
0
LINE
8
___SYMBOL
62
7
6
CONTINUOUS
10
29.3492043148
20
18.3394465046
11
29.3543043148
21
18.3435165046
0
LINE
8
___SYMBOL
62
7
6
CONTINUOUS
10
29.1805743148
20
18.1684067609
11
29.1805743148
21
18.0916565046
0
LINE
8
___SYMBOL
62
7
6
CONTINUOUS
10
29.1805743148
20
18.0916565046
11
29.2254843148
21
18.0322565046
0
LINE
8
___SYMBOL
62
7
6
CONTINUOUS
10
29.2254843148
20
18.0322565046
11
29.0437143148
21
18.0322565046
0
LINE
8
___SYMBOL
62
7
6
CONTINUOUS
10
29.0437143148
20
18.0322565046
11
29.0900543148
21
18.0916565046
0
LINE
8
___SYMBOL
62
7
6
CONTINUOUS
10
29.0900543148
20
18.0916565046
11
29.0900543148
21
18.1751242045
0
POLYLINE
8
___SYMBOL
62
7
6
CONTINUOUS
66
1
70
0
0
VERTEX
8
___SYMBOL
62
7
6
CONTINUOUS
10
29.5589780984
20
18.3211212307
0
VERTEX
8
___SYMBOL
62
7
6
CONTINUOUS
10
29.5587743437
20
18.3213508207
0
VERTEX
8
___SYMBOL
62
7
6
CONTINUOUS
10
29.5585630803
20
18.3215735161
0
VERTEX
8
___SYMBOL
62
7
6
CONTINUOUS
10
29.5583445811
20
18.3217891306
0
VERTEX
8
___SYMBOL
62
7
6
CONTINUOUS
10
29.5581191187
20
18.3219974784
0
VERTEX
8
___SYMBOL
62
7
6
CONTINUOUS
10
29.5578869658
20
18.3221983733
0
VERTEX
8
___SYMBOL
62
7
6
CONTINUOUS
10
29.5576483950
20
18.3223916293
0
VERTEX
8
___SYMBOL
62
7
6
CONTINUOUS
10
29.5574036791
20
18.3225770603
0
VERTEX
8
___SYMBOL
62
7
6
CONTINUOUS
10
29.5571530906
20
18.3227544804
0
VERTEX
8
___SYMBOL
62
7
6
CONTINUOUS
10
29.5568969024
20
18.3229237033
0
VERTEX
8
___SYMBOL
62
7
6
CONTINUOUS
10
29.5566353871
20
18.3230845432
0
VERTEX
8
___SYMBOL
62
7
6
CONTINUOUS
10
29.5563688173
20
18.3232368138
0
VERTEX
8
___SYMBOL
62
7
6
CONTINUOUS
10
29.5560974657
20
18.3233803293
0
VERTEX
8
___SYMBOL
62
7
6
CONTINUOUS
10
29.5558216051
20
18.3235149035
0
VERTEX
8
___SYMBOL
62
7
6
CONTINUOUS
10
29.5555415080
20
18.3236403503
0
VERTEX
8
___SYMBOL
62
7
6
CONTINUOUS
10
29.5552574473
20
18.3237564838
0
VERTEX
8
___SYMBOL
62
7
6
CONTINUOUS
10
29.5549696955
20
18.3238631179
0
VERTEX
8
___SYMBOL
62
7
6
CONTINUOUS
10
29.5546785353
20
18.3239600932
0
VERTEX
8
___SYMBOL
62
7
6
CONTINUOUS
10
29.5543842890
20
18.3240473575
0
VERTEX
8
___SYMBOL
62
7
6
CONTINUOUS
10
29.5540872890
20
18.3241248853
0
VERTEX
8
___SYMBOL
62
7
6
CONTINUOUS
10
29.5537878675
20
18.3241926511
0
VERTEX
8
___SYMBOL
62
7
6
CONTINUOUS
10
29.5534863568
20
18.3242506292
0
VERTEX
8
___SYMBOL
62
7
6
CONTINUOUS
10
29.5531830892
20
18.3242987943
0
VERTEX
8
___SYMBOL
62
7
6
CONTINUOUS
10
29.5528783971
20
18.3243371207
0
VERTEX
8
___SYMBOL
62
7
6
CONTINUOUS
10
29.5525726127
20
18.3243655829
0
VERTEX
8
___SYMBOL
62
7
6
CONTINUOUS
10
29.5522660683
20
18.3243841555
0
VERTEX
8
___SYMBOL
62
7
6
CONTINUOUS
10
29.5519590962
20
18.3243928129
0
VERTEX
8
___SYMBOL
62
7
6
CONTINUOUS
10
29.5516520287
20
18.3243915296
0
VERTEX
8
___SYMBOL
62
7
6
CONTINUOUS
10
29.5513451980
20
18.3243802800
0
VERTEX
8
___SYMBOL
62
7
6
CONTINUOUS
10
29.5510389366
20
18.3243590386
0
VERTEX
8
___SYMBOL
62
7
6
CONTINUOUS
10
29.5507335767
20
18.3243277799
0
VERTEX
8
___SYMBOL
62
7
6
CONTINUOUS
10
29.5504294506
20
18.3242864784
0
VERTEX
8
___SYMBOL
62
7
6
CONTINUOUS
10
29.5501268905
20
18.3242351085
0
VERTEX
8
___SYMBOL
62
7
6
CONTINUOUS
10
29.5498262231
20
18.3241736728
0
VERTEX
8
___SYMBOL
62
7
6
CONTINUOUS
10
29.5495277520
20
18.3241022853
0
VERTEX
8
___SYMBOL
62
7
6
CONTINUOUS
10
29.5492317751
20
18.3240210885
0
VERTEX
8
___SYMBOL
62
7
6
CONTINUOUS
10
29.5489385903
20
18.3239302244
0
VERTEX
8
___SYMBOL
62
7
6
CONTINUOUS
10
29.5486484955
20
18.3238298354
0
VERTEX
8
___SYMBOL
62
7
6
CONTINUOUS
10
29.5483617886
20
18.3237200635
0
VERTEX
8
___SYMBOL
62
7
6
CONTINUOUS
10
29.5480787675
20
18.3236010512
0
VERTEX
8
___SYMBOL
62
7
6
CONTINUOUS
10
29.5477997302
20
18.3234729406
0
VERTEX
8
___SYMBOL
62
7
6
CONTINUOUS
10
29.5475249745
20
18.3233358738
0
VERTEX
8
___SYMBOL
62
7
6
CONTINUOUS
10
29.5472547984
20
18.3231899932
0
VERTEX
8
___SYMBOL
62
7
6
CONTINUOUS
10
29.5469894997
20
18.3230354410
0
VERTEX
8
___SYMBOL
62
7
6
CONTINUOUS
10
29.5467293764
20
18.3228723593
0
VERTEX
8
___SYMBOL
62
7
6
CONTINUOUS
10
29.5464747263
20
18.3227008904
0
VERTEX
8
___SYMBOL
62
7
6
CONTINUOUS
10
29.5462258474
20
18.3225211766
0
VERTEX
8
___SYMBOL
62
7
6
CONTINUOUS
10
29.5459830377
20
18.3223333600
0
VERTEX
8
___SYMBOL
62
7
6
CONTINUOUS
10
29.5457465949
20
18.3221375830
0
SEQEND
0
POLYLINE
8
___SYMBOL
62
7
6
CONTINUOUS
66
1
70
0
0
VERTEX
8
___SYMBOL
62
7
6
CONTINUOUS
10
29.4245653746
20
18.3211164108
0
VERTEX
8
___SYMBOL
62
7
6
CONTINUOUS
10
29.4243255378
20
18.3215123012
0
VERTEX
8
___SYMBOL
62
7
6
CONTINUOUS
10
29.4240726904
20
18.3218999978
0
VERTEX
8
___SYMBOL
62
7
6
CONTINUOUS
10
29.4238071866
20
18.3222791502
0
VERTEX
8
___SYMBOL
62
7
6
CONTINUOUS
10
29.4235293804
20
18.3226494085
0
VERTEX
8
___SYMBOL
62
7
6
CONTINUOUS
10
29.4232396259
20
18.3230104225
0
VERTEX
8
___SYMBOL
62
7
6
CONTINUOUS
10
29.4229382771
20
18.3233618419
0
VERTEX
8
___SYMBOL
62
7
6
CONTINUOUS
10
29.4226256881
20
18.3237033167
0
VERTEX
8
___SYMBOL
62
7
6
CONTINUOUS
10
29.4223022130
20
18.3240344968
0
VERTEX
8
___SYMBOL
62
7
6
CONTINUOUS
10
29.4219682060
20
18.3243550318
0
VERTEX
8
___SYMBOL
62
7
6
CONTINUOUS
10
29.4216240209
20
18.3246645718
0
VERTEX
8
___SYMBOL
62
7
6
CONTINUOUS
10
29.4212700120
20
18.3249627665
0
VERTEX
8
___SYMBOL
62
7
6
CONTINUOUS
10
29.4209065332
20
18.3252492658
0
VERTEX
8
___SYMBOL
62
7
6
CONTINUOUS
10
29.4205339388
20
18.3255237195
0
VERTEX
8
___SYMBOL
62
7
6
CONTINUOUS
10
29.4201525827
20
18.3257857776
0
VERTEX
8
___SYMBOL
62
7
6
CONTINUOUS
10
29.4197628190
20
18.3260350898
0
VERTEX
8
___SYMBOL
62
7
6
CONTINUOUS
10
29.4193650018
20
18.3262713059
0
VERTEX
8
___SYMBOL
62
7
6
CONTINUOUS
10
29.4189595072
20
18.3264941129
0
VERTEX
8
___SYMBOL
62
7
6
CONTINUOUS
10
29.4185467993
20
18.3267033458
0
VERTEX
8
___SYMBOL
62
7
6
CONTINUOUS
10
29.4181273643
20
18.3268988765
0
VERTEX
8
___SYMBOL
62
7
6
CONTINUOUS
10
29.4177016883
20
18.3270805770
0
VERTEX
8
___SYMBOL
62
7
6
CONTINUOUS
10
29.4172702574
20
18.3272483195
0
VERTEX
8
___SYMBOL
62
7
6
CONTINUOUS
10
29.4168335577
20
18.3274019758
0
VERTEX
8
___SYMBOL
62
7
6
CONTINUOUS
10
29.4163920755
20
18.3275414180
0
VERTEX
8
___SYMBOL
62
7
6
CONTINUOUS
10
29.4159462969
20
18.3276665182
0
VERTEX
8
___SYMBOL
62
7
6
CONTINUOUS
10
29.4154967079
20
18.3277771482
0
VERTEX
8
___SYMBOL
62
7
6
CONTINUOUS
10
29.4150437948
20
18.3278731802
0
VERTEX
8
___SYMBOL
62
7
6
CONTINUOUS
10
29.4145880436
20
18.3279544860
0
VERTEX
8
___SYMBOL
62
7
6
CONTINUOUS
10
29.4141299406
20
18.3280209379
0
VERTEX
8
___SYMBOL
62
7
6
CONTINUOUS
10
29.4136699718
20
18.3280724077
0
VERTEX
8
___SYMBOL
62
7
6
CONTINUOUS
10
29.4132086234
20
18.3281087674
0
VERTEX
8
___SYMBOL
62
7
6
CONTINUOUS
10
29.4127463816
20
18.3281298892
0
VERTEX
8
___SYMBOL
62
7
6
CONTINUOUS
10
29.4122837324
20
18.3281356449
0
VERTEX
8
___SYMBOL
62
7
6
CONTINUOUS
10
29.4118211611
20
18.3281259497
0
VERTEX
8
___SYMBOL
62
7
6
CONTINUOUS
10
29.4113591493
20
18.3281008908
0
VERTEX
8
___SYMBOL
62
7
6
CONTINUOUS
10
29.4108981775
20
18.3280605988
0
VERTEX
8
___SYMBOL
62
7
6
CONTINUOUS
10
29.4104387264
20
18.3280052039
0
VERTEX
8
___SYMBOL
62
7
6
CONTINUOUS
10
29.4099812765
20
18.3279348367
0
VERTEX
8
___SYMBOL
62
7
6
CONTINUOUS
10
29.4095263085
20
18.3278496274
0
VERTEX
8
___SYMBOL
62
7
6
CONTINUOUS
10
29.4090743031
20
18.3277497065
0
VERTEX
8
___SYMBOL
62
7
6
CONTINUOUS
10
29.4086257407
20
18.3276352043
0
VERTEX
8
___SYMBOL
62
7
6
CONTINUOUS
10
29.4081811021
20
18.3275062514
0
VERTEX
8
___SYMBOL
62
7
6
CONTINUOUS
10
29.4077408679
20
18.3273629780
0
VERTEX
8
___SYMBOL
62
7
6
CONTINUOUS
10
29.4073055186
20
18.3272055146
0
VERTEX
8
___SYMBOL
62
7
6
CONTINUOUS
10
29.4068755349
20
18.3270339915
0
VERTEX
8
___SYMBOL
62
7
6
CONTINUOUS
10
29.4064513974
20
18.3268485392
0
VERTEX
8
___SYMBOL
62
7
6
CONTINUOUS
10
29.4060335867
20
18.3266492881
0
VERTEX
8
___SYMBOL
62
7
6
CONTINUOUS
10
29.4056225834
20
18.3264363685
0
VERTEX
8
___SYMBOL
62
7
6
CONTINUOUS
10
29.4052188681
20
18.3262099109
0
SEQEND
0
LINE
8
___SYMBOL
62
7
6
CONTINUOUS
10
29.5538943148
20
18.2875165046
11
29.5508343148
21
18.2915865046
0
LINE
8
___SYMBOL
62
7
6
CONTINUOUS
10
29.5508343148
20
18.2915865046
11
29.5467643148
21
18.2926065046
0
LINE
8
___SYMBOL
62
7
6
CONTINUOUS
10
29.5467643148
20
18.2926065046
11
29.5365743148
21
18.2926065046
0
POLYLINE
8
___SYMBOL
62
7
6
CONTINUOUS
66
1
70
0
0
VERTEX
8
___SYMBOL
62
7
6
CONTINUOUS
10
29.6088764531
20
18.2905688103
0
VERTEX
8
___SYMBOL
62
7
6
CONTINUOUS
10
29.6090456712
20
18.2904050085
0
VERTEX
8
___SYMBOL
62
7
6
CONTINUOUS
10
29.6092202533
20
18.2902469195
0
VERTEX
8
___SYMBOL
62
7
6
CONTINUOUS
10
29.6093999787
20
18.2900946702
0
VERTEX
8
___SYMBOL
62
7
6
CONTINUOUS
10
29.6095846271
20
18.2899483877
0
VERTEX
8
___SYMBOL
62
7
6
CONTINUOUS
10
29.6097739781
20
18.2898081989
0
VERTEX
8
___SYMBOL
62
7
6
CONTINUOUS
10
29.6099678111
20
18.2896742308
0
VERTEX
8
___SYMBOL
62
7
6
CONTINUOUS
10
29.6101659057
20
18.2895466103
0
VERTEX
8
___SYMBOL
62
7
6
CONTINUOUS
10
29.6103680416
20
18.2894254644
0
VERTEX
8
___SYMBOL
62
7
6
CONTINUOUS
10
29.6105739983
20
18.2893109201
0
VERTEX
8
___SYMBOL
62
7
6
CONTINUOUS
10
29.6107835552
20
18.2892031043
0
VERTEX
8
___SYMBOL
62
7
6
CONTINUOUS
10
29.6109964920
20
18.2891021441
0
VERTEX
8
___SYMBOL
62
7
6
CONTINUOUS
10
29.6112125883
20
18.2890081663
0
VERTEX
8
___SYMBOL
62
7
6
CONTINUOUS
10
29.6114316236
20
18.2889212980
0
VERTEX
8
___SYMBOL
62
7
6
CONTINUOUS
10
29.6116533774
20
18.2888416662
0
VERTEX
8
___SYMBOL
62
7
6
CONTINUOUS
10
29.6118776293
20
18.2887693978
0
VERTEX
8
___SYMBOL
62
7
6
CONTINUOUS
10
29.6121041589
20
18.2887046197
0
VERTEX
8
___SYMBOL
62
7
6
CONTINUOUS
10
29.6123327396
20
18.2886474378
0
VERTEX
8
___SYMBOL
62
7
6
CONTINUOUS
10
29.6125631206
20
18.2885978734
0
VERTEX
8
___SYMBOL
62
7
6
CONTINUOUS
10
29.6127950450
20
18.2885559264
0
VERTEX
8
___SYMBOL
62
7
6
CONTINUOUS
10
29.6130282556
20
18.2885215968
0
VERTEX
8
___SYMBOL
62
7
6
CONTINUOUS
10
29.6132624957
20
18.2884948849
0
VERTEX
8
___SYMBOL
62
7
6
CONTINUOUS
10
29.6134975083
20
18.2884757906
0
VERTEX
8
___SYMBOL
62
7
6
CONTINUOUS
10
29.6137330364
20
18.2884643139
0
VERTEX
8
___SYMBOL
62
7
6
CONTINUOUS
10
29.6139688230
20
18.2884604550
0
VERTEX
8
___SYMBOL
62
7
6
CONTINUOUS
10
29.6142046112
20
18.2884642139
0
VERTEX
8
___SYMBOL
62
7
6
CONTINUOUS
10
29.6144401440
20
18.2884755906
0
VERTEX
8
___SYMBOL
62
7
6
CONTINUOUS
10
29.6146751646
20
18.2884945852
0
VERTEX
8
___SYMBOL
62
7
6
CONTINUOUS
10
29.6149094159
20
18.2885211977
0
VERTEX
8
___SYMBOL
62
7
6
CONTINUOUS
10
29.6151426410
20
18.2885554282
0
VERTEX
8
___SYMBOL
62
7
6
CONTINUOUS
10
29.6153745829
20
18.2885972768
0
VERTEX
8
___SYMBOL
62
7
6
CONTINUOUS
10
29.6156049847
20
18.2886467435
0
VERTEX
8
___SYMBOL
62
7
6
CONTINUOUS
10
29.6158335894
20
18.2887038284
0
VERTEX
8
___SYMBOL
62
7
6
CONTINUOUS
10
29.6160601462
20
18.2887685103
0
VERTEX
8
___SYMBOL
62
7
6
CONTINUOUS
10
29.6162844285
20
18.2888406836
0
VERTEX
8
___SYMBOL
62
7
6
CONTINUOUS
10
29.6165062157
20
18.2889202213
0
VERTEX
8
___SYMBOL
62
7
6
CONTINUOUS
10
29.6167252874
20
18.2890069966
0
VERTEX
8
___SYMBOL
62
7
6
CONTINUOUS
10
29.6169414232
20
18.2891008826
0
VERTEX
8
___SYMBOL
62
7
6
CONTINUOUS
10
29.6171544024
20
18.2892017525
0
VERTEX
8
___SYMBOL
62
7
6
CONTINUOUS
10
29.6173640046
20
18.2893094793
0
VERTEX
8
___SYMBOL
62
7
6
CONTINUOUS
10
29.6175700093
20
18.2894239362
0
VERTEX
8
___SYMBOL
62
7
6
CONTINUOUS
10
29.6177721961
20
18.2895449963
0
VERTEX
8
___SYMBOL
62
7
6
CONTINUOUS
10
29.6179703443
20
18.2896725328
0
VERTEX
8
___SYMBOL
62
7
6
CONTINUOUS
10
29.6181642336
20
18.2898064186
0
VERTEX
8
___SYMBOL
62
7
6
CONTINUOUS
10
29.6183536434
20
18.2899465271
0
VERTEX
8
___SYMBOL
62
7
6
CONTINUOUS
10
29.6185383532
20
18.2900927312
0
VERTEX
8
___SYMBOL
62
7
6
CONTINUOUS
10
29.6187181426
20
18.2902449042
0
VERTEX
8
___SYMBOL
62
7
6
CONTINUOUS
10
29.6188927910
20
18.2904029191
0
VERTEX
8
___SYMBOL
62
7
6
CONTINUOUS
10
29.6190620780
20
18.2905666491
0
SEQEND
0
POLYLINE
8
___SYMBOL
62
7
6
CONTINUOUS
66
1
70
0
0
VERTEX
8
___SYMBOL
62
7
6
CONTINUOUS
10
29.3451359447
20
18.3027875434
0
VERTEX
8
___SYMBOL
62
7
6
CONTINUOUS
10
29.3450801197
20
18.3031363116
0
VERTEX
8
___SYMBOL
62
7
6
CONTINUOUS
10
29.3450127254
20
18.3034830471
0
VERTEX
8
___SYMBOL
62
7
6
CONTINUOUS
10
29.3449339122
20
18.3038273995
0
VERTEX
8
___SYMBOL
62
7
6
CONTINUOUS
10
29.3448438304
20
18.3041690183
0
VERTEX
8
___SYMBOL
62
7
6
CONTINUOUS
10
29.3447426302
20
18.3045075530
0
VERTEX
8
___SYMBOL
62
7
6
CONTINUOUS
10
29.3446304619
20
18.3048426532
0
VERTEX
8
___SYMBOL
62
7
6
CONTINUOUS
10
29.3445074760
20
18.3051739684
0
VERTEX
8
___SYMBOL
62
7
6
CONTINUOUS
10
29.3443738226
20
18.3055011482
0
VERTEX
8
___SYMBOL
62
7
6
CONTINUOUS
10
29.3442296521
20
18.3058238422
0
VERTEX
8
___SYMBOL
62
7
6
CONTINUOUS
10
29.3440751148
20
18.3061416998
0
VERTEX
8
___SYMBOL
62
7
6
CONTINUOUS
10
29.3439103610
20
18.3064543706
0
VERTEX
8
___SYMBOL
62
7
6
CONTINUOUS
10
29.3437355410
20
18.3067615041
0
VERTEX
8
___SYMBOL
62
7
6
CONTINUOUS
10
29.3435508051
20
18.3070627500
0
VERTEX
8
___SYMBOL
62
7
6
CONTINUOUS
10
29.3433563036
20
18.3073577577
0
VERTEX
8
___SYMBOL
62
7
6
CONTINUOUS
10
29.3431521869
20
18.3076461767
0
VERTEX
8
___SYMBOL
62
7
6
CONTINUOUS
10
29.3429386052
20
18.3079276567
0
VERTEX
8
___SYMBOL
62
7
6
CONTINUOUS
10
29.3427157351
20
18.3082018671
0
VERTEX
8
___SYMBOL
62
7
6
CONTINUOUS
10
29.3424838585
20
18.3084685569
0
VERTEX
8
___SYMBOL
62
7
6
CONTINUOUS
10
29.3422432834
20
18.3087274950
0
VERTEX
8
___SYMBOL
62
7
6
CONTINUOUS
10
29.3419943180
20
18.3089784504
0
VERTEX
8
___SYMBOL
62
7
6
CONTINUOUS
10
29.3417372703
20
18.3092211919
0
VERTEX
8
___SYMBOL
62
7
6
CONTINUOUS
10
29.3414724485
20
18.3094554886
0
VERTEX
8
___SYMBOL
62
7
6
CONTINUOUS
10
29.3412001607
20
18.3096811093
0
VERTEX
8
___SYMBOL
62
7
6
CONTINUOUS
10
29.3409207150
20
18.3098978230
0
VERTEX
8
___SYMBOL
62
7
6
CONTINUOUS
10
29.3406344194
20
18.3101053987
0
VERTEX
8
___SYMBOL
62
7
6
CONTINUOUS
10
29.3403415821
20
18.3103036051
0
VERTEX
8
___SYMBOL
62
7
6
CONTINUOUS
10
29.3400425112
20
18.3104922114
0
VERTEX
8
___SYMBOL
62
7
6
CONTINUOUS
10
29.3397375148
20
18.3106709863
0
VERTEX
8
___SYMBOL
62
7
6
CONTINUOUS
10
29.3394269010
20
18.3108396989
0
VERTEX
8
___SYMBOL
62
7
6
CONTINUOUS
10
29.3391109780
20
18.3109981180
0
VERTEX
8
___SYMBOL
62
7
6
CONTINUOUS
10
29.3387900537
20
18.3111460126
0
VERTEX
8
___SYMBOL
62
7
6
CONTINUOUS
10
29.3384644364
20
18.3112831516
0
VERTEX
8
___SYMBOL
62
7
6
CONTINUOUS
10
29.3381344458
20
18.3114093349
0
VERTEX
8
___SYMBOL
62
7
6
CONTINUOUS
10
29.3378004486
20
18.3115244853
0
VERTEX
8
___SYMBOL
62
7
6
CONTINUOUS
10
29.3374628235
20
18.3116285570
0
VERTEX
8
___SYMBOL
62
7
6
CONTINUOUS
10
29.3371219486
20
18.3117215037
0
VERTEX
8
___SYMBOL
62
7
6
CONTINUOUS
10
29.3367782027
20
18.3118032793
0
VERTEX
8
___SYMBOL
62
7
6
CONTINUOUS
10
29.3364319640
20
18.3118738378
0
VERTEX
8
___SYMBOL
62
7
6
CONTINUOUS
10
29.3360836110
20
18.3119331331
0
VERTEX
8
___SYMBOL
62
7
6
CONTINUOUS
10
29.3357335222
20
18.3119811191
0
VERTEX
8
___SYMBOL
62
7
6
CONTINUOUS
10
29.3353820761
20
18.3120177497
0
VERTEX
8
___SYMBOL
62
7
6
CONTINUOUS
10
29.3350296510
20
18.3120429787
0
VERTEX
8
___SYMBOL
62
7
6
CONTINUOUS
10
29.3346766255
20
18.3120567601
0
VERTEX
8
___SYMBOL
62
7
6
CONTINUOUS
10
29.3343233779
20
18.3120590478
0
VERTEX
8
___SYMBOL
62
7
6
CONTINUOUS
10
29.3339702869
20
18.3120497957
0
VERTEX
8
___SYMBOL
62
7
6
CONTINUOUS
10
29.3336177307
20
18.3120289577
0
VERTEX
8
___SYMBOL
62
7
6
CONTINUOUS
10
29.3332660878
20
18.3119964877
0
VERTEX
8
___SYMBOL
62
7
6
CONTINUOUS
10
29.3329157368
20
18.3119523396
0
SEQEND
0
POLYLINE
8
___SYMBOL
62
7
6
CONTINUOUS
66
1
70
0
0
VERTEX
8
___SYMBOL
62
7
6
CONTINUOUS
10
29.4652985860
20
18.3190751614
0
VERTEX
8
___SYMBOL
62
7
6
CONTINUOUS
10
29.4652462309
20
18.3192243461
0
VERTEX
8
___SYMBOL
62
7
6
CONTINUOUS
10
29.4651889521
20
18.3193717059
0
VERTEX
8
___SYMBOL
62
7
6
CONTINUOUS
10
29.4651268433
20
18.3195170989
0
VERTEX
8
___SYMBOL
62
7
6
CONTINUOUS
10
29.4650599984
20
18.3196603831
0
VERTEX
8
___SYMBOL
62
7
6
CONTINUOUS
10
29.4649885110
20
18.3198014166
0
VERTEX
8
___SYMBOL
62
7
6
CONTINUOUS
10
29.4649124750
20
18.3199400574
0
VERTEX
8
___SYMBOL
62
7
6
CONTINUOUS
10
29.4648319840
20
18.3200761637
0
VERTEX
8
___SYMBOL
62
7
6
CONTINUOUS
10
29.4647471318
20
18.3202095934
0
VERTEX
8
___SYMBOL
62
7
6
CONTINUOUS
10
29.4646580123
20
18.3203402047
0
VERTEX
8
___SYMBOL
62
7
6
CONTINUOUS
10
29.4645647191
20
18.3204678556
0
VERTEX
8
___SYMBOL
62
7
6
CONTINUOUS
10
29.4644673459
20
18.3205924042
0
VERTEX
8
___SYMBOL
62
7
6
CONTINUOUS
10
29.4643659867
20
18.3207137086
0
VERTEX
8
___SYMBOL
62
7
6
CONTINUOUS
10
29.4642607350
20
18.3208316268
0
VERTEX
8
___SYMBOL
62
7
6
CONTINUOUS
10
29.4641516847
20
18.3209460168
0
VERTEX
8
___SYMBOL
62
7
6
CONTINUOUS
10
29.4640389294
20
18.3210567369
0
VERTEX
8
___SYMBOL
62
7
6
CONTINUOUS
10
29.4639225631
20
18.3211636449
0
VERTEX
8
___SYMBOL
62
7
6
CONTINUOUS
10
29.4638026893
20
18.3212666099
0
VERTEX
8
___SYMBOL
62
7
6
CONTINUOUS
10
29.4636794517
20
18.3213655440
0
VERTEX
8
___SYMBOL
62
7
6
CONTINUOUS
10
29.4635530037
20
18.3214603703
0
VERTEX
8
___SYMBOL
62
7
6
CONTINUOUS
10
29.4634234987
20
18.3215510119
0
VERTEX
8
___SYMBOL
62
7
6
CONTINUOUS
10
29.4632910904
20
18.3216373918
0
VERTEX
8
___SYMBOL
62
7
6
CONTINUOUS
10
29.4631559322
20
18.3217194331
0
VERTEX
8
___SYMBOL
62
7
6
CONTINUOUS
10
29.4630181776
20
18.3217970588
0
VERTEX
8
___SYMBOL
62
7
6
CONTINUOUS
10
29.4628779801
20
18.3218701920
0
VERTEX
8
___SYMBOL
62
7
6
CONTINUOUS
10
29.4627354932
20
18.3219387558
0
VERTEX
8
___SYMBOL
62
7
6
CONTINUOUS
10
29.4625908704
20
18.3220026732
0
VERTEX
8
___SYMBOL
62
7
6
CONTINUOUS
10
29.4624442651
20
18.3220618673
0
VERTEX
8
___SYMBOL
62
7
6
CONTINUOUS
10
29.4622958310
20
18.3221162611
0
VERTEX
8
___SYMBOL
62
7
6
CONTINUOUS
10
29.4621457214
20
18.3221657777
0
VERTEX
8
___SYMBOL
62
7
6
CONTINUOUS
10
29.4619940899
20
18.3222103402
0
VERTEX
8
___SYMBOL
62
7
6
CONTINUOUS
10
29.4618410900
20
18.3222498715
0
VERTEX
8
___SYMBOL
62
7
6
CONTINUOUS
10
29.4616868752
20
18.3222842949
0
VERTEX
8
___SYMBOL
62
7
6
CONTINUOUS
10
29.4615316016
20
18.3223135477
0
VERTEX
8
___SYMBOL
62
7
6
CONTINUOUS
10
29.4613754364
20
18.3223376254
0
VERTEX
8
___SYMBOL
62
7
6
CONTINUOUS
10
29.4612185494
20
18.3223565378
0
VERTEX
8
___SYMBOL
62
7
6
CONTINUOUS
10
29.4610611103
20
18.3223702947
0
VERTEX
8
___SYMBOL
62
7
6
CONTINUOUS
10
29.4609032889
20
18.3223789060
0
VERTEX
8
___SYMBOL
62
7
6
CONTINUOUS
10
29.4607452551
20
18.3223823814
0
VERTEX
8
___SYMBOL
62
7
6
CONTINUOUS
10
29.4605871786
20
18.3223807309
0
VERTEX
8
___SYMBOL
62
7
6
CONTINUOUS
10
29.4604292292
20
18.3223739642
0
VERTEX
8
___SYMBOL
62
7
6
CONTINUOUS
10
29.4602715767
20
18.3223620911
0
VERTEX
8
___SYMBOL
62
7
6
CONTINUOUS
10
29.4601143909
20
18.3223451216
0
VERTEX
8
___SYMBOL
62
7
6
CONTINUOUS
10
29.4599578416
20
18.3223230653
0
VERTEX
8
___SYMBOL
62
7
6
CONTINUOUS
10
29.4598020985
20
18.3222959323
0
VERTEX
8
___SYMBOL
62
7
6
CONTINUOUS
10
29.4596473315
20
18.3222637322
0
VERTEX
8
___SYMBOL
62
7
6
CONTINUOUS
10
29.4594937104
20
18.3222264749
0
VERTEX
8
___SYMBOL
62
7
6
CONTINUOUS
10
29.4593414050
20
18.3221841703
0
VERTEX
8
___SYMBOL
62
7
6
CONTINUOUS
10
29.4591905849
20
18.3221368281
0
SEQEND
0
POLYLINE
8
___SYMBOL
62
7
6
CONTINUOUS
66
1
70
0
0
VERTEX
8
___SYMBOL
62
7
6
CONTINUOUS
10
29.7707904622
20
18.3180612370
0
VERTEX
8
___SYMBOL
62
7
6
CONTINUOUS
10
29.7708706730
20
18.3182458067
0
VERTEX
8
___SYMBOL
62
7
6
CONTINUOUS
10
29.7709447078
20
18.3184329352
0
VERTEX
8
___SYMBOL
62
7
6
CONTINUOUS
10
29.7710125314
20
18.3186224091
0
VERTEX
8
___SYMBOL
62
7
6
CONTINUOUS
10
29.7710741085
20
18.3188140146
0
VERTEX
8
___SYMBOL
62
7
6
CONTINUOUS
10
29.7711294038
20
18.3190075383
0
VERTEX
8
___SYMBOL
62
7
6
CONTINUOUS
10
29.7711783820
20
18.3192027666
0
VERTEX
8
___SYMBOL
62
7
6
CONTINUOUS
10
29.7712210079
20
18.3193994858
0
VERTEX
8
___SYMBOL
62
7
6
CONTINUOUS
10
29.7712572463
20
18.3195974824
0
VERTEX
8
___SYMBOL
62
7
6
CONTINUOUS
10
29.7712870617
20
18.3197965429
0
VERTEX
8
___SYMBOL
62
7
6
CONTINUOUS
10
29.7713104190
20
18.3199964537
0
VERTEX
8
___SYMBOL
62
7
6
CONTINUOUS
10
29.7713272828
20
18.3201970011
0
VERTEX
8
___SYMBOL
62
7
6
CONTINUOUS
10
29.7713376180
20
18.3203979717
0
VERTEX
8
___SYMBOL
62
7
6
CONTINUOUS
10
29.7713413892
20
18.3205991517
0
VERTEX
8
___SYMBOL
62
7
6
CONTINUOUS
10
29.7713385611
20
18.3208003278
0
VERTEX
8
___SYMBOL
62
7
6
CONTINUOUS
10
29.7713290985
20
18.3210012863
0
VERTEX
8
___SYMBOL
62
7
6
CONTINUOUS
10
29.7713129662
20
18.3212018135
0
VERTEX
8
___SYMBOL
62
7
6
CONTINUOUS
10
29.7712901474
20
18.3214016975
0
VERTEX
8
___SYMBOL
62
7
6
CONTINUOUS
10
29.7712607002
20
18.3216007321
0
VERTEX
8
___SYMBOL
62
7
6
CONTINUOUS
10
29.7712247014
20
18.3217987127
0
VERTEX
8
___SYMBOL
62
7
6
CONTINUOUS
10
29.7711822276
20
18.3219954345
0
VERTEX
8
___SYMBOL
62
7
6
CONTINUOUS
10
29.7711333556
20
18.3221906930
0
VERTEX
8
___SYMBOL
62
7
6
CONTINUOUS
10
29.7710781620
20
18.3223842836
0
VERTEX
8
___SYMBOL
62
7
6
CONTINUOUS
10
29.7710167236
20
18.3225760015
0
VERTEX
8
___SYMBOL
62
7
6
CONTINUOUS
10
29.7709491170
20
18.3227656421
0
VERTEX
8
___SYMBOL
62
7
6
CONTINUOUS
10
29.7708754190
20
18.3229530008
0
VERTEX
8
___SYMBOL
62
7
6
CONTINUOUS
10
29.7707957062
20
18.3231378730
0
VERTEX
8
___SYMBOL
62
7
6
CONTINUOUS
10
29.7707100554
20
18.3233200539
0
VERTEX
8
___SYMBOL
62
7
6
CONTINUOUS
10
29.7706185433
20
18.3234993390
0
VERTEX
8
___SYMBOL
62
7
6
CONTINUOUS
10
29.7705212466
20
18.3236755236
0
VERTEX
8
___SYMBOL
62
7
6
CONTINUOUS
10
29.7704182419
20
18.3238484030
0
VERTEX
8
___SYMBOL
62
7
6
CONTINUOUS
10
29.7703096061
20
18.3240177726
0
VERTEX
8
___SYMBOL
62
7
6
CONTINUOUS
10
29.7701954157
20
18.3241834278
0
VERTEX
8
___SYMBOL
62
7
6
CONTINUOUS
10
29.7700757626
20
18.3243451751
0
VERTEX
8
___SYMBOL
62
7
6
CONTINUOUS
10
29.7699507986
20
18.3245028655
0
VERTEX
8
___SYMBOL
62
7
6
CONTINUOUS
10
29.7698206908
20
18.3246563611
0
VERTEX
8
___SYMBOL
62
7
6
CONTINUOUS
10
29.7696856061
20
18.3248055243
0
VERTEX
8
___SYMBOL
62
7
6
CONTINUOUS
10
29.7695457115
20
18.3249502171
0
VERTEX
8
___SYMBOL
62
7
6
CONTINUOUS
10
29.7694011739
20
18.3250903019
0
VERTEX
8
___SYMBOL
62
7
6
CONTINUOUS
10
29.7692521605
20
18.3252256406
0
VERTEX
8
___SYMBOL
62
7
6
CONTINUOUS
10
29.7690988380
20
18.3253560957
0
VERTEX
8
___SYMBOL
62
7
6
CONTINUOUS
10
29.7689413736
20
18.3254815292
0
VERTEX
8
___SYMBOL
62
7
6
CONTINUOUS
10
29.7687799342
20
18.3256018033
0
VERTEX
8
___SYMBOL
62
7
6
CONTINUOUS
10
29.7686146867
20
18.3257167803
0
VERTEX
8
___SYMBOL
62
7
6
CONTINUOUS
10
29.7684457982
20
18.3258263222
0
VERTEX
8
___SYMBOL
62
7
6
CONTINUOUS
10
29.7682734356
20
18.3259302914
0
VERTEX
8
___SYMBOL
62
7
6
CONTINUOUS
10
29.7680977659
20
18.3260285500
0
VERTEX
8
___SYMBOL
62
7
6
CONTINUOUS
10
29.7679189561
20
18.3261209602
0
VERTEX
8
___SYMBOL
62
7
6
CONTINUOUS
10
29.7677371731
20
18.3262073842
0
SEQEND
0
LINE
8
___SYMBOL
62
7
6
CONTINUOUS
10
29.7728243148
20
18.2966765046
11
29.7575543148
21
18.2987165046
0
LINE
8
___SYMBOL
62
7
6
CONTINUOUS
10
29.7575543148
20
18.2987165046
11
29.7514443148
21
18.3007465046
0
LINE
8
___SYMBOL
62
7
6
CONTINUOUS
10
29.7514443148
20
18.3007465046
11
29.7443143148
21
18.3007465046
0
POLYLINE
8
___SYMBOL
62
7
6
CONTINUOUS
66
1
70
0
0
VERTEX
8
___SYMBOL
62
7
6
CONTINUOUS
10
29.8705843148
20
18.7504165046
0
VERTEX
8
___SYMBOL
62
7
6
CONTINUOUS
10
29.8706531520
20
18.7521861634
0
VERTEX
8
___SYMBOL
62
7
6
CONTINUOUS
10
29.8706543402
20
18.7539566705
0
VERTEX
8
___SYMBOL
62
7
6
CONTINUOUS
10
29.8705883201
20
18.7557263775
0
VERTEX
8
___SYMBOL
62
7
6
CONTINUOUS
10
29.8704555325
20
18.7574936358
0
VERTEX
8
___SYMBOL
62
7
6
CONTINUOUS
10
29.8702564181
20
18.7592567969
0
VERTEX
8
___SYMBOL
62
7
6
CONTINUOUS
10
29.8699914176
20
18.7610142123
0
VERTEX
8
___SYMBOL
62
7
6
CONTINUOUS
10
29.8696609718
20
18.7627642334
0
VERTEX
8
___SYMBOL
62
7
6
CONTINUOUS
10
29.8692655214
20
18.7645052116
0
VERTEX
8
___SYMBOL
62
7
6
CONTINUOUS
10
29.8688055072
20
18.7662354986
0
VERTEX
8
___SYMBOL
62
7
6
CONTINUOUS
10
29.8682813699
20
18.7679534457
0
VERTEX
8
___SYMBOL
62
7
6
CONTINUOUS
10
29.8676935502
20
18.7696574043
0
VERTEX
8
___SYMBOL
62
7
6
CONTINUOUS
10
29.8670424888
20
18.7713457261
0
VERTEX
8
___SYMBOL
62
7
6
CONTINUOUS
10
29.8663286266
20
18.7730167624
0
VERTEX
8
___SYMBOL
62
7
6
CONTINUOUS
10
29.8655524042
20
18.7746688646
0
VERTEX
8
___SYMBOL
62
7
6
CONTINUOUS
10
29.8647142624
20
18.7763003844
0
VERTEX
8
___SYMBOL
62
7
6
CONTINUOUS
10
29.8638146420
20
18.7779096731
0
VERTEX
8
___SYMBOL
62
7
6
CONTINUOUS
10
29.8628539835
20
18.7794950822
0
VERTEX
8
___SYMBOL
62
7
6
CONTINUOUS
10
29.8618328878
20
18.7810550278
0
VERTEX
8
___SYMBOL
62
7
6
CONTINUOUS
10
29.8607525949
20
18.7825881849
0
VERTEX
8
___SYMBOL
62
7
6
CONTINUOUS
10
29.8596145049
20
18.7840932930
0
VERTEX
8
___SYMBOL
62
7
6
CONTINUOUS
10
29.8584200178
20
18.7855690916
0
VERTEX
8
___SYMBOL
62
7
6
CONTINUOUS
10
29.8571705337
20
18.7870143202
0
VERTEX
8
___SYMBOL
62
7
6
CONTINUOUS
10
29.8558674527
20
18.7884277185
0
VERTEX
8
___SYMBOL
62
7
6
CONTINUOUS
10
29.8545121748
20
18.7898080260
0
VERTEX
8
___SYMBOL
62
7
6
CONTINUOUS
10
29.8531060999
20
18.7911539823
0
VERTEX
8
___SYMBOL
62
7
6
CONTINUOUS
10
29.8516506283
20
18.7924643268
0
VERTEX
8
___SYMBOL
62
7
6
CONTINUOUS
10
29.8501471599
20
18.7937377991
0
VERTEX
8
___SYMBOL
62
7
6
CONTINUOUS
10
29.8485970948
20
18.7949731389
0
VERTEX
8
___SYMBOL
62
7
6
CONTINUOUS
10
29.8470018331
20
18.7961690856
0
VERTEX
8
___SYMBOL
62
7
6
CONTINUOUS
10
29.8453627747
20
18.7973243788
0
VERTEX
8
___SYMBOL
62
7
6
CONTINUOUS
10
29.8436813197
20
18.7984377580
0
VERTEX
8
___SYMBOL
62
7
6
CONTINUOUS
10
29.8419588683
20
18.7995079628
0
VERTEX
8
___SYMBOL
62
7
6
CONTINUOUS
10
29.8401968203
20
18.8005337328
0
VERTEX
8
___SYMBOL
62
7
6
CONTINUOUS
10
29.8383965760
20
18.8015138075
0
VERTEX
8
___SYMBOL
62
7
6
CONTINUOUS
10
29.8364407066
20
18.8025052410
0
VERTEX
8
___SYMBOL
62
7
6
CONTINUOUS
10
29.8344455390
20
18.8034428868
0
VERTEX
8
___SYMBOL
62
7
6
CONTINUOUS
10
29.8324134383
20
18.8043261238
0
VERTEX
8
___SYMBOL
62
7
6
CONTINUOUS
10
29.8303467695
20
18.8051543307
0
VERTEX
8
___SYMBOL
62
7
6
CONTINUOUS
10
29.8282478980
20
18.8059268863
0
VERTEX
8
___SYMBOL
62
7
6
CONTINUOUS
10
29.8261191887
20
18.8066431696
0
VERTEX
8
___SYMBOL
62
7
6
CONTINUOUS
10
29.8239630068
20
18.8073025592
0
VERTEX
8
___SYMBOL
62
7
6
CONTINUOUS
10
29.8217817175
20
18.8079044341
0
VERTEX
8
___SYMBOL
62
7
6
CONTINUOUS
10
29.8195776858
20
18.8084481731
0
VERTEX
8
___SYMBOL
62
7
6
CONTINUOUS
10
29.8173532770
20
18.8089331550
0
VERTEX
8
___SYMBOL
62
7
6
CONTINUOUS
10
29.8151108562
20
18.8093587586
0
VERTEX
8
___SYMBOL
62
7
6
CONTINUOUS
10
29.8128527884
20
18.8097243628
0
VERTEX
8
___SYMBOL
62
7
6
CONTINUOUS
10
29.8105814389
20
18.8100293463
0
VERTEX
8
___SYMBOL
62
7
6
CONTINUOUS
10
29.8082991727
20
18.8102730880
0
VERTEX
8
___SYMBOL
62
7
6
CONTINUOUS
10
29.8065655305
20
18.8104165046
0
SEQEND
0
LINE
8
___SYMBOL
62
7
6
CONTINUOUS
10
29.0900543148
20
18.3435165046
11
28.1569743148
21
18.3435165046
0
LINE
8
___SYMBOL
62
7
6
CONTINUOUS
10
28.1569743148
20
18.3435165046
11
28.1327343148
21
18.4518665046
0
LINE
8
___SYMBOL
62
7
6
CONTINUOUS
10
28.1327343148
20
18.4518665046
11
28.1854843148
21
18.5088965046
0
LINE
8
___SYMBOL
62
7
6
CONTINUOUS
10
28.1854843148
20
18.5088965046
11
28.1569743148
21
18.6257965046
0
LINE
8
___SYMBOL
62
7
6
CONTINUOUS
10
28.1569743148
20
18.6257965046
11
28.2296743148
21
18.6714165046
0
LINE
8
___SYMBOL
62
7
6
CONTINUOUS
10
28.2296743148
20
18.6714165046
11
28.2325243148
21
18.7640865046
0
LINE
8
___SYMBOL
62
7
6
CONTINUOUS
10
28.2325243148
20
18.7640865046
11
28.3237743148
21
18.8104165046
0
LINE
8
___SYMBOL
62
7
6
CONTINUOUS
10
28.3237743148
20
18.8104165046
11
29.8065655305
21
18.8104165046
0
LINE
8
___SYMBOL
62
7
6
CONTINUOUS
10
29.1805743148
20
18.3435165046
11
29.8705843148
21
18.3435165046
0
LINE
8
___SYMBOL
62
7
6
CONTINUOUS
10
29.8705843148
20
18.3435165046
11
29.8705843148
21
18.7504165046
0
LINE
8
___SYMBOL
62
2
6
CONTINUOUS
10
29.8149843148
20
18.3435165046
11
29.8705843148
21
18.3934165046
0
LINE
8
___SYMBOL
62
2
6
CONTINUOUS
10
29.6275283734
20
18.3435165046
11
29.8705843148
21
18.5616465046
0
LINE
8
___SYMBOL
62
2
6
CONTINUOUS
10
29.5195063148
20
18.3435165046
11
29.8705843148
21
18.6585865046
0
LINE
8
___SYMBOL
62
2
6
CONTINUOUS
10
29.4194326012
20
18.3435165046
11
29.8705843148
21
18.7483965046
0
LINE
8
___SYMBOL
62
2
6
CONTINUOUS
10
29.3097344966
20
18.3435165046
11
29.8340915118
21
18.8036018484
0
LINE
8
___SYMBOL
62
2
6
CONTINUOUS
10
29.2326143148
20
18.3767665046
11
29.7158294645
21
18.8104165046
0
LINE
8
___SYMBOL
62
2
6
CONTINUOUS
10
29.2326143148
20
18.4835465046
11
29.5968446296
21
18.8104165046
0
LINE
8
___SYMBOL
62
2
6
CONTINUOUS
10
29.2326143148
20
18.5837365046
11
29.4851963228
21
18.8104165046
0
LINE
8
___SYMBOL
62
2
6
CONTINUOUS
10
28.7458323152
20
18.3435165046
11
29.0330243148
21
18.6012517762
0
LINE
8
___SYMBOL
62
2
6
CONTINUOUS
10
28.6341897748
20
18.3435165046
11
29.1544463179
21
18.8104165046
0
LINE
8
___SYMBOL
62
2
6
CONTINUOUS
10
28.5258440219
20
18.3435165046
11
29.0461051805
21
18.8104165046
0
LINE
8
___SYMBOL
62
2
6
CONTINUOUS
10
29.1466443148
20
18.6038265046
11
29.3768425922
21
18.8104165046
0
LINE
8
___SYMBOL
62
2
6
CONTINUOUS
10
28.9649291409
20
18.3435165046
11
29.0330243148
21
18.4046265046
0
LINE
8
___SYMBOL
62
2
6
CONTINUOUS
10
28.4165123152
20
18.3435165046
11
28.9367746130
21
18.8104165046
0
LINE
8
___SYMBOL
62
2
6
CONTINUOUS
10
28.3048533824
20
18.3435165046
11
28.8255943148
21
18.8108365046
0
LINE
8
___SYMBOL
62
2
6
CONTINUOUS
10
28.1965140219
20
18.3435165046
11
28.7167751805
21
18.8104165046
0
LINE
8
___SYMBOL
62
2
6
CONTINUOUS
10
28.1443512384
20
18.3999401980
11
28.6017446347
21
18.8104165046
0
LINE
8
___SYMBOL
62
2
6
CONTINUOUS
10
28.1798515761
20
18.5319925117
11
28.4900963135
21
18.8104165046
0
LINE
8
___SYMBOL
62
2
6
CONTINUOUS
10
28.2297540153
20
18.6740080292
11
28.3817552528
21
18.8104165046
0
LINE
8
___SYMBOL
62
2
6
CONTINUOUS
10
29.3787443148
20
18.2365965046
11
29.4250743148
21
18.2793665046
0
LINE
8
___SYMBOL
62
2
6
CONTINUOUS
10
29.4333943148
20
18.2365965046
11
29.4797243148
21
18.2793665046
0
LINE
8
___SYMBOL
62
2
6
CONTINUOUS
10
29.5011043148
20
18.2365965046
11
29.5474443148
21
18.2793665046
0
LINE
8
___SYMBOL
62
2
6
CONTINUOUS
10
29.5605143148
20
18.2365965046
11
29.6068443148
21
18.2793665046
0
LINE
8
___SYMBOL
62
2
6
CONTINUOUS
10
29.6187243148
20
18.2365965046
11
29.6650543148
21
18.2793665046
0
LINE
8
___SYMBOL
62
2
6
CONTINUOUS
10
29.6757443148
20
18.2365965046
11
29.7220843148
21
18.2793665046
0
LINE
8
___SYMBOL
62
2
6
CONTINUOUS
10
29.7399043148
20
18.2365965046
11
29.7832343650
21
18.2765934740
0
LINE
8
___SYMBOL
62
2
6
CONTINUOUS
10
29.8264060467
20
18.1907845484
11
29.8579337096
21
18.2198965545
0
LINE
8
___SYMBOL
62
2
6
CONTINUOUS
10
29.8349443148
20
18.1259278796
11
29.8753343148
21
18.1632165046
0
LINE
8
___SYMBOL
62
2
6
CONTINUOUS
10
29.8349443148
20
18.0638765046
11
29.8753343148
21
18.1011565046
0
LINE
8
___SYMBOL
62
2
6
CONTINUOUS
10
29.8349443148
20
17.9937865046
11
29.8753343148
21
18.0310665046
0
LINE
8
___SYMBOL
62
2
6
CONTINUOUS
10
29.8349443148
20
17.9236865046
11
29.8753343148
21
17.9609765046
0
LINE
8
___SYMBOL
62
2
6
CONTINUOUS
10
29.8349443148
20
17.8476565046
11
29.8753343148
21
17.8849365046
0
LINE
8
___SYMBOL
62
2
6
CONTINUOUS
10
29.8349443148
20
17.7823165046
11
29.8753343148
21
17.8195965046
0
LINE
8
___SYMBOL
62
2
6
CONTINUOUS
10
29.8349443148
20
17.7157865046
11
29.8753343148
21
17.7530665046
0
LINE
8
___SYMBOL
62
2
6
CONTINUOUS
10
29.8349443148
20
17.6385665046
11
29.8753343148
21
17.6758465046
0
LINE
8
___SYMBOL
62
2
6
CONTINUOUS
10
29.8349443148
20
17.5696565046
11
29.8753343148
21
17.6069365046
0
LINE
8
___SYMBOL
62
2
6
CONTINUOUS
10
29.8349443148
20
17.4995665046
11
29.8753343148
21
17.5368465046
0
LINE
8
___SYMBOL
62
2
6
CONTINUOUS
10
29.8349443148
20
17.4413534277
11
29.8753343148
21
17.4786365046
0
LINE
8
___SYMBOL
62
7
6
CONTINUOUS
10
29.0900543148
20
18.0916565046
11
29.1805743148
21
18.0916565046
0
LINE
8
___SYMBOL
62
2
6
CONTINUOUS
10
28.8567531566
20
18.3435165046
11
29.0330243148
21
18.5017065046
0
LINE
8
___SYMBOL
62
2
6
CONTINUOUS
10
29.0357484528
20
18.6036965046
11
29.2660946130
21
18.8104165046
0
LINE
8
___SYMBOL
62
7
6
CONTINUOUS
10
29.0330243148
20
18.6036965046
11
29.0330243148
21
18.3435165046
0
ENDBLK
8
0
6
BYBLOCK
62
0
0
BLOCK
8
0
2
_FILLED
70
64
10
0.0000000000
20
0.0000000000
0
SOLID
8
0
6
BYBLOCK
62
0
10
0.0000000000
20
0.0000000000
11
-1.0000000000
21
0.1666666667
12
-1.0000000000
22
-0.1666666667
13
-1.0000000000
23
-0.1666666667
0
ENDBLK
8
0
6
BYBLOCK
62
0
0
ENDSEC
0
SECTION
2
ENTITIES
0
DIMENSION
8
0
62
2
6
CONTINUOUS
2
*D0
10
19.1657431669
20
24.8724260002
11
19.2907431669
21
15.1191608755
70
128
13
19.6629733878
23
8.6347452661
14
21.9182042620
24
24.8724260002
50
90.000000
0
DIMENSION
8
0
62
2
6
CONTINUOUS
2
*D1
10
38.1408987869
20
16.1024677103
11
17.8951643265
21
15.9852802103
70
128
13
5.8205097370
23
14.9706530115
14
38.1408987869
24
14.9706530115
0
DIMENSION
8
0
62
2
6
CONTINUOUS
2
*D2
10
24.9950924082
20
25.1224292915
11
25.1200924082
21
17.4062335286
70
128
13
25.6481488980
23
8.3847452661
14
22.0432042620
24
25.1224292915
50
90.000000
0
DIMENSION
8
0
62
2
6
CONTINUOUS
2
*D3
10
38.3908987747
20
16.5838336327
11
26.2702153469
21
16.4666461327
70
128
13
5.5705097492
23
14.9706484349
14
38.3908987747
24
14.9706484349
0
TEXT
8
___NOTE
62
2
6
CONTINUOUS
10
14.3577380464
20
18.3789080769
7
STANDARD
40
0.0940000000
1
TM
41
1.0000000000
72
0
0
TEXT
8
___NOTE
62
2
6
CONTINUOUS
10
30.9031651711
20
21.8745242801
7
STANDARD
40
0.1562500000
1
RIM OF SINK
41
0.8000000000
72
0
0
TEXT
8
___NOTE
62
2
6
CONTINUOUS
10
29.7781651711
20
21.6401492801
7
STANDARD
40
0.1562500000
1
REBORDE DE FREGADERO
41
0.8000000000
72
0
0
TEXT
8
___NOTE
62
2
6
CONTINUOUS
10
30.5281651711
20
21.4057742801
7
STANDARD
40
0.1562500000
1
REBORD D'ÉVIER
41
0.8000000000
72
0
0
LINE
8
___NOTE
62
2
6
CONTINUOUS
10
37.2312303059
20
20.6942177085
11
32.5281651711
21
21.9526492801
0
LINE
8
___NOTE
62
2
6
CONTINUOUS
10
32.5281651711
20
21.9526492801
11
32.2781651711
21
21.9526492801
0
SOLID
8
___NOTE
62
2
6
CONTINUOUS
10
37.0420247574
20
20.7124953705
11
37.2312303059
21
20.6942177085
12
37.0581799747
22
20.7728713504
13
37.0581799747
23
20.7728713504
0
TEXT
8
___NOTE
62
2
6
CONTINUOUS
10
30.6127768060
20
20.2930261478
7
STANDARD
40
0.1562500000
1
CUT OUT LINE FOR A REVEAL
41
0.8320000000
72
0
0
TEXT
8
___NOTE
62
2
6
CONTINUOUS
10
30.3627768060
20
20.0586511478
7
STANDARD
40
0.1562500000
1
LÍNEA DE CORTE CON BATIENTE
41
0.8296296296
72
0
0
TEXT
8
___NOTE
62
2
6
CONTINUOUS
10
29.8627768060
20
19.8242761478
7
STANDARD
40
0.1562500000
1
LINGE DE COUPE AVEC EBRASEMENTS
41
0.8258064516
72
0
0
LINE
8
___NOTE
62
2
6
CONTINUOUS
10
36.9158551650
20
19.6462948359
11
34.1127768060
21
20.3711511478
0
LINE
8
___NOTE
62
2
6
CONTINUOUS
10
34.1127768060
20
20.3711511478
11
33.8627768060
21
20.3711511478
0
SOLID
8
___NOTE
62
2
6
CONTINUOUS
10
36.7265027220
20
19.6629821013
11
36.9158551650
21
19.6462948359
12
36.7421500753
22
19.7234916901
13
36.7421500753
23
19.7234916901
0
TEXT
8
___NOTE
62
2
6
CONTINUOUS
10
30.6122500465
20
18.6392898683
7
STANDARD
40
0.1562500000
1
CUT OUT LINE FOR NO REVEAL
41
0.8307692308
72
0
0
TEXT
8
___NOTE
62
2
6
CONTINUOUS
10
30.4872500465
20
18.4049148683
7
STANDARD
40
0.1562500000
1
LÍNEA DE CORTE SIN BATIENTE
41
0.8296296296
72
0
0
TEXT
8
___NOTE
62
2
6
CONTINUOUS
10
29.9872500465
20
18.1705398683
7
STANDARD
40
0.1562500000
1
LINGE DE COUPE SANS ÉBRASEMENTS
41
0.8258064516
72
0
0
LINE
8
___NOTE
62
2
6
CONTINUOUS
10
37.6064178332
20
17.8361673442
11
34.2372500465
21
18.7174148683
0
LINE
8
___NOTE
62
2
6
CONTINUOUS
10
34.2372500465
20
18.7174148683
11
33.9872500465
21
18.7174148683
0
SOLID
8
___NOTE
62
2
6
CONTINUOUS
10
37.4171125346
20
17.8533811887
11
37.6064178332
21
17.8361673442
12
37.4329281220
22
17.9138470236
13
37.4329281220
23
17.9138470236
0
TEXT
8
0
62
2
6
CONTINUOUS
10
2.9575951591
20
25.5680015753
7
STANDARD
40
0.1562500000
1
1-3/8 DIAMETER - OPTIONAL FITTING HOLE
41
0.8000000000
72
0
0
TEXT
8
0
62
2
6
CONTINUOUS
10
4.0825951591
20
25.3336265753
7
STANDARD
40
0.1562500000
1
(TO BE DRILLED IN COUNTERTOP)
41
0.8000000000
72
0
0
TEXT
8
0
62
2
6
CONTINUOUS
10
1.7075951591
20
25.0992515753
7
STANDARD
40
0.1562500000
1
3,5 cm DIÁMETRO - ORIFICIO DEL CONECTOR OPCIONAL
41
0.8000000000
72
0
0
TEXT
8
0
62
2
6
CONTINUOUS
10
3.4575951591
20
24.8648765753
7
STANDARD
40
0.1562500000
1
(A SER PERFORADOS EN EL MOSTRADOR)
41
0.8000000000
72
0
0
TEXT
8
0
62
2
6
CONTINUOUS
10
1.9575951591
20
24.6305015753
7
STANDARD
40
0.1562500000
1
3,5 cm DIAMÈTRE - ORIFICE DU RACCORD OPTIONNEL
41
0.8000000000
72
0
0
TEXT
8
0
62
2
6
CONTINUOUS
10
4.4575951591
20
24.3961265753
7
STANDARD
40
0.1562500000
1
(À PERCER SUR LE COMPTOIR)
41
0.8000000000
72
0
0
LINE
8
0
62
2
6
CONTINUOUS
10
8.7467042620
20
24.7526126222
11
8.3089479452
21
25.6461265753
0
LINE
8
0
62
2
6
CONTINUOUS
10
8.3089479452
20
25.6461265753
11
7.7075951591
21
25.6461265753
0
SOLID
8
0
62
2
6
CONTINUOUS
10
8.6361483496
20
24.9072418650
11
8.7467042620
21
24.7526126222
12
8.6922743695
22
24.9347394991
13
8.6922743695
23
24.9347394991
0
TEXT
8
0
62
2
6
CONTINUOUS
10
36.2953280438
20
25.5622758620
7
STANDARD
40
0.1562500000
1
1-3/8 DIAMETER - OPTIONAL FITTING HOLE
41
0.8000000000
72
0
0
TEXT
8
0
62
2
6
CONTINUOUS
10
36.2953280438
20
25.3279008620
7
STANDARD
40
0.1562500000
1
(TO BE DRILLED IN COUNTERTOP)
41
0.8000000000
72
0
0
TEXT
8
0
62
2
6
CONTINUOUS
10
36.2953280438
20
25.0935258620
7
STANDARD
40
0.1562500000
1
3,5 cm DIÁMETRO - ORIFICIO DEL CONECTOR OPCIONAL
41
0.8000000000
72
0
0
TEXT
8
0
62
2
6
CONTINUOUS
10
36.2953280438
20
24.8591508620
7
STANDARD
40
0.1562500000
1
(A SER PERFORADOS EN EL MOSTRADOR)
41
0.8000000000
72
0
0
TEXT
8
0
62
2
6
CONTINUOUS
10
36.2953280438
20
24.6247758620
7
STANDARD
40
0.1562500000
1
3,5 cm DIAMÈTRE - ORIFICE DU RACCORD OPTIONNEL
41
0.8000000000
72
0
0
TEXT
8
0
62
2
6
CONTINUOUS
10
36.2953280438
20
24.3904008620
7
STANDARD
40
0.1562500000
1
(À PERCER SUR LE COMPTOIR)
41
0.8000000000
72
0
0
LINE
8
0
62
2
6
CONTINUOUS
10
35.2897496480
20
24.7024688984
11
35.8735007313
21
25.6404008620
0
LINE
8
0
62
2
6
CONTINUOUS
10
35.8735007313
20
25.6404008620
11
36.2953280438
21
25.6404008620
0
SOLID
8
0
62
2
6
CONTINUOUS
10
35.3622933496
20
24.8781681410
11
35.2897496480
21
24.7024688984
12
35.4153556066
22
24.8451431976
13
35.4153556066
23
24.8451431976
0
TEXT
8
___NOTE
62
2
6
CONTINUOUS
10
24.3663682192
20
30.3822394491
7
STANDARD
40
0.1562500000
1
1-3/8 DIAMETER - STANDARD 3 HOLE FITTING
41
0.8000000000
72
0
0
TEXT
8
___NOTE
62
2
6
CONTINUOUS
10
24.3663682192
20
30.1478644491
7
STANDARD
40
0.1562500000
1
(TO BE DRILLED IN COUNTERTOP)
41
0.8000000000
72
0
0
TEXT
8
___NOTE
62
2
6
CONTINUOUS
10
24.3663682192
20
29.9134894491
7
STANDARD
40
0.1562500000
1
3,5 cm DIÁMETRO - CONECTOR ESTÁNDAR DE 3 HUECOS
41
0.8000000000
72
0
0
TEXT
8
___NOTE
62
2
6
CONTINUOUS
10
24.3663682192
20
29.6791144491
7
STANDARD
40
0.1562500000
1
(A SER PERFORADOS EN EL MOSTRADOR)
41
0.8000000000
72
0
0
TEXT
8
___NOTE
62
2
6
CONTINUOUS
10
24.3663682192
20
29.4447394491
7
STANDARD
40
0.1562500000
1
3,5 cm DIAMÈTRE - RACCORD RÉGULIER À 3 TROUS
41
0.8000000000
72
0
0
TEXT
8
___NOTE
62
2
6
CONTINUOUS
10
24.3663682192
20
29.2103644491
7
STANDARD
40
0.1562500000
1
(À PERCER SUR LE COMPTOIR)
41
0.8000000000
72
0
0
LINE
8
___NOTE
62
2
6
CONTINUOUS
10
25.5606588759
20
27.6694688984
11
23.2409332732
21
30.4603644491
0
LINE
8
___NOTE
62
2
6
CONTINUOUS
10
23.2409332732
20
30.4603644491
11
24.3663682192
21
30.4603644491
0
SOLID
8
___NOTE
62
2
6
CONTINUOUS
10
25.4167755851
20
27.7936881043
11
25.5606588759
21
27.6694688984
12
25.4648403703
22
27.8336384037
13
25.4648403703
23
27.8336384037
0
LINE
8
___NOTE
62
2
6
CONTINUOUS
10
22.1592894031
20
27.7885439137
11
23.2409332732
21
30.4603644491
0
LINE
8
___NOTE
62
2
6
CONTINUOUS
10
23.2409332732
20
30.4603644491
11
24.3663682192
21
30.4603644491
0
SOLID
8
___NOTE
62
2
6
CONTINUOUS
10
22.2006824541
20
27.9740686501
11
22.1592894031
21
27.7885439137
12
22.2586151767
22
27.9506155127
13
22.2586151767
23
27.9506155127
0
LINE
8
___NOTE
62
2
6
CONTINUOUS
10
18.5281180668
20
27.5421004796
11
23.2409332732
21
30.4603644491
0
LINE
8
___NOTE
62
2
6
CONTINUOUS
10
23.2409332732
20
30.4603644491
11
24.3663682192
21
30.4603644491
0
SOLID
8
___NOTE
62
2
6
CONTINUOUS
10
18.6710786946
20
27.6673804516
11
18.5281180668
21
27.5421004796
12
18.7039824353
22
27.6142429522
13
18.7039824353
23
27.6142429522
0
INSERT
8
___SYMBOL
62
2
6
CONTINUOUS
2
COPYRIGHT_YEAR_BL0
10
34.0716404124
20
8.9355711340
0
INSERT
8
___SYMBOL
62
2
6
CONTINUOUS
2
CUT-OUT_TEMPLATE_SKU_SIN_BL1
10
14.9778726052
20
20.0239453786
0
INSERT
8
___SYMBOL
62
2
6
CONTINUOUS
2
PACKAGING_UPC_BL2
10
31.1576280763
20
12.5832474070
0
INSERT
8
___SYMBOL
62
2
6
CONTINUOUS
2
TEMPLATE_NUMBER_BL3
10
9.9264250442
20
8.8716210186
0
INSERT
8
___SYMBOL
62
2
6
CONTINUOUS
2
TEMPLATE_NUMBER_BL4
10
9.9415062901
20
7.2303365316
0
INSERT
8
___SYMBOL
62
2
6
CONTINUOUS
2
WHEN_PLOTTING_TEMPLATE_N_BL5
10
13.2202126868
20
12.4877065373
0
INSERT
8
___SYMBOL
62
2
6
CONTINUOUS
2
REVEAL-NOREVEAL_BL6
10
28.8075148438
20
19.7925527652
0
INSERT
8
___SYMBOL
62
2
6
CONTINUOUS
2
REVEAL-NOREVEAL_BL7
10
29.0040356927
20
18.1249965046
0
LINE
8
0
62
7
6
CONTINUOUS
10
0.0000000000
20
0.0000000000
11
0.0000000000
21
34.0000000000
0
LINE
8
0
62
7
6
CONTINUOUS
10
0.0000000000
20
0.0000000000
11
44.0000000000
21
0.0000000000
0
LINE
8
0
62
7
6
CONTINUOUS
10
0.0000000000
20
34.0000000000
11
44.0000000000
21
34.0000000000
0
LINE
8
0
62
7
6
CONTINUOUS
10
44.0000000000
20
0.0000000000
11
44.0000000000
21
34.0000000000
0
POLYLINE
8
_CURVE
62
7
6
CONTINUOUS
66
1
70
0
0
VERTEX
8
_CURVE
62
7
6
CONTINUOUS
10
7.6089899081
20
9.2115472914
0
VERTEX
8
_CURVE
62
7
6
CONTINUOUS
10
7.6577696706
20
9.1614715201
0
VERTEX
8
_CURVE
62
7
6
CONTINUOUS
10
7.7075892618
20
9.1118968248
0
VERTEX
8
_CURVE
62
7
6
CONTINUOUS
10
7.7585301399
20
9.0629076030
0
VERTEX
8
_CURVE
62
7
6
CONTINUOUS
10
7.8032541981
20
9.0213545758
0
VERTEX
8
_CURVE
62
7
6
CONTINUOUS
10
7.8489316945
20
8.9803658607
0
VERTEX
8
_CURVE
62
7
6
CONTINUOUS
10
7.8956283395
20
8.9400113483
0
VERTEX
8
_CURVE
62
7
6
CONTINUOUS
10
7.9369730628
20
8.9056073956
0
VERTEX
8
_CURVE
62
7
6
CONTINUOUS
10
7.9791659200
20
8.8717989498
0
VERTEX
8
_CURVE
62
7
6
CONTINUOUS
10
8.0222401675
20
8.8386526479
0
VERTEX
8
_CURVE
62
7
6
CONTINUOUS
10
8.0611075389
20
8.8099350053
0
VERTEX
8
_CURVE
62
7
6
CONTINUOUS
10
8.1007003573
20
8.7818441531
0
VERTEX
8
_CURVE
62
7
6
CONTINUOUS
10
8.1410281683
20
8.7544364592
0
VERTEX
8
_CURVE
62
7
6
CONTINUOUS
10
8.1785469143
20
8.7300248936
0
VERTEX
8
_CURVE
62
7
6
CONTINUOUS
10
8.2166791489
20
8.7062775639
0
VERTEX
8
_CURVE
62
7
6
CONTINUOUS
10
8.2554160208
20
8.6832405558
0
VERTEX
8
_CURVE
62
7
6
CONTINUOUS
10
8.2924830309
20
8.6622111031
0
VERTEX
8
_CURVE
62
7
6
CONTINUOUS
10
8.3300573000
20
8.6418887059
0
VERTEX
8
_CURVE
62
7
6
CONTINUOUS
10
8.3681164362
20
8.6223079777
0
VERTEX
8
_CURVE
62
7
6
CONTINUOUS
10
8.4055501117
20
8.6040181816
0
VERTEX
8
_CURVE
62
7
6
CONTINUOUS
10
8.4433886435
20
8.5864837523
0
VERTEX
8
_CURVE
62
7
6
CONTINUOUS
10
8.4815999796
20
8.5697266890
0
VERTEX
8
_CURVE
62
7
6
CONTINUOUS
10
8.5201507095
20
8.5537667852
0
VERTEX
8
_CURVE
62
7
6
CONTINUOUS
10
8.5590041208
20
8.5386141379
0
VERTEX
8
_CURVE
62
7
6
CONTINUOUS
10
8.5981221488
20
8.5242766534
0
VERTEX
8
_CURVE
62
7
6
CONTINUOUS
10
8.6386040339
20
8.5103822140
0
VERTEX
8
_CURVE
62
7
6
CONTINUOUS
10
8.6792852361
20
8.4973511808
0
VERTEX
8
_CURVE
62
7
6
CONTINUOUS
10
8.7201252709
20
8.4851757547
0
VERTEX
8
_CURVE
62
7
6
CONTINUOUS
10
8.7635695699
20
8.4731862011
0
VERTEX
8
_CURVE
62
7
6
CONTINUOUS
10
8.8071076001
20
8.4621247814
0
VERTEX
8
_CURVE
62
7
6
CONTINUOUS
10
8.8506999698
20
8.4519659774
0
VERTEX
8
_CURVE
62
7
6
CONTINUOUS
10
8.8983989840
20
8.4418558286
0
VERTEX
8
_CURVE
62
7
6
CONTINUOUS
10
8.9460818092
20
8.4327490754
0
VERTEX
8
_CURVE
62
7
6
CONTINUOUS
10
8.9937143735
20
8.4245997963
0
VERTEX
8
_CURVE
62
7
6
CONTINUOUS
10
9.0474553006
20
8.4164829200
0
VERTEX
8
_CURVE
62
7
6
CONTINUOUS
10
9.1010634239
20
8.4094605176
0
VERTEX
8
_CURVE
62
7
6
CONTINUOUS
10
9.1545136856
20
8.4034624344
0
VERTEX
8
_CURVE
62
7
6
CONTINUOUS
10
9.2159631320
20
8.3977247884
0
VERTEX
8
_CURVE
62
7
6
CONTINUOUS
10
9.2771641410
20
8.3931616147
0
VERTEX
8
_CURVE
62
7
6
CONTINUOUS
10
9.3381118018
20
8.3896770740
0
VERTEX
8
_CURVE
62
7
6
CONTINUOUS
10
9.4087288098
20
8.3868579284
0
VERTEX
8
_CURVE
62
7
6
CONTINUOUS
10
9.4789914591
20
8.3852530773
0
VERTEX
8
_CURVE
62
7
6
CONTINUOUS
10
9.5488952951
20
8.3847452700
0
SEQEND
0
POLYLINE
8
_CURVE
62
7
6
CONTINUOUS
66
1
70
0
0
VERTEX
8
_CURVE
62
7
6
CONTINUOUS
10
7.7893353922
20
9.3846816506
0
VERTEX
8
_CURVE
62
7
6
CONTINUOUS
10
7.8355333511
20
9.3372563110
0
VERTEX
8
_CURVE
62
7
6
CONTINUOUS
10
7.8824664375
20
9.2905533871
0
VERTEX
8
_CURVE
62
7
6
CONTINUOUS
10
7.9301897588
20
9.2446573629
0
VERTEX
8
_CURVE
62
7
6
CONTINUOUS
10
7.9718633921
20
9.2059386162
0
VERTEX
8
_CURVE
62
7
6
CONTINUOUS
10
8.0141995941
20
9.1679474906
0
VERTEX
8
_CURVE
62
7
6
CONTINUOUS
10
8.0572369991
20
9.1307536906
0
VERTEX
8
_CURVE
62
7
6
CONTINUOUS
10
8.0951331032
20
9.0992190104
0
VERTEX
8
_CURVE
62
7
6
CONTINUOUS
10
8.1336059213
20
9.0683909053
0
VERTEX
8
_CURVE
62
7
6
CONTINUOUS
10
8.1726764485
20
9.0383246924
0
VERTEX
8
_CURVE
62
7
6
CONTINUOUS
10
8.2077565701
20
9.0124048917
0
VERTEX
8
_CURVE
62
7
6
CONTINUOUS
10
8.2433292769
20
8.9871659122
0
VERTEX
8
_CURVE
62
7
6
CONTINUOUS
10
8.2794028893
20
8.9626489387
0
VERTEX
8
_CURVE
62
7
6
CONTINUOUS
10
8.3128278134
20
8.9409005528
0
VERTEX
8
_CURVE
62
7
6
CONTINUOUS
10
8.3466776610
20
8.9198198903
0
VERTEX
8
_CURVE
62
7
6
CONTINUOUS
10
8.3809517067
20
8.8994367435
0
VERTEX
8
_CURVE
62
7
6
CONTINUOUS
10
8.4136542859
20
8.8808829771
0
VERTEX
8
_CURVE
62
7
6
CONTINUOUS
10
8.4467260391
20
8.8629956665
0
VERTEX
8
_CURVE
62
7
6
CONTINUOUS
10
8.4801596751
20
8.8457946946
0
VERTEX
8
_CURVE
62
7
6
CONTINUOUS
10
8.5129949770
20
8.8297513028
0
VERTEX
8
_CURVE
62
7
6
CONTINUOUS
10
8.5461529571
20
8.8143858024
0
VERTEX
8
_CURVE
62
7
6
CONTINUOUS
10
8.5796213049
20
8.7997089052
0
VERTEX
8
_CURVE
62
7
6
CONTINUOUS
10
8.6133867419
20
8.7857299089
0
VERTEX
8
_CURVE
62
7
6
CONTINUOUS
10
8.6474339824
20
8.7724516897
0
VERTEX
8
_CURVE
62
7
6
CONTINUOUS
10
8.6817467782
20
8.7598757225
0
VERTEX
8
_CURVE
62
7
6
CONTINUOUS
10
8.7173084363
20
8.7476700132
0
VERTEX
8
_CURVE
62
7
6
CONTINUOUS
10
8.7531145916
20
8.7362006892
0
VERTEX
8
_CURVE
62
7
6
CONTINUOUS
10
8.7891458540
20
8.7254592520
0
VERTEX
8
_CURVE
62
7
6
CONTINUOUS
10
8.8275846744
20
8.7148512679
0
VERTEX
8
_CURVE
62
7
6
CONTINUOUS
10
8.8662329000
20
8.7050323816
0
VERTEX
8
_CURVE
62
7
6
CONTINUOUS
10
8.9050685368
20
8.6959824910
0
VERTEX
8
_CURVE
62
7
6
CONTINUOUS
10
8.9477355516
20
8.6869393582
0
VERTEX
8
_CURVE
62
7
6
CONTINUOUS
10
8.9905765130
20
8.6787576413
0
VERTEX
8
_CURVE
62
7
6
CONTINUOUS
10
9.0335674710
20
8.6714028162
0
VERTEX
8
_CURVE
62
7
6
CONTINUOUS
10
9.0823132129
20
8.6640410684
0
VERTEX
8
_CURVE
62
7
6
CONTINUOUS
10
9.1311946268
20
8.6576382084
0
VERTEX
8
_CURVE
62
7
6
CONTINUOUS
10
9.1801863442
20
8.6521407700
0
VERTEX
8
_CURVE
62
7
6
CONTINUOUS
10
9.2368211577
20
8.6468538503
0
VERTEX
8
_CURVE
62
7
6
CONTINUOUS
10
9.2935455179
20
8.6426249966
0
VERTEX
8
_CURVE
62
7
6
CONTINUOUS
10
9.3503358951
20
8.6393780382
0
VERTEX
8
_CURVE
62
7
6
CONTINUOUS
10
9.4164932187
20
8.6367377154
0
VERTEX
8
_CURVE
62
7
6
CONTINUOUS
10
9.4826853285
20
8.6352262244
0
VERTEX
8
_CURVE
62
7
6
CONTINUOUS
10
9.5488894473
20
8.6347452699
0
SEQEND
0
LINE
8
_CURVE
62
2
6
CENTER
10
9.0917042620
20
24.2800550936
11
9.0917042620
21
24.0300550936
0
POLYLINE
8
_CURVE
62
7
6
CONTINUOUS
66
1
70
0
0
VERTEX
8
_CURVE
62
7
6
CONTINUOUS
10
34.4126290368
20
8.3847452686
0
VERTEX
8
_CURVE
62
7
6
CONTINUOUS
10
34.4824946844
20
8.3852542277
0
VERTEX
8
_CURVE
62
7
6
CONTINUOUS
10
34.5527187237
20
8.3868591436
0
VERTEX
8
_CURVE
62
7
6
CONTINUOUS
10
34.6232967221
20
8.3896770740
0
VERTEX
8
_CURVE
62
7
6
CONTINUOUS
10
34.6842443798
20
8.3931616143
0
VERTEX
8
_CURVE
62
7
6
CONTINUOUS
10
34.7454453898
20
8.3977247882
0
VERTEX
8
_CURVE
62
7
6
CONTINUOUS
10
34.8068948383
20
8.4034624344
0
VERTEX
8
_CURVE
62
7
6
CONTINUOUS
10
34.8603451007
20
8.4094605176
0
VERTEX
8
_CURVE
62
7
6
CONTINUOUS
10
34.9139532238
20
8.4164829201
0
VERTEX
8
_CURVE
62
7
6
CONTINUOUS
10
34.9676941504
20
8.4245997963
0
VERTEX
8
_CURVE
62
7
6
CONTINUOUS
10
35.0153267145
20
8.4327490754
0
VERTEX
8
_CURVE
62
7
6
CONTINUOUS
10
35.0630095398
20
8.4418558286
0
VERTEX
8
_CURVE
62
7
6
CONTINUOUS
10
35.1107085541
20
8.4519659774
0
VERTEX
8
_CURVE
62
7
6
CONTINUOUS
10
35.1543009238
20
8.4621247814
0
VERTEX
8
_CURVE
62
7
6
CONTINUOUS
10
35.1978389540
20
8.4731862011
0
VERTEX
8
_CURVE
62
7
6
CONTINUOUS
10
35.2412832530
20
8.4851757547
0
VERTEX
8
_CURVE
62
7
6
CONTINUOUS
10
35.2821232878
20
8.4973511808
0
VERTEX
8
_CURVE
62
7
6
CONTINUOUS
10
35.3228044900
20
8.5103822140
0
VERTEX
8
_CURVE
62
7
6
CONTINUOUS
10
35.3632863751
20
8.5242766534
0
VERTEX
8
_CURVE
62
7
6
CONTINUOUS
10
35.4024044031
20
8.5386141379
0
VERTEX
8
_CURVE
62
7
6
CONTINUOUS
10
35.4412578144
20
8.5537667852
0
VERTEX
8
_CURVE
62
7
6
CONTINUOUS
10
35.4798085443
20
8.5697266890
0
VERTEX
8
_CURVE
62
7
6
CONTINUOUS
10
35.5180198804
20
8.5864837523
0
VERTEX
8
_CURVE
62
7
6
CONTINUOUS
10
35.5558584122
20
8.6040181816
0
VERTEX
8
_CURVE
62
7
6
CONTINUOUS
10
35.5932920877
20
8.6223079777
0
VERTEX
8
_CURVE
62
7
6
CONTINUOUS
10
35.6313512239
20
8.6418887059
0
VERTEX
8
_CURVE
62
7
6
CONTINUOUS
10
35.6689254930
20
8.6622111031
0
VERTEX
8
_CURVE
62
7
6
CONTINUOUS
10
35.7059925031
20
8.6832405558
0
VERTEX
8
_CURVE
62
7
6
CONTINUOUS
10
35.7447293750
20
8.7062775639
0
VERTEX
8
_CURVE
62
7
6
CONTINUOUS
10
35.7828616096
20
8.7300248936
0
VERTEX
8
_CURVE
62
7
6
CONTINUOUS
10
35.8203803557
20
8.7544364592
0
VERTEX
8
_CURVE
62
7
6
CONTINUOUS
10
35.8607081666
20
8.7818441531
0
VERTEX
8
_CURVE
62
7
6
CONTINUOUS
10
35.9003009851
20
8.8099350053
0
VERTEX
8
_CURVE
62
7
6
CONTINUOUS
10
35.9391683565
20
8.8386526479
0
VERTEX
8
_CURVE
62
7
6
CONTINUOUS
10
35.9822426039
20
8.8717989498
0
VERTEX
8
_CURVE
62
7
6
CONTINUOUS
10
36.0244354611
20
8.9056073956
0
VERTEX
8
_CURVE
62
7
6
CONTINUOUS
10
36.0657801844
20
8.9400113483
0
VERTEX
8
_CURVE
62
7
6
CONTINUOUS
10
36.1124768294
20
8.9803658607
0
VERTEX
8
_CURVE
62
7
6
CONTINUOUS
10
36.1581543259
20
9.0213545758
0
VERTEX
8
_CURVE
62
7
6
CONTINUOUS
10
36.2028783840
20
9.0629076030
0
VERTEX
8
_CURVE
62
7
6
CONTINUOUS
10
36.2538192621
20
9.1118968248
0
VERTEX
8
_CURVE
62
7
6
CONTINUOUS
10
36.3036388533
20
9.1614715201
0
VERTEX
8
_CURVE
62
7
6
CONTINUOUS
10
36.3524186158
20
9.2115472914
0
SEQEND
0
LINE
8
_CURVE
62
8
6
HIDDEN
10
34.6461942020
20
7.5000550936
11
22.8947042620
21
7.5000550936
0
LINE
8
_CURVE
62
8
6
HIDDEN
10
21.0667042620
20
7.5000550936
11
9.3152143219
21
7.5000550936
0
LINE
8
_CURVE
62
7
6
CONTINUOUS
10
9.5488894473
20
8.3847452661
11
34.4126290368
21
8.3847452661
0
POLYLINE
8
_CURVE
62
7
6
CONTINUOUS
66
1
70
0
0
VERTEX
8
_CURVE
62
7
6
CONTINUOUS
10
34.4126290368
20
8.6347452686
0
VERTEX
8
_CURVE
62
7
6
CONTINUOUS
10
34.4787965014
20
8.6352273100
0
VERTEX
8
_CURVE
62
7
6
CONTINUOUS
10
34.5449519453
20
8.6367388558
0
VERTEX
8
_CURVE
62
7
6
CONTINUOUS
10
34.6110726288
20
8.6393780382
0
VERTEX
8
_CURVE
62
7
6
CONTINUOUS
10
34.6678630060
20
8.6426249966
0
VERTEX
8
_CURVE
62
7
6
CONTINUOUS
10
34.7245873663
20
8.6468538503
0
VERTEX
8
_CURVE
62
7
6
CONTINUOUS
10
34.7812221797
20
8.6521407700
0
VERTEX
8
_CURVE
62
7
6
CONTINUOUS
10
34.8302138971
20
8.6576382084
0
VERTEX
8
_CURVE
62
7
6
CONTINUOUS
10
34.8790953111
20
8.6640410684
0
VERTEX
8
_CURVE
62
7
6
CONTINUOUS
10
34.9278410529
20
8.6714028162
0
VERTEX
8
_CURVE
62
7
6
CONTINUOUS
10
34.9708320109
20
8.6787576413
0
VERTEX
8
_CURVE
62
7
6
CONTINUOUS
10
35.0136729724
20
8.6869393582
0
VERTEX
8
_CURVE
62
7
6
CONTINUOUS
10
35.0563399871
20
8.6959824910
0
VERTEX
8
_CURVE
62
7
6
CONTINUOUS
10
35.0951756239
20
8.7050323816
0
VERTEX
8
_CURVE
62
7
6
CONTINUOUS
10
35.1338238495
20
8.7148512679
0
VERTEX
8
_CURVE
62
7
6
CONTINUOUS
10
35.1722626699
20
8.7254592520
0
VERTEX
8
_CURVE
62
7
6
CONTINUOUS
10
35.2082939323
20
8.7362006892
0
VERTEX
8
_CURVE
62
7
6
CONTINUOUS
10
35.2441000876
20
8.7476700132
0
VERTEX
8
_CURVE
62
7
6
CONTINUOUS
10
35.2796617457
20
8.7598757225
0
VERTEX
8
_CURVE
62
7
6
CONTINUOUS
10
35.3139745415
20
8.7724516897
0
VERTEX
8
_CURVE
62
7
6
CONTINUOUS
10
35.3480217820
20
8.7857299089
0
VERTEX
8
_CURVE
62
7
6
CONTINUOUS
10
35.3817872190
20
8.7997089052
0
VERTEX
8
_CURVE
62
7
6
CONTINUOUS
10
35.4152555668
20
8.8143858024
0
VERTEX
8
_CURVE
62
7
6
CONTINUOUS
10
35.4484135469
20
8.8297513028
0
VERTEX
8
_CURVE
62
7
6
CONTINUOUS
10
35.4812488488
20
8.8457946946
0
VERTEX
8
_CURVE
62
7
6
CONTINUOUS
10
35.5146824848
20
8.8629956665
0
VERTEX
8
_CURVE
62
7
6
CONTINUOUS
10
35.5477542380
20
8.8808829771
0
VERTEX
8
_CURVE
62
7
6
CONTINUOUS
10
35.5804568172
20
8.8994367435
0
VERTEX
8
_CURVE
62
7
6
CONTINUOUS
10
35.6147308629
20
8.9198198903
0
VERTEX
8
_CURVE
62
7
6
CONTINUOUS
10
35.6485807105
20
8.9409005528
0
VERTEX
8
_CURVE
62
7
6
CONTINUOUS
10
35.6820056347
20
8.9626489387
0
VERTEX
8
_CURVE
62
7
6
CONTINUOUS
10
35.7180792470
20
8.9871659122
0
VERTEX
8
_CURVE
62
7
6
CONTINUOUS
10
35.7536519538
20
9.0124048917
0
VERTEX
8
_CURVE
62
7
6
CONTINUOUS
10
35.7887320754
20
9.0383246924
0
VERTEX
8
_CURVE
62
7
6
CONTINUOUS
10
35.8278026026
20
9.0683909053
0
VERTEX
8
_CURVE
62
7
6
CONTINUOUS
10
35.8662754208
20
9.0992190104
0
VERTEX
8
_CURVE
62
7
6
CONTINUOUS
10
35.9041715248
20
9.1307536906
0
VERTEX
8
_CURVE
62
7
6
CONTINUOUS
10
35.9472089299
20
9.1679474906
0
VERTEX
8
_CURVE
62
7
6
CONTINUOUS
10
35.9895451318
20
9.2059386162
0
VERTEX
8
_CURVE
62
7
6
CONTINUOUS
10
36.0312187651
20
9.2446573629
0
VERTEX
8
_CURVE
62
7
6
CONTINUOUS
10
36.0789420864
20
9.2905533871
0
VERTEX
8
_CURVE
62
7
6
CONTINUOUS
10
36.1258751728
20
9.3372563110
0
VERTEX
8
_CURVE
62
7
6
CONTINUOUS
10
36.1720731317
20
9.3846816506
0
SEQEND
0
LINE
8
_CURVE
62
7
6
CONTINUOUS
10
9.5488894473
20
8.6347452661
11
34.4126290368
21
8.6347452661
0
LINE
8
_CURVE
62
2
6
CENTER
10
17.9807042620
20
27.2470550936
11
17.9807042620
21
26.9970550936
0
LINE
8
_CURVE
62
2
6
CENTER
10
21.9807042620
20
27.2470550936
11
21.9807042620
21
26.9970550936
0
LINE
8
_CURVE
62
2
6
CENTER
10
25.9807042620
20
27.2470550936
11
25.9807042620
21
26.9970550936
0
LINE
8
_CURVE
62
2
6
CENTER
10
8.9667042620
20
24.1550550936
11
9.2167042620
21
24.1550550936
0
LINE
8
_CURVE
62
2
6
CENTER
10
34.7447042620
20
24.1550550936
11
34.9947042620
21
24.1550550936
0
POLYLINE
8
_CURVE
62
7
6
CONTINUOUS
66
1
70
0
0
VERTEX
8
_CURVE
62
7
6
CONTINUOUS
10
21.9807042620
20
24.8724260002
0
VERTEX
8
_CURVE
62
7
6
CONTINUOUS
10
21.7106135666
20
24.8701495425
0
VERTEX
8
_CURVE
62
7
6
CONTINUOUS
10
21.4404209056
20
24.8660686096
0
VERTEX
8
_CURVE
62
7
6
CONTINUOUS
10
21.1701552692
20
24.8601365373
0
VERTEX
8
_CURVE
62
7
6
CONTINUOUS
10
20.8998456480
20
24.8523066614
0
VERTEX
8
_CURVE
62
7
6
CONTINUOUS
10
20.6295210323
20
24.8425323178
0
VERTEX
8
_CURVE
62
7
6
CONTINUOUS
10
20.3592104125
20
24.8307668421
0
VERTEX
8
_CURVE
62
7
6
CONTINUOUS
10
20.0889427790
20
24.8169635703
0
VERTEX
8
_CURVE
62
7
6
CONTINUOUS
10
19.8187471223
20
24.8010758381
0
VERTEX
8
_CURVE
62
7
6
CONTINUOUS
10
19.5486524327
20
24.7830569813
0
VERTEX
8
_CURVE
62
7
6
CONTINUOUS
10
19.2786877006
20
24.7628603357
0
VERTEX
8
_CURVE
62
7
6
CONTINUOUS
10
19.0088819166
20
24.7404392371
0
VERTEX
8
_CURVE
62
7
6
CONTINUOUS
10
18.7955197000
20
24.7210904321
0
VERTEX
8
_CURVE
62
7
6
CONTINUOUS
10
18.5822895218
20
24.7002964786
0
VERTEX
8
_CURVE
62
7
6
CONTINUOUS
10
18.3692057455
20
24.6780342567
0
VERTEX
8
_CURVE
62
7
6
CONTINUOUS
10
18.1562827344
20
24.6542806464
0
VERTEX
8
_CURVE
62
7
6
CONTINUOUS
10
17.9510048582
20
24.6299255775
0
VERTEX
8
_CURVE
62
7
6
CONTINUOUS
10
17.7459031025
20
24.6041370339
0
VERTEX
8
_CURVE
62
7
6
CONTINUOUS
10
17.5409905466
20
24.5768915192
0
VERTEX
8
_CURVE
62
7
6
CONTINUOUS
10
17.3362802694
20
24.5481655368
0
VERTEX
8
_CURVE
62
7
6
CONTINUOUS
10
17.1387864931
20
24.5189957391
0
VERTEX
8
_CURVE
62
7
6
CONTINUOUS
10
16.9415083618
20
24.4883995916
0
VERTEX
8
_CURVE
62
7
6
CONTINUOUS
10
16.7444606624
20
24.4563534455
0
VERTEX
8
_CURVE
62
7
6
CONTINUOUS
10
16.5476581823
20
24.4228336523
0
VERTEX
8
_CURVE
62
7
6
CONTINUOUS
10
16.3579981057
20
24.3890686634
0
VERTEX
8
_CURVE
62
7
6
CONTINUOUS
10
16.1685959653
20
24.3538857170
0
VERTEX
8
_CURVE
62
7
6
CONTINUOUS
10
15.9794675921
20
24.3172610641
0
VERTEX
8
_CURVE
62
7
6
CONTINUOUS
10
15.7906288174
20
24.2791709554
0
VERTEX
8
_CURVE
62
7
6
CONTINUOUS
10
15.6089282716
20
24.2410530220
0
VERTEX
8
_CURVE
62
7
6
CONTINUOUS
10
15.4275284879
20
24.2015282760
0
VERTEX
8
_CURVE
62
7
6
CONTINUOUS
10
15.2464465520
20
24.1605730461
0
VERTEX
8
_CURVE
62
7
6
CONTINUOUS
10
15.0656995498
20
24.1181636609
0
VERTEX
8
_CURVE
62
7
6
CONTINUOUS
10
14.8919361987
20
24.0759173349
0
VERTEX
8
_CURVE
62
7
6
CONTINUOUS
10
14.7185177936
20
24.0322764599
0
VERTEX
8
_CURVE
62
7
6
CONTINUOUS
10
14.5454626892
20
23.9872175621
0
VERTEX
8
_CURVE
62
7
6
CONTINUOUS
10
14.3727892403
20
23.9407171681
0
VERTEX
8
_CURVE
62
7
6
CONTINUOUS
10
14.2069885365
20
23.8945823518
0
VERTEX
8
_CURVE
62
7
6
CONTINUOUS
10
14.0415779272
20
23.8470676952
0
VERTEX
8
_CURVE
62
7
6
CONTINUOUS
10
13.8765770215
20
23.7981501977
0
VERTEX
8
_CURVE
62
7
6
CONTINUOUS
10
13.7120054288
20
23.7478068587
0
VERTEX
8
_CURVE
62
7
6
CONTINUOUS
10
13.5540462579
20
23.6979882655
0
VERTEX
8
_CURVE
62
7
6
CONTINUOUS
10
13.3965239212
20
23.6468050512
0
VERTEX
8
_CURVE
62
7
6
CONTINUOUS
10
13.2394594563
20
23.5942345278
0
VERTEX
8
_CURVE
62
7
6
CONTINUOUS
10
13.0828739006
20
23.5402540074
0
VERTEX
8
_CURVE
62
7
6
CONTINUOUS
10
12.9329562037
20
23.4870613201
0
VERTEX
8
_CURVE
62
7
6
CONTINUOUS
10
12.7835212533
20
23.4325269873
0
VERTEX
8
_CURVE
62
7
6
CONTINUOUS
10
12.6345906375
20
23.3766308940
0
VERTEX
8
_CURVE
62
7
6
CONTINUOUS
10
12.4861859440
20
23.3193529248
0
VERTEX
8
_CURVE
62
7
6
CONTINUOUS
10
12.3448423926
20
23.2632923199
0
VERTEX
8
_CURVE
62
7
6
CONTINUOUS
10
12.2040209240
20
23.2059328373
0
VERTEX
8
_CURVE
62
7
6
CONTINUOUS
10
12.0637433676
20
23.1472565799
0
VERTEX
8
_CURVE
62
7
6
CONTINUOUS
10
11.9240315532
20
23.0872456508
0
VERTEX
8
_CURVE
62
7
6
CONTINUOUS
10
11.7916797599
20
23.0289067755
0
VERTEX
8
_CURVE
62
7
6
CONTINUOUS
10
11.6598814044
20
22.9693281472
0
VERTEX
8
_CURVE
62
7
6
CONTINUOUS
10
11.5286582734
20
22.9084938538
0
VERTEX
8
_CURVE
62
7
6
CONTINUOUS
10
11.3980321541
20
22.8463879831
0
VERTEX
8
_CURVE
62
7
6
CONTINUOUS
10
11.2744257059
20
22.7861532281
0
VERTEX
8
_CURVE
62
7
6
CONTINUOUS
10
11.1513999349
20
22.7247411955
0
VERTEX
8
_CURVE
62
7
6
CONTINUOUS
10
11.0289762830
20
22.6621381689
0
VERTEX
8
_CURVE
62
7
6
CONTINUOUS
10
10.9071761919
20
22.5983304317
0
VERTEX
8
_CURVE
62
7
6
CONTINUOUS
10
10.7534545900
20
22.5155535718
0
VERTEX
8
_CURVE
62
7
6
CONTINUOUS
10
10.6008226828
20
22.4307847675
0
VERTEX
8
_CURVE
62
7
6
CONTINUOUS
10
10.4493302612
20
22.3439964803
0
VERTEX
8
_CURVE
62
7
6
CONTINUOUS
10
10.3058460296
20
22.2592516803
0
VERTEX
8
_CURVE
62
7
6
CONTINUOUS
10
10.1634937906
20
22.1726193179
0
VERTEX
8
_CURVE
62
7
6
CONTINUOUS
10
10.0223221097
20
22.0840766600
0
VERTEX
8
_CURVE
62
7
6
CONTINUOUS
10
9.8884480359
20
21.9975817102
0
VERTEX
8
_CURVE
62
7
6
CONTINUOUS
10
9.7557454803
20
21.9093003149
0
VERTEX
8
_CURVE
62
7
6
CONTINUOUS
10
9.6242615542
20
21.8192143704
0
VERTEX
8
_CURVE
62
7
6
CONTINUOUS
10
9.4993980780
20
21.7311395187
0
VERTEX
8
_CURVE
62
7
6
CONTINUOUS
10
9.3757433711
20
21.6413758395
0
VERTEX
8
_CURVE
62
7
6
CONTINUOUS
10
9.2533428855
20
21.5499096700
0
VERTEX
8
_CURVE
62
7
6
CONTINUOUS
10
9.1369321189
20
21.4603875924
0
VERTEX
8
_CURVE
62
7
6
CONTINUOUS
10
9.0217654088
20
21.3692709482
0
VERTEX
8
_CURVE
62
7
6
CONTINUOUS
10
8.9078863599
20
21.2765503072
0
VERTEX
8
_CURVE
62
7
6
CONTINUOUS
10
8.7994132987
20
21.1856800995
0
VERTEX
8
_CURVE
62
7
6
CONTINUOUS
10
8.6922178972
20
21.0933064152
0
VERTEX
8
_CURVE
62
7
6
CONTINUOUS
10
8.5863417339
20
20.9994238457
0
VERTEX
8
_CURVE
62
7
6
CONTINUOUS
10
8.4853363427
20
20.9072764399
0
VERTEX
8
_CURVE
62
7
6
CONTINUOUS
10
8.3856407183
20
20.8137137642
0
VERTEX
8
_CURVE
62
7
6
CONTINUOUS
10
8.2872942397
20
20.7187342149
0
VERTEX
8
_CURVE
62
7
6
CONTINUOUS
10
8.1933246089
20
20.6253501200
0
VERTEX
8
_CURVE
62
7
6
CONTINUOUS
10
8.1006956670
20
20.5306362136
0
VERTEX
8
_CURVE
62
7
6
CONTINUOUS
10
8.0094444346
20
20.4345944742
0
VERTEX
8
_CURVE
62
7
6
CONTINUOUS
10
7.9221183330
20
20.3399876921
0
VERTEX
8
_CURVE
62
7
6
CONTINUOUS
10
7.8361629091
20
20.2441340217
0
VERTEX
8
_CURVE
62
7
6
CONTINUOUS
10
7.7516126729
20
20.1470388023
0
VERTEX
8
_CURVE
62
7
6
CONTINUOUS
10
7.6705805010
20
20.0512034046
0
VERTEX
8
_CURVE
62
7
6
CONTINUOUS
10
7.5909481768
20
19.9542018375
0
VERTEX
8
_CURVE
62
7
6
CONTINUOUS
10
7.5127475635
20
19.8560425645
0
VERTEX
8
_CURVE
62
7
6
CONTINUOUS
10
7.4376935406
20
19.7589460184
0
VERTEX
8
_CURVE
62
7
6
CONTINUOUS
10
7.3640680753
20
19.6607619260
0
VERTEX
8
_CURVE
62
7
6
CONTINUOUS
10
7.2919002499
20
19.5615016511
0
VERTEX
8
_CURVE
62
7
6
CONTINUOUS
10
7.2225479397
20
19.4630932894
0
VERTEX
8
_CURVE
62
7
6
CONTINUOUS
10
7.1546525458
20
19.3636742366
0
VERTEX
8
_CURVE
62
7
6
CONTINUOUS
10
7.0882402253
20
19.2632585382
0
VERTEX
8
_CURVE
62
7
6
CONTINUOUS
10
7.0243479253
20
19.1634664411
0
VERTEX
8
_CURVE
62
7
6
CONTINUOUS
10
6.9619407665
20
19.0627389699
0
VERTEX
8
_CURVE
62
7
6
CONTINUOUS
10
6.9010418585
20
18.9610926213
0
VERTEX
8
_CURVE
62
7
6
CONTINUOUS
10
6.8424043138
20
18.8598279195
0
VERTEX
8
_CURVE
62
7
6
CONTINUOUS
10
6.7852801669
20
18.7577018919
0
VERTEX
8
_CURVE
62
7
6
CONTINUOUS
10
6.7296893882
20
18.6547332409
0
VERTEX
8
_CURVE
62
7
6
CONTINUOUS
10
6.6761373367
20
18.5518915279
0
VERTEX
8
_CURVE
62
7
6
CONTINUOUS
10
6.6241271332
20
18.4482615372
0
VERTEX
8
_CURVE
62
7
6
CONTINUOUS
10
6.5736754960
20
18.3438639494
0
VERTEX
8
_CURVE
62
7
6
CONTINUOUS
10
6.5250734217
20
18.2393227192
0
VERTEX
8
_CURVE
62
7
6
CONTINUOUS
10
6.4780420218
20
18.1340655208
0
VERTEX
8
_CURVE
62
7
6
CONTINUOUS
10
6.4325946384
20
18.0281147906
0
VERTEX
8
_CURVE
62
7
6
CONTINUOUS
10
6.3888416008
20
17.9217355994
0
VERTEX
8
_CURVE
62
7
6
CONTINUOUS
10
6.3466885541
20
17.8147123077
0
VERTEX
8
_CURVE
62
7
6
CONTINUOUS
10
6.3061453624
20
17.7070688724
0
VERTEX
8
_CURVE
62
7
6
CONTINUOUS
10
6.2671755504
20
17.5986991825
0
VERTEX
8
_CURVE
62
7
6
CONTINUOUS
10
6.2298356637
20
17.4897571058
0
VERTEX
8
_CURVE
62
7
6
CONTINUOUS
10
6.1941320180
20
17.3802678745
0
VERTEX
8
_CURVE
62
7
6
CONTINUOUS
10
6.1599165899
20
17.2697468251
0
VERTEX
8
_CURVE
62
7
6
CONTINUOUS
10
6.1273616194
20
17.1587252833
0
VERTEX
8
_CURVE
62
7
6
CONTINUOUS
10
6.0964697770
20
17.0472295186
0
VERTEX
8
_CURVE
62
7
6
CONTINUOUS
10
6.0670116172
20
16.9343711706
0
VERTEX
8
_CURVE
62
7
6
CONTINUOUS
10
6.0392454528
20
16.8210846094
0
VERTEX
8
_CURVE
62
7
6
CONTINUOUS
10
6.0131702008
20
16.7073969113
0
VERTEX
8
_CURVE
62
7
6
CONTINUOUS
10
5.9885084618
20
16.5919966626
0
VERTEX
8
_CURVE
62
7
6
CONTINUOUS
10
5.9655714526
20
16.4762411823
0
VERTEX
8
_CURVE
62
7
6
CONTINUOUS
10
5.9443542465
20
16.3601581154
0
VERTEX
8
_CURVE
62
7
6
CONTINUOUS
10
5.9245719816
20
16.2420281962
0
VERTEX
8
_CURVE
62
7
6
CONTINUOUS
10
5.9065475727
20
16.1236172217
0
VERTEX
8
_CURVE
62
7
6
CONTINUOUS
10
5.8902722011
20
16.0049531375
0
VERTEX
8
_CURVE
62
7
6
CONTINUOUS
10
5.8754877713
20
15.8838959644
0
VERTEX
8
_CURVE
62
7
6
CONTINUOUS
10
5.8624947485
20
15.7626333309
0
VERTEX
8
_CURVE
62
7
6
CONTINUOUS
10
5.8512803416
20
15.6411932186
0
VERTEX
8
_CURVE
62
7
6
CONTINUOUS
10
5.8416420616
20
15.5169118455
0
VERTEX
8
_CURVE
62
7
6
CONTINUOUS
10
5.8338317411
20
15.3925020887
0
VERTEX
8
_CURVE
62
7
6
CONTINUOUS
10
5.8278325196
20
15.2679917498
0
VERTEX
8
_CURVE
62
7
6
CONTINUOUS
10
5.8235421241
20
15.1401920183
0
VERTEX
8
_CURVE
62
7
6
CONTINUOUS
10
5.8211186759
20
15.0123431181
0
VERTEX
8
_CURVE
62
7
6
CONTINUOUS
10
5.8205410712
20
14.8844724669
0
VERTEX
8
_CURVE
62
7
6
CONTINUOUS
10
5.8218498136
20
14.7529623969
0
VERTEX
8
_CURVE
62
7
6
CONTINUOUS
10
5.8250629510
20
14.6214848900
0
VERTEX
8
_CURVE
62
7
6
CONTINUOUS
10
5.8301546245
20
14.4900665154
0
VERTEX
8
_CURVE
62
7
6
CONTINUOUS
10
5.8372935656
20
14.3555185693
0
VERTEX
8
_CURVE
62
7
6
CONTINUOUS
10
5.8463582985
20
14.2210866196
0
VERTEX
8
_CURVE
62
7
6
CONTINUOUS
10
5.8573300875
20
14.0867967126
0
VERTEX
8
_CURVE
62
7
6
CONTINUOUS
10
5.8704058377
20
13.9505974089
0
VERTEX
8
_CURVE
62
7
6
CONTINUOUS
10
5.8854185988
20
13.8145979874
0
VERTEX
8
_CURVE
62
7
6
CONTINUOUS
10
5.9023580715
20
13.6788249900
0
VERTEX
8
_CURVE
62
7
6
CONTINUOUS
10
5.9212801721
20
13.5428620148
0
VERTEX
8
_CURVE
62
7
6
CONTINUOUS
10
5.9421290794
20
13.4071812077
0
VERTEX
8
_CURVE
62
7
6
CONTINUOUS
10
5.9649026238
20
13.2718101125
0
VERTEX
8
_CURVE
62
7
6
CONTINUOUS
10
5.9893942431
20
13.1378578943
0
VERTEX
8
_CURVE
62
7
6
CONTINUOUS
10
6.0157830370
20
13.0042665891
0
VERTEX
8
_CURVE
62
7
6
CONTINUOUS
10
6.0440744168
20
12.8710652409
0
VERTEX
8
_CURVE
62
7
6
CONTINUOUS
10
6.0737386859
20
12.7405663712
0
VERTEX
8
_CURVE
62
7
6
CONTINUOUS
10
6.1052576920
20
12.6105031725
0
VERTEX
8
_CURVE
62
7
6
CONTINUOUS
10
6.1386433234
20
12.4809066217
0
VERTEX
8
_CURVE
62
7
6
CONTINUOUS
10
6.1729532276
20
12.3552099924
0
VERTEX
8
_CURVE
62
7
6
CONTINUOUS
10
6.2090606013
20
12.2300180613
0
VERTEX
8
_CURVE
62
7
6
CONTINUOUS
10
6.2469822771
20
12.1053638297
0
VERTEX
8
_CURVE
62
7
6
CONTINUOUS
10
6.2853315931
20
11.9855588281
0
VERTEX
8
_CURVE
62
7
6
CONTINUOUS
10
6.3254078725
20
11.8663206385
0
VERTEX
8
_CURVE
62
7
6
CONTINUOUS
10
6.3672313029
20
11.7476841305
0
VERTEX
8
_CURVE
62
7
6
CONTINUOUS
10
6.4091274039
20
11.6341740211
0
VERTEX
8
_CURVE
62
7
6
CONTINUOUS
10
6.4526808393
20
11.5212896881
0
VERTEX
8
_CURVE
62
7
6
CONTINUOUS
10
6.4979138592
20
11.4090679915
0
VERTEX
8
_CURVE
62
7
6
CONTINUOUS
10
6.5427961052
20
11.3023265048
0
VERTEX
8
_CURVE
62
7
6
CONTINUOUS
10
6.5892596895
20
11.1962640653
0
VERTEX
8
_CURVE
62
7
6
CONTINUOUS
10
6.6373273011
20
11.0909190766
0
VERTEX
8
_CURVE
62
7
6
CONTINUOUS
10
6.6843758311
20
10.9917952395
0
VERTEX
8
_CURVE
62
7
6
CONTINUOUS
10
6.7329070164
20
10.8933891703
0
VERTEX
8
_CURVE
62
7
6
CONTINUOUS
10
6.7829429020
20
10.7957399641
0
VERTEX
8
_CURVE
62
7
6
CONTINUOUS
10
6.8316692583
20
10.7041198994
0
VERTEX
8
_CURVE
62
7
6
CONTINUOUS
10
6.8817801979
20
10.6132499363
0
VERTEX
8
_CURVE
62
7
6
CONTINUOUS
10
6.9332946911
20
10.5231682239
0
VERTEX
8
_CURVE
62
7
6
CONTINUOUS
10
6.9839511973
20
10.4376940755
0
VERTEX
8
_CURVE
62
7
6
CONTINUOUS
10
7.0359328196
20
10.3530196664
0
VERTEX
8
_CURVE
62
7
6
CONTINUOUS
10
7.0892606090
20
10.2691871535
0
VERTEX
8
_CURVE
62
7
6
CONTINUOUS
10
7.1422735468
20
10.1887376079
0
VERTEX
8
_CURVE
62
7
6
CONTINUOUS
10
7.1965674549
20
10.1091466549
0
VERTEX
8
_CURVE
62
7
6
CONTINUOUS
10
7.2521377107
20
10.0304416133
0
VERTEX
8
_CURVE
62
7
6
CONTINUOUS
10
7.3077794783
20
9.9542618949
0
VERTEX
8
_CURVE
62
7
6
CONTINUOUS
10
7.3646263265
20
9.8789773671
0
VERTEX
8
_CURVE
62
7
6
CONTINUOUS
10
7.4226641097
20
9.8046076893
0
VERTEX
8
_CURVE
62
7
6
CONTINUOUS
10
7.4811191785
20
9.7320993966
0
VERTEX
8
_CURVE
62
7
6
CONTINUOUS
10
7.5407085124
20
9.6605199238
0
VERTEX
8
_CURVE
62
7
6
CONTINUOUS
10
7.6014192994
20
9.5898871760
0
VERTEX
8
_CURVE
62
7
6
CONTINUOUS
10
7.6629829482
20
9.5205020785
0
VERTEX
8
_CURVE
62
7
6
CONTINUOUS
10
7.7256277665
20
9.4520935972
0
VERTEX
8
_CURVE
62
7
6
CONTINUOUS
10
7.7893353234
20
9.3846815846
0
SEQEND
0
POLYLINE
8
_CURVE
62
7
6
CONTINUOUS
66
1
70
0
0
VERTEX
8
_CURVE
62
7
6
CONTINUOUS
10
21.9807042620
20
25.1224292915
0
VERTEX
8
_CURVE
62
7
6
CONTINUOUS
10
21.7088495610
20
25.1201461772
0
VERTEX
8
_CURVE
62
7
6
CONTINUOUS
10
21.4368505934
20
25.1160457696
0
VERTEX
8
_CURVE
62
7
6
CONTINUOUS
10
21.1647362640
20
25.1100803588
0
VERTEX
8
_CURVE
62
7
6
CONTINUOUS
10
20.8925354780
20
25.1022022350
0
VERTEX
8
_CURVE
62
7
6
CONTINUOUS
10
20.6202771404
20
25.0923636884
0
VERTEX
8
_CURVE
62
7
6
CONTINUOUS
10
20.3479901562
20
25.0805170090
0
VERTEX
8
_CURVE
62
7
6
CONTINUOUS
10
20.0757034305
20
25.0666144872
0
VERTEX
8
_CURVE
62
7
6
CONTINUOUS
10
19.8034458684
20
25.0506084129
0
VERTEX
8
_CURVE
62
7
6
CONTINUOUS
10
19.5312463748
20
25.0324510765
0
VERTEX
8
_CURVE
62
7
6
CONTINUOUS
10
19.2591338549
20
25.0120947680
0
VERTEX
8
_CURVE
62
7
6
CONTINUOUS
10
18.9871372137
20
24.9894917776
0
VERTEX
8
_CURVE
62
7
6
CONTINUOUS
10
18.7721033442
20
24.9699912788
0
VERTEX
8
_CURVE
62
7
6
CONTINUOUS
10
18.5571740987
20
24.9490316234
0
VERTEX
8
_CURVE
62
7
6
CONTINUOUS
10
18.3423635246
20
24.9265890198
0
VERTEX
8
_CURVE
62
7
6
CONTINUOUS
10
18.1276856696
20
24.9026396766
0
VERTEX
8
_CURVE
62
7
6
CONTINUOUS
10
17.9206876037
20
24.8780805445
0
VERTEX
8
_CURVE
62
7
6
CONTINUOUS
10
17.7138383345
20
24.8520722689
0
VERTEX
8
_CURVE
62
7
6
CONTINUOUS
10
17.5071500218
20
24.8245906013
0
VERTEX
8
_CURVE
62
7
6
CONTINUOUS
10
17.3006348251
20
24.7956112930
0
VERTEX
8
_CURVE
62
7
6
CONTINUOUS
10
17.1013694104
20
24.7661798114
0
VERTEX
8
_CURVE
62
7
6
CONTINUOUS
10
16.9022907758
20
24.7353044116
0
VERTEX
8
_CURVE
62
7
6
CONTINUOUS
10
16.7034129004
20
24.7029605949
0
VERTEX
8
_CURVE
62
7
6
CONTINUOUS
10
16.5047497632
20
24.6691238624
0
VERTEX
8
_CURVE
62
7
6
CONTINUOUS
10
16.3132645504
20
24.6350339439
0
VERTEX
8
_CURVE
62
7
6
CONTINUOUS
10
16.1220072998
20
24.5995063850
0
VERTEX
8
_CURVE
62
7
6
CONTINUOUS
10
15.9309930032
20
24.5625164873
0
VERTEX
8
_CURVE
62
7
6
CONTINUOUS
10
15.7402366525
20
24.5240395523
0
VERTEX
8
_CURVE
62
7
6
CONTINUOUS
10
15.5566573239
20
24.4855274767
0
VERTEX
8
_CURVE
62
7
6
CONTINUOUS
10
15.3733477154
20
24.4455865942
0
VERTEX
8
_CURVE
62
7
6
CONTINUOUS
10
15.1903240485
20
24.4041921653
0
VERTEX
8
_CURVE
62
7
6
CONTINUOUS
10
15.0076025448
20
24.3613194505
0
VERTEX
8
_CURVE
62
7
6
CONTINUOUS
10
14.8319055531
20
24.3186029962
0
VERTEX
8
_CURVE
62
7
6
CONTINUOUS
10
14.6565215374
20
24.2744674568
0
VERTEX
8
_CURVE
62
7
6
CONTINUOUS
10
14.4814680879
20
24.2288882011
0
VERTEX
8
_CURVE
62
7
6
CONTINUOUS
10
14.3067627946
20
24.1818405980
0
VERTEX
8
_CURVE
62
7
6
CONTINUOUS
10
14.1389742804
20
24.1351526686
0
VERTEX
8
_CURVE
62
7
6
CONTINUOUS
10
13.9715431869
20
24.0870576157
0
VERTEX
8
_CURVE
62
7
6
CONTINUOUS
10
13.8044881844
20
24.0375310973
0
VERTEX
8
_CURVE
62
7
6
CONTINUOUS
10
13.6378279430
20
23.9865487709
0
VERTEX
8
_CURVE
62
7
6
CONTINUOUS
10
13.4778252252
20
23.9360856482
0
VERTEX
8
_CURVE
62
7
6
CONTINUOUS
10
13.3182260419
20
23.8842275892
0
VERTEX
8
_CURVE
62
7
6
CONTINUOUS
10
13.1590510029
20
23.8309505888
0
VERTEX
8
_CURVE
62
7
6
CONTINUOUS
10
13.0003207180
20
23.7762306419
0
VERTEX
8
_CURVE
62
7
6
CONTINUOUS
10
12.8483106910
20
23.7222955438
0
VERTEX
8
_CURVE
62
7
6
CONTINUOUS
10
12.6967515647
20
23.6669859981
0
VERTEX
8
_CURVE
62
7
6
CONTINUOUS
10
12.5456649809
20
23.6102806955
0
VERTEX
8
_CURVE
62
7
6
CONTINUOUS
10
12.3950725815
20
23.5521583267
0
VERTEX
8
_CURVE
62
7
6
CONTINUOUS
10
12.2516081996
20
23.4952565403
0
VERTEX
8
_CURVE
62
7
6
CONTINUOUS
10
12.1086366951
20
23.4370212857
0
VERTEX
8
_CURVE
62
7
6
CONTINUOUS
10
11.9661796420
20
23.3774333197
0
VERTEX
8
_CURVE
62
7
6
CONTINUOUS
10
11.8242586137
20
23.3164733990
0
VERTEX
8
_CURVE
62
7
6
CONTINUOUS
10
11.6897775647
20
23.2571959605
0
VERTEX
8
_CURVE
62
7
6
CONTINUOUS
10
11.5558226932
20
23.1966424714
0
VERTEX
8
_CURVE
62
7
6
CONTINUOUS
10
11.4224156461
20
23.1347956749
0
VERTEX
8
_CURVE
62
7
6
CONTINUOUS
10
11.2895780705
20
23.0716383144
0
VERTEX
8
_CURVE
62
7
6
CONTINUOUS
10
11.1638436575
20
23.0103665612
0
VERTEX
8
_CURVE
62
7
6
CONTINUOUS
10
11.0386649607
20
22.9478798085
0
VERTEX
8
_CURVE
62
7
6
CONTINUOUS
10
10.9140634764
20
22.8841630673
0
VERTEX
8
_CURVE
62
7
6
CONTINUOUS
10
10.7900607012
20
22.8192013484
0
VERTEX
8
_CURVE
62
7
6
CONTINUOUS
10
10.6725486248
20
22.7561668126
0
VERTEX
8
_CURVE
62
7
6
CONTINUOUS
10
10.5556201969
20
22.6919767980
0
VERTEX
8
_CURVE
62
7
6
CONTINUOUS
10
10.4392966085
20
22.6266184758
0
VERTEX
8
_CURVE
62
7
6
CONTINUOUS
10
10.3235990509
20
22.5600790172
0
VERTEX
8
_CURVE
62
7
6
CONTINUOUS
10
10.1773002409
20
22.4736718039
0
VERTEX
8
_CURVE
62
7
6
CONTINUOUS
10
10.0320990111
20
22.3853055227
0
VERTEX
8
_CURVE
62
7
6
CONTINUOUS
10
9.8880447340
20
22.2949547916
0
VERTEX
8
_CURVE
62
7
6
CONTINUOUS
10
9.7513829642
20
22.2066586671
0
VERTEX
8
_CURVE
62
7
6
CONTINUOUS
10
9.6158638470
20
22.1165034451
0
VERTEX
8
_CURVE
62
7
6
CONTINUOUS
10
9.4815356323
20
22.0244686303
0
VERTEX
8
_CURVE
62
7
6
CONTINUOUS
10
9.3539204699
20
21.9344527536
0
VERTEX
8
_CURVE
62
7
6
CONTINUOUS
10
9.2274910892
20
21.8426747904
0
VERTEX
8
_CURVE
62
7
6
CONTINUOUS
10
9.1022943913
20
21.7491189881
0
VERTEX
8
_CURVE
62
7
6
CONTINUOUS
10
8.9831773913
20
21.6575156927
0
VERTEX
8
_CURVE
62
7
6
CONTINUOUS
10
8.8652876168
20
21.5642445507
0
VERTEX
8
_CURVE
62
7
6
CONTINUOUS
10
8.7486703968
20
21.4692943787
0
VERTEX
8
_CURVE
62
7
6
CONTINUOUS
10
8.6375462582
20
21.3762032308
0
VERTEX
8
_CURVE
62
7
6
CONTINUOUS
10
8.5276893169
20
21.2815359280
0
VERTEX
8
_CURVE
62
7
6
CONTINUOUS
10
8.4191431139
20
21.1852856801
0
VERTEX
8
_CURVE
62
7
6
CONTINUOUS
10
8.3155517562
20
21.0907790140
0
VERTEX
8
_CURVE
62
7
6
CONTINUOUS
10
8.2132662167
20
20.9947856635
0
VERTEX
8
_CURVE
62
7
6
CONTINUOUS
10
8.1123280283
20
20.8973030388
0
VERTEX
8
_CURVE
62
7
6
CONTINUOUS
10
8.0158475071
20
20.8014236189
0
VERTEX
8
_CURVE
62
7
6
CONTINUOUS
10
7.9207103087
20
20.7041449179
0
VERTEX
8
_CURVE
62
7
6
CONTINUOUS
10
7.8269557506
20
20.6054683464
0
VERTEX
8
_CURVE
62
7
6
CONTINUOUS
10
7.7372037721
20
20.5082333522
0
VERTEX
8
_CURVE
62
7
6
CONTINUOUS
10
7.6488316768
20
20.4096846403
0
VERTEX
8
_CURVE
62
7
6
CONTINUOUS
10
7.5618763540
20
20.3098274054
0
VERTEX
8
_CURVE
62
7
6
CONTINUOUS
10
7.4785132151
20
20.2112351298
0
VERTEX
8
_CURVE
62
7
6
CONTINUOUS
10
7.3965655955
20
20.1114131871
0
VERTEX
8
_CURVE
62
7
6
CONTINUOUS
10
7.3160677617
20
20.0103703182
0
VERTEX
8
_CURVE
62
7
6
CONTINUOUS
10
7.2387871934
20
19.9103932333
0
VERTEX
8
_CURVE
62
7
6
CONTINUOUS
10
7.1629571414
20
19.8092691210
0
VERTEX
8
_CURVE
62
7
6
CONTINUOUS
10
7.0886090653
20
19.7070100504
0
VERTEX
8
_CURVE
62
7
6
CONTINUOUS
10
7.0171438825
20
19.6056035193
0
VERTEX
8
_CURVE
62
7
6
CONTINUOUS
10
6.9471636148
20
19.5031315299
0
VERTEX
8
_CURVE
62
7
6
CONTINUOUS
10
6.8786967106
20
19.3996092458
0
VERTEX
8
_CURVE
62
7
6
CONTINUOUS
10
6.8128140033
20
19.2967082934
0
VERTEX
8
_CURVE
62
7
6
CONTINUOUS
10
6.7484501314
20
19.1928225611
0
VERTEX
8
_CURVE
62
7
6
CONTINUOUS
10
6.6856303368
20
19.0879700280
0
VERTEX
8
_CURVE
62
7
6
CONTINUOUS
10
6.6251330674
20
18.9834935821
0
VERTEX
8
_CURVE
62
7
6
CONTINUOUS
10
6.5661881366
20
18.8781123291
0
VERTEX
8
_CURVE
62
7
6
CONTINUOUS
10
6.5088174371
20
18.7718467806
0
VERTEX
8
_CURVE
62
7
6
CONTINUOUS
10
6.4535438643
20
18.6656989784
0
VERTEX
8
_CURVE
62
7
6
CONTINUOUS
10
6.3998558231
20
18.5587258738
0
VERTEX
8
_CURVE
62
7
6
CONTINUOUS
10
6.3477717073
20
18.4509502615
0
VERTEX
8
_CURVE
62
7
6
CONTINUOUS
10
6.2975930676
20
18.3430178386
0
VERTEX
8
_CURVE
62
7
6
CONTINUOUS
10
6.2490329821
20
18.2343393917
0
VERTEX
8
_CURVE
62
7
6
CONTINUOUS
10
6.2021061738
20
18.1249397237
0
VERTEX
8
_CURVE
62
7
6
CONTINUOUS
10
6.1569274774
20
18.0150942023
0
VERTEX
8
_CURVE
62
7
6
CONTINUOUS
10
6.1134002250
20
17.9045819068
0
VERTEX
8
_CURVE
62
7
6
CONTINUOUS
10
6.0715353207
20
17.7934293283
0
VERTEX
8
_CURVE
62
7
6
CONTINUOUS
10
6.0312957788
20
17.6815286638
0
VERTEX
8
_CURVE
62
7
6
CONTINUOUS
10
5.9927405007
20
17.5690406047
0
VERTEX
8
_CURVE
62
7
6
CONTINUOUS
10
5.9558764788
20
17.4559930222
0
VERTEX
8
_CURVE
62
7
6
CONTINUOUS
10
5.9205513231
20
17.3418873747
0
VERTEX
8
_CURVE
62
7
6
CONTINUOUS
10
5.8869431365
20
17.2272741175
0
VERTEX
8
_CURVE
62
7
6
CONTINUOUS
10
5.8550548930
20
17.1121822226
0
VERTEX
8
_CURVE
62
7
6
CONTINUOUS
10
5.8246499608
20
16.9956966796
0
VERTEX
8
_CURVE
62
7
6
CONTINUOUS
10
5.7959949964
20
16.8787838782
0
VERTEX
8
_CURVE
62
7
6
CONTINUOUS
10
5.7690888356
20
16.7614735897
0
VERTEX
8
_CURVE
62
7
6
CONTINUOUS
10
5.7436452179
20
16.6424147451
0
VERTEX
8
_CURVE
62
7
6
CONTINUOUS
10
5.7199850309
20
16.5230097610
0
VERTEX
8
_CURVE
62
7
6
CONTINUOUS
10
5.6981028767
20
16.4032888803
0
VERTEX
8
_CURVE
62
7
6
CONTINUOUS
10
5.6777046988
20
16.2814811888
0
VERTEX
8
_CURVE
62
7
6
CONTINUOUS
10
5.6591230365
20
16.1594095751
0
VERTEX
8
_CURVE
62
7
6
CONTINUOUS
10
5.6423482281
20
16.0371043989
0
VERTEX
8
_CURVE
62
7
6
CONTINUOUS
10
5.6271137467
20
15.9123623419
0
VERTEX
8
_CURVE
62
7
6
CONTINUOUS
10
5.6137285451
20
15.7874398794
0
VERTEX
8
_CURVE
62
7
6
CONTINUOUS
10
5.6021786372
20
15.6623672794
0
VERTEX
8
_CURVE
62
7
6
CONTINUOUS
10
5.5922547235
20
15.5344035703
0
VERTEX
8
_CURVE
62
7
6
CONTINUOUS
10
5.5842152271
20
15.4063441407
0
VERTEX
8
_CURVE
62
7
6
CONTINUOUS
10
5.5780417801
20
15.2782185024
0
VERTEX
8
_CURVE
62
7
6
CONTINUOUS
10
5.5736281431
20
15.1467478135
0
VERTEX
8
_CURVE
62
7
6
CONTINUOUS
10
5.5711358476
20
15.0152686373
0
VERTEX
8
_CURVE
62
7
6
CONTINUOUS
10
5.5705419460
20
14.8838111021
0
VERTEX
8
_CURVE
62
7
6
CONTINUOUS
10
5.5718868089
20
14.7486592272
0
VERTEX
8
_CURVE
62
7
6
CONTINUOUS
10
5.5751877269
20
14.6135868720
0
VERTEX
8
_CURVE
62
7
6
CONTINUOUS
10
5.5804168627
20
14.4786187931
0
VERTEX
8
_CURVE
62
7
6
CONTINUOUS
10
5.5877462819
20
14.3404783590
0
VERTEX
8
_CURVE
62
7
6
CONTINUOUS
10
5.5970506131
20
14.2024927865
0
VERTEX
8
_CURVE
62
7
6
CONTINUOUS
10
5.6083101733
20
14.0646815071
0
VERTEX
8
_CURVE
62
7
6
CONTINUOUS
10
5.6217266460
20
13.9249327614
0
VERTEX
8
_CURVE
62
7
6
CONTINUOUS
10
5.6371288408
20
13.7854052690
0
VERTEX
8
_CURVE
62
7
6
CONTINUOUS
10
5.6545064692
20
13.6461205068
0
VERTEX
8
_CURVE
62
7
6
CONTINUOUS
10
5.6739172793
20
13.5066456104
0
VERTEX
8
_CURVE
62
7
6
CONTINUOUS
10
5.6953048455
20
13.3674593550
0
VERTEX
8
_CURVE
62
7
6
CONTINUOUS
10
5.7186678954
20
13.2285844424
0
VERTEX
8
_CURVE
62
7
6
CONTINUOUS
10
5.7437955613
20
13.0911533835
0
VERTEX
8
_CURVE
62
7
6
CONTINUOUS
10
5.7708730745
20
12.9540756114
0
VERTEX
8
_CURVE
62
7
6
CONTINUOUS
10
5.7999076018
20
12.8173757033
0
VERTEX
8
_CURVE
62
7
6
CONTINUOUS
10
5.8303570976
20
12.6834224385
0
VERTEX
8
_CURVE
62
7
6
CONTINUOUS
10
5.8627181375
20
12.5498847683
0
VERTEX
8
_CURVE
62
7
6
CONTINUOUS
10
5.8970051520
20
12.4167895872
0
VERTEX
8
_CURVE
62
7
6
CONTINUOUS
10
5.9322522289
20
12.2876596187
0
VERTEX
8
_CURVE
62
7
6
CONTINUOUS
10
5.9693586623
20
12.1590039598
0
VERTEX
8
_CURVE
62
7
6
CONTINUOUS
10
6.0083445053
20
12.0308519925
0
VERTEX
8
_CURVE
62
7
6
CONTINUOUS
10
6.0477861799
20
11.9076344353
0
VERTEX
8
_CURVE
62
7
6
CONTINUOUS
10
6.0890224245
20
11.7849452405
0
VERTEX
8
_CURVE
62
7
6
CONTINUOUS
10
6.1320773461
20
11.6628158997
0
VERTEX
8
_CURVE
62
7
6
CONTINUOUS
10
6.1752292274
20
11.5459036627
0
VERTEX
8
_CURVE
62
7
6
CONTINUOUS
10
6.2201124900
20
11.4295728928
0
VERTEX
8
_CURVE
62
7
6
CONTINUOUS
10
6.2667536321
20
11.3138579637
0
VERTEX
8
_CURVE
62
7
6
CONTINUOUS
10
6.3130609605
20
11.2037271656
0
VERTEX
8
_CURVE
62
7
6
CONTINUOUS
10
6.3610305061
20
11.0942272337
0
VERTEX
8
_CURVE
62
7
6
CONTINUOUS
10
6.4106902384
20
10.9853935261
0
VERTEX
8
_CURVE
62
7
6
CONTINUOUS
10
6.4593315836
20
10.8829143825
0
VERTEX
8
_CURVE
62
7
6
CONTINUOUS
10
6.5095414601
20
10.7811048516
0
VERTEX
8
_CURVE
62
7
6
CONTINUOUS
10
6.5613456860
20
10.6800046027
0
VERTEX
8
_CURVE
62
7
6
CONTINUOUS
10
6.6118311814
20
10.5850763448
0
VERTEX
8
_CURVE
62
7
6
CONTINUOUS
10
6.6637929320
20
10.4908501629
0
VERTEX
8
_CURVE
62
7
6
CONTINUOUS
10
6.7172580175
20
10.3973582256
0
VERTEX
8
_CURVE
62
7
6
CONTINUOUS
10
6.7698818178
20
10.3085652973
0
VERTEX
8
_CURVE
62
7
6
CONTINUOUS
10
6.8239288791
20
10.2205268813
0
VERTEX
8
_CURVE
62
7
6
CONTINUOUS
10
6.8794194902
20
10.1332948989
0
VERTEX
8
_CURVE
62
7
6
CONTINUOUS
10
6.9346202270
20
10.0495260411
0
VERTEX
8
_CURVE
62
7
6
CONTINUOUS
10
6.9911816092
20
9.9666110458
0
VERTEX
8
_CURVE
62
7
6
CONTINUOUS
10
7.0490878366
20
9.8845966662
0
VERTEX
8
_CURVE
62
7
6
CONTINUOUS
10
7.1070740073
20
9.8052068042
0
VERTEX
8
_CURVE
62
7
6
CONTINUOUS
10
7.1663189681
20
9.7267464305
0
VERTEX
8
_CURVE
62
7
6
CONTINUOUS
10
7.2268073292
20
9.6492367734
0
VERTEX
8
_CURVE
62
7
6
CONTINUOUS
10
7.2877322058
20
9.5736650125
0
VERTEX
8
_CURVE
62
7
6
CONTINUOUS
10
7.3498407396
20
9.4990594694
0
VERTEX
8
_CURVE
62
7
6
CONTINUOUS
10
7.4131195827
20
9.4254389571
0
VERTEX
8
_CURVE
62
7
6
CONTINUOUS
10
7.4772887105
20
9.3531173515
0
VERTEX
8
_CURVE
62
7
6
CONTINUOUS
10
7.5425857442
20
9.2818126129
0
VERTEX
8
_CURVE
62
7
6
CONTINUOUS
10
7.6089910628
20
9.2115459508
0
SEQEND
0
POLYLINE
8
_CURVE
62
8
6
HIDDEN
66
1
70
0
0
VERTEX
8
_CURVE
62
8
6
HIDDEN
10
21.0251455339
20
25.9909274170
0
VERTEX
8
_CURVE
62
8
6
HIDDEN
10
20.7808272653
20
25.9833702948
0
VERTEX
8
_CURVE
62
8
6
HIDDEN
10
20.5379858545
20
25.9742854638
0
VERTEX
8
_CURVE
62
8
6
HIDDEN
10
20.2966293471
20
25.9636766387
0
VERTEX
8
_CURVE
62
8
6
HIDDEN
10
20.0567657890
20
25.9515475342
0
VERTEX
8
_CURVE
62
8
6
HIDDEN
10
19.8184032261
20
25.9379018652
0
VERTEX
8
_CURVE
62
8
6
HIDDEN
10
19.5815497042
20
25.9227433464
0
VERTEX
8
_CURVE
62
8
6
HIDDEN
10
19.3462132692
20
25.9060756925
0
VERTEX
8
_CURVE
62
8
6
HIDDEN
10
19.1124019668
20
25.8879026184
0
VERTEX
8
_CURVE
62
8
6
HIDDEN
10
18.8801238429
20
25.8682278388
0
VERTEX
8
_CURVE
62
8
6
HIDDEN
10
18.6493869433
20
25.8470550685
0
VERTEX
8
_CURVE
62
8
6
HIDDEN
10
18.4201993139
20
25.8243880223
0
VERTEX
8
_CURVE
62
8
6
HIDDEN
10
18.1925690005
20
25.8002304148
0
VERTEX
8
_CURVE
62
8
6
HIDDEN
10
17.9665040489
20
25.7745859610
0
VERTEX
8
_CURVE
62
8
6
HIDDEN
10
17.7420125050
20
25.7474583755
0
VERTEX
8
_CURVE
62
8
6
HIDDEN
10
17.5191024145
20
25.7188513731
0
VERTEX
8
_CURVE
62
8
6
HIDDEN
10
17.2977818234
20
25.6887686686
0
VERTEX
8
_CURVE
62
8
6
HIDDEN
10
17.0780587774
20
25.6572139768
0
VERTEX
8
_CURVE
62
8
6
HIDDEN
10
16.8599413224
20
25.6241910125
0
VERTEX
8
_CURVE
62
8
6
HIDDEN
10
16.6434375043
20
25.5897034903
0
VERTEX
8
_CURVE
62
8
6
HIDDEN
10
16.4220058071
20
25.5526318630
0
VERTEX
8
_CURVE
62
8
6
HIDDEN
10
16.2023050947
20
25.5140109829
0
VERTEX
8
_CURVE
62
8
6
HIDDEN
10
15.9843439071
20
25.4738432087
0
VERTEX
8
_CURVE
62
8
6
HIDDEN
10
15.7681307846
20
25.4321308990
0
VERTEX
8
_CURVE
62
8
6
HIDDEN
10
15.5536742671
20
25.3888764125
0
VERTEX
8
_CURVE
62
8
6
HIDDEN
10
15.3409828948
20
25.3440821078
0
VERTEX
8
_CURVE
62
8
6
HIDDEN
10
15.1300652077
20
25.2977503436
0
VERTEX
8
_CURVE
62
8
6
HIDDEN
10
14.9209297460
20
25.2498834784
0
VERTEX
8
_CURVE
62
8
6
HIDDEN
10
14.7135850498
20
25.2004838710
0
VERTEX
8
_CURVE
62
8
6
HIDDEN
10
14.5080396592
20
25.1495538800
0
VERTEX
8
_CURVE
62
8
6
HIDDEN
10
14.3227489554
20
25.1019277718
0
VERTEX
8
_CURVE
62
8
6
HIDDEN
10
14.1389598058
20
25.0530401110
0
VERTEX
8
_CURVE
62
8
6
HIDDEN
10
13.9566796772
20
25.0028921759
0
VERTEX
8
_CURVE
62
8
6
HIDDEN
10
13.7759160366
20
24.9514852443
0
VERTEX
8
_CURVE
62
8
6
HIDDEN
10
13.5966763509
20
24.8988205945
0
VERTEX
8
_CURVE
62
8
6
HIDDEN
10
13.4189680868
20
24.8448995044
0
VERTEX
8
_CURVE
62
8
6
HIDDEN
10
13.2427987113
20
24.7897232521
0
VERTEX
8
_CURVE
62
8
6
HIDDEN
10
13.0681756913
20
24.7332931157
0
VERTEX
8
_CURVE
62
8
6
HIDDEN
10
12.8951064936
20
24.6756103733
0
VERTEX
8
_CURVE
62
8
6
HIDDEN
10
12.7235985851
20
24.6166763029
0
VERTEX
8
_CURVE
62
8
6
HIDDEN
10
12.5536594327
20
24.5564921825
0
VERTEX
8
_CURVE
62
8
6
HIDDEN
10
12.3773183958
20
24.4921028130
0
VERTEX
8
_CURVE
62
8
6
HIDDEN
10
12.2027142478
20
24.4263445304
0
VERTEX
8
_CURVE
62
8
6
HIDDEN
10
12.0298539637
20
24.3592189559
0
VERTEX
8
_CURVE
62
8
6
HIDDEN
10
11.8587445187
20
24.2907277105
0
VERTEX
8
_CURVE
62
8
6
HIDDEN
10
11.6893928879
20
24.2208724156
0
VERTEX
8
_CURVE
62
8
6
HIDDEN
10
11.5218060466
20
24.1496546921
0
VERTEX
8
_CURVE
62
8
6
HIDDEN
10
11.3559909698
20
24.0770761613
0
VERTEX
8
_CURVE
62
8
6
HIDDEN
10
11.1919546328
20
24.0031384443
0
VERTEX
8
_CURVE
62
8
6
HIDDEN
10
11.0297040106
20
23.9278431621
0
VERTEX
8
_CURVE
62
8
6
HIDDEN
10
10.8692460784
20
23.8511919360
0
VERTEX
8
_CURVE
62
8
6
HIDDEN
10
10.7105878115
20
23.7731863871
0
VERTEX
8
_CURVE
62
8
6
HIDDEN
10
10.5537361849
20
23.6938281366
0
VERTEX
8
_CURVE
62
8
6
HIDDEN
10
10.3986981738
20
23.6131188055
0
VERTEX
8
_CURVE
62
8
6
HIDDEN
10
10.2454807533
20
23.5310600150
0
VERTEX
8
_CURVE
62
8
6
HIDDEN
10
10.0940908987
20
23.4476533863
0
VERTEX
8
_CURVE
62
8
6
HIDDEN
10
9.9445355850
20
23.3629005404
0
VERTEX
8
_CURVE
62
8
6
HIDDEN
10
9.7968217875
20
23.2768030986
0
VERTEX
8
_CURVE
62
8
6
HIDDEN
10
9.6509564813
20
23.1893626820
0
VERTEX
8
_CURVE
62
8
6
HIDDEN
10
9.5069466415
20
23.1005809117
0
VERTEX
8
_CURVE
62
8
6
HIDDEN
10
9.3647992433
20
23.0104594088
0
VERTEX
8
_CURVE
62
8
6
HIDDEN
10
9.2245212618
20
22.9189997946
0
VERTEX
8
_CURVE
62
8
6
HIDDEN
10
9.0923704873
20
22.8304507925
0
VERTEX
8
_CURVE
62
8
6
HIDDEN
10
8.9619393018
20
22.7406862074
0
VERTEX
8
_CURVE
62
8
6
HIDDEN
10
8.8332376067
20
22.6497082084
0
VERTEX
8
_CURVE
62
8
6
HIDDEN
10
8.7062753034
20
22.5575189649
0
VERTEX
8
_CURVE
62
8
6
HIDDEN
10
8.5810622932
20
22.4641206464
0
VERTEX
8
_CURVE
62
8
6
HIDDEN
10
8.4576084775
20
22.3695154220
0
VERTEX
8
_CURVE
62
8
6
HIDDEN
10
8.3359237576
20
22.2737054613
0
VERTEX
8
_CURVE
62
8
6
HIDDEN
10
8.2160180349
20
22.1766929334
0
VERTEX
8
_CURVE
62
8
6
HIDDEN
10
8.0979012107
20
22.0784800079
0
VERTEX
8
_CURVE
62
8
6
HIDDEN
10
7.9815831865
20
21.9790688539
0
VERTEX
8
_CURVE
62
8
6
HIDDEN
10
7.8670738636
20
21.8784616409
0
VERTEX
8
_CURVE
62
8
6
HIDDEN
10
7.7543835196
20
21.7766611053
0
VERTEX
8
_CURVE
62
8
6
HIDDEN
10
7.6435239373
20
21.6736722523
0
VERTEX
8
_CURVE
62
8
6
HIDDEN
10
7.5345072758
20
21.5695006541
0
VERTEX
8
_CURVE
62
8
6
HIDDEN
10
7.4273456941
20
21.4641518828
0
VERTEX
8
_CURVE
62
8
6
HIDDEN
10
7.3220513513
20
21.3576315108
0
VERTEX
8
_CURVE
62
8
6
HIDDEN
10
7.2186364064
20
21.2499451103
0
VERTEX
8
_CURVE
62
8
6
HIDDEN
10
7.1171130185
20
21.1410982536
0
VERTEX
8
_CURVE
62
8
6
HIDDEN
10
7.0174933467
20
21.0310965128
0
VERTEX
8
_CURVE
62
8
6
HIDDEN
10
6.9197895499
20
20.9199454601
0
VERTEX
8
_CURVE
62
8
6
HIDDEN
10
6.8240137874
20
20.8076506680
0
VERTEX
8
_CURVE
62
8
6
HIDDEN
10
6.7301782180
20
20.6942177085
0
VERTEX
8
_CURVE
62
8
6
HIDDEN
10
6.6382951186
20
20.5796530146
0
VERTEX
8
_CURVE
62
8
6
HIDDEN
10
6.5483772361
20
20.4639664617
0
VERTEX
8
_CURVE
62
8
6
HIDDEN
10
6.4604374352
20
20.3471687862
0
VERTEX
8
_CURVE
62
8
6
HIDDEN
10
6.3744885806
20
20.2292707241
0
VERTEX
8
_CURVE
62
8
6
HIDDEN
10
6.2905435369
20
20.1102830118
0
VERTEX
8
_CURVE
62
8
6
HIDDEN
10
6.2086151689
20
19.9902163852
0
VERTEX
8
_CURVE
62
8
6
HIDDEN
10
6.1287163412
20
19.8690815807
0
VERTEX
8
_CURVE
62
8
6
HIDDEN
10
6.0508599185
20
19.7468893344
0
VERTEX
8
_CURVE
62
8
6
HIDDEN
10
5.9750587654
20
19.6236503826
0
VERTEX
8
_CURVE
62
8
6
HIDDEN
10
5.9013257466
20
19.4993754613
0
VERTEX
8
_CURVE
62
8
6
HIDDEN
10
5.8296737267
20
19.3740753068
0
VERTEX
8
_CURVE
62
8
6
HIDDEN
10
5.7601150454
20
19.2477615022
0
VERTEX
8
_CURVE
62
8
6
HIDDEN
10
5.6926599417
20
19.1204490180
0
VERTEX
8
_CURVE
62
8
6
HIDDEN
10
5.6273181293
20
18.9921536717
0
VERTEX
8
_CURVE
62
8
6
HIDDEN
10
5.5640993222
20
18.8628912808
0
VERTEX
8
_CURVE
62
8
6
HIDDEN
10
5.5030132343
20
18.7326776628
0
VERTEX
8
_CURVE
62
8
6
HIDDEN
10
5.4440695795
20
18.6015286351
0
VERTEX
8
_CURVE
62
8
6
HIDDEN
10
5.3872780717
20
18.4694600152
0
VERTEX
8
_CURVE
62
8
6
HIDDEN
10
5.3326484246
20
18.3364876205
0
VERTEX
8
_CURVE
62
8
6
HIDDEN
10
5.2801903523
20
18.2026272686
0
VERTEX
8
_CURVE
62
8
6
HIDDEN
10
5.2299135686
20
18.0678947769
0
VERTEX
8
_CURVE
62
8
6
HIDDEN
10
5.1818277874
20
17.9323059629
0
VERTEX
8
_CURVE
62
8
6
HIDDEN
10
5.1359417980
20
17.7958768110
0
VERTEX
8
_CURVE
62
8
6
HIDDEN
10
5.0922606918
20
17.6586239734
0
VERTEX
8
_CURVE
62
8
6
HIDDEN
10
5.0507886356
20
17.5205642694
0
VERTEX
8
_CURVE
62
8
6
HIDDEN
10
5.0115297962
20
17.3817145183
0
VERTEX
8
_CURVE
62
8
6
HIDDEN
10
4.9744883404
20
17.2420915392
0
VERTEX
8
_CURVE
62
8
6
HIDDEN
10
4.9396684350
20
17.1017121514
0
VERTEX
8
_CURVE
62
8
6
HIDDEN
10
4.9070742469
20
16.9605931741
0
VERTEX
8
_CURVE
62
8
6
HIDDEN
10
4.8767099427
20
16.8187514266
0
VERTEX
8
_CURVE
62
8
6
HIDDEN
10
4.8485796894
20
16.6762037279
0
VERTEX
8
_CURVE
62
8
6
HIDDEN
10
4.8226876537
20
16.5329668975
0
VERTEX
8
_CURVE
62
8
6
HIDDEN
10
4.7990380025
20
16.3890577545
0
VERTEX
8
_CURVE
62
8
6
HIDDEN
10
4.7776339511
20
16.2444929745
0
VERTEX
8
_CURVE
62
8
6
HIDDEN
10
4.7584749090
20
16.0992886583
0
VERTEX
8
_CURVE
62
8
6
HIDDEN
10
4.7415593344
20
15.9534607633
0
VERTEX
8
_CURVE
62
8
6
HIDDEN
10
4.7268856853
20
15.8070252467
0
VERTEX
8
_CURVE
62
8
6
HIDDEN
10
4.7144524199
20
15.6599980658
0
VERTEX
8
_CURVE
62
8
6
HIDDEN
10
4.7042579963
20
15.5123951777
0
VERTEX
8
_CURVE
62
8
6
HIDDEN
10
4.6963008725
20
15.3642325398
0
VERTEX
8
_CURVE
62
8
6
HIDDEN
10
4.6905795066
20
15.2155261093
0
VERTEX
8
_CURVE
62
8
6
HIDDEN
10
4.6870923568
20
15.0662918434
0
VERTEX
8
_CURVE
62
8
6
HIDDEN
10
4.6858378812
20
14.9165456995
0
VERTEX
8
_CURVE
62
8
6
HIDDEN
10
4.6868145378
20
14.7663036347
0
VERTEX
8
_CURVE
62
8
6
HIDDEN
10
4.6899704789
20
14.6173371975
0
VERTEX
8
_CURVE
62
8
6
HIDDEN
10
4.6953006726
20
14.4679612343
0
VERTEX
8
_CURVE
62
8
6
HIDDEN
10
4.7028011258
20
14.3182351298
0
VERTEX
8
_CURVE
62
8
6
HIDDEN
10
4.7124678451
20
14.1682182686
0
VERTEX
8
_CURVE
62
8
6
HIDDEN
10
4.7242968375
20
14.0179700354
0
VERTEX
8
_CURVE
62
8
6
HIDDEN
10
4.7382841098
20
13.8675498149
0
VERTEX
8
_CURVE
62
8
6
HIDDEN
10
4.7544256688
20
13.7170169917
0
VERTEX
8
_CURVE
62
8
6
HIDDEN
10
4.7727175213
20
13.5664309505
0
VERTEX
8
_CURVE
62
8
6
HIDDEN
10
4.7931556742
20
13.4158510760
0
VERTEX
8
_CURVE
62
8
6
HIDDEN
10
4.8157378963
20
13.2653366928
0
VERTEX
8
_CURVE
62
8
6
HIDDEN
10
4.8404690048
20
13.1149468864
0
VERTEX
8
_CURVE
62
8
6
HIDDEN
10
4.8673555786
20
12.9647406822
0
VERTEX
8
_CURVE
62
8
6
HIDDEN
10
4.8964041968
20
12.8147771055
0
VERTEX
8
_CURVE
62
8
6
HIDDEN
10
4.9276214387
20
12.6651151817
0
VERTEX
8
_CURVE
62
8
6
HIDDEN
10
4.9610138831
20
12.5158139364
0
VERTEX
8
_CURVE
62
8
6
HIDDEN
10
4.9965881094
20
12.3669323948
0
VERTEX
8
_CURVE
62
8
6
HIDDEN
10
5.0343506965
20
12.2185295825
0
VERTEX
8
_CURVE
62
8
6
HIDDEN
10
5.0743082235
20
12.0706645248
0
VERTEX
8
_CURVE
62
8
6
HIDDEN
10
5.1121533285
20
11.9380952601
0
VERTEX
8
_CURVE
62
8
6
HIDDEN
10
5.1517937763
20
11.8060567518
0
VERTEX
8
_CURVE
62
8
6
HIDDEN
10
5.1932416792
20
11.6745963644
0
VERTEX
8
_CURVE
62
8
6
HIDDEN
10
5.2365091496
20
11.5437614626
0
VERTEX
8
_CURVE
62
8
6
HIDDEN
10
5.2816082998
20
11.4135994109
0
VERTEX
8
_CURVE
62
8
6
HIDDEN
10
5.3285512423
20
11.2841575738
0
VERTEX
8
_CURVE
62
8
6
HIDDEN
10
5.3773500893
20
11.1554833159
0
VERTEX
8
_CURVE
62
8
6
HIDDEN
10
5.4280169532
20
11.0276240018
0
VERTEX
8
_CURVE
62
8
6
HIDDEN
10
5.4805639465
20
10.9006269961
0
VERTEX
8
_CURVE
62
8
6
HIDDEN
10
5.5350031814
20
10.7745396632
0
VERTEX
8
_CURVE
62
8
6
HIDDEN
10
5.5913493068
20
10.6494084870
0
VERTEX
8
_CURVE
62
8
6
HIDDEN
10
5.6496271178
20
10.5252764277
0
VERTEX
8
_CURVE
62
8
6
HIDDEN
10
5.7098639459
20
10.4021855650
0
VERTEX
8
_CURVE
62
8
6
HIDDEN
10
5.7720871226
20
10.2801779782
0
VERTEX
8
_CURVE
62
8
6
HIDDEN
10
5.8363239795
20
10.1592957470
0
VERTEX
8
_CURVE
62
8
6
HIDDEN
10
5.8914100721
20
10.0594556440
0
VERTEX
8
_CURVE
62
8
6
HIDDEN
10
5.9479139435
20
9.9604811203
0
VERTEX
8
_CURVE
62
8
6
HIDDEN
10
6.0058360034
20
9.8624270366
0
VERTEX
8
_CURVE
62
8
6
HIDDEN
10
6.0651766616
20
9.7653482535
0
VERTEX
8
_CURVE
62
8
6
HIDDEN
10
6.1259363276
20
9.6692996316
0
VERTEX
8
_CURVE
62
8
6
HIDDEN
10
6.1881154110
20
9.5743360313
0
VERTEX
8
_CURVE
62
8
6
HIDDEN
10
6.2517009483
20
9.4805186576
0
VERTEX
8
_CURVE
62
8
6
HIDDEN
10
6.3166264832
20
9.3879340916
0
VERTEX
8
_CURVE
62
8
6
HIDDEN
10
6.3828121861
20
9.2966752589
0
VERTEX
8
_CURVE
62
8
6
HIDDEN
10
6.4501899104
20
9.2068170156
0
VERTEX
8
_CURVE
62
8
6
HIDDEN
10
6.5187382419
20
9.1183619404
0
VERTEX
8
_CURVE
62
8
6
HIDDEN
10
6.5884474493
20
9.0312945431
0
VERTEX
8
_CURVE
62
8
6
HIDDEN
10
6.6593052561
20
8.9456029506
0
VERTEX
8
_CURVE
62
8
6
HIDDEN
10
6.7312892038
20
8.8612897609
0
VERTEX
8
_CURVE
62
8
6
HIDDEN
10
6.8043742886
20
8.7783611892
0
VERTEX
8
_CURVE
62
8
6
HIDDEN
10
6.8785355064
20
8.6968234511
0
VERTEX
8
_CURVE
62
8
6
HIDDEN
10
6.9537478536
20
8.6166827619
0
VERTEX
8
_CURVE
62
8
6
HIDDEN
10
7.0299863262
20
8.5379453371
0
VERTEX
8
_CURVE
62
8
6
HIDDEN
10
7.1137777505
20
8.4541671248
0
VERTEX
8
_CURVE
62
8
6
HIDDEN
10
7.1987169883
20
8.3720480893
0
VERTEX
8
_CURVE
62
8
6
HIDDEN
10
7.2847749645
20
8.2915904649
0
SEQEND
0
LINE
8
_CURVE
62
2
6
CENTER
10
17.8557042620
20
27.1220550936
11
18.1057042620
21
27.1220550936
0
LINE
8
_CURVE
62
2
6
CENTER
10
21.8557042620
20
27.1220550936
11
22.1057042620
21
27.1220550936
0
LINE
8
_CURVE
62
2
6
CENTER
10
25.8557042620
20
27.1220550936
11
26.1057042620
21
27.1220550936
0
LINE
8
_CURVE
62
2
6
CENTER
10
34.8697042620
20
24.2800550936
11
34.8697042620
21
24.0300550936
0
POLYLINE
8
_CURVE
62
7
6
CONTINUOUS
66
1
70
0
0
VERTEX
8
_CURVE
62
7
6
CONTINUOUS
10
36.1720732005
20
9.3846815846
0
VERTEX
8
_CURVE
62
7
6
CONTINUOUS
10
36.2357807574
20
9.4520935972
0
VERTEX
8
_CURVE
62
7
6
CONTINUOUS
10
36.2984255757
20
9.5205020785
0
VERTEX
8
_CURVE
62
7
6
CONTINUOUS
10
36.3599892245
20
9.5898871760
0
VERTEX
8
_CURVE
62
7
6
CONTINUOUS
10
36.4207000115
20
9.6605199238
0
VERTEX
8
_CURVE
62
7
6
CONTINUOUS
10
36.4802893455
20
9.7320993966
0
VERTEX
8
_CURVE
62
7
6
CONTINUOUS
10
36.5387444142
20
9.8046076893
0
VERTEX
8
_CURVE
62
7
6
CONTINUOUS
10
36.5967821974
20
9.8789773671
0
VERTEX
8
_CURVE
62
7
6
CONTINUOUS
10
36.6536290456
20
9.9542618949
0
VERTEX
8
_CURVE
62
7
6
CONTINUOUS
10
36.7092708132
20
10.0304416133
0
VERTEX
8
_CURVE
62
7
6
CONTINUOUS
10
36.7648410690
20
10.1091466549
0
VERTEX
8
_CURVE
62
7
6
CONTINUOUS
10
36.8191349772
20
10.1887376079
0
VERTEX
8
_CURVE
62
7
6
CONTINUOUS
10
36.8721479149
20
10.2691871535
0
VERTEX
8
_CURVE
62
7
6
CONTINUOUS
10
36.9254757043
20
10.3530196664
0
VERTEX
8
_CURVE
62
7
6
CONTINUOUS
10
36.9774573267
20
10.4376940755
0
VERTEX
8
_CURVE
62
7
6
CONTINUOUS
10
37.0281138328
20
10.5231682239
0
VERTEX
8
_CURVE
62
7
6
CONTINUOUS
10
37.0796283260
20
10.6132499363
0
VERTEX
8
_CURVE
62
7
6
CONTINUOUS
10
37.1297392657
20
10.7041198994
0
VERTEX
8
_CURVE
62
7
6
CONTINUOUS
10
37.1784656219
20
10.7957399641
0
VERTEX
8
_CURVE
62
7
6
CONTINUOUS
10
37.2285015076
20
10.8933891703
0
VERTEX
8
_CURVE
62
7
6
CONTINUOUS
10
37.2770326928
20
10.9917952395
0
VERTEX
8
_CURVE
62
7
6
CONTINUOUS
10
37.3240812228
20
11.0909190766
0
VERTEX
8
_CURVE
62
7
6
CONTINUOUS
10
37.3721488344
20
11.1962640653
0
VERTEX
8
_CURVE
62
7
6
CONTINUOUS
10
37.4186124187
20
11.3023265048
0
VERTEX
8
_CURVE
62
7
6
CONTINUOUS
10
37.4634946647
20
11.4090679915
0
VERTEX
8
_CURVE
62
7
6
CONTINUOUS
10
37.5087276846
20
11.5212896881
0
VERTEX
8
_CURVE
62
7
6
CONTINUOUS
10
37.5522811200
20
11.6341740211
0
VERTEX
8
_CURVE
62
7
6
CONTINUOUS
10
37.5941772210
20
11.7476841305
0
VERTEX
8
_CURVE
62
7
6
CONTINUOUS
10
37.6360006514
20
11.8663206385
0
VERTEX
8
_CURVE
62
7
6
CONTINUOUS
10
37.6760769308
20
11.9855588281
0
VERTEX
8
_CURVE
62
7
6
CONTINUOUS
10
37.7144262468
20
12.1053638297
0
VERTEX
8
_CURVE
62
7
6
CONTINUOUS
10
37.7523479226
20
12.2300180613
0
VERTEX
8
_CURVE
62
7
6
CONTINUOUS
10
37.7884552963
20
12.3552099924
0
VERTEX
8
_CURVE
62
7
6
CONTINUOUS
10
37.8227652005
20
12.4809066217
0
VERTEX
8
_CURVE
62
7
6
CONTINUOUS
10
37.8561508319
20
12.6105031725
0
VERTEX
8
_CURVE
62
7
6
CONTINUOUS
10
37.8876698380
20
12.7405663712
0
VERTEX
8
_CURVE
62
7
6
CONTINUOUS
10
37.9173341071
20
12.8710652409
0
VERTEX
8
_CURVE
62
7
6
CONTINUOUS
10
37.9456254869
20
13.0042665891
0
VERTEX
8
_CURVE
62
7
6
CONTINUOUS
10
37.9720142808
20
13.1378578943
0
VERTEX
8
_CURVE
62
7
6
CONTINUOUS
10
37.9965059001
20
13.2718101125
0
VERTEX
8
_CURVE
62
7
6
CONTINUOUS
10
38.0192794445
20
13.4071812077
0
VERTEX
8
_CURVE
62
7
6
CONTINUOUS
10
38.0401283518
20
13.5428620148
0
VERTEX
8
_CURVE
62
7
6
CONTINUOUS
10
38.0590504524
20
13.6788249900
0
VERTEX
8
_CURVE
62
7
6
CONTINUOUS
10
38.0759899251
20
13.8145979874
0
VERTEX
8
_CURVE
62
7
6
CONTINUOUS
10
38.0910026862
20
13.9505974089
0
VERTEX
8
_CURVE
62
7
6
CONTINUOUS
10
38.1040784364
20
14.0867967126
0
VERTEX
8
_CURVE
62
7
6
CONTINUOUS
10
38.1150502254
20
14.2210866196
0
VERTEX
8
_CURVE
62
7
6
CONTINUOUS
10
38.1241149583
20
14.3555185693
0
VERTEX
8
_CURVE
62
7
6
CONTINUOUS
10
38.1312538995
20
14.4900665154
0
VERTEX
8
_CURVE
62
7
6
CONTINUOUS
10
38.1363455729
20
14.6214848900
0
VERTEX
8
_CURVE
62
7
6
CONTINUOUS
10
38.1395587103
20
14.7529623969
0
VERTEX
8
_CURVE
62
7
6
CONTINUOUS
10
38.1408674527
20
14.8844724669
0
VERTEX
8
_CURVE
62
7
6
CONTINUOUS
10
38.1402898480
20
15.0123431181
0
VERTEX
8
_CURVE
62
7
6
CONTINUOUS
10
38.1378663999
20
15.1401920183
0
VERTEX
8
_CURVE
62
7
6
CONTINUOUS
10
38.1335760043
20
15.2679917498
0
VERTEX
8
_CURVE
62
7
6
CONTINUOUS
10
38.1275767828
20
15.3925020887
0
VERTEX
8
_CURVE
62
7
6
CONTINUOUS
10
38.1197664624
20
15.5169118455
0
VERTEX
8
_CURVE
62
7
6
CONTINUOUS
10
38.1101281823
20
15.6411932186
0
VERTEX
8
_CURVE
62
7
6
CONTINUOUS
10
38.0989137754
20
15.7626333309
0
VERTEX
8
_CURVE
62
7
6
CONTINUOUS
10
38.0859207526
20
15.8838959644
0
VERTEX
8
_CURVE
62
7
6
CONTINUOUS
10
38.0711363228
20
16.0049531375
0
VERTEX
8
_CURVE
62
7
6
CONTINUOUS
10
38.0548609513
20
16.1236172217
0
VERTEX
8
_CURVE
62
7
6
CONTINUOUS
10
38.0368365423
20
16.2420281962
0
VERTEX
8
_CURVE
62
7
6
CONTINUOUS
10
38.0170542774
20
16.3601581154
0
VERTEX
8
_CURVE
62
7
6
CONTINUOUS
10
37.9958370713
20
16.4762411823
0
VERTEX
8
_CURVE
62
7
6
CONTINUOUS
10
37.9729000621
20
16.5919966626
0
VERTEX
8
_CURVE
62
7
6
CONTINUOUS
10
37.9482383231
20
16.7073969113
0
VERTEX
8
_CURVE
62
7
6
CONTINUOUS
10
37.9221630711
20
16.8210846094
0
VERTEX
8
_CURVE
62
7
6
CONTINUOUS
10
37.8943969067
20
16.9343711706
0
VERTEX
8
_CURVE
62
7
6
CONTINUOUS
10
37.8649387469
20
17.0472295186
0
VERTEX
8
_CURVE
62
7
6
CONTINUOUS
10
37.8340469046
20
17.1587252833
0
VERTEX
8
_CURVE
62
7
6
CONTINUOUS
10
37.8014919340
20
17.2697468251
0
VERTEX
8
_CURVE
62
7
6
CONTINUOUS
10
37.7672765059
20
17.3802678745
0
VERTEX
8
_CURVE
62
7
6
CONTINUOUS
10
37.7315728602
20
17.4897571058
0
VERTEX
8
_CURVE
62
7
6
CONTINUOUS
10
37.6942329735
20
17.5986991825
0
VERTEX
8
_CURVE
62
7
6
CONTINUOUS
10
37.6552631615
20
17.7070688724
0
VERTEX
8
_CURVE
62
7
6
CONTINUOUS
10
37.6147199698
20
17.8147123077
0
VERTEX
8
_CURVE
62
7
6
CONTINUOUS
10
37.5725669231
20
17.9217355994
0
VERTEX
8
_CURVE
62
7
6
CONTINUOUS
10
37.5288138855
20
18.0281147906
0
VERTEX
8
_CURVE
62
7
6
CONTINUOUS
10
37.4833665021
20
18.1340655208
0
VERTEX
8
_CURVE
62
7
6
CONTINUOUS
10
37.4363351022
20
18.2393227192
0
VERTEX
8
_CURVE
62
7
6
CONTINUOUS
10
37.3877330279
20
18.3438639494
0
VERTEX
8
_CURVE
62
7
6
CONTINUOUS
10
37.3372813907
20
18.4482615372
0
VERTEX
8
_CURVE
62
7
6
CONTINUOUS
10
37.2852711872
20
18.5518915279
0
VERTEX
8
_CURVE
62
7
6
CONTINUOUS
10
37.2317191357
20
18.6547332409
0
VERTEX
8
_CURVE
62
7
6
CONTINUOUS
10
37.1761283570
20
18.7577018919
0
VERTEX
8
_CURVE
62
7
6
CONTINUOUS
10
37.1190042101
20
18.8598279195
0
VERTEX
8
_CURVE
62
7
6
CONTINUOUS
10
37.0603666655
20
18.9610926213
0
VERTEX
8
_CURVE
62
7
6
CONTINUOUS
10
36.9994677574
20
19.0627389699
0
VERTEX
8
_CURVE
62
7
6
CONTINUOUS
10
36.9370605986
20
19.1634664411
0
VERTEX
8
_CURVE
62
7
6
CONTINUOUS
10
36.8731682986
20
19.2632585382
0
VERTEX
8
_CURVE
62
7
6
CONTINUOUS
10
36.8067559781
20
19.3636742366
0
VERTEX
8
_CURVE
62
7
6
CONTINUOUS
10
36.7388605842
20
19.4630932894
0
VERTEX
8
_CURVE
62
7
6
CONTINUOUS
10
36.6695082740
20
19.5615016511
0
VERTEX
8
_CURVE
62
7
6
CONTINUOUS
10
36.5973404486
20
19.6607619260
0
VERTEX
8
_CURVE
62
7
6
CONTINUOUS
10
36.5237149833
20
19.7589460184
0
VERTEX
8
_CURVE
62
7
6
CONTINUOUS
10
36.4486609604
20
19.8560425645
0
VERTEX
8
_CURVE
62
7
6
CONTINUOUS
10
36.3704603471
20
19.9542018375
0
VERTEX
8
_CURVE
62
7
6
CONTINUOUS
10
36.2908280229
20
20.0512034046
0
VERTEX
8
_CURVE
62
7
6
CONTINUOUS
10
36.2097958510
20
20.1470388023
0
VERTEX
8
_CURVE
62
7
6
CONTINUOUS
10
36.1252456148
20
20.2441340217
0
VERTEX
8
_CURVE
62
7
6
CONTINUOUS
10
36.0392901910
20
20.3399876921
0
VERTEX
8
_CURVE
62
7
6
CONTINUOUS
10
35.9519640893
20
20.4345944742
0
VERTEX
8
_CURVE
62
7
6
CONTINUOUS
10
35.8607128569
20
20.5306362136
0
VERTEX
8
_CURVE
62
7
6
CONTINUOUS
10
35.7680839150
20
20.6253501200
0
VERTEX
8
_CURVE
62
7
6
CONTINUOUS
10
35.6741142843
20
20.7187342149
0
VERTEX
8
_CURVE
62
7
6
CONTINUOUS
10
35.5757678056
20
20.8137137642
0
VERTEX
8
_CURVE
62
7
6
CONTINUOUS
10
35.4760721812
20
20.9072764399
0
VERTEX
8
_CURVE
62
7
6
CONTINUOUS
10
35.3750667900
20
20.9994238457
0
VERTEX
8
_CURVE
62
7
6
CONTINUOUS
10
35.2691906267
20
21.0933064152
0
VERTEX
8
_CURVE
62
7
6
CONTINUOUS
10
35.1619952252
20
21.1856800995
0
VERTEX
8
_CURVE
62
7
6
CONTINUOUS
10
35.0535221640
20
21.2765503072
0
VERTEX
8
_CURVE
62
7
6
CONTINUOUS
10
34.9396431151
20
21.3692709482
0
VERTEX
8
_CURVE
62
7
6
CONTINUOUS
10
34.8244764050
20
21.4603875924
0
VERTEX
8
_CURVE
62
7
6
CONTINUOUS
10
34.7080656385
20
21.5499096700
0
VERTEX
8
_CURVE
62
7
6
CONTINUOUS
10
34.5856651528
20
21.6413758395
0
VERTEX
8
_CURVE
62
7
6
CONTINUOUS
10
34.4620104459
20
21.7311395187
0
VERTEX
8
_CURVE
62
7
6
CONTINUOUS
10
34.3371469697
20
21.8192143704
0
VERTEX
8
_CURVE
62
7
6
CONTINUOUS
10
34.2056630436
20
21.9093003149
0
VERTEX
8
_CURVE
62
7
6
CONTINUOUS
10
34.0729604880
20
21.9975817102
0
VERTEX
8
_CURVE
62
7
6
CONTINUOUS
10
33.9390864142
20
22.0840766600
0
VERTEX
8
_CURVE
62
7
6
CONTINUOUS
10
33.7979147333
20
22.1726193179
0
VERTEX
8
_CURVE
62
7
6
CONTINUOUS
10
33.6555624943
20
22.2592516803
0
VERTEX
8
_CURVE
62
7
6
CONTINUOUS
10
33.5120782628
20
22.3439964803
0
VERTEX
8
_CURVE
62
7
6
CONTINUOUS
10
33.3605858411
20
22.4307847675
0
VERTEX
8
_CURVE
62
7
6
CONTINUOUS
10
33.2079539339
20
22.5155535718
0
VERTEX
8
_CURVE
62
7
6
CONTINUOUS
10
33.0542323320
20
22.5983304317
0
VERTEX
8
_CURVE
62
7
6
CONTINUOUS
10
32.9324322409
20
22.6621381689
0
VERTEX
8
_CURVE
62
7
6
CONTINUOUS
10
32.8100085890
20
22.7247411955
0
VERTEX
8
_CURVE
62
7
6
CONTINUOUS
10
32.6869828181
20
22.7861532281
0
VERTEX
8
_CURVE
62
7
6
CONTINUOUS
10
32.5633763698
20
22.8463879831
0
VERTEX
8
_CURVE
62
7
6
CONTINUOUS
10
32.4327502505
20
22.9084938538
0
VERTEX
8
_CURVE
62
7
6
CONTINUOUS
10
32.3015271195
20
22.9693281472
0
VERTEX
8
_CURVE
62
7
6
CONTINUOUS
10
32.1697287640
20
23.0289067755
0
VERTEX
8
_CURVE
62
7
6
CONTINUOUS
10
32.0373769708
20
23.0872456508
0
VERTEX
8
_CURVE
62
7
6
CONTINUOUS
10
31.8976651563
20
23.1472565799
0
VERTEX
8
_CURVE
62
7
6
CONTINUOUS
10
31.7573875999
20
23.2059328373
0
VERTEX
8
_CURVE
62
7
6
CONTINUOUS
10
31.6165661313
20
23.2632923199
0
VERTEX
8
_CURVE
62
7
6
CONTINUOUS
10
31.4752225799
20
23.3193529248
0
VERTEX
8
_CURVE
62
7
6
CONTINUOUS
10
31.3268178865
20
23.3766308940
0
VERTEX
8
_CURVE
62
7
6
CONTINUOUS
10
31.1778872706
20
23.4325269873
0
VERTEX
8
_CURVE
62
7
6
CONTINUOUS
10
31.0284523202
20
23.4870613201
0
VERTEX
8
_CURVE
62
7
6
CONTINUOUS
10
30.8785346233
20
23.5402540074
0
VERTEX
8
_CURVE
62
7
6
CONTINUOUS
10
30.7219490676
20
23.5942345278
0
VERTEX
8
_CURVE
62
7
6
CONTINUOUS
10
30.5648846027
20
23.6468050512
0
VERTEX
8
_CURVE
62
7
6
CONTINUOUS
10
30.4073622660
20
23.6979882655
0
VERTEX
8
_CURVE
62
7
6
CONTINUOUS
10
30.2494030951
20
23.7478068587
0
VERTEX
8
_CURVE
62
7
6
CONTINUOUS
10
30.0848315024
20
23.7981501977
0
VERTEX
8
_CURVE
62
7
6
CONTINUOUS
10
29.9198305967
20
23.8470676952
0
VERTEX
8
_CURVE
62
7
6
CONTINUOUS
10
29.7544199874
20
23.8945823518
0
VERTEX
8
_CURVE
62
7
6
CONTINUOUS
10
29.5886192836
20
23.9407171681
0
VERTEX
8
_CURVE
62
7
6
CONTINUOUS
10
29.4159458347
20
23.9872175621
0
VERTEX
8
_CURVE
62
7
6
CONTINUOUS
10
29.2428907303
20
24.0322764599
0
VERTEX
8
_CURVE
62
7
6
CONTINUOUS
10
29.0694723252
20
24.0759173349
0
VERTEX
8
_CURVE
62
7
6
CONTINUOUS
10
28.8957089741
20
24.1181636609
0
VERTEX
8
_CURVE
62
7
6
CONTINUOUS
10
28.7149619719
20
24.1605730461
0
VERTEX
8
_CURVE
62
7
6
CONTINUOUS
10
28.5338800360
20
24.2015282760
0
VERTEX
8
_CURVE
62
7
6
CONTINUOUS
10
28.3524802523
20
24.2410530220
0
VERTEX
8
_CURVE
62
7
6
CONTINUOUS
10
28.1707797065
20
24.2791709554
0
VERTEX
8
_CURVE
62
7
6
CONTINUOUS
10
27.9819409318
20
24.3172610641
0
VERTEX
8
_CURVE
62
7
6
CONTINUOUS
10
27.7928125586
20
24.3538857170
0
VERTEX
8
_CURVE
62
7
6
CONTINUOUS
10
27.6034104182
20
24.3890686634
0
VERTEX
8
_CURVE
62
7
6
CONTINUOUS
10
27.4137503416
20
24.4228336523
0
VERTEX
8
_CURVE
62
7
6
CONTINUOUS
10
27.2169478615
20
24.4563534455
0
VERTEX
8
_CURVE
62
7
6
CONTINUOUS
10
27.0199001621
20
24.4883995916
0
VERTEX
8
_CURVE
62
7
6
CONTINUOUS
10
26.8226220308
20
24.5189957391
0
VERTEX
8
_CURVE
62
7
6
CONTINUOUS
10
26.6251282545
20
24.5481655368
0
VERTEX
8
_CURVE
62
7
6
CONTINUOUS
10
26.4204179773
20
24.5768915192
0
VERTEX
8
_CURVE
62
7
6
CONTINUOUS
10
26.2155054214
20
24.6041370339
0
VERTEX
8
_CURVE
62
7
6
CONTINUOUS
10
26.0104036657
20
24.6299255775
0
VERTEX
8
_CURVE
62
7
6
CONTINUOUS
10
25.8051257895
20
24.6542806464
0
VERTEX
8
_CURVE
62
7
6
CONTINUOUS
10
25.5922027784
20
24.6780342567
0
VERTEX
8
_CURVE
62
7
6
CONTINUOUS
10
25.3791190021
20
24.7002964786
0
VERTEX
8
_CURVE
62
7
6
CONTINUOUS
10
25.1658888239
20
24.7210904321
0
VERTEX
8
_CURVE
62
7
6
CONTINUOUS
10
24.9525266073
20
24.7404392371
0
VERTEX
8
_CURVE
62
7
6
CONTINUOUS
10
24.6827208233
20
24.7628603357
0
VERTEX
8
_CURVE
62
7
6
CONTINUOUS
10
24.4127560912
20
24.7830569813
0
VERTEX
8
_CURVE
62
7
6
CONTINUOUS
10
24.1426614016
20
24.8010758381
0
VERTEX
8
_CURVE
62
7
6
CONTINUOUS
10
23.8724657449
20
24.8169635703
0
VERTEX
8
_CURVE
62
7
6
CONTINUOUS
10
23.6021981114
20
24.8307668421
0
VERTEX
8
_CURVE
62
7
6
CONTINUOUS
10
23.3318874916
20
24.8425323178
0
VERTEX
8
_CURVE
62
7
6
CONTINUOUS
10
23.0615628759
20
24.8523066614
0
VERTEX
8
_CURVE
62
7
6
CONTINUOUS
10
22.7912532547
20
24.8601365373
0
VERTEX
8
_CURVE
62
7
6
CONTINUOUS
10
22.5209876183
20
24.8660686096
0
VERTEX
8
_CURVE
62
7
6
CONTINUOUS
10
22.2507949573
20
24.8701495425
0
VERTEX
8
_CURVE
62
7
6
CONTINUOUS
10
21.9807042620
20
24.8724260002
0
SEQEND
0
POLYLINE
8
_CURVE
62
7
6
CONTINUOUS
66
1
70
0
0
VERTEX
8
_CURVE
62
7
6
CONTINUOUS
10
36.3524174611
20
9.2115459508
0
VERTEX
8
_CURVE
62
7
6
CONTINUOUS
10
36.4188227797
20
9.2818126129
0
VERTEX
8
_CURVE
62
7
6
CONTINUOUS
10
36.4841198134
20
9.3531173515
0
VERTEX
8
_CURVE
62
7
6
CONTINUOUS
10
36.5482889412
20
9.4254389571
0
VERTEX
8
_CURVE
62
7
6
CONTINUOUS
10
36.6115677843
20
9.4990594694
0
VERTEX
8
_CURVE
62
7
6
CONTINUOUS
10
36.6736763181
20
9.5736650125
0
VERTEX
8
_CURVE
62
7
6
CONTINUOUS
10
36.7346011947
20
9.6492367734
0
VERTEX
8
_CURVE
62
7
6
CONTINUOUS
10
36.7950895558
20
9.7267464305
0
VERTEX
8
_CURVE
62
7
6
CONTINUOUS
10
36.8543345166
20
9.8052068042
0
VERTEX
8
_CURVE
62
7
6
CONTINUOUS
10
36.9123206873
20
9.8845966662
0
VERTEX
8
_CURVE
62
7
6
CONTINUOUS
10
36.9702269147
20
9.9666110458
0
VERTEX
8
_CURVE
62
7
6
CONTINUOUS
10
37.0267882969
20
10.0495260411
0
VERTEX
8
_CURVE
62
7
6
CONTINUOUS
10
37.0819890337
20
10.1332948989
0
VERTEX
8
_CURVE
62
7
6
CONTINUOUS
10
37.1374796448
20
10.2205268813
0
VERTEX
8
_CURVE
62
7
6
CONTINUOUS
10
37.1915267061
20
10.3085652973
0
VERTEX
8
_CURVE
62
7
6
CONTINUOUS
10
37.2441505064
20
10.3973582256
0
VERTEX
8
_CURVE
62
7
6
CONTINUOUS
10
37.2976155920
20
10.4908501629
0
VERTEX
8
_CURVE
62
7
6
CONTINUOUS
10
37.3495773425
20
10.5850763448
0
VERTEX
8
_CURVE
62
7
6
CONTINUOUS
10
37.4000628379
20
10.6800046027
0
VERTEX
8
_CURVE
62
7
6
CONTINUOUS
10
37.4518670638
20
10.7811048516
0
VERTEX
8
_CURVE
62
7
6
CONTINUOUS
10
37.5020769403
20
10.8829143825
0
VERTEX
8
_CURVE
62
7
6
CONTINUOUS
10
37.5507182855
20
10.9853935261
0
VERTEX
8
_CURVE
62
7
6
CONTINUOUS
10
37.6003780178
20
11.0942272337
0
VERTEX
8
_CURVE
62
7
6
CONTINUOUS
10
37.6483475634
20
11.2037271656
0
VERTEX
8
_CURVE
62
7
6
CONTINUOUS
10
37.6946548918
20
11.3138579637
0
VERTEX
8
_CURVE
62
7
6
CONTINUOUS
10
37.7412960339
20
11.4295728928
0
VERTEX
8
_CURVE
62
7
6
CONTINUOUS
10
37.7861792965
20
11.5459036627
0
VERTEX
8
_CURVE
62
7
6
CONTINUOUS
10
37.8293311778
20
11.6628158997
0
VERTEX
8
_CURVE
62
7
6
CONTINUOUS
10
37.8723860994
20
11.7849452405
0
VERTEX
8
_CURVE
62
7
6
CONTINUOUS
10
37.9136223440
20
11.9076344353
0
VERTEX
8
_CURVE
62
7
6
CONTINUOUS
10
37.9530640186
20
12.0308519925
0
VERTEX
8
_CURVE
62
7
6
CONTINUOUS
10
37.9920498616
20
12.1590039598
0
VERTEX
8
_CURVE
62
7
6
CONTINUOUS
10
38.0291562951
20
12.2876596187
0
VERTEX
8
_CURVE
62
7
6
CONTINUOUS
10
38.0644033719
20
12.4167895872
0
VERTEX
8
_CURVE
62
7
6
CONTINUOUS
10
38.0986903864
20
12.5498847683
0
VERTEX
8
_CURVE
62
7
6
CONTINUOUS
10
38.1310514263
20
12.6834224385
0
VERTEX
8
_CURVE
62
7
6
CONTINUOUS
10
38.1615009221
20
12.8173757033
0
VERTEX
8
_CURVE
62
7
6
CONTINUOUS
10
38.1905354494
20
12.9540756114
0
VERTEX
8
_CURVE
62
7
6
CONTINUOUS
10
38.2176129626
20
13.0911533835
0
VERTEX
8
_CURVE
62
7
6
CONTINUOUS
10
38.2427406285
20
13.2285844424
0
VERTEX
8
_CURVE
62
7
6
CONTINUOUS
10
38.2661036784
20
13.3674593550
0
VERTEX
8
_CURVE
62
7
6
CONTINUOUS
10
38.2874912446
20
13.5066456104
0
VERTEX
8
_CURVE
62
7
6
CONTINUOUS
10
38.3069020548
20
13.6461205068
0
VERTEX
8
_CURVE
62
7
6
CONTINUOUS
10
38.3242796831
20
13.7854052690
0
VERTEX
8
_CURVE
62
7
6
CONTINUOUS
10
38.3396818779
20
13.9249327614
0
VERTEX
8
_CURVE
62
7
6
CONTINUOUS
10
38.3530983507
20
14.0646815071
0
VERTEX
8
_CURVE
62
7
6
CONTINUOUS
10
38.3643579108
20
14.2024927865
0
VERTEX
8
_CURVE
62
7
6
CONTINUOUS
10
38.3736622420
20
14.3404783590
0
VERTEX
8
_CURVE
62
7
6
CONTINUOUS
10
38.3809916612
20
14.4786187931
0
VERTEX
8
_CURVE
62
7
6
CONTINUOUS
10
38.3862207970
20
14.6135868720
0
VERTEX
8
_CURVE
62
7
6
CONTINUOUS
10
38.3895217150
20
14.7486592272
0
VERTEX
8
_CURVE
62
7
6
CONTINUOUS
10
38.3908665779
20
14.8838111021
0
VERTEX
8
_CURVE
62
7
6
CONTINUOUS
10
38.3902726763
20
15.0152686373
0
VERTEX
8
_CURVE
62
7
6
CONTINUOUS
10
38.3877803808
20
15.1467478135
0
VERTEX
8
_CURVE
62
7
6
CONTINUOUS
10
38.3833667438
20
15.2782185024
0
VERTEX
8
_CURVE
62
7
6
CONTINUOUS
10
38.3771932968
20
15.4063441407
0
VERTEX
8
_CURVE
62
7
6
CONTINUOUS
10
38.3691538004
20
15.5344035703
0
VERTEX
8
_CURVE
62
7
6
CONTINUOUS
10
38.3592298867
20
15.6623672794
0
VERTEX
8
_CURVE
62
7
6
CONTINUOUS
10
38.3476799788
20
15.7874398794
0
VERTEX
8
_CURVE
62
7
6
CONTINUOUS
10
38.3342947772
20
15.9123623419
0
VERTEX
8
_CURVE
62
7
6
CONTINUOUS
10
38.3190602958
20
16.0371043989
0
VERTEX
8
_CURVE
62
7
6
CONTINUOUS
10
38.3022854874
20
16.1594095751
0
VERTEX
8
_CURVE
62
7
6
CONTINUOUS
10
38.2837038252
20
16.2814811888
0
VERTEX
8
_CURVE
62
7
6
CONTINUOUS
10
38.2633056472
20
16.4032888803
0
VERTEX
8
_CURVE
62
7
6
CONTINUOUS
10
38.2414234930
20
16.5230097610
0
VERTEX
8
_CURVE
62
7
6
CONTINUOUS
10
38.2177633060
20
16.6424147451
0
VERTEX
8
_CURVE
62
7
6
CONTINUOUS
10
38.1923196883
20
16.7614735897
0
VERTEX
8
_CURVE
62
7
6
CONTINUOUS
10
38.1654135275
20
16.8787838782
0
VERTEX
8
_CURVE
62
7
6
CONTINUOUS
10
38.1367585632
20
16.9956966796
0
VERTEX
8
_CURVE
62
7
6
CONTINUOUS
10
38.1063536310
20
17.1121822226
0
VERTEX
8
_CURVE
62
7
6
CONTINUOUS
10
38.0744653874
20
17.2272741175
0
VERTEX
8
_CURVE
62
7
6
CONTINUOUS
10
38.0408572008
20
17.3418873747
0
VERTEX
8
_CURVE
62
7
6
CONTINUOUS
10
38.0055320452
20
17.4559930222
0
VERTEX
8
_CURVE
62
7
6
CONTINUOUS
10
37.9686680232
20
17.5690406047
0
VERTEX
8
_CURVE
62
7
6
CONTINUOUS
10
37.9301127451
20
17.6815286638
0
VERTEX
8
_CURVE
62
7
6
CONTINUOUS
10
37.8898732032
20
17.7934293283
0
VERTEX
8
_CURVE
62
7
6
CONTINUOUS
10
37.8480082989
20
17.9045819068
0
VERTEX
8
_CURVE
62
7
6
CONTINUOUS
10
37.8044810465
20
18.0150942023
0
VERTEX
8
_CURVE
62
7
6
CONTINUOUS
10
37.7593023501
20
18.1249397237
0
VERTEX
8
_CURVE
62
7
6
CONTINUOUS
10
37.7123755418
20
18.2343393917
0
VERTEX
8
_CURVE
62
7
6
CONTINUOUS
10
37.6638154563
20
18.3430178386
0
VERTEX
8
_CURVE
62
7
6
CONTINUOUS
10
37.6136368166
20
18.4509502615
0
VERTEX
8
_CURVE
62
7
6
CONTINUOUS
10
37.5615527008
20
18.5587258738
0
VERTEX
8
_CURVE
62
7
6
CONTINUOUS
10
37.5078646597
20
18.6656989784
0
VERTEX
8
_CURVE
62
7
6
CONTINUOUS
10
37.4525910868
20
18.7718467806
0
VERTEX
8
_CURVE
62
7
6
CONTINUOUS
10
37.3952203873
20
18.8781123291
0
VERTEX
8
_CURVE
62
7
6
CONTINUOUS
10
37.3362754565
20
18.9834935821
0
VERTEX
8
_CURVE
62
7
6
CONTINUOUS
10
37.2757781871
20
19.0879700280
0
VERTEX
8
_CURVE
62
7
6
CONTINUOUS
10
37.2129583925
20
19.1928225611
0
VERTEX
8
_CURVE
62
7
6
CONTINUOUS
10
37.1485945207
20
19.2967082934
0
VERTEX
8
_CURVE
62
7
6
CONTINUOUS
10
37.0827118133
20
19.3996092458
0
VERTEX
8
_CURVE
62
7
6
CONTINUOUS
10
37.0142449091
20
19.5031315299
0
VERTEX
8
_CURVE
62
7
6
CONTINUOUS
10
36.9442646414
20
19.6056035193
0
VERTEX
8
_CURVE
62
7
6
CONTINUOUS
10
36.8727994586
20
19.7070100504
0
VERTEX
8
_CURVE
62
7
6
CONTINUOUS
10
36.7984513825
20
19.8092691210
0
VERTEX
8
_CURVE
62
7
6
CONTINUOUS
10
36.7226213305
20
19.9103932333
0
VERTEX
8
_CURVE
62
7
6
CONTINUOUS
10
36.6453407622
20
20.0103703182
0
VERTEX
8
_CURVE
62
7
6
CONTINUOUS
10
36.5648429284
20
20.1114131871
0
VERTEX
8
_CURVE
62
7
6
CONTINUOUS
10
36.4828953088
20
20.2112351298
0
VERTEX
8
_CURVE
62
7
6
CONTINUOUS
10
36.3995321699
20
20.3098274054
0
VERTEX
8
_CURVE
62
7
6
CONTINUOUS
10
36.3125768471
20
20.4096846403
0
VERTEX
8
_CURVE
62
7
6
CONTINUOUS
10
36.2242047519
20
20.5082333522
0
VERTEX
8
_CURVE
62
7
6
CONTINUOUS
10
36.1344527734
20
20.6054683464
0
VERTEX
8
_CURVE
62
7
6
CONTINUOUS
10
36.0406982152
20
20.7041449179
0
VERTEX
8
_CURVE
62
7
6
CONTINUOUS
10
35.9455610168
20
20.8014236189
0
VERTEX
8
_CURVE
62
7
6
CONTINUOUS
10
35.8490804956
20
20.8973030388
0
VERTEX
8
_CURVE
62
7
6
CONTINUOUS
10
35.7481423072
20
20.9947856635
0
VERTEX
8
_CURVE
62
7
6
CONTINUOUS
10
35.6458567677
20
21.0907790140
0
VERTEX
8
_CURVE
62
7
6
CONTINUOUS
10
35.5422654100
20
21.1852856801
0
VERTEX
8
_CURVE
62
7
6
CONTINUOUS
10
35.4337192070
20
21.2815359280
0
VERTEX
8
_CURVE
62
7
6
CONTINUOUS
10
35.3238622657
20
21.3762032308
0
VERTEX
8
_CURVE
62
7
6
CONTINUOUS
10
35.2127381271
20
21.4692943787
0
VERTEX
8
_CURVE
62
7
6
CONTINUOUS
10
35.0961209072
20
21.5642445507
0
VERTEX
8
_CURVE
62
7
6
CONTINUOUS
10
34.9782311326
20
21.6575156927
0
VERTEX
8
_CURVE
62
7
6
CONTINUOUS
10
34.8591141326
20
21.7491189881
0
VERTEX
8
_CURVE
62
7
6
CONTINUOUS
10
34.7339174347
20
21.8426747904
0
VERTEX
8
_CURVE
62
7
6
CONTINUOUS
10
34.6074880540
20
21.9344527536
0
VERTEX
8
_CURVE
62
7
6
CONTINUOUS
10
34.4798728916
20
22.0244686303
0
VERTEX
8
_CURVE
62
7
6
CONTINUOUS
10
34.3455446769
20
22.1165034451
0
VERTEX
8
_CURVE
62
7
6
CONTINUOUS
10
34.2100255597
20
22.2066586671
0
VERTEX
8
_CURVE
62
7
6
CONTINUOUS
10
34.0733637899
20
22.2949547916
0
VERTEX
8
_CURVE
62
7
6
CONTINUOUS
10
33.9293095128
20
22.3853055227
0
VERTEX
8
_CURVE
62
7
6
CONTINUOUS
10
33.7841082830
20
22.4736718039
0
VERTEX
8
_CURVE
62
7
6
CONTINUOUS
10
33.6378094731
20
22.5600790172
0
VERTEX
8
_CURVE
62
7
6
CONTINUOUS
10
33.5221119154
20
22.6266184758
0
VERTEX
8
_CURVE
62
7
6
CONTINUOUS
10
33.4057883270
20
22.6919767980
0
VERTEX
8
_CURVE
62
7
6
CONTINUOUS
10
33.2888598991
20
22.7561668126
0
VERTEX
8
_CURVE
62
7
6
CONTINUOUS
10
33.1713478227
20
22.8192013484
0
VERTEX
8
_CURVE
62
7
6
CONTINUOUS
10
33.0473450475
20
22.8841630673
0
VERTEX
8
_CURVE
62
7
6
CONTINUOUS
10
32.9227435633
20
22.9478798085
0
VERTEX
8
_CURVE
62
7
6
CONTINUOUS
10
32.7975648665
20
23.0103665612
0
VERTEX
8
_CURVE
62
7
6
CONTINUOUS
10
32.6718304534
20
23.0716383144
0
VERTEX
8
_CURVE
62
7
6
CONTINUOUS
10
32.5389928778
20
23.1347956749
0
VERTEX
8
_CURVE
62
7
6
CONTINUOUS
10
32.4055858307
20
23.1966424714
0
VERTEX
8
_CURVE
62
7
6
CONTINUOUS
10
32.2716309592
20
23.2571959605
0
VERTEX
8
_CURVE
62
7
6
CONTINUOUS
10
32.1371499102
20
23.3164733990
0
VERTEX
8
_CURVE
62
7
6
CONTINUOUS
10
31.9952288820
20
23.3774333197
0
VERTEX
8
_CURVE
62
7
6
CONTINUOUS
10
31.8527718288
20
23.4370212857
0
VERTEX
8
_CURVE
62
7
6
CONTINUOUS
10
31.7098003243
20
23.4952565403
0
VERTEX
8
_CURVE
62
7
6
CONTINUOUS
10
31.5663359424
20
23.5521583267
0
VERTEX
8
_CURVE
62
7
6
CONTINUOUS
10
31.4157435430
20
23.6102806955
0
VERTEX
8
_CURVE
62
7
6
CONTINUOUS
10
31.2646569592
20
23.6669859981
0
VERTEX
8
_CURVE
62
7
6
CONTINUOUS
10
31.1130978329
20
23.7222955438
0
VERTEX
8
_CURVE
62
7
6
CONTINUOUS
10
30.9610878060
20
23.7762306419
0
VERTEX
8
_CURVE
62
7
6
CONTINUOUS
10
30.8023575210
20
23.8309505888
0
VERTEX
8
_CURVE
62
7
6
CONTINUOUS
10
30.6431824820
20
23.8842275892
0
VERTEX
8
_CURVE
62
7
6
CONTINUOUS
10
30.4835832987
20
23.9360856482
0
VERTEX
8
_CURVE
62
7
6
CONTINUOUS
10
30.3235805809
20
23.9865487709
0
VERTEX
8
_CURVE
62
7
6
CONTINUOUS
10
30.1569203395
20
24.0375310973
0
VERTEX
8
_CURVE
62
7
6
CONTINUOUS
10
29.9898653370
20
24.0870576157
0
VERTEX
8
_CURVE
62
7
6
CONTINUOUS
10
29.8224342435
20
24.1351526686
0
VERTEX
8
_CURVE
62
7
6
CONTINUOUS
10
29.6546457293
20
24.1818405980
0
VERTEX
8
_CURVE
62
7
6
CONTINUOUS
10
29.4799404360
20
24.2288882011
0
VERTEX
8
_CURVE
62
7
6
CONTINUOUS
10
29.3048869865
20
24.2744674568
0
VERTEX
8
_CURVE
62
7
6
CONTINUOUS
10
29.1295029709
20
24.3186029962
0
VERTEX
8
_CURVE
62
7
6
CONTINUOUS
10
28.9538059791
20
24.3613194505
0
VERTEX
8
_CURVE
62
7
6
CONTINUOUS
10
28.7710844754
20
24.4041921653
0
VERTEX
8
_CURVE
62
7
6
CONTINUOUS
10
28.5880608085
20
24.4455865942
0
VERTEX
8
_CURVE
62
7
6
CONTINUOUS
10
28.4047512000
20
24.4855274767
0
VERTEX
8
_CURVE
62
7
6
CONTINUOUS
10
28.2211718714
20
24.5240395523
0
VERTEX
8
_CURVE
62
7
6
CONTINUOUS
10
28.0304155207
20
24.5625164873
0
VERTEX
8
_CURVE
62
7
6
CONTINUOUS
10
27.8394012241
20
24.5995063850
0
VERTEX
8
_CURVE
62
7
6
CONTINUOUS
10
27.6481439735
20
24.6350339439
0
VERTEX
8
_CURVE
62
7
6
CONTINUOUS
10
27.4566587607
20
24.6691238624
0
VERTEX
8
_CURVE
62
7
6
CONTINUOUS
10
27.2579956235
20
24.7029605949
0
VERTEX
8
_CURVE
62
7
6
CONTINUOUS
10
27.0591177481
20
24.7353044116
0
VERTEX
8
_CURVE
62
7
6
CONTINUOUS
10
26.8600391135
20
24.7661798114
0
VERTEX
8
_CURVE
62
7
6
CONTINUOUS
10
26.6607736988
20
24.7956112930
0
VERTEX
8
_CURVE
62
7
6
CONTINUOUS
10
26.4542585021
20
24.8245906013
0
VERTEX
8
_CURVE
62
7
6
CONTINUOUS
10
26.2475701894
20
24.8520722689
0
VERTEX
8
_CURVE
62
7
6
CONTINUOUS
10
26.0407209202
20
24.8780805445
0
VERTEX
8
_CURVE
62
7
6
CONTINUOUS
10
25.8337228543
20
24.9026396766
0
VERTEX
8
_CURVE
62
7
6
CONTINUOUS
10
25.6190449993
20
24.9265890198
0
VERTEX
8
_CURVE
62
7
6
CONTINUOUS
10
25.4042344253
20
24.9490316234
0
VERTEX
8
_CURVE
62
7
6
CONTINUOUS
10
25.1893051797
20
24.9699912788
0
VERTEX
8
_CURVE
62
7
6
CONTINUOUS
10
24.9742713102
20
24.9894917776
0
VERTEX
8
_CURVE
62
7
6
CONTINUOUS
10
24.7022746690
20
25.0120947680
0
VERTEX
8
_CURVE
62
7
6
CONTINUOUS
10
24.4301621491
20
25.0324510765
0
VERTEX
8
_CURVE
62
7
6
CONTINUOUS
10
24.1579626555
20
25.0506084129
0
VERTEX
8
_CURVE
62
7
6
CONTINUOUS
10
23.8857050934
20
25.0666144872
0
VERTEX
8
_CURVE
62
7
6
CONTINUOUS
10
23.6134183677
20
25.0805170090
0
VERTEX
8
_CURVE
62
7
6
CONTINUOUS
10
23.3411313835
20
25.0923636884
0
VERTEX
8
_CURVE
62
7
6
CONTINUOUS
10
23.0688730459
20
25.1022022350
0
VERTEX
8
_CURVE
62
7
6
CONTINUOUS
10
22.7966722599
20
25.1100803588
0
VERTEX
8
_CURVE
62
7
6
CONTINUOUS
10
22.5245579305
20
25.1160457696
0
VERTEX
8
_CURVE
62
7
6
CONTINUOUS
10
22.2525589629
20
25.1201461772
0
VERTEX
8
_CURVE
62
7
6
CONTINUOUS
10
21.9807042620
20
25.1224292915
0
SEQEND
0
POLYLINE
8
_CURVE
62
8
6
HIDDEN
66
1
70
0
0
VERTEX
8
_CURVE
62
8
6
HIDDEN
10
36.6766335594
20
8.2915904649
0
VERTEX
8
_CURVE
62
8
6
HIDDEN
10
36.7626915356
20
8.3720480893
0
VERTEX
8
_CURVE
62
8
6
HIDDEN
10
36.8476307734
20
8.4541671248
0
VERTEX
8
_CURVE
62
8
6
HIDDEN
10
36.9314221977
20
8.5379453371
0
VERTEX
8
_CURVE
62
8
6
HIDDEN
10
37.0076606703
20
8.6166827619
0
VERTEX
8
_CURVE
62
8
6
HIDDEN
10
37.0828730175
20
8.6968234511
0
VERTEX
8
_CURVE
62
8
6
HIDDEN
10
37.1570342353
20
8.7783611892
0
VERTEX
8
_CURVE
62
8
6
HIDDEN
10
37.2301193201
20
8.8612897609
0
VERTEX
8
_CURVE
62
8
6
HIDDEN
10
37.3021032678
20
8.9456029506
0
VERTEX
8
_CURVE
62
8
6
HIDDEN
10
37.3729610746
20
9.0312945431
0
VERTEX
8
_CURVE
62
8
6
HIDDEN
10
37.4426702820
20
9.1183619404
0
VERTEX
8
_CURVE
62
8
6
HIDDEN
10
37.5112186135
20
9.2068170156
0
VERTEX
8
_CURVE
62
8
6
HIDDEN
10
37.5785963378
20
9.2966752589
0
VERTEX
8
_CURVE
62
8
6
HIDDEN
10
37.6447820407
20
9.3879340916
0
VERTEX
8
_CURVE
62
8
6
HIDDEN
10
37.7097075756
20
9.4805186576
0
VERTEX
8
_CURVE
62
8
6
HIDDEN
10
37.7732931129
20
9.5743360313
0
VERTEX
8
_CURVE
62
8
6
HIDDEN
10
37.8354721963
20
9.6692996316
0
VERTEX
8
_CURVE
62
8
6
HIDDEN
10
37.8962318623
20
9.7653482535
0
VERTEX
8
_CURVE
62
8
6
HIDDEN
10
37.9555725205
20
9.8624270366
0
VERTEX
8
_CURVE
62
8
6
HIDDEN
10
38.0134945804
20
9.9604811203
0
VERTEX
8
_CURVE
62
8
6
HIDDEN
10
38.0699984518
20
10.0594556440
0
VERTEX
8
_CURVE
62
8
6
HIDDEN
10
38.1250845444
20
10.1592957470
0
VERTEX
8
_CURVE
62
8
6
HIDDEN
10
38.1893214013
20
10.2801779782
0
VERTEX
8
_CURVE
62
8
6
HIDDEN
10
38.2515445780
20
10.4021855650
0
VERTEX
8
_CURVE
62
8
6
HIDDEN
10
38.3117814061
20
10.5252764277
0
VERTEX
8
_CURVE
62
8
6
HIDDEN
10
38.3700592171
20
10.6494084870
0
VERTEX
8
_CURVE
62
8
6
HIDDEN
10
38.4264053425
20
10.7745396632
0
VERTEX
8
_CURVE
62
8
6
HIDDEN
10
38.4808445774
20
10.9006269961
0
VERTEX
8
_CURVE
62
8
6
HIDDEN
10
38.5333915707
20
11.0276240018
0
VERTEX
8
_CURVE
62
8
6
HIDDEN
10
38.5840584346
20
11.1554833159
0
VERTEX
8
_CURVE
62
8
6
HIDDEN
10
38.6328572816
20
11.2841575738
0
VERTEX
8
_CURVE
62
8
6
HIDDEN
10
38.6798002241
20
11.4135994109
0
VERTEX
8
_CURVE
62
8
6
HIDDEN
10
38.7248993744
20
11.5437614626
0
VERTEX
8
_CURVE
62
8
6
HIDDEN
10
38.7681668447
20
11.6745963644
0
VERTEX
8
_CURVE
62
8
6
HIDDEN
10
38.8096147476
20
11.8060567518
0
VERTEX
8
_CURVE
62
8
6
HIDDEN
10
38.8492551954
20
11.9380952601
0
VERTEX
8
_CURVE
62
8
6
HIDDEN
10
38.8871003004
20
12.0706645248
0
VERTEX
8
_CURVE
62
8
6
HIDDEN
10
38.9270578274
20
12.2185295825
0
VERTEX
8
_CURVE
62
8
6
HIDDEN
10
38.9648204145
20
12.3669323948
0
VERTEX
8
_CURVE
62
8
6
HIDDEN
10
39.0003946408
20
12.5158139364
0
VERTEX
8
_CURVE
62
8
6
HIDDEN
10
39.0337870853
20
12.6651151817
0
VERTEX
8
_CURVE
62
8
6
HIDDEN
10
39.0650043271
20
12.8147771055
0
VERTEX
8
_CURVE
62
8
6
HIDDEN
10
39.0940529454
20
12.9647406822
0
VERTEX
8
_CURVE
62
8
6
HIDDEN
10
39.1209395192
20
13.1149468864
0
VERTEX
8
_CURVE
62
8
6
HIDDEN
10
39.1456706276
20
13.2653366928
0
VERTEX
8
_CURVE
62
8
6
HIDDEN
10
39.1682528497
20
13.4158510760
0
VERTEX
8
_CURVE
62
8
6
HIDDEN
10
39.1886910026
20
13.5664309505
0
VERTEX
8
_CURVE
62
8
6
HIDDEN
10
39.2069828551
20
13.7170169917
0
VERTEX
8
_CURVE
62
8
6
HIDDEN
10
39.2231244141
20
13.8675498149
0
VERTEX
8
_CURVE
62
8
6
HIDDEN
10
39.2371116864
20
14.0179700354
0
VERTEX
8
_CURVE
62
8
6
HIDDEN
10
39.2489406788
20
14.1682182686
0
VERTEX
8
_CURVE
62
8
6
HIDDEN
10
39.2586073982
20
14.3182351298
0
VERTEX
8
_CURVE
62
8
6
HIDDEN
10
39.2661078513
20
14.4679612343
0
VERTEX
8
_CURVE
62
8
6
HIDDEN
10
39.2714380450
20
14.6173371975
0
VERTEX
8
_CURVE
62
8
6
HIDDEN
10
39.2745939861
20
14.7663036347
0
VERTEX
8
_CURVE
62
8
6
HIDDEN
10
39.2755706427
20
14.9165456995
0
VERTEX
8
_CURVE
62
8
6
HIDDEN
10
39.2743161671
20
15.0662918434
0
VERTEX
8
_CURVE
62
8
6
HIDDEN
10
39.2708290173
20
15.2155261093
0
VERTEX
8
_CURVE
62
8
6
HIDDEN
10
39.2651076514
20
15.3642325398
0
VERTEX
8
_CURVE
62
8
6
HIDDEN
10
39.2571505276
20
15.5123951777
0
VERTEX
8
_CURVE
62
8
6
HIDDEN
10
39.2469561040
20
15.6599980658
0
VERTEX
8
_CURVE
62
8
6
HIDDEN
10
39.2345228386
20
15.8070252467
0
VERTEX
8
_CURVE
62
8
6
HIDDEN
10
39.2198491895
20
15.9534607633
0
VERTEX
8
_CURVE
62
8
6
HIDDEN
10
39.2029336149
20
16.0992886583
0
VERTEX
8
_CURVE
62
8
6
HIDDEN
10
39.1837745728
20
16.2444929745
0
VERTEX
8
_CURVE
62
8
6
HIDDEN
10
39.1623705214
20
16.3890577545
0
VERTEX
8
_CURVE
62
8
6
HIDDEN
10
39.1387208702
20
16.5329668975
0
VERTEX
8
_CURVE
62
8
6
HIDDEN
10
39.1128288345
20
16.6762037279
0
VERTEX
8
_CURVE
62
8
6
HIDDEN
10
39.0846985812
20
16.8187514266
0
VERTEX
8
_CURVE
62
8
6
HIDDEN
10
39.0543342770
20
16.9605931741
0
VERTEX
8
_CURVE
62
8
6
HIDDEN
10
39.0217400889
20
17.1017121514
0
VERTEX
8
_CURVE
62
8
6
HIDDEN
10
38.9869201835
20
17.2420915392
0
VERTEX
8
_CURVE
62
8
6
HIDDEN
10
38.9498787277
20
17.3817145183
0
VERTEX
8
_CURVE
62
8
6
HIDDEN
10
38.9106198883
20
17.5205642694
0
VERTEX
8
_CURVE
62
8
6
HIDDEN
10
38.8691478321
20
17.6586239734
0
VERTEX
8
_CURVE
62
8
6
HIDDEN
10
38.8254667259
20
17.7958768110
0
VERTEX
8
_CURVE
62
8
6
HIDDEN
10
38.7795807365
20
17.9323059629
0
VERTEX
8
_CURVE
62
8
6
HIDDEN
10
38.7314949553
20
18.0678947769
0
VERTEX
8
_CURVE
62
8
6
HIDDEN
10
38.6812181716
20
18.2026272686
0
VERTEX
8
_CURVE
62
8
6
HIDDEN
10
38.6287600993
20
18.3364876205
0
VERTEX
8
_CURVE
62
8
6
HIDDEN
10
38.5741304522
20
18.4694600152
0
VERTEX
8
_CURVE
62
8
6
HIDDEN
10
38.5173389444
20
18.6015286351
0
VERTEX
8
_CURVE
62
8
6
HIDDEN
10
38.4583952896
20
18.7326776628
0
VERTEX
8
_CURVE
62
8
6
HIDDEN
10
38.3973092017
20
18.8628912808
0
VERTEX
8
_CURVE
62
8
6
HIDDEN
10
38.3340903946
20
18.9921536717
0
VERTEX
8
_CURVE
62
8
6
HIDDEN
10
38.2687485822
20
19.1204490180
0
VERTEX
8
_CURVE
62
8
6
HIDDEN
10
38.2012934785
20
19.2477615022
0
VERTEX
8
_CURVE
62
8
6
HIDDEN
10
38.1317347972
20
19.3740753068
0
VERTEX
8
_CURVE
62
8
6
HIDDEN
10
38.0600827773
20
19.4993754613
0
VERTEX
8
_CURVE
62
8
6
HIDDEN
10
37.9863497585
20
19.6236503826
0
VERTEX
8
_CURVE
62
8
6
HIDDEN
10
37.9105486054
20
19.7468893344
0
VERTEX
8
_CURVE
62
8
6
HIDDEN
10
37.8326921827
20
19.8690815807
0
VERTEX
8
_CURVE
62
8
6
HIDDEN
10
37.7527933550
20
19.9902163852
0
VERTEX
8
_CURVE
62
8
6
HIDDEN
10
37.6708649870
20
20.1102830118
0
VERTEX
8
_CURVE
62
8
6
HIDDEN
10
37.5869199433
20
20.2292707241
0
VERTEX
8
_CURVE
62
8
6
HIDDEN
10
37.5009710887
20
20.3471687862
0
VERTEX
8
_CURVE
62
8
6
HIDDEN
10
37.4130312879
20
20.4639664617
0
VERTEX
8
_CURVE
62
8
6
HIDDEN
10
37.3231134054
20
20.5796530146
0
VERTEX
8
_CURVE
62
8
6
HIDDEN
10
37.2312303059
20
20.6942177085
0
VERTEX
8
_CURVE
62
8
6
HIDDEN
10
37.1373947365
20
20.8076506680
0
VERTEX
8
_CURVE
62
8
6
HIDDEN
10
37.0416189740
20
20.9199454601
0
VERTEX
8
_CURVE
62
8
6
HIDDEN
10
36.9439151772
20
21.0310965128
0
VERTEX
8
_CURVE
62
8
6
HIDDEN
10
36.8442955054
20
21.1410982536
0
VERTEX
8
_CURVE
62
8
6
HIDDEN
10
36.7427721175
20
21.2499451103
0
VERTEX
8
_CURVE
62
8
6
HIDDEN
10
36.6393571726
20
21.3576315108
0
VERTEX
8
_CURVE
62
8
6
HIDDEN
10
36.5340628298
20
21.4641518828
0
VERTEX
8
_CURVE
62
8
6
HIDDEN
10
36.4269012481
20
21.5695006541
0
VERTEX
8
_CURVE
62
8
6
HIDDEN
10
36.3178845866
20
21.6736722523
0
VERTEX
8
_CURVE
62
8
6
HIDDEN
10
36.2070250043
20
21.7766611053
0
VERTEX
8
_CURVE
62
8
6
HIDDEN
10
36.0943346603
20
21.8784616409
0
VERTEX
8
_CURVE
62
8
6
HIDDEN
10
35.9798253374
20
21.9790688539
0
VERTEX
8
_CURVE
62
8
6
HIDDEN
10
35.8635073132
20
22.0784800079
0
VERTEX
8
_CURVE
62
8
6
HIDDEN
10
35.7453904890
20
22.1766929334
0
VERTEX
8
_CURVE
62
8
6
HIDDEN
10
35.6254847663
20
22.2737054613
0
VERTEX
8
_CURVE
62
8
6
HIDDEN
10
35.5038000464
20
22.3695154220
0
VERTEX
8
_CURVE
62
8
6
HIDDEN
10
35.3803462307
20
22.4641206464
0
VERTEX
8
_CURVE
62
8
6
HIDDEN
10
35.2551332205
20
22.5575189649
0
VERTEX
8
_CURVE
62
8
6
HIDDEN
10
35.1281709172
20
22.6497082084
0
VERTEX
8
_CURVE
62
8
6
HIDDEN
10
34.9994692221
20
22.7406862074
0
VERTEX
8
_CURVE
62
8
6
HIDDEN
10
34.8690380366
20
22.8304507925
0
VERTEX
8
_CURVE
62
8
6
HIDDEN
10
34.7368872621
20
22.9189997946
0
VERTEX
8
_CURVE
62
8
6
HIDDEN
10
34.5966092806
20
23.0104594088
0
VERTEX
8
_CURVE
62
8
6
HIDDEN
10
34.4544618824
20
23.1005809117
0
VERTEX
8
_CURVE
62
8
6
HIDDEN
10
34.3104520426
20
23.1893626820
0
VERTEX
8
_CURVE
62
8
6
HIDDEN
10
34.1645867364
20
23.2768030986
0
VERTEX
8
_CURVE
62
8
6
HIDDEN
10
34.0168729389
20
23.3629005404
0
VERTEX
8
_CURVE
62
8
6
HIDDEN
10
33.8673176252
20
23.4476533863
0
VERTEX
8
_CURVE
62
8
6
HIDDEN
10
33.7159277706
20
23.5310600150
0
VERTEX
8
_CURVE
62
8
6
HIDDEN
10
33.5627103501
20
23.6131188055
0
VERTEX
8
_CURVE
62
8
6
HIDDEN
10
33.4076723390
20
23.6938281366
0
VERTEX
8
_CURVE
62
8
6
HIDDEN
10
33.2508207124
20
23.7731863871
0
VERTEX
8
_CURVE
62
8
6
HIDDEN
10
33.0921624455
20
23.8511919360
0
VERTEX
8
_CURVE
62
8
6
HIDDEN
10
32.9317045133
20
23.9278431621
0
VERTEX
8
_CURVE
62
8
6
HIDDEN
10
32.7694538911
20
24.0031384443
0
VERTEX
8
_CURVE
62
8
6
HIDDEN
10
32.6054175541
20
24.0770761613
0
VERTEX
8
_CURVE
62
8
6
HIDDEN
10
32.4396024773
20
24.1496546921
0
VERTEX
8
_CURVE
62
8
6
HIDDEN
10
32.2720156360
20
24.2208724156
0
VERTEX
8
_CURVE
62
8
6
HIDDEN
10
32.1026640052
20
24.2907277105
0
VERTEX
8
_CURVE
62
8
6
HIDDEN
10
31.9315545602
20
24.3592189559
0
VERTEX
8
_CURVE
62
8
6
HIDDEN
10
31.7586942761
20
24.4263445304
0
VERTEX
8
_CURVE
62
8
6
HIDDEN
10
31.5840901281
20
24.4921028130
0
VERTEX
8
_CURVE
62
8
6
HIDDEN
10
31.4077490913
20
24.5564921825
0
VERTEX
8
_CURVE
62
8
6
HIDDEN
10
31.2378099388
20
24.6166763029
0
VERTEX
8
_CURVE
62
8
6
HIDDEN
10
31.0663020303
20
24.6756103733
0
VERTEX
8
_CURVE
62
8
6
HIDDEN
10
30.8932328326
20
24.7332931157
0
VERTEX
8
_CURVE
62
8
6
HIDDEN
10
30.7186098126
20
24.7897232521
0
VERTEX
8
_CURVE
62
8
6
HIDDEN
10
30.5424404371
20
24.8448995044
0
VERTEX
8
_CURVE
62
8
6
HIDDEN
10
30.3647321730
20
24.8988205945
0
VERTEX
8
_CURVE
62
8
6
HIDDEN
10
30.1854924873
20
24.9514852443
0
VERTEX
8
_CURVE
62
8
6
HIDDEN
10
30.0047288467
20
25.0028921759
0
VERTEX
8
_CURVE
62
8
6
HIDDEN
10
29.8224487181
20
25.0530401110
0
VERTEX
8
_CURVE
62
8
6
HIDDEN
10
29.6386595685
20
25.1019277718
0
VERTEX
8
_CURVE
62
8
6
HIDDEN
10
29.4533688647
20
25.1495538800
0
VERTEX
8
_CURVE
62
8
6
HIDDEN
10
29.2478234741
20
25.2004838710
0
VERTEX
8
_CURVE
62
8
6
HIDDEN
10
29.0404787779
20
25.2498834784
0
VERTEX
8
_CURVE
62
8
6
HIDDEN
10
28.8313433162
20
25.2977503436
0
VERTEX
8
_CURVE
62
8
6
HIDDEN
10
28.6204256291
20
25.3440821078
0
VERTEX
8
_CURVE
62
8
6
HIDDEN
10
28.4077342568
20
25.3888764125
0
VERTEX
8
_CURVE
62
8
6
HIDDEN
10
28.1932777393
20
25.4321308990
0
VERTEX
8
_CURVE
62
8
6
HIDDEN
10
27.9770646168
20
25.4738432087
0
VERTEX
8
_CURVE
62
8
6
HIDDEN
10
27.7591034293
20
25.5140109829
0
VERTEX
8
_CURVE
62
8
6
HIDDEN
10
27.5394027168
20
25.5526318630
0
VERTEX
8
_CURVE
62
8
6
HIDDEN
10
27.3179710196
20
25.5897034903
0
VERTEX
8
_CURVE
62
8
6
HIDDEN
10
27.1014672015
20
25.6241910125
0
VERTEX
8
_CURVE
62
8
6
HIDDEN
10
26.8833497465
20
25.6572139768
0
VERTEX
8
_CURVE
62
8
6
HIDDEN
10
26.6636267005
20
25.6887686686
0
VERTEX
8
_CURVE
62
8
6
HIDDEN
10
26.4423061094
20
25.7188513731
0
VERTEX
8
_CURVE
62
8
6
HIDDEN
10
26.2193960190
20
25.7474583755
0
VERTEX
8
_CURVE
62
8
6
HIDDEN
10
25.9949044750
20
25.7745859610
0
VERTEX
8
_CURVE
62
8
6
HIDDEN
10
25.7688395234
20
25.8002304148
0
VERTEX
8
_CURVE
62
8
6
HIDDEN
10
25.5412092100
20
25.8243880223
0
VERTEX
8
_CURVE
62
8
6
HIDDEN
10
25.3120215806
20
25.8470550685
0
VERTEX
8
_CURVE
62
8
6
HIDDEN
10
25.0812846810
20
25.8682278388
0
VERTEX
8
_CURVE
62
8
6
HIDDEN
10
24.8490065571
20
25.8879026184
0
VERTEX
8
_CURVE
62
8
6
HIDDEN
10
24.6151952547
20
25.9060756925
0
VERTEX
8
_CURVE
62
8
6
HIDDEN
10
24.3798588197
20
25.9227433464
0
VERTEX
8
_CURVE
62
8
6
HIDDEN
10
24.1430052978
20
25.9379018652
0
VERTEX
8
_CURVE
62
8
6
HIDDEN
10
23.9046427349
20
25.9515475342
0
VERTEX
8
_CURVE
62
8
6
HIDDEN
10
23.6647791768
20
25.9636766387
0
VERTEX
8
_CURVE
62
8
6
HIDDEN
10
23.4234226695
20
25.9742854638
0
VERTEX
8
_CURVE
62
8
6
HIDDEN
10
23.1805812586
20
25.9833702948
0
VERTEX
8
_CURVE
62
8
6
HIDDEN
10
22.9362629900
20
25.9909274170
0
SEQEND
0
CIRCLE
8
0
62
2
6
CONTINUOUS
10
16.7804237319
20
18.2947976741
40
0.2513022906
0
ARC
8
_CURVE
62
8
6
HIDDEN
10
21.0667042620
20
24.4915032368
40
1.5000000000
50
52.4586857799
51
91.5876296374
0
ARC
8
_CURVE
62
8
6
HIDDEN
10
9.3152143219
20
10.5000550936
40
3.0000000000
50
227.4048919231
51
270.0000000000
0
ARC
8
_CURVE
62
8
6
HIDDEN
10
21.0667042620
20
9.0000550936
40
1.5000000000
50
270.0000000000
51
307.5413142201
0
ARC
8
_CURVE
62
8
6
HIDDEN
10
22.8947042620
20
9.0000550936
40
1.5000000000
50
232.4586857799
51
270.0000000000
0
ARC
8
_CURVE
62
8
6
HIDDEN
10
34.6461942020
20
10.5000550936
40
3.0000000000
50
270.0000000000
51
312.5951080769
0
ARC
8
_CURVE
62
8
6
HIDDEN
10
22.8947042620
20
24.4915032368
40
1.5000000000
50
88.4123703626
51
127.5413142201
0
CIRCLE
8
_CURVE
62
7
6
CONTINUOUS
10
21.9807042620
20
27.1220550936
40
0.6900000000
0
CIRCLE
8
_CURVE
62
7
6
CONTINUOUS
10
25.9807042620
20
27.1220550936
40
0.6900000000
0
CIRCLE
8
_CURVE
62
7
6
CONTINUOUS
10
17.9807042620
20
27.1220550936
40
0.6900000000
0
CIRCLE
8
_CURVE
62
7
6
CONTINUOUS
10
9.0917042620
20
24.1550550936
40
0.6900000000
0
CIRCLE
8
_CURVE
62
7
6
CONTINUOUS
10
34.8697042620
20
24.1550550936
40
0.6900000000
0
ENDSEC
0
EOF
