999
DXF file: 1022024_7_d.dxf
999
Pro/ENGINEER 2007160 by Parametric Technology Corporation
  0
SECTION
  2
HEADER
  9
$EXTMAX
 10
44.0
 20
34.0
 30
0.0
  9
$EXTMIN
 10
0.0
 20
0.0
 30
0.0
  9
$LIMMIN
 10
0.0
 20
0.0
  9
$LIMMAX
 10
44.0
 20
34.0
  9
$VIEWCTR
 10
22.0
 20
17.0
  9
$VIEWSIZE
 40
34.0
  9
$CLAYER
  8
0
  9
$LTSCALE
 40
2.42
  9
$CELTYPE
  6
BYLAYER
  9
$DIMSCALE
 40
1.0
  9
$DIMASZ
 40
0.1875
  9
$DIMEXO
 40
0.275
  9
$DIMDLI
 40
1.672
  9
$DIMEXE
 40
0.792
  9
$DIMCEN
 40
0.396
  9
$DIMLFAC
 40
1.0
  9
$DIMBLK
  1
_FILLED
  9
$DIMTXT
 40
0.15625
  9
$PDMODE
 70
3
  9
$PDSIZE
 40
0.3125
  0
ENDSEC
  0
SECTION
  2
TABLES
  0
TABLE
  2
LTYPE
 70
6
  0
LTYPE
  2
BYBLOCK
 70
0
  3

 72
65
 73
0
 40
0.0
  0
LTYPE
  2
BYLAYER
 70
0
  3

 72
65
 73
0
 40
0.0
  0
LTYPE
  2
CONTINUOUS
 70
64
  3
Solid line
 72
65
 73
0
 40
0.0
  0
LTYPE
  2
CENTER
 70
64
  3
____ _ ____ _ ____ _ ____ _ ____ _ ____ _ ____
 72
65
 73
4
 40
0.6
 49
0.375
 49
-0.075
 49
0.075
 49
-0.075
  0
LTYPE
  2
HIDDEN
 70
64
  3
- - - - - - - - - - - - - - - - - - - -
 72
65
 73
2
 40
0.2
 49
0.1
 49
-0.1
  0
LTYPE
  2
PHANTOM
 70
64
  3
_____ _ _ _____ _ _ _____ _ _ _____
 72
65
 73
6
 40
0.8
 49
0.45
 49
-0.05
 49
0.1
 49
-0.05
 49
0.1
 49
-0.05
  0
LTYPE
  2
DOT
 70
64
  3
. . . . . . . . . . . . . . . . . . . .
 72
65
 73
2
 40
0.2
 49
0.1
 49
-0.1
  0
LTYPE
  2
DASHED
 70
64
  3
- - - - - - - - - - - - - - - - - - - -
 72
65
 73
2
 40
0.2
 49
0.1
 49
-0.1
  0
ENDTAB
  0
TABLE
  2
LAYER
 70
36
  0
LAYER
  2
0
 70
0
 62
7
  6
CONTINUOUS
  0
LAYER
  2
DEFAULT_1
 70
0
 62
7
  6
CENTER
  0
LAYER
  2
DEFAULT_2
 70
0
 62
8
  6
HIDDEN
  0
LAYER
  2
DEFAULT_3
 70
0
 62
7
  6
PHANTOM
  0
LAYER
  2
_2D_DELETED_OBJS
 70
0
 62
7
  6
CONTINUOUS
  0
LAYER
  2
_BLACK_HOLE
 70
0
 62
7
  6
CONTINUOUS
  0
LAYER
  2
DATUMS
 70
0
 62
7
  6
CONTINUOUS
  0
LAYER
  2
DATUM_AXIS
 70
0
 62
7
  6
CONTINUOUS
  0
LAYER
  2
DATUM_CSYS
 70
0
 62
7
  6
CONTINUOUS
  0
LAYER
  2
DATUM_PLANE
 70
0
 62
7
  6
CONTINUOUS
  0
LAYER
  2
DATUM_POINT
 70
0
 62
7
  6
CONTINUOUS
  0
LAYER
  2
_CURVE
 70
0
 62
7
  6
CONTINUOUS
  0
LAYER
  2
_SURFACE
 70
0
 62
7
  6
CONTINUOUS
  0
LAYER
  2
__REF_CURVE
 70
0
 62
7
  6
CONTINUOUS
  0
LAYER
  2
__REF_SURFACE
 70
0
 62
7
  6
CONTINUOUS
  0
LAYER
  2
___NOTE
 70
0
 62
7
  6
CONTINUOUS
  0
LAYER
  2
___SYMBOL
 70
0
 62
7
  6
CONTINUOUS
  0
ENDTAB
  0
TABLE
  2
STYLE
 70
1
  0
STYLE
  2
STANDARD
 70
0
 40
0.0
 41
0.8
 50
0.0
 71
0
 42
0.2
  3
txt
  4

  0
ENDTAB
  0
ENDSEC
  0
SECTION
  2
BLOCKS
  0
BLOCK
  8
0
 62
2
  6
CONTINUOUS
  2
*D0
 70
65
 10
0.0
 20
0.0
  0
TEXT
  8
0
 62
2
  6
CONTINUOUS
 10
23.7889806435
 20
15.6370508817
  7
STANDARD
 40
0.15625
  1
"
 41
0.8
 72
0
  0
TEXT
  8
0
 62
2
  6
CONTINUOUS
 10
23.0389806435
 20
15.4026758817
  7
STANDARD
 40
0.15625
  1
[103,8 cm]
 41
0.8
 72
0
  0
TEXT
  8
0
 62
2
  6
CONTINUOUS
 10
23.0389806435
 20
15.6370508817
  7
STANDARD
 40
0.15625
  1
40-7/8
 41
0.8
 72
0
  0
LINE
  8
0
 62
2
  6
CONTINUOUS
 10
1.5678174921
 20
14.9284291771
 11
1.5678174921
 21
15.8401758817
  0
LINE
  8
0
 62
2
  6
CONTINUOUS
 10
42.4428174921
 20
14.9284291771
 11
42.4428174921
 21
15.8401758817
  0
LINE
  8
0
 62
2
  6
CONTINUOUS
 10
1.5678174921
 20
15.7151758817
 11
22.9608556435
 21
15.7151758817
  0
LINE
  8
0
 62
2
  6
CONTINUOUS
 10
42.4428174921
 20
15.7151758817
 11
24.3671056435
 21
15.7151758817
  0
INSERT
  8
0
 62
2
  6
CONTINUOUS
  2
_FILLED
 10
1.5678174921
 20
15.7151758817
 41
0.1875
 42
0.1875
 43
0.1875
 50
180.0
  0
INSERT
  8
0
 62
2
  6
CONTINUOUS
  2
_FILLED
 10
42.4428174921
 20
15.7151758817
 41
0.1875
 42
0.1875
 43
0.1875
 50
360.0
  0
ENDBLK
  8
0
  6
BYBLOCK
 62
0
  0
BLOCK
  8
0
 62
2
  6
CONTINUOUS
  2
*D1
 70
65
 10
0.0
 20
0.0
  0
TEXT
  8
0
 62
2
  6
CONTINUOUS
 10
22.6587955593
 20
14.5136970582
  7
STANDARD
 40
0.15625
  1
"
 41
0.8
 72
0
  0
TEXT
  8
0
 62
2
  6
CONTINUOUS
 10
22.0337955593
 20
14.2793220582
  7
STANDARD
 40
0.15625
  1
[15,6 cm]
 41
0.8
 72
0
  0
TEXT
  8
0
 62
2
  6
CONTINUOUS
 10
22.0337955593
 20
14.5136970582
  7
STANDARD
 40
0.15625
  1
6-1/8
 41
0.8
 72
0
  0
LINE
  8
0
 62
2
  6
CONTINUOUS
 10
23.281651021
 20
18.9555520032
 11
22.2837955593
 21
18.9555520032
  0
LINE
  8
0
 62
2
  6
CONTINUOUS
 10
23.281651021
 20
12.8305520032
 11
22.2837955593
 21
12.8305520032
  0
LINE
  8
0
 62
2
  6
CONTINUOUS
 10
22.4087955593
 20
18.9555520032
 11
22.4087955593
 21
14.7480720582
  0
LINE
  8
0
 62
2
  6
CONTINUOUS
 10
22.4087955593
 20
12.8305520032
 11
22.4087955593
 21
14.2011970582
  0
INSERT
  8
0
 62
2
  6
CONTINUOUS
  2
_FILLED
 10
22.4087955593
 20
18.9555520032
 41
0.1875
 42
0.1875
 43
0.1875
 50
90.0
  0
INSERT
  8
0
 62
2
  6
CONTINUOUS
  2
_FILLED
 10
22.4087955593
 20
12.8305520032
 41
0.1875
 42
0.1875
 43
0.1875
 50
270.0
  0
ENDBLK
  8
0
  6
BYBLOCK
 62
0
  0
BLOCK
  8
___SYMBOL
 62
2
  6
CONTINUOUS
  2
COPYRIGHT_YEAR_BL0
 70
64
 10
38.5556436611
 20
13.0296940586
  0
TEXT
  8
___SYMBOL
 62
2
  6
CONTINUOUS
 10
38.1819533576
 20
12.9944205586
  7
STANDARD
 40
0.0704997506
  1
2008
 41
0.8
 72
0
  0
TEXT
  8
___SYMBOL
 62
2
  6
CONTINUOUS
 10
38.4075525594
 20
12.9944205586
  7
STANDARD
 40
0.0704997506
  1
 KOHLER CO.
 41
0.8
 72
0
  0
TEXT
  8
___SYMBOL
 62
7
  6
CONTINUOUS
 10
38.1019278916
 20
13.0109055005
  7
STANDARD
 40
0.0421873503
  1
C
 41
1.0
 72
0
  0
CIRCLE
  8
___SYMBOL
 62
7
  6
CONTINUOUS
 10
38.1161628411
 20
13.0321416751
 40
0.0328258835
  0
ENDBLK
  8
0
  6
BYBLOCK
 62
0
  0
BLOCK
  8
___SYMBOL
 62
2
  6
CONTINUOUS
  2
TEMPLATE_NUMBER_BL1
 70
64
 10
4.5549173093
 20
13.1317084205
  0
TEXT
  8
___SYMBOL
 62
2
  6
CONTINUOUS
 10
4.2447174068
 20
13.0964584316
  7
STANDARD
 40
0.0704999778
  1
1022024-7
 41
0.8
 72
0
  0
TEXT
  8
___SYMBOL
 62
2
  6
CONTINUOUS
 10
4.7523172472
 20
13.0964584316
  7
STANDARD
 40
0.0704999778
  1
-
 41
0.8
 72
0
  0
TEXT
  8
___SYMBOL
 62
2
  6
CONTINUOUS
 10
4.8087172295
 20
13.0964584316
  7
STANDARD
 40
0.0704999778
  1
D
 41
0.8
 72
0
  0
ENDBLK
  8
0
  6
BYBLOCK
 62
0
  0
BLOCK
  8
___SYMBOL
 62
2
  6
CONTINUOUS
  2
TEMPLATE_NUMBER_BL2
 70
64
 10
4.5693584519
 20
11.5670347154
  0
TEXT
  8
___SYMBOL
 62
2
  6
CONTINUOUS
 10
4.2591585494
 20
11.5317847265
  7
STANDARD
 40
0.0704999778
  1
1022024-7
 41
0.8
 72
0
  0
TEXT
  8
___SYMBOL
 62
2
  6
CONTINUOUS
 10
4.7667583898
 20
11.5317847265
  7
STANDARD
 40
0.0704999778
  1
-
 41
0.8
 72
0
  0
TEXT
  8
___SYMBOL
 62
2
  6
CONTINUOUS
 10
4.8231583721
 20
11.5317847265
  7
STANDARD
 40
0.0704999778
  1
D
 41
0.8
 72
0
  0
ENDBLK
  8
0
  6
BYBLOCK
 62
0
  0
BLOCK
  8
___SYMBOL
 62
2
  6
CONTINUOUS
  2
PLOTTING_TEMPLATE_NOTE_BL3
 70
64
 10
12.8072210606
 20
10.0251960352
  0
TEXT
  8
___SYMBOL
 62
2
  6
CONTINUOUS
 10
9.9322210606
 20
11.3533210352
  7
STANDARD
 40
0.15625
  1
WHEN PLOTTING TEMPLATE FULL SIZE:
 41
0.8
 72
0
  0
TEXT
  8
___SYMBOL
 62
2
  6
CONTINUOUS
 10
9.9322210606
 20
11.1189460352
  7
STANDARD
 40
0.15625
  1
Make sure horizontal and vertical dimensions
 41
0.8
 72
0
  0
TEXT
  8
___SYMBOL
 62
2
  6
CONTINUOUS
 10
9.9322210606
 20
10.8845710352
  7
STANDARD
 40
0.15625
  1
match the dimensions labeled on the template.
 41
0.8
 72
0
  0
TEXT
  8
___SYMBOL
 62
2
  6
CONTINUOUS
 10
9.9322210606
 20
10.6501960352
  7
STANDARD
 40
0.15625
  1
 
 41
0.8
 72
0
  0
TEXT
  8
___SYMBOL
 62
2
  6
CONTINUOUS
 10
9.9322210606
 20
10.4158210352
  7
STANDARD
 40
0.15625
  1
LORS DU TRACÉ DU GABARIT À L'ÉCHELLE: 
 41
0.8
 72
0
  0
TEXT
  8
___SYMBOL
 62
2
  6
CONTINUOUS
 10
9.9322210606
 20
10.1814460352
  7
STANDARD
 40
0.15625
  1
s'assurer que les dimensions horizontales et
 41
0.8
 72
0
  0
TEXT
  8
___SYMBOL
 62
2
  6
CONTINUOUS
 10
9.9322210606
 20
9.9470710352
  7
STANDARD
 40
0.15625
  1
verticales correspondent à celles marquées sur
 41
0.8
 72
0
  0
TEXT
  8
___SYMBOL
 62
2
  6
CONTINUOUS
 10
9.9322210606
 20
9.7126960352
  7
STANDARD
 40
0.15625
  1
le gabarit.
 41
0.8
 72
0
  0
TEXT
  8
___SYMBOL
 62
2
  6
CONTINUOUS
 10
9.9322210606
 20
9.4783210352
  7
STANDARD
 40
0.15625
  1
 
 41
0.8
 72
0
  0
TEXT
  8
___SYMBOL
 62
2
  6
CONTINUOUS
 10
9.9322210606
 20
9.2439460352
  7
STANDARD
 40
0.15625
  1
AL TRAZAR LA PLANTILLA A ESCALA COMPLETA:
 41
0.8
 72
0
  0
TEXT
  8
___SYMBOL
 62
2
  6
CONTINUOUS
 10
9.9322210606
 20
9.0095710352
  7
STANDARD
 40
0.15625
  1
asegúrese de que la dimensión horizontal y
 41
0.8
 72
0
  0
TEXT
  8
___SYMBOL
 62
2
  6
CONTINUOUS
 10
9.9322210606
 20
8.7751960352
  7
STANDARD
 40
0.15625
  1
la dimensión vertical sean iguales a las
 41
0.8
 72
0
  0
TEXT
  8
___SYMBOL
 62
2
  6
CONTINUOUS
 10
9.9322210606
 20
8.5408210352
  7
STANDARD
 40
0.15625
  1
dimensiones indicadas en la plantilla.
 41
0.8
 72
0
  0
ENDBLK
  8
0
  6
BYBLOCK
 62
0
  0
BLOCK
  8
___SYMBOL
 62
2
  6
CONTINUOUS
  2
SKU_SINK_KOHLER_BL4
 70
64
 10
12.7261451405
 20
22.6022648239
  0
TEXT
  8
___SYMBOL
 62
2
  6
CONTINUOUS
 10
10.3261451405
 20
23.8168149099
  7
STANDARD
 40
0.25
  1
CUT-OUT TEMPLATE
 41
0.8
 72
0
  0
TEXT
  8
___SYMBOL
 62
2
  6
CONTINUOUS
 10
10.3261451405
 20
23.4418149099
  7
STANDARD
 40
0.25
  1
UNDERCOUNTER SINK
 41
0.8
 72
0
  0
TEXT
  8
___SYMBOL
 62
2
  6
CONTINUOUS
 10
10.3261451405
 20
23.0668149099
  7
STANDARD
 40
0.25
  1
GABARIT DE DÉCOUPE
 41
0.8
 72
0
  0
TEXT
  8
___SYMBOL
 62
2
  6
CONTINUOUS
 10
10.3261451405
 20
22.6918149099
  7
STANDARD
 40
0.25
  1
ÉVIER SOUS COMPTOIR
 41
0.8
 72
0
  0
TEXT
  8
___SYMBOL
 62
2
  6
CONTINUOUS
 10
10.3261451405
 20
22.3168149099
  7
STANDARD
 40
0.25
  1
PLANTILLA DE CORTE
 41
0.8
 72
0
  0
TEXT
  8
___SYMBOL
 62
2
  6
CONTINUOUS
 10
10.3261451405
 20
21.9418149099
  7
STANDARD
 40
0.25
  1
FREGADERO DE INSTALACIÓN
 41
0.8
 72
0
  0
TEXT
  8
___SYMBOL
 62
2
  6
CONTINUOUS
 10
10.3261451405
 20
21.5668149099
  7
STANDARD
 40
0.25
  1
 BAJO CUBIERTA
 41
0.8
 72
0
  0
TEXT
  8
___SYMBOL
 62
2
  6
CONTINUOUS
 10
10.3261451405
 20
21.1918149099
  7
STANDARD
 40
0.25
  1
UNDERTONE
 41
0.8
 72
0
  0
TEXT
  8
___SYMBOL
 62
2
  6
CONTINUOUS
 10
12.1261451405
 20
21.1918149099
  7
STANDARD
 40
0.25
  1
   
 41
0.8
 72
0
  0
TEXT
  8
___SYMBOL
 62
2
  6
CONTINUOUS
 10
12.7261451405
 20
21.1918149099
  7
STANDARD
 40
0.25
  1
3188
 41
0.8
 72
0
  0
TEXT
  8
___SYMBOL
 62
2
  6
CONTINUOUS
 10
13.5261451405
 20
21.1918149099
  7
STANDARD
 40
0.25
  1
-**-
 41
0.8
 72
0
  0
TEXT
  8
___SYMBOL
 62
2
  6
CONTINUOUS
 10
14.3261451405
 20
21.1918149099
  7
STANDARD
 40
0.25
  1
AA
 41
0.8
 72
0
  0
LINE
  8
___SYMBOL
 62
2
  6
CONTINUOUS
 10
10.8527169167
 20
24.8687281477
 11
10.6394134648
 21
24.6150798748
  0
LINE
  8
___SYMBOL
 62
2
  6
CONTINUOUS
 10
10.6606551046
 20
24.8687281477
 11
10.8527169167
 21
24.8687281477
  0
LINE
  8
___SYMBOL
 62
2
  6
CONTINUOUS
 10
10.6606551046
 20
24.8687281477
 11
10.5228909379
 21
24.704906958
  0
LINE
  8
___SYMBOL
 62
2
  6
CONTINUOUS
 10
10.5228909379
 20
24.8687281477
 11
10.5228909379
 21
24.704906958
  0
LINE
  8
___SYMBOL
 62
2
  6
CONTINUOUS
 10
10.348390711
 20
24.8687281477
 11
10.5228909379
 21
24.8687281477
  0
LINE
  8
___SYMBOL
 62
2
  6
CONTINUOUS
 10
10.348390711
 20
24.8687281477
 11
10.348390711
 21
24.2827904949
  0
LINE
  8
___SYMBOL
 62
2
  6
CONTINUOUS
 10
10.5228909379
 20
24.2828144983
 11
10.348390711
 21
24.2827904949
  0
LINE
  8
___SYMBOL
 62
2
  6
CONTINUOUS
 10
10.5228909379
 20
24.4843143324
 11
10.5228909379
 21
24.2828144983
  0
LINE
  8
___SYMBOL
 62
2
  6
CONTINUOUS
 10
10.676628878
 20
24.2828144983
 11
10.5228909379
 21
24.4843143324
  0
LINE
  8
___SYMBOL
 62
2
  6
CONTINUOUS
 10
10.676628878
 20
24.2828144983
 11
10.8929212995
 21
24.2828144983
  0
LINE
  8
___SYMBOL
 62
2
  6
CONTINUOUS
 10
10.8929212995
 20
24.2828144983
 11
10.6394134648
 21
24.6150798748
  0
SOLID
  8
___SYMBOL
 62
2
  6
CONTINUOUS
 10
10.5228909379
 20
24.704906958
 11
10.6606551046
 21
24.8687281477
 12
10.8527169167
 22
24.8687281477
 13
10.8527169167
 23
24.8687281477
  0
SOLID
  8
___SYMBOL
 62
2
  6
CONTINUOUS
 10
10.8527169167
 20
24.8687281477
 11
10.6394134648
 21
24.6150798748
 12
10.5228909379
 22
24.704906958
 13
10.5228909379
 23
24.704906958
  0
SOLID
  8
___SYMBOL
 62
2
  6
CONTINUOUS
 10
10.5228909379
 20
24.4843143324
 11
10.6394134648
 21
24.6150798748
 12
10.676628878
 22
24.2828144983
 13
10.676628878
 23
24.2828144983
  0
SOLID
  8
___SYMBOL
 62
2
  6
CONTINUOUS
 10
10.6394134648
 20
24.6150798748
 11
10.8929212995
 21
24.2828144983
 12
10.676628878
 22
24.2828144983
 13
10.676628878
 23
24.2828144983
  0
SOLID
  8
___SYMBOL
 62
2
  6
CONTINUOUS
 10
10.5228909379
 20
24.2828144983
 11
10.348390711
 21
24.2827904949
 12
10.5228909379
 22
24.4843143324
 13
10.5228909379
 23
24.4843143324
  0
SOLID
  8
___SYMBOL
 62
2
  6
CONTINUOUS
 10
10.6394134648
 20
24.6150798748
 11
10.5228909379
 21
24.4843143324
 12
10.5228909379
 22
24.704906958
 13
10.5228909379
 23
24.704906958
  0
SOLID
  8
___SYMBOL
 62
2
  6
CONTINUOUS
 10
10.5228909379
 20
24.4843143324
 11
10.348390711
 21
24.2827904949
 12
10.5228909379
 22
24.704906958
 13
10.5228909379
 23
24.704906958
  0
SOLID
  8
___SYMBOL
 62
2
  6
CONTINUOUS
 10
10.5228909379
 20
24.704906958
 11
10.348390711
 21
24.2827904949
 12
10.5228909379
 22
24.8687281477
 13
10.5228909379
 23
24.8687281477
  0
SOLID
  8
___SYMBOL
 62
2
  6
CONTINUOUS
 10
10.348390711
 20
24.2827904949
 11
10.348390711
 21
24.8687281477
 12
10.5228909379
 22
24.8687281477
 13
10.5228909379
 23
24.8687281477
  0
CIRCLE
  8
___SYMBOL
 62
2
  6
CONTINUOUS
 10
11.0694301362
 20
24.5746500712
 40
0.298056591
  0
CIRCLE
  8
___SYMBOL
 62
2
  6
CONTINUOUS
 10
11.0694301362
 20
24.5746500712
 40
0.1247694151
  0
SOLID
  8
___SYMBOL
 62
2
  6
CONTINUOUS
 10
10.9773255843
 20
24.8581187342
 11
11.0382747387
 21
24.871073877
 12
11.1005855336
 22
24.871073877
 13
11.1005855336
 23
24.871073877
  0
SOLID
  8
___SYMBOL
 62
2
  6
CONTINUOUS
 10
11.1005855336
 20
24.871073877
 11
11.1615346881
 21
24.8581187342
 12
10.9773255843
 22
24.8581187342
 13
10.9773255843
 23
24.8581187342
  0
SOLID
  8
___SYMBOL
 62
2
  6
CONTINUOUS
 10
10.9204018407
 20
24.8327746507
 11
10.9773255843
 21
24.8581187342
 12
11.1615346881
 22
24.8581187342
 13
11.1615346881
 23
24.8581187342
  0
SOLID
  8
___SYMBOL
 62
2
  6
CONTINUOUS
 10
11.1615346881
 20
24.8581187342
 11
11.2184584317
 21
24.8327746507
 12
10.9204018407
 22
24.8327746507
 13
10.9204018407
 23
24.8327746507
  0
SOLID
  8
___SYMBOL
 62
2
  6
CONTINUOUS
 10
10.8699913487
 20
24.7961492845
 11
10.9204018407
 21
24.8327746507
 12
11.2184584317
 22
24.8327746507
 13
11.2184584317
 23
24.8327746507
  0
SOLID
  8
___SYMBOL
 62
2
  6
CONTINUOUS
 10
11.2184584317
 20
24.8327746507
 11
11.2688689236
 21
24.7961492845
 12
10.8699913487
 22
24.7961492845
 13
10.8699913487
 23
24.7961492845
  0
SOLID
  8
___SYMBOL
 62
2
  6
CONTINUOUS
 10
10.8282972888
 20
24.7498433397
 11
10.8699913487
 21
24.7961492845
 12
11.2688689236
 22
24.7961492845
 13
11.2688689236
 23
24.7961492845
  0
SOLID
  8
___SYMBOL
 62
2
  6
CONTINUOUS
 10
11.2688689236
 20
24.7961492845
 11
11.3105629836
 21
24.7498433397
 12
10.8282972888
 22
24.7498433397
 13
10.8282972888
 23
24.7498433397
  0
SOLID
  8
___SYMBOL
 62
2
  6
CONTINUOUS
 10
11.0694301362
 20
24.6994194862
 11
10.7971418914
 21
24.6958806084
 12
11.3105629836
 22
24.7498433397
 13
11.3105629836
 23
24.7498433397
  0
SOLID
  8
___SYMBOL
 62
2
  6
CONTINUOUS
 10
10.7971418914
 20
24.6958806084
 11
10.8282972888
 21
24.7498433397
 12
11.3105629836
 22
24.7498433397
 13
11.3105629836
 23
24.7498433397
  0
SOLID
  8
___SYMBOL
 62
2
  6
CONTINUOUS
 10
11.3105629836
 20
24.7498433397
 11
11.341718381
 21
24.6958806084
 12
11.0694301362
 22
24.6994194862
 13
11.0694301362
 23
24.6994194862
  0
SOLID
  8
___SYMBOL
 62
2
  6
CONTINUOUS
 10
11.0694301362
 20
24.6994194862
 11
11.0308742665
 21
24.6933128364
 12
10.7971418914
 22
24.6958806084
 13
10.7971418914
 23
24.6958806084
  0
SOLID
  8
___SYMBOL
 62
2
  6
CONTINUOUS
 10
11.1079860058
 20
24.6933128364
 11
11.0694301362
 21
24.6994194862
 12
11.341718381
 22
24.6958806084
 13
11.341718381
 23
24.6958806084
  0
SOLID
  8
___SYMBOL
 62
2
  6
CONTINUOUS
 10
10.968489559
 20
24.6479876933
 11
10.7778867968
 21
24.636619521
 12
10.9960925141
 22
24.6755906483
 13
10.9960925141
 23
24.6755906483
  0
SOLID
  8
___SYMBOL
 62
2
  6
CONTINUOUS
 10
10.9960925141
 20
24.6755906483
 11
10.7778867968
 21
24.636619521
 12
11.0308742665
 22
24.6933128364
 13
11.0308742665
 23
24.6933128364
  0
SOLID
  8
___SYMBOL
 62
2
  6
CONTINUOUS
 10
10.7778867968
 20
24.636619521
 11
10.7971418914
 21
24.6958806084
 12
11.0308742665
 22
24.6933128364
 13
11.0308742665
 23
24.6933128364
  0
SOLID
  8
___SYMBOL
 62
2
  6
CONTINUOUS
 10
11.1079860058
 20
24.6933128364
 11
11.341718381
 21
24.6958806084
 12
11.1427677583
 22
24.6755906483
 13
11.1427677583
 23
24.6755906483
  0
SOLID
  8
___SYMBOL
 62
2
  6
CONTINUOUS
 10
11.1427677583
 20
24.6755906483
 11
11.341718381
 21
24.6958806084
 12
11.1703707133
 22
24.6479876933
 13
11.1703707133
 23
24.6479876933
  0
SOLID
  8
___SYMBOL
 62
2
  6
CONTINUOUS
 10
11.341718381
 20
24.6958806084
 11
11.3609734755
 21
24.636619521
 12
11.1703707133
 22
24.6479876933
 13
11.1703707133
 23
24.6479876933
  0
SOLID
  8
___SYMBOL
 62
2
  6
CONTINUOUS
 10
10.968489559
 20
24.6479876933
 11
10.9507673709
 21
24.6132059408
 12
10.7778867968
 22
24.636619521
 13
10.7778867968
 23
24.636619521
  0
SOLID
  8
___SYMBOL
 62
2
  6
CONTINUOUS
 10
11.1880929014
 20
24.6132059408
 11
11.1703707133
 21
24.6479876933
 12
11.3609734755
 22
24.636619521
 13
11.3609734755
 23
24.636619521
  0
SOLID
  8
___SYMBOL
 62
2
  6
CONTINUOUS
 10
10.7713735452
 20
24.5746500712
 11
10.7778867968
 21
24.636619521
 12
10.9507673709
 22
24.6132059408
 13
10.9507673709
 23
24.6132059408
  0
SOLID
  8
___SYMBOL
 62
2
  6
CONTINUOUS
 10
10.9507673709
 20
24.6132059408
 11
10.9446607211
 21
24.5746500712
 12
10.7713735452
 22
24.5746500712
 13
10.7713735452
 23
24.5746500712
  0
SOLID
  8
___SYMBOL
 62
2
  6
CONTINUOUS
 10
11.1880929014
 20
24.6132059408
 11
11.3609734755
 21
24.636619521
 12
11.1941995512
 22
24.5746500712
 13
11.1941995512
 23
24.5746500712
  0
SOLID
  8
___SYMBOL
 62
2
  6
CONTINUOUS
 10
11.3609734755
 20
24.636619521
 11
11.3674867272
 21
24.5746500712
 12
11.1941995512
 22
24.5746500712
 13
11.1941995512
 23
24.5746500712
  0
SOLID
  8
___SYMBOL
 62
2
  6
CONTINUOUS
 10
11.1880929014
 20
24.5360942015
 11
11.1941995512
 21
24.5746500712
 12
11.3674867272
 22
24.5746500712
 13
11.3674867272
 23
24.5746500712
  0
SOLID
  8
___SYMBOL
 62
2
  6
CONTINUOUS
 10
10.9507673709
 20
24.5360942015
 11
10.7778867968
 21
24.5126806214
 12
10.9446607211
 22
24.5746500712
 13
10.9446607211
 23
24.5746500712
  0
SOLID
  8
___SYMBOL
 62
2
  6
CONTINUOUS
 10
10.7778867968
 20
24.5126806214
 11
10.7713735452
 21
24.5746500712
 12
10.9446607211
 22
24.5746500712
 13
10.9446607211
 23
24.5746500712
  0
SOLID
  8
___SYMBOL
 62
2
  6
CONTINUOUS
 10
11.3674867272
 20
24.5746500712
 11
11.3609734755
 21
24.5126806214
 12
11.1880929014
 22
24.5360942015
 13
11.1880929014
 23
24.5360942015
  0
SOLID
  8
___SYMBOL
 62
2
  6
CONTINUOUS
 10
10.9507673709
 20
24.5360942015
 11
10.968489559
 21
24.501312449
 12
10.7778867968
 22
24.5126806214
 13
10.7778867968
 23
24.5126806214
  0
SOLID
  8
___SYMBOL
 62
2
  6
CONTINUOUS
 10
11.1703707133
 20
24.501312449
 11
11.1880929014
 21
24.5360942015
 12
11.3609734755
 22
24.5126806214
 13
11.3609734755
 23
24.5126806214
  0
SOLID
  8
___SYMBOL
 62
2
  6
CONTINUOUS
 10
11.0308742665
 20
24.4559873059
 11
10.7971418914
 21
24.4534195339
 12
10.9960925141
 22
24.473709494
 13
10.9960925141
 23
24.473709494
  0
SOLID
  8
___SYMBOL
 62
2
  6
CONTINUOUS
 10
10.9960925141
 20
24.473709494
 11
10.7971418914
 21
24.4534195339
 12
10.968489559
 22
24.501312449
 13
10.968489559
 23
24.501312449
  0
SOLID
  8
___SYMBOL
 62
2
  6
CONTINUOUS
 10
10.7971418914
 20
24.4534195339
 11
10.7778867968
 21
24.5126806214
 12
10.968489559
 22
24.501312449
 13
10.968489559
 23
24.501312449
  0
SOLID
  8
___SYMBOL
 62
2
  6
CONTINUOUS
 10
11.1703707133
 20
24.501312449
 11
11.3609734755
 21
24.5126806214
 12
11.1427677583
 22
24.473709494
 13
11.1427677583
 23
24.473709494
  0
SOLID
  8
___SYMBOL
 62
2
  6
CONTINUOUS
 10
11.1427677583
 20
24.473709494
 11
11.3609734755
 21
24.5126806214
 12
11.1079860058
 22
24.4559873059
 13
11.1079860058
 23
24.4559873059
  0
SOLID
  8
___SYMBOL
 62
2
  6
CONTINUOUS
 10
11.3609734755
 20
24.5126806214
 11
11.341718381
 21
24.4534195339
 12
11.1079860058
 22
24.4559873059
 13
11.1079860058
 23
24.4559873059
  0
SOLID
  8
___SYMBOL
 62
2
  6
CONTINUOUS
 10
11.0308742665
 20
24.4559873059
 11
11.0694301362
 21
24.4498806561
 12
10.7971418914
 22
24.4534195339
 13
10.7971418914
 23
24.4534195339
  0
SOLID
  8
___SYMBOL
 62
2
  6
CONTINUOUS
 10
11.0694301362
 20
24.4498806561
 11
11.1079860058
 21
24.4559873059
 12
11.341718381
 22
24.4534195339
 13
11.341718381
 23
24.4534195339
  0
SOLID
  8
___SYMBOL
 62
2
  6
CONTINUOUS
 10
10.8282972888
 20
24.3994568026
 11
10.7971418914
 21
24.4534195339
 12
11.0694301362
 22
24.4498806561
 13
11.0694301362
 23
24.4498806561
  0
SOLID
  8
___SYMBOL
 62
2
  6
CONTINUOUS
 10
11.0694301362
 20
24.4498806561
 11
11.341718381
 21
24.4534195339
 12
10.8282972888
 22
24.3994568026
 13
10.8282972888
 23
24.3994568026
  0
SOLID
  8
___SYMBOL
 62
2
  6
CONTINUOUS
 10
11.341718381
 20
24.4534195339
 11
11.3105629836
 21
24.3994568026
 12
10.8282972888
 22
24.3994568026
 13
10.8282972888
 23
24.3994568026
  0
SOLID
  8
___SYMBOL
 62
2
  6
CONTINUOUS
 10
10.8699913487
 20
24.3531508579
 11
10.8282972888
 21
24.3994568026
 12
11.3105629836
 22
24.3994568026
 13
11.3105629836
 23
24.3994568026
  0
SOLID
  8
___SYMBOL
 62
2
  6
CONTINUOUS
 10
11.3105629836
 20
24.3994568026
 11
11.2688689236
 21
24.3531508579
 12
10.8699913487
 22
24.3531508579
 13
10.8699913487
 23
24.3531508579
  0
SOLID
  8
___SYMBOL
 62
2
  6
CONTINUOUS
 10
10.9204018407
 20
24.3165254916
 11
10.8699913487
 21
24.3531508579
 12
11.2688689236
 22
24.3531508579
 13
11.2688689236
 23
24.3531508579
  0
SOLID
  8
___SYMBOL
 62
2
  6
CONTINUOUS
 10
11.2688689236
 20
24.3531508579
 11
11.2184584317
 21
24.3165254916
 12
10.9204018407
 22
24.3165254916
 13
10.9204018407
 23
24.3165254916
  0
SOLID
  8
___SYMBOL
 62
2
  6
CONTINUOUS
 10
10.9773255843
 20
24.2911814081
 11
10.9204018407
 21
24.3165254916
 12
11.2184584317
 22
24.3165254916
 13
11.2184584317
 23
24.3165254916
  0
SOLID
  8
___SYMBOL
 62
2
  6
CONTINUOUS
 10
11.2184584317
 20
24.3165254916
 11
11.1615346881
 21
24.2911814081
 12
10.9773255843
 22
24.2911814081
 13
10.9773255843
 23
24.2911814081
  0
SOLID
  8
___SYMBOL
 62
2
  6
CONTINUOUS
 10
11.0382747387
 20
24.2782262654
 11
10.9773255843
 21
24.2911814081
 12
11.1615346881
 22
24.2911814081
 13
11.1615346881
 23
24.2911814081
  0
SOLID
  8
___SYMBOL
 62
2
  6
CONTINUOUS
 10
11.1615346881
 20
24.2911814081
 11
11.1005855336
 21
24.2782262654
 12
11.0382747387
 22
24.2782262654
 13
11.0382747387
 23
24.2782262654
  0
LINE
  8
___SYMBOL
 62
2
  6
CONTINUOUS
 10
11.8620661454
 20
24.8687281477
 11
11.8620661454
 21
24.2828144983
  0
LINE
  8
___SYMBOL
 62
2
  6
CONTINUOUS
 10
11.8620661454
 20
24.2828144983
 11
11.6973324655
 21
24.2828144983
  0
LINE
  8
___SYMBOL
 62
2
  6
CONTINUOUS
 10
11.6973324655
 20
24.5111391081
 11
11.6973324655
 21
24.2828144983
  0
LINE
  8
___SYMBOL
 62
2
  6
CONTINUOUS
 10
11.5493356544
 20
24.5111391081
 11
11.6973324655
 21
24.5111391081
  0
LINE
  8
___SYMBOL
 62
2
  6
CONTINUOUS
 10
11.5493356544
 20
24.5111391081
 11
11.5493356544
 21
24.2828144983
  0
LINE
  8
___SYMBOL
 62
2
  6
CONTINUOUS
 10
11.5493356544
 20
24.2828144983
 11
11.3846019746
 21
24.2828144983
  0
LINE
  8
___SYMBOL
 62
2
  6
CONTINUOUS
 10
11.3846019746
 20
24.8687281477
 11
11.3846019746
 21
24.2828144983
  0
LINE
  8
___SYMBOL
 62
2
  6
CONTINUOUS
 10
11.3846019746
 20
24.8687281477
 11
11.5493356544
 21
24.8687281477
  0
LINE
  8
___SYMBOL
 62
2
  6
CONTINUOUS
 10
11.5493356544
 20
24.8687281477
 11
11.5493356544
 21
24.6483443881
  0
LINE
  8
___SYMBOL
 62
2
  6
CONTINUOUS
 10
11.5493356544
 20
24.6483443881
 11
11.6973324655
 21
24.6483443881
  0
LINE
  8
___SYMBOL
 62
2
  6
CONTINUOUS
 10
11.6973324655
 20
24.8687281477
 11
11.6973324655
 21
24.6483443881
  0
LINE
  8
___SYMBOL
 62
2
  6
CONTINUOUS
 10
11.6973324655
 20
24.8687281477
 11
11.8620661454
 21
24.8687281477
  0
SOLID
  8
___SYMBOL
 62
2
  6
CONTINUOUS
 10
11.6973324655
 20
24.6483443881
 11
11.6973324655
 21
24.8687281477
 12
11.8620661454
 22
24.8687281477
 13
11.8620661454
 23
24.8687281477
  0
SOLID
  8
___SYMBOL
 62
2
  6
CONTINUOUS
 10
11.6973324655
 20
24.6483443881
 11
11.5493356544
 21
24.5111391081
 12
11.5493356544
 22
24.6483443881
 13
11.5493356544
 23
24.6483443881
  0
SOLID
  8
___SYMBOL
 62
2
  6
CONTINUOUS
 10
11.5493356544
 20
24.5111391081
 11
11.3846019746
 21
24.2828144983
 12
11.5493356544
 22
24.6483443881
 13
11.5493356544
 23
24.6483443881
  0
SOLID
  8
___SYMBOL
 62
2
  6
CONTINUOUS
 10
11.5493356544
 20
24.6483443881
 11
11.3846019746
 21
24.2828144983
 12
11.5493356544
 22
24.8687281477
 13
11.5493356544
 23
24.8687281477
  0
SOLID
  8
___SYMBOL
 62
2
  6
CONTINUOUS
 10
11.3846019746
 20
24.2828144983
 11
11.3846019746
 21
24.8687281477
 12
11.5493356544
 22
24.8687281477
 13
11.5493356544
 23
24.8687281477
  0
SOLID
  8
___SYMBOL
 62
2
  6
CONTINUOUS
 10
11.5493356544
 20
24.5111391081
 11
11.5493356544
 21
24.2828144983
 12
11.3846019746
 22
24.2828144983
 13
11.3846019746
 23
24.2828144983
  0
SOLID
  8
___SYMBOL
 62
2
  6
CONTINUOUS
 10
11.5493356544
 20
24.5111391081
 11
11.6973324655
 21
24.6483443881
 12
11.6973324655
 22
24.5111391081
 13
11.6973324655
 23
24.5111391081
  0
SOLID
  8
___SYMBOL
 62
2
  6
CONTINUOUS
 10
11.6973324655
 20
24.6483443881
 11
11.8620661454
 21
24.8687281477
 12
11.6973324655
 22
24.5111391081
 13
11.6973324655
 23
24.5111391081
  0
SOLID
  8
___SYMBOL
 62
2
  6
CONTINUOUS
 10
11.6973324655
 20
24.5111391081
 11
11.8620661454
 21
24.8687281477
 12
11.6973324655
 22
24.2828144983
 13
11.6973324655
 23
24.2828144983
  0
SOLID
  8
___SYMBOL
 62
2
  6
CONTINUOUS
 10
11.8620661454
 20
24.8687281477
 11
11.8620661454
 21
24.2828144983
 12
11.6973324655
 22
24.2828144983
 13
11.6973324655
 23
24.2828144983
  0
LINE
  8
___SYMBOL
 62
2
  6
CONTINUOUS
 10
12.0571570523
 20
24.2828144983
 11
12.2198411223
 21
24.2828144983
  0
LINE
  8
___SYMBOL
 62
2
  6
CONTINUOUS
 10
12.0571570523
 20
24.2828144983
 11
11.9071109896
 21
24.2828144983
  0
LINE
  8
___SYMBOL
 62
2
  6
CONTINUOUS
 10
11.9071109896
 20
24.2828144983
 11
11.9071109896
 21
24.8687281477
  0
LINE
  8
___SYMBOL
 62
2
  6
CONTINUOUS
 10
11.9071109896
 20
24.8687281477
 11
12.0571570523
 21
24.8687281477
  0
LINE
  8
___SYMBOL
 62
2
  6
CONTINUOUS
 10
12.0571570523
 20
24.8687281477
 11
12.0571570523
 21
24.4240412555
  0
LINE
  8
___SYMBOL
 62
2
  6
CONTINUOUS
 10
12.0571570523
 20
24.4240412555
 11
12.2198411223
 21
24.4240412555
  0
LINE
  8
___SYMBOL
 62
2
  6
CONTINUOUS
 10
12.2198411223
 20
24.4240412555
 11
12.2198411223
 21
24.2828144983
  0
SOLID
  8
___SYMBOL
 62
2
  6
CONTINUOUS
 10
12.2198411223
 20
24.4240412555
 11
11.9071109896
 21
24.2828144983
 12
12.0571570523
 22
24.4240412555
 13
12.0571570523
 23
24.4240412555
  0
SOLID
  8
___SYMBOL
 62
2
  6
CONTINUOUS
 10
12.0571570523
 20
24.4240412555
 11
11.9071109896
 21
24.2828144983
 12
12.0571570523
 22
24.8687281477
 13
12.0571570523
 23
24.8687281477
  0
SOLID
  8
___SYMBOL
 62
2
  6
CONTINUOUS
 10
11.9071109896
 20
24.2828144983
 11
11.9071109896
 21
24.8687281477
 12
12.0571570523
 22
24.8687281477
 13
12.0571570523
 23
24.8687281477
  0
SOLID
  8
___SYMBOL
 62
2
  6
CONTINUOUS
 10
11.9071109896
 20
24.2828144983
 11
12.2198411223
 21
24.4240412555
 12
12.0571570523
 22
24.2828144983
 13
12.0571570523
 23
24.2828144983
  0
SOLID
  8
___SYMBOL
 62
2
  6
CONTINUOUS
 10
12.2198411223
 20
24.4240412555
 11
12.2198411223
 21
24.2828144983
 12
12.0571570523
 22
24.2828144983
 13
12.0571570523
 23
24.2828144983
  0
LINE
  8
___SYMBOL
 62
2
  6
CONTINUOUS
 10
12.5580930363
 20
24.5039627865
 11
12.5580930363
 21
24.6483443881
  0
LINE
  8
___SYMBOL
 62
2
  6
CONTINUOUS
 10
12.4072355129
 20
24.6483443881
 11
12.5580930363
 21
24.6483443881
  0
LINE
  8
___SYMBOL
 62
2
  6
CONTINUOUS
 10
12.4072355129
 20
24.7259687509
 11
12.4072355129
 21
24.6483443881
  0
LINE
  8
___SYMBOL
 62
2
  6
CONTINUOUS
 10
12.4072355129
 20
24.7259687509
 11
12.5580930363
 21
24.7259687509
  0
LINE
  8
___SYMBOL
 62
2
  6
CONTINUOUS
 10
12.5580930363
 20
24.7259687509
 11
12.5580930363
 21
24.8687281477
  0
LINE
  8
___SYMBOL
 62
2
  6
CONTINUOUS
 10
12.4214398363
 20
24.8687281477
 11
12.5580930363
 21
24.8687281477
  0
LINE
  8
___SYMBOL
 62
2
  6
CONTINUOUS
 10
12.248988861
 20
24.8687281477
 11
12.4214398363
 21
24.8687281477
  0
LINE
  8
___SYMBOL
 62
2
  6
CONTINUOUS
 10
12.248988861
 20
24.2828144983
 11
12.248988861
 21
24.8687281477
  0
LINE
  8
___SYMBOL
 62
2
  6
CONTINUOUS
 10
12.248988861
 20
24.2828144983
 11
12.5580930363
 21
24.2828144983
  0
LINE
  8
___SYMBOL
 62
2
  6
CONTINUOUS
 10
12.5580930363
 20
24.2828144983
 11
12.5580930363
 21
24.4240412555
  0
LINE
  8
___SYMBOL
 62
2
  6
CONTINUOUS
 10
12.4072355129
 20
24.4240412555
 11
12.5580930363
 21
24.4240412555
  0
LINE
  8
___SYMBOL
 62
2
  6
CONTINUOUS
 10
12.4072355129
 20
24.5039627865
 11
12.4072355129
 21
24.4240412555
  0
LINE
  8
___SYMBOL
 62
2
  6
CONTINUOUS
 10
12.4072355129
 20
24.5039627865
 11
12.5580930363
 21
24.5039627865
  0
SOLID
  8
___SYMBOL
 62
2
  6
CONTINUOUS
 10
12.5580930363
 20
24.8687281477
 11
12.5580930363
 21
24.7259687509
 12
12.4072355129
 22
24.7259687509
 13
12.4072355129
 23
24.7259687509
  0
SOLID
  8
___SYMBOL
 62
2
  6
CONTINUOUS
 10
12.5580930363
 20
24.6483443881
 11
12.5580930363
 21
24.5039627865
 12
12.4072355129
 22
24.5039627865
 13
12.4072355129
 23
24.5039627865
  0
SOLID
  8
___SYMBOL
 62
2
  6
CONTINUOUS
 10
12.5580930363
 20
24.4240412555
 11
12.248988861
 21
24.2828144983
 12
12.4072355129
 22
24.4240412555
 13
12.4072355129
 23
24.4240412555
  0
SOLID
  8
___SYMBOL
 62
2
  6
CONTINUOUS
 10
12.4072355129
 20
24.4240412555
 11
12.248988861
 21
24.2828144983
 12
12.4072355129
 22
24.5039627865
 13
12.4072355129
 23
24.5039627865
  0
SOLID
  8
___SYMBOL
 62
2
  6
CONTINUOUS
 10
12.5580930363
 20
24.6483443881
 11
12.4072355129
 21
24.5039627865
 12
12.4072355129
 22
24.6483443881
 13
12.4072355129
 23
24.6483443881
  0
SOLID
  8
___SYMBOL
 62
2
  6
CONTINUOUS
 10
12.4072355129
 20
24.5039627865
 11
12.248988861
 21
24.2828144983
 12
12.4072355129
 22
24.6483443881
 13
12.4072355129
 23
24.6483443881
  0
SOLID
  8
___SYMBOL
 62
2
  6
CONTINUOUS
 10
12.4072355129
 20
24.6483443881
 11
12.248988861
 21
24.2828144983
 12
12.4072355129
 22
24.7259687509
 13
12.4072355129
 23
24.7259687509
  0
SOLID
  8
___SYMBOL
 62
2
  6
CONTINUOUS
 10
12.5580930363
 20
24.8687281477
 11
12.4072355129
 21
24.7259687509
 12
12.4214398363
 22
24.8687281477
 13
12.4214398363
 23
24.8687281477
  0
SOLID
  8
___SYMBOL
 62
2
  6
CONTINUOUS
 10
12.4072355129
 20
24.7259687509
 11
12.248988861
 21
24.2828144983
 12
12.4214398363
 22
24.8687281477
 13
12.4214398363
 23
24.8687281477
  0
SOLID
  8
___SYMBOL
 62
2
  6
CONTINUOUS
 10
12.248988861
 20
24.2828144983
 11
12.248988861
 21
24.8687281477
 12
12.4214398363
 22
24.8687281477
 13
12.4214398363
 23
24.8687281477
  0
SOLID
  8
___SYMBOL
 62
2
  6
CONTINUOUS
 10
12.5580930363
 20
24.4240412555
 11
12.5580930363
 21
24.2828144983
 12
12.248988861
 22
24.2828144983
 13
12.248988861
 23
24.2828144983
  0
LINE
  8
___SYMBOL
 62
2
  6
CONTINUOUS
 10
13.0683434423
 20
24.2828144983
 11
12.9089001993
 21
24.5343970396
  0
ARC
  8
___SYMBOL
 62
2
  6
CONTINUOUS
 10
12.8364609517
 20
24.693718637
 40
0.1750166163
 50
294.4500166359
 51
90.0
  0
LINE
  8
___SYMBOL
 62
2
  6
CONTINUOUS
 10
12.602913251
 20
24.8687281477
 11
12.8364609517
 21
24.8687281477
  0
LINE
  8
___SYMBOL
 62
2
  6
CONTINUOUS
 10
12.602913251
 20
24.2828144983
 11
12.602913251
 21
24.8687281477
  0
LINE
  8
___SYMBOL
 62
2
  6
CONTINUOUS
 10
12.602913251
 20
24.2828144983
 11
12.7535690736
 21
24.2828144983
  0
LINE
  8
___SYMBOL
 62
2
  6
CONTINUOUS
 10
12.7535690736
 20
24.4797708692
 11
12.7535690736
 21
24.2828144983
  0
LINE
  8
___SYMBOL
 62
2
  6
CONTINUOUS
 10
12.8783925027
 20
24.2828144983
 11
12.7535690736
 21
24.4797708692
  0
LINE
  8
___SYMBOL
 62
2
  6
CONTINUOUS
 10
12.8783925027
 20
24.2828144983
 11
13.0683434423
 21
24.2828144983
  0
LINE
  8
___SYMBOL
 62
2
  6
CONTINUOUS
 10
12.7535690736
 20
24.6190461798
 11
12.8059088238
 21
24.6190461798
  0
ARC
  8
___SYMBOL
 62
2
  6
CONTINUOUS
 10
12.8094988531
 20
24.6725375794
 40
0.053611735
 50
266.1604009902
 51
89.9998910512
  0
LINE
  8
___SYMBOL
 62
2
  6
CONTINUOUS
 10
12.809498955
 20
24.7261493144
 11
12.7535690736
 21
24.7261493144
  0
LINE
  8
___SYMBOL
 62
2
  6
CONTINUOUS
 10
12.7535690736
 20
24.7261493144
 11
12.7535690736
 21
24.6190461798
  0
SOLID
  8
___SYMBOL
 62
2
  6
CONTINUOUS
 10
12.8364609517
 20
24.8687352533
 11
12.8833939752
 21
24.8623250049
 12
12.602913251
 22
24.8687281477
 13
12.602913251
 23
24.8687281477
  0
SOLID
  8
___SYMBOL
 62
2
  6
CONTINUOUS
 10
12.7535690736
 20
24.7261493144
 11
13.0075088147
 21
24.7307786499
 12
12.809498955
 22
24.7261493144
 13
12.809498955
 23
24.7261493144
  0
SOLID
  8
___SYMBOL
 62
2
  6
CONTINUOUS
 10
12.809498955
 20
24.7261493144
 11
13.0075088147
 21
24.7307786499
 12
12.8332215366
 22
24.720615146
 13
12.8332215366
 23
24.720615146
  0
SOLID
  8
___SYMBOL
 62
2
  6
CONTINUOUS
 10
12.8332215366
 20
24.720615146
 11
13.0075088147
 21
24.7307786499
 12
12.8520465243
 22
24.705155271
 13
12.8520465243
 23
24.705155271
  0
SOLID
  8
___SYMBOL
 62
2
  6
CONTINUOUS
 10
13.0075088147
 20
24.7307786499
 11
13.0111820611
 21
24.6835525211
 12
12.8520465243
 22
24.705155271
 13
12.8520465243
 23
24.705155271
  0
SOLID
  8
___SYMBOL
 62
2
  6
CONTINUOUS
 10
12.8620874629
 20
24.6829614104
 11
12.8520465243
 21
24.705155271
 12
13.0111820611
 22
24.6835525211
 13
13.0111820611
 23
24.6835525211
  0
SOLID
  8
___SYMBOL
 62
2
  6
CONTINUOUS
 10
12.8620874629
 20
24.6829614104
 11
13.0111820611
 21
24.6835525211
 12
12.8612713812
 22
24.6586155297
 13
12.8612713812
 23
24.6586155297
  0
SOLID
  8
___SYMBOL
 62
2
  6
CONTINUOUS
 10
12.8612713812
 20
24.6586155297
 11
13.0111820611
 21
24.6835525211
 12
12.8497667608
 22
24.6371438831
 13
12.8497667608
 23
24.6371438831
  0
SOLID
  8
___SYMBOL
 62
2
  6
CONTINUOUS
 10
13.0111820611
 20
24.6835525211
 11
13.0020564574
 21
24.637071091
 12
12.8497667608
 22
24.6371438831
 13
12.8497667608
 23
24.6371438831
  0
SOLID
  8
___SYMBOL
 62
2
  6
CONTINUOUS
 10
12.829948753
 20
24.6229793336
 11
12.8497667608
 21
24.6371438831
 12
13.0020564574
 22
24.637071091
 13
13.0020564574
 23
24.637071091
  0
SOLID
  8
___SYMBOL
 62
2
  6
CONTINUOUS
 10
12.829948753
 20
24.6229793336
 11
13.0020564574
 21
24.637071091
 12
12.8059088238
 22
24.6190461798
 13
12.8059088238
 23
24.6190461798
  0
SOLID
  8
___SYMBOL
 62
2
  6
CONTINUOUS
 10
13.0020564574
 20
24.637071091
 11
12.9808004817
 21
24.5947392651
 12
12.8059088238
 22
24.6190461798
 13
12.8059088238
 23
24.6190461798
  0
SOLID
  8
___SYMBOL
 62
2
  6
CONTINUOUS
 10
12.9089001993
 20
24.5343970396
 11
12.7535690736
 21
24.4797708692
 12
12.9489711986
 22
24.5596579779
 13
12.9489711986
 23
24.5596579779
  0
SOLID
  8
___SYMBOL
 62
2
  6
CONTINUOUS
 10
12.9489711986
 20
24.5596579779
 11
12.7535690736
 21
24.4797708692
 12
12.9808004817
 22
24.5947392651
 13
12.9808004817
 23
24.5947392651
  0
SOLID
  8
___SYMBOL
 62
2
  6
CONTINUOUS
 10
12.9808004817
 20
24.5947392651
 11
12.7535690736
 21
24.4797708692
 12
12.8059088238
 22
24.6190461798
 13
12.8059088238
 23
24.6190461798
  0
SOLID
  8
___SYMBOL
 62
2
  6
CONTINUOUS
 10
12.7535690736
 20
24.4797708692
 11
12.602913251
 21
24.2828144983
 12
12.8059088238
 22
24.6190461798
 13
12.8059088238
 23
24.6190461798
  0
SOLID
  8
___SYMBOL
 62
2
  6
CONTINUOUS
 10
12.8059088238
 20
24.6190461798
 11
12.602913251
 21
24.2828144983
 12
12.7535690736
 22
24.6190461798
 13
12.7535690736
 23
24.6190461798
  0
SOLID
  8
___SYMBOL
 62
2
  6
CONTINUOUS
 10
12.7535690736
 20
24.6190461798
 11
12.602913251
 21
24.2828144983
 12
12.7535690736
 22
24.7261493144
 13
12.7535690736
 23
24.7261493144
  0
SOLID
  8
___SYMBOL
 62
2
  6
CONTINUOUS
 10
13.0075088147
 20
24.7307786499
 11
12.7535690736
 21
24.7261493144
 12
12.9913057945
 22
24.7752900206
 13
12.9913057945
 23
24.7752900206
  0
SOLID
  8
___SYMBOL
 62
2
  6
CONTINUOUS
 10
12.9913057945
 20
24.7752900206
 11
12.7535690736
 21
24.7261493144
 12
12.963759921
 22
24.8138260405
 13
12.963759921
 23
24.8138260405
  0
SOLID
  8
___SYMBOL
 62
2
  6
CONTINUOUS
 10
12.963759921
 20
24.8138260405
 11
12.7535690736
 21
24.7261493144
 12
12.9268890127
 22
24.8435638297
 13
12.9268890127
 23
24.8435638297
  0
SOLID
  8
___SYMBOL
 62
2
  6
CONTINUOUS
 10
12.9268890127
 20
24.8435638297
 11
12.7535690736
 21
24.7261493144
 12
12.8833939752
 22
24.8623250049
 13
12.8833939752
 23
24.8623250049
  0
SOLID
  8
___SYMBOL
 62
2
  6
CONTINUOUS
 10
12.8833939752
 20
24.8623250049
 11
12.7535690736
 21
24.7261493144
 12
12.602913251
 22
24.8687281477
 13
12.602913251
 23
24.8687281477
  0
SOLID
  8
___SYMBOL
 62
2
  6
CONTINUOUS
 10
12.602913251
 20
24.2828144983
 11
12.602913251
 21
24.8687281477
 12
12.7535690736
 22
24.7261493144
 13
12.7535690736
 23
24.7261493144
  0
SOLID
  8
___SYMBOL
 62
2
  6
CONTINUOUS
 10
12.7535690736
 20
24.4797708692
 11
12.7535690736
 21
24.2828144983
 12
12.602913251
 22
24.2828144983
 13
12.602913251
 23
24.2828144983
  0
SOLID
  8
___SYMBOL
 62
2
  6
CONTINUOUS
 10
12.7535690736
 20
24.4797708692
 11
12.9089001993
 21
24.5343970396
 12
12.8783925027
 22
24.2828144983
 13
12.8783925027
 23
24.2828144983
  0
SOLID
  8
___SYMBOL
 62
2
  6
CONTINUOUS
 10
12.9089001993
 20
24.5343970396
 11
13.0683434423
 21
24.2828144983
 12
12.8783925027
 22
24.2828144983
 13
12.8783925027
 23
24.2828144983
  0
CIRCLE
  8
___SYMBOL
 62
2
  6
CONTINUOUS
 10
13.2091134169
 20
24.2828144983
 40
0.0653578721
  0
LINE
  8
___SYMBOL
 62
2
  6
CONTINUOUS
 10
13.2048253937
 20
24.2822767489
 11
13.2366934064
 21
24.2499738076
  0
LINE
  8
___SYMBOL
 62
2
  6
CONTINUOUS
 10
13.1932274175
 20
24.2499738076
 11
13.1932274175
 21
24.3159400065
  0
LINE
  8
___SYMBOL
 62
2
  6
CONTINUOUS
 10
13.1932274175
 20
24.3159400065
 11
13.2175067505
 21
24.3159400065
  0
ARC
  8
___SYMBOL
 62
2
  6
CONTINUOUS
 10
13.2175067505
 20
24.2991085568
 40
0.0168314496
 50
270.0
 51
90.0
  0
LINE
  8
___SYMBOL
 62
2
  6
CONTINUOUS
 10
13.2175067505
 20
24.2822767489
 11
13.1932274175
 21
24.2822767489
  0
TEXT
  8
___SYMBOL
 62
2
  6
CONTINUOUS
 10
10.3338844559
 20
20.3318229856
  7
STANDARD
 40
0.25
  1
ICEROCK
 41
0.8
 72
0
  0
TEXT
  8
___SYMBOL
 62
2
  6
CONTINUOUS
 10
11.7338844559
 20
20.3318229856
  7
STANDARD
 40
0.25
  1
   
 41
0.8
 72
0
  0
TEXT
  8
___SYMBOL
 62
2
  6
CONTINUOUS
 10
12.3338844559
 20
20.3318229856
  7
STANDARD
 40
0.25
  1
3188W
 41
0.8
 72
0
  0
TEXT
  8
___SYMBOL
 62
2
  6
CONTINUOUS
 10
13.3338844559
 20
20.3318229856
  7
STANDARD
 40
0.25
  1
-**-
 41
0.8
 72
0
  0
TEXT
  8
___SYMBOL
 62
2
  6
CONTINUOUS
 10
14.1338844559
 20
20.3318229856
  7
STANDARD
 40
0.25
  1
AA
 41
0.8
 72
0
  0
ENDBLK
  8
0
  6
BYBLOCK
 62
0
  0
BLOCK
  8
___SYMBOL
 62
2
  6
CONTINUOUS
  2
PACKAGING_UPC_NOTE_BL5
 70
64
 10
27.126168143
 20
22.4418475464
  0
TEXT
  8
___SYMBOL
 62
7
  6
CONTINUOUS
 10
25.2796673475
 20
22.9688508384
  7
STANDARD
 40
0.0593587493
  1
XXXXX-XX-X-XX
 41
0.8258950223
 72
0
  0
TEXT
  8
___SYMBOL
 62
7
  6
CONTINUOUS
 10
26.9136473284
 20
22.8396858399
  7
STANDARD
 40
0.0445192495
  1
xxxxxx-xx
 41
0.6740211631
 72
0
  0
TEXT
  8
___SYMBOL
 62
2
  6
CONTINUOUS
 10
24.1493230522
 20
24.5124795002
  7
STANDARD
 40
0.1562500052
  1
PACKAGING/UPC LABEL ON BOX
 41
0.8
 72
0
  0
TEXT
  8
___SYMBOL
 62
2
  6
CONTINUOUS
 10
24.1493230522
 20
24.2781044924
  7
STANDARD
 40
0.1562500052
  1
EMBALLAGE/ÉTIQUETTE UPC SUR BOÎTE
 41
0.8
 72
0
  0
TEXT
  8
___SYMBOL
 62
2
  6
CONTINUOUS
 10
24.1493230522
 20
24.0437294845
  7
STANDARD
 40
0.1562500052
  1
ETIQUETA DE EMBALAJE/UPC EN LA CAJA
 41
0.8
 72
0
  0
TEXT
  8
___SYMBOL
 62
2
  6
CONTINUOUS
 10
24.126168143
 20
22.3243405873
  7
STANDARD
 40
0.15625
  1
The template and the label suffixes circled
 41
0.8
 72
0
  0
TEXT
  8
___SYMBOL
 62
2
  6
CONTINUOUS
 10
24.126168143
 20
22.0899655873
  7
STANDARD
 40
0.15625
  1
must match for proper cut-out.
 41
0.8
 72
0
  0
TEXT
  8
___SYMBOL
 62
2
  6
CONTINUOUS
 10
24.126168143
 20
21.8555905873
  7
STANDARD
 40
0.15625
  1
 
 41
0.8
 72
0
  0
TEXT
  8
___SYMBOL
 62
2
  6
CONTINUOUS
 10
24.126168143
 20
21.6212155873
  7
STANDARD
 40
0.15625
  1
Les suffixes du gabarit et de l'étiquette
 41
0.8
 72
0
  0
TEXT
  8
___SYMBOL
 62
2
  6
CONTINUOUS
 10
24.126168143
 20
21.3868405873
  7
STANDARD
 40
0.15625
  1
encerclés doivent correspondre pour une
 41
0.8
 72
0
  0
TEXT
  8
___SYMBOL
 62
2
  6
CONTINUOUS
 10
24.126168143
 20
21.1524655873
  7
STANDARD
 40
0.15625
  1
propre découpe.
 41
0.8
 72
0
  0
TEXT
  8
___SYMBOL
 62
2
  6
CONTINUOUS
 10
24.126168143
 20
20.9180905873
  7
STANDARD
 40
0.15625
  1
 
 41
0.8
 72
0
  0
TEXT
  8
___SYMBOL
 62
2
  6
CONTINUOUS
 10
24.126168143
 20
20.6837155873
  7
STANDARD
 40
0.15625
  1
A fin de realizar el corte correcto, los sufijos
 41
0.8
 72
0
  0
TEXT
  8
___SYMBOL
 62
2
  6
CONTINUOUS
 10
24.126168143
 20
20.4493405873
  7
STANDARD
 40
0.15625
  1
de la plantilla y de la etiqueta encerrados
 41
0.8
 72
0
  0
TEXT
  8
___SYMBOL
 62
2
  6
CONTINUOUS
 10
24.126168143
 20
20.2149655873
  7
STANDARD
 40
0.15625
  1
en un círculo deben ser iguales.
 41
0.8
 72
0
  0
LINE
  8
___SYMBOL
 62
7
  6
CONTINUOUS
 10
27.2684723243
 20
22.8129558402
 11
25.0834298498
 21
22.8129558402
  0
LINE
  8
___SYMBOL
 62
7
  6
CONTINUOUS
 10
25.0834298498
 20
22.8129558402
 11
25.0834298498
 21
23.8059858286
  0
LINE
  8
___SYMBOL
 62
7
  6
CONTINUOUS
 10
25.0834298498
 20
23.8059858286
 11
27.2684723243
 21
23.8059858286
  0
LINE
  8
___SYMBOL
 62
7
  6
CONTINUOUS
 10
27.2684723243
 20
23.8059858286
 11
27.2684723243
 21
22.8129558402
  0
LINE
  8
___SYMBOL
 62
7
  6
CONTINUOUS
 10
25.0500623502
 20
23.8384458282
 11
27.3026273239
 21
23.8384458282
  0
LINE
  8
___SYMBOL
 62
7
  6
CONTINUOUS
 10
27.3026273239
 20
23.8384458282
 11
27.3026273239
 21
22.745538341
  0
LINE
  8
___SYMBOL
 62
7
  6
CONTINUOUS
 10
27.3026273239
 20
22.745538341
 11
25.0500623502
 21
22.745538341
  0
LINE
  8
___SYMBOL
 62
7
  6
CONTINUOUS
 10
25.0500623502
 20
22.745538341
 11
25.0500623502
 21
23.8384458282
  0
LINE
  8
___SYMBOL
 62
7
  6
CONTINUOUS
 10
27.0632873267
 20
23.2446258352
 11
27.0632873267
 21
23.1229908366
  0
LINE
  8
___SYMBOL
 62
7
  6
CONTINUOUS
 10
27.0632873267
 20
23.1229908366
 11
26.7203348307
 21
23.1229908366
  0
LINE
  8
___SYMBOL
 62
7
  6
CONTINUOUS
 10
26.7203348307
 20
23.1229908366
 11
26.7203348307
 21
23.2446258352
  0
LINE
  8
___SYMBOL
 62
7
  6
CONTINUOUS
 10
26.7203348307
 20
23.2446258352
 11
27.0632873267
 21
23.2446258352
  0
SOLID
  8
___SYMBOL
 62
7
  6
CONTINUOUS
 10
26.7203348307
 20
23.1229908275
 11
26.7203348307
 21
23.2446258275
 12
27.0632873267
 22
23.2446258275
 13
27.0632873267
 23
23.2446258275
  0
SOLID
  8
___SYMBOL
 62
7
  6
CONTINUOUS
 10
27.0632873267
 20
23.2446258275
 11
27.0632873267
 21
23.1229908275
 12
26.7203348307
 22
23.1229908275
 13
26.7203348307
 23
23.1229908275
  0
LINE
  8
___SYMBOL
 62
7
  6
CONTINUOUS
 10
25.9878323393
 20
23.2446258352
 11
25.9878323393
 21
23.1229908366
  0
LINE
  8
___SYMBOL
 62
7
  6
CONTINUOUS
 10
25.9878323393
 20
23.1229908366
 11
25.1321273493
 21
23.1229908366
  0
LINE
  8
___SYMBOL
 62
7
  6
CONTINUOUS
 10
25.1321273493
 20
23.1229908366
 11
25.1321273493
 21
23.2446258352
  0
LINE
  8
___SYMBOL
 62
7
  6
CONTINUOUS
 10
25.1321273493
 20
23.2446258352
 11
25.9878323393
 21
23.2446258352
  0
SOLID
  8
___SYMBOL
 62
7
  6
CONTINUOUS
 10
25.1321273493
 20
23.1229908275
 11
25.1321273493
 21
23.2446258275
 12
25.9878323393
 22
23.2446258275
 13
25.9878323393
 23
23.2446258275
  0
SOLID
  8
___SYMBOL
 62
7
  6
CONTINUOUS
 10
25.9878323393
 20
23.2446258275
 11
25.9878323393
 21
23.1229908275
 12
25.1321273493
 22
23.1229908275
 13
25.1321273493
 23
23.1229908275
  0
LINE
  8
___SYMBOL
 62
7
  6
CONTINUOUS
 10
25.9878323393
 20
22.8713583395
 11
25.9878323393
 21
22.8363783399
  0
LINE
  8
___SYMBOL
 62
7
  6
CONTINUOUS
 10
25.9878323393
 20
22.8363783399
 11
25.1321273493
 21
22.8363783399
  0
LINE
  8
___SYMBOL
 62
7
  6
CONTINUOUS
 10
25.1321273493
 20
22.8363783399
 11
25.1321273493
 21
22.8713583395
  0
LINE
  8
___SYMBOL
 62
7
  6
CONTINUOUS
 10
25.1321273493
 20
22.8713583395
 11
25.9878323393
 21
22.8713583395
  0
SOLID
  8
___SYMBOL
 62
7
  6
CONTINUOUS
 10
25.1321273493
 20
22.8363783415
 11
25.1321273493
 21
22.8713583235
 12
25.9878323393
 22
22.8713583235
 13
25.9878323393
 23
22.8713583235
  0
SOLID
  8
___SYMBOL
 62
7
  6
CONTINUOUS
 10
25.9878323393
 20
22.8713583235
 11
25.9878323393
 21
22.8363783415
 12
25.1321273493
 22
22.8363783415
 13
25.1321273493
 23
22.8363783415
  0
POLYLINE
  8
___SYMBOL
 62
7
  6
CONTINUOUS
 66
1
 70
0
  0
VERTEX
  8
___SYMBOL
 62
7
  6
CONTINUOUS
 10
25.8538372929
 20
23.0831359573
  0
VERTEX
  8
___SYMBOL
 62
7
  6
CONTINUOUS
 10
25.8337878054
 20
23.0755510119
  0
VERTEX
  8
___SYMBOL
 62
7
  6
CONTINUOUS
 10
25.8163773692
 20
23.063045342
  0
VERTEX
  8
___SYMBOL
 62
7
  6
CONTINUOUS
 10
25.802787346
 20
23.0464675029
  0
VERTEX
  8
___SYMBOL
 62
7
  6
CONTINUOUS
 10
25.7939398683
 20
23.0269423616
  0
VERTEX
  8
___SYMBOL
 62
7
  6
CONTINUOUS
 10
25.79043527
 20
23.00579477
  0
VERTEX
  8
___SYMBOL
 62
7
  6
CONTINUOUS
 10
25.7925113506
 20
22.9844596695
  0
VERTEX
  8
___SYMBOL
 62
7
  6
CONTINUOUS
 10
25.8000272407
 20
22.9643847245
  0
VERTEX
  8
___SYMBOL
 62
7
  6
CONTINUOUS
 10
25.8124729595
 20
22.9469320932
  0
VERTEX
  8
___SYMBOL
 62
7
  6
CONTINUOUS
 10
25.8290040198
 20
22.9332860004
  0
VERTEX
  8
___SYMBOL
 62
7
  6
CONTINUOUS
 10
25.8484987287
 20
22.9243723832
  0
VERTEX
  8
___SYMBOL
 62
7
  6
CONTINUOUS
 10
25.8696342991
 20
22.9207960632
  0
VERTEX
  8
___SYMBOL
 62
7
  6
CONTINUOUS
 10
25.8909766054
 20
22.9227997065
  0
VERTEX
  8
___SYMBOL
 62
7
  6
CONTINUOUS
 10
25.9110774942
 20
22.9302473589
  0
VERTEX
  8
___SYMBOL
 62
7
  6
CONTINUOUS
 10
25.928573047
 20
22.9426336698
  0
VERTEX
  8
___SYMBOL
 62
7
  6
CONTINUOUS
 10
25.9422761266
 20
22.9591181829
  0
VERTEX
  8
___SYMBOL
 62
7
  6
CONTINUOUS
 10
25.9512569291
 20
22.9785823637
  0
VERTEX
  8
___SYMBOL
 62
7
  6
CONTINUOUS
 10
25.9549060742
 20
22.9997054967
  0
VERTEX
  8
___SYMBOL
 62
7
  6
CONTINUOUS
 10
25.9529759541
 20
23.0210543002
  0
VERTEX
  8
___SYMBOL
 62
7
  6
CONTINUOUS
 10
25.9455975346
 20
23.0411801799
  0
VERTEX
  8
___SYMBOL
 62
7
  6
CONTINUOUS
 10
25.9332714682
 20
23.0587175215
  0
VERTEX
  8
___SYMBOL
 62
7
  6
CONTINUOUS
 10
25.9168341237
 20
23.0724763523
  0
VERTEX
  8
___SYMBOL
 62
7
  6
CONTINUOUS
 10
25.8974008348
 20
23.0815230856
  0
VERTEX
  8
___SYMBOL
 62
7
  6
CONTINUOUS
 10
25.876290221
 20
23.0852438673
  0
VERTEX
  8
___SYMBOL
 62
7
  6
CONTINUOUS
 10
25.8549347145
 20
23.083386229
  0
SEQEND
  0
LINE
  8
___SYMBOL
 62
7
  6
CONTINUOUS
 10
26.0344823387
 20
23.7778608289
 11
26.0344823387
 21
23.7162108297
  0
LINE
  8
___SYMBOL
 62
7
  6
CONTINUOUS
 10
26.0344823387
 20
23.7162108297
 11
25.1787773487
 21
23.7162108297
  0
LINE
  8
___SYMBOL
 62
7
  6
CONTINUOUS
 10
25.1787773487
 20
23.7162108297
 11
25.1787773487
 21
23.7778608289
  0
LINE
  8
___SYMBOL
 62
7
  6
CONTINUOUS
 10
25.1787773487
 20
23.7778608289
 11
26.0344823387
 21
23.7778608289
  0
SOLID
  8
___SYMBOL
 62
7
  6
CONTINUOUS
 10
25.1787773487
 20
23.7162108255
 11
25.1787773487
 21
23.7778608155
 12
26.0344823387
 22
23.7778608155
 13
26.0344823387
 23
23.7778608155
  0
SOLID
  8
___SYMBOL
 62
7
  6
CONTINUOUS
 10
26.0344823387
 20
23.7778608155
 11
26.0344823387
 21
23.7162108255
 12
25.1787773487
 22
23.7162108255
 13
25.1787773487
 23
23.7162108255
  0
LINE
  8
___SYMBOL
 62
7
  6
CONTINUOUS
 10
26.0344823387
 20
23.6778783301
 11
26.0344823387
 21
23.6162283308
  0
LINE
  8
___SYMBOL
 62
7
  6
CONTINUOUS
 10
26.0344823387
 20
23.6162283308
 11
25.1787773487
 21
23.6162283308
  0
LINE
  8
___SYMBOL
 62
7
  6
CONTINUOUS
 10
25.1787773487
 20
23.6162283308
 11
25.1787773487
 21
23.6778783301
  0
LINE
  8
___SYMBOL
 62
7
  6
CONTINUOUS
 10
25.1787773487
 20
23.6778783301
 11
26.0344823387
 21
23.6778783301
  0
SOLID
  8
___SYMBOL
 62
7
  6
CONTINUOUS
 10
25.1787773487
 20
23.6162283175
 11
25.1787773487
 21
23.6778783415
 12
26.0344823387
 22
23.6778783415
 13
26.0344823387
 23
23.6778783415
  0
SOLID
  8
___SYMBOL
 62
7
  6
CONTINUOUS
 10
26.0344823387
 20
23.6778783415
 11
26.0344823387
 21
23.6162283175
 12
25.1787773487
 22
23.6162283175
 13
25.1787773487
 23
23.6162283175
  0
LINE
  8
___SYMBOL
 62
7
  6
CONTINUOUS
 10
26.0344823387
 20
23.5778958313
 11
26.0344823387
 21
23.516253332
  0
LINE
  8
___SYMBOL
 62
7
  6
CONTINUOUS
 10
26.0344823387
 20
23.516253332
 11
25.1787773487
 21
23.516253332
  0
LINE
  8
___SYMBOL
 62
7
  6
CONTINUOUS
 10
25.1787773487
 20
23.516253332
 11
25.1787773487
 21
23.5778958313
  0
LINE
  8
___SYMBOL
 62
7
  6
CONTINUOUS
 10
25.1787773487
 20
23.5778958313
 11
26.0344823387
 21
23.5778958313
  0
SOLID
  8
___SYMBOL
 62
7
  6
CONTINUOUS
 10
25.1787773487
 20
23.5162533235
 11
25.1787773487
 21
23.5778958335
 12
26.0344823387
 22
23.5778958335
 13
26.0344823387
 23
23.5778958335
  0
SOLID
  8
___SYMBOL
 62
7
  6
CONTINUOUS
 10
26.0344823387
 20
23.5778958335
 11
26.0344823387
 21
23.5162533235
 12
25.1787773487
 22
23.5162533235
 13
25.1787773487
 23
23.5162533235
  0
LINE
  8
___SYMBOL
 62
7
  6
CONTINUOUS
 10
26.0344823387
 20
23.4779133324
 11
26.0344823387
 21
23.4162708332
  0
LINE
  8
___SYMBOL
 62
7
  6
CONTINUOUS
 10
26.0344823387
 20
23.4162708332
 11
25.1787773487
 21
23.4162708332
  0
LINE
  8
___SYMBOL
 62
7
  6
CONTINUOUS
 10
25.1787773487
 20
23.4162708332
 11
25.1787773487
 21
23.4779133324
  0
LINE
  8
___SYMBOL
 62
7
  6
CONTINUOUS
 10
25.1787773487
 20
23.4779133324
 11
26.0344823387
 21
23.4779133324
  0
SOLID
  8
___SYMBOL
 62
7
  6
CONTINUOUS
 10
25.1787773487
 20
23.4162708495
 11
25.1787773487
 21
23.4779133255
 12
26.0344823387
 22
23.4779133255
 13
26.0344823387
 23
23.4779133255
  0
SOLID
  8
___SYMBOL
 62
7
  6
CONTINUOUS
 10
26.0344823387
 20
23.4779133255
 11
26.0344823387
 21
23.4162708495
 12
25.1787773487
 22
23.4162708495
 13
25.1787773487
 23
23.4162708495
  0
LINE
  8
___SYMBOL
 62
7
  6
CONTINUOUS
 10
26.0344823387
 20
23.3512758339
 11
26.0344823387
 21
23.2896258346
  0
LINE
  8
___SYMBOL
 62
7
  6
CONTINUOUS
 10
26.0344823387
 20
23.2896258346
 11
25.1787773487
 21
23.2896258346
  0
LINE
  8
___SYMBOL
 62
7
  6
CONTINUOUS
 10
25.1787773487
 20
23.2896258346
 11
25.1787773487
 21
23.3512758339
  0
LINE
  8
___SYMBOL
 62
7
  6
CONTINUOUS
 10
25.1787773487
 20
23.3512758339
 11
26.0344823387
 21
23.3512758339
  0
SOLID
  8
___SYMBOL
 62
7
  6
CONTINUOUS
 10
25.1787773487
 20
23.2896258475
 11
25.1787773487
 21
23.3512758375
 12
26.0344823387
 22
23.3512758375
 13
26.0344823387
 23
23.3512758375
  0
SOLID
  8
___SYMBOL
 62
7
  6
CONTINUOUS
 10
26.0344823387
 20
23.3512758375
 11
26.0344823387
 21
23.2896258475
 12
25.1787773487
 22
23.2896258475
 13
25.1787773487
 23
23.2896258475
  0
ENDBLK
  8
0
  6
BYBLOCK
 62
0
  0
BLOCK
  8
0
  2
_FILLED
 70
64
 10
0.0
 20
0.0
  0
SOLID
  8
0
  6
BYBLOCK
 62
0
 10
0.0
 20
0.0
 11
-1.0
 21
0.1666666667
 12
-1.0
 22
-0.1666666667
 13
-1.0
 23
-0.1666666667
  0
ENDBLK
  8
0
  6
BYBLOCK
 62
0
  0
ENDSEC
  0
SECTION
  2
ENTITIES
  0
DIMENSION
  8
0
 62
2
  6
CONTINUOUS
  2
*D0
 10
42.4428174921
 20
15.7151758817
 11
23.6639806435
 21
15.5979883817
 70
128
 13
1.5678174921
 23
14.9284291771
 14
42.4428174921
 24
14.9284291771
 50
360.0
  0
DIMENSION
  8
0
 62
2
  6
CONTINUOUS
  2
*D1
 10
22.4087955593
 20
12.8305520032
 11
22.5962955593
 21
14.4746345582
 70
128
 13
23.281651021
 23
18.9555520032
 14
23.281651021
 24
12.8305520032
 50
270.0
  0
TEXT
  8
0
 62
2
  6
CONTINUOUS
 10
12.2052883705
 20
21.351419625
  7
STANDARD
 40
0.094
  1
TM
 41
0.8
 72
0
  0
TEXT
  8
0
 62
2
  6
CONTINUOUS
 10
11.8076468901
 20
20.5438544245
  7
STANDARD
 40
0.094
  1
TM
 41
0.8
 72
0
  0
TEXT
  8
0
 62
2
  6
CONTINUOUS
 10
38.8514655963
 20
14.3096890632
  7
STANDARD
 40
0.15625
  1
RIM OF SINK
 41
0.8
 72
0
  0
TEXT
  8
0
 62
2
  6
CONTINUOUS
 10
38.1014655963
 20
14.0753140632
  7
STANDARD
 40
0.15625
  1
REBORD DE L'ÉVIER
 41
0.8
 72
0
  0
TEXT
  8
0
 62
2
  6
CONTINUOUS
 10
37.8514655963
 20
13.8409390632
  7
STANDARD
 40
0.15625
  1
BORDE DEL FREGADERO
 41
0.8
 72
0
  0
LINE
  8
0
 62
2
  6
CONTINUOUS
 10
43.5053174921
 20
15.2697050521
 11
40.4764655963
 21
14.3878140632
  0
LINE
  8
0
 62
2
  6
CONTINUOUS
 10
40.4764655963
 20
14.3878140632
 11
40.2264655963
 21
14.3878140632
  0
SOLID
  8
0
 62
2
  6
CONTINUOUS
 10
43.3340292453
 20
15.1872844903
 11
43.5053174921
 21
15.2697050521
 12
43.3165570764
 22
15.2472926007
 13
43.3165570764
 23
15.2472926007
  0
TEXT
  8
0
 62
2
  6
CONTINUOUS
 10
29.8483048722
 20
14.5301618104
  7
STANDARD
 40
0.15625
  1
CUT ALONG THIS LINE
 41
0.8
 72
0
  0
TEXT
  8
0
 62
2
  6
CONTINUOUS
 10
28.3483048722
 20
14.2957868104
  7
STANDARD
 40
0.15625
  1
DÉCOUPER LE LONG DE CETTE LIGNE
 41
0.8
 72
0
  0
TEXT
  8
0
 62
2
  6
CONTINUOUS
 10
29.7233048722
 20
14.0614118104
  7
STANDARD
 40
0.15625
  1
CORTE POR ESTA LÍNEA
 41
0.8
 72
0
  0
LINE
  8
0
 62
2
  6
CONTINUOUS
 10
33.7454775502
 20
12.8305520032
 11
32.4733048722
 21
14.6082868104
  0
LINE
  8
0
 62
2
  6
CONTINUOUS
 10
32.4733048722
 20
14.6082868104
 11
32.2233048722
 21
14.6082868104
  0
SOLID
  8
0
 62
2
  6
CONTINUOUS
 10
33.6109480858
 20
12.9648450995
 11
33.7454775502
 21
12.8305520032
 12
33.6617744665
 22
13.0012171908
 13
33.6617744665
 23
13.0012171908
  0
INSERT
  8
___SYMBOL
 62
2
  6
CONTINUOUS
  2
COPYRIGHT_YEAR_BL0
 10
38.5556436611
 20
13.0296940586
  0
INSERT
  8
___SYMBOL
 62
2
  6
CONTINUOUS
  2
TEMPLATE_NUMBER_BL1
 10
4.5549173093
 20
13.1317084205
  0
INSERT
  8
___SYMBOL
 62
2
  6
CONTINUOUS
  2
TEMPLATE_NUMBER_BL2
 10
4.5693584519
 20
11.5670347154
  0
INSERT
  8
___SYMBOL
 62
2
  6
CONTINUOUS
  2
PLOTTING_TEMPLATE_NOTE_BL3
 10
12.8072210606
 20
10.0251960352
  0
INSERT
  8
___SYMBOL
 62
2
  6
CONTINUOUS
  2
SKU_SINK_KOHLER_BL4
 10
12.7261451405
 20
22.6022648239
  0
INSERT
  8
___SYMBOL
 62
2
  6
CONTINUOUS
  2
PACKAGING_UPC_NOTE_BL5
 10
27.126168143
 20
22.4418475464
  0
POLYLINE
  8
0
 62
7
  6
CONTINUOUS
 66
1
 70
0
  0
VERTEX
  8
0
 62
7
  6
CONTINUOUS
 10
14.4803694152
 20
21.5228585321
  0
VERTEX
  8
0
 62
7
  6
CONTINUOUS
 10
14.4594031199
 20
21.5168775248
  0
VERTEX
  8
0
 62
7
  6
CONTINUOUS
 10
14.4390875174
 20
21.5089637629
  0
VERTEX
  8
0
 62
7
  6
CONTINUOUS
 10
14.4196003656
 20
21.4991864907
  0
VERTEX
  8
0
 62
7
  6
CONTINUOUS
 10
14.4011121742
 20
21.4876312575
  0
VERTEX
  8
0
 62
7
  6
CONTINUOUS
 10
14.3837847115
 20
21.4743991698
  0
VERTEX
  8
0
 62
7
  6
CONTINUOUS
 10
14.3677695903
 20
21.4596060062
  0
VERTEX
  8
0
 62
7
  6
CONTINUOUS
 10
14.35320694
 20
21.4433812045
  0
VERTEX
  8
0
 62
7
  6
CONTINUOUS
 10
14.3402241816
 20
21.425866729
  0
VERTEX
  8
0
 62
7
  6
CONTINUOUS
 10
14.328934912
 20
21.4072158284
  0
VERTEX
  8
0
 62
7
  6
CONTINUOUS
 10
14.3194379105
 20
21.3875916952
  0
VERTEX
  8
0
 62
7
  6
CONTINUOUS
 10
14.3118162743
 20
21.3671660372
  0
VERTEX
  8
0
 62
7
  6
CONTINUOUS
 10
14.3061366914
 20
21.3461175757
  0
VERTEX
  8
0
 62
7
  6
CONTINUOUS
 10
14.3024488574
 20
21.3246304812
  0
VERTEX
  8
0
 62
7
  6
CONTINUOUS
 10
14.30078504
 20
21.3028927622
  0
VERTEX
  8
0
 62
7
  6
CONTINUOUS
 10
14.3011597975
 20
21.2810946203
  0
VERTEX
  8
0
 62
7
  6
CONTINUOUS
 10
14.3035698508
 20
21.2594267856
  0
VERTEX
  8
0
 62
7
  6
CONTINUOUS
 10
14.3079941123
 20
21.2380788481
  0
VERTEX
  8
0
 62
7
  6
CONTINUOUS
 10
14.3143938705
 20
21.2172375988
  0
VERTEX
  8
0
 62
7
  6
CONTINUOUS
 10
14.3227131285
 20
21.1970853951
  0
VERTEX
  8
0
 62
7
  6
CONTINUOUS
 10
14.3328790941
 20
21.1777985656
  0
VERTEX
  8
0
 62
7
  6
CONTINUOUS
 10
14.3448028169
 20
21.1595458669
  0
VERTEX
  8
0
 62
7
  6
CONTINUOUS
 10
14.3583799663
 20
21.142487007
  0
VERTEX
  8
0
 62
7
  6
CONTINUOUS
 10
14.3734917443
 20
21.1267712482
  0
VERTEX
  8
0
 62
7
  6
CONTINUOUS
 10
14.3900059254
 20
21.1125361009
  0
VERTEX
  8
0
 62
7
  6
CONTINUOUS
 10
14.4077780132
 20
21.0999061202
  0
VERTEX
  8
0
 62
7
  6
CONTINUOUS
 10
14.426652505
 20
21.0889918163
  0
VERTEX
  8
0
 62
7
  6
CONTINUOUS
 10
14.4464642519
 20
21.0798886877
  0
VERTEX
  8
0
 62
7
  6
CONTINUOUS
 10
14.4670399044
 20
21.0726763852
  0
VERTEX
  8
0
 62
7
  6
CONTINUOUS
 10
14.488199429
 20
21.0674180153
  0
VERTEX
  8
0
 62
7
  6
CONTINUOUS
 10
14.5097576833
 20
21.0641595879
  0
VERTEX
  8
0
 62
7
  6
CONTINUOUS
 10
14.531526036
 20
21.0629296137
  0
VERTEX
  8
0
 62
7
  6
CONTINUOUS
 10
14.5533140178
 20
21.0637388547
  0
VERTEX
  8
0
 62
7
  6
CONTINUOUS
 10
14.5749309872
 20
21.0665802302
  0
VERTEX
  8
0
 62
7
  6
CONTINUOUS
 10
14.5961877994
 20
21.0714288787
  0
VERTEX
  8
0
 62
7
  6
CONTINUOUS
 10
14.6168984607
 20
21.0782423753
  0
VERTEX
  8
0
 62
7
  6
CONTINUOUS
 10
14.6368817563
 20
21.086961103
  0
VERTEX
  8
0
 62
7
  6
CONTINUOUS
 10
14.6559628355
 20
21.0975087743
  0
VERTEX
  8
0
 62
7
  6
CONTINUOUS
 10
14.6739747422
 20
21.1097930988
  0
VERTEX
  8
0
 62
7
  6
CONTINUOUS
 10
14.690759875
 20
21.1237065909
  0
VERTEX
  8
0
 62
7
  6
CONTINUOUS
 10
14.7061713667
 20
21.1391275095
  0
VERTEX
  8
0
 62
7
  6
CONTINUOUS
 10
14.7200743694
 20
21.1559209244
  0
VERTEX
  8
0
 62
7
  6
CONTINUOUS
 10
14.7323472341
 20
21.1739398957
  0
VERTEX
  8
0
 62
7
  6
CONTINUOUS
 10
14.7428825752
 20
21.1930267606
  0
VERTEX
  8
0
 62
7
  6
CONTINUOUS
 10
14.7515882102
 20
21.213014512
  0
VERTEX
  8
0
 62
7
  6
CONTINUOUS
 10
14.7583879663
 20
21.2337282603
  0
VERTEX
  8
0
 62
7
  6
CONTINUOUS
 10
14.7632223466
 20
21.2549867638
  0
VERTEX
  8
0
 62
7
  6
CONTINUOUS
 10
14.7660490511
 20
21.276604014
  0
VERTEX
  8
0
 62
7
  6
CONTINUOUS
 10
14.7668433467
 20
21.2983908634
  0
VERTEX
  8
0
 62
7
  6
CONTINUOUS
 10
14.7655982834
 20
21.3201566807
  0
VERTEX
  8
0
 62
7
  6
CONTINUOUS
 10
14.7623247552
 20
21.3417110187
  0
VERTEX
  8
0
 62
7
  6
CONTINUOUS
 10
14.7570514051
 20
21.3628652803
  0
VERTEX
  8
0
 62
7
  6
CONTINUOUS
 10
14.7498243739
 20
21.3834343692
  0
VERTEX
  8
0
 62
7
  6
CONTINUOUS
 10
14.740706897
 20
21.4032383093
  0
VERTEX
  8
0
 62
7
  6
CONTINUOUS
 10
14.7297787509
 20
21.4221038194
  0
VERTEX
  8
0
 62
7
  6
CONTINUOUS
 10
14.7171355549
 20
21.4398658293
  0
VERTEX
  8
0
 62
7
  6
CONTINUOUS
 10
14.7028879351
 20
21.4563689244
  0
VERTEX
  8
0
 62
7
  6
CONTINUOUS
 10
14.6871605558
 20
21.4714687052
  0
VERTEX
  8
0
 62
7
  6
CONTINUOUS
 10
14.6700910288
 20
21.4850330513
  0
VERTEX
  8
0
 62
7
  6
CONTINUOUS
 10
14.6518287099
 20
21.4969432767
  0
VERTEX
  8
0
 62
7
  6
CONTINUOUS
 10
14.6325333913
 20
21.5070951689
  0
VERTEX
  8
0
 62
7
  6
CONTINUOUS
 10
14.6123739038
 20
21.5153999007
  0
VERTEX
  8
0
 62
7
  6
CONTINUOUS
 10
14.5915266397
 20
21.5217848068
  0
VERTEX
  8
0
 62
7
  6
CONTINUOUS
 10
14.5701740091
 20
21.5261940205
  0
VERTEX
  8
0
 62
7
  6
CONTINUOUS
 10
14.5485028441
 20
21.5285889619
  0
VERTEX
  8
0
 62
7
  6
CONTINUOUS
 10
14.5267027638
 20
21.5289486755
  0
VERTEX
  8
0
 62
7
  6
CONTINUOUS
 10
14.5049645153
 20
21.527270014
  0
VERTEX
  8
0
 62
7
  6
CONTINUOUS
 10
14.4834783047
 20
21.5235676654
  0
SEQEND
  0
POLYLINE
  8
0
 62
7
  6
CONTINUOUS
 66
1
 70
0
  0
VERTEX
  8
0
 62
7
  6
CONTINUOUS
 10
14.2767690804
 20
20.677917143
  0
VERTEX
  8
0
 62
7
  6
CONTINUOUS
 10
14.2558027852
 20
20.6719361357
  0
VERTEX
  8
0
 62
7
  6
CONTINUOUS
 10
14.2354871826
 20
20.6640223738
  0
VERTEX
  8
0
 62
7
  6
CONTINUOUS
 10
14.2160000309
 20
20.6542451015
  0
VERTEX
  8
0
 62
7
  6
CONTINUOUS
 10
14.1975118394
 20
20.6426898684
  0
VERTEX
  8
0
 62
7
  6
CONTINUOUS
 10
14.1801843768
 20
20.6294577807
  0
VERTEX
  8
0
 62
7
  6
CONTINUOUS
 10
14.1641692556
 20
20.6146646171
  0
VERTEX
  8
0
 62
7
  6
CONTINUOUS
 10
14.1496066053
 20
20.5984398154
  0
VERTEX
  8
0
 62
7
  6
CONTINUOUS
 10
14.1366238469
 20
20.5809253398
  0
VERTEX
  8
0
 62
7
  6
CONTINUOUS
 10
14.1253345773
 20
20.5622744393
  0
VERTEX
  8
0
 62
7
  6
CONTINUOUS
 10
14.1158375758
 20
20.5426503061
  0
VERTEX
  8
0
 62
7
  6
CONTINUOUS
 10
14.1082159396
 20
20.5222246481
  0
VERTEX
  8
0
 62
7
  6
CONTINUOUS
 10
14.1025363567
 20
20.5011761866
  0
VERTEX
  8
0
 62
7
  6
CONTINUOUS
 10
14.0988485226
 20
20.4796890921
  0
VERTEX
  8
0
 62
7
  6
CONTINUOUS
 10
14.0971847053
 20
20.4579513731
  0
VERTEX
  8
0
 62
7
  6
CONTINUOUS
 10
14.0975594628
 20
20.4361532312
  0
VERTEX
  8
0
 62
7
  6
CONTINUOUS
 10
14.0999695161
 20
20.4144853965
  0
VERTEX
  8
0
 62
7
  6
CONTINUOUS
 10
14.1043937776
 20
20.393137459
  0
VERTEX
  8
0
 62
7
  6
CONTINUOUS
 10
14.1107935358
 20
20.3722962097
  0
VERTEX
  8
0
 62
7
  6
CONTINUOUS
 10
14.1191127938
 20
20.352144006
  0
VERTEX
  8
0
 62
7
  6
CONTINUOUS
 10
14.1292787594
 20
20.3328571765
  0
VERTEX
  8
0
 62
7
  6
CONTINUOUS
 10
14.1412024822
 20
20.3146044778
  0
VERTEX
  8
0
 62
7
  6
CONTINUOUS
 10
14.1547796315
 20
20.2975456179
  0
VERTEX
  8
0
 62
7
  6
CONTINUOUS
 10
14.1698914095
 20
20.2818298591
  0
VERTEX
  8
0
 62
7
  6
CONTINUOUS
 10
14.1864055907
 20
20.2675947118
  0
VERTEX
  8
0
 62
7
  6
CONTINUOUS
 10
14.2041776785
 20
20.254964731
  0
VERTEX
  8
0
 62
7
  6
CONTINUOUS
 10
14.2230521703
 20
20.2440504272
  0
VERTEX
  8
0
 62
7
  6
CONTINUOUS
 10
14.2428639172
 20
20.2349472986
  0
VERTEX
  8
0
 62
7
  6
CONTINUOUS
 10
14.2634395697
 20
20.2277349961
  0
VERTEX
  8
0
 62
7
  6
CONTINUOUS
 10
14.2845990943
 20
20.2224766262
  0
VERTEX
  8
0
 62
7
  6
CONTINUOUS
 10
14.3061573486
 20
20.2192181988
  0
VERTEX
  8
0
 62
7
  6
CONTINUOUS
 10
14.3279257013
 20
20.2179882246
  0
VERTEX
  8
0
 62
7
  6
CONTINUOUS
 10
14.349713683
 20
20.2187974656
  0
VERTEX
  8
0
 62
7
  6
CONTINUOUS
 10
14.3713306525
 20
20.2216388411
  0
VERTEX
  8
0
 62
7
  6
CONTINUOUS
 10
14.3925874646
 20
20.2264874896
  0
VERTEX
  8
0
 62
7
  6
CONTINUOUS
 10
14.413298126
 20
20.2333009862
  0
VERTEX
  8
0
 62
7
  6
CONTINUOUS
 10
14.4332814215
 20
20.2420197138
  0
VERTEX
  8
0
 62
7
  6
CONTINUOUS
 10
14.4523625008
 20
20.2525673851
  0
VERTEX
  8
0
 62
7
  6
CONTINUOUS
 10
14.4703744074
 20
20.2648517097
  0
VERTEX
  8
0
 62
7
  6
CONTINUOUS
 10
14.4871595402
 20
20.2787652017
  0
VERTEX
  8
0
 62
7
  6
CONTINUOUS
 10
14.502571032
 20
20.2941861204
  0
VERTEX
  8
0
 62
7
  6
CONTINUOUS
 10
14.5164740347
 20
20.3109795353
  0
VERTEX
  8
0
 62
7
  6
CONTINUOUS
 10
14.5287468994
 20
20.3289985066
  0
VERTEX
  8
0
 62
7
  6
CONTINUOUS
 10
14.5392822405
 20
20.3480853715
  0
VERTEX
  8
0
 62
7
  6
CONTINUOUS
 10
14.5479878755
 20
20.3680731228
  0
VERTEX
  8
0
 62
7
  6
CONTINUOUS
 10
14.5547876316
 20
20.3887868712
  0
VERTEX
  8
0
 62
7
  6
CONTINUOUS
 10
14.5596220119
 20
20.4100453747
  0
VERTEX
  8
0
 62
7
  6
CONTINUOUS
 10
14.5624487164
 20
20.4316626248
  0
VERTEX
  8
0
 62
7
  6
CONTINUOUS
 10
14.563243012
 20
20.4534494743
  0
VERTEX
  8
0
 62
7
  6
CONTINUOUS
 10
14.5619979486
 20
20.4752152916
  0
VERTEX
  8
0
 62
7
  6
CONTINUOUS
 10
14.5587244205
 20
20.4967696295
  0
VERTEX
  8
0
 62
7
  6
CONTINUOUS
 10
14.5534510703
 20
20.5179238911
  0
VERTEX
  8
0
 62
7
  6
CONTINUOUS
 10
14.5462240392
 20
20.5384929801
  0
VERTEX
  8
0
 62
7
  6
CONTINUOUS
 10
14.5371065623
 20
20.5582969202
  0
VERTEX
  8
0
 62
7
  6
CONTINUOUS
 10
14.5261784161
 20
20.5771624303
  0
VERTEX
  8
0
 62
7
  6
CONTINUOUS
 10
14.5135352202
 20
20.5949244402
  0
VERTEX
  8
0
 62
7
  6
CONTINUOUS
 10
14.4992876004
 20
20.6114275352
  0
VERTEX
  8
0
 62
7
  6
CONTINUOUS
 10
14.483560221
 20
20.6265273161
  0
VERTEX
  8
0
 62
7
  6
CONTINUOUS
 10
14.4664906941
 20
20.6400916621
  0
VERTEX
  8
0
 62
7
  6
CONTINUOUS
 10
14.4482283752
 20
20.6520018876
  0
VERTEX
  8
0
 62
7
  6
CONTINUOUS
 10
14.4289330565
 20
20.6621537798
  0
VERTEX
  8
0
 62
7
  6
CONTINUOUS
 10
14.4087735691
 20
20.6704585116
  0
VERTEX
  8
0
 62
7
  6
CONTINUOUS
 10
14.387926305
 20
20.6768434177
  0
VERTEX
  8
0
 62
7
  6
CONTINUOUS
 10
14.3665736744
 20
20.6812526314
  0
VERTEX
  8
0
 62
7
  6
CONTINUOUS
 10
14.3449025094
 20
20.6836475727
  0
VERTEX
  8
0
 62
7
  6
CONTINUOUS
 10
14.3231024291
 20
20.6840072864
  0
VERTEX
  8
0
 62
7
  6
CONTINUOUS
 10
14.3013641805
 20
20.6823286249
  0
VERTEX
  8
0
 62
7
  6
CONTINUOUS
 10
14.2798779699
 20
20.6786262762
  0
SEQEND
  0
LINE
  8
_CURVE
 62
8
  6
DASHED
 10
0.5053174921
 20
20.0180520032
 11
0.5053174921
 21
11.7680520032
  0
LINE
  8
_CURVE
 62
7
  6
CONTINUOUS
 10
1.5678174921
 20
13.0805520032
 11
1.5678174921
 21
18.7055520032
  0
LINE
  8
_CURVE
 62
8
  6
DASHED
 10
0.5053174921
 20
11.7680520032
 11
43.5053174921
 21
11.7680520032
  0
LINE
  8
_CURVE
 62
7
  6
CONTINUOUS
 10
42.1928174921
 20
12.8305520032
 11
1.8178174921
 21
12.8305520032
  0
LINE
  8
_CURVE
 62
7
  6
CONTINUOUS
 10
1.8178174921
 20
18.9555520032
 11
42.1928174921
 21
18.9555520032
  0
LINE
  8
_CURVE
 62
8
  6
DASHED
 10
43.5053174921
 20
20.0180520032
 11
0.5053174921
 21
20.0180520032
  0
LINE
  8
_CURVE
 62
7
  6
CONTINUOUS
 10
42.4428174921
 20
18.7055520032
 11
42.4428174921
 21
13.0805520032
  0
LINE
  8
_CURVE
 62
8
  6
DASHED
 10
43.5053174921
 20
11.7680520032
 11
43.5053174921
 21
20.0180520032
  0
ARC
  8
_CURVE
 62
7
  6
CONTINUOUS
 10
1.8178174921
 20
18.7055520032
 40
0.25
 50
90.0
 51
180.0
  0
ARC
  8
_CURVE
 62
7
  6
CONTINUOUS
 10
1.8178174921
 20
13.0805520032
 40
0.25
 50
180.0
 51
270.0
  0
ARC
  8
_CURVE
 62
7
  6
CONTINUOUS
 10
42.1928174921
 20
13.0805520032
 40
0.25
 50
270.0
 51
360.0
  0
ARC
  8
_CURVE
 62
7
  6
CONTINUOUS
 10
42.1928174921
 20
18.7055520032
 40
0.25
 50
0.0
 51
90.0
  0
ENDSEC
  0
EOF
