  0
SECTION
  2
HEADER
  9
$ACADVER
  1
AC1009
  9
$INSBASE
 10
0.0
 20
0.0
 30
0.0
  9
$EXTMIN
 10
1.3302997681999991
 20
3.3953341649999991
 30
0.0
  9
$EXTMAX
 10
22.2712170157
 20
19.545175025300001
 30
0.0
  9
$LIMMIN
 10
0.0
 20
0.0
  9
$LIMMAX
 10
34.0
 20
22.0
  9
$ORTHOMODE
 70
     0
  9
$REGENMODE
 70
     1
  9
$FILLMODE
 70
     1
  9
$QTEXTMODE
 70
     0
  9
$MIRRTEXT
 70
     0
  9
$DRAGMODE
 70
     2
  9
$LTSCALE
 40
1.8700000000000001
  9
$OSMODE
 70
    39
  9
$ATTMODE
 70
     1
  9
$TEXTSIZE
 40
0.2
  9
$TRACEWID
 40
0.05
  9
$TEXTSTYLE
  7
STANDARD
  9
$CLAYER
  8
0
  9
$CELTYPE
  6
ByLayer
  9
$CECOLOR
 62
   256
  9
$DIMSCALE
 40
1.0
  9
$DIMASZ
 40
0.1875
  9
$DIMEXO
 40
0.2125
  9
$DIMDLI
 40
1.2919999999999989
  9
$DIMRND
 40
0.0
  9
$DIMDLE
 40
0.0
  9
$DIMEXE
 40
0.612
  9
$DIMTP
 40
0.0
  9
$DIMTM
 40
0.0
  9
$DIMTXT
 40
0.15625
  9
$DIMCEN
 40
0.306
  9
$DIMTSZ
 40
0.0
  9
$DIMTOL
 70
     0
  9
$DIMLIM
 70
     0
  9
$DIMTIH
 70
     1
  9
$DIMTOH
 70
     1
  9
$DIMSE1
 70
     0
  9
$DIMSE2
 70
     0
  9
$DIMTAD
 70
     0
  9
$DIMZIN
 70
     0
  9
$DIMBLK
  1
_FILLED
  9
$DIMASO
 70
     1
  9
$DIMSHO
 70
     1
  9
$DIMPOST
  1

  9
$DIMAPOST
  1

  9
$DIMALT
 70
     0
  9
$DIMALTD
 70
     2
  9
$DIMALTF
 40
25.399999999999999
  9
$DIMLFAC
 40
1.0
  9
$DIMTOFL
 70
     0
  9
$DIMTVP
 40
0.0
  9
$DIMTIX
 70
     0
  9
$DIMSOXD
 70
     0
  9
$DIMSAH
 70
     0
  9
$DIMBLK1
  1

  9
$DIMBLK2
  1

  9
$DIMSTYLE
  2
STANDARD
  9
$DIMCLRD
 70
     0
  9
$DIMCLRE
 70
     0
  9
$DIMCLRT
 70
     0
  9
$DIMTFAC
 40
1.0
  9
$DIMGAP
 40
0.09
  9
$LUNITS
 70
     2
  9
$LUPREC
 70
     4
  9
$SKETCHINC
 40
0.1
  9
$FILLETRAD
 40
0.0
  9
$AUNITS
 70
     0
  9
$AUPREC
 70
     0
  9
$MENU
  1
.
  9
$ELEVATION
 40
0.0
  9
$PELEVATION
 40
0.0
  9
$THICKNESS
 40
0.0
  9
$LIMCHECK
 70
     0
  9
$BLIPMODE
 70
     0
  9
$CHAMFERA
 40
0.0
  9
$CHAMFERB
 40
0.0
  9
$SKPOLY
 70
     0
  9
$TDCREATE
 40
2453781.3786379509
  9
$TDUPDATE
 40
2454973.557357199
  9
$TDINDWG
 40
0.0068114699
  9
$TDUSRTIMER
 40
0.00680875
  9
$USRTIMER
 70
     1
  9
$ANGBASE
 50
0.0
  9
$ANGDIR
 70
     0
  9
$PDMODE
 70
     3
  9
$PDSIZE
 40
0.3125
  9
$PLINEWID
 40
0.0
  9
$COORDS
 70
     1
  9
$SPLFRAME
 70
     0
  9
$SPLINETYPE
 70
     6
  9
$SPLINESEGS
 70
     8
  9
$ATTDIA
 70
     0
  9
$ATTREQ
 70
     1
  9
$HANDLING
 70
     1
  9
$HANDSEED
  5
BD4
  9
$SURFTAB1
 70
     6
  9
$SURFTAB2
 70
     6
  9
$SURFTYPE
 70
     6
  9
$SURFU
 70
     6
  9
$SURFV
 70
     6
  9
$UCSNAME
  2

  9
$UCSORG
 10
0.0
 20
0.0
 30
0.0
  9
$UCSXDIR
 10
1.0
 20
0.0
 30
0.0
  9
$UCSYDIR
 10
0.0
 20
1.0
 30
0.0
  9
$PUCSNAME
  2

  9
$PUCSORG
 10
0.0
 20
0.0
 30
0.0
  9
$PUCSXDIR
 10
1.0
 20
0.0
 30
0.0
  9
$PUCSYDIR
 10
0.0
 20
1.0
 30
0.0
  9
$USERI1
 70
     0
  9
$USERI2
 70
     0
  9
$USERI3
 70
     0
  9
$USERI4
 70
     0
  9
$USERI5
 70
     0
  9
$USERR1
 40
0.0
  9
$USERR2
 40
0.0
  9
$USERR3
 40
0.0
  9
$USERR4
 40
0.0
  9
$USERR5
 40
0.0
  9
$WORLDVIEW
 70
     1
  9
$SHADEDGE
 70
     3
  9
$SHADEDIF
 70
    70
  9
$TILEMODE
 70
     1
  9
$MAXACTVP
 70
    64
  9
$PLIMCHECK
 70
     0
  9
$PEXTMIN
 10
1.0000000000000000E+020
 20
1.0000000000000000E+020
 30
1.0000000000000000E+020
  9
$PEXTMAX
 10
-1.0000000000000000E+020
 20
-1.0000000000000000E+020
 30
-1.0000000000000000E+020
  9
$PLIMMIN
 10
0.0
 20
0.0
  9
$PLIMMAX
 10
12.0
 20
9.0
  9
$UNITMODE
 70
     0
  9
$VISRETAIN
 70
     1
  9
$PLINEGEN
 70
     0
  9
$PSLTSCALE
 70
     1
  0
ENDSEC
  0
SECTION
  2
TABLES
  0
TABLE
  2
VPORT
 70
     1
  0
VPORT
  2
*ACTIVE
 70
     0
 10
0.0
 20
0.0
 11
1.0
 21
1.0
 12
15.23676239954429
 22
13.202748035829851
 13
0.0
 23
0.0
 14
1.0
 24
1.0
 15
0.0
 25
0.0
 16
0.0
 26
0.0
 36
1.0
 17
0.0
 27
0.0
 37
0.0
 40
22.067484995602388
 41
1.6207983193277311
 42
50.0
 43
0.0
 44
0.0
 50
0.0
 51
0.0
 71
     0
 72
   100
 73
     1
 74
     1
 75
     0
 76
     0
 77
     0
 78
     0
  0
ENDTAB
  0
TABLE
  2
LTYPE
 70
     8
  0
LTYPE
  2
ByBlock
 70
     0
  3

 72
    65
 73
     0
 40
0.0
  0
LTYPE
  2
ByLayer
 70
     0
  3

 72
    65
 73
     0
 40
0.0
  0
LTYPE
  2
CONTINUOUS
 70
     0
  3
Solid line
 72
    65
 73
     0
 40
0.0
  0
LTYPE
  2
CENTER
 70
     0
  3
____ _ ____ _ ____ _ ____ _ ____ _ ____ _ ____
 72
    65
 73
     4
 40
0.6
 49
0.375
 49
-0.075
 49
0.075
 49
-0.075
  0
LTYPE
  2
HIDDEN
 70
     0
  3
- - - - - - - - - - - - - - - - - - - -
 72
    65
 73
     2
 40
0.2
 49
0.1
 49
-0.1
  0
LTYPE
  2
PHANTOM
 70
     0
  3
_____ _ _ _____ _ _ _____ _ _ _____
 72
    65
 73
     6
 40
0.8
 49
0.45
 49
-0.05
 49
0.1
 49
-0.05
 49
0.1
 49
-0.05
  0
LTYPE
  2
DOT
 70
     0
  3
. . . . . . . . . . . . . . . . . . . .
 72
    65
 73
     2
 40
0.2
 49
0.1
 49
-0.1
  0
LTYPE
  2
DASHED
 70
     0
  3
- - - - - - - - - - - - - - - - - - - -
 72
    65
 73
     2
 40
0.2
 49
0.1
 49
-0.1
  0
ENDTAB
  0
TABLE
  2
LAYER
 70
    14
  0
LAYER
  2
0
 70
     0
 62
     7
  6
CONTINUOUS
  0
LAYER
  2
DEFAULT_1
 70
     0
 62
     7
  6
CENTER
  0
LAYER
  2
DEFAULT_2
 70
     0
 62
     8
  6
HIDDEN
  0
LAYER
  2
DEFAULT_3
 70
     0
 62
     7
  6
PHANTOM
  0
LAYER
  2
_2D_DELETED_OBJS
 70
     0
 62
     7
  6
CONTINUOUS
  0
LAYER
  2
COSM_SKETCH
 70
     0
 62
     7
  6
CONTINUOUS
  0
LAYER
  2
CURVE
 70
     0
 62
     7
  6
CONTINUOUS
  0
LAYER
  2
DRAFT_ENT
 70
     0
 62
     7
  6
CONTINUOUS
  0
LAYER
  2
IMPORT_FEATURE
 70
     0
 62
     7
  6
CONTINUOUS
  0
LAYER
  2
NOTE
 70
     0
 62
     7
  6
CONTINUOUS
  0
LAYER
  2
SURFACE
 70
     0
 62
     7
  6
CONTINUOUS
  0
LAYER
  2
SYMBOL
 70
     0
 62
     7
  6
CONTINUOUS
  0
LAYER
  2
___NOTE
 70
     0
 62
     7
  6
CONTINUOUS
  0
LAYER
  2
HATCHING_BL0
 70
     0
 62
     7
  6
CONTINUOUS
  0
ENDTAB
  0
TABLE
  2
STYLE
 70
     1
  0
STYLE
  2
STANDARD
 70
     0
 40
0.0
 41
0.8
 50
0.0
 71
     0
 42
0.2
  3
txt
  4

  0
ENDTAB
  0
TABLE
  2
VIEW
 70
     0
  0
ENDTAB
  0
TABLE
  2
UCS
 70
     0
  0
ENDTAB
  0
TABLE
  2
APPID
 70
     1
  0
APPID
  2
ACAD
 70
     0
  0
ENDTAB
  0
TABLE
  2
DIMSTYLE
 70
     1
  0
DIMSTYLE
  2
STANDARD
 70
     0
  3

  4

  5

  6

  7

 40
1.0
 41
0.18
 42
0.0625
 43
0.38
 44
0.18
 45
0.0
 46
0.0
 47
0.0
 48
0.0
140
0.18
141
0.09
142
0.0
143
25.399999999999999
144
1.0
145
0.0
146
1.0
147
0.09
 71
     0
 72
     0
 73
     1
 74
     1
 75
     0
 76
     0
 77
     0
 78
     0
170
     0
171
     2
172
     0
173
     0
174
     0
175
     0
176
     0
177
     0
178
     0
  0
ENDTAB
  0
ENDSEC
  0
SECTION
  2
BLOCKS
  0
BLOCK
  8
0
  2
$MODEL_SPACE
 70
     0
 10
0.0
 20
0.0
 30
0.0
  3
$MODEL_SPACE
  1

  0
ENDBLK
  5
85B
  8
0
  0
BLOCK
 67
     1
  8
0
  2
$PAPER_SPACE
 70
     0
 10
0.0
 20
0.0
 30
0.0
  3
$PAPER_SPACE
  1

  0
ENDBLK
  5
857
 67
     1
  8
0
  0
BLOCK
  8
0
  6
CONTINUOUS
 62
     2
  2
*D2
 70
     1
 10
0.0
 20
0.0
 30
0.0
  3
*D2
  1

  0
TEXT
  5
3E
  8
0
  6
CONTINUOUS
 62
     2
 10
13.577575572800001
 20
9.1225968017000003
 30
0.0
 40
0.12
  1
"
 41
0.8
  0
TEXT
  5
3F
  8
0
  6
CONTINUOUS
 62
     2
 10
12.8095755728
 20
8.9425968017000006
 30
0.0
 40
0.12
  1
(32,9 cm)
 41
0.8
  0
TEXT
  5
40
  8
0
  6
CONTINUOUS
 62
     2
 10
12.8095755728
 20
9.1225968017000003
 30
0.0
 40
0.12
  1
12-15/16
 41
0.8
  0
LINE
  5
41
  8
0
  6
CONTINUOUS
 62
     2
 10
13.3665761259
 20
18.106428599899999
 30
0.0
 11
10.953801908999999
 21
18.106428749500001
 31
0.0
  0
LINE
  5
42
  8
0
  6
CONTINUOUS
 62
     2
 10
13.366575323699999
 20
5.1635322904000001
 30
0.0
 11
10.9112271033
 21
5.1635324426000002
 31
0.0
  0
LINE
  5
43
  8
0
  6
CONTINUOUS
 62
     2
 10
13.2415761259
 20
18.1064286077
 30
0.0
 11
13.2415761259
 21
9.3025968017
 31
0.0
  0
LINE
  5
44
  8
0
  6
CONTINUOUS
 62
     2
 10
13.241575323699999
 20
5.163532298199998
 30
0.0
 11
13.2415761259
 21
8.8825968017000001
 31
0.0
  0
INSERT
  5
46
  8
0
  6
CONTINUOUS
 62
     2
  2
_FILLED
 10
13.2415761259
 20
18.1064286077
 30
0.0
 41
0.1875
 42
0.1875
 43
0.1875
 50
90.0
  0
INSERT
  5
47
  8
0
  6
CONTINUOUS
 62
     2
  2
_FILLED
 10
13.241575323699999
 20
5.163532298199998
 30
0.0
 41
0.1875
 42
0.1875
 43
0.1875
 50
269.99998799999997
  0
ENDBLK
  5
48
  8
0
  6
ByBlock
 62
     0
  0
BLOCK
  8
0
  2
_FILLED
 70
     0
 10
0.0
 20
0.0
 30
0.0
  3
_FILLED
  1

  0
SOLID
  5
63
  8
0
  6
ByBlock
 62
     0
 10
0.0
 20
0.0
 30
0.0
 11
-1.0
 21
0.1666666667
 31
0.0
 12
-1.0
 22
-0.1666666667
 32
0.0
 13
-1.0
 23
-0.1666666667
 33
0.0
  0
ENDBLK
  5
64
  8
0
  6
ByBlock
 62
     0
  0
BLOCK
  8
0
  6
CONTINUOUS
 62
     2
  2
*D4
 70
     1
 10
0.0
 20
0.0
 30
0.0
  3
*D4
  1

  0
TEXT
  5
4B
  8
0
  6
CONTINUOUS
 62
     2
 10
14.445711658900001
 20
12.0496708718
 30
0.0
 40
0.12
  1
"
 41
0.8
  0
TEXT
  5
4C
  8
0
  6
CONTINUOUS
 62
     2
 10
13.7737116589
 20
11.8696708718
 30
0.0
 40
0.12
  1
(43,5 cm)
 41
0.8
  0
TEXT
  5
4D
  8
0
  6
CONTINUOUS
 62
     2
 10
13.8697116589
 20
12.0496708718
 30
0.0
 40
0.12
  1
17-1/8
 41
0.8
  0
LINE
  5
4E
  8
0
  6
CONTINUOUS
 62
     2
 10
20.3580371143
 20
14.6702084199
 30
0.0
 11
20.358036844699999
 21
11.984670254399999
 31
0.0
  0
LINE
  5
4F
  8
0
  6
CONTINUOUS
 62
     2
 10
3.2434804706000002
 20
14.832181545799999
 30
0.0
 11
3.2434801848000001
 21
11.984671972099999
 31
0.0
  0
LINE
  5
50
  8
0
  6
CONTINUOUS
 62
     2
 10
20.3580368573
 20
12.109670254399999
 30
0.0
 11
14.697711658899999
 21
12.109670254399999
 31
0.0
  0
LINE
  5
51
  8
0
  6
CONTINUOUS
 62
     2
 10
3.2434801972999989
 20
12.109671972099999
 30
0.0
 11
13.713711658899999
 21
12.109670254399999
 31
0.0
  0
INSERT
  5
52
  8
0
  6
CONTINUOUS
 62
     2
  2
_FILLED
 10
20.3580368573
 20
12.109670254399999
 30
0.0
 41
0.1875
 42
0.1875
 43
0.1875
  0
INSERT
  5
53
  8
0
  6
CONTINUOUS
 62
     2
  2
_FILLED
 10
3.2434801972999989
 20
12.109671972099999
 30
0.0
 41
0.1875
 42
0.1875
 43
0.1875
 50
179.99999099999999
  0
ENDBLK
  5
54
  8
0
  6
ByBlock
 62
     0
  0
BLOCK
  8
HATCHING_BL0
  2
HATCHING_BL0
 70
     0
 10
5.289518147199999
 20
6.213810677799998
 30
0.0
  3
HATCHING_BL0
  1

  0
LINE
  5
57
  8
HATCHING_BL0
  6
CONTINUOUS
 62
     2
 10
5.1112081824000004
 20
6.8804942433000003
 30
0.0
 11
5.0405382643000003
 21
6.8098243252000001
 31
0.0
  0
LINE
  5
58
  8
HATCHING_BL0
  6
CONTINUOUS
 62
     2
 10
5.2896329695999986
 20
6.8892134030000003
 30
0.0
 11
5.0156125932000002
 21
6.6151930266999992
 31
0.0
  0
LINE
  5
59
  8
HATCHING_BL0
  6
CONTINUOUS
 62
     2
 10
5.4593385971000004
 20
6.8892134030000003
 30
0.0
 11
4.995796099999998
 21
6.4256709059999988
 31
0.0
  0
LINE
  5
5A
  8
HATCHING_BL0
  6
CONTINUOUS
 62
     2
 10
5.6073861055999981
 20
6.867555284099998
 30
0.0
 11
5.3790442245000003
 21
6.6392134030000003
 31
0.0
  0
LINE
  5
5B
  8
HATCHING_BL0
  6
CONTINUOUS
 62
     2
 10
5.2230083568000003
 20
6.4831775352000003
 30
0.0
 11
4.9759796067000002
 21
6.2361487851000001
 31
0.0
  0
LINE
  5
5C
  8
HATCHING_BL0
  6
CONTINUOUS
 62
     2
 10
5.6625061686000002
 20
6.7529697196000003
 30
0.0
 11
5.5487498520000003
 21
6.6392134030000003
 31
0.0
  0
LINE
  5
5D
  8
HATCHING_BL0
  6
CONTINUOUS
 62
     2
 10
5.2031918632999981
 20
6.293655414299999
 30
0.0
 11
4.9561631131999979
 21
6.0466266641999979
 31
0.0
  0
LINE
  5
5E
  8
HATCHING_BL0
  6
CONTINUOUS
 62
     2
 10
5.1833753696000002
 20
6.1041332931000003
 30
0.0
 11
4.9363466195000001
 21
5.8571045429999993
 31
0.0
  0
LINE
  5
5F
  8
HATCHING_BL0
  6
CONTINUOUS
 62
     2
 10
5.1635588756999979
 20
5.9146111716999981
 30
0.0
 11
4.9165301256999987
 21
5.6675824217999979
 31
0.0
  0
LINE
  5
60
  8
HATCHING_BL0
  6
CONTINUOUS
 62
     2
 10
5.1437423816000001
 20
5.7250890501000002
 30
0.0
 11
4.957061284099999
 21
5.5384079526000001
 31
0.0
  0
ENDBLK
  5
61
  8
0
  6
ByBlock
 62
     0
  0
ENDSEC
  0
SECTION
  2
ENTITIES
  0
SOLID
  5
65
  8
0
  6
CONTINUOUS
 62
     2
 10
14.959129834100001
 20
16.0685986533
 30
0.0
 11
14.959129834100001
 21
16.169961153300001
 31
0.0
 12
15.672217334100001
 22
16.169961153300001
 32
0.0
 13
15.672217334100001
 23
16.169961153300001
 33
0.0
  0
SOLID
  5
66
  8
0
  6
CONTINUOUS
 62
     2
 10
15.672217334100001
 20
16.169961153300001
 30
0.0
 11
15.672217334100001
 21
16.0685986533
 31
0.0
 12
14.959129834100001
 22
16.0685986533
 32
0.0
 13
14.959129834100001
 23
16.0685986533
 33
0.0
  0
SOLID
  5
67
  8
0
  6
CONTINUOUS
 62
     2
 10
14.959129834100001
 20
15.8297549033
 30
0.0
 11
14.959129834100001
 21
15.858904903299999
 31
0.0
 12
15.672217334100001
 22
15.858904903299999
 32
0.0
 13
15.672217334100001
 23
15.858904903299999
 33
0.0
  0
SOLID
  5
68
  8
0
  6
CONTINUOUS
 62
     2
 10
15.672217334100001
 20
15.858904903299999
 30
0.0
 11
15.672217334100001
 21
15.8297549033
 31
0.0
 12
14.959129834100001
 22
15.8297549033
 32
0.0
 13
14.959129834100001
 23
15.8297549033
 33
0.0
  0
SOLID
  5
69
  8
0
  6
CONTINUOUS
 62
     2
 10
14.9980048341
 20
16.207461153299999
 30
0.0
 11
14.9980048341
 21
16.258836153299999
 31
0.0
 12
15.7110923341
 22
16.258836153299999
 32
0.0
 13
15.7110923341
 23
16.258836153299999
 33
0.0
  0
SOLID
  5
6A
  8
0
  6
CONTINUOUS
 62
     2
 10
15.7110923341
 20
16.258836153299999
 30
0.0
 11
15.7110923341
 21
16.207461153299999
 31
0.0
 12
14.9980048341
 22
16.207461153299999
 32
0.0
 13
14.9980048341
 23
16.207461153299999
 33
0.0
  0
SOLID
  5
6B
  8
0
  6
CONTINUOUS
 62
     2
 10
14.9980048341
 20
16.312998653299999
 30
0.0
 11
14.9980048341
 21
16.36436740329999
 31
0.0
 12
15.7110923341
 22
16.36436740329999
 32
0.0
 13
15.7110923341
 23
16.36436740329999
 33
0.0
  0
SOLID
  5
6C
  8
0
  6
CONTINUOUS
 62
     2
 10
15.7110923341
 20
16.36436740329999
 30
0.0
 11
15.7110923341
 21
16.312998653299999
 31
0.0
 12
14.9980048341
 22
16.312998653299999
 32
0.0
 13
14.9980048341
 23
16.312998653299999
 33
0.0
  0
SOLID
  5
6D
  8
0
  6
CONTINUOUS
 62
     2
 10
14.9980048341
 20
16.396317403299999
 30
0.0
 11
14.9980048341
 21
16.447686153300001
 31
0.0
 12
15.7110923341
 22
16.447686153300001
 32
0.0
 13
15.7110923341
 23
16.447686153300001
 33
0.0
  0
SOLID
  5
6E
  8
0
  6
CONTINUOUS
 62
     2
 10
15.7110923341
 20
16.447686153300001
 30
0.0
 11
15.7110923341
 21
16.396317403299999
 31
0.0
 12
14.9980048341
 22
16.396317403299999
 32
0.0
 13
14.9980048341
 23
16.396317403299999
 33
0.0
  0
SOLID
  5
6F
  8
0
  6
CONTINUOUS
 62
     2
 10
14.9980048341
 20
16.479629903300001
 30
0.0
 11
14.9980048341
 21
16.531004903300001
 31
0.0
 12
15.7110923341
 22
16.531004903300001
 32
0.0
 13
15.7110923341
 23
16.531004903300001
 33
0.0
  0
SOLID
  5
70
  8
0
  6
CONTINUOUS
 62
     2
 10
15.7110923341
 20
16.531004903300001
 30
0.0
 11
15.7110923341
 21
16.479629903300001
 31
0.0
 12
14.9980048341
 22
16.479629903300001
 32
0.0
 13
14.9980048341
 23
16.479629903300001
 33
0.0
  0
SOLID
  5
71
  8
0
  6
CONTINUOUS
 62
     2
 10
14.9980048341
 20
16.562948653300001
 30
0.0
 11
14.9980048341
 21
16.614323653300001
 31
0.0
 12
15.7110923341
 22
16.614323653300001
 32
0.0
 13
15.7110923341
 23
16.614323653300001
 33
0.0
  0
SOLID
  5
72
  8
0
  6
CONTINUOUS
 62
     2
 10
15.7110923341
 20
16.614323653300001
 30
0.0
 11
15.7110923341
 21
16.562948653300001
 31
0.0
 12
14.9980048341
 22
16.562948653300001
 32
0.0
 13
14.9980048341
 23
16.562948653300001
 33
0.0
  0
SOLID
  5
73
  8
0
  6
CONTINUOUS
 62
     2
 10
16.282636084100002
 20
16.0685986533
 30
0.0
 11
16.282636084100002
 21
16.169961153300001
 31
0.0
 12
16.568429834100002
 22
16.169961153300001
 32
0.0
 13
16.568429834100002
 23
16.169961153300001
 33
0.0
  0
SOLID
  5
74
  8
0
  6
CONTINUOUS
 62
     2
 10
16.568429834100002
 20
16.169961153300001
 30
0.0
 11
16.568429834100002
 21
16.0685986533
 31
0.0
 12
16.282636084100002
 22
16.0685986533
 32
0.0
 13
16.282636084100002
 23
16.0685986533
 33
0.0
  0
SOLID
  5
75
  8
0
  6
CONTINUOUS
 62
     2
 10
3.6604480789999991
 20
17.773329316200002
 30
0.0
 11
3.7982122457999989
 21
17.9371505059
 31
0.0
 12
3.9902740577999989
 22
17.9371505059
 32
0.0
 13
3.9902740577999989
 23
17.9371505059
 33
0.0
  0
SOLID
  5
76
  8
0
  6
CONTINUOUS
 62
     2
 10
3.9902740577999989
 20
17.9371505059
 30
0.0
 11
3.7769706058999981
 21
17.683502232999999
 31
0.0
 12
3.6604480789999991
 22
17.773329316200002
 32
0.0
 13
3.6604480789999991
 23
17.773329316200002
 33
0.0
  0
SOLID
  5
77
  8
0
  6
CONTINUOUS
 62
     2
 10
3.6604480789999991
 20
17.552736690500002
 30
0.0
 11
3.7769706058999981
 21
17.683502232999999
 31
0.0
 12
3.8141860191000001
 22
17.351236856500002
 32
0.0
 13
3.8141860191000001
 23
17.351236856500002
 33
0.0
  0
SOLID
  5
78
  8
0
  6
CONTINUOUS
 62
     2
 10
3.7769706058999981
 20
17.683502232999999
 30
0.0
 11
4.0304784405999987
 21
17.351236856500002
 31
0.0
 12
3.8141860191000001
 22
17.351236856500002
 32
0.0
 13
3.8141860191000001
 23
17.351236856500002
 33
0.0
  0
SOLID
  5
79
  8
0
  6
CONTINUOUS
 62
     2
 10
3.6604480789999991
 20
17.351236856500002
 30
0.0
 11
3.485947852099998
 21
17.351212853100002
 31
0.0
 12
3.6604480789999991
 22
17.552736690500002
 32
0.0
 13
3.6604480789999991
 23
17.552736690500002
 33
0.0
  0
SOLID
  5
7A
  8
0
  6
CONTINUOUS
 62
     2
 10
3.7769706058999981
 20
17.683502232999999
 30
0.0
 11
3.6604480789999991
 21
17.552736690500002
 31
0.0
 12
3.6604480789999991
 22
17.773329316200002
 32
0.0
 13
3.6604480789999991
 23
17.773329316200002
 33
0.0
  0
SOLID
  5
7B
  8
0
  6
CONTINUOUS
 62
     2
 10
3.6604480789999991
 20
17.552736690500002
 30
0.0
 11
3.485947852099998
 21
17.351212853100002
 31
0.0
 12
3.6604480789999991
 22
17.773329316200002
 32
0.0
 13
3.6604480789999991
 23
17.773329316200002
 33
0.0
  0
SOLID
  5
7C
  8
0
  6
CONTINUOUS
 62
     2
 10
3.6604480789999991
 20
17.773329316200002
 30
0.0
 11
3.485947852099998
 21
17.351212853100002
 31
0.0
 12
3.6604480789999991
 22
17.9371505059
 32
0.0
 13
3.6604480789999991
 23
17.9371505059
 33
0.0
  0
SOLID
  5
7D
  8
0
  6
CONTINUOUS
 62
     2
 10
3.485947852099998
 20
17.351212853100002
 30
0.0
 11
3.485947852099998
 21
17.9371505059
 31
0.0
 12
3.6604480789999991
 22
17.9371505059
 32
0.0
 13
3.6604480789999991
 23
17.9371505059
 33
0.0
  0
SOLID
  5
7E
  8
0
  6
CONTINUOUS
 62
     2
 10
4.1148827254000002
 20
17.926541092400001
 30
0.0
 11
4.1758318798999987
 21
17.9394962352
 31
0.0
 12
4.2381426746999988
 22
17.9394962352
 32
0.0
 13
4.2381426746999988
 23
17.9394962352
 33
0.0
  0
SOLID
  5
7F
  8
0
  6
CONTINUOUS
 62
     2
 10
4.2381426746999988
 20
17.9394962352
 30
0.0
 11
4.2990918291999991
 21
17.926541092400001
 31
0.0
 12
4.1148827254000002
 22
17.926541092400001
 32
0.0
 13
4.1148827254000002
 23
17.926541092400001
 33
0.0
  0
SOLID
  5
80
  8
0
  6
CONTINUOUS
 62
     2
 10
4.0579589817999979
 20
17.901197008899999
 30
0.0
 11
4.1148827254000002
 21
17.926541092400001
 31
0.0
 12
4.2990918291999991
 22
17.926541092400001
 32
0.0
 13
4.2990918291999991
 23
17.926541092400001
 33
0.0
  0
SOLID
  5
81
  8
0
  6
CONTINUOUS
 62
     2
 10
4.2990918291999991
 20
17.926541092400001
 30
0.0
 11
4.3560155727999987
 21
17.901197008899999
 31
0.0
 12
4.0579589817999979
 22
17.901197008899999
 32
0.0
 13
4.0579589817999979
 23
17.901197008899999
 33
0.0
  0
SOLID
  5
82
  8
0
  6
CONTINUOUS
 62
     2
 10
4.0075484897999987
 20
17.864571642600001
 30
0.0
 11
4.0579589817999979
 21
17.901197008899999
 31
0.0
 12
4.3560155727999987
 22
17.901197008899999
 32
0.0
 13
4.3560155727999987
 23
17.901197008899999
 33
0.0
  0
SOLID
  5
83
  8
0
  6
CONTINUOUS
 62
     2
 10
4.3560155727999987
 20
17.901197008899999
 30
0.0
 11
4.406426064799998
 21
17.864571642600001
 31
0.0
 12
4.0075484897999987
 22
17.864571642600001
 32
0.0
 13
4.0075484897999987
 23
17.864571642600001
 33
0.0
  0
SOLID
  5
84
  8
0
  6
CONTINUOUS
 62
     2
 10
3.9658544298999989
 20
17.818265697899999
 30
0.0
 11
4.0075484897999987
 21
17.864571642600001
 31
0.0
 12
4.406426064799998
 22
17.864571642600001
 32
0.0
 13
4.406426064799998
 23
17.864571642600001
 33
0.0
  0
SOLID
  5
85
  8
0
  6
CONTINUOUS
 62
     2
 10
4.406426064799998
 20
17.864571642600001
 30
0.0
 11
4.4481201246999991
 21
17.818265697899999
 31
0.0
 12
3.9658544298999989
 22
17.818265697899999
 32
0.0
 13
3.9658544298999989
 23
17.818265697899999
 33
0.0
  0
SOLID
  5
86
  8
0
  6
CONTINUOUS
 62
     2
 10
4.2069872772999988
 20
17.767841844399999
 30
0.0
 11
3.9346990325000002
 21
17.764302966599999
 31
0.0
 12
4.4481201246999991
 22
17.818265697899999
 32
0.0
 13
4.4481201246999991
 23
17.818265697899999
 33
0.0
  0
SOLID
  5
87
  8
0
  6
CONTINUOUS
 62
     2
 10
3.9346990325000002
 20
17.764302966599999
 30
0.0
 11
3.9658544298999989
 21
17.818265697899999
 31
0.0
 12
4.4481201246999991
 22
17.818265697899999
 32
0.0
 13
4.4481201246999991
 23
17.818265697899999
 33
0.0
  0
SOLID
  5
88
  8
0
  6
CONTINUOUS
 62
     2
 10
4.4481201246999991
 20
17.818265697899999
 30
0.0
 11
4.4792755221
 21
17.764302966599999
 31
0.0
 12
4.2069872772999988
 22
17.767841844399999
 32
0.0
 13
4.2069872772999988
 23
17.767841844399999
 33
0.0
  0
SOLID
  5
89
  8
0
  6
CONTINUOUS
 62
     2
 10
4.2069872772999988
 20
17.767841844399999
 30
0.0
 11
4.1684314076999991
 21
17.7617351946
 31
0.0
 12
3.9346990325000002
 22
17.764302966599999
 32
0.0
 13
3.9346990325000002
 23
17.764302966599999
 33
0.0
  0
SOLID
  5
8A
  8
0
  6
CONTINUOUS
 62
     2
 10
4.2455431469000002
 20
17.7617351946
 30
0.0
 11
4.2069872772999988
 21
17.767841844399999
 31
0.0
 12
4.4792755221
 22
17.764302966599999
 32
0.0
 13
4.4792755221
 23
17.764302966599999
 33
0.0
  0
SOLID
  5
8B
  8
0
  6
CONTINUOUS
 62
     2
 10
4.1060467001000003
 20
17.716410051499999
 30
0.0
 11
3.9154439379000001
 21
17.705041879100001
 31
0.0
 12
4.1336496552000002
 22
17.744013006500001
 32
0.0
 13
4.1336496552000002
 23
17.744013006500001
 33
0.0
  0
SOLID
  5
8C
  8
0
  6
CONTINUOUS
 62
     2
 10
4.1336496552000002
 20
17.744013006500001
 30
0.0
 11
3.9154439379000001
 21
17.705041879100001
 31
0.0
 12
4.1684314076999991
 22
17.7617351946
 32
0.0
 13
4.1684314076999991
 23
17.7617351946
 33
0.0
  0
SOLID
  5
8D
  8
0
  6
CONTINUOUS
 62
     2
 10
3.9154439379000001
 20
17.705041879100001
 30
0.0
 11
3.9346990325000002
 21
17.764302966599999
 31
0.0
 12
4.1684314076999991
 22
17.7617351946
 32
0.0
 13
4.1684314076999991
 23
17.7617351946
 33
0.0
  0
SOLID
  5
8E
  8
0
  6
CONTINUOUS
 62
     2
 10
4.2455431469000002
 20
17.7617351946
 30
0.0
 11
4.4792755221
 21
17.764302966599999
 31
0.0
 12
4.2803248994
 22
17.744013006500001
 32
0.0
 13
4.2803248994
 23
17.744013006500001
 33
0.0
  0
SOLID
  5
8F
  8
0
  6
CONTINUOUS
 62
     2
 10
4.2803248994
 20
17.744013006500001
 30
0.0
 11
4.4792755221
 21
17.764302966599999
 31
0.0
 12
4.307927854499999
 22
17.716410051499999
 32
0.0
 13
4.307927854499999
 23
17.716410051499999
 33
0.0
  0
SOLID
  5
90
  8
0
  6
CONTINUOUS
 62
     2
 10
4.4792755221
 20
17.764302966599999
 30
0.0
 11
4.4985306167000001
 21
17.705041879100001
 31
0.0
 12
4.307927854499999
 22
17.716410051499999
 32
0.0
 13
4.307927854499999
 23
17.716410051499999
 33
0.0
  0
SOLID
  5
91
  8
0
  6
CONTINUOUS
 62
     2
 10
4.1060467001000003
 20
17.716410051499999
 30
0.0
 11
4.088324512099998
 21
17.681628299
 31
0.0
 12
3.9154439379000001
 22
17.705041879100001
 32
0.0
 13
3.9154439379000001
 23
17.705041879100001
 33
0.0
  0
SOLID
  5
92
  8
0
  6
CONTINUOUS
 62
     2
 10
4.3256500425000004
 20
17.681628299
 30
0.0
 11
4.307927854499999
 21
17.716410051499999
 31
0.0
 12
4.4985306167000001
 22
17.705041879100001
 32
0.0
 13
4.4985306167000001
 23
17.705041879100001
 33
0.0
  0
SOLID
  5
93
  8
0
  6
CONTINUOUS
 62
     2
 10
3.9089306862999988
 20
17.6430724294
 30
0.0
 11
3.9154439379000001
 21
17.705041879100001
 31
0.0
 12
4.088324512099998
 22
17.681628299
 32
0.0
 13
4.088324512099998
 23
17.681628299
 33
0.0
  0
SOLID
  5
94
  8
0
  6
CONTINUOUS
 62
     2
 10
4.088324512099998
 20
17.681628299
 30
0.0
 11
4.0822178622000003
 21
17.6430724294
 31
0.0
 12
3.9089306862999988
 22
17.6430724294
 32
0.0
 13
3.9089306862999988
 23
17.6430724294
 33
0.0
  0
SOLID
  5
95
  8
0
  6
CONTINUOUS
 62
     2
 10
4.3256500425000004
 20
17.681628299
 30
0.0
 11
4.4985306167000001
 21
17.705041879100001
 31
0.0
 12
4.3317566923999991
 22
17.6430724294
 32
0.0
 13
4.3317566923999991
 23
17.6430724294
 33
0.0
  0
SOLID
  5
96
  8
0
  6
CONTINUOUS
 62
     2
 10
4.4985306167000001
 20
17.705041879100001
 30
0.0
 11
4.5050438682999987
 21
17.6430724294
 31
0.0
 12
4.3317566923999991
 22
17.6430724294
 32
0.0
 13
4.3317566923999991
 23
17.6430724294
 33
0.0
  0
SOLID
  5
97
  8
0
  6
CONTINUOUS
 62
     2
 10
4.3256500425000004
 20
17.604516559699999
 30
0.0
 11
4.3317566923999991
 21
17.6430724294
 31
0.0
 12
4.5050438682999987
 22
17.6430724294
 32
0.0
 13
4.5050438682999987
 23
17.6430724294
 33
0.0
  0
SOLID
  5
98
  8
0
  6
CONTINUOUS
 62
     2
 10
4.088324512099998
 20
17.604516559699999
 30
0.0
 11
3.9154439379000001
 21
17.581102979600001
 31
0.0
 12
4.0822178622000003
 22
17.6430724294
 32
0.0
 13
4.0822178622000003
 23
17.6430724294
 33
0.0
  0
SOLID
  5
99
  8
0
  6
CONTINUOUS
 62
     2
 10
3.9154439379000001
 20
17.581102979600001
 30
0.0
 11
3.9089306862999988
 21
17.6430724294
 31
0.0
 12
4.0822178622000003
 22
17.6430724294
 32
0.0
 13
4.0822178622000003
 23
17.6430724294
 33
0.0
  0
SOLID
  5
9A
  8
0
  6
CONTINUOUS
 62
     2
 10
4.5050438682999987
 20
17.6430724294
 30
0.0
 11
4.4985306167000001
 21
17.581102979600001
 31
0.0
 12
4.3256500425000004
 22
17.604516559699999
 32
0.0
 13
4.3256500425000004
 23
17.604516559699999
 33
0.0
  0
SOLID
  5
9B
  8
0
  6
CONTINUOUS
 62
     2
 10
4.088324512099998
 20
17.604516559699999
 30
0.0
 11
4.1060467001000003
 21
17.5697348072
 31
0.0
 12
3.9154439379000001
 22
17.581102979600001
 32
0.0
 13
3.9154439379000001
 23
17.581102979600001
 33
0.0
  0
SOLID
  5
9C
  8
0
  6
CONTINUOUS
 62
     2
 10
4.307927854499999
 20
17.5697348072
 30
0.0
 11
4.3256500425000004
 21
17.604516559699999
 31
0.0
 12
4.4985306167000001
 22
17.581102979600001
 32
0.0
 13
4.4985306167000001
 23
17.581102979600001
 33
0.0
  0
SOLID
  5
9D
  8
0
  6
CONTINUOUS
 62
     2
 10
4.1684314076999991
 20
17.524409664099998
 30
0.0
 11
3.9346990325000002
 21
17.521841892099999
 31
0.0
 12
4.1336496552000002
 22
17.542131852200001
 32
0.0
 13
4.1336496552000002
 23
17.542131852200001
 33
0.0
  0
SOLID
  5
9E
  8
0
  6
CONTINUOUS
 62
     2
 10
4.1336496552000002
 20
17.542131852200001
 30
0.0
 11
3.9346990325000002
 21
17.521841892099999
 31
0.0
 12
4.1060467001000003
 22
17.5697348072
 32
0.0
 13
4.1060467001000003
 23
17.5697348072
 33
0.0
  0
SOLID
  5
9F
  8
0
  6
CONTINUOUS
 62
     2
 10
3.9346990325000002
 20
17.521841892099999
 30
0.0
 11
3.9154439379000001
 21
17.581102979600001
 31
0.0
 12
4.1060467001000003
 22
17.5697348072
 32
0.0
 13
4.1060467001000003
 23
17.5697348072
 33
0.0
  0
SOLID
  5
A0
  8
0
  6
CONTINUOUS
 62
     2
 10
4.307927854499999
 20
17.5697348072
 30
0.0
 11
4.4985306167000001
 21
17.581102979600001
 31
0.0
 12
4.2803248994
 22
17.542131852200001
 32
0.0
 13
4.2803248994
 23
17.542131852200001
 33
0.0
  0
SOLID
  5
A1
  8
0
  6
CONTINUOUS
 62
     2
 10
4.2803248994
 20
17.542131852200001
 30
0.0
 11
4.4985306167000001
 21
17.581102979600001
 31
0.0
 12
4.2455431469000002
 22
17.524409664099998
 32
0.0
 13
4.2455431469000002
 23
17.524409664099998
 33
0.0
  0
SOLID
  5
A2
  8
0
  6
CONTINUOUS
 62
     2
 10
4.4985306167000001
 20
17.581102979600001
 30
0.0
 11
4.4792755221
 21
17.521841892099999
 31
0.0
 12
4.2455431469000002
 22
17.524409664099998
 32
0.0
 13
4.2455431469000002
 23
17.524409664099998
 33
0.0
  0
SOLID
  5
A3
  8
0
  6
CONTINUOUS
 62
     2
 10
4.1684314076999991
 20
17.524409664099998
 30
0.0
 11
4.2069872772999988
 21
17.518303014299999
 31
0.0
 12
3.9346990325000002
 22
17.521841892099999
 32
0.0
 13
3.9346990325000002
 23
17.521841892099999
 33
0.0
  0
SOLID
  5
A4
  8
0
  6
CONTINUOUS
 62
     2
 10
4.2069872772999988
 20
17.518303014299999
 30
0.0
 11
4.2455431469000002
 21
17.524409664099998
 31
0.0
 12
4.4792755221
 22
17.521841892099999
 32
0.0
 13
4.4792755221
 23
17.521841892099999
 33
0.0
  0
SOLID
  5
A5
  8
0
  6
CONTINUOUS
 62
     2
 10
3.9658544298999989
 20
17.467879160799999
 30
0.0
 11
3.9346990325000002
 21
17.521841892099999
 31
0.0
 12
4.2069872772999988
 22
17.518303014299999
 32
0.0
 13
4.2069872772999988
 23
17.518303014299999
 33
0.0
  0
SOLID
  5
A6
  8
0
  6
CONTINUOUS
 62
     2
 10
4.2069872772999988
 20
17.518303014299999
 30
0.0
 11
4.4792755221
 21
17.521841892099999
 31
0.0
 12
3.9658544298999989
 22
17.467879160799999
 32
0.0
 13
3.9658544298999989
 23
17.467879160799999
 33
0.0
  0
SOLID
  5
A7
  8
0
  6
CONTINUOUS
 62
     2
 10
4.4792755221
 20
17.521841892099999
 30
0.0
 11
4.4481201246999991
 21
17.467879160799999
 31
0.0
 12
3.9658544298999989
 22
17.467879160799999
 32
0.0
 13
3.9658544298999989
 23
17.467879160799999
 33
0.0
  0
SOLID
  5
A8
  8
0
  6
CONTINUOUS
 62
     2
 10
4.0075484897999987
 20
17.421573216100001
 30
0.0
 11
3.9658544298999989
 21
17.467879160799999
 31
0.0
 12
4.4481201246999991
 22
17.467879160799999
 32
0.0
 13
4.4481201246999991
 23
17.467879160799999
 33
0.0
  0
SOLID
  5
A9
  8
0
  6
CONTINUOUS
 62
     2
 10
4.4481201246999991
 20
17.467879160799999
 30
0.0
 11
4.406426064799998
 21
17.421573216100001
 31
0.0
 12
4.0075484897999987
 22
17.421573216100001
 32
0.0
 13
4.0075484897999987
 23
17.421573216100001
 33
0.0
  0
SOLID
  5
AA
  8
0
  6
CONTINUOUS
 62
     2
 10
4.0579589817999979
 20
17.3849478498
 30
0.0
 11
4.0075484897999987
 21
17.421573216100001
 31
0.0
 12
4.406426064799998
 22
17.421573216100001
 32
0.0
 13
4.406426064799998
 23
17.421573216100001
 33
0.0
  0
SOLID
  5
AB
  8
0
  6
CONTINUOUS
 62
     2
 10
4.406426064799998
 20
17.421573216100001
 30
0.0
 11
4.3560155727999987
 21
17.3849478498
 31
0.0
 12
4.0579589817999979
 22
17.3849478498
 32
0.0
 13
4.0579589817999979
 23
17.3849478498
 33
0.0
  0
SOLID
  5
AC
  8
0
  6
CONTINUOUS
 62
     2
 10
4.1148827254000002
 20
17.359603766300001
 30
0.0
 11
4.0579589817999979
 21
17.3849478498
 31
0.0
 12
4.3560155727999987
 22
17.3849478498
 32
0.0
 13
4.3560155727999987
 23
17.3849478498
 33
0.0
  0
SOLID
  5
AD
  8
0
  6
CONTINUOUS
 62
     2
 10
4.3560155727999987
 20
17.3849478498
 30
0.0
 11
4.2990918291999991
 21
17.359603766300001
 31
0.0
 12
4.1148827254000002
 22
17.359603766300001
 32
0.0
 13
4.1148827254000002
 23
17.359603766300001
 33
0.0
  0
SOLID
  5
AE
  8
0
  6
CONTINUOUS
 62
     2
 10
4.1758318798999987
 20
17.3466486236
 30
0.0
 11
4.1148827254000002
 21
17.359603766300001
 31
0.0
 12
4.2990918291999991
 22
17.359603766300001
 32
0.0
 13
4.2990918291999991
 23
17.359603766300001
 33
0.0
  0
SOLID
  5
AF
  8
0
  6
CONTINUOUS
 62
     2
 10
4.2990918291999991
 20
17.359603766300001
 30
0.0
 11
4.2381426746999988
 21
17.3466486236
 31
0.0
 12
4.1758318798999987
 22
17.3466486236
 32
0.0
 13
4.1758318798999987
 23
17.3466486236
 33
0.0
  0
SOLID
  5
B0
  8
0
  6
CONTINUOUS
 62
     2
 10
4.8348896066
 20
17.716766746200001
 30
0.0
 11
4.8348896066
 21
17.9371505059
 31
0.0
 12
4.9996232865000003
 22
17.9371505059
 32
0.0
 13
4.9996232865000003
 23
17.9371505059
 33
0.0
  0
SOLID
  5
B1
  8
0
  6
CONTINUOUS
 62
     2
 10
4.8348896066
 20
17.716766746200001
 30
0.0
 11
4.6868927956000004
 21
17.579561466299999
 31
0.0
 12
4.6868927956000004
 22
17.716766746200001
 32
0.0
 13
4.6868927956000004
 23
17.716766746200001
 33
0.0
  0
SOLID
  5
B2
  8
0
  6
CONTINUOUS
 62
     2
 10
4.6868927956000004
 20
17.579561466299999
 30
0.0
 11
4.5221591157000001
 21
17.351236856500002
 31
0.0
 12
4.6868927956000004
 22
17.716766746200001
 32
0.0
 13
4.6868927956000004
 23
17.716766746200001
 33
0.0
  0
SOLID
  5
B3
  8
0
  6
CONTINUOUS
 62
     2
 10
4.6868927956000004
 20
17.716766746200001
 30
0.0
 11
4.5221591157000001
 21
17.351236856500002
 31
0.0
 12
4.6868927956000004
 22
17.9371505059
 32
0.0
 13
4.6868927956000004
 23
17.9371505059
 33
0.0
  0
SOLID
  5
B4
  8
0
  6
CONTINUOUS
 62
     2
 10
4.5221591157000001
 20
17.351236856500002
 30
0.0
 11
4.5221591157000001
 21
17.9371505059
 31
0.0
 12
4.6868927956000004
 22
17.9371505059
 32
0.0
 13
4.6868927956000004
 23
17.9371505059
 33
0.0
  0
SOLID
  5
B5
  8
0
  6
CONTINUOUS
 62
     2
 10
4.6868927956000004
 20
17.579561466299999
 30
0.0
 11
4.6868927956000004
 21
17.351236856500002
 31
0.0
 12
4.5221591157000001
 22
17.351236856500002
 32
0.0
 13
4.5221591157000001
 23
17.351236856500002
 33
0.0
  0
SOLID
  5
B6
  8
0
  6
CONTINUOUS
 62
     2
 10
4.6868927956000004
 20
17.579561466299999
 30
0.0
 11
4.8348896066
 21
17.716766746200001
 31
0.0
 12
4.8348896066
 22
17.579561466299999
 32
0.0
 13
4.8348896066
 23
17.579561466299999
 33
0.0
  0
SOLID
  5
B7
  8
0
  6
CONTINUOUS
 62
     2
 10
4.8348896066
 20
17.716766746200001
 30
0.0
 11
4.9996232865000003
 21
17.9371505059
 31
0.0
 12
4.8348896066
 22
17.579561466299999
 32
0.0
 13
4.8348896066
 23
17.579561466299999
 33
0.0
  0
SOLID
  5
B8
  8
0
  6
CONTINUOUS
 62
     2
 10
4.8348896066
 20
17.579561466299999
 30
0.0
 11
4.9996232865000003
 21
17.9371505059
 31
0.0
 12
4.8348896066
 22
17.351236856500002
 32
0.0
 13
4.8348896066
 23
17.351236856500002
 33
0.0
  0
SOLID
  5
B9
  8
0
  6
CONTINUOUS
 62
     2
 10
4.9996232865000003
 20
17.9371505059
 30
0.0
 11
4.9996232865000003
 21
17.351236856500002
 31
0.0
 12
4.8348896066
 22
17.351236856500002
 32
0.0
 13
4.8348896066
 23
17.351236856500002
 33
0.0
  0
SOLID
  5
BA
  8
0
  6
CONTINUOUS
 62
     2
 10
5.3573982633999986
 20
17.4924636137
 30
0.0
 11
5.0446681306999981
 21
17.351236856500002
 31
0.0
 12
5.1947141934000003
 22
17.4924636137
 32
0.0
 13
5.1947141934000003
 23
17.4924636137
 33
0.0
  0
SOLID
  5
BB
  8
0
  6
CONTINUOUS
 62
     2
 10
5.1947141934000003
 20
17.4924636137
 30
0.0
 11
5.0446681306999981
 21
17.351236856500002
 31
0.0
 12
5.1947141934000003
 22
17.9371505059
 32
0.0
 13
5.1947141934000003
 23
17.9371505059
 33
0.0
  0
SOLID
  5
BC
  8
0
  6
CONTINUOUS
 62
     2
 10
5.0446681306999981
 20
17.351236856500002
 30
0.0
 11
5.0446681306999981
 21
17.9371505059
 31
0.0
 12
5.1947141934000003
 22
17.9371505059
 32
0.0
 13
5.1947141934000003
 23
17.9371505059
 33
0.0
  0
SOLID
  5
BD
  8
0
  6
CONTINUOUS
 62
     2
 10
5.0446681306999981
 20
17.351236856500002
 30
0.0
 11
5.3573982633999986
 21
17.4924636137
 31
0.0
 12
5.1947141934000003
 22
17.351236856500002
 32
0.0
 13
5.1947141934000003
 23
17.351236856500002
 33
0.0
  0
SOLID
  5
BE
  8
0
  6
CONTINUOUS
 62
     2
 10
5.3573982633999986
 20
17.4924636137
 30
0.0
 11
5.3573982633999986
 21
17.351236856500002
 31
0.0
 12
5.1947141934000003
 22
17.351236856500002
 32
0.0
 13
5.1947141934000003
 23
17.351236856500002
 33
0.0
  0
SOLID
  5
BF
  8
0
  6
CONTINUOUS
 62
     2
 10
5.6956501774000001
 20
17.9371505059
 30
0.0
 11
5.6956501774000001
 21
17.794391109100001
 31
0.0
 12
5.5447926540000001
 22
17.794391109100001
 32
0.0
 13
5.5447926540000001
 23
17.794391109100001
 33
0.0
  0
SOLID
  5
C0
  8
0
  6
CONTINUOUS
 62
     2
 10
5.6956501774000001
 20
17.716766746200001
 30
0.0
 11
5.6956501774000001
 21
17.5723851447
 31
0.0
 12
5.5447926540000001
 22
17.5723851447
 32
0.0
 13
5.5447926540000001
 23
17.5723851447
 33
0.0
  0
SOLID
  5
C1
  8
0
  6
CONTINUOUS
 62
     2
 10
5.6956501774000001
 20
17.4924636137
 30
0.0
 11
5.3865460021000002
 21
17.351236856500002
 31
0.0
 12
5.5447926540000001
 22
17.4924636137
 32
0.0
 13
5.5447926540000001
 23
17.4924636137
 33
0.0
  0
SOLID
  5
C2
  8
0
  6
CONTINUOUS
 62
     2
 10
5.5447926540000001
 20
17.4924636137
 30
0.0
 11
5.3865460021000002
 21
17.351236856500002
 31
0.0
 12
5.5447926540000001
 22
17.5723851447
 32
0.0
 13
5.5447926540000001
 23
17.5723851447
 33
0.0
  0
SOLID
  5
C3
  8
0
  6
CONTINUOUS
 62
     2
 10
5.6956501774000001
 20
17.716766746200001
 30
0.0
 11
5.5447926540000001
 21
17.5723851447
 31
0.0
 12
5.5447926540000001
 22
17.716766746200001
 32
0.0
 13
5.5447926540000001
 23
17.716766746200001
 33
0.0
  0
SOLID
  5
C4
  8
0
  6
CONTINUOUS
 62
     2
 10
5.5447926540000001
 20
17.5723851447
 30
0.0
 11
5.3865460021000002
 21
17.351236856500002
 31
0.0
 12
5.5447926540000001
 22
17.716766746200001
 32
0.0
 13
5.5447926540000001
 23
17.716766746200001
 33
0.0
  0
SOLID
  5
C5
  8
0
  6
CONTINUOUS
 62
     2
 10
5.5447926540000001
 20
17.716766746200001
 30
0.0
 11
5.3865460021000002
 21
17.351236856500002
 31
0.0
 12
5.5447926540000001
 22
17.794391109100001
 32
0.0
 13
5.5447926540000001
 23
17.794391109100001
 33
0.0
  0
SOLID
  5
C6
  8
0
  6
CONTINUOUS
 62
     2
 10
5.6956501774000001
 20
17.9371505059
 30
0.0
 11
5.5447926540000001
 21
17.794391109100001
 31
0.0
 12
5.5589969773999988
 22
17.9371505059
 32
0.0
 13
5.5589969773999988
 23
17.9371505059
 33
0.0
  0
SOLID
  5
C7
  8
0
  6
CONTINUOUS
 62
     2
 10
5.5447926540000001
 20
17.794391109100001
 30
0.0
 11
5.3865460021000002
 21
17.351236856500002
 31
0.0
 12
5.5589969773999988
 22
17.9371505059
 32
0.0
 13
5.5589969773999988
 23
17.9371505059
 33
0.0
  0
SOLID
  5
C8
  8
0
  6
CONTINUOUS
 62
     2
 10
5.3865460021000002
 20
17.351236856500002
 30
0.0
 11
5.3865460021000002
 21
17.9371505059
 31
0.0
 12
5.5589969773999988
 22
17.9371505059
 32
0.0
 13
5.5589969773999988
 23
17.9371505059
 33
0.0
  0
SOLID
  5
C9
  8
0
  6
CONTINUOUS
 62
     2
 10
5.6956501774000001
 20
17.4924636137
 30
0.0
 11
5.6956501774000001
 21
17.351236856500002
 31
0.0
 12
5.3865460021000002
 22
17.351236856500002
 32
0.0
 13
5.3865460021000002
 23
17.351236856500002
 33
0.0
  0
SOLID
  5
CA
  8
0
  6
CONTINUOUS
 62
     2
 10
5.974018092799998
 20
17.937157611500002
 30
0.0
 11
6.0209511163
 21
17.9307473631
 31
0.0
 12
5.7404703920999989
 22
17.9371505059
 32
0.0
 13
5.7404703920999989
 23
17.9371505059
 33
0.0
  0
SOLID
  5
CB
  8
0
  6
CONTINUOUS
 62
     2
 10
5.8911262146999981
 20
17.7945716726
 30
0.0
 11
6.1450659557999989
 21
17.799201008099999
 31
0.0
 12
5.9470560960999981
 22
17.7945716726
 32
0.0
 13
5.9470560960999981
 23
17.7945716726
 33
0.0
  0
SOLID
  5
CC
  8
0
  6
CONTINUOUS
 62
     2
 10
5.9470560960999981
 20
17.7945716726
 30
0.0
 11
6.1450659557999989
 21
17.799201008099999
 31
0.0
 12
5.9707786777000003
 22
17.7890375042
 32
0.0
 13
5.9707786777000003
 23
17.7890375042
 33
0.0
  0
SOLID
  5
CD
  8
0
  6
CONTINUOUS
 62
     2
 10
5.9707786777000003
 20
17.7890375042
 30
0.0
 11
6.1450659557999989
 21
17.799201008099999
 31
0.0
 12
5.989603665399998
 22
17.773577629199991
 32
0.0
 13
5.989603665399998
 23
17.773577629199991
 33
0.0
  0
SOLID
  5
CE
  8
0
  6
CONTINUOUS
 62
     2
 10
6.1450659557999989
 20
17.799201008099999
 30
0.0
 11
6.1487392021999989
 21
17.751974879300001
 31
0.0
 12
5.989603665399998
 22
17.773577629199991
 32
0.0
 13
5.989603665399998
 23
17.773577629199991
 33
0.0
  0
SOLID
  5
CF
  8
0
  6
CONTINUOUS
 62
     2
 10
5.9996446039999993
 20
17.7513837686
 30
0.0
 11
5.989603665399998
 21
17.773577629199991
 31
0.0
 12
6.1487392021999989
 22
17.751974879300001
 32
0.0
 13
6.1487392021999989
 23
17.751974879300001
 33
0.0
  0
SOLID
  5
D0
  8
0
  6
CONTINUOUS
 62
     2
 10
5.9996446039999993
 20
17.7513837686
 30
0.0
 11
6.1487392021999989
 21
17.751974879300001
 31
0.0
 12
5.9988285223000002
 22
17.7270378879
 32
0.0
 13
5.9988285223000002
 23
17.7270378879
 33
0.0
  0
SOLID
  5
D1
  8
0
  6
CONTINUOUS
 62
     2
 10
5.9988285223000002
 20
17.7270378879
 30
0.0
 11
6.1487392021999989
 21
17.751974879300001
 31
0.0
 12
5.987323902
 22
17.705566241300001
 32
0.0
 13
5.987323902
 23
17.705566241300001
 33
0.0
  0
SOLID
  5
D2
  8
0
  6
CONTINUOUS
 62
     2
 10
6.1487392021999989
 20
17.751974879300001
 30
0.0
 11
6.1396135985000004
 21
17.705493449199999
 31
0.0
 12
5.987323902
 22
17.705566241300001
 32
0.0
 13
5.987323902
 23
17.705566241300001
 33
0.0
  0
SOLID
  5
D3
  8
0
  6
CONTINUOUS
 62
     2
 10
5.9675058941000003
 20
17.691401691799999
 30
0.0
 11
5.987323902
 21
17.705566241300001
 31
0.0
 12
6.1396135985000004
 22
17.705493449199999
 32
0.0
 13
6.1396135985000004
 23
17.705493449199999
 33
0.0
  0
SOLID
  5
D4
  8
0
  6
CONTINUOUS
 62
     2
 10
5.9675058941000003
 20
17.691401691799999
 30
0.0
 11
6.1396135985000004
 21
17.705493449199999
 31
0.0
 12
5.9434659648999979
 22
17.687468538000001
 32
0.0
 13
5.9434659648999979
 23
17.687468538000001
 33
0.0
  0
SOLID
  5
D5
  8
0
  6
CONTINUOUS
 62
     2
 10
6.1396135985000004
 20
17.705493449199999
 30
0.0
 11
6.1183576228999987
 21
17.663161623299999
 31
0.0
 12
5.9434659648999979
 22
17.687468538000001
 32
0.0
 13
5.9434659648999979
 23
17.687468538000001
 33
0.0
  0
SOLID
  5
D6
  8
0
  6
CONTINUOUS
 62
     2
 10
6.046457340399999
 20
17.602819397800001
 30
0.0
 11
5.8911262146999981
 21
17.548193227399999
 31
0.0
 12
6.0865283397000001
 22
17.628080336099998
 32
0.0
 13
6.0865283397000001
 23
17.628080336099998
 33
0.0
  0
SOLID
  5
D7
  8
0
  6
CONTINUOUS
 62
     2
 10
6.0865283397000001
 20
17.628080336099998
 30
0.0
 11
5.8911262146999981
 21
17.548193227399999
 31
0.0
 12
6.1183576228999987
 22
17.663161623299999
 32
0.0
 13
6.1183576228999987
 23
17.663161623299999
 33
0.0
  0
SOLID
  5
D8
  8
0
  6
CONTINUOUS
 62
     2
 10
6.1183576228999987
 20
17.663161623299999
 30
0.0
 11
5.8911262146999981
 21
17.548193227399999
 31
0.0
 12
5.9434659648999979
 22
17.687468538000001
 32
0.0
 13
5.9434659648999979
 23
17.687468538000001
 33
0.0
  0
SOLID
  5
D9
  8
0
  6
CONTINUOUS
 62
     2
 10
5.8911262146999981
 20
17.548193227399999
 30
0.0
 11
5.7404703920999989
 21
17.351236856500002
 31
0.0
 12
5.9434659648999979
 22
17.687468538000001
 32
0.0
 13
5.9434659648999979
 23
17.687468538000001
 33
0.0
  0
SOLID
  5
DA
  8
0
  6
CONTINUOUS
 62
     2
 10
5.9434659648999979
 20
17.687468538000001
 30
0.0
 11
5.7404703920999989
 21
17.351236856500002
 31
0.0
 12
5.8911262146999981
 22
17.687468538000001
 32
0.0
 13
5.8911262146999981
 23
17.687468538000001
 33
0.0
  0
SOLID
  5
DB
  8
0
  6
CONTINUOUS
 62
     2
 10
5.8911262146999981
 20
17.687468538000001
 30
0.0
 11
5.7404703920999989
 21
17.351236856500002
 31
0.0
 12
5.8911262146999981
 22
17.7945716726
 32
0.0
 13
5.8911262146999981
 23
17.7945716726
 33
0.0
  0
SOLID
  5
DC
  8
0
  6
CONTINUOUS
 62
     2
 10
6.1450659557999989
 20
17.799201008099999
 30
0.0
 11
5.8911262146999981
 21
17.7945716726
 31
0.0
 12
6.1288629357
 22
17.843712378799999
 32
0.0
 13
6.1288629357
 23
17.843712378799999
 33
0.0
  0
SOLID
  5
DD
  8
0
  6
CONTINUOUS
 62
     2
 10
6.1288629357
 20
17.843712378799999
 30
0.0
 11
5.8911262146999981
 21
17.7945716726
 31
0.0
 12
6.1013170620999988
 22
17.8822483987
 32
0.0
 13
6.1013170620999988
 23
17.8822483987
 33
0.0
  0
SOLID
  5
DE
  8
0
  6
CONTINUOUS
 62
     2
 10
6.1013170620999988
 20
17.8822483987
 30
0.0
 11
5.8911262146999981
 21
17.7945716726
 31
0.0
 12
6.0644461537999987
 22
17.911986187899998
 32
0.0
 13
6.0644461537999987
 23
17.911986187899998
 33
0.0
  0
SOLID
  5
DF
  8
0
  6
CONTINUOUS
 62
     2
 10
6.0644461537999987
 20
17.911986187899998
 30
0.0
 11
5.8911262146999981
 21
17.7945716726
 31
0.0
 12
6.0209511163
 22
17.9307473631
 32
0.0
 13
6.0209511163
 23
17.9307473631
 33
0.0
  0
SOLID
  5
E0
  8
0
  6
CONTINUOUS
 62
     2
 10
6.0209511163
 20
17.9307473631
 30
0.0
 11
5.8911262146999981
 21
17.7945716726
 31
0.0
 12
5.7404703920999989
 22
17.9371505059
 32
0.0
 13
5.7404703920999989
 23
17.9371505059
 33
0.0
  0
SOLID
  5
E1
  8
0
  6
CONTINUOUS
 62
     2
 10
5.7404703920999989
 20
17.351236856500002
 30
0.0
 11
5.7404703920999989
 21
17.9371505059
 31
0.0
 12
5.8911262146999981
 22
17.7945716726
 32
0.0
 13
5.8911262146999981
 23
17.7945716726
 33
0.0
  0
SOLID
  5
E2
  8
0
  6
CONTINUOUS
 62
     2
 10
5.8911262146999981
 20
17.548193227399999
 30
0.0
 11
5.8911262146999981
 21
17.351236856500002
 31
0.0
 12
5.7404703920999989
 22
17.351236856500002
 32
0.0
 13
5.7404703920999989
 23
17.351236856500002
 33
0.0
  0
SOLID
  5
E3
  8
0
  6
CONTINUOUS
 62
     2
 10
5.8911262146999981
 20
17.548193227399999
 30
0.0
 11
6.046457340399999
 21
17.602819397800001
 31
0.0
 12
6.0159496438999991
 22
17.351236856500002
 32
0.0
 13
6.0159496438999991
 23
17.351236856500002
 33
0.0
  0
SOLID
  5
E4
  8
0
  6
CONTINUOUS
 62
     2
 10
6.046457340399999
 20
17.602819397800001
 30
0.0
 11
6.2059005834000001
 21
17.351236856500002
 31
0.0
 12
6.0159496438999991
 22
17.351236856500002
 32
0.0
 13
6.0159496438999991
 23
17.351236856500002
 33
0.0
  0
DIMENSION
  5
E5
  8
0
  6
CONTINUOUS
 62
     2
  2
*D2
 10
13.241575323699999
 20
5.163532298199998
 30
0.0
 11
13.2415755728
 21
9.0925968016999992
 31
0.0
 70
   128
 13
10.953801908999999
 23
18.106428749500001
 33
0.0
 14
10.9112271033
 24
5.1635324426000002
 34
0.0
 50
269.99999600000001
  0
DIMENSION
  5
E6
  8
0
  6
CONTINUOUS
 62
     2
  2
*D4
 10
3.2434801972999989
 20
12.109671972099999
 30
0.0
 11
14.2057116589
 21
12.019670871800001
 31
0.0
 70
   128
 13
20.3580371143
 23
14.6702084199
 33
0.0
 14
3.2434804706000002
 24
14.832181545799999
 34
0.0
 50
179.99999399999999
  0
TEXT
  5
E7
  8
NOTE
  6
CONTINUOUS
 62
     2
 10
5.4976810554999993
 20
5.3147911316999981
 30
0.0
 40
0.15625
  1
1006809-7-D
 41
0.8
  0
TEXT
  5
E8
  8
0
  6
CONTINUOUS
 62
     2
 10
5.523001782799998
 20
3.3953341649999991
 30
0.0
 40
0.15625
  1
1006809-7-D
 41
0.8
  0
TEXT
  5
E9
  8
0
  6
CONTINUOUS
 62
     2
 10
4.9681330565000001
 20
14.7903238928
 30
0.0
 40
0.094
  1
TM
 41
0.8
  0
TEXT
  5
EA
  8
0
  6
CONTINUOUS
 62
     2
 10
14.211820743800001
 20
11.4019420799
 30
0.0
 40
0.1559999413
  1
WHEN PLOTTING TEMPLATE FULL SIZE:
  0
TEXT
  5
EB
  8
0
  6
CONTINUOUS
 62
     2
 10
14.211820743800001
 20
11.1676296681
 30
0.0
 40
0.1562499412
  1
Make sure horizontal and vertical
 41
0.9
  0
TEXT
  5
EC
  8
0
  6
CONTINUOUS
 62
     2
 10
14.211820743800001
 20
10.933254682899999
 30
0.0
 40
0.15625
  1
dimensions match the dimensions labeled on
 41
0.8
  0
TEXT
  5
ED
  8
0
  6
CONTINUOUS
 62
     2
 10
14.211820743800001
 20
10.698879682899999
 30
0.0
 40
0.15625
  1
the template.
 41
0.8
  0
TEXT
  5
EE
  8
0
  6
CONTINUOUS
 62
     2
 10
14.211820743800001
 20
10.464504682899999
 30
0.0
 40
0.15625
  1
 
 41
0.8
  0
TEXT
  5
EF
  8
0
  6
CONTINUOUS
 62
     2
 10
14.211820743800001
 20
10.2301297564
 30
0.0
 40
0.1562499412
  1
Al trazar una plantilla a escala,
 41
0.9
  0
TEXT
  5
F0
  8
0
  6
CONTINUOUS
 62
     2
 10
14.211820743800001
 20
9.9957547710999997
 30
0.0
 40
0.15625
  1
asegúrese de que las dimensiones
 41
0.8
  0
TEXT
  5
F1
  8
0
  6
CONTINUOUS
 62
     2
 10
14.211820743800001
 20
9.7613797710999997
 30
0.0
 40
0.15625
  1
horizontales y verticales concuerden con
 41
0.8
  0
TEXT
  5
F2
  8
0
  6
CONTINUOUS
 62
     2
 10
14.211820743800001
 20
9.5270047710999997
 30
0.0
 40
0.15625
  1
las dimensiones marcadas en la plantilla.
 41
0.8
  0
TEXT
  5
F3
  8
0
  6
CONTINUOUS
 62
     2
 10
14.211820743800001
 20
9.2926297710999997
 30
0.0
 40
0.15625
  1
 
 41
0.8
  0
TEXT
  5
F4
  8
0
  6
CONTINUOUS
 62
     2
 10
14.211820743800001
 20
9.0582547710999997
 30
0.0
 40
0.15625
  1
Au moment de tracer un gabarit à l’échelle
 41
0.8
  0
TEXT
  5
F5
  8
0
  6
CONTINUOUS
 62
     2
 10
14.211820743800001
 20
8.8238797710999979
 30
0.0
 40
0.15625
  1
s'assurer que les dimensions horizontales
 41
0.8
  0
TEXT
  5
F6
  8
0
  6
CONTINUOUS
 62
     2
 10
14.211820743800001
 20
8.5895047710999979
 30
0.0
 40
0.15625
  1
et verticales correspondent avec les
 41
0.8
  0
TEXT
  5
F7
  8
0
  6
CONTINUOUS
 62
     2
 10
14.211820743800001
 20
8.3551297710999979
 30
0.0
 40
0.15625
  1
dimensions sur le gabarit
 41
0.8
  0
TEXT
  5
F8
  8
0
  6
CONTINUOUS
 62
     2
 10
14.112919830899999
 20
17.579684456700001
 30
0.0
 40
0.1562500052
  1
PACKAGING/UPC LABEL ON BOX
 41
0.8
  0
TEXT
  5
F9
  8
0
  6
CONTINUOUS
 62
     2
 10
14.112919830899999
 20
17.345309448799998
 30
0.0
 40
0.1562500052
  1
ETIQUETA DE EMBALAJE/UPC EN LA CAJA
 41
0.8
  0
TEXT
  5
FA
  8
0
  6
CONTINUOUS
 62
     2
 10
14.112919830899999
 20
17.1109344475
 30
0.0
 40
0.15625
  1
ETIQUETTE D'EMBALLAGE/UPC SUR LA BOÎTE
 41
0.8
  0
TEXT
  5
FB
  8
0
  6
CONTINUOUS
 62
     2
 10
13.7835737917
 20
15.219371175699999
 30
0.0
 40
0.1562500052
  1
The template and the label suffixes circled
 41
0.8
  0
TEXT
  5
FC
  8
0
  6
CONTINUOUS
 62
     2
 10
13.7835737917
 20
14.9849961678
 30
0.0
 40
0.1562500052
  1
must match for proper cut-out.
 41
0.8
  0
TEXT
  5
FD
  8
0
  6
CONTINUOUS
 62
     2
 10
13.7835737917
 20
14.7506211665
 30
0.0
 40
0.15625
  1
 
 41
0.8
  0
TEXT
  5
FE
  8
0
  6
CONTINUOUS
 62
     2
 10
13.7835737917
 20
14.51624616
 30
0.0
 40
0.1562500052
  1
A fin de realizar el corte apropiado, la
 41
0.8
  0
TEXT
  5
FF
  8
0
  6
CONTINUOUS
 62
     2
 10
13.7835737917
 20
14.2818711587
 30
0.0
 40
0.15625
  1
plantilla y los sufijos de la etiqueta
 41
0.8
  0
TEXT
  5
100
  8
0
  6
CONTINUOUS
 62
     2
 10
13.7835737917
 20
14.0474961587
 30
0.0
 40
0.15625
  1
demarcados deben concordar.
 41
0.8
  0
TEXT
  5
101
  8
0
  6
CONTINUOUS
 62
     2
 10
13.7835737917
 20
13.8131211587
 30
0.0
 40
0.15625
  1
 
 41
0.8
  0
TEXT
  5
102
  8
0
  6
CONTINUOUS
 62
     2
 10
13.7835737917
 20
13.5787461587
 30
0.0
 40
0.15625
  1
Afin de découper l'ouverture correctement,
 41
0.8
  0
TEXT
  5
103
  8
0
  6
CONTINUOUS
 62
     2
 10
13.7835737917
 20
13.3443711587
 30
0.0
 40
0.15625
  1
le gabarit et les suffixes encerclés
 41
0.8
  0
TEXT
  5
104
  8
0
  6
CONTINUOUS
 62
     2
 10
13.7835737917
 20
13.1099961587
 30
0.0
 40
0.15625
  1
doivent correspondre
 41
0.8
  0
TEXT
  5
105
  8
0
  6
CONTINUOUS
 62
     2
 10
3.4623975048000002
 20
16.937599235699999
 30
0.0
 40
0.25
  1
CUT-OUT TEMPLATE
 41
0.8
  0
TEXT
  5
106
  8
0
  6
CONTINUOUS
 62
     2
 10
3.4623975048000002
 20
16.562599235699999
 30
0.0
 40
0.25
  1
UNDERCOUNTER LAVATORY
 41
0.8
  0
TEXT
  5
107
  8
0
  6
CONTINUOUS
 62
     2
 10
3.4623975048000002
 20
16.187599235699999
 30
0.0
 40
0.25
  1
PLANTILLA DE RECORTE
 41
0.8
  0
TEXT
  5
108
  8
0
  6
CONTINUOUS
 62
     2
 10
3.4623975048000002
 20
15.8125992357
 30
0.0
 40
0.25
  1
LAVABO MONTADO DEBAJO DEL MOSTRADOR
 41
0.8
  0
TEXT
  5
109
  8
0
  6
CONTINUOUS
 62
     2
 10
3.4623975048000002
 20
15.4375992357
 30
0.0
 40
0.25
  1
GABARIT
 41
0.8
  0
TEXT
  5
10A
  8
0
  6
CONTINUOUS
 62
     2
 10
3.4623975048000002
 20
15.0625992357
 30
0.0
 40
0.25
  1
LAVABO SOUS-COMPTOIR
 41
0.8
  0
TEXT
  5
10B
  8
0
  6
CONTINUOUS
 62
     2
 10
3.4623975048000002
 20
14.6875992357
 30
0.0
 40
0.25
  1
KATHRYN   2330-**-AA    2330-AE-**-AA
 41
0.8
  0
TEXT
  5
10C
  8
0
  6
CONTINUOUS
 62
     2
 10
3.4623975048000002
 20
14.3125992357
 30
0.0
 40
0.25
  1
          2330-G-**-AA  2330-N-**-AA
 41
0.8
  0
TEXT
  5
10D
  8
___NOTE
  6
CONTINUOUS
 62
     2
 10
5.8008016593000002
 20
6.2297141148000001
 30
0.0
 40
0.15625
  1
UNDERCOUNTER LAVATORY
 41
0.8
  0
TEXT
  5
10E
  8
___NOTE
  6
CONTINUOUS
 62
     2
 10
5.8008016593000002
 20
5.9953391148000001
 30
0.0
 40
0.15625
  1
LAVABO MONTADO DEBAJO DEL MOSTRADOR
 41
0.8
  0
TEXT
  5
10F
  8
___NOTE
  6
CONTINUOUS
 62
     2
 10
5.8008016593000002
 20
5.7609641148000001
 30
0.0
 40
0.15625
  1
LAVABO SOUS-COMPTOIR
 41
0.8
  0
TEXT
  5
110
  8
0
  6
CONTINUOUS
 62
     2
 10
18.000925391199999
 20
5.3669536841000003
 30
0.0
 40
0.15625
  1
2003 KOHLER CO.
 41
0.8
  0
TEXT
  5
111
  8
0
  6
CONTINUOUS
 62
     2
 10
17.810353539600001
 20
5.3976894380999987
 30
0.0
 40
0.1
  1
C
 41
0.8
  0
TEXT
  5
112
  8
0
  6
CONTINUOUS
 62
     2
 10
15.1553379699
 20
15.9151549354
 30
0.0
 40
0.08
  1
XXXXX-XX-X-XX
 41
0.85
  0
TEXT
  5
113
  8
0
  6
CONTINUOUS
 62
     2
 10
16.434550934852101
 20
15.838800270306271
 30
0.0
 40
0.03875
  1
xxxxxx-xx
 41
0.8
  0
TEXT
  5
114
  8
___NOTE
  6
CONTINUOUS
 62
     2
 10
4.0829686904000004
 20
10.973151015199999
 30
0.0
 40
0.15625
  1
INNER RIM OF LAVATORY
 41
0.8
  0
TEXT
  5
115
  8
___NOTE
  6
CONTINUOUS
 62
     2
 10
4.0829686904000004
 20
10.738776015199999
 30
0.0
 40
0.15625
  1
REBORDE INTERIOR DEL LAVABO
 41
0.8
  0
TEXT
  5
116
  8
___NOTE
  6
CONTINUOUS
 62
     2
 10
4.0829686904000004
 20
10.504401015199999
 30
0.0
 40
0.15625
  1
REBORD INTÉRIEUR DE LAVABO
 41
0.8
  0
LINE
  5
117
  8
___NOTE
  6
CONTINUOUS
 62
     2
 10
3.1590471501999979
 20
11.2701371533
 30
0.0
 11
3.8329686904
 21
11.051276015199999
 31
0.0
  0
LINE
  5
118
  8
___NOTE
  6
CONTINUOUS
 62
     2
 10
3.8329686904
 20
11.051276015199999
 30
0.0
 11
4.0829686904000004
 21
11.051276015199999
 31
0.0
  0
SOLID
  5
119
  8
___NOTE
  6
CONTINUOUS
 62
     2
 10
3.3470311639999979
 20
11.241944546699999
 30
0.0
 11
3.1590471501999979
 21
11.2701371533
 31
0.0
 12
3.327726317899999
 22
11.182500683200001
 32
0.0
 13
3.327726317899999
 23
11.182500683200001
 33
0.0
  0
TEXT
  5
11A
  8
___NOTE
  6
CONTINUOUS
 62
     2
 10
4.0985527420999981
 20
10.0889513679
 30
0.0
 40
0.15625
  1
OUTER RIM OF LAVATORY
 41
0.8
  0
TEXT
  5
11B
  8
___NOTE
  6
CONTINUOUS
 62
     2
 10
4.0985527420999981
 20
9.8545763679
 30
0.0
 40
0.15625
  1
REBORDE EXTERIOR DEL LAVABO
 41
0.8
  0
TEXT
  5
11C
  8
___NOTE
  6
CONTINUOUS
 62
     2
 10
4.0985527420999981
 20
9.6202013679
 30
0.0
 40
0.15625
  1
REBORD EXTÉRIEUR DE LAVABO
 41
0.8
  0
LINE
  5
11D
  8
___NOTE
  6
CONTINUOUS
 62
     2
 10
1.9539196202999991
 20
10.4466539775
 30
0.0
 11
3.8485527420999981
 21
10.1670763679
 31
0.0
  0
LINE
  5
11E
  8
___NOTE
  6
CONTINUOUS
 62
     2
 10
3.8485527420999981
 20
10.1670763679
 30
0.0
 11
4.0985527420999981
 21
10.1670763679
 31
0.0
  0
SOLID
  5
11F
  8
___NOTE
  6
CONTINUOUS
 62
     2
 10
2.1439729169000001
 20
10.450197556000001
 30
0.0
 11
1.9539196202999991
 21
10.4466539775
 31
0.0
 12
2.1348490344000002
 22
10.3883671042
 32
0.0
 13
2.1348490344000002
 23
10.3883671042
 33
0.0
  0
TEXT
  5
120
  8
___NOTE
  6
CONTINUOUS
 62
     2
 10
15.743113898200001
 20
7.1955856255999979
 30
0.0
 40
0.15625
  1
CUT ALONG THIS LINE
 41
0.8
  0
TEXT
  5
121
  8
___NOTE
  6
CONTINUOUS
 62
     2
 10
15.743113898200001
 20
6.9612106255999979
 30
0.0
 40
0.15625
  1
CORTE A LO LARGO DE ESTA LÍNEA.
 41
0.8
  0
TEXT
  5
122
  8
___NOTE
  6
CONTINUOUS
 62
     2
 10
15.743113898200001
 20
6.7268356255999979
 30
0.0
 40
0.15625
  1
DÉCOUPER AU LONG DE CETTE LIGNE
 41
0.8
  0
LINE
  5
123
  8
___NOTE
  6
CONTINUOUS
 62
     2
 10
20.358036429399998
 20
7.8460338362000002
 30
0.0
 11
18.368113898200001
 21
7.2737106255999988
 31
0.0
  0
LINE
  5
124
  8
___NOTE
  6
CONTINUOUS
 62
     2
 10
18.368113898200001
 20
7.2737106255999988
 30
0.0
 11
18.118113898200001
 21
7.2737106255999988
 31
0.0
  0
SOLID
  5
125
  8
___NOTE
  6
CONTINUOUS
 62
     2
 10
20.186478918199999
 20
7.7641752211000004
 30
0.0
 11
20.358036429399998
 21
7.8460338362000002
 31
0.0
 12
20.169203557100001
 22
7.8242402849000001
 32
0.0
 13
20.169203557100001
 23
7.8242402849000001
 33
0.0
  0
LINE
  5
126
  8
0
  6
CONTINUOUS
 62
     2
 10
3.7982122457999989
 20
17.9371505059
 30
0.0
 11
3.6604480789999991
 21
17.773329316200002
 31
0.0
  0
LINE
  5
127
  8
0
  6
CONTINUOUS
 62
     2
 10
3.9902740577999989
 20
17.9371505059
 30
0.0
 11
3.7769706058999981
 21
17.683502232999999
 31
0.0
  0
LINE
  5
128
  8
0
  6
CONTINUOUS
 62
     2
 10
3.485947852099998
 20
17.9371505059
 30
0.0
 11
3.485947852099998
 21
17.351212853100002
 31
0.0
  0
LINE
  5
129
  8
0
  6
CONTINUOUS
 62
     2
 10
3.6604480789999991
 20
17.9371505059
 30
0.0
 11
3.6604480789999991
 21
17.773329316200002
 31
0.0
  0
LINE
  5
12A
  8
0
  6
CONTINUOUS
 62
     2
 10
3.6604480789999991
 20
17.552736690500002
 30
0.0
 11
3.6604480789999991
 21
17.351236856500002
 31
0.0
  0
LINE
  5
12B
  8
0
  6
CONTINUOUS
 62
     2
 10
4.5221591157000001
 20
17.9371505059
 30
0.0
 11
4.5221591157000001
 21
17.351236856500002
 31
0.0
  0
LINE
  5
12C
  8
0
  6
CONTINUOUS
 62
     2
 10
4.6868927956000004
 20
17.9371505059
 30
0.0
 11
4.6868927956000004
 21
17.716766746200001
 31
0.0
  0
LINE
  5
12D
  8
0
  6
CONTINUOUS
 62
     2
 10
4.6868927956000004
 20
17.579561466299999
 30
0.0
 11
4.6868927956000004
 21
17.351236856500002
 31
0.0
  0
LINE
  5
12E
  8
0
  6
CONTINUOUS
 62
     2
 10
4.8348896066
 20
17.9371505059
 30
0.0
 11
4.8348896066
 21
17.716766746200001
 31
0.0
  0
LINE
  5
12F
  8
0
  6
CONTINUOUS
 62
     2
 10
4.8348896066
 20
17.579561466299999
 30
0.0
 11
4.8348896066
 21
17.351236856500002
 31
0.0
  0
LINE
  5
130
  8
DRAFT_ENT
  6
CONTINUOUS
 62
     7
 10
4.9793420279999987
 20
7.2642134029999976
 30
0.0
 11
4.9793420279999987
 21
6.8892134030000003
 31
0.0
  0
LINE
  5
131
  8
0
  6
CONTINUOUS
 62
     2
 10
4.9996232865000003
 20
17.9371505059
 30
0.0
 11
4.9996232865000003
 21
17.351236856500002
 31
0.0
  0
LINE
  5
132
  8
0
  6
CONTINUOUS
 62
     2
 10
5.0446681306999981
 20
17.351236856500002
 30
0.0
 11
5.0446681306999981
 21
17.9371505059
 31
0.0
  0
LINE
  5
133
  8
0
  6
CONTINUOUS
 62
     2
 10
5.1947141934000003
 20
17.9371505059
 30
0.0
 11
5.1947141934000003
 21
17.4924636137
 31
0.0
  0
LINE
  5
134
  8
0
  6
CONTINUOUS
 62
     2
 10
5.3573982633999986
 20
17.4924636137
 30
0.0
 11
5.3573982633999986
 21
17.351236856500002
 31
0.0
  0
LINE
  5
135
  8
0
  6
CONTINUOUS
 62
     2
 10
5.3865460021000002
 20
17.351236856500002
 30
0.0
 11
5.3865460021000002
 21
17.9371505059
 31
0.0
  0
LINE
  5
136
  8
0
  6
CONTINUOUS
 62
     2
 10
5.5447926540000001
 20
17.794391109100001
 30
0.0
 11
5.5447926540000001
 21
17.716766746200001
 31
0.0
  0
LINE
  5
137
  8
0
  6
CONTINUOUS
 62
     2
 10
5.5447926540000001
 20
17.5723851447
 30
0.0
 11
5.5447926540000001
 21
17.4924636137
 31
0.0
  0
LINE
  5
138
  8
0
  6
CONTINUOUS
 62
     2
 10
5.6956501774000001
 20
17.351236856500002
 30
0.0
 11
5.6956501774000001
 21
17.4924636137
 31
0.0
  0
LINE
  5
139
  8
0
  6
CONTINUOUS
 62
     2
 10
5.6956501774000001
 20
17.5723851447
 30
0.0
 11
5.6956501774000001
 21
17.716766746200001
 31
0.0
  0
LINE
  5
13A
  8
0
  6
CONTINUOUS
 62
     2
 10
5.6956501774000001
 20
17.794391109100001
 30
0.0
 11
5.6956501774000001
 21
17.9371505059
 31
0.0
  0
LINE
  5
13B
  8
0
  6
CONTINUOUS
 62
     2
 10
5.7404703920999989
 20
17.351236856500002
 30
0.0
 11
5.7404703920999989
 21
17.9371505059
 31
0.0
  0
LINE
  5
13C
  8
0
  6
CONTINUOUS
 62
     2
 10
5.8911262146999981
 20
17.7945716726
 30
0.0
 11
5.8911262146999981
 21
17.687468538000001
 31
0.0
  0
LINE
  5
13D
  8
0
  6
CONTINUOUS
 62
     2
 10
5.8911262146999981
 20
17.548193227399999
 30
0.0
 11
5.8911262146999981
 21
17.351236856500002
 31
0.0
  0
LINE
  5
13E
  8
0
  6
CONTINUOUS
 62
     2
 10
6.3307845585999987
 20
17.318396165799999
 30
0.0
 11
6.3307845585999987
 21
17.384362364600001
 31
0.0
  0
POLYLINE
  5
13F
  8
DRAFT_ENT
  6
CONTINUOUS
 62
     7
 66
     1
 10
0.0
 20
0.0
 30
0.0
  0
VERTEX
  5
8A2
  8
DRAFT_ENT
  6
CONTINUOUS
 62
     7
 10
6.7270244423000003
 20
7.2642134029999976
 30
0.0
  0
VERTEX
  5
8A3
  8
DRAFT_ENT
  6
CONTINUOUS
 62
     7
 10
6.7268020765000003
 20
7.2613940873000002
 30
0.0
  0
VERTEX
  5
8A4
  8
DRAFT_ENT
  6
CONTINUOUS
 62
     7
 10
6.7264296499
 20
7.2585770469000002
 30
0.0
  0
VERTEX
  5
8A5
  8
DRAFT_ENT
  6
CONTINUOUS
 62
     7
 10
6.7259209983000003
 20
7.2557620201999988
 30
0.0
  0
VERTEX
  5
8A6
  8
DRAFT_ENT
  6
CONTINUOUS
 62
     7
 10
6.7249299501999991
 20
7.2515316145000002
 30
0.0
  0
VERTEX
  5
8A7
  8
DRAFT_ENT
  6
CONTINUOUS
 62
     7
 10
6.7237091433999989
 20
7.247304281399999
 30
0.0
  0
VERTEX
  5
8A8
  8
DRAFT_ENT
  6
CONTINUOUS
 62
     7
 10
6.7223056421000003
 20
7.2430791307
 30
0.0
  0
VERTEX
  5
8A9
  8
DRAFT_ENT
  6
CONTINUOUS
 62
     7
 10
6.720766510799999
 20
7.2388552723000004
 30
0.0
  0
VERTEX
  5
8AA
  8
DRAFT_ENT
  6
CONTINUOUS
 62
     7
 10
6.7191388137999981
 20
7.2346318160000003
 30
0.0
  0
VERTEX
  5
8AB
  8
DRAFT_ENT
  6
CONTINUOUS
 62
     7
 10
6.717469615499998
 20
7.2304078715999989
 30
0.0
  0
VERTEX
  5
8AC
  8
DRAFT_ENT
  6
CONTINUOUS
 62
     7
 10
6.7156912657000003
 20
7.2259304353999978
 30
0.0
  0
VERTEX
  5
8AD
  8
DRAFT_ENT
  6
CONTINUOUS
 62
     7
 10
6.7138852314999991
 20
7.2214759412999978
 30
0.0
  0
VERTEX
  5
8AE
  8
DRAFT_ENT
  6
CONTINUOUS
 62
     7
 10
6.7120175699000004
 20
7.2170688817999977
 30
0.0
  0
VERTEX
  5
8AF
  8
DRAFT_ENT
  6
CONTINUOUS
 62
     7
 10
6.7100543379999991
 20
7.212733749299999
 30
0.0
  0
VERTEX
  5
8B0
  8
DRAFT_ENT
  6
CONTINUOUS
 62
     7
 10
6.7079615929000003
 20
7.2084950363999978
 30
0.0
  0
VERTEX
  5
8B1
  8
DRAFT_ENT
  6
CONTINUOUS
 62
     7
 10
6.7057053917999987
 20
7.2043772355999991
 30
0.0
  0
VERTEX
  5
8B2
  8
DRAFT_ENT
  6
CONTINUOUS
 62
     7
 10
6.7032517916999987
 20
7.2004048394
 30
0.0
  0
VERTEX
  5
8B3
  8
DRAFT_ENT
  6
CONTINUOUS
 62
     7
 10
6.7005668498000004
 20
7.1966023402000001
 30
0.0
  0
VERTEX
  5
8B4
  8
DRAFT_ENT
  6
CONTINUOUS
 62
     7
 10
6.6977869275000002
 20
7.1931653131999989
 30
0.0
  0
VERTEX
  5
8B5
  8
DRAFT_ENT
  6
CONTINUOUS
 62
     7
 10
6.6948107537999979
 20
7.1898704208000002
 30
0.0
  0
VERTEX
  5
8B6
  8
DRAFT_ENT
  6
CONTINUOUS
 62
     7
 10
6.6916808334000004
 20
7.1866848469000004
 30
0.0
  0
VERTEX
  5
8B7
  8
DRAFT_ENT
  6
CONTINUOUS
 62
     7
 10
6.6884396713000003
 20
7.1835757752999987
 30
0.0
  0
VERTEX
  5
8B8
  8
DRAFT_ENT
  6
CONTINUOUS
 62
     7
 10
6.6851297721999989
 20
7.1805103901000003
 30
0.0
  0
VERTEX
  5
8B9
  8
DRAFT_ENT
  6
CONTINUOUS
 62
     7
 10
6.6817936408999987
 20
7.1774558750999979
 30
0.0
  0
VERTEX
  5
8BA
  8
DRAFT_ENT
  6
CONTINUOUS
 62
     7
 10
6.6784737823000002
 20
7.1743794142999979
 30
0.0
  0
VERTEX
  5
8BB
  8
DRAFT_ENT
  6
CONTINUOUS
 62
     7
 10
6.6752127012000004
 20
7.1712481916999993
 30
0.0
  0
VERTEX
  5
8BC
  8
DRAFT_ENT
  6
CONTINUOUS
 62
     7
 10
6.6716912637999979
 20
7.1676814360999987
 30
0.0
  0
VERTEX
  5
8BD
  8
DRAFT_ENT
  6
CONTINUOUS
 62
     7
 10
6.6682412825999986
 20
7.1640606706999987
 30
0.0
  0
VERTEX
  5
8BE
  8
DRAFT_ENT
  6
CONTINUOUS
 62
     7
 10
6.6648091737000001
 20
7.1604400066
 30
0.0
  0
VERTEX
  5
8BF
  8
DRAFT_ENT
  6
CONTINUOUS
 62
     7
 10
6.6613413535000001
 20
7.156873555199998
 30
0.0
  0
VERTEX
  5
8C0
  8
DRAFT_ENT
  6
CONTINUOUS
 62
     7
 10
6.6577842382999988
 20
7.1534154273999979
 30
0.0
  0
VERTEX
  5
8C1
  8
DRAFT_ENT
  6
CONTINUOUS
 62
     7
 10
6.6540842440999981
 20
7.1501197345999987
 30
0.0
  0
VERTEX
  5
8C2
  8
DRAFT_ENT
  6
CONTINUOUS
 62
     7
 10
6.6506474391999992
 20
7.147362155299998
 30
0.0
  0
VERTEX
  5
8C3
  8
DRAFT_ENT
  6
CONTINUOUS
 62
     7
 10
6.647084013799998
 20
7.1447442898000002
 30
0.0
  0
VERTEX
  5
8C4
  8
DRAFT_ENT
  6
CONTINUOUS
 62
     7
 10
6.6434221927000001
 20
7.142235177599999
 30
0.0
  0
VERTEX
  5
8C5
  8
DRAFT_ENT
  6
CONTINUOUS
 62
     7
 10
6.6396902004999987
 20
7.1398038583999988
 30
0.0
  0
VERTEX
  5
8C6
  8
DRAFT_ENT
  6
CONTINUOUS
 62
     7
 10
6.6359162618000003
 20
7.1374193717999992
 30
0.0
  0
VERTEX
  5
8C7
  8
DRAFT_ENT
  6
CONTINUOUS
 62
     7
 10
6.632128601299998
 20
7.1350507574000002
 30
0.0
  0
VERTEX
  5
8C8
  8
DRAFT_ENT
  6
CONTINUOUS
 62
     7
 10
6.6283554437000003
 20
7.1326670546999988
 30
0.0
  0
VERTEX
  5
8C9
  8
DRAFT_ENT
  6
CONTINUOUS
 62
     7
 10
6.6246250135000002
 20
7.1302373033000004
 30
0.0
  0
VERTEX
  5
8CA
  8
DRAFT_ENT
  6
CONTINUOUS
 62
     7
 10
6.620965535599999
 20
7.1277305429999993
 30
0.0
  0
VERTEX
  5
8CB
  8
DRAFT_ENT
  6
CONTINUOUS
 62
     7
 10
6.6174052343999987
 20
7.125115813199999
 30
0.0
  0
VERTEX
  5
8CC
  8
DRAFT_ENT
  6
CONTINUOUS
 62
     7
 10
6.6139723347999988
 20
7.1223621535000001
 30
0.0
  0
VERTEX
  5
8CD
  8
DRAFT_ENT
  6
CONTINUOUS
 62
     7
 10
6.6106950612000004
 20
7.119438603699999
 30
0.0
  0
VERTEX
  5
8CE
  8
DRAFT_ENT
  6
CONTINUOUS
 62
     7
 10
6.6076016384000003
 20
7.1163142032
 30
0.0
  0
VERTEX
  5
8CF
  8
DRAFT_ENT
  6
CONTINUOUS
 62
     7
 10
6.6048565120999987
 20
7.113139875099999
 30
0.0
  0
VERTEX
  5
8D0
  8
DRAFT_ENT
  6
CONTINUOUS
 62
     7
 10
6.6023103533
 20
7.1097755051
 30
0.0
  0
VERTEX
  5
8D1
  8
DRAFT_ENT
  6
CONTINUOUS
 62
     7
 10
6.5999707874000002
 20
7.1062401996000002
 30
0.0
  0
VERTEX
  5
8D2
  8
DRAFT_ENT
  6
CONTINUOUS
 62
     7
 10
6.5978454400999986
 20
7.1025530648000004
 30
0.0
  0
VERTEX
  5
8D3
  8
DRAFT_ENT
  6
CONTINUOUS
 62
     7
 10
6.5959419366999992
 20
7.0987332070000004
 30
0.0
  0
VERTEX
  5
8D4
  8
DRAFT_ENT
  6
CONTINUOUS
 62
     7
 10
6.5942679027999986
 20
7.0947997325000003
 30
0.0
  0
VERTEX
  5
8D5
  8
DRAFT_ENT
  6
CONTINUOUS
 62
     7
 10
6.5928309637999991
 20
7.0907717475999981
 30
0.0
  0
VERTEX
  5
8D6
  8
DRAFT_ENT
  6
CONTINUOUS
 62
     7
 10
6.5916387453
 20
7.0866683585999981
 30
0.0
  0
VERTEX
  5
8D7
  8
DRAFT_ENT
  6
CONTINUOUS
 62
     7
 10
6.5906988726999991
 20
7.0825086718000003
 30
0.0
  0
VERTEX
  5
8D8
  8
DRAFT_ENT
  6
CONTINUOUS
 62
     7
 10
6.5900121273999988
 20
7.078284642499999
 30
0.0
  0
VERTEX
  5
8D9
  8
DRAFT_ENT
  6
CONTINUOUS
 62
     7
 10
6.5895757384999989
 20
7.0740368701999987
 30
0.0
  0
VERTEX
  5
8DA
  8
DRAFT_ENT
  6
CONTINUOUS
 62
     7
 10
6.5893768410999991
 20
7.0697792681999987
 30
0.0
  0
VERTEX
  5
8DB
  8
DRAFT_ENT
  6
CONTINUOUS
 62
     7
 10
6.589402570599999
 20
7.0655257499999991
 30
0.0
  0
VERTEX
  5
8DC
  8
DRAFT_ENT
  6
CONTINUOUS
 62
     7
 10
6.5896400621999991
 20
7.0612902289999981
 30
0.0
  0
VERTEX
  5
8DD
  8
DRAFT_ENT
  6
CONTINUOUS
 62
     7
 10
6.5900764510999981
 20
7.0570866183999987
 30
0.0
  0
VERTEX
  5
8DE
  8
DRAFT_ENT
  6
CONTINUOUS
 62
     7
 10
6.5906988726999991
 20
7.0529288317999992
 30
0.0
  0
VERTEX
  5
8DF
  8
DRAFT_ENT
  6
CONTINUOUS
 62
     7
 10
6.5917662394000001
 20
7.0475849131999988
 30
0.0
  0
VERTEX
  5
8E0
  8
DRAFT_ENT
  6
CONTINUOUS
 62
     7
 10
6.593079487299998
 20
7.0423147075000001
 30
0.0
  0
VERTEX
  5
8E1
  8
DRAFT_ENT
  6
CONTINUOUS
 62
     7
 10
6.5945895712000002
 20
7.0370901872999987
 30
0.0
  0
VERTEX
  5
8E2
  8
DRAFT_ENT
  6
CONTINUOUS
 62
     7
 10
6.5962474458999987
 20
7.0318833255999991
 30
0.0
  0
VERTEX
  5
8E3
  8
DRAFT_ENT
  6
CONTINUOUS
 62
     7
 10
6.5980040660999988
 20
7.0266660950000004
 30
0.0
  0
VERTEX
  5
8E4
  8
DRAFT_ENT
  6
CONTINUOUS
 62
     7
 10
6.599810386499998
 20
7.0214104682
 30
0.0
  0
VERTEX
  5
8E5
  8
DRAFT_ENT
  6
CONTINUOUS
 62
     7
 10
6.6016173618999989
 20
7.016088418199999
 30
0.0
  0
VERTEX
  5
8E6
  8
DRAFT_ENT
  6
CONTINUOUS
 62
     7
 10
6.603375947
 20
7.0106719174999981
 30
0.0
  0
VERTEX
  5
8E7
  8
DRAFT_ENT
  6
CONTINUOUS
 62
     7
 10
6.604436281299999
 20
7.0071973183000003
 30
0.0
  0
VERTEX
  5
8E8
  8
DRAFT_ENT
  6
CONTINUOUS
 62
     7
 10
6.6054337287999987
 20
7.003687028699999
 30
0.0
  0
VERTEX
  5
8E9
  8
DRAFT_ENT
  6
CONTINUOUS
 62
     7
 10
6.6063441730999992
 20
7.000154093299999
 30
0.0
  0
VERTEX
  5
8EA
  8
DRAFT_ENT
  6
CONTINUOUS
 62
     7
 10
6.6071434977000001
 20
6.9966115563999987
 30
0.0
  0
VERTEX
  5
8EB
  8
DRAFT_ENT
  6
CONTINUOUS
 62
     7
 10
6.6078075861999981
 20
6.993072462599998
 30
0.0
  0
VERTEX
  5
8EC
  8
DRAFT_ENT
  6
CONTINUOUS
 62
     7
 10
6.6083123221999989
 20
6.9895498564
 30
0.0
  0
VERTEX
  5
8ED
  8
DRAFT_ENT
  6
CONTINUOUS
 62
     7
 10
6.6086335891999992
 20
6.9860567822000004
 30
0.0
  0
VERTEX
  5
8EE
  8
DRAFT_ENT
  6
CONTINUOUS
 62
     7
 10
6.6087472708000004
 20
6.9826062844000001
 30
0.0
  0
VERTEX
  5
8EF
  8
DRAFT_ENT
  6
CONTINUOUS
 62
     7
 10
6.608629250399999
 20
6.9792114076000002
 30
0.0
  0
VERTEX
  5
8F0
  8
DRAFT_ENT
  6
CONTINUOUS
 62
     7
 10
6.6082554117999992
 20
6.9758851962000001
 30
0.0
  0
VERTEX
  5
8F1
  8
DRAFT_ENT
  6
CONTINUOUS
 62
     7
 10
6.6076016384000003
 20
6.972640694699999
 30
0.0
  0
VERTEX
  5
8F2
  8
DRAFT_ENT
  6
CONTINUOUS
 62
     7
 10
6.6066651646999981
 20
6.9695228535
 30
0.0
  0
VERTEX
  5
8F3
  8
DRAFT_ENT
  6
CONTINUOUS
 62
     7
 10
6.605459549399999
 20
6.9664882982999989
 30
0.0
  0
VERTEX
  5
8F4
  8
DRAFT_ENT
  6
CONTINUOUS
 62
     7
 10
6.6040127641999993
 20
6.9635277229000003
 30
0.0
  0
VERTEX
  5
8F5
  8
DRAFT_ENT
  6
CONTINUOUS
 62
     7
 10
6.6023527809999987
 20
6.960631821099998
 30
0.0
  0
VERTEX
  5
8F6
  8
DRAFT_ENT
  6
CONTINUOUS
 62
     7
 10
6.6005075713999979
 20
6.9577912866
 30
0.0
  0
VERTEX
  5
8F7
  8
DRAFT_ENT
  6
CONTINUOUS
 62
     7
 10
6.5985051071000003
 20
6.9549968133000002
 30
0.0
  0
VERTEX
  5
8F8
  8
DRAFT_ENT
  6
CONTINUOUS
 62
     7
 10
6.5963733597000003
 20
6.9522390950000004
 30
0.0
  0
VERTEX
  5
8F9
  8
DRAFT_ENT
  6
CONTINUOUS
 62
     7
 10
6.5941403011000004
 20
6.9495088252999979
 30
0.0
  0
VERTEX
  5
8FA
  8
DRAFT_ENT
  6
CONTINUOUS
 62
     7
 10
6.5918339029999986
 20
6.9467966982
 30
0.0
  0
VERTEX
  5
8FB
  8
DRAFT_ENT
  6
CONTINUOUS
 62
     7
 10
6.5894821369000001
 20
6.9440934073999987
 30
0.0
  0
VERTEX
  5
8FC
  8
DRAFT_ENT
  6
CONTINUOUS
 62
     7
 10
6.5871129747000001
 20
6.9413896467000002
 30
0.0
  0
VERTEX
  5
8FD
  8
DRAFT_ENT
  6
CONTINUOUS
 62
     7
 10
6.5847543880999986
 20
6.9386761098000003
 30
0.0
  0
VERTEX
  5
8FE
  8
DRAFT_ENT
  6
CONTINUOUS
 62
     7
 10
6.5824343486999979
 20
6.9359434906999988
 30
0.0
  0
VERTEX
  5
8FF
  8
DRAFT_ENT
  6
CONTINUOUS
 62
     7
 10
6.5801808281999987
 20
6.9331824828999986
 30
0.0
  0
VERTEX
  5
900
  8
DRAFT_ENT
  6
CONTINUOUS
 62
     7
 10
6.5780217985
 20
6.9303837804999979
 30
0.0
  0
VERTEX
  5
901
  8
DRAFT_ENT
  6
CONTINUOUS
 62
     7
 10
6.5750505757999989
 20
6.9261728096999988
 30
0.0
  0
VERTEX
  5
902
  8
DRAFT_ENT
  6
CONTINUOUS
 62
     7
 10
6.5723257215999986
 20
6.9218629973999981
 30
0.0
  0
VERTEX
  5
903
  8
DRAFT_ENT
  6
CONTINUOUS
 62
     7
 10
6.5698271780999979
 20
6.9174577561000001
 30
0.0
  0
VERTEX
  5
904
  8
DRAFT_ENT
  6
CONTINUOUS
 62
     7
 10
6.5675348878999991
 20
6.9129604984000004
 30
0.0
  0
VERTEX
  5
905
  8
DRAFT_ENT
  6
CONTINUOUS
 62
     7
 10
6.5654287934999989
 20
6.9083746368999988
 30
0.0
  0
VERTEX
  5
906
  8
DRAFT_ENT
  6
CONTINUOUS
 62
     7
 10
6.5634888371000004
 20
6.9037035839999987
 30
0.0
  0
VERTEX
  5
907
  8
DRAFT_ENT
  6
CONTINUOUS
 62
     7
 10
6.561694961399998
 20
6.8989507524000002
 30
0.0
  0
VERTEX
  5
908
  8
DRAFT_ENT
  6
CONTINUOUS
 62
     7
 10
6.5600271086999991
 20
6.8941195544999987
 30
0.0
  0
VERTEX
  5
909
  8
DRAFT_ENT
  6
CONTINUOUS
 62
     7
 10
6.5584652215999979
 20
6.8892134030000003
 30
0.0
  0
SEQEND
  5
90A
  8
DRAFT_ENT
  6
CONTINUOUS
 62
     7
  0
LINE
  5
1A9
  8
0
  6
CONTINUOUS
 62
     2
 10
3.8141860191000001
 20
17.351236856500002
 30
0.0
 11
3.6604480789999991
 21
17.552736690500002
 31
0.0
  0
LINE
  5
1AA
  8
0
  6
CONTINUOUS
 62
     2
 10
4.0304784405999987
 20
17.351236856500002
 30
0.0
 11
3.7769706058999981
 21
17.683502232999999
 31
0.0
  0
LINE
  5
1AB
  8
0
  6
CONTINUOUS
 62
     2
 10
6.0159496438999991
 20
17.351236856500002
 30
0.0
 11
5.8911262146999981
 21
17.548193227399999
 31
0.0
  0
LINE
  5
1AC
  8
0
  6
CONTINUOUS
 62
     2
 10
6.2059005834000001
 20
17.351236856500002
 30
0.0
 11
6.046457340399999
 21
17.602819397800001
 31
0.0
  0
LINE
  5
1AD
  8
DRAFT_ENT
  6
CONTINUOUS
 62
     7
 10
4.9793420279999987
 20
6.8892134030000003
 30
0.0
 11
6.5584652215999979
 21
6.8892134030000003
 31
0.0
  0
LINE
  5
1AE
  8
DRAFT_ENT
  6
CONTINUOUS
 62
     7
 10
4.9793420279999987
 20
7.2642134029999976
 30
0.0
 11
6.7270244423000003
 21
7.2642134029999976
 31
0.0
  0
LINE
  5
1AF
  8
0
  6
CONTINUOUS
 62
     2
 10
6.3423825347999987
 20
17.350699107099999
 30
0.0
 11
6.3742505475999991
 21
17.318396165799999
 31
0.0
  0
LINE
  5
1B0
  8
0
  6
CONTINUOUS
 62
     2
 10
14.8907423341
 20
15.7540549033
 30
0.0
 11
14.8907423341
 21
16.664811153300001
 31
0.0
  0
LINE
  5
1B1
  8
0
  6
CONTINUOUS
 62
     2
 10
14.9185485841
 20
15.8102361533
 30
0.0
 11
14.9185485841
 21
16.637761153300001
 31
0.0
  0
LINE
  5
1B2
  8
0
  6
CONTINUOUS
 62
     2
 10
16.739417334100001
 20
16.637761153300001
 30
0.0
 11
16.739417334100001
 21
15.8102361533
 31
0.0
  0
LINE
  5
1B3
  8
0
  6
CONTINUOUS
 62
     2
 10
16.7678798341
 20
16.664811153300001
 30
0.0
 11
16.7678798341
 21
15.7540549033
 31
0.0
  0
LINE
  5
1B4
  8
0
  6
CONTINUOUS
 62
     2
 10
16.7678798341
 20
15.7540549033
 30
0.0
 11
14.8907423341
 21
15.7540549033
 31
0.0
  0
LINE
  5
1B5
  8
0
  6
CONTINUOUS
 62
     2
 10
16.739417334100001
 20
15.8102361533
 30
0.0
 11
14.9185485841
 21
15.8102361533
 31
0.0
  0
LINE
  5
1B6
  8
0
  6
CONTINUOUS
 62
     2
 10
14.9185485841
 20
16.637761153300001
 30
0.0
 11
16.739417334100001
 21
16.637761153300001
 31
0.0
  0
LINE
  5
1B7
  8
0
  6
CONTINUOUS
 62
     2
 10
14.8907423341
 20
16.664811153300001
 30
0.0
 11
16.7678798341
 21
16.664811153300001
 31
0.0
  0
LINE
  5
1B8
  8
0
  6
CONTINUOUS
 62
     2
 10
3.6604480789999991
 20
17.351236856500002
 30
0.0
 11
3.485947852099998
 21
17.351212853100002
 31
0.0
  0
LINE
  5
1B9
  8
0
  6
CONTINUOUS
 62
     2
 10
6.3550638915999986
 20
17.350699107099999
 30
0.0
 11
6.3307845585999987
 21
17.350699107099999
 31
0.0
  0
LINE
  5
1BA
  8
0
  6
CONTINUOUS
 62
     2
 10
4.9996232865000003
 20
17.351236856500002
 30
0.0
 11
4.8348896066
 21
17.351236856500002
 31
0.0
  0
LINE
  5
1BB
  8
0
  6
CONTINUOUS
 62
     2
 10
4.6868927956000004
 20
17.351236856500002
 30
0.0
 11
4.5221591157000001
 21
17.351236856500002
 31
0.0
  0
LINE
  5
1BC
  8
0
  6
CONTINUOUS
 62
     2
 10
3.8141860191000001
 20
17.351236856500002
 30
0.0
 11
4.0304784405999987
 21
17.351236856500002
 31
0.0
  0
LINE
  5
1BD
  8
0
  6
CONTINUOUS
 62
     2
 10
5.0446681306999981
 20
17.351236856500002
 30
0.0
 11
5.3573982633999986
 21
17.351236856500002
 31
0.0
  0
LINE
  5
1BE
  8
0
  6
CONTINUOUS
 62
     2
 10
5.3865460021000002
 20
17.351236856500002
 30
0.0
 11
5.6956501774000001
 21
17.351236856500002
 31
0.0
  0
LINE
  5
1BF
  8
0
  6
CONTINUOUS
 62
     2
 10
5.7404703920999989
 20
17.351236856500002
 30
0.0
 11
5.8911262146999981
 21
17.351236856500002
 31
0.0
  0
LINE
  5
1C0
  8
0
  6
CONTINUOUS
 62
     2
 10
6.0159496438999991
 20
17.351236856500002
 30
0.0
 11
6.2059005834000001
 21
17.351236856500002
 31
0.0
  0
LINE
  5
1C1
  8
0
  6
CONTINUOUS
 62
     2
 10
6.3307845585999987
 20
17.384362364600001
 30
0.0
 11
6.3550638915999986
 21
17.384362364600001
 31
0.0
  0
LINE
  5
1C2
  8
0
  6
CONTINUOUS
 62
     2
 10
5.1947141934000003
 20
17.4924636137
 30
0.0
 11
5.3573982633999986
 21
17.4924636137
 31
0.0
  0
LINE
  5
1C3
  8
0
  6
CONTINUOUS
 62
     2
 10
5.5447926540000001
 20
17.4924636137
 30
0.0
 11
5.6956501774000001
 21
17.4924636137
 31
0.0
  0
LINE
  5
1C4
  8
0
  6
CONTINUOUS
 62
     2
 10
5.5447926540000001
 20
17.5723851447
 30
0.0
 11
5.6956501774000001
 21
17.5723851447
 31
0.0
  0
LINE
  5
1C5
  8
0
  6
CONTINUOUS
 62
     2
 10
4.6868927956000004
 20
17.579561466299999
 30
0.0
 11
4.8348896066
 21
17.579561466299999
 31
0.0
  0
LINE
  5
1C6
  8
0
  6
CONTINUOUS
 62
     2
 10
5.8911262146999981
 20
17.687468538000001
 30
0.0
 11
5.9434659648999979
 21
17.687468538000001
 31
0.0
  0
LINE
  5
1C7
  8
0
  6
CONTINUOUS
 62
     2
 10
4.6868927956000004
 20
17.716766746200001
 30
0.0
 11
4.8348896066
 21
17.716766746200001
 31
0.0
  0
LINE
  5
1C8
  8
0
  6
CONTINUOUS
 62
     2
 10
5.5447926540000001
 20
17.716766746200001
 30
0.0
 11
5.6956501774000001
 21
17.716766746200001
 31
0.0
  0
LINE
  5
1C9
  8
0
  6
CONTINUOUS
 62
     2
 10
5.5447926540000001
 20
17.794391109100001
 30
0.0
 11
5.6956501774000001
 21
17.794391109100001
 31
0.0
  0
LINE
  5
1CA
  8
0
  6
CONTINUOUS
 62
     2
 10
5.9470560960999981
 20
17.7945716726
 30
0.0
 11
5.8911262146999981
 21
17.7945716726
 31
0.0
  0
LINE
  5
1CB
  8
0
  6
CONTINUOUS
 62
     2
 10
3.485947852099998
 20
17.9371505059
 30
0.0
 11
3.6604480789999991
 21
17.9371505059
 31
0.0
  0
LINE
  5
1CC
  8
0
  6
CONTINUOUS
 62
     2
 10
3.7982122457999989
 20
17.9371505059
 30
0.0
 11
3.9902740577999989
 21
17.9371505059
 31
0.0
  0
LINE
  5
1CD
  8
0
  6
CONTINUOUS
 62
     2
 10
4.5221591157000001
 20
17.9371505059
 30
0.0
 11
4.6868927956000004
 21
17.9371505059
 31
0.0
  0
LINE
  5
1CE
  8
0
  6
CONTINUOUS
 62
     2
 10
4.8348896066
 20
17.9371505059
 30
0.0
 11
4.9996232865000003
 21
17.9371505059
 31
0.0
  0
LINE
  5
1CF
  8
0
  6
CONTINUOUS
 62
     2
 10
5.0446681306999981
 20
17.9371505059
 30
0.0
 11
5.1947141934000003
 21
17.9371505059
 31
0.0
  0
LINE
  5
1D0
  8
0
  6
CONTINUOUS
 62
     2
 10
5.3865460021000002
 20
17.9371505059
 30
0.0
 11
5.6956501774000001
 21
17.9371505059
 31
0.0
  0
LINE
  5
1D1
  8
0
  6
CONTINUOUS
 62
     2
 10
5.7404703920999989
 20
17.9371505059
 30
0.0
 11
5.974018092799998
 21
17.9371505059
 31
0.0
  0
LINE
  5
1D2
  8
COSM_SKETCH
  6
CENTER
 62
     2
 10
1.5802997681999991
 20
17.408677822600001
 30
0.0
 11
1.5802997681999991
 21
16.908677822600001
 31
0.0
  0
LINE
  5
1D3
  8
COSM_SKETCH
  6
CENTER
 62
     2
 10
1.5802997681999991
 20
5.8612987564000001
 30
0.0
 11
1.5802997681999991
 21
6.3612987564000001
 31
0.0
  0
POLYLINE
  5
1D4
  8
COSM_SKETCH
  6
HIDDEN
 62
     8
 66
     1
 10
0.0
 20
0.0
 30
0.0
  0
VERTEX
  5
90B
  8
COSM_SKETCH
  6
HIDDEN
 62
     8
 10
1.8996365201999981
 20
19.1815402752
 30
0.0
  0
VERTEX
  5
90C
  8
COSM_SKETCH
  6
HIDDEN
 62
     8
 10
1.899653300399998
 20
19.189882814400001
 30
0.0
  0
VERTEX
  5
90D
  8
COSM_SKETCH
  6
HIDDEN
 62
     8
 10
1.8999491577000001
 20
19.198226510200001
 30
0.0
  0
VERTEX
  5
90E
  8
COSM_SKETCH
  6
HIDDEN
 62
     8
 10
1.9005233290000001
 20
19.206560360099999
 30
0.0
  0
VERTEX
  5
90F
  8
COSM_SKETCH
  6
HIDDEN
 62
     8
 10
1.901375051
 20
19.214873361900001
 30
0.0
  0
VERTEX
  5
910
  8
COSM_SKETCH
  6
HIDDEN
 62
     8
 10
1.9025035601999991
 20
19.223154513400001
 30
0.0
  0
VERTEX
  5
911
  8
COSM_SKETCH
  6
HIDDEN
 62
     8
 10
1.903908093499999
 20
19.231392812100001
 30
0.0
  0
VERTEX
  5
912
  8
COSM_SKETCH
  6
HIDDEN
 62
     8
 10
1.9055875719999991
 20
19.239577655200002
 30
0.0
  0
VERTEX
  5
913
  8
COSM_SKETCH
  6
HIDDEN
 62
     8
 10
1.9075396747999991
 20
19.2477001321
 30
0.0
  0
VERTEX
  5
914
  8
COSM_SKETCH
  6
HIDDEN
 62
     8
 10
1.9097617663999991
 20
19.2557517314
 30
0.0
  0
VERTEX
  5
915
  8
COSM_SKETCH
  6
HIDDEN
 62
     8
 10
1.9122512115000001
 20
19.263723941799999
 30
0.0
  0
VERTEX
  5
916
  8
COSM_SKETCH
  6
HIDDEN
 62
     8
 10
1.9150053745999991
 20
19.2716082518
 30
0.0
  0
VERTEX
  5
917
  8
COSM_SKETCH
  6
HIDDEN
 62
     8
 10
1.9180216204
 20
19.279396150099998
 30
0.0
  0
VERTEX
  5
918
  8
COSM_SKETCH
  6
HIDDEN
 62
     8
 10
1.9212970381000001
 20
19.2870791735
 30
0.0
  0
VERTEX
  5
919
  8
COSM_SKETCH
  6
HIDDEN
 62
     8
 10
1.924827544499998
 20
19.294648887200001
 30
0.0
  0
VERTEX
  5
91A
  8
COSM_SKETCH
  6
HIDDEN
 62
     8
 10
1.9286087789999991
 20
19.302096905500001
 30
0.0
  0
VERTEX
  5
91B
  8
COSM_SKETCH
  6
HIDDEN
 62
     8
 10
1.9326363811
 20
19.309414842599999
 30
0.0
  0
VERTEX
  5
91C
  8
COSM_SKETCH
  6
HIDDEN
 62
     8
 10
1.9369059903999979
 20
19.316594312599999
 30
0.0
  0
VERTEX
  5
91D
  8
COSM_SKETCH
  6
HIDDEN
 62
     8
 10
1.941413246299998
 20
19.323626929900001
 30
0.0
  0
VERTEX
  5
91E
  8
COSM_SKETCH
  6
HIDDEN
 62
     8
 10
1.9461535243999979
 20
19.3305045052
 30
0.0
  0
VERTEX
  5
91F
  8
COSM_SKETCH
  6
HIDDEN
 62
     8
 10
1.9511211525999981
 20
19.337219646699999
 30
0.0
  0
VERTEX
  5
920
  8
COSM_SKETCH
  6
HIDDEN
 62
     8
 10
1.956310194899999
 20
19.343765159499998
 30
0.0
  0
VERTEX
  5
921
  8
COSM_SKETCH
  6
HIDDEN
 62
     8
 10
1.961714715399999
 20
19.350133848399999
 30
0.0
  0
VERTEX
  5
922
  8
COSM_SKETCH
  6
HIDDEN
 62
     8
 10
1.9673287780999991
 20
19.3563185181
 30
0.0
  0
VERTEX
  5
923
  8
COSM_SKETCH
  6
HIDDEN
 62
     8
 10
1.9731464470999991
 20
19.362311973499999
 30
0.0
  0
VERTEX
  5
924
  8
COSM_SKETCH
  6
HIDDEN
 62
     8
 10
1.979161575999999
 20
19.3681072366
 30
0.0
  0
VERTEX
  5
925
  8
COSM_SKETCH
  6
HIDDEN
 62
     8
 10
1.9853671580000001
 20
19.373698181000002
 30
0.0
  0
VERTEX
  5
926
  8
COSM_SKETCH
  6
HIDDEN
 62
     8
 10
1.9917559761000001
 20
19.379078897700001
 30
0.0
  0
VERTEX
  5
927
  8
COSM_SKETCH
  6
HIDDEN
 62
     8
 10
1.998320812899999
 20
19.3842434775
 30
0.0
  0
VERTEX
  5
928
  8
COSM_SKETCH
  6
HIDDEN
 62
     8
 10
2.005054451099999
 20
19.389186011500001
 30
0.0
  0
VERTEX
  5
929
  8
COSM_SKETCH
  6
HIDDEN
 62
     8
 10
2.011949673499998
 20
19.393900590499999
 30
0.0
  0
VERTEX
  5
92A
  8
COSM_SKETCH
  6
HIDDEN
 62
     8
 10
2.0189990722000002
 20
19.398381573000002
 30
0.0
  0
VERTEX
  5
92B
  8
COSM_SKETCH
  6
HIDDEN
 62
     8
 10
2.026194435999999
 20
19.402624361899999
 30
0.0
  0
VERTEX
  5
92C
  8
COSM_SKETCH
  6
HIDDEN
 62
     8
 10
2.0335273630000001
 20
19.406624627900001
 30
0.0
  0
VERTEX
  5
92D
  8
COSM_SKETCH
  6
HIDDEN
 62
     8
 10
2.040989450999998
 20
19.410378042000001
 30
0.0
  0
VERTEX
  5
92E
  8
COSM_SKETCH
  6
HIDDEN
 62
     8
 10
2.0485722981999981
 20
19.4138802748
 30
0.0
  0
VERTEX
  5
92F
  8
COSM_SKETCH
  6
HIDDEN
 62
     8
 10
2.056267502399999
 20
19.417126997299999
 30
0.0
  0
VERTEX
  5
930
  8
COSM_SKETCH
  6
HIDDEN
 62
     8
 10
2.0640666133000001
 20
19.420114157499999
 30
0.0
  0
VERTEX
  5
931
  8
COSM_SKETCH
  6
HIDDEN
 62
     8
 10
2.0719611574000001
 20
19.422838876499998
 30
0.0
  0
VERTEX
  5
932
  8
COSM_SKETCH
  6
HIDDEN
 62
     8
 10
2.0799426133000001
 20
19.425298550499999
 30
0.0
  0
VERTEX
  5
933
  8
COSM_SKETCH
  6
HIDDEN
 62
     8
 10
2.088002459799998
 20
19.427490576
 30
0.0
  0
VERTEX
  5
934
  8
COSM_SKETCH
  6
HIDDEN
 62
     8
 10
2.0961321758999989
 20
19.429412349300001
 30
0.0
  0
VERTEX
  5
935
  8
COSM_SKETCH
  6
HIDDEN
 62
     8
 10
2.1043232402999981
 20
19.4310612668
 30
0.0
  0
VERTEX
  5
936
  8
COSM_SKETCH
  6
HIDDEN
 62
     8
 10
2.1125667286000001
 20
19.432435040200001
 30
0.0
  0
VERTEX
  5
937
  8
COSM_SKETCH
  6
HIDDEN
 62
     8
 10
2.1208520391999981
 20
19.433532631199999
 30
0.0
  0
VERTEX
  5
938
  8
COSM_SKETCH
  6
HIDDEN
 62
     8
 10
2.1291681666999991
 20
19.434353317599999
 30
0.0
  0
VERTEX
  5
939
  8
COSM_SKETCH
  6
HIDDEN
 62
     8
 10
2.1375041062000002
 20
19.434896377200001
 30
0.0
  0
VERTEX
  5
93A
  8
COSM_SKETCH
  6
HIDDEN
 62
     8
 10
2.145848852599999
 20
19.435161087699999
 30
0.0
  0
VERTEX
  5
93B
  8
COSM_SKETCH
  6
HIDDEN
 62
     8
 10
2.1541914007999989
 20
19.435146726999999
 30
0.0
  0
SEQEND
  5
93C
  8
COSM_SKETCH
  6
HIDDEN
 62
     8
  0
POLYLINE
  5
207
  8
COSM_SKETCH
  6
HIDDEN
 62
     8
 66
     1
 10
0.0
 20
0.0
 30
0.0
  0
VERTEX
  5
93D
  8
COSM_SKETCH
  6
HIDDEN
 62
     8
 10
3.1234934214999992
 20
17.723136914000001
 30
0.0
  0
VERTEX
  5
93E
  8
COSM_SKETCH
  6
HIDDEN
 62
     8
 10
3.1429959048999989
 20
15.733309831
 30
0.0
  0
VERTEX
  5
93F
  8
COSM_SKETCH
  6
HIDDEN
 62
     8
 10
3.1548922698999982
 20
13.7434203623
 30
0.0
  0
VERTEX
  5
940
  8
COSM_SKETCH
  6
HIDDEN
 62
     8
 10
3.159175215399999
 20
11.6510016524
 30
0.0
  0
VERTEX
  5
941
  8
COSM_SKETCH
  6
HIDDEN
 62
     8
 10
3.155020824599998
 20
9.5585826445999995
 30
0.0
  0
VERTEX
  5
942
  8
COSM_SKETCH
  6
HIDDEN
 62
     8
 10
3.1431208906000001
 20
7.552671813199999
 30
0.0
  0
VERTEX
  5
943
  8
COSM_SKETCH
  6
HIDDEN
 62
     8
 10
3.1234928138999991
 20
5.5468241125000004
 30
0.0
  0
SEQEND
  5
944
  8
COSM_SKETCH
  6
HIDDEN
 62
     8
  0
POLYLINE
  5
210
  8
COSM_SKETCH
  6
HIDDEN
 62
     8
 66
     1
 10
0.0
 20
0.0
 30
0.0
  0
VERTEX
  5
945
  8
COSM_SKETCH
  6
HIDDEN
 62
     8
 10
3.1235006399
 20
17.722747310999999
 30
0.0
  0
VERTEX
  5
946
  8
COSM_SKETCH
  6
HIDDEN
 62
     8
 10
3.1234429361
 20
17.737038598800002
 30
0.0
  0
VERTEX
  5
947
  8
COSM_SKETCH
  6
HIDDEN
 62
     8
 10
3.1237902205000001
 20
17.751333482700002
 30
0.0
  0
VERTEX
  5
948
  8
COSM_SKETCH
  6
HIDDEN
 62
     8
 10
3.1245429217999989
 20
17.765619501300002
 30
0.0
  0
VERTEX
  5
949
  8
COSM_SKETCH
  6
HIDDEN
 62
     8
 10
3.1257014686999991
 20
17.77988419339999
 30
0.0
  0
VERTEX
  5
94A
  8
COSM_SKETCH
  6
HIDDEN
 62
     8
 10
3.1272662897000001
 20
17.794115097599999
 30
0.0
  0
VERTEX
  5
94B
  8
COSM_SKETCH
  6
HIDDEN
 62
     8
 10
3.1292378137000001
 20
17.808299752899998
 30
0.0
  0
VERTEX
  5
94C
  8
COSM_SKETCH
  6
HIDDEN
 62
     8
 10
3.131916228999998
 20
17.824049494400001
 30
0.0
  0
VERTEX
  5
94D
  8
COSM_SKETCH
  6
HIDDEN
 62
     8
 10
3.1350982670999992
 20
17.8397098252
 30
0.0
  0
VERTEX
  5
94E
  8
COSM_SKETCH
  6
HIDDEN
 62
     8
 10
3.1387811699000001
 20
17.855264357199999
 30
0.0
  0
VERTEX
  5
94F
  8
COSM_SKETCH
  6
HIDDEN
 62
     8
 10
3.1429621789999991
 20
17.8706967022
 30
0.0
  0
VERTEX
  5
950
  8
COSM_SKETCH
  6
HIDDEN
 62
     8
 10
3.1476385362000001
 20
17.885990472100001
 30
0.0
  0
VERTEX
  5
951
  8
COSM_SKETCH
  6
HIDDEN
 62
     8
 10
3.1528074832000001
 20
17.901129278900001
 30
0.0
  0
VERTEX
  5
952
  8
COSM_SKETCH
  6
HIDDEN
 62
     8
 10
3.1579891661000001
 20
17.914890969399991
 30
0.0
  0
VERTEX
  5
953
  8
COSM_SKETCH
  6
HIDDEN
 62
     8
 10
3.163579508199998
 20
17.928495572100001
 30
0.0
  0
VERTEX
  5
954
  8
COSM_SKETCH
  6
HIDDEN
 62
     8
 10
3.1695734892999989
 20
17.9419307113
 30
0.0
  0
VERTEX
  5
955
  8
COSM_SKETCH
  6
HIDDEN
 62
     8
 10
3.1759660895999979
 20
17.9551840108
 30
0.0
  0
VERTEX
  5
956
  8
COSM_SKETCH
  6
HIDDEN
 62
     8
 10
3.1827522893000002
 20
17.968243094999991
 30
0.0
  0
VERTEX
  5
957
  8
COSM_SKETCH
  6
HIDDEN
 62
     8
 10
3.1899270682999981
 20
17.981095587799999
 30
0.0
  0
VERTEX
  5
958
  8
COSM_SKETCH
  6
HIDDEN
 62
     8
 10
3.1974854066999989
 20
17.993729113400001
 30
0.0
  0
VERTEX
  5
959
  8
COSM_SKETCH
  6
HIDDEN
 62
     8
 10
3.205730213599999
 20
18.006597376999999
 30
0.0
  0
VERTEX
  5
95A
  8
COSM_SKETCH
  6
HIDDEN
 62
     8
 10
3.2143737223999991
 20
18.019204150699998
 30
0.0
  0
VERTEX
  5
95B
  8
COSM_SKETCH
  6
HIDDEN
 62
     8
 10
3.2234068266999989
 20
18.031537175299999
 30
0.0
  0
VERTEX
  5
95C
  8
COSM_SKETCH
  6
HIDDEN
 62
     8
 10
3.2328204203999991
 20
18.043584191299999
 30
0.0
  0
VERTEX
  5
95D
  8
COSM_SKETCH
  6
HIDDEN
 62
     8
 10
3.2426053973000002
 20
18.0553329394
 30
0.0
  0
VERTEX
  5
95E
  8
COSM_SKETCH
  6
HIDDEN
 62
     8
 10
3.252752651299998
 20
18.0667711603
 30
0.0
  0
VERTEX
  5
95F
  8
COSM_SKETCH
  6
HIDDEN
 62
     8
 10
3.2632530760999989
 20
18.077886594500001
 30
0.0
  0
VERTEX
  5
960
  8
COSM_SKETCH
  6
HIDDEN
 62
     8
 10
3.2742075110000002
 20
18.088773802799999
 30
0.0
  0
VERTEX
  5
961
  8
COSM_SKETCH
  6
HIDDEN
 62
     8
 10
3.285500603
 20
18.099309421499999
 30
0.0
  0
VERTEX
  5
962
  8
COSM_SKETCH
  6
HIDDEN
 62
     8
 10
3.2971200107
 20
18.1094836589
 30
0.0
  0
VERTEX
  5
963
  8
COSM_SKETCH
  6
HIDDEN
 62
     8
 10
3.3090533925000001
 20
18.1192867235
 30
0.0
  0
VERTEX
  5
964
  8
COSM_SKETCH
  6
HIDDEN
 62
     8
 10
3.3212884072
 20
18.1287088238
 30
0.0
  0
VERTEX
  5
965
  8
COSM_SKETCH
  6
HIDDEN
 62
     8
 10
3.3338127131999991
 20
18.137740168000001
 30
0.0
  0
VERTEX
  5
966
  8
COSM_SKETCH
  6
HIDDEN
 62
     8
 10
3.3466139692999981
 20
18.146370964700001
 30
0.0
  0
VERTEX
  5
967
  8
COSM_SKETCH
  6
HIDDEN
 62
     8
 10
3.3594519417000002
 20
18.154453696699999
 30
0.0
  0
VERTEX
  5
968
  8
COSM_SKETCH
  6
HIDDEN
 62
     8
 10
3.372532022599998
 20
18.162134257799998
 30
0.0
  0
VERTEX
  5
969
  8
COSM_SKETCH
  6
HIDDEN
 62
     8
 10
3.3858407639999979
 20
18.169406778999999
 30
0.0
  0
VERTEX
  5
96A
  8
COSM_SKETCH
  6
HIDDEN
 62
     8
 10
3.3993647177999979
 20
18.176265391499999
 30
0.0
  0
VERTEX
  5
96B
  8
COSM_SKETCH
  6
HIDDEN
 62
     8
 10
3.4130904358999992
 20
18.182704226199998
 30
0.0
  0
VERTEX
  5
96C
  8
COSM_SKETCH
  6
HIDDEN
 62
     8
 10
3.4270044701999991
 20
18.188717414199999
 30
0.0
  0
VERTEX
  5
96D
  8
COSM_SKETCH
  6
HIDDEN
 62
     8
 10
3.4410933726999979
 20
18.194299086400001
 30
0.0
  0
VERTEX
  5
96E
  8
COSM_SKETCH
  6
HIDDEN
 62
     8
 10
3.454610196
 20
18.199191142
 30
0.0
  0
VERTEX
  5
96F
  8
COSM_SKETCH
  6
HIDDEN
 62
     8
 10
3.4682604298999991
 20
18.2036873001
 30
0.0
  0
VERTEX
  5
970
  8
COSM_SKETCH
  6
HIDDEN
 62
     8
 10
3.4820321732999981
 20
18.207785400399999
 30
0.0
  0
VERTEX
  5
971
  8
COSM_SKETCH
  6
HIDDEN
 62
     8
 10
3.495913525299998
 20
18.211483282300001
 30
0.0
  0
VERTEX
  5
972
  8
COSM_SKETCH
  6
HIDDEN
 62
     8
 10
3.509892584999998
 20
18.2147787854
 30
0.0
  0
VERTEX
  5
973
  8
COSM_SKETCH
  6
HIDDEN
 62
     8
 10
3.5239574511999989
 20
18.217669749199999
 30
0.0
  0
VERTEX
  5
974
  8
COSM_SKETCH
  6
HIDDEN
 62
     8
 10
3.5380962231000002
 20
18.2201540133
 30
0.0
  0
VERTEX
  5
975
  8
COSM_SKETCH
  6
HIDDEN
 62
     8
 10
3.5531753475999981
 20
18.2223446034
 30
0.0
  0
VERTEX
  5
976
  8
COSM_SKETCH
  6
HIDDEN
 62
     8
 10
3.568309370299998
 20
18.224074742999999
 30
0.0
  0
VERTEX
  5
977
  8
COSM_SKETCH
  6
HIDDEN
 62
     8
 10
3.5834832926999991
 20
18.225344883599998
 30
0.0
  0
VERTEX
  5
978
  8
COSM_SKETCH
  6
HIDDEN
 62
     8
 10
3.5986821160999991
 20
18.226155476399999
 30
0.0
  0
VERTEX
  5
979
  8
COSM_SKETCH
  6
HIDDEN
 62
     8
 10
3.6138908417999991
 20
18.226506972999999
 30
0.0
  0
VERTEX
  5
97A
  8
COSM_SKETCH
  6
HIDDEN
 62
     8
 10
3.6290944712999988
 20
18.226399824800001
 30
0.0
  0
SEQEND
  5
97B
  8
COSM_SKETCH
  6
HIDDEN
 62
     8
  0
POLYLINE
  5
248
  8
COSM_SKETCH
  6
CONTINUOUS
 62
     7
 66
     1
 10
0.0
 20
0.0
 30
0.0
  0
VERTEX
  5
97C
  8
COSM_SKETCH
  6
CONTINUOUS
 62
     7
 10
3.2434369612
 20
17.735820396699999
 30
0.0
  0
VERTEX
  5
97D
  8
COSM_SKETCH
  6
CONTINUOUS
 62
     7
 10
3.2437018027999991
 20
17.746711947999991
 30
0.0
  0
VERTEX
  5
97E
  8
COSM_SKETCH
  6
CONTINUOUS
 62
     7
 10
3.2442752445999981
 20
17.757594961300001
 30
0.0
  0
VERTEX
  5
97F
  8
COSM_SKETCH
  6
CONTINUOUS
 62
     7
 10
3.245157245799998
 20
17.7684582742
 30
0.0
  0
VERTEX
  5
980
  8
COSM_SKETCH
  6
CONTINUOUS
 62
     7
 10
3.2463477650999981
 20
17.779290724900001
 30
0.0
  0
VERTEX
  5
981
  8
COSM_SKETCH
  6
CONTINUOUS
 62
     7
 10
3.2478467616999991
 20
17.790081151100001
 30
0.0
  0
VERTEX
  5
982
  8
COSM_SKETCH
  6
CONTINUOUS
 62
     7
 10
3.2498819219999979
 20
17.802052596599999
 30
0.0
  0
VERTEX
  5
983
  8
COSM_SKETCH
  6
CONTINUOUS
 62
     7
 10
3.252298281699999
 20
17.813946521399991
 30
0.0
  0
VERTEX
  5
984
  8
COSM_SKETCH
  6
CONTINUOUS
 62
     7
 10
3.2550934139999992
 20
17.825751557099991
 30
0.0
  0
VERTEX
  5
985
  8
COSM_SKETCH
  6
CONTINUOUS
 62
     7
 10
3.2582648920999979
 20
17.837456335399999
 30
0.0
  0
VERTEX
  5
986
  8
COSM_SKETCH
  6
CONTINUOUS
 62
     7
 10
3.2618102894000001
 20
17.849049487799999
 30
0.0
  0
VERTEX
  5
987
  8
COSM_SKETCH
  6
CONTINUOUS
 62
     7
 10
3.265727178999998
 20
17.860519646
 30
0.0
  0
VERTEX
  5
988
  8
COSM_SKETCH
  6
CONTINUOUS
 62
     7
 10
3.2696518838999991
 20
17.870942278200001
 30
0.0
  0
VERTEX
  5
989
  8
COSM_SKETCH
  6
CONTINUOUS
 62
     7
 10
3.2738843424000001
 20
17.8812422289
 30
0.0
  0
VERTEX
  5
98A
  8
COSM_SKETCH
  6
CONTINUOUS
 62
     7
 10
3.278420619799999
 20
17.891410290300001
 30
0.0
  0
VERTEX
  5
98B
  8
COSM_SKETCH
  6
CONTINUOUS
 62
     7
 10
3.2832567814999991
 20
17.901437254600001
 30
0.0
  0
VERTEX
  5
98C
  8
COSM_SKETCH
  6
CONTINUOUS
 62
     7
 10
3.2883888929
 20
17.911313914099999
 30
0.0
  0
VERTEX
  5
98D
  8
COSM_SKETCH
  6
CONTINUOUS
 62
     7
 10
3.2938130192999981
 20
17.921031061000001
 30
0.0
  0
VERTEX
  5
98E
  8
COSM_SKETCH
  6
CONTINUOUS
 62
     7
 10
3.2995252261000001
 20
17.930579487599999
 30
0.0
  0
VERTEX
  5
98F
  8
COSM_SKETCH
  6
CONTINUOUS
 62
     7
 10
3.305754240099998
 20
17.9403021366
 30
0.0
  0
VERTEX
  5
990
  8
COSM_SKETCH
  6
CONTINUOUS
 62
     7
 10
3.3122826762000002
 20
17.9498243677
 30
0.0
  0
VERTEX
  5
991
  8
COSM_SKETCH
  6
CONTINUOUS
 62
     7
 10
3.3191038405999991
 20
17.959137448500002
 30
0.0
  0
VERTEX
  5
992
  8
COSM_SKETCH
  6
CONTINUOUS
 62
     7
 10
3.3262110397999991
 20
17.968232646699999
 30
0.0
  0
VERTEX
  5
993
  8
COSM_SKETCH
  6
CONTINUOUS
 62
     7
 10
3.3335975799000002
 20
17.977101229700001
 30
0.0
  0
VERTEX
  5
994
  8
COSM_SKETCH
  6
CONTINUOUS
 62
     7
 10
3.3412567672999991
 20
17.985734465099991
 30
0.0
  0
VERTEX
  5
995
  8
COSM_SKETCH
  6
CONTINUOUS
 62
     7
 10
3.3491819082999981
 20
17.9941236206
 30
0.0
  0
VERTEX
  5
996
  8
COSM_SKETCH
  6
CONTINUOUS
 62
     7
 10
3.3574493401000001
 20
18.002340534999991
 30
0.0
  0
VERTEX
  5
997
  8
COSM_SKETCH
  6
CONTINUOUS
 62
     7
 10
3.3659724623999989
 20
18.010292378399999
 30
0.0
  0
VERTEX
  5
998
  8
COSM_SKETCH
  6
CONTINUOUS
 62
     7
 10
3.3747424810000002
 20
18.017971986999999
 30
0.0
  0
VERTEX
  5
999
  8
COSM_SKETCH
  6
CONTINUOUS
 62
     7
 10
3.3837506018000001
 20
18.025372196999999
 30
0.0
  0
VERTEX
  5
99A
  8
COSM_SKETCH
  6
CONTINUOUS
 62
     7
 10
3.3929880305000002
 20
18.0324858446
 30
0.0
  0
VERTEX
  5
99B
  8
COSM_SKETCH
  6
CONTINUOUS
 62
     7
 10
3.4024459730999981
 20
18.039305765999998
 30
0.0
  0
VERTEX
  5
99C
  8
COSM_SKETCH
  6
CONTINUOUS
 62
     7
 10
3.4121156354000002
 20
18.045824797400002
 30
0.0
  0
VERTEX
  5
99D
  8
COSM_SKETCH
  6
CONTINUOUS
 62
     7
 10
3.421815943099999
 20
18.051931641199999
 30
0.0
  0
VERTEX
  5
99E
  8
COSM_SKETCH
  6
CONTINUOUS
 62
     7
 10
3.4317022416
 20
18.057736414699999
 30
0.0
  0
VERTEX
  5
99F
  8
COSM_SKETCH
  6
CONTINUOUS
 62
     7
 10
3.4417645376999979
 20
18.063234563200002
 30
0.0
  0
VERTEX
  5
9A0
  8
COSM_SKETCH
  6
CONTINUOUS
 62
     7
 10
3.4519928384999989
 20
18.0684215319
 30
0.0
  0
VERTEX
  5
9A1
  8
COSM_SKETCH
  6
CONTINUOUS
 62
     7
 10
3.4623771510000001
 20
18.0732927661
 30
0.0
  0
VERTEX
  5
9A2
  8
COSM_SKETCH
  6
CONTINUOUS
 62
     7
 10
3.4729074822000001
 20
18.0778437112
 30
0.0
  0
VERTEX
  5
9A3
  8
COSM_SKETCH
  6
CONTINUOUS
 62
     7
 10
3.4835738391
 20
18.082069812299999
 30
0.0
  0
VERTEX
  5
9A4
  8
COSM_SKETCH
  6
CONTINUOUS
 62
     7
 10
3.495527329999998
 20
18.0863640209
 30
0.0
  0
VERTEX
  5
9A5
  8
COSM_SKETCH
  6
CONTINUOUS
 62
     7
 10
3.5076221992000001
 20
18.090251655199999
 30
0.0
  0
VERTEX
  5
9A6
  8
COSM_SKETCH
  6
CONTINUOUS
 62
     7
 10
3.519845399299999
 20
18.093729747099999
 30
0.0
  0
VERTEX
  5
9A7
  8
COSM_SKETCH
  6
CONTINUOUS
 62
     7
 10
3.5321838830000001
 20
18.09679532869999
 30
0.0
  0
VERTEX
  5
9A8
  8
COSM_SKETCH
  6
CONTINUOUS
 62
     7
 10
3.5446246026999981
 20
18.099445431900001
 30
0.0
  0
VERTEX
  5
9A9
  8
COSM_SKETCH
  6
CONTINUOUS
 62
     7
 10
3.5571545111999989
 20
18.101677088799999
 30
0.0
  0
VERTEX
  5
9AA
  8
COSM_SKETCH
  6
CONTINUOUS
 62
     7
 10
3.5686233778999989
 20
18.1033421994
 30
0.0
  0
VERTEX
  5
9AB
  8
COSM_SKETCH
  6
CONTINUOUS
 62
     7
 10
3.5801417526999981
 20
18.104658197599999
 30
0.0
  0
VERTEX
  5
9AC
  8
COSM_SKETCH
  6
CONTINUOUS
 62
     7
 10
3.5916960827999991
 20
18.105624990300001
 30
0.0
  0
VERTEX
  5
9AD
  8
COSM_SKETCH
  6
CONTINUOUS
 62
     7
 10
3.6032728156
 20
18.106242484300001
 30
0.0
  0
VERTEX
  5
9AE
  8
COSM_SKETCH
  6
CONTINUOUS
 62
     7
 10
3.6148583980999991
 20
18.106510586399999
 30
0.0
  0
VERTEX
  5
9AF
  8
COSM_SKETCH
  6
CONTINUOUS
 62
     7
 10
3.6264392775999981
 20
18.106429203600001
 30
0.0
  0
SEQEND
  5
9B0
  8
COSM_SKETCH
  6
CONTINUOUS
 62
     7
  0
LINE
  5
27E
  8
COSM_SKETCH
  6
CONTINUOUS
 62
     7
 10
3.2434369612
 20
17.735820396699999
 30
0.0
 11
3.243479187699998
 21
5.5450290158999991
 31
0.0
  0
POLYLINE
  5
27F
  8
COSM_SKETCH
  6
HIDDEN
 62
     8
 66
     1
 10
0.0
 20
0.0
 30
0.0
  0
VERTEX
  5
9B1
  8
COSM_SKETCH
  6
HIDDEN
 62
     8
 10
2.1541819472000001
 20
3.8348199138999992
 30
0.0
  0
VERTEX
  5
9B2
  8
COSM_SKETCH
  6
HIDDEN
 62
     8
 10
2.1458395961000001
 20
3.834805861
 30
0.0
  0
VERTEX
  5
9B3
  8
COSM_SKETCH
  6
HIDDEN
 62
     8
 10
2.137495057199998
 20
3.8350708661000001
 30
0.0
  0
VERTEX
  5
9B4
  8
COSM_SKETCH
  6
HIDDEN
 62
     8
 10
2.1291593347000002
 20
3.8356142067999981
 30
0.0
  0
VERTEX
  5
9B5
  8
COSM_SKETCH
  6
HIDDEN
 62
     8
 10
2.1208434331000001
 20
3.8364351604000002
 30
0.0
  0
VERTEX
  5
9B6
  8
COSM_SKETCH
  6
HIDDEN
 62
     8
 10
2.1125583565000001
 20
3.8375330045
 30
0.0
  0
VERTEX
  5
9B7
  8
COSM_SKETCH
  6
HIDDEN
 62
     8
 10
2.1043151091999981
 20
3.8389070163999981
 30
0.0
  0
VERTEX
  5
9B8
  8
COSM_SKETCH
  6
HIDDEN
 62
     8
 10
2.0961242972999981
 20
3.840556156599999
 30
0.0
  0
VERTEX
  5
9B9
  8
COSM_SKETCH
  6
HIDDEN
 62
     8
 10
2.0879948393999981
 20
3.8424781373000001
 30
0.0
  0
VERTEX
  5
9BA
  8
COSM_SKETCH
  6
HIDDEN
 62
     8
 10
2.0799352559000002
 20
3.844670354899999
 30
0.0
  0
VERTEX
  5
9BB
  8
COSM_SKETCH
  6
HIDDEN
 62
     8
 10
2.0719540673000001
 20
3.8471302056000001
 30
0.0
  0
VERTEX
  5
9BC
  8
COSM_SKETCH
  6
HIDDEN
 62
     8
 10
2.0640597939999989
 20
3.8498550857999989
 30
0.0
  0
VERTEX
  5
9BD
  8
COSM_SKETCH
  6
HIDDEN
 62
     8
 10
2.0562609567000001
 20
3.8528423917999981
 30
0.0
  0
VERTEX
  5
9BE
  8
COSM_SKETCH
  6
HIDDEN
 62
     8
 10
2.0485660283999989
 20
3.8560892444000001
 30
0.0
  0
VERTEX
  5
9BF
  8
COSM_SKETCH
  6
HIDDEN
 62
     8
 10
2.0409834585999991
 20
3.8595915919000001
 30
0.0
  0
VERTEX
  5
9C0
  8
COSM_SKETCH
  6
HIDDEN
 62
     8
 10
2.0335216484999981
 20
3.8633451051999992
 30
0.0
  0
VERTEX
  5
9C1
  8
COSM_SKETCH
  6
HIDDEN
 62
     8
 10
2.0261889994999991
 20
3.8673454552999988
 30
0.0
  0
VERTEX
  5
9C2
  8
COSM_SKETCH
  6
HIDDEN
 62
     8
 10
2.0189939128000001
 20
3.8715883130000002
 30
0.0
  0
VERTEX
  5
9C3
  8
COSM_SKETCH
  6
HIDDEN
 62
     8
 10
2.011944789699998
 20
3.8760693492999989
 30
0.0
  0
VERTEX
  5
9C4
  8
COSM_SKETCH
  6
HIDDEN
 62
     8
 10
2.0050498359999991
 20
3.8807839703999991
 30
0.0
  0
VERTEX
  5
9C5
  8
COSM_SKETCH
  6
HIDDEN
 62
     8
 10
1.9983164637999991
 20
3.8857265320999992
 30
0.0
  0
VERTEX
  5
9C6
  8
COSM_SKETCH
  6
HIDDEN
 62
     8
 10
1.9917518896999991
 20
3.8908911256999992
 30
0.0
  0
VERTEX
  5
9C7
  8
COSM_SKETCH
  6
HIDDEN
 62
     8
 10
1.9853633304
 20
3.8962718422
 30
0.0
  0
VERTEX
  5
9C8
  8
COSM_SKETCH
  6
HIDDEN
 62
     8
 10
1.9791580025
 20
3.9018627729999991
 30
0.0
  0
VERTEX
  5
9C9
  8
COSM_SKETCH
  6
HIDDEN
 62
     8
 10
1.973143122699998
 20
3.9076580091999999
 30
0.0
  0
VERTEX
  5
9CA
  8
COSM_SKETCH
  6
HIDDEN
 62
     8
 10
1.967325691199999
 20
3.9136514306999981
 30
0.0
  0
VERTEX
  5
9CB
  8
COSM_SKETCH
  6
HIDDEN
 62
     8
 10
1.9617118600000001
 20
3.9198360544000002
 30
0.0
  0
VERTEX
  5
9CC
  8
COSM_SKETCH
  6
HIDDEN
 62
     8
 10
1.9563075646000001
 20
3.9262046852999992
 30
0.0
  0
VERTEX
  5
9CD
  8
COSM_SKETCH
  6
HIDDEN
 62
     8
 10
1.9511187403000001
 20
3.9327501289
 30
0.0
  0
VERTEX
  5
9CE
  8
COSM_SKETCH
  6
HIDDEN
 62
     8
 10
1.9461513227
 20
3.9394651901999991
 30
0.0
  0
VERTEX
  5
9CF
  8
COSM_SKETCH
  6
HIDDEN
 62
     8
 10
1.941411247099998
 20
3.9463426744999981
 30
0.0
  0
VERTEX
  5
9D0
  8
COSM_SKETCH
  6
HIDDEN
 62
     8
 10
1.936904182099999
 20
3.9533751955999992
 30
0.0
  0
VERTEX
  5
9D1
  8
COSM_SKETCH
  6
HIDDEN
 62
     8
 10
1.9326347552000001
 20
3.9605545599999989
 30
0.0
  0
VERTEX
  5
9D2
  8
COSM_SKETCH
  6
HIDDEN
 62
     8
 10
1.9286073263999981
 20
3.9678723823999991
 30
0.0
  0
VERTEX
  5
9D3
  8
COSM_SKETCH
  6
HIDDEN
 62
     8
 10
1.9248262559
 20
3.9753202774999989
 30
0.0
  0
VERTEX
  5
9D4
  8
COSM_SKETCH
  6
HIDDEN
 62
     8
 10
1.921295903699999
 20
3.9828898600999989
 30
0.0
  0
VERTEX
  5
9D5
  8
COSM_SKETCH
  6
HIDDEN
 62
     8
 10
1.9180206301
 20
3.9905727450000001
 30
0.0
  0
VERTEX
  5
9D6
  8
COSM_SKETCH
  6
HIDDEN
 62
     8
 10
1.915004517899999
 20
3.9983604974000002
 30
0.0
  0
VERTEX
  5
9D7
  8
COSM_SKETCH
  6
HIDDEN
 62
     8
 10
1.912250477699998
 20
4.006244655199998
 30
0.0
  0
VERTEX
  5
9D8
  8
COSM_SKETCH
  6
HIDDEN
 62
     8
 10
1.909761144499998
 20
4.0142167075000001
 30
0.0
  0
VERTEX
  5
9D9
  8
COSM_SKETCH
  6
HIDDEN
 62
     8
 10
1.907539153499999
 20
4.0222681433999981
 30
0.0
  0
VERTEX
  5
9DA
  8
COSM_SKETCH
  6
HIDDEN
 62
     8
 10
1.9055871397999991
 20
4.030390452099998
 30
0.0
  0
VERTEX
  5
9DB
  8
COSM_SKETCH
  6
HIDDEN
 62
     8
 10
1.903907738799999
 20
4.0385751227999993
 30
0.0
  0
VERTEX
  5
9DC
  8
COSM_SKETCH
  6
HIDDEN
 62
     8
 10
1.9025032716999981
 20
4.0468132402999979
 30
0.0
  0
VERTEX
  5
9DD
  8
COSM_SKETCH
  6
HIDDEN
 62
     8
 10
1.9013748163999991
 20
4.0550942075999981
 30
0.0
  0
VERTEX
  5
9DE
  8
COSM_SKETCH
  6
HIDDEN
 62
     8
 10
1.9005231359000001
 20
4.0634070229999981
 30
0.0
  0
VERTEX
  5
9DF
  8
COSM_SKETCH
  6
HIDDEN
 62
     8
 10
1.8999489936
 20
4.0717406848999991
 30
0.0
  0
VERTEX
  5
9E0
  8
COSM_SKETCH
  6
HIDDEN
 62
     8
 10
1.8996531526
 20
4.0800841919000002
 30
0.0
  0
VERTEX
  5
9E1
  8
COSM_SKETCH
  6
HIDDEN
 62
     8
 10
1.899636376199999
 20
4.0884265423999979
 30
0.0
  0
SEQEND
  5
9E2
  8
COSM_SKETCH
  6
HIDDEN
 62
     8
  0
POLYLINE
  5
2B2
  8
COSM_SKETCH
  6
HIDDEN
 62
     8
 66
     1
 10
0.0
 20
0.0
 30
0.0
  0
VERTEX
  5
9E3
  8
COSM_SKETCH
  6
HIDDEN
 62
     8
 10
3.6286867436999981
 20
5.0435534397000001
 30
0.0
  0
VERTEX
  5
9E4
  8
COSM_SKETCH
  6
HIDDEN
 62
     8
 10
5.4445765853999992
 20
5.0686892664999981
 30
0.0
  0
VERTEX
  5
9E5
  8
COSM_SKETCH
  6
HIDDEN
 62
     8
 10
7.2605479794000001
 20
5.0875414362999987
 30
0.0
  0
VERTEX
  5
9E6
  8
COSM_SKETCH
  6
HIDDEN
 62
     8
 10
9.0765748253999998
 20
5.1001098644000002
 30
0.0
  0
VERTEX
  5
9E7
  8
COSM_SKETCH
  6
HIDDEN
 62
     8
 10
10.892667769499999
 20
5.1063945101000003
 30
0.0
  0
VERTEX
  5
9E8
  8
COSM_SKETCH
  6
HIDDEN
 62
     8
 10
12.7087704964
 20
5.1063948921999991
 30
0.0
  0
VERTEX
  5
9E9
  8
COSM_SKETCH
  6
HIDDEN
 62
     8
 10
14.5248634357
 20
5.1001108204000003
 30
0.0
  0
VERTEX
  5
9EA
  8
COSM_SKETCH
  6
HIDDEN
 62
     8
 10
16.340916293100001
 20
5.087542297799998
 30
0.0
  0
VERTEX
  5
9EB
  8
COSM_SKETCH
  6
HIDDEN
 62
     8
 10
18.156913702099999
 20
5.0686896663000001
 30
0.0
  0
VERTEX
  5
9EC
  8
COSM_SKETCH
  6
HIDDEN
 62
     8
 10
19.972829571799998
 20
5.0435533943999991
 30
0.0
  0
SEQEND
  5
9ED
  8
COSM_SKETCH
  6
HIDDEN
 62
     8
  0
POLYLINE
  5
2BE
  8
COSM_SKETCH
  6
HIDDEN
 62
     8
 66
     1
 10
0.0
 20
0.0
 30
0.0
  0
VERTEX
  5
9EE
  8
COSM_SKETCH
  6
HIDDEN
 62
     8
 10
3.6290775542999989
 20
5.043562162099998
 30
0.0
  0
VERTEX
  5
9EF
  8
COSM_SKETCH
  6
HIDDEN
 62
     8
 10
3.6148173300999988
 20
5.0434487973999991
 30
0.0
  0
VERTEX
  5
9F0
  8
COSM_SKETCH
  6
HIDDEN
 62
     8
 10
3.6005519513999991
 20
5.0437387428999987
 30
0.0
  0
VERTEX
  5
9F1
  8
COSM_SKETCH
  6
HIDDEN
 62
     8
 10
3.5862938017000001
 20
5.0444324723999987
 30
0.0
  0
VERTEX
  5
9F2
  8
COSM_SKETCH
  6
HIDDEN
 62
     8
 10
3.5720552643999981
 20
5.0455304597000001
 30
0.0
  0
VERTEX
  5
9F3
  8
COSM_SKETCH
  6
HIDDEN
 62
     8
 10
3.5578487230000002
 20
5.0470331785000004
 30
0.0
  0
VERTEX
  5
9F4
  8
COSM_SKETCH
  6
HIDDEN
 62
     8
 10
3.5436865608999981
 20
5.0489411024999979
 30
0.0
  0
VERTEX
  5
9F5
  8
COSM_SKETCH
  6
HIDDEN
 62
     8
 10
3.527959894199999
 20
5.0515468286000003
 30
0.0
  0
VERTEX
  5
9F6
  8
COSM_SKETCH
  6
HIDDEN
 62
     8
 10
3.5123201222999989
 20
5.0546544387000001
 30
0.0
  0
VERTEX
  5
9F7
  8
COSM_SKETCH
  6
HIDDEN
 62
     8
 10
3.496783542599998
 20
5.0582612606000001
 30
0.0
  0
VERTEX
  5
9F8
  8
COSM_SKETCH
  6
HIDDEN
 62
     8
 10
3.4813664523000001
 20
5.0623646220999987
 30
0.0
  0
VERTEX
  5
9F9
  8
COSM_SKETCH
  6
HIDDEN
 62
     8
 10
3.4660851485999991
 20
5.0669618510000003
 30
0.0
  0
VERTEX
  5
9FA
  8
COSM_SKETCH
  6
HIDDEN
 62
     8
 10
3.4509559289
 20
5.0720502752999987
 30
0.0
  0
VERTEX
  5
9FB
  8
COSM_SKETCH
  6
HIDDEN
 62
     8
 10
3.4371936024999981
 20
5.077159459199998
 30
0.0
  0
VERTEX
  5
9FC
  8
COSM_SKETCH
  6
HIDDEN
 62
     8
 10
3.4235859594999991
 20
5.0826766894999986
 30
0.0
  0
VERTEX
  5
9FD
  8
COSM_SKETCH
  6
HIDDEN
 62
     8
 10
3.4101453379
 20
5.0885970262000004
 30
0.0
  0
VERTEX
  5
9FE
  8
COSM_SKETCH
  6
HIDDEN
 62
     8
 10
3.3968840754
 20
5.0949155295999979
 30
0.0
  0
VERTEX
  5
9FF
  8
COSM_SKETCH
  6
HIDDEN
 62
     8
 10
3.3838145101000001
 20
5.1016272599999981
 30
0.0
  0
VERTEX
  5
A00
  8
COSM_SKETCH
  6
HIDDEN
 62
     8
 10
3.3709489797000001
 20
5.1087272772999981
 30
0.0
  0
VERTEX
  5
A01
  8
COSM_SKETCH
  6
HIDDEN
 62
     8
 10
3.3582998221999989
 20
5.1162106419999986
 30
0.0
  0
VERTEX
  5
A02
  8
COSM_SKETCH
  6
HIDDEN
 62
     8
 10
3.3454007066
 20
5.124385263299998
 30
0.0
  0
VERTEX
  5
A03
  8
COSM_SKETCH
  6
HIDDEN
 62
     8
 10
3.332760717999999
 20
5.1329592809999989
 30
0.0
  0
VERTEX
  5
A04
  8
COSM_SKETCH
  6
HIDDEN
 62
     8
 10
3.3203921310000002
 20
5.1419236684999987
 30
0.0
  0
VERTEX
  5
A05
  8
COSM_SKETCH
  6
HIDDEN
 62
     8
 10
3.3083072205000001
 20
5.1512693992000003
 30
0.0
  0
VERTEX
  5
A06
  8
COSM_SKETCH
  6
HIDDEN
 62
     8
 10
3.2965182612000001
 20
5.1609874465000001
 30
0.0
  0
VERTEX
  5
A07
  8
COSM_SKETCH
  6
HIDDEN
 62
     8
 10
3.2850375276999979
 20
5.1710687839
 30
0.0
  0
VERTEX
  5
A08
  8
COSM_SKETCH
  6
HIDDEN
 62
     8
 10
3.2738772949000001
 20
5.1815043848000002
 30
0.0
  0
VERTEX
  5
A09
  8
COSM_SKETCH
  6
HIDDEN
 62
     8
 10
3.2629296340999989
 20
5.192407799199998
 30
0.0
  0
VERTEX
  5
A0A
  8
COSM_SKETCH
  6
HIDDEN
 62
     8
 10
3.2523321332999982
 20
5.2036519435999979
 30
0.0
  0
VERTEX
  5
A0B
  8
COSM_SKETCH
  6
HIDDEN
 62
     8
 10
3.2420946562999982
 20
5.2152245088999987
 30
0.0
  0
VERTEX
  5
A0C
  8
COSM_SKETCH
  6
HIDDEN
 62
     8
 10
3.232227066999998
 20
5.2271131856000004
 30
0.0
  0
VERTEX
  5
A0D
  8
COSM_SKETCH
  6
HIDDEN
 62
     8
 10
3.2227392291000001
 20
5.239305664399998
 30
0.0
  0
VERTEX
  5
A0E
  8
COSM_SKETCH
  6
HIDDEN
 62
     8
 10
3.2136410064999992
 20
5.2517896361999981
 30
0.0
  0
VERTEX
  5
A0F
  8
COSM_SKETCH
  6
HIDDEN
 62
     8
 10
3.2049422628999991
 20
5.2645527914999981
 30
0.0
  0
VERTEX
  5
A10
  8
COSM_SKETCH
  6
HIDDEN
 62
     8
 10
3.1967832904
 20
5.2773693364999987
 30
0.0
  0
VERTEX
  5
A11
  8
COSM_SKETCH
  6
HIDDEN
 62
     8
 10
3.1890264597
 20
5.290430698499998
 30
0.0
  0
VERTEX
  5
A12
  8
COSM_SKETCH
  6
HIDDEN
 62
     8
 10
3.181677727299999
 20
5.3037233985999981
 30
0.0
  0
VERTEX
  5
A13
  8
COSM_SKETCH
  6
HIDDEN
 62
     8
 10
3.1747430501
 20
5.3172339577000001
 30
0.0
  0
VERTEX
  5
A14
  8
COSM_SKETCH
  6
HIDDEN
 62
     8
 10
3.168228384799999
 20
5.3309488971999981
 30
0.0
  0
VERTEX
  5
A15
  8
COSM_SKETCH
  6
HIDDEN
 62
     8
 10
3.162139688099999
 20
5.3448547380000004
 30
0.0
  0
VERTEX
  5
A16
  8
COSM_SKETCH
  6
HIDDEN
 62
     8
 10
3.1564829167999982
 20
5.3589380012000003
 30
0.0
  0
VERTEX
  5
A17
  8
COSM_SKETCH
  6
HIDDEN
 62
     8
 10
3.1515169447
 20
5.3724606976000002
 30
0.0
  0
VERTEX
  5
A18
  8
COSM_SKETCH
  6
HIDDEN
 62
     8
 10
3.146947899499998
 20
5.386119206
 30
0.0
  0
VERTEX
  5
A19
  8
COSM_SKETCH
  6
HIDDEN
 62
     8
 10
3.1427780067999991
 20
5.3999015620000002
 30
0.0
  0
VERTEX
  5
A1A
  8
COSM_SKETCH
  6
HIDDEN
 62
     8
 10
3.1390094924
 20
5.4137958011
 30
0.0
  0
VERTEX
  5
A1B
  8
COSM_SKETCH
  6
HIDDEN
 62
     8
 10
3.1356445820999981
 20
5.4277899589
 30
0.0
  0
VERTEX
  5
A1C
  8
COSM_SKETCH
  6
HIDDEN
 62
     8
 10
3.1326855017000002
 20
5.4418720708999988
 30
0.0
  0
VERTEX
  5
A1D
  8
COSM_SKETCH
  6
HIDDEN
 62
     8
 10
3.1301344767999981
 20
5.4560301727000002
 30
0.0
  0
VERTEX
  5
A1E
  8
COSM_SKETCH
  6
HIDDEN
 62
     8
 10
3.1278741441000002
 20
5.4711351152000001
 30
0.0
  0
VERTEX
  5
A1F
  8
COSM_SKETCH
  6
HIDDEN
 62
     8
 10
3.1260761102999992
 20
5.4862971613999987
 30
0.0
  0
VERTEX
  5
A20
  8
COSM_SKETCH
  6
HIDDEN
 62
     8
 10
3.124739981599999
 20
5.501501210699999
 30
0.0
  0
VERTEX
  5
A21
  8
COSM_SKETCH
  6
HIDDEN
 62
     8
 10
3.1238653642999989
 20
5.5167321624000003
 30
0.0
  0
VERTEX
  5
A22
  8
COSM_SKETCH
  6
HIDDEN
 62
     8
 10
3.123451864499998
 20
5.5319749162000003
 30
0.0
  0
VERTEX
  5
A23
  8
COSM_SKETCH
  6
HIDDEN
 62
     8
 10
3.1234990883999991
 20
5.5472143712999991
 30
0.0
  0
SEQEND
  5
A24
  8
COSM_SKETCH
  6
HIDDEN
 62
     8
  0
POLYLINE
  5
2F6
  8
COSM_SKETCH
  6
CONTINUOUS
 62
     7
 66
     1
 10
0.0
 20
0.0
 30
0.0
  0
VERTEX
  5
A25
  8
COSM_SKETCH
  6
CONTINUOUS
 62
     7
 10
3.6264273872000001
 20
5.1635328944000003
 30
0.0
  0
VERTEX
  5
A26
  8
COSM_SKETCH
  6
CONTINUOUS
 62
     7
 10
3.6155627844999989
 20
5.1634466890999988
 30
0.0
  0
VERTEX
  5
A27
  8
COSM_SKETCH
  6
CONTINUOUS
 62
     7
 10
3.6046943683999988
 20
5.1636678282000004
 30
0.0
  0
VERTEX
  5
A28
  8
COSM_SKETCH
  6
CONTINUOUS
 62
     7
 10
3.5938332334999989
 20
5.164196313999998
 30
0.0
  0
VERTEX
  5
A29
  8
COSM_SKETCH
  6
CONTINUOUS
 62
     7
 10
3.5829904740999989
 20
5.1650321492999991
 30
0.0
  0
VERTEX
  5
A2A
  8
COSM_SKETCH
  6
CONTINUOUS
 62
     7
 10
3.5721771847000001
 20
5.1661753366000003
 30
0.0
  0
VERTEX
  5
A2B
  8
COSM_SKETCH
  6
CONTINUOUS
 62
     7
 10
3.5614044598999981
 20
5.1676258784999991
 30
0.0
  0
VERTEX
  5
A2C
  8
COSM_SKETCH
  6
CONTINUOUS
 62
     7
 10
3.5494511743000001
 20
5.1696056901
 30
0.0
  0
VERTEX
  5
A2D
  8
COSM_SKETCH
  6
CONTINUOUS
 62
     7
 10
3.5375734433999981
 20
5.1719654097000003
 30
0.0
  0
VERTEX
  5
A2E
  8
COSM_SKETCH
  6
CONTINUOUS
 62
     7
 10
3.5257825718000002
 20
5.1747026752999981
 30
0.0
  0
VERTEX
  5
A2F
  8
COSM_SKETCH
  6
CONTINUOUS
 62
     7
 10
3.5140898644999981
 20
5.1778151245999986
 30
0.0
  0
VERTEX
  5
A30
  8
COSM_SKETCH
  6
CONTINUOUS
 62
     7
 10
3.5025066260000002
 20
5.1813003958000001
 30
0.0
  0
VERTEX
  5
A31
  8
COSM_SKETCH
  6
CONTINUOUS
 62
     7
 10
3.4910441612000001
 20
5.185156126699999
 30
0.0
  0
VERTEX
  5
A32
  8
COSM_SKETCH
  6
CONTINUOUS
 62
     7
 10
3.4806214143999981
 20
5.1890257842
 30
0.0
  0
VERTEX
  5
A33
  8
COSM_SKETCH
  6
CONTINUOUS
 62
     7
 10
3.4703195028999989
 20
5.1932027509000003
 30
0.0
  0
VERTEX
  5
A34
  8
COSM_SKETCH
  6
CONTINUOUS
 62
     7
 10
3.4601476058999991
 20
5.1976831544999991
 30
0.0
  0
VERTEX
  5
A35
  8
COSM_SKETCH
  6
CONTINUOUS
 62
     7
 10
3.450114902699998
 20
5.2024631231000003
 30
0.0
  0
VERTEX
  5
A36
  8
COSM_SKETCH
  6
CONTINUOUS
 62
     7
 10
3.4402305725999991
 20
5.2075387843999987
 30
0.0
  0
VERTEX
  5
A37
  8
COSM_SKETCH
  6
CONTINUOUS
 62
     7
 10
3.430503794799999
 20
5.2129062665000001
 30
0.0
  0
VERTEX
  5
A38
  8
COSM_SKETCH
  6
CONTINUOUS
 62
     7
 10
3.4209437486000001
 20
5.2185616971000002
 30
0.0
  0
VERTEX
  5
A39
  8
COSM_SKETCH
  6
CONTINUOUS
 62
     7
 10
3.4111979594999982
 20
5.2247375778
 30
0.0
  0
VERTEX
  5
A3A
  8
COSM_SKETCH
  6
CONTINUOUS
 62
     7
 10
3.4016507800000002
 20
5.2312134328999988
 30
0.0
  0
VERTEX
  5
A3B
  8
COSM_SKETCH
  6
CONTINUOUS
 62
     7
 10
3.3923109552999979
 20
5.2379826272000001
 30
0.0
  0
VERTEX
  5
A3C
  8
COSM_SKETCH
  6
CONTINUOUS
 62
     7
 10
3.3831872306999982
 20
5.2450385256000001
 30
0.0
  0
VERTEX
  5
A3D
  8
COSM_SKETCH
  6
CONTINUOUS
 62
     7
 10
3.3742883517000002
 20
5.2523744926999987
 30
0.0
  0
VERTEX
  5
A3E
  8
COSM_SKETCH
  6
CONTINUOUS
 62
     7
 10
3.3656230633999979
 20
5.2599838934000003
 30
0.0
  0
VERTEX
  5
A3F
  8
COSM_SKETCH
  6
CONTINUOUS
 62
     7
 10
3.3572001113000001
 20
5.2678600926000003
 30
0.0
  0
VERTEX
  5
A40
  8
COSM_SKETCH
  6
CONTINUOUS
 62
     7
 10
3.3489375679000002
 20
5.2760890189999987
 30
0.0
  0
VERTEX
  5
A41
  8
COSM_SKETCH
  6
CONTINUOUS
 62
     7
 10
3.340938997299999
 20
5.284575219199998
 30
0.0
  0
VERTEX
  5
A42
  8
COSM_SKETCH
  6
CONTINUOUS
 62
     7
 10
3.3332116161999981
 20
5.293309924099999
 30
0.0
  0
VERTEX
  5
A43
  8
COSM_SKETCH
  6
CONTINUOUS
 62
     7
 10
3.3257626413999981
 20
5.3022843646000002
 30
0.0
  0
VERTEX
  5
A44
  8
COSM_SKETCH
  6
CONTINUOUS
 62
     7
 10
3.318599289699999
 20
5.3114897715999989
 30
0.0
  0
VERTEX
  5
A45
  8
COSM_SKETCH
  6
CONTINUOUS
 62
     7
 10
3.3117287776999991
 20
5.3209173757999979
 30
0.0
  0
VERTEX
  5
A46
  8
COSM_SKETCH
  6
CONTINUOUS
 62
     7
 10
3.3051583223000001
 20
5.330558408099999
 30
0.0
  0
VERTEX
  5
A47
  8
COSM_SKETCH
  6
CONTINUOUS
 62
     7
 10
3.2989937624999981
 20
5.3402427040999987
 30
0.0
  0
VERTEX
  5
A48
  8
COSM_SKETCH
  6
CONTINUOUS
 62
     7
 10
3.2931312217999991
 20
5.350115064399998
 30
0.0
  0
VERTEX
  5
A49
  8
COSM_SKETCH
  6
CONTINUOUS
 62
     7
 10
3.2875753233
 20
5.3601654725000003
 30
0.0
  0
VERTEX
  5
A4A
  8
COSM_SKETCH
  6
CONTINUOUS
 62
     7
 10
3.2823306898000002
 20
5.3703839124000003
 30
0.0
  0
VERTEX
  5
A4B
  8
COSM_SKETCH
  6
CONTINUOUS
 62
     7
 10
3.2774019441000002
 20
5.380760367799998
 30
0.0
  0
VERTEX
  5
A4C
  8
COSM_SKETCH
  6
CONTINUOUS
 62
     7
 10
3.2727937093000001
 20
5.3912848225000003
 30
0.0
  0
VERTEX
  5
A4D
  8
COSM_SKETCH
  6
CONTINUOUS
 62
     7
 10
3.2685106081999979
 20
5.4019472601
 30
0.0
  0
VERTEX
  5
A4E
  8
COSM_SKETCH
  6
CONTINUOUS
 62
     7
 10
3.2647489179
 20
5.4121889540999986
 30
0.0
  0
VERTEX
  5
A4F
  8
COSM_SKETCH
  6
CONTINUOUS
 62
     7
 10
3.261286383599999
 20
5.4225377348999979
 30
0.0
  0
VERTEX
  5
A50
  8
COSM_SKETCH
  6
CONTINUOUS
 62
     7
 10
3.2581249231
 20
5.4329853422000003
 30
0.0
  0
VERTEX
  5
A51
  8
COSM_SKETCH
  6
CONTINUOUS
 62
     7
 10
3.2552664542
 20
5.4435235150999981
 30
0.0
  0
VERTEX
  5
A52
  8
COSM_SKETCH
  6
CONTINUOUS
 62
     7
 10
3.2527128948000001
 20
5.4541439931999989
 30
0.0
  0
VERTEX
  5
A53
  8
COSM_SKETCH
  6
CONTINUOUS
 62
     7
 10
3.2504661626999991
 20
5.4648385159000004
 30
0.0
  0
VERTEX
  5
A54
  8
COSM_SKETCH
  6
CONTINUOUS
 62
     7
 10
3.248528175799998
 20
5.4755988225000003
 30
0.0
  0
VERTEX
  5
A55
  8
COSM_SKETCH
  6
CONTINUOUS
 62
     7
 10
3.246809938399998
 20
5.487087933599998
 30
0.0
  0
VERTEX
  5
A56
  8
COSM_SKETCH
  6
CONTINUOUS
 62
     7
 10
3.2454421983999979
 20
5.4986282722000004
 30
0.0
  0
VERTEX
  5
A57
  8
COSM_SKETCH
  6
CONTINUOUS
 62
     7
 10
3.2444251045999981
 20
5.5102061939000002
 30
0.0
  0
VERTEX
  5
A58
  8
COSM_SKETCH
  6
CONTINUOUS
 62
     7
 10
3.243758805699998
 20
5.5218080546000001
 30
0.0
  0
VERTEX
  5
A59
  8
COSM_SKETCH
  6
CONTINUOUS
 62
     7
 10
3.2434434504
 20
5.5334202100000001
 30
0.0
  0
VERTEX
  5
A5A
  8
COSM_SKETCH
  6
CONTINUOUS
 62
     7
 10
3.243479187699998
 20
5.5450290158999991
 30
0.0
  0
SEQEND
  5
A5B
  8
COSM_SKETCH
  6
CONTINUOUS
 62
     7
  0
LINE
  5
32E
  8
COSM_SKETCH
  6
CONTINUOUS
 62
     7
 10
3.6264273872000001
 20
5.1635328944000003
 30
0.0
 11
19.9750895295
 21
5.163531880799999
 31
0.0
  0
LINE
  5
32F
  8
COSM_SKETCH
  6
CENTER
 62
     2
 10
1.8302997681999991
 20
6.1112987564000001
 30
0.0
 11
1.3302997681999991
 21
6.1112987564000001
 31
0.0
  0
LINE
  5
330
  8
COSM_SKETCH
  6
CENTER
 62
     2
 10
21.7712170157
 20
6.1112987564000001
 30
0.0
 11
22.2712170157
 21
6.1112987564000001
 31
0.0
  0
LINE
  5
331
  8
DEFAULT_1
  6
CENTER
 62
     2
 10
11.800758392000001
 20
11.634988289500001
 30
0.0
 11
11.800758392000001
 21
3.409181837899999
 31
0.0
  0
LINE
  5
332
  8
DEFAULT_1
  6
CENTER
 62
     2
 10
11.800758392000001
 20
11.634988289500001
 30
0.0
 11
11.800758392000001
 21
19.545175025300001
 31
0.0
  0
LINE
  5
333
  8
DEFAULT_1
  6
CENTER
 62
     2
 10
11.800758392000001
 20
11.634988289500001
 30
0.0
 11
1.6555971015999991
 21
11.634988289500001
 31
0.0
  0
LINE
  5
334
  8
DEFAULT_1
  6
CENTER
 62
     2
 10
11.800758392000001
 20
11.634988289500001
 30
0.0
 11
21.9116454887
 21
11.634988289500001
 31
0.0
  0
LINE
  5
335
  8
COSM_SKETCH
  6
CENTER
 62
     2
 10
1.8302997681999991
 20
17.158677822600001
 30
0.0
 11
1.3302997681999991
 21
17.158677822600001
 31
0.0
  0
LINE
  5
336
  8
COSM_SKETCH
  6
CENTER
 62
     2
 10
21.7712170157
 20
17.158677822600001
 30
0.0
 11
22.2712170157
 21
17.158677822600001
 31
0.0
  0
POLYLINE
  5
337
  8
COSM_SKETCH
  6
HIDDEN
 62
     8
 66
     1
 10
0.0
 20
0.0
 30
0.0
  0
VERTEX
  5
A5C
  8
COSM_SKETCH
  6
HIDDEN
 62
     8
 10
19.9728142399
 20
18.226407573500001
 30
0.0
  0
VERTEX
  5
A5D
  8
COSM_SKETCH
  6
HIDDEN
 62
     8
 10
18.156928369500001
 20
18.201221124100002
 30
0.0
  0
VERTEX
  5
A5E
  8
COSM_SKETCH
  6
HIDDEN
 62
     8
 10
16.340960617499999
 20
18.182330994400001
 30
0.0
  0
VERTEX
  5
A5F
  8
COSM_SKETCH
  6
HIDDEN
 62
     8
 10
14.524937189599999
 20
18.1697372633
 30
0.0
  0
VERTEX
  5
A60
  8
COSM_SKETCH
  6
HIDDEN
 62
     8
 10
12.7088473177
 20
18.1634399659
 30
0.0
  0
VERTEX
  5
A61
  8
COSM_SKETCH
  6
HIDDEN
 62
     8
 10
10.8927476236
 20
18.163439584700001
 30
0.0
  0
VERTEX
  5
A62
  8
COSM_SKETCH
  6
HIDDEN
 62
     8
 10
9.0766577564999995
 20
18.169736309400001
 30
0.0
  0
VERTEX
  5
A63
  8
COSM_SKETCH
  6
HIDDEN
 62
     8
 10
7.2606084375000002
 20
18.182330134800001
 30
0.0
  0
VERTEX
  5
A64
  8
COSM_SKETCH
  6
HIDDEN
 62
     8
 10
5.4446147908000002
 20
18.201220725100001
 30
0.0
  0
VERTEX
  5
A65
  8
COSM_SKETCH
  6
HIDDEN
 62
     8
 10
3.6287030127999991
 20
18.2264076186
 30
0.0
  0
SEQEND
  5
A66
  8
COSM_SKETCH
  6
HIDDEN
 62
     8
  0
POLYLINE
  5
343
  8
COSM_SKETCH
  6
CONTINUOUS
 62
     7
 66
     1
 10
0.0
 20
0.0
 30
0.0
  0
VERTEX
  5
A67
  8
COSM_SKETCH
  6
CONTINUOUS
 62
     7
 10
19.9750773743
 20
18.106428190300001
 30
0.0
  0
VERTEX
  5
A68
  8
COSM_SKETCH
  6
CONTINUOUS
 62
     7
 10
19.9859419219
 20
18.1065147393
 30
0.0
  0
VERTEX
  5
A69
  8
COSM_SKETCH
  6
CONTINUOUS
 62
     7
 10
19.996810292300001
 20
18.106293947600001
 30
0.0
  0
VERTEX
  5
A6A
  8
COSM_SKETCH
  6
CONTINUOUS
 62
     7
 10
20.007671391300001
 20
18.105765812400001
 30
0.0
  0
VERTEX
  5
A6B
  8
COSM_SKETCH
  6
CONTINUOUS
 62
     7
 10
20.018514124700001
 20
18.104930330599998
 30
0.0
  0
VERTEX
  5
A6C
  8
COSM_SKETCH
  6
CONTINUOUS
 62
     7
 10
20.029327398300001
 20
18.103787499300001
 30
0.0
  0
VERTEX
  5
A6D
  8
COSM_SKETCH
  6
CONTINUOUS
 62
     7
 10
20.040100118000002
 20
18.102337315500002
 30
0.0
  0
VERTEX
  5
A6E
  8
COSM_SKETCH
  6
CONTINUOUS
 62
     7
 10
20.052053646000001
 20
18.100357862500001
 30
0.0
  0
VERTEX
  5
A6F
  8
COSM_SKETCH
  6
CONTINUOUS
 62
     7
 10
20.063931629599999
 20
18.097998488199998
 30
0.0
  0
VERTEX
  5
A70
  8
COSM_SKETCH
  6
CONTINUOUS
 62
     7
 10
20.075722763400002
 20
18.095261554499999
 30
0.0
  0
VERTEX
  5
A71
  8
COSM_SKETCH
  6
CONTINUOUS
 62
     7
 10
20.087415741899999
 20
18.092149422999999
 30
0.0
  0
VERTEX
  5
A72
  8
COSM_SKETCH
  6
CONTINUOUS
 62
     7
 10
20.098999259799999
 20
18.0886644556
 30
0.0
  0
VERTEX
  5
A73
  8
COSM_SKETCH
  6
CONTINUOUS
 62
     7
 10
20.110462011700001
 20
18.084809014099999
 30
0.0
  0
VERTEX
  5
A74
  8
COSM_SKETCH
  6
CONTINUOUS
 62
     7
 10
20.120885145500001
 20
18.080939564299999
 30
0.0
  0
VERTEX
  5
A75
  8
COSM_SKETCH
  6
CONTINUOUS
 62
     7
 10
20.131187446599998
 20
18.076762785899991
 30
0.0
  0
VERTEX
  5
A76
  8
COSM_SKETCH
  6
CONTINUOUS
 62
     7
 10
20.141359735000002
 20
18.072282551099999
 30
0.0
  0
VERTEX
  5
A77
  8
COSM_SKETCH
  6
CONTINUOUS
 62
     7
 10
20.151392830500001
 20
18.067502732000001
 30
0.0
  0
VERTEX
  5
A78
  8
COSM_SKETCH
  6
CONTINUOUS
 62
     7
 10
20.161277553000001
 20
18.0624272007
 30
0.0
  0
VERTEX
  5
A79
  8
COSM_SKETCH
  6
CONTINUOUS
 62
     7
 10
20.171004722599999
 20
18.057059829500002
 30
0.0
  0
VERTEX
  5
A7A
  8
COSM_SKETCH
  6
CONTINUOUS
 62
     7
 10
20.1805651592
 20
18.051404490300001
 30
0.0
  0
VERTEX
  5
A7B
  8
COSM_SKETCH
  6
CONTINUOUS
 62
     7
 10
20.190311404700001
 20
18.045228649199998
 30
0.0
  0
VERTEX
  5
A7C
  8
COSM_SKETCH
  6
CONTINUOUS
 62
     7
 10
20.199859035100001
 20
18.0387528099
 30
0.0
  0
VERTEX
  5
A7D
  8
COSM_SKETCH
  6
CONTINUOUS
 62
     7
 10
20.2091993041
 20
18.031983608099999
 30
0.0
  0
VERTEX
  5
A7E
  8
COSM_SKETCH
  6
CONTINUOUS
 62
     7
 10
20.218323465299999
 20
18.024927679400001
 30
0.0
  0
VERTEX
  5
A7F
  8
COSM_SKETCH
  6
CONTINUOUS
 62
     7
 10
20.227222772499999
 20
18.017591659499999
 30
0.0
  0
VERTEX
  5
A80
  8
COSM_SKETCH
  6
CONTINUOUS
 62
     7
 10
20.2358884792
 20
18.009982183999991
 30
0.0
  0
VERTEX
  5
A81
  8
COSM_SKETCH
  6
CONTINUOUS
 62
     7
 10
20.2443118393
 20
18.00210588849999
 30
0.0
  0
VERTEX
  5
A82
  8
COSM_SKETCH
  6
CONTINUOUS
 62
     7
 10
20.252574790899999
 20
17.9938768355
 30
0.0
  0
VERTEX
  5
A83
  8
COSM_SKETCH
  6
CONTINUOUS
 62
     7
 10
20.260573756700001
 20
17.9853904874
 30
0.0
  0
VERTEX
  5
A84
  8
COSM_SKETCH
  6
CONTINUOUS
 62
     7
 10
20.2683015189
 20
17.976655613999991
 30
0.0
  0
VERTEX
  5
A85
  8
COSM_SKETCH
  6
CONTINUOUS
 62
     7
 10
20.275750859999999
 20
17.967680985299999
 30
0.0
  0
VERTEX
  5
A86
  8
COSM_SKETCH
  6
CONTINUOUS
 62
     7
 10
20.2829145625
 20
17.958475371199999
 30
0.0
  0
VERTEX
  5
A87
  8
COSM_SKETCH
  6
CONTINUOUS
 62
     7
 10
20.2897854086
 20
17.949047541599999
 30
0.0
  0
VERTEX
  5
A88
  8
COSM_SKETCH
  6
CONTINUOUS
 62
     7
 10
20.296356180899998
 20
17.939406266500001
 30
0.0
  0
VERTEX
  5
A89
  8
COSM_SKETCH
  6
CONTINUOUS
 62
     7
 10
20.3025210136
 20
17.929721750100001
 30
0.0
  0
VERTEX
  5
A8A
  8
COSM_SKETCH
  6
CONTINUOUS
 62
     7
 10
20.308383811199999
 20
17.919849155600001
 30
0.0
  0
VERTEX
  5
A8B
  8
COSM_SKETCH
  6
CONTINUOUS
 62
     7
 10
20.3139399503
 20
17.909798500200001
 30
0.0
  0
VERTEX
  5
A8C
  8
COSM_SKETCH
  6
CONTINUOUS
 62
     7
 10
20.319184807599999
 20
17.8995798009
 30
0.0
  0
VERTEX
  5
A8D
  8
COSM_SKETCH
  6
CONTINUOUS
 62
     7
 10
20.324113759799999
 20
17.889203074699999
 30
0.0
  0
VERTEX
  5
A8E
  8
COSM_SKETCH
  6
CONTINUOUS
 62
     7
 10
20.3287221834
 20
17.8786783388
 30
0.0
  0
VERTEX
  5
A8F
  8
COSM_SKETCH
  6
CONTINUOUS
 62
     7
 10
20.333005455199999
 20
17.868015610200001
 30
0.0
  0
VERTEX
  5
A90
  8
COSM_SKETCH
  6
CONTINUOUS
 62
     7
 10
20.3367672567
 20
17.857773727800001
 30
0.0
  0
VERTEX
  5
A91
  8
COSM_SKETCH
  6
CONTINUOUS
 62
     7
 10
20.340229890900002
 20
17.8474247531
 30
0.0
  0
VERTEX
  5
A92
  8
COSM_SKETCH
  6
CONTINUOUS
 62
     7
 10
20.343391439800001
 20
17.836976947299991
 30
0.0
  0
VERTEX
  5
A93
  8
COSM_SKETCH
  6
CONTINUOUS
 62
     7
 10
20.346249985499998
 20
17.826438571600001
 30
0.0
  0
VERTEX
  5
A94
  8
COSM_SKETCH
  6
CONTINUOUS
 62
     7
 10
20.348803610200001
 20
17.815817887000001
 30
0.0
  0
VERTEX
  5
A95
  8
COSM_SKETCH
  6
CONTINUOUS
 62
     7
 10
20.351050395800002
 20
17.805123154699999
 30
0.0
  0
VERTEX
  5
A96
  8
COSM_SKETCH
  6
CONTINUOUS
 62
     7
 10
20.352988424500001
 20
17.794362635700001
 30
0.0
  0
VERTEX
  5
A97
  8
COSM_SKETCH
  6
CONTINUOUS
 62
     7
 10
20.3547066665
 20
17.7828734952
 30
0.0
  0
VERTEX
  5
A98
  8
COSM_SKETCH
  6
CONTINUOUS
 62
     7
 10
20.3560744097
 20
17.771333126999991
 30
0.0
  0
VERTEX
  5
A99
  8
COSM_SKETCH
  6
CONTINUOUS
 62
     7
 10
20.3570915056
 20
17.7597551755
 30
0.0
  0
VERTEX
  5
A9A
  8
COSM_SKETCH
  6
CONTINUOUS
 62
     7
 10
20.357757805199999
 20
17.748153284800001
 30
0.0
  0
VERTEX
  5
A9B
  8
COSM_SKETCH
  6
CONTINUOUS
 62
     7
 10
20.358073159900002
 20
17.736541099099991
 30
0.0
  0
VERTEX
  5
A9C
  8
COSM_SKETCH
  6
CONTINUOUS
 62
     7
 10
20.358037420900001
 20
17.724932262799999
 30
0.0
  0
SEQEND
  5
A9D
  8
COSM_SKETCH
  6
CONTINUOUS
 62
     7
  0
POLYLINE
  5
37B
  8
COSM_SKETCH
  6
HIDDEN
 62
     8
 66
     1
 10
0.0
 20
0.0
 30
0.0
  0
VERTEX
  5
A9E
  8
COSM_SKETCH
  6
HIDDEN
 62
     8
 10
19.9724234183
 20
18.2263988389
 30
0.0
  0
VERTEX
  5
A9F
  8
COSM_SKETCH
  6
HIDDEN
 62
     8
 10
19.986683564
 20
18.226512654699999
 30
0.0
  0
VERTEX
  5
AA0
  8
COSM_SKETCH
  6
HIDDEN
 62
     8
 10
20.000948876900001
 20
18.2262231652
 30
0.0
  0
VERTEX
  5
AA1
  8
COSM_SKETCH
  6
HIDDEN
 62
     8
 10
20.015206974000002
 20
18.225529896200001
 30
0.0
  0
VERTEX
  5
AA2
  8
COSM_SKETCH
  6
HIDDEN
 62
     8
 10
20.029445471999999
 20
18.224432373599999
 30
0.0
  0
VERTEX
  5
AA3
  8
COSM_SKETCH
  6
HIDDEN
 62
     8
 10
20.043651987800001
 20
18.222930123099999
 30
0.0
  0
VERTEX
  5
AA4
  8
COSM_SKETCH
  6
HIDDEN
 62
     8
 10
20.057814138299999
 20
18.221022670499998
 30
0.0
  0
VERTEX
  5
AA5
  8
COSM_SKETCH
  6
HIDDEN
 62
     8
 10
20.073541119000001
 20
18.218417417000001
 30
0.0
  0
VERTEX
  5
AA6
  8
COSM_SKETCH
  6
HIDDEN
 62
     8
 10
20.089181218899999
 20
18.215310262500001
 30
0.0
  0
VERTEX
  5
AA7
  8
COSM_SKETCH
  6
HIDDEN
 62
     8
 10
20.104718139999999
 20
18.211703878800002
 30
0.0
  0
VERTEX
  5
AA8
  8
COSM_SKETCH
  6
HIDDEN
 62
     8
 10
20.1201355842
 20
18.207600937399999
 30
0.0
  0
VERTEX
  5
AA9
  8
COSM_SKETCH
  6
HIDDEN
 62
     8
 10
20.1354172534
 20
18.2030041101
 30
0.0
  0
VERTEX
  5
AAA
  8
COSM_SKETCH
  6
HIDDEN
 62
     8
 10
20.150546849600001
 20
18.1979160685
 30
0.0
  0
VERTEX
  5
AAB
  8
COSM_SKETCH
  6
HIDDEN
 62
     8
 10
20.164309685399999
 20
18.192807159499999
 30
0.0
  0
VERTEX
  5
AAC
  8
COSM_SKETCH
  6
HIDDEN
 62
     8
 10
20.177917841900001
 20
18.1872901783
 30
0.0
  0
VERTEX
  5
AAD
  8
COSM_SKETCH
  6
HIDDEN
 62
     8
 10
20.191358980099999
 20
18.181370064799999
 30
0.0
  0
VERTEX
  5
AAE
  8
COSM_SKETCH
  6
HIDDEN
 62
     8
 10
20.204620761099999
 20
18.175051758999999
 30
0.0
  0
VERTEX
  5
AAF
  8
COSM_SKETCH
  6
HIDDEN
 62
     8
 10
20.2176908458
 20
18.168340200500001
 30
0.0
  0
VERTEX
  5
AB0
  8
COSM_SKETCH
  6
HIDDEN
 62
     8
 10
20.230556895100001
 20
18.161240329200002
 30
0.0
  0
VERTEX
  5
AB1
  8
COSM_SKETCH
  6
HIDDEN
 62
     8
 10
20.2432065701
 20
18.153757084900001
 30
0.0
  0
VERTEX
  5
AB2
  8
COSM_SKETCH
  6
HIDDEN
 62
     8
 10
20.256106291199998
 20
18.145582515200001
 30
0.0
  0
VERTEX
  5
AB3
  8
COSM_SKETCH
  6
HIDDEN
 62
     8
 10
20.268746878400002
 20
18.1370085173
 30
0.0
  0
VERTEX
  5
AB4
  8
COSM_SKETCH
  6
HIDDEN
 62
     8
 10
20.281116055399998
 20
18.128044118599998
 30
0.0
  0
VERTEX
  5
AB5
  8
COSM_SKETCH
  6
HIDDEN
 62
     8
 10
20.293201546300001
 20
18.1186983461
 30
0.0
  0
VERTEX
  5
AB6
  8
COSM_SKETCH
  6
HIDDEN
 62
     8
 10
20.304991074899998
 20
18.108980227100002
 30
0.0
  0
VERTEX
  5
AB7
  8
COSM_SKETCH
  6
HIDDEN
 62
     8
 10
20.316472364999999
 20
18.098898788700001
 30
0.0
  0
VERTEX
  5
AB8
  8
COSM_SKETCH
  6
HIDDEN
 62
     8
 10
20.327633140500001
 20
18.088463058199999
 30
0.0
  0
VERTEX
  5
AB9
  8
COSM_SKETCH
  6
HIDDEN
 62
     8
 10
20.3385813445
 20
18.077559473800001
 30
0.0
  0
VERTEX
  5
ABA
  8
COSM_SKETCH
  6
HIDDEN
 62
     8
 10
20.349179371000002
 20
18.066315131100001
 30
0.0
  0
VERTEX
  5
ABB
  8
COSM_SKETCH
  6
HIDDEN
 62
     8
 10
20.3594173549
 20
18.054742340299999
 30
0.0
  0
VERTEX
  5
ABC
  8
COSM_SKETCH
  6
HIDDEN
 62
     8
 10
20.3692854315
 20
18.042853411999999
 30
0.0
  0
VERTEX
  5
ABD
  8
COSM_SKETCH
  6
HIDDEN
 62
     8
 10
20.378773735599999
 20
18.030660656399998
 30
0.0
  0
VERTEX
  5
ABE
  8
COSM_SKETCH
  6
HIDDEN
 62
     8
 10
20.387872402500001
 20
18.0181763842
 30
0.0
  0
VERTEX
  5
ABF
  8
COSM_SKETCH
  6
HIDDEN
 62
     8
 10
20.396571566999999
 20
18.005412905499998
 30
0.0
  0
VERTEX
  5
AC0
  8
COSM_SKETCH
  6
HIDDEN
 62
     8
 10
20.404730901600001
 20
17.992596067200001
 30
0.0
  0
VERTEX
  5
AC1
  8
COSM_SKETCH
  6
HIDDEN
 62
     8
 10
20.4124880731
 20
17.979534393800002
 30
0.0
  0
VERTEX
  5
AC2
  8
COSM_SKETCH
  6
HIDDEN
 62
     8
 10
20.419837124299999
 20
17.9662413657
 30
0.0
  0
VERTEX
  5
AC3
  8
COSM_SKETCH
  6
HIDDEN
 62
     8
 10
20.426772097800001
 20
17.9527304627
 30
0.0
  0
VERTEX
  5
AC4
  8
COSM_SKETCH
  6
HIDDEN
 62
     8
 10
20.433287036300001
 20
17.939015165099999
 30
0.0
  0
VERTEX
  5
AC5
  8
COSM_SKETCH
  6
HIDDEN
 62
     8
 10
20.439375982400001
 20
17.925108952799999
 30
0.0
  0
VERTEX
  5
AC6
  8
COSM_SKETCH
  6
HIDDEN
 62
     8
 10
20.445032978899999
 20
17.911025305900001
 30
0.0
  0
VERTEX
  5
AC7
  8
COSM_SKETCH
  6
HIDDEN
 62
     8
 10
20.449999097399999
 20
17.897502361699999
 30
0.0
  0
VERTEX
  5
AC8
  8
COSM_SKETCH
  6
HIDDEN
 62
     8
 10
20.454568274
 20
17.8838435991
 30
0.0
  0
VERTEX
  5
AC9
  8
COSM_SKETCH
  6
HIDDEN
 62
     8
 10
20.458738282700001
 20
17.870060983199998
 30
0.0
  0
VERTEX
  5
ACA
  8
COSM_SKETCH
  6
HIDDEN
 62
     8
 10
20.462506897800001
 20
17.856166479199999
 30
0.0
  0
VERTEX
  5
ACB
  8
COSM_SKETCH
  6
HIDDEN
 62
     8
 10
20.465871893399999
 20
17.8421720523
 30
0.0
  0
VERTEX
  5
ACC
  8
COSM_SKETCH
  6
HIDDEN
 62
     8
 10
20.468831043600002
 20
17.8280896676
 30
0.0
  0
VERTEX
  5
ACD
  8
COSM_SKETCH
  6
HIDDEN
 62
     8
 10
20.471382122600001
 20
17.813931290399999
 30
0.0
  0
VERTEX
  5
ACE
  8
COSM_SKETCH
  6
HIDDEN
 62
     8
 10
20.473642460800001
 20
17.798826313599999
 30
0.0
  0
VERTEX
  5
ACF
  8
COSM_SKETCH
  6
HIDDEN
 62
     8
 10
20.475440498299999
 20
17.7836642334
 30
0.0
  0
VERTEX
  5
AD0
  8
COSM_SKETCH
  6
HIDDEN
 62
     8
 10
20.476776629100002
 20
17.768460150199999
 30
0.0
  0
VERTEX
  5
AD1
  8
COSM_SKETCH
  6
HIDDEN
 62
     8
 10
20.477651247000001
 20
17.753229164699999
 30
0.0
  0
VERTEX
  5
AD2
  8
COSM_SKETCH
  6
HIDDEN
 62
     8
 10
20.478064746000001
 20
17.7379863775
 30
0.0
  0
VERTEX
  5
AD3
  8
COSM_SKETCH
  6
HIDDEN
 62
     8
 10
20.478017519800002
 20
17.7227468892
 30
0.0
  0
SEQEND
  5
AD4
  8
COSM_SKETCH
  6
HIDDEN
 62
     8
  0
LINE
  5
3B3
  8
COSM_SKETCH
  6
CONTINUOUS
 62
     7
 10
19.9750773743
 20
18.106428190300001
 30
0.0
 11
3.6264392775999981
 21
18.106429203600001
 31
0.0
  0
POLYLINE
  5
3B4
  8
COSM_SKETCH
  6
HIDDEN
 62
     8
 66
     1
 10
0.0
 20
0.0
 30
0.0
  0
VERTEX
  5
AD5
  8
COSM_SKETCH
  6
HIDDEN
 62
     8
 10
21.447325383199999
 20
19.435146726999999
 30
0.0
  0
VERTEX
  5
AD6
  8
COSM_SKETCH
  6
HIDDEN
 62
     8
 10
21.455667926899999
 20
19.435161087800001
 30
0.0
  0
VERTEX
  5
AD7
  8
COSM_SKETCH
  6
HIDDEN
 62
     8
 10
21.464012668900001
 20
19.434896377600001
 30
0.0
  0
VERTEX
  5
AD8
  8
COSM_SKETCH
  6
HIDDEN
 62
     8
 10
21.472348604099999
 20
19.434353318700001
 30
0.0
  0
VERTEX
  5
AD9
  8
COSM_SKETCH
  6
HIDDEN
 62
     8
 10
21.480664727299999
 20
19.433532633199999
 30
0.0
  0
VERTEX
  5
ADA
  8
COSM_SKETCH
  6
HIDDEN
 62
     8
 10
21.4889500335
 20
19.4324350435
 30
0.0
  0
VERTEX
  5
ADB
  8
COSM_SKETCH
  6
HIDDEN
 62
     8
 10
21.4971935176
 20
19.431061271600001
 30
0.0
  0
VERTEX
  5
ADC
  8
COSM_SKETCH
  6
HIDDEN
 62
     8
 10
21.505384572800001
 20
19.429412357
 30
0.0
  0
VERTEX
  5
ADD
  8
COSM_SKETCH
  6
HIDDEN
 62
     8
 10
21.513514279900001
 20
19.427490587200001
 30
0.0
  0
VERTEX
  5
ADE
  8
COSM_SKETCH
  6
HIDDEN
 62
     8
 10
21.521574117699998
 20
19.4252985659
 30
0.0
  0
VERTEX
  5
ADF
  8
COSM_SKETCH
  6
HIDDEN
 62
     8
 10
21.529555564999999
 20
19.422838896599998
 30
0.0
  0
VERTEX
  5
AE0
  8
COSM_SKETCH
  6
HIDDEN
 62
     8
 10
21.537450100800001
 20
19.420114182999999
 30
0.0
  0
VERTEX
  5
AE1
  8
COSM_SKETCH
  6
HIDDEN
 62
     8
 10
21.545249203699999
 20
19.4171270286
 30
0.0
  0
VERTEX
  5
AE2
  8
COSM_SKETCH
  6
HIDDEN
 62
     8
 10
21.552944400000001
 20
19.413880312699991
 30
0.0
  0
VERTEX
  5
AE3
  8
COSM_SKETCH
  6
HIDDEN
 62
     8
 10
21.560527239599999
 20
19.410378087000002
 30
0.0
  0
VERTEX
  5
AE4
  8
COSM_SKETCH
  6
HIDDEN
 62
     8
 10
21.567989320500001
 20
19.4066246806
 30
0.0
  0
VERTEX
  5
AE5
  8
COSM_SKETCH
  6
HIDDEN
 62
     8
 10
21.5753222407
 20
19.402624422700001
 30
0.0
  0
VERTEX
  5
AE6
  8
COSM_SKETCH
  6
HIDDEN
 62
     8
 10
21.582517598199999
 20
19.3983816426
 30
0.0
  0
VERTEX
  5
AE7
  8
COSM_SKETCH
  6
HIDDEN
 62
     8
 10
21.5895669911
 20
19.393900669200001
 30
0.0
  0
VERTEX
  5
AE8
  8
COSM_SKETCH
  6
HIDDEN
 62
     8
 10
21.596462212799999
 20
19.3891860966
 30
0.0
  0
VERTEX
  5
AE9
  8
COSM_SKETCH
  6
HIDDEN
 62
     8
 10
21.603195850599999
 20
19.384243569100001
 30
0.0
  0
VERTEX
  5
AEA
  8
COSM_SKETCH
  6
HIDDEN
 62
     8
 10
21.6097606873
 20
19.3790789958
 30
0.0
  0
VERTEX
  5
AEB
  8
COSM_SKETCH
  6
HIDDEN
 62
     8
 10
21.616149505599999
 20
19.3736982858
 30
0.0
  0
VERTEX
  5
AEC
  8
COSM_SKETCH
  6
HIDDEN
 62
     8
 10
21.622355088300001
 20
19.368107348199999
 30
0.0
  0
VERTEX
  5
AED
  8
COSM_SKETCH
  6
HIDDEN
 62
     8
 10
21.628370218000001
 20
19.362312091900002
 30
0.0
  0
VERTEX
  5
AEE
  8
COSM_SKETCH
  6
HIDDEN
 62
     8
 10
21.6341878938
 20
19.356318637400001
 30
0.0
  0
VERTEX
  5
AEF
  8
COSM_SKETCH
  6
HIDDEN
 62
     8
 10
21.639801963299998
 20
19.3501339683
 30
0.0
  0
VERTEX
  5
AF0
  8
COSM_SKETCH
  6
HIDDEN
 62
     8
 10
21.645206490500001
 20
19.343765279700001
 30
0.0
  0
VERTEX
  5
AF1
  8
COSM_SKETCH
  6
HIDDEN
 62
     8
 10
21.650395539400002
 20
19.337219766800001
 30
0.0
  0
VERTEX
  5
AF2
  8
COSM_SKETCH
  6
HIDDEN
 62
     8
 10
21.6553631741
 20
19.330504624900001
 30
0.0
  0
VERTEX
  5
AF3
  8
COSM_SKETCH
  6
HIDDEN
 62
     8
 10
21.6601034585
 20
19.323627048999999
 30
0.0
  0
VERTEX
  5
AF4
  8
COSM_SKETCH
  6
HIDDEN
 62
     8
 10
21.664610723599999
 20
19.3165944259
 30
0.0
  0
VERTEX
  5
AF5
  8
COSM_SKETCH
  6
HIDDEN
 62
     8
 10
21.668880341600001
 20
19.309414949600001
 30
0.0
  0
VERTEX
  5
AF6
  8
COSM_SKETCH
  6
HIDDEN
 62
     8
 10
21.672907951900001
 20
19.3020970058
 30
0.0
  0
VERTEX
  5
AF7
  8
COSM_SKETCH
  6
HIDDEN
 62
     8
 10
21.6766891941
 20
19.294648980400002
 30
0.0
  0
VERTEX
  5
AF8
  8
COSM_SKETCH
  6
HIDDEN
 62
     8
 10
21.680219707599999
 20
19.2870792591
 30
0.0
  0
VERTEX
  5
AF9
  8
COSM_SKETCH
  6
HIDDEN
 62
     8
 10
21.683495131899999
 20
19.2793962278
 30
0.0
  0
VERTEX
  5
AFA
  8
COSM_SKETCH
  6
HIDDEN
 62
     8
 10
21.686511383599999
 20
19.2716083215
 30
0.0
  0
VERTEX
  5
AFB
  8
COSM_SKETCH
  6
HIDDEN
 62
     8
 10
21.6892655521
 20
19.263724003299998
 30
0.0
  0
VERTEX
  5
AFC
  8
COSM_SKETCH
  6
HIDDEN
 62
     8
 10
21.691755002000001
 20
19.255751784400001
 30
0.0
  0
VERTEX
  5
AFD
  8
COSM_SKETCH
  6
HIDDEN
 62
     8
 10
21.693977097699999
 20
19.2477001763
 30
0.0
  0
VERTEX
  5
AFE
  8
COSM_SKETCH
  6
HIDDEN
 62
     8
 10
21.6959292041
 20
19.239577690400001
 30
0.0
  0
VERTEX
  5
AFF
  8
COSM_SKETCH
  6
HIDDEN
 62
     8
 10
21.697608685500001
 20
19.2313928381
 30
0.0
  0
VERTEX
  5
B00
  8
COSM_SKETCH
  6
HIDDEN
 62
     8
 10
21.699013220400001
 20
19.223154535199999
 30
0.0
  0
VERTEX
  5
B01
  8
COSM_SKETCH
  6
HIDDEN
 62
     8
 10
21.7001417309
 20
19.214873379499998
 30
0.0
  0
VERTEX
  5
B02
  8
COSM_SKETCH
  6
HIDDEN
 62
     8
 10
21.700993453799999
 20
19.2065603733
 30
0.0
  0
VERTEX
  5
B03
  8
COSM_SKETCH
  6
HIDDEN
 62
     8
 10
21.701567625799999
 20
19.198226518999999
 30
0.0
  0
VERTEX
  5
B04
  8
COSM_SKETCH
  6
HIDDEN
 62
     8
 10
21.701863483499999
 20
19.189882818800001
 30
0.0
  0
VERTEX
  5
B05
  8
COSM_SKETCH
  6
HIDDEN
 62
     8
 10
21.701880263700001
 20
19.1815402752
 30
0.0
  0
SEQEND
  5
B06
  8
COSM_SKETCH
  6
HIDDEN
 62
     8
  0
POLYLINE
  5
3E7
  8
COSM_SKETCH
  6
HIDDEN
 62
     8
 66
     1
 10
0.0
 20
0.0
 30
0.0
  0
VERTEX
  5
B07
  8
COSM_SKETCH
  6
HIDDEN
 62
     8
 10
20.478023538199999
 20
5.5468243570000002
 30
0.0
  0
VERTEX
  5
B08
  8
COSM_SKETCH
  6
HIDDEN
 62
     8
 10
20.4585210521
 20
7.5366445419000003
 30
0.0
  0
VERTEX
  5
B09
  8
COSM_SKETCH
  6
HIDDEN
 62
     8
 10
20.446624631199999
 20
9.5265271125000002
 30
0.0
  0
VERTEX
  5
B0A
  8
COSM_SKETCH
  6
HIDDEN
 62
     8
 10
20.4423415694
 20
11.618947930499999
 30
0.0
  0
VERTEX
  5
B0B
  8
COSM_SKETCH
  6
HIDDEN
 62
     8
 10
20.446495860900001
 20
13.7113690468
 30
0.0
  0
VERTEX
  5
B0C
  8
COSM_SKETCH
  6
HIDDEN
 62
     8
 10
20.4583957378
 20
15.7172846681
 30
0.0
  0
VERTEX
  5
B0D
  8
COSM_SKETCH
  6
HIDDEN
 62
     8
 10
20.4780237943
 20
17.7231371588
 30
0.0
  0
SEQEND
  5
B0E
  8
COSM_SKETCH
  6
HIDDEN
 62
     8
  0
POLYLINE
  5
3F0
  8
COSM_SKETCH
  6
HIDDEN
 62
     8
 66
     1
 10
0.0
 20
0.0
 30
0.0
  0
VERTEX
  5
B0F
  8
COSM_SKETCH
  6
HIDDEN
 62
     8
 10
20.478016319799998
 20
5.5472139487999987
 30
0.0
  0
VERTEX
  5
B10
  8
COSM_SKETCH
  6
HIDDEN
 62
     8
 10
20.478074020200001
 20
5.532922575499998
 30
0.0
  0
VERTEX
  5
B11
  8
COSM_SKETCH
  6
HIDDEN
 62
     8
 10
20.477726727
 20
5.5186276063999991
 30
0.0
  0
VERTEX
  5
B12
  8
COSM_SKETCH
  6
HIDDEN
 62
     8
 10
20.476974011700001
 20
5.5043415029999991
 30
0.0
  0
VERTEX
  5
B13
  8
COSM_SKETCH
  6
HIDDEN
 62
     8
 10
20.475815445399999
 20
5.490076726899999
 30
0.0
  0
VERTEX
  5
B14
  8
COSM_SKETCH
  6
HIDDEN
 62
     8
 10
20.474250599800001
 20
5.4758457397000004
 30
0.0
  0
VERTEX
  5
B15
  8
COSM_SKETCH
  6
HIDDEN
 62
     8
 10
20.472279046099999
 20
5.4616610027999979
 30
0.0
  0
VERTEX
  5
B16
  8
COSM_SKETCH
  6
HIDDEN
 62
     8
 10
20.469600649899999
 20
5.4459114848999981
 30
0.0
  0
VERTEX
  5
B17
  8
COSM_SKETCH
  6
HIDDEN
 62
     8
 10
20.466418644600001
 20
5.4302513761000002
 30
0.0
  0
VERTEX
  5
B18
  8
COSM_SKETCH
  6
HIDDEN
 62
     8
 10
20.4627357884
 20
5.4146970638000003
 30
0.0
  0
VERTEX
  5
B19
  8
COSM_SKETCH
  6
HIDDEN
 62
     8
 10
20.458554839600001
 20
5.399264935599998
 30
0.0
  0
VERTEX
  5
B1A
  8
COSM_SKETCH
  6
HIDDEN
 62
     8
 10
20.453878556500001
 20
5.3839713788000001
 30
0.0
  0
VERTEX
  5
B1B
  8
COSM_SKETCH
  6
HIDDEN
 62
     8
 10
20.448709697200002
 20
5.3688327808
 30
0.0
  0
VERTEX
  5
B1C
  8
COSM_SKETCH
  6
HIDDEN
 62
     8
 10
20.443528168499999
 20
5.3550714345000001
 30
0.0
  0
VERTEX
  5
B1D
  8
COSM_SKETCH
  6
HIDDEN
 62
     8
 10
20.437938001500001
 20
5.3414671675000003
 30
0.0
  0
VERTEX
  5
B1E
  8
COSM_SKETCH
  6
HIDDEN
 62
     8
 10
20.431944215600002
 20
5.3280323545999986
 30
0.0
  0
VERTEX
  5
B1F
  8
COSM_SKETCH
  6
HIDDEN
 62
     8
 10
20.4255518304
 20
5.3147793707000002
 30
0.0
  0
VERTEX
  5
B20
  8
COSM_SKETCH
  6
HIDDEN
 62
     8
 10
20.418765865299999
 20
5.3017205907999987
 30
0.0
  0
VERTEX
  5
B21
  8
COSM_SKETCH
  6
HIDDEN
 62
     8
 10
20.411591339899999
 20
5.2888683897000002
 30
0.0
  0
VERTEX
  5
B22
  8
COSM_SKETCH
  6
HIDDEN
 62
     8
 10
20.4040332738
 20
5.2762351426
 30
0.0
  0
VERTEX
  5
B23
  8
COSM_SKETCH
  6
HIDDEN
 62
     8
 10
20.3957888176
 20
5.263367226399998
 30
0.0
  0
VERTEX
  5
B24
  8
COSM_SKETCH
  6
HIDDEN
 62
     8
 10
20.387145683
 20
5.2507607807000003
 30
0.0
  0
VERTEX
  5
B25
  8
COSM_SKETCH
  6
HIDDEN
 62
     8
 10
20.378112975200001
 20
5.2384280634999989
 30
0.0
  0
VERTEX
  5
B26
  8
COSM_SKETCH
  6
HIDDEN
 62
     8
 10
20.368699799600002
 20
5.2263813330999991
 30
0.0
  0
VERTEX
  5
B27
  8
COSM_SKETCH
  6
HIDDEN
 62
     8
 10
20.3589152612
 20
5.214632847899999
 30
0.0
  0
VERTEX
  5
B28
  8
COSM_SKETCH
  6
HIDDEN
 62
     8
 10
20.348768465300001
 20
5.2031948659999987
 30
0.0
  0
VERTEX
  5
B29
  8
COSM_SKETCH
  6
HIDDEN
 62
     8
 10
20.338268517100001
 20
5.192079645699998
 30
0.0
  0
VERTEX
  5
B2A
  8
COSM_SKETCH
  6
HIDDEN
 62
     8
 10
20.327314594800001
 20
5.181192639999999
 30
0.0
  0
VERTEX
  5
B2B
  8
COSM_SKETCH
  6
HIDDEN
 62
     8
 10
20.316022032799999
 20
5.1706571956999987
 30
0.0
  0
VERTEX
  5
B2C
  8
COSM_SKETCH
  6
HIDDEN
 62
     8
 10
20.304403171000001
 20
5.1604831035999981
 30
0.0
  0
VERTEX
  5
B2D
  8
COSM_SKETCH
  6
HIDDEN
 62
     8
 10
20.292470349599999
 20
5.1506801544999981
 30
0.0
  0
VERTEX
  5
B2E
  8
COSM_SKETCH
  6
HIDDEN
 62
     8
 10
20.280235908400002
 20
5.1412581392999988
 30
0.0
  0
VERTEX
  5
B2F
  8
COSM_SKETCH
  6
HIDDEN
 62
     8
 10
20.267712187499999
 20
5.1322268488000002
 30
0.0
  0
VERTEX
  5
B30
  8
COSM_SKETCH
  6
HIDDEN
 62
     8
 10
20.254911526800001
 20
5.123596073799999
 30
0.0
  0
VERTEX
  5
B31
  8
COSM_SKETCH
  6
HIDDEN
 62
     8
 10
20.242074105699999
 20
5.1155133055000004
 30
0.0
  0
VERTEX
  5
B32
  8
COSM_SKETCH
  6
HIDDEN
 62
     8
 10
20.2289945815
 20
5.1078326787000004
 30
0.0
  0
VERTEX
  5
B33
  8
COSM_SKETCH
  6
HIDDEN
 62
     8
 10
20.215686400999999
 20
5.1005600623999987
 30
0.0
  0
VERTEX
  5
B34
  8
COSM_SKETCH
  6
HIDDEN
 62
     8
 10
20.2021630108
 20
5.0937013252999988
 30
0.0
  0
VERTEX
  5
B35
  8
COSM_SKETCH
  6
HIDDEN
 62
     8
 10
20.1884378576
 20
5.0872623362000002
 30
0.0
  0
VERTEX
  5
B36
  8
COSM_SKETCH
  6
HIDDEN
 62
     8
 10
20.174524388199998
 20
5.0812489640000003
 30
0.0
  0
VERTEX
  5
B37
  8
COSM_SKETCH
  6
HIDDEN
 62
     8
 10
20.160436049299999
 20
5.0756670775000003
 30
0.0
  0
VERTEX
  5
B38
  8
COSM_SKETCH
  6
HIDDEN
 62
     8
 10
20.1469196346
 20
5.0707747479999981
 30
0.0
  0
VERTEX
  5
B39
  8
COSM_SKETCH
  6
HIDDEN
 62
     8
 10
20.133269803400001
 20
5.0662782962000001
 30
0.0
  0
VERTEX
  5
B3A
  8
COSM_SKETCH
  6
HIDDEN
 62
     8
 10
20.119498455900001
 20
5.0621798828999989
 30
0.0
  0
VERTEX
  5
B3B
  8
COSM_SKETCH
  6
HIDDEN
 62
     8
 10
20.105617492299999
 20
5.058481668699998
 30
0.0
  0
VERTEX
  5
B3C
  8
COSM_SKETCH
  6
HIDDEN
 62
     8
 10
20.091638812799999
 20
5.0551858143999979
 30
0.0
  0
VERTEX
  5
B3D
  8
COSM_SKETCH
  6
HIDDEN
 62
     8
 10
20.0775743176
 20
5.0522944807999979
 30
0.0
  0
VERTEX
  5
B3E
  8
COSM_SKETCH
  6
HIDDEN
 62
     8
 10
20.063435906999999
 20
5.0498098285999991
 30
0.0
  0
VERTEX
  5
B3F
  8
COSM_SKETCH
  6
HIDDEN
 62
     8
 10
20.0483568963
 20
5.0476187732999991
 30
0.0
  0
VERTEX
  5
B40
  8
COSM_SKETCH
  6
HIDDEN
 62
     8
 10
20.033222973000001
 20
5.0458881643999991
 30
0.0
  0
VERTEX
  5
B41
  8
COSM_SKETCH
  6
HIDDEN
 62
     8
 10
20.0180491355
 20
5.0446175510999991
 30
0.0
  0
VERTEX
  5
B42
  8
COSM_SKETCH
  6
HIDDEN
 62
     8
 10
20.002850382399998
 20
5.0438064823999991
 30
0.0
  0
VERTEX
  5
B43
  8
COSM_SKETCH
  6
HIDDEN
 62
     8
 10
19.9876417123
 20
5.043454507699999
 30
0.0
  0
VERTEX
  5
B44
  8
COSM_SKETCH
  6
HIDDEN
 62
     8
 10
19.9724381238
 20
5.0435611758999981
 30
0.0
  0
SEQEND
  5
B45
  8
COSM_SKETCH
  6
HIDDEN
 62
     8
  0
LINE
  5
428
  8
COSM_SKETCH
  6
CONTINUOUS
 62
     7
 10
20.358079995499999
 20
5.5341408216000003
 30
0.0
 11
20.358037420900001
 21
17.724932262799999
 31
0.0
  0
POLYLINE
  5
429
  8
COSM_SKETCH
  6
CONTINUOUS
 62
     7
 66
     1
 10
0.0
 20
0.0
 30
0.0
  0
VERTEX
  5
B46
  8
COSM_SKETCH
  6
CONTINUOUS
 62
     7
 10
20.358079995499999
 20
5.5341408216000003
 30
0.0
  0
VERTEX
  5
B47
  8
COSM_SKETCH
  6
CONTINUOUS
 62
     7
 10
20.3578151474
 20
5.5232492095000003
 30
0.0
  0
VERTEX
  5
B48
  8
COSM_SKETCH
  6
CONTINUOUS
 62
     7
 10
20.357241694999999
 20
5.5123661356999989
 30
0.0
  0
VERTEX
  5
B49
  8
COSM_SKETCH
  6
CONTINUOUS
 62
     7
 10
20.356359679499999
 20
5.5015027625000004
 30
0.0
  0
VERTEX
  5
B4A
  8
COSM_SKETCH
  6
CONTINUOUS
 62
     7
 10
20.355169141800001
 20
5.4906702523000002
 30
0.0
  0
VERTEX
  5
B4B
  8
COSM_SKETCH
  6
CONTINUOUS
 62
     7
 10
20.353670123099999
 20
5.4798797674999991
 30
0.0
  0
VERTEX
  5
B4C
  8
COSM_SKETCH
  6
CONTINUOUS
 62
     7
 10
20.351634977900002
 20
5.4679084956999988
 30
0.0
  0
VERTEX
  5
B4D
  8
COSM_SKETCH
  6
CONTINUOUS
 62
     7
 10
20.349218643899999
 20
5.456014742899999
 30
0.0
  0
VERTEX
  5
B4E
  8
COSM_SKETCH
  6
CONTINUOUS
 62
     7
 10
20.346423547699999
 20
5.4442098768999987
 30
0.0
  0
VERTEX
  5
B4F
  8
COSM_SKETCH
  6
CONTINUOUS
 62
     7
 10
20.343252115999999
 20
5.4325052656999988
 30
0.0
  0
VERTEX
  5
B50
  8
COSM_SKETCH
  6
CONTINUOUS
 62
     7
 10
20.3397067754
 20
5.4209122771000002
 30
0.0
  0
VERTEX
  5
B51
  8
COSM_SKETCH
  6
CONTINUOUS
 62
     7
 10
20.335789952799999
 20
5.4094422789000003
 30
0.0
  0
VERTEX
  5
B52
  8
COSM_SKETCH
  6
CONTINUOUS
 62
     7
 10
20.331865365199999
 20
5.3990199084999988
 30
0.0
  0
VERTEX
  5
B53
  8
COSM_SKETCH
  6
CONTINUOUS
 62
     7
 10
20.327633039399998
 20
5.3887202127
 30
0.0
  0
VERTEX
  5
B54
  8
COSM_SKETCH
  6
CONTINUOUS
 62
     7
 10
20.323096909899999
 20
5.3785523984000001
 30
0.0
  0
VERTEX
  5
B55
  8
COSM_SKETCH
  6
CONTINUOUS
 62
     7
 10
20.318260910999999
 20
5.3685256728999988
 30
0.0
  0
VERTEX
  5
B56
  8
COSM_SKETCH
  6
CONTINUOUS
 62
     7
 10
20.313128976800002
 20
5.3586492432000004
 30
0.0
  0
VERTEX
  5
B57
  8
COSM_SKETCH
  6
CONTINUOUS
 62
     7
 10
20.307705041799998
 20
5.3489323162999991
 30
0.0
  0
VERTEX
  5
B58
  8
COSM_SKETCH
  6
CONTINUOUS
 62
     7
 10
20.301993040300001
 20
5.3393840993000001
 30
0.0
  0
VERTEX
  5
B59
  8
COSM_SKETCH
  6
CONTINUOUS
 62
     7
 10
20.295764290600001
 20
5.3296617118
 30
0.0
  0
VERTEX
  5
B5A
  8
COSM_SKETCH
  6
CONTINUOUS
 62
     7
 10
20.2892361362
 20
5.320139727099999
 30
0.0
  0
VERTEX
  5
B5B
  8
COSM_SKETCH
  6
CONTINUOUS
 62
     7
 10
20.282415270200001
 20
5.3108268770000002
 30
0.0
  0
VERTEX
  5
B5C
  8
COSM_SKETCH
  6
CONTINUOUS
 62
     7
 10
20.275308385399999
 20
5.3017318930000004
 30
0.0
  0
VERTEX
  5
B5D
  8
COSM_SKETCH
  6
CONTINUOUS
 62
     7
 10
20.267922174999999
 20
5.2928635067999981
 30
0.0
  0
VERTEX
  5
B5E
  8
COSM_SKETCH
  6
CONTINUOUS
 62
     7
 10
20.260263331899999
 20
5.284230450099999
 30
0.0
  0
VERTEX
  5
B5F
  8
COSM_SKETCH
  6
CONTINUOUS
 62
     7
 10
20.252338549099999
 20
5.2758414545000001
 30
0.0
  0
VERTEX
  5
B60
  8
COSM_SKETCH
  6
CONTINUOUS
 62
     7
 10
20.244071502499999
 20
5.2676246912999991
 30
0.0
  0
VERTEX
  5
B61
  8
COSM_SKETCH
  6
CONTINUOUS
 62
     7
 10
20.235548778399998
 20
5.2596729779000002
 30
0.0
  0
VERTEX
  5
B62
  8
COSM_SKETCH
  6
CONTINUOUS
 62
     7
 10
20.226779170099999
 20
5.2519934775000001
 30
0.0
  0
VERTEX
  5
B63
  8
COSM_SKETCH
  6
CONTINUOUS
 62
     7
 10
20.217771470599999
 20
5.2445933532999991
 30
0.0
  0
VERTEX
  5
B64
  8
COSM_SKETCH
  6
CONTINUOUS
 62
     7
 10
20.2085344732
 20
5.2374797686000001
 30
0.0
  0
VERTEX
  5
B65
  8
COSM_SKETCH
  6
CONTINUOUS
 62
     7
 10
20.199076970899998
 20
5.2306598865999989
 30
0.0
  0
VERTEX
  5
B66
  8
COSM_SKETCH
  6
CONTINUOUS
 62
     7
 10
20.189407757000001
 20
5.2241408705000003
 30
0.0
  0
VERTEX
  5
B67
  8
COSM_SKETCH
  6
CONTINUOUS
 62
     7
 10
20.179707864499999
 20
5.2180339984000002
 30
0.0
  0
VERTEX
  5
B68
  8
COSM_SKETCH
  6
CONTINUOUS
 62
     7
 10
20.169821985799999
 20
5.2122291747
 30
0.0
  0
VERTEX
  5
B69
  8
COSM_SKETCH
  6
CONTINUOUS
 62
     7
 10
20.159760112899999
 20
5.2067309539000002
 30
0.0
  0
VERTEX
  5
B6A
  8
COSM_SKETCH
  6
CONTINUOUS
 62
     7
 10
20.149532237900001
 20
5.2015438905999991
 30
0.0
  0
VERTEX
  5
B6B
  8
COSM_SKETCH
  6
CONTINUOUS
 62
     7
 10
20.139148352599999
 20
5.196672539499998
 30
0.0
  0
VERTEX
  5
B6C
  8
COSM_SKETCH
  6
CONTINUOUS
 62
     7
 10
20.128618449099999
 20
5.1921214550999979
 30
0.0
  0
VERTEX
  5
B6D
  8
COSM_SKETCH
  6
CONTINUOUS
 62
     7
 10
20.117952519500001
 20
5.187895192
 30
0.0
  0
VERTEX
  5
B6E
  8
COSM_SKETCH
  6
CONTINUOUS
 62
     7
 10
20.105999390299999
 20
5.1836007402999993
 30
0.0
  0
VERTEX
  5
B6F
  8
COSM_SKETCH
  6
CONTINUOUS
 62
     7
 10
20.0939048772
 20
5.1797128425999981
 30
0.0
  0
VERTEX
  5
B70
  8
COSM_SKETCH
  6
CONTINUOUS
 62
     7
 10
20.081682026799999
 20
5.1762344671999987
 30
0.0
  0
VERTEX
  5
B71
  8
COSM_SKETCH
  6
CONTINUOUS
 62
     7
 10
20.069343885399999
 20
5.173168582399998
 30
0.0
  0
VERTEX
  5
B72
  8
COSM_SKETCH
  6
CONTINUOUS
 62
     7
 10
20.056903499400001
 20
5.1705181564
 30
0.0
  0
VERTEX
  5
B73
  8
COSM_SKETCH
  6
CONTINUOUS
 62
     7
 10
20.044373915400001
 20
5.1682861573999981
 30
0.0
  0
VERTEX
  5
B74
  8
COSM_SKETCH
  6
CONTINUOUS
 62
     7
 10
20.032905139
 20
5.1666206933999987
 30
0.0
  0
VERTEX
  5
B75
  8
COSM_SKETCH
  6
CONTINUOUS
 62
     7
 10
20.021386843599998
 20
5.1653043385000004
 30
0.0
  0
VERTEX
  5
B76
  8
COSM_SKETCH
  6
CONTINUOUS
 62
     7
 10
20.009832582200001
 20
5.1643371861
 30
0.0
  0
VERTEX
  5
B77
  8
COSM_SKETCH
  6
CONTINUOUS
 62
     7
 10
19.998255907499999
 20
5.1637193300000002
 30
0.0
  0
VERTEX
  5
B78
  8
COSM_SKETCH
  6
CONTINUOUS
 62
     7
 10
19.986670372399999
 20
5.1634508636999987
 30
0.0
  0
VERTEX
  5
B79
  8
COSM_SKETCH
  6
CONTINUOUS
 62
     7
 10
19.9750895295
 20
5.163531880799999
 30
0.0
  0
SEQEND
  5
B7A
  8
COSM_SKETCH
  6
CONTINUOUS
 62
     7
  0
LINE
  5
45F
  8
COSM_SKETCH
  6
CENTER
 62
     2
 10
22.0212170157
 20
17.408677822600001
 30
0.0
 11
22.0212170157
 21
16.908677822600001
 31
0.0
  0
LINE
  5
460
  8
COSM_SKETCH
  6
CENTER
 62
     2
 10
22.0212170157
 20
5.8612987564000001
 30
0.0
 11
22.0212170157
 21
6.3612987564000001
 31
0.0
  0
POLYLINE
  5
461
  8
COSM_SKETCH
  6
HIDDEN
 62
     8
 66
     1
 10
0.0
 20
0.0
 30
0.0
  0
VERTEX
  5
B7B
  8
COSM_SKETCH
  6
HIDDEN
 62
     8
 10
21.701880407699999
 20
4.0884265423999979
 30
0.0
  0
VERTEX
  5
B7C
  8
COSM_SKETCH
  6
HIDDEN
 62
     8
 10
21.701863631399998
 20
4.0800841962999987
 30
0.0
  0
VERTEX
  5
B7D
  8
COSM_SKETCH
  6
HIDDEN
 62
     8
 10
21.701567790799999
 20
4.071740693699998
 30
0.0
  0
VERTEX
  5
B7E
  8
COSM_SKETCH
  6
HIDDEN
 62
     8
 10
21.700993649099999
 20
4.0634070361000001
 30
0.0
  0
VERTEX
  5
B7F
  8
COSM_SKETCH
  6
HIDDEN
 62
     8
 10
21.700141969600001
 20
4.0550942250999986
 30
0.0
  0
VERTEX
  5
B80
  8
COSM_SKETCH
  6
HIDDEN
 62
     8
 10
21.699013515499999
 20
4.0468132620999979
 30
0.0
  0
VERTEX
  5
B81
  8
COSM_SKETCH
  6
HIDDEN
 62
     8
 10
21.697609050099999
 20
4.0385751487999979
 30
0.0
  0
VERTEX
  5
B82
  8
COSM_SKETCH
  6
HIDDEN
 62
     8
 10
21.695929651899998
 20
4.0303904873
 30
0.0
  0
VERTEX
  5
B83
  8
COSM_SKETCH
  6
HIDDEN
 62
     8
 10
21.693977641899998
 20
4.022268187599999
 30
0.0
  0
VERTEX
  5
B84
  8
COSM_SKETCH
  6
HIDDEN
 62
     8
 10
21.691755655000001
 20
4.0142167604000001
 30
0.0
  0
VERTEX
  5
B85
  8
COSM_SKETCH
  6
HIDDEN
 62
     8
 10
21.689266326599999
 20
4.0062447167000004
 30
0.0
  0
VERTEX
  5
B86
  8
COSM_SKETCH
  6
HIDDEN
 62
     8
 10
21.686512291700001
 20
3.9983605672000002
 30
0.0
  0
VERTEX
  5
B87
  8
COSM_SKETCH
  6
HIDDEN
 62
     8
 10
21.683496185500001
 20
3.9905728226999981
 30
0.0
  0
VERTEX
  5
B88
  8
COSM_SKETCH
  6
HIDDEN
 62
     8
 10
21.6802209184
 20
3.9828899456999989
 30
0.0
  0
VERTEX
  5
B89
  8
COSM_SKETCH
  6
HIDDEN
 62
     8
 10
21.676690573399998
 20
3.9753203706
 30
0.0
  0
VERTEX
  5
B8A
  8
COSM_SKETCH
  6
HIDDEN
 62
     8
 10
21.672909510499998
 20
3.9678724825999989
 30
0.0
  0
VERTEX
  5
B8B
  8
COSM_SKETCH
  6
HIDDEN
 62
     8
 10
21.66888209
 20
3.9605546669999989
 30
0.0
  0
VERTEX
  5
B8C
  8
COSM_SKETCH
  6
HIDDEN
 62
     8
 10
21.6646126718
 20
3.9533753088999992
 30
0.0
  0
VERTEX
  5
B8D
  8
COSM_SKETCH
  6
HIDDEN
 62
     8
 10
21.660105615999999
 20
3.9463427935999991
 30
0.0
  0
VERTEX
  5
B8E
  8
COSM_SKETCH
  6
HIDDEN
 62
     8
 10
21.655365546700001
 20
3.9394653099000001
 30
0.0
  0
VERTEX
  5
B8F
  8
COSM_SKETCH
  6
HIDDEN
 62
     8
 10
21.6503981356
 20
3.9327502488999988
 30
0.0
  0
VERTEX
  5
B90
  8
COSM_SKETCH
  6
HIDDEN
 62
     8
 10
21.645209317900001
 20
3.926204805499999
 30
0.0
  0
VERTEX
  5
B91
  8
COSM_SKETCH
  6
HIDDEN
 62
     8
 10
21.6398050291
 20
3.9198361742999981
 30
0.0
  0
VERTEX
  5
B92
  8
COSM_SKETCH
  6
HIDDEN
 62
     8
 10
21.634191204699999
 20
3.9136515499999991
 30
0.0
  0
VERTEX
  5
B93
  8
COSM_SKETCH
  6
HIDDEN
 62
     8
 10
21.628373780099999
 20
3.9076581275999991
 30
0.0
  0
VERTEX
  5
B94
  8
COSM_SKETCH
  6
HIDDEN
 62
     8
 10
21.6223589011
 20
3.9018628844999981
 30
0.0
  0
VERTEX
  5
B95
  8
COSM_SKETCH
  6
HIDDEN
 62
     8
 10
21.616153573799998
 20
3.8962719469999989
 30
0.0
  0
VERTEX
  5
B96
  8
COSM_SKETCH
  6
HIDDEN
 62
     8
 10
21.609765014699999
 20
3.8908912237999989
 30
0.0
  0
VERTEX
  5
B97
  8
COSM_SKETCH
  6
HIDDEN
 62
     8
 10
21.603200440599998
 20
3.8857266237000001
 30
0.0
  0
VERTEX
  5
B98
  8
COSM_SKETCH
  6
HIDDEN
 62
     8
 10
21.596467067999999
 20
3.8807840554999991
 30
0.0
  0
VERTEX
  5
B99
  8
COSM_SKETCH
  6
HIDDEN
 62
     8
 10
21.589572113599999
 20
3.8760694280000001
 30
0.0
  0
VERTEX
  5
B9A
  8
COSM_SKETCH
  6
HIDDEN
 62
     8
 10
21.582522984699999
 20
3.8715883825000001
 30
0.0
  0
VERTEX
  5
B9B
  8
COSM_SKETCH
  6
HIDDEN
 62
     8
 10
21.575327891699999
 20
3.867345516099999
 30
0.0
  0
VERTEX
  5
B9C
  8
COSM_SKETCH
  6
HIDDEN
 62
     8
 10
21.5679952359
 20
3.8633451578999991
 30
0.0
  0
VERTEX
  5
B9D
  8
COSM_SKETCH
  6
HIDDEN
 62
     8
 10
21.560533418599999
 20
3.859591636899999
 30
0.0
  0
VERTEX
  5
B9E
  8
COSM_SKETCH
  6
HIDDEN
 62
     8
 10
21.552950841200001
 20
3.8560892823000001
 30
0.0
  0
VERTEX
  5
B9F
  8
COSM_SKETCH
  6
HIDDEN
 62
     8
 10
21.545255905099999
 20
3.8528424230999989
 30
0.0
  0
VERTEX
  5
BA0
  8
COSM_SKETCH
  6
HIDDEN
 62
     8
 10
21.537457059699999
 20
3.8498551112000001
 30
0.0
  0
VERTEX
  5
BA1
  8
COSM_SKETCH
  6
HIDDEN
 62
     8
 10
21.529562778199999
 20
3.8471302256999991
 30
0.0
  0
VERTEX
  5
BA2
  8
COSM_SKETCH
  6
HIDDEN
 62
     8
 10
21.521581581
 20
3.8446703702999989
 30
0.0
  0
VERTEX
  5
BA3
  8
COSM_SKETCH
  6
HIDDEN
 62
     8
 10
21.513521988699999
 20
3.8424781486000001
 30
0.0
  0
VERTEX
  5
BA4
  8
COSM_SKETCH
  6
HIDDEN
 62
     8
 10
21.505392521800001
 20
3.8405561643000001
 30
0.0
  0
VERTEX
  5
BA5
  8
COSM_SKETCH
  6
HIDDEN
 62
     8
 10
21.497201700800002
 20
3.8389070211999989
 30
0.0
  0
VERTEX
  5
BA6
  8
COSM_SKETCH
  6
HIDDEN
 62
     8
 10
21.4889584493
 20
3.8375330076999989
 30
0.0
  0
VERTEX
  5
BA7
  8
COSM_SKETCH
  6
HIDDEN
 62
     8
 10
21.480673368400002
 20
3.8364351623999982
 30
0.0
  0
VERTEX
  5
BA8
  8
COSM_SKETCH
  6
HIDDEN
 62
     8
 10
21.472357462400002
 20
3.8356142077999991
 30
0.0
  0
VERTEX
  5
BA9
  8
COSM_SKETCH
  6
HIDDEN
 62
     8
 10
21.464021735599999
 20
3.8350708664999988
 30
0.0
  0
VERTEX
  5
BAA
  8
COSM_SKETCH
  6
HIDDEN
 62
     8
 10
21.4556771922
 20
3.834805861
 30
0.0
  0
VERTEX
  5
BAB
  8
COSM_SKETCH
  6
HIDDEN
 62
     8
 10
21.447334836700001
 20
3.8348199138999992
 30
0.0
  0
SEQEND
  5
BAC
  8
COSM_SKETCH
  6
HIDDEN
 62
     8
  0
LINE
  5
494
  8
0
  6
CONTINUOUS
 62
     7
 10
3.8781176493
 20
6.7015969195
 30
0.0
 11
3.8701321901999992
 21
6.6644150159000004
 31
0.0
  0
LINE
  5
495
  8
0
  6
CONTINUOUS
 62
     7
 10
3.9401207672999989
 20
6.8375617562000004
 30
0.0
 11
3.9215434805
 21
6.7843746933000002
 31
0.0
  0
LINE
  5
496
  8
0
  6
CONTINUOUS
 62
     7
 10
3.8989258869999981
 20
6.742615450299998
 30
0.0
 11
3.8781176493
 21
6.7015969195
 31
0.0
  0
LINE
  5
497
  8
0
  6
CONTINUOUS
 62
     7
 10
3.9215434805
 20
6.7843746933000002
 30
0.0
 11
3.8989258869999981
 21
6.742615450299998
 31
0.0
  0
LINE
  5
498
  8
0
  6
CONTINUOUS
 62
     7
 10
3.9447332186000001
 20
6.8892134030000003
 30
0.0
 11
3.9401207672999989
 21
6.8375617562000004
 31
0.0
  0
LINE
  5
499
  8
0
  6
CONTINUOUS
 62
     7
 10
4.1100515450000001
 20
6.4073585642999991
 30
0.0
 11
4.1090897127999986
 21
6.342634852299998
 31
0.0
  0
LINE
  5
49A
  8
0
  6
CONTINUOUS
 62
     7
 10
4.1090897127999986
 20
6.342634852299998
 30
0.0
 11
4.1032545766000004
 21
6.277923937699998
 31
0.0
  0
LINE
  5
49B
  8
0
  6
CONTINUOUS
 62
     7
 10
4.3731446897000001
 20
5.6849280779999987
 30
0.0
 11
4.4411961426999991
 21
5.6349212558000001
 31
0.0
  0
LINE
  5
49C
  8
0
  6
CONTINUOUS
 62
     7
 10
4.0987431045999987
 20
6.4517465289999993
 30
0.0
 11
4.1100515450000001
 21
6.4073585642999991
 31
0.0
  0
LINE
  5
49D
  8
0
  6
CONTINUOUS
 62
     7
 10
4.1032545766000004
 20
6.277923937699998
 30
0.0
 11
4.1100515450000001
 21
6.2188504998000003
 31
0.0
  0
LINE
  5
49E
  8
0
  6
CONTINUOUS
 62
     7
 10
5.075737018299999
 20
5.5429175578999992
 30
0.0
 11
5.1396600542000002
 21
5.5567864794000004
 31
0.0
  0
LINE
  5
49F
  8
0
  6
CONTINUOUS
 62
     7
 10
4.9653120953999981
 20
5.5358138309999987
 30
0.0
 11
5.075737018299999
 21
5.5429175578999992
 31
0.0
  0
LINE
  5
4A0
  8
0
  6
CONTINUOUS
 62
     7
 10
4.4411961426999991
 20
5.6349212558000001
 30
0.0
 11
4.5213418676000003
 21
5.6190521126999986
 31
0.0
  0
LINE
  5
4A1
  8
0
  6
CONTINUOUS
 62
     7
 10
4.332833803099998
 20
5.7561488869000002
 30
0.0
 11
4.3731446897000001
 21
5.6849280779999987
 31
0.0
  0
LINE
  5
4A2
  8
0
  6
CONTINUOUS
 62
     7
 10
4.332833803099998
 20
5.996068241699998
 30
0.0
 11
4.3392036843000001
 21
5.9217485619000003
 31
0.0
  0
LINE
  5
4A3
  8
0
  6
CONTINUOUS
 62
     7
 10
4.328736383899999
 20
5.8388881098000001
 30
0.0
 11
4.332833803099998
 21
5.7561488869000002
 31
0.0
  0
LINE
  5
4A4
  8
0
  6
CONTINUOUS
 62
     7
 10
4.864083803099998
 20
5.5676408223999987
 30
0.0
 11
4.9653120953999981
 21
5.5358138309999987
 31
0.0
  0
LINE
  5
4A5
  8
0
  6
CONTINUOUS
 62
     7
 10
4.7098499321
 20
5.6704634030000003
 30
0.0
 11
4.7616689860000001
 21
5.6480616328999993
 31
0.0
  0
LINE
  5
4A6
  8
0
  6
CONTINUOUS
 62
     7
 10
4.2673725955000004
 20
6.0728280758000004
 30
0.0
 11
4.332833803099998
 21
5.996068241699998
 31
0.0
  0
LINE
  5
4A7
  8
0
  6
CONTINUOUS
 62
     7
 10
4.1100515450000001
 20
6.2188504998000003
 30
0.0
 11
4.174514777799998
 21
6.1402970970000004
 31
0.0
  0
LINE
  5
4A8
  8
0
  6
CONTINUOUS
 62
     7
 10
3.8701321901999992
 20
6.6644150159000004
 30
0.0
 11
3.9020800698999989
 21
6.6147053163000002
 31
0.0
  0
LINE
  5
4A9
  8
0
  6
CONTINUOUS
 62
     7
 10
4.075773492099998
 20
6.4920797776999981
 30
0.0
 11
4.0987431045999987
 21
6.4517465289999993
 31
0.0
  0
LINE
  5
4AA
  8
0
  6
CONTINUOUS
 62
     7
 10
4.3392036843000001
 20
5.9217485619000003
 30
0.0
 11
4.328736383899999
 21
5.8388881098000001
 31
0.0
  0
LINE
  5
4AB
  8
0
  6
CONTINUOUS
 62
     7
 10
4.6509557035000002
 20
5.6614617125999986
 30
0.0
 11
4.7098499321
 21
5.6704634030000003
 31
0.0
  0
LINE
  5
4AC
  8
0
  6
CONTINUOUS
 62
     7
 10
4.174514777799998
 20
6.1402970970000004
 30
0.0
 11
4.2673725955000004
 21
6.0728280758000004
 31
0.0
  0
LINE
  5
4AD
  8
0
  6
CONTINUOUS
 62
     7
 10
4.812035073999998
 20
5.6075080780999986
 30
0.0
 11
4.864083803099998
 21
5.5676408223999987
 31
0.0
  0
LINE
  5
4AE
  8
0
  6
CONTINUOUS
 62
     7
 10
4.7616689860000001
 20
5.6480616328999993
 30
0.0
 11
4.812035073999998
 21
5.6075080780999986
 31
0.0
  0
LINE
  5
4AF
  8
0
  6
CONTINUOUS
 62
     7
 10
4.5213418676000003
 20
5.6190521126999986
 30
0.0
 11
4.5878305266000003
 21
5.6360835040000001
 31
0.0
  0
LINE
  5
4B0
  8
0
  6
CONTINUOUS
 62
     7
 10
4.0415031579000003
 20
6.527318241699998
 30
0.0
 11
4.075773492099998
 21
6.4920797776999981
 31
0.0
  0
LINE
  5
4B1
  8
0
  6
CONTINUOUS
 62
     7
 10
5.4859029232000003
 20
6.6303787700000001
 30
0.0
 11
5.4783449899000001
 21
6.6272989315999986
 31
0.0
  0
LINE
  5
4B2
  8
0
  6
CONTINUOUS
 62
     7
 10
5.4936073129999992
 20
6.6330262066000003
 30
0.0
 11
5.4859029232000003
 21
6.6303787700000001
 31
0.0
  0
LINE
  5
4B3
  8
0
  6
CONTINUOUS
 62
     7
 10
3.9020800698999989
 20
6.6147053163000002
 30
0.0
 11
3.9697595102999981
 21
6.5729042878999993
 31
0.0
  0
LINE
  5
4B4
  8
0
  6
CONTINUOUS
 62
     7
 10
3.9697595102999981
 20
6.5729042878999993
 30
0.0
 11
4.0415031579000003
 21
6.527318241699998
 31
0.0
  0
POLYLINE
  5
4B5
  8
0
  6
CONTINUOUS
 62
     7
 66
     1
 10
0.0
 20
0.0
 30
0.0
  0
VERTEX
  5
BAD
  8
0
  6
CONTINUOUS
 62
     7
 10
5.2626718927000002
 20
6.5049162941000001
 30
0.0
  0
VERTEX
  5
BAE
  8
0
  6
CONTINUOUS
 62
     7
 10
5.2562059873999987
 20
6.501017382599998
 30
0.0
  0
VERTEX
  5
BAF
  8
0
  6
CONTINUOUS
 62
     7
 10
5.2498645548000002
 20
6.4967912747999987
 30
0.0
  0
VERTEX
  5
BB0
  8
0
  6
CONTINUOUS
 62
     7
 10
5.2436575571999988
 20
6.4922480035000003
 30
0.0
  0
VERTEX
  5
BB1
  8
0
  6
CONTINUOUS
 62
     7
 10
5.2405706512999979
 20
6.4897788697000003
 30
0.0
  0
SEQEND
  5
BB2
  8
0
  6
CONTINUOUS
 62
     7
  0
LINE
  5
4BC
  8
0
  6
CONTINUOUS
 62
     7
 10
5.2626718927000002
 20
6.5049162941000001
 30
0.0
 11
5.4637002259000003
 21
6.6199038642000003
 31
0.0
  0
LINE
  5
4BD
  8
0
  6
CONTINUOUS
 62
     7
 10
5.4709402276999981
 20
6.6238015694000003
 30
0.0
 11
5.4637002259000003
 21
6.6199038642000003
 31
0.0
  0
LINE
  5
4BE
  8
0
  6
CONTINUOUS
 62
     7
 10
5.4783449899000001
 20
6.6272989315999986
 30
0.0
 11
5.4709402276999981
 21
6.6238015694000003
 31
0.0
  0
LINE
  5
4BF
  8
0
  6
CONTINUOUS
 62
     7
 10
5.032553415599998
 20
6.7772126419000003
 30
0.0
 11
4.9047435273999991
 21
5.5548570772000003
 31
0.0
  0
LINE
  5
4C0
  8
0
  6
CONTINUOUS
 62
     7
 10
5.501441364799998
 20
6.6352232951000003
 30
0.0
 11
5.4936073129999992
 21
6.6330262066000003
 31
0.0
  0
LINE
  5
4C1
  8
0
  6
CONTINUOUS
 62
     7
 10
5.1258308860000001
 20
5.5537860641999979
 30
0.0
 11
5.2337023233999993
 21
6.5854531100999987
 31
0.0
  0
LINE
  5
4C2
  8
0
  6
CONTINUOUS
 62
     7
 10
5.1396600542000002
 20
5.5567864794000004
 30
0.0
 11
5.250943207699998
 21
6.5856663746999988
 31
0.0
  0
LINE
  5
4C3
  8
0
  6
CONTINUOUS
 62
     7
 10
4.5878305266000003
 20
5.6360835040000001
 30
0.0
 11
4.6509557035000002
 21
5.6614617125999986
 31
0.0
  0
LINE
  5
4C4
  8
0
  6
CONTINUOUS
 62
     7
 10
5.2933779931
 20
6.6392134030000003
 30
0.0
 11
5.6923340168000003
 21
6.6392134030000003
 31
0.0
  0
LINE
  5
4C5
  8
0
  6
CONTINUOUS
 62
     7
 10
3.9447332186000001
 20
6.8892134030000003
 30
0.0
 11
5.5372908684000004
 21
6.8892134030000003
 31
0.0
  0
LINE
  5
4C6
  8
0
  6
CONTINUOUS
 62
     7
 10
5.5651024889
 20
6.8892134030000003
 30
0.0
 11
5.5697997908000003
 21
6.889125094099998
 31
0.0
  0
POLYLINE
  5
4C7
  8
0
  6
CONTINUOUS
 62
     7
 66
     1
 10
0.0
 20
0.0
 30
0.0
  0
VERTEX
  5
BB3
  8
0
  6
CONTINUOUS
 62
     7
 10
5.5698008112000004
 20
6.889125074899999
 30
0.0
  0
VERTEX
  5
BB4
  8
0
  6
CONTINUOUS
 62
     7
 10
5.5831499201999986
 20
6.887903528399999
 30
0.0
  0
VERTEX
  5
BB5
  8
0
  6
CONTINUOUS
 62
     7
 10
5.595896184599999
 20
6.8853609291999991
 30
0.0
  0
VERTEX
  5
BB6
  8
0
  6
CONTINUOUS
 62
     7
 10
5.6080757601000002
 20
6.8815943978999981
 30
0.0
  0
VERTEX
  5
BB7
  8
0
  6
CONTINUOUS
 62
     7
 10
5.6197615479999987
 20
6.8766295357000002
 30
0.0
  0
VERTEX
  5
BB8
  8
0
  6
CONTINUOUS
 62
     7
 10
5.6309117701999991
 20
6.8704872659999987
 30
0.0
  0
VERTEX
  5
BB9
  8
0
  6
CONTINUOUS
 62
     7
 10
5.6413087033
 20
6.8632972710000004
 30
0.0
  0
VERTEX
  5
BBA
  8
0
  6
CONTINUOUS
 62
     7
 10
5.6507550710999981
 20
6.8552553167999992
 30
0.0
  0
VERTEX
  5
BBB
  8
0
  6
CONTINUOUS
 62
     7
 10
5.6592988342999986
 20
6.8463842514999991
 30
0.0
  0
VERTEX
  5
BBC
  8
0
  6
CONTINUOUS
 62
     7
 10
5.666994160099998
 20
6.8366225691999993
 30
0.0
  0
VERTEX
  5
BBD
  8
0
  6
CONTINUOUS
 62
     7
 10
5.6737435899999991
 20
6.8260366140999986
 30
0.0
  0
VERTEX
  5
BBE
  8
0
  6
CONTINUOUS
 62
     7
 10
5.6794246034000002
 20
6.8147648946999988
 30
0.0
  0
VERTEX
  5
BBF
  8
0
  6
CONTINUOUS
 62
     7
 10
5.6839829215000002
 20
6.8028455496999989
 30
0.0
  0
VERTEX
  5
BC0
  8
0
  6
CONTINUOUS
 62
     7
 10
5.6873310858000004
 20
6.790388790999998
 30
0.0
  0
VERTEX
  5
BC1
  8
0
  6
CONTINUOUS
 62
     7
 10
5.6893857036000002
 20
6.7775794871999988
 30
0.0
  0
VERTEX
  5
BC2
  8
0
  6
CONTINUOUS
 62
     7
 10
5.6900828766
 20
6.7664272179999987
 30
0.0
  0
SEQEND
  5
BC3
  8
0
  6
CONTINUOUS
 62
     7
  0
LINE
  5
4D9
  8
0
  6
CONTINUOUS
 62
     7
 10
5.6923370192999991
 20
6.6392134030000003
 30
0.0
 11
5.6900828704999986
 21
6.7664279538000001
 31
0.0
  0
CIRCLE
  5
4DA
  8
0
  6
CONTINUOUS
 62
     2
 10
4.2069872772999988
 20
17.6430724294
 30
0.0
 40
0.298056591
  0
CIRCLE
  5
4DB
  8
0
  6
CONTINUOUS
 62
     2
 10
4.2069872772999988
 20
17.6430724294
 30
0.0
 40
0.1247694151
  0
ARC
  5
4DC
  8
0
  6
CONTINUOUS
 62
     2
 10
5.974018092799998
 20
17.762140995199999
 30
0.0
 40
0.1750166163
 50
294.4500166359
 51
90.0
  0
ARC
  5
4DD
  8
0
  6
CONTINUOUS
 62
     2
 10
5.9470559942000003
 20
17.740959937500001
 30
0.0
 40
0.053611735
 50
266.1604009902
 51
89.999891051199995
  0
CIRCLE
  5
4DE
  8
0
  6
CONTINUOUS
 62
     2
 10
6.3466705580999987
 20
17.351236856500002
 30
0.0
 40
0.0653578721
  0
ARC
  5
4DF
  8
0
  6
CONTINUOUS
 62
     2
 10
6.3550638915999986
 20
17.367530915
 30
0.0
 40
0.0168314496
 50
270.0
 51
90.0
  0
CIRCLE
  5
4E0
  8
0
  6
CONTINUOUS
 62
     7
 10
15.967239396125279
 20
15.95944847381098
 30
0.0
 40
0.0807841983
  0
CIRCLE
  5
4E1
  8
0
  6
CONTINUOUS
 62
     7
 10
7.1894325490472673
 20
14.788215421703161
 30
0.0
 40
0.201830341
  0
CIRCLE
  5
4E2
  8
0
  6
CONTINUOUS
 62
     7
 10
7.591370166647267
 20
14.411398905203161
 30
0.0
 40
0.1989731195
  0
CIRCLE
  5
4E3
  8
0
  6
CONTINUOUS
 62
     7
 10
10.549719033431231
 20
14.79946378210162
 30
0.0
 40
0.209410684
  0
CIRCLE
  5
4E4
  8
0
  6
CONTINUOUS
 62
     7
 10
10.34875022463123
 20
14.42264726560162
 30
0.0
 40
0.204470949
  0
ARC
  5
4E5
  8
COSM_SKETCH
  6
HIDDEN
 62
     8
 10
533.23642534919986
 20
11.634988289500001
 30
0.0
 40
511.5902083334999
 50
179.1547898023
 51
180.84521129109999
  0
ARC
  5
4E6
  8
COSM_SKETCH
  6
HIDDEN
 62
     8
 10
11.800758392000001
 20
541.24950424689996
 30
0.0
 40
521.90351595740003
 50
268.94091717290001
 51
271.05908282709999
  0
ARC
  5
4E7
  8
COSM_SKETCH
  6
HIDDEN
 62
     8
 10
-509.63490856479979
 20
11.634988289500001
 30
0.0
 40
511.59020833299991
 50
359.15478870890013
 51
0.8452101976999999
  0
ARC
  5
4E8
  8
COSM_SKETCH
  6
HIDDEN
 62
     8
 10
11.800758392000001
 20
-519.03397252000002
 30
0.0
 40
522.95777127639985
 50
88.943051434699996
 51
91.056948565299976
  0
CIRCLE
  5
4E9
  8
COSM_SKETCH
  6
CONTINUOUS
 62
     7
 10
1.5802997681999991
 20
6.1112987564000001
 30
0.0
 40
0.1875
  0
CIRCLE
  5
4EA
  8
COSM_SKETCH
  6
CONTINUOUS
 62
     7
 10
1.5802997681999991
 20
17.158677822600001
 30
0.0
 40
0.1875
  0
CIRCLE
  5
4EB
  8
COSM_SKETCH
  6
CONTINUOUS
 62
     7
 10
22.0212170157
 20
17.158677822600001
 30
0.0
 40
0.1875
  0
CIRCLE
  5
4EC
  8
COSM_SKETCH
  6
CONTINUOUS
 62
     7
 10
22.0212170157
 20
6.1112987564000001
 30
0.0
 40
0.1875
  0
CIRCLE
  5
4ED
  8
0
  6
CONTINUOUS
 62
     2
 10
17.8503535396
 20
5.4476894381000003
 30
0.0
 40
0.1140312424
  0
ARC
  5
4EE
  8
0
  6
CONTINUOUS
 62
     7
 10
5.1568762848
 20
6.7642134030000003
 30
0.0
 40
0.125
 50
90.0
 51
174.03082534730001
  0
ARC
  5
4EF
  8
0
  6
CONTINUOUS
 62
     7
 10
5.3105951922000001
 20
6.579213402999998
 30
0.0
 40
0.06
 50
96.994601504400023
 51
173.81951928500001
  0
ARC
  5
4F0
  8
0
  6
CONTINUOUS
 62
     7
 10
5.2933779931
 20
6.579213402999998
 30
0.0
 40
0.06
 50
90.0
 51
174.03082532019999
  0
ARC
  5
4F1
  8
0
  6
CONTINUOUS
 62
     7
 10
5.5372908684000004
 20
6.7642134030000003
 30
0.0
 40
0.125
 50
1.0
 51
90.0
  0
INSERT
  5
4F2
  8
HATCHING_BL0
  2
HATCHING_BL0
 10
5.289518147199999
 20
6.213810677799998
 30
0.0
  0
ENDSEC
  0
EOF
