  0
SECTION
  2
HEADER
  9
$ACADVER
  1
AC1021
  9
$ACADMAINTVER
 70
    50
  9
$DWGCODEPAGE
  3
ANSI_1252
  9
$LASTSAVEDBY
  1
François
  9
$INSBASE
 10
78.10530985728388
 20
80.62137020059367
 30
0.0
  9
$EXTMIN
 10
15.43964376396059
 20
30.79233750387528
 30
0.0
  9
$EXTMAX
 10
248.3557193323549
 20
173.4339726057468
 30
0.0
  9
$LIMMIN
 10
0.0
 20
0.0
  9
$LIMMAX
 10
12.0
 20
9.0
  9
$ORTHOMODE
 70
     0
  9
$REGENMODE
 70
     1
  9
$FILLMODE
 70
     1
  9
$QTEXTMODE
 70
     0
  9
$MIRRTEXT
 70
     1
  9
$LTSCALE
 40
1.0
  9
$ATTMODE
 70
     1
  9
$TEXTSIZE
 40
0.2
  9
$TRACEWID
 40
0.05
  9
$TEXTSTYLE
  7
Standard
  9
$CLAYER
  8
Cotation-JacobDelafon
  9
$CELTYPE
  6
ByLayer
  9
$CECOLOR
 62
   256
  9
$CELTSCALE
 40
1.0
  9
$DISPSILH
 70
     0
  9
$DIMSCALE
 40
1.0
  9
$DIMASZ
 40
1.8
  9
$DIMEXO
 40
0.625
  9
$DIMDLI
 40
3.799999999999998
  9
$DIMRND
 40
0.0
  9
$DIMDLE
 40
0.0
  9
$DIMEXE
 40
1.8
  9
$DIMTP
 40
0.0
  9
$DIMTM
 40
0.0
  9
$DIMTXT
 40
3.0
  9
$DIMCEN
 40
0.9
  9
$DIMTSZ
 40
0.0
  9
$DIMTOL
 70
     0
  9
$DIMLIM
 70
     0
  9
$DIMTIH
 70
     0
  9
$DIMTOH
 70
     0
  9
$DIMSE1
 70
     0
  9
$DIMSE2
 70
     0
  9
$DIMTAD
 70
     1
  9
$DIMZIN
 70
    12
  9
$DIMBLK
  1
Oblique
  9
$DIMASO
 70
     1
  9
$DIMSHO
 70
     1
  9
$DIMPOST
  1

  9
$DIMAPOST
  1

  9
$DIMALT
 70
     0
  9
$DIMALTD
 70
     2
  9
$DIMALTF
 40
25.4
  9
$DIMLFAC
 40
1.0
  9
$DIMTOFL
 70
     0
  9
$DIMTVP
 40
0.0
  9
$DIMTIX
 70
     0
  9
$DIMSOXD
 70
     0
  9
$DIMSAH
 70
     0
  9
$DIMBLK1
  1

  9
$DIMBLK2
  1

  9
$DIMSTYLE
  2
Cotation-Jacob-Delafon
  9
$DIMCLRD
 70
     0
  9
$DIMCLRE
 70
     0
  9
$DIMCLRT
 70
     0
  9
$DIMTFAC
 40
1.0
  9
$DIMGAP
 40
0.9
  9
$DIMJUST
 70
     0
  9
$DIMSD1
 70
     0
  9
$DIMSD2
 70
     0
  9
$DIMTOLJ
 70
     1
  9
$DIMTZIN
 70
     0
  9
$DIMALTZ
 70
     0
  9
$DIMALTTZ
 70
     0
  9
$DIMUPT
 70
     0
  9
$DIMDEC
 70
     2
  9
$DIMTDEC
 70
     2
  9
$DIMALTU
 70
     2
  9
$DIMALTTD
 70
     2
  9
$DIMTXSTY
  7
Jacob-Delafon
  9
$DIMAUNIT
 70
     0
  9
$DIMADEC
 70
     0
  9
$DIMALTRND
 40
0.0
  9
$DIMAZIN
 70
     3
  9
$DIMDSEP
 70
    46
  9
$DIMATFIT
 70
     3
  9
$DIMFRAC
 70
     0
  9
$DIMLDRBLK
  1
Oblique
  9
$DIMLUNIT
 70
     2
  9
$DIMLWD
 70
    -2
  9
$DIMLWE
 70
    -2
  9
$DIMTMOVE
 70
     2
  9
$DIMFXL
 40
1.0
  9
$DIMFXLON
 70
     0
  9
$DIMJOGANG
 40
0.7853981633974483
  9
$DIMTFILL
 70
     0
  9
$DIMTFILLCLR
 70
     0
  9
$DIMARCSYM
 70
     0
  9
$DIMLTYPE
  6

  9
$DIMLTEX1
  6

  9
$DIMLTEX2
  6

  9
$LUNITS
 70
     2
  9
$LUPREC
 70
     4
  9
$SKETCHINC
 40
0.1
  9
$FILLETRAD
 40
0.0
  9
$AUNITS
 70
     0
  9
$AUPREC
 70
     0
  9
$MENU
  1
.
  9
$ELEVATION
 40
0.0
  9
$PELEVATION
 40
0.0
  9
$THICKNESS
 40
0.0
  9
$LIMCHECK
 70
     0
  9
$CHAMFERA
 40
0.5
  9
$CHAMFERB
 40
0.5
  9
$CHAMFERC
 40
1.0
  9
$CHAMFERD
 40
0.0
  9
$SKPOLY
 70
     0
  9
$TDCREATE
 40
2455860.713441250
  9
$TDUCREATE
 40
2455860.630107917
  9
$TDUPDATE
 40
2455862.403492651
  9
$TDUUPDATE
 40
2455862.320159317
  9
$TDINDWG
 40
0.0018972454
  9
$TDUSRTIMER
 40
0.0018972454
  9
$USRTIMER
 70
     1
  9
$ANGBASE
 50
0.0
  9
$ANGDIR
 70
     0
  9
$PDMODE
 70
     0
  9
$PDSIZE
 40
0.0
  9
$PLINEWID
 40
0.0
  9
$SPLFRAME
 70
     0
  9
$SPLINETYPE
 70
     6
  9
$SPLINESEGS
 70
     8
  9
$HANDSEED
  5
58B
  9
$SURFTAB1
 70
     6
  9
$SURFTAB2
 70
     6
  9
$SURFTYPE
 70
     6
  9
$SURFU
 70
     6
  9
$SURFV
 70
     6
  9
$UCSBASE
  2

  9
$UCSNAME
  2

  9
$UCSORG
 10
0.0
 20
0.0
 30
0.0
  9
$UCSXDIR
 10
1.0
 20
0.0
 30
0.0
  9
$UCSYDIR
 10
0.0
 20
1.0
 30
0.0
  9
$UCSORTHOREF
  2

  9
$UCSORTHOVIEW
 70
     0
  9
$UCSORGTOP
 10
0.0
 20
0.0
 30
0.0
  9
$UCSORGBOTTOM
 10
0.0
 20
0.0
 30
0.0
  9
$UCSORGLEFT
 10
0.0
 20
0.0
 30
0.0
  9
$UCSORGRIGHT
 10
0.0
 20
0.0
 30
0.0
  9
$UCSORGFRONT
 10
0.0
 20
0.0
 30
0.0
  9
$UCSORGBACK
 10
0.0
 20
0.0
 30
0.0
  9
$PUCSBASE
  2

  9
$PUCSNAME
  2

  9
$PUCSORG
 10
0.0
 20
0.0
 30
0.0
  9
$PUCSXDIR
 10
1.0
 20
0.0
 30
0.0
  9
$PUCSYDIR
 10
0.0
 20
1.0
 30
0.0
  9
$PUCSORTHOREF
  2

  9
$PUCSORTHOVIEW
 70
     0
  9
$PUCSORGTOP
 10
0.0
 20
0.0
 30
0.0
  9
$PUCSORGBOTTOM
 10
0.0
 20
0.0
 30
0.0
  9
$PUCSORGLEFT
 10
0.0
 20
0.0
 30
0.0
  9
$PUCSORGRIGHT
 10
0.0
 20
0.0
 30
0.0
  9
$PUCSORGFRONT
 10
0.0
 20
0.0
 30
0.0
  9
$PUCSORGBACK
 10
0.0
 20
0.0
 30
0.0
  9
$USERI1
 70
     0
  9
$USERI2
 70
     0
  9
$USERI3
 70
     0
  9
$USERI4
 70
     0
  9
$USERI5
 70
     0
  9
$USERR1
 40
0.0
  9
$USERR2
 40
0.0
  9
$USERR3
 40
0.0
  9
$USERR4
 40
0.0
  9
$USERR5
 40
0.0
  9
$WORLDVIEW
 70
     1
  9
$SHADEDGE
 70
     3
  9
$SHADEDIF
 70
    70
  9
$TILEMODE
 70
     1
  9
$MAXACTVP
 70
    64
  9
$PINSBASE
 10
0.0
 20
0.0
 30
0.0
  9
$PLIMCHECK
 70
     0
  9
$PEXTMIN
 10
1.000000000000000E+20
 20
1.000000000000000E+20
 30
1.000000000000000E+20
  9
$PEXTMAX
 10
-1.000000000000000E+20
 20
-1.000000000000000E+20
 30
-1.000000000000000E+20
  9
$PLIMMIN
 10
0.0
 20
0.0
  9
$PLIMMAX
 10
12.0
 20
9.0
  9
$UNITMODE
 70
     0
  9
$VISRETAIN
 70
     1
  9
$PLINEGEN
 70
     0
  9
$PSLTSCALE
 70
     1
  9
$TREEDEPTH
 70
  3020
  9
$CMLSTYLE
  2
Standard
  9
$CMLJUST
 70
     0
  9
$CMLSCALE
 40
1.0
  9
$PROXYGRAPHICS
 70
     1
  9
$MEASUREMENT
 70
     0
  9
$CELWEIGHT
370
    -1
  9
$ENDCAPS
280
     0
  9
$JOINSTYLE
280
     0
  9
$LWDISPLAY
290
     1
  9
$INSUNITS
 70
     1
  9
$HYPERLINKBASE
  1

  9
$STYLESHEET
  1

  9
$XEDIT
290
     1
  9
$CEPSNTYPE
380
     0
  9
$PSTYLEMODE
290
     1
  9
$FINGERPRINTGUID
  2
{4309C76B-919F-4CBA-B17A-47232C874F31}
  9
$VERSIONGUID
  2
{86369E4C-A1E4-4FE7-836E-194B48706673}
  9
$EXTNAMES
290
     1
  9
$PSVPSCALE
 40
0.0
  9
$OLESTARTUP
290
     0
  9
$SORTENTS
280
   127
  9
$INDEXCTL
280
     0
  9
$HIDETEXT
280
     0
  9
$XCLIPFRAME
290
     0
  9
$HALOGAP
280
     0
  9
$OBSCOLOR
 70
   257
  9
$OBSLTYPE
280
     0
  9
$INTERSECTIONDISPLAY
280
     0
  9
$INTERSECTIONCOLOR
 70
   257
  9
$DIMASSOC
280
     1
  9
$PROJECTNAME
  1

  9
$CAMERADISPLAY
290
     0
  9
$LENSLENGTH
 40
50.0
  9
$CAMERAHEIGHT
 40
0.0
  9
$STEPSPERSEC
 40
2.0
  9
$STEPSIZE
 40
6.0
  9
$3DDWFPREC
 40
2.0
  9
$PSOLWIDTH
 40
0.25
  9
$PSOLHEIGHT
 40
4.0
  9
$LOFTANG1
 40
1.570796326794896
  9
$LOFTANG2
 40
1.570796326794896
  9
$LOFTMAG1
 40
0.0
  9
$LOFTMAG2
 40
0.0
  9
$LOFTPARAM
 70
     7
  9
$LOFTNORMALS
280
     1
  9
$LATITUDE
 40
37.795
  9
$LONGITUDE
 40
-122.394
  9
$NORTHDIRECTION
 40
0.0
  9
$TIMEZONE
 70
 -8000
  9
$LIGHTGLYPHDISPLAY
280
     1
  9
$TILEMODELIGHTSYNCH
280
     1
  9
$CMATERIAL
347
4F7
  9
$SOLIDHIST
280
     1
  9
$SHOWHIST
280
     1
  9
$DWFFRAME
280
     2
  9
$DGNFRAME
280
     0
  9
$REALWORLDSCALE
290
     1
  9
$INTERFERECOLOR
 62
     1
  9
$INTERFEREOBJVS
345
33
  9
$INTERFEREVPVS
346
30
  9
$CSHADOW
280
     0
  9
$SHADOWPLANELOCATION
 40
0.0
  0
ENDSEC
  0
SECTION
  2
CLASSES
  0
CLASS
  1
ACDBDICTIONARYWDFLT
  2
AcDbDictionaryWithDefault
  3
ObjectDBX Classes
 90
        0
 91
        1
280
     0
281
     0
  0
CLASS
  1
VISUALSTYLE
  2
AcDbVisualStyle
  3
ObjectDBX Classes
 90
     4095
 91
       16
280
     0
281
     0
  0
CLASS
  1
MATERIAL
  2
AcDbMaterial
  3
ObjectDBX Classes
 90
     1153
 91
        3
280
     0
281
     0
  0
CLASS
  1
TABLESTYLE
  2
AcDbTableStyle
  3
ObjectDBX Classes
 90
     4095
 91
        1
280
     0
281
     0
  0
CLASS
  1
SCALE
  2
AcDbScale
  3
ObjectDBX Classes
 90
     1153
 91
       33
280
     0
281
     0
  0
CLASS
  1
MLEADERSTYLE
  2
AcDbMLeaderStyle
  3
ACDB_MLEADERSTYLE_CLASS
 90
     4095
 91
        1
280
     0
281
     0
  0
CLASS
  1
AEC_REFEDIT_STATUS_TRACKER
  2
AecDbRefEditStatusTracker
  3
AecArchBase50|Product Desc: Autodesk Architectural Desktop 2007 |Company: Autodesk,Inc. |WEB Address: www.autodesk.com
 90
      129
 91
        1
280
     0
281
     0
  0
CLASS
  1
NPOCOLLECTION
  2
AcDbImpNonPersistentObjectsCollection
  3
ObjectDBX Classes
 90
     1153
 91
        1
280
     0
281
     0
  0
CLASS
  1
DICTIONARYVAR
  2
AcDbDictionaryVar
  3
ObjectDBX Classes
 90
        0
 91
        7
280
     0
281
     0
  0
CLASS
  1
CELLSTYLEMAP
  2
AcDbCellStyleMap
  3
ObjectDBX Classes
 90
     1152
 91
        1
280
     0
281
     0
  0
ENDSEC
  0
SECTION
  2
TABLES
  0
TABLE
  2
VPORT
  5
8
330
0
100
AcDbSymbolTable
 70
     1
  0
VPORT
  5
29
330
8
100
AcDbSymbolTableRecord
100
AcDbViewportTableRecord
  2
*Active
 70
     0
 10
0.0
 20
0.0
 11
1.0
 21
1.0
 12
-159.9174744442961
 22
-77.43203634752254
 13
0.0
 23
0.0
 14
0.5
 24
0.5
 15
0.5
 25
0.5
 16
0.0
 26
0.0
 36
1.0
 17
209.9998956989764
 27
148.5001637099431
 37
0.0
 40
104.6166415011002
 41
1.854700854700854
 42
50.0
 43
0.0
 44
0.0
 50
0.0
 51
0.0
 71
     0
 72
   100
 73
     1
 74
     3
 75
     0
 76
     0
 77
     0
 78
     0
281
     0
 65
     1
110
0.0
120
0.0
130
0.0
111
1.0
121
0.0
131
0.0
112
0.0
122
1.0
132
0.0
 79
     0
146
0.0
348
2F
 60
     3
 61
     5
292
     1
282
     1
141
0.0
142
0.0
 63
   250
421
  3355443
  0
ENDTAB
  0
TABLE
  2
LTYPE
  5
5
330
0
100
AcDbSymbolTable
 70
     1
  0
LTYPE
  5
14
330
5
100
AcDbSymbolTableRecord
100
AcDbLinetypeTableRecord
  2
ByBlock
 70
     0
  3

 72
    65
 73
     0
 40
0.0
  0
LTYPE
  5
15
330
5
100
AcDbSymbolTableRecord
100
AcDbLinetypeTableRecord
  2
ByLayer
 70
     0
  3

 72
    65
 73
     0
 40
0.0
  0
LTYPE
  5
16
330
5
100
AcDbSymbolTableRecord
100
AcDbLinetypeTableRecord
  2
Continuous
 70
     0
  3
Solid line
 72
    65
 73
     0
 40
0.0
  0
ENDTAB
  0
TABLE
  2
LAYER
  5
2
330
0
100
AcDbSymbolTable
 70
     3
  0
LAYER
  5
10
102
{ACAD_XDICTIONARY
360
57D
102
}
330
2
100
AcDbSymbolTableRecord
100
AcDbLayerTableRecord
  2
0
 70
     0
 62
     7
  6
Continuous
370
    -3
390
F
347
507
  0
LAYER
  5
538
330
2
100
AcDbSymbolTableRecord
100
AcDbLayerTableRecord
  2
Defpoints
 70
     0
 62
     7
  6
Continuous
290
     0
370
    -3
390
F
347
507
  0
LAYER
  5
539
102
{ACAD_XDICTIONARY
360
53A
102
}
330
2
100
AcDbSymbolTableRecord
100
AcDbLayerTableRecord
  2
Cotation-JacobDelafon
 70
     0
 62
     8
  6
Continuous
370
    -3
390
F
347
507
  0
ENDTAB
  0
TABLE
  2
STYLE
  5
3
330
0
100
AcDbSymbolTable
 70
     3
  0
STYLE
  5
11
330
3
100
AcDbSymbolTableRecord
100
AcDbTextStyleTableRecord
  2
Standard
 70
     0
 40
0.0
 41
1.0
 50
0.0
 71
     0
 42
0.2
  3
txt
  4

  0
STYLE
  5
53B
330
3
100
AcDbSymbolTableRecord
100
AcDbTextStyleTableRecord
  2
Annotative
 70
     0
 40
0.0
 41
1.0
 50
0.0
 71
     0
 42
0.2
  3
txt
  4

1001
AcadAnnotative
1000
AnnotativeData
1002
{
1070
     1
1070
     1
1002
}
  0
STYLE
  5
549
330
3
100
AcDbSymbolTableRecord
100
AcDbTextStyleTableRecord
  2
Jacob-Delafon
 70
     0
 40
0.0
 41
1.0
 50
0.0
 71
     0
 42
2.5
  3
ARIAL.TTF
  4

1001
ACAD
1000
Arial
1071
       34
  0
ENDTAB
  0
TABLE
  2
VIEW
  5
6
330
0
100
AcDbSymbolTable
 70
     0
  0
ENDTAB
  0
TABLE
  2
UCS
  5
7
330
0
100
AcDbSymbolTable
 70
     0
  0
ENDTAB
  0
TABLE
  2
APPID
  5
9
330
0
100
AcDbSymbolTable
 70
     3
  0
APPID
  5
12
330
9
100
AcDbSymbolTableRecord
100
AcDbRegAppTableRecord
  2
ACAD
 70
     0
  0
APPID
  5
535
330
9
100
AcDbSymbolTableRecord
100
AcDbRegAppTableRecord
  2
ACAD_MLEADERVER
 70
     0
  0
APPID
  5
53D
330
9
100
AcDbSymbolTableRecord
100
AcDbRegAppTableRecord
  2
AcadAnnotative
 70
     0
  0
ENDTAB
  0
TABLE
  2
DIMSTYLE
  5
A
330
0
100
AcDbSymbolTable
 70
     3
100
AcDbDimStyleTable
 71
     1
340
54A
  0
DIMSTYLE
105
27
330
A
100
AcDbSymbolTableRecord
100
AcDbDimStyleTableRecord
  2
Standard
 70
     0
340
11
  0
DIMSTYLE
105
53C
330
A
100
AcDbSymbolTableRecord
100
AcDbDimStyleTableRecord
  2
Annotative
 70
     0
340
11
1001
AcadAnnotative
1000
AnnotativeData
1002
{
1070
     1
1070
     1
1002
}
  0
DIMSTYLE
105
54A
102
{ACAD_REACTORS
330
551
330
55E
102
}
330
A
100
AcDbSymbolTableRecord
100
AcDbDimStyleTableRecord
  2
Cotation-Jacob-Delafon
 70
     0
 41
1.8
 42
0.625
 43
3.799999999999998
 44
1.8
 73
     0
 74
     0
 77
     1
 78
    12
 79
     3
140
3.0
141
0.9
147
0.9
271
     2
272
     2
279
     2
340
549
341
545
342
545
  0
ENDTAB
  0
TABLE
  2
BLOCK_RECORD
  5
1
330
0
100
AcDbSymbolTable
 70
   157
  0
BLOCK_RECORD
  5
1F
330
1
100
AcDbSymbolTableRecord
100
AcDbBlockTableRecord
  2
*Model_Space
340
22
 70
     0
280
     1
281
     0
  0
BLOCK_RECORD
  5
1B
330
1
100
AcDbSymbolTableRecord
100
AcDbBlockTableRecord
  2
*Paper_Space
340
1E
 70
     0
280
     1
281
     0
  0
BLOCK_RECORD
  5
23
330
1
100
AcDbSymbolTableRecord
100
AcDbBlockTableRecord
  2
*Paper_Space0
340
26
 70
     0
280
     1
281
     0
  0
BLOCK_RECORD
  5
3B
330
1
100
AcDbSymbolTableRecord
100
AcDbBlockTableRecord
  2
block 2
340
0
102
{BLKREFS
331
3C
102
}
 70
     0
280
     1
281
     0
  0
BLOCK_RECORD
  5
43
330
1
100
AcDbSymbolTableRecord
100
AcDbBlockTableRecord
  2
block 3
340
0
102
{BLKREFS
331
44
102
}
 70
     0
280
     1
281
     0
  0
BLOCK_RECORD
  5
4B
330
1
100
AcDbSymbolTableRecord
100
AcDbBlockTableRecord
  2
block 4
340
0
102
{BLKREFS
331
4C
102
}
 70
     0
280
     1
281
     0
  0
BLOCK_RECORD
  5
53
330
1
100
AcDbSymbolTableRecord
100
AcDbBlockTableRecord
  2
block 5
340
0
102
{BLKREFS
331
54
102
}
 70
     0
280
     1
281
     0
  0
BLOCK_RECORD
  5
5B
330
1
100
AcDbSymbolTableRecord
100
AcDbBlockTableRecord
  2
block 6
340
0
102
{BLKREFS
331
5C
102
}
 70
     0
280
     1
281
     0
  0
BLOCK_RECORD
  5
63
330
1
100
AcDbSymbolTableRecord
100
AcDbBlockTableRecord
  2
block 7
340
0
102
{BLKREFS
331
64
102
}
 70
     0
280
     1
281
     0
  0
BLOCK_RECORD
  5
6B
330
1
100
AcDbSymbolTableRecord
100
AcDbBlockTableRecord
  2
block 8
340
0
102
{BLKREFS
331
6C
102
}
 70
     0
280
     1
281
     0
  0
BLOCK_RECORD
  5
73
330
1
100
AcDbSymbolTableRecord
100
AcDbBlockTableRecord
  2
block 9
340
0
102
{BLKREFS
331
74
102
}
 70
     0
280
     1
281
     0
  0
BLOCK_RECORD
  5
7B
330
1
100
AcDbSymbolTableRecord
100
AcDbBlockTableRecord
  2
block 10
340
0
102
{BLKREFS
331
7C
102
}
 70
     0
280
     1
281
     0
  0
BLOCK_RECORD
  5
83
330
1
100
AcDbSymbolTableRecord
100
AcDbBlockTableRecord
  2
block 11
340
0
102
{BLKREFS
331
84
102
}
 70
     0
280
     1
281
     0
  0
BLOCK_RECORD
  5
8B
330
1
100
AcDbSymbolTableRecord
100
AcDbBlockTableRecord
  2
block 12
340
0
102
{BLKREFS
331
8C
102
}
 70
     0
280
     1
281
     0
  0
BLOCK_RECORD
  5
93
330
1
100
AcDbSymbolTableRecord
100
AcDbBlockTableRecord
  2
block 13
340
0
102
{BLKREFS
331
94
102
}
 70
     0
280
     1
281
     0
  0
BLOCK_RECORD
  5
9B
330
1
100
AcDbSymbolTableRecord
100
AcDbBlockTableRecord
  2
block 14
340
0
102
{BLKREFS
331
9C
102
}
 70
     0
280
     1
281
     0
  0
BLOCK_RECORD
  5
A3
330
1
100
AcDbSymbolTableRecord
100
AcDbBlockTableRecord
  2
block 15
340
0
102
{BLKREFS
331
A4
102
}
 70
     0
280
     1
281
     0
  0
BLOCK_RECORD
  5
AB
330
1
100
AcDbSymbolTableRecord
100
AcDbBlockTableRecord
  2
block 16
340
0
102
{BLKREFS
331
AC
102
}
 70
     0
280
     1
281
     0
  0
BLOCK_RECORD
  5
B3
330
1
100
AcDbSymbolTableRecord
100
AcDbBlockTableRecord
  2
block 17
340
0
102
{BLKREFS
331
B4
102
}
 70
     0
280
     1
281
     0
  0
BLOCK_RECORD
  5
BB
330
1
100
AcDbSymbolTableRecord
100
AcDbBlockTableRecord
  2
block 18
340
0
102
{BLKREFS
331
BC
102
}
 70
     0
280
     1
281
     0
  0
BLOCK_RECORD
  5
C3
330
1
100
AcDbSymbolTableRecord
100
AcDbBlockTableRecord
  2
block 19
340
0
102
{BLKREFS
331
C4
102
}
 70
     0
280
     1
281
     0
  0
BLOCK_RECORD
  5
CB
330
1
100
AcDbSymbolTableRecord
100
AcDbBlockTableRecord
  2
block 20
340
0
102
{BLKREFS
331
CC
102
}
 70
     0
280
     1
281
     0
  0
BLOCK_RECORD
  5
D3
330
1
100
AcDbSymbolTableRecord
100
AcDbBlockTableRecord
  2
block 21
340
0
102
{BLKREFS
331
D4
102
}
 70
     0
280
     1
281
     0
  0
BLOCK_RECORD
  5
DB
330
1
100
AcDbSymbolTableRecord
100
AcDbBlockTableRecord
  2
block 22
340
0
102
{BLKREFS
331
DC
102
}
 70
     0
280
     1
281
     0
  0
BLOCK_RECORD
  5
E3
330
1
100
AcDbSymbolTableRecord
100
AcDbBlockTableRecord
  2
block 23
340
0
102
{BLKREFS
331
E4
102
}
 70
     0
280
     1
281
     0
  0
BLOCK_RECORD
  5
EB
330
1
100
AcDbSymbolTableRecord
100
AcDbBlockTableRecord
  2
block 24
340
0
102
{BLKREFS
331
EC
102
}
 70
     0
280
     1
281
     0
  0
BLOCK_RECORD
  5
F3
330
1
100
AcDbSymbolTableRecord
100
AcDbBlockTableRecord
  2
block 25
340
0
102
{BLKREFS
331
F4
102
}
 70
     0
280
     1
281
     0
  0
BLOCK_RECORD
  5
FB
330
1
100
AcDbSymbolTableRecord
100
AcDbBlockTableRecord
  2
block 26
340
0
102
{BLKREFS
331
FC
102
}
 70
     0
280
     1
281
     0
  0
BLOCK_RECORD
  5
103
330
1
100
AcDbSymbolTableRecord
100
AcDbBlockTableRecord
  2
block 27
340
0
102
{BLKREFS
331
104
102
}
 70
     0
280
     1
281
     0
  0
BLOCK_RECORD
  5
10B
330
1
100
AcDbSymbolTableRecord
100
AcDbBlockTableRecord
  2
block 28
340
0
102
{BLKREFS
331
10C
102
}
 70
     0
280
     1
281
     0
  0
BLOCK_RECORD
  5
113
330
1
100
AcDbSymbolTableRecord
100
AcDbBlockTableRecord
  2
block 29
340
0
102
{BLKREFS
331
114
102
}
 70
     0
280
     1
281
     0
  0
BLOCK_RECORD
  5
11B
330
1
100
AcDbSymbolTableRecord
100
AcDbBlockTableRecord
  2
block 30
340
0
102
{BLKREFS
331
11C
102
}
 70
     0
280
     1
281
     0
  0
BLOCK_RECORD
  5
123
330
1
100
AcDbSymbolTableRecord
100
AcDbBlockTableRecord
  2
block 31
340
0
102
{BLKREFS
331
124
102
}
 70
     0
280
     1
281
     0
  0
BLOCK_RECORD
  5
12B
330
1
100
AcDbSymbolTableRecord
100
AcDbBlockTableRecord
  2
block 32
340
0
102
{BLKREFS
331
12C
102
}
 70
     0
280
     1
281
     0
  0
BLOCK_RECORD
  5
133
330
1
100
AcDbSymbolTableRecord
100
AcDbBlockTableRecord
  2
block 33
340
0
102
{BLKREFS
331
134
102
}
 70
     0
280
     1
281
     0
  0
BLOCK_RECORD
  5
13B
330
1
100
AcDbSymbolTableRecord
100
AcDbBlockTableRecord
  2
block 34
340
0
102
{BLKREFS
331
13C
102
}
 70
     0
280
     1
281
     0
  0
BLOCK_RECORD
  5
143
330
1
100
AcDbSymbolTableRecord
100
AcDbBlockTableRecord
  2
block 35
340
0
102
{BLKREFS
331
144
102
}
 70
     0
280
     1
281
     0
  0
BLOCK_RECORD
  5
14B
330
1
100
AcDbSymbolTableRecord
100
AcDbBlockTableRecord
  2
block 36
340
0
102
{BLKREFS
331
14C
102
}
 70
     0
280
     1
281
     0
  0
BLOCK_RECORD
  5
153
330
1
100
AcDbSymbolTableRecord
100
AcDbBlockTableRecord
  2
block 37
340
0
102
{BLKREFS
331
154
102
}
 70
     0
280
     1
281
     0
  0
BLOCK_RECORD
  5
15B
330
1
100
AcDbSymbolTableRecord
100
AcDbBlockTableRecord
  2
block 38
340
0
102
{BLKREFS
331
15C
102
}
 70
     0
280
     1
281
     0
  0
BLOCK_RECORD
  5
163
330
1
100
AcDbSymbolTableRecord
100
AcDbBlockTableRecord
  2
block 39
340
0
102
{BLKREFS
331
164
102
}
 70
     0
280
     1
281
     0
  0
BLOCK_RECORD
  5
16B
330
1
100
AcDbSymbolTableRecord
100
AcDbBlockTableRecord
  2
block 40
340
0
102
{BLKREFS
331
16C
102
}
 70
     0
280
     1
281
     0
  0
BLOCK_RECORD
  5
173
330
1
100
AcDbSymbolTableRecord
100
AcDbBlockTableRecord
  2
block 41
340
0
102
{BLKREFS
331
174
102
}
 70
     0
280
     1
281
     0
  0
BLOCK_RECORD
  5
17B
330
1
100
AcDbSymbolTableRecord
100
AcDbBlockTableRecord
  2
block 42
340
0
102
{BLKREFS
331
17C
102
}
 70
     0
280
     1
281
     0
  0
BLOCK_RECORD
  5
183
330
1
100
AcDbSymbolTableRecord
100
AcDbBlockTableRecord
  2
block 43
340
0
102
{BLKREFS
331
184
102
}
 70
     0
280
     1
281
     0
  0
BLOCK_RECORD
  5
18B
330
1
100
AcDbSymbolTableRecord
100
AcDbBlockTableRecord
  2
block 44
340
0
102
{BLKREFS
331
18C
102
}
 70
     0
280
     1
281
     0
  0
BLOCK_RECORD
  5
193
330
1
100
AcDbSymbolTableRecord
100
AcDbBlockTableRecord
  2
block 45
340
0
102
{BLKREFS
331
194
102
}
 70
     0
280
     1
281
     0
  0
BLOCK_RECORD
  5
19B
330
1
100
AcDbSymbolTableRecord
100
AcDbBlockTableRecord
  2
block 46
340
0
102
{BLKREFS
331
19C
102
}
 70
     0
280
     1
281
     0
  0
BLOCK_RECORD
  5
1A3
330
1
100
AcDbSymbolTableRecord
100
AcDbBlockTableRecord
  2
block 47
340
0
102
{BLKREFS
331
1A4
102
}
 70
     0
280
     1
281
     0
  0
BLOCK_RECORD
  5
1AB
330
1
100
AcDbSymbolTableRecord
100
AcDbBlockTableRecord
  2
block 48
340
0
102
{BLKREFS
331
1AC
102
}
 70
     0
280
     1
281
     0
  0
BLOCK_RECORD
  5
1B3
330
1
100
AcDbSymbolTableRecord
100
AcDbBlockTableRecord
  2
block 49
340
0
102
{BLKREFS
331
1B4
102
}
 70
     0
280
     1
281
     0
  0
BLOCK_RECORD
  5
1BB
330
1
100
AcDbSymbolTableRecord
100
AcDbBlockTableRecord
  2
block 50
340
0
102
{BLKREFS
331
1BC
102
}
 70
     0
280
     1
281
     0
  0
BLOCK_RECORD
  5
1C3
330
1
100
AcDbSymbolTableRecord
100
AcDbBlockTableRecord
  2
block 51
340
0
102
{BLKREFS
331
1C4
102
}
 70
     0
280
     1
281
     0
  0
BLOCK_RECORD
  5
1CB
330
1
100
AcDbSymbolTableRecord
100
AcDbBlockTableRecord
  2
block 52
340
0
102
{BLKREFS
331
1CC
102
}
 70
     0
280
     1
281
     0
  0
BLOCK_RECORD
  5
1D3
330
1
100
AcDbSymbolTableRecord
100
AcDbBlockTableRecord
  2
block 53
340
0
102
{BLKREFS
331
1D4
102
}
 70
     0
280
     1
281
     0
  0
BLOCK_RECORD
  5
1DB
330
1
100
AcDbSymbolTableRecord
100
AcDbBlockTableRecord
  2
block 54
340
0
102
{BLKREFS
331
1DC
102
}
 70
     0
280
     1
281
     0
  0
BLOCK_RECORD
  5
1E3
330
1
100
AcDbSymbolTableRecord
100
AcDbBlockTableRecord
  2
block 55
340
0
102
{BLKREFS
331
1E4
102
}
 70
     0
280
     1
281
     0
  0
BLOCK_RECORD
  5
1EB
330
1
100
AcDbSymbolTableRecord
100
AcDbBlockTableRecord
  2
block 56
340
0
102
{BLKREFS
331
1EC
102
}
 70
     0
280
     1
281
     0
  0
BLOCK_RECORD
  5
1F3
330
1
100
AcDbSymbolTableRecord
100
AcDbBlockTableRecord
  2
block 57
340
0
102
{BLKREFS
331
1F4
102
}
 70
     0
280
     1
281
     0
  0
BLOCK_RECORD
  5
1FB
330
1
100
AcDbSymbolTableRecord
100
AcDbBlockTableRecord
  2
block 58
340
0
102
{BLKREFS
331
1FC
102
}
 70
     0
280
     1
281
     0
  0
BLOCK_RECORD
  5
203
330
1
100
AcDbSymbolTableRecord
100
AcDbBlockTableRecord
  2
block 59
340
0
102
{BLKREFS
331
204
102
}
 70
     0
280
     1
281
     0
  0
BLOCK_RECORD
  5
20B
330
1
100
AcDbSymbolTableRecord
100
AcDbBlockTableRecord
  2
block 60
340
0
102
{BLKREFS
331
20C
102
}
 70
     0
280
     1
281
     0
  0
BLOCK_RECORD
  5
213
330
1
100
AcDbSymbolTableRecord
100
AcDbBlockTableRecord
  2
block 61
340
0
102
{BLKREFS
331
214
102
}
 70
     0
280
     1
281
     0
  0
BLOCK_RECORD
  5
21B
330
1
100
AcDbSymbolTableRecord
100
AcDbBlockTableRecord
  2
block 62
340
0
102
{BLKREFS
331
21C
102
}
 70
     0
280
     1
281
     0
  0
BLOCK_RECORD
  5
223
330
1
100
AcDbSymbolTableRecord
100
AcDbBlockTableRecord
  2
block 63
340
0
102
{BLKREFS
331
224
102
}
 70
     0
280
     1
281
     0
  0
BLOCK_RECORD
  5
22B
330
1
100
AcDbSymbolTableRecord
100
AcDbBlockTableRecord
  2
block 64
340
0
102
{BLKREFS
331
22C
102
}
 70
     0
280
     1
281
     0
  0
BLOCK_RECORD
  5
233
330
1
100
AcDbSymbolTableRecord
100
AcDbBlockTableRecord
  2
block 65
340
0
102
{BLKREFS
331
234
102
}
 70
     0
280
     1
281
     0
  0
BLOCK_RECORD
  5
23B
330
1
100
AcDbSymbolTableRecord
100
AcDbBlockTableRecord
  2
block 66
340
0
102
{BLKREFS
331
23C
102
}
 70
     0
280
     1
281
     0
  0
BLOCK_RECORD
  5
243
330
1
100
AcDbSymbolTableRecord
100
AcDbBlockTableRecord
  2
block 67
340
0
102
{BLKREFS
331
244
102
}
 70
     0
280
     1
281
     0
  0
BLOCK_RECORD
  5
24B
330
1
100
AcDbSymbolTableRecord
100
AcDbBlockTableRecord
  2
block 68
340
0
102
{BLKREFS
331
24C
102
}
 70
     0
280
     1
281
     0
  0
BLOCK_RECORD
  5
253
330
1
100
AcDbSymbolTableRecord
100
AcDbBlockTableRecord
  2
block 69
340
0
102
{BLKREFS
331
254
102
}
 70
     0
280
     1
281
     0
  0
BLOCK_RECORD
  5
25B
330
1
100
AcDbSymbolTableRecord
100
AcDbBlockTableRecord
  2
block 70
340
0
102
{BLKREFS
331
25C
102
}
 70
     0
280
     1
281
     0
  0
BLOCK_RECORD
  5
263
330
1
100
AcDbSymbolTableRecord
100
AcDbBlockTableRecord
  2
block 71
340
0
102
{BLKREFS
331
264
102
}
 70
     0
280
     1
281
     0
  0
BLOCK_RECORD
  5
26B
330
1
100
AcDbSymbolTableRecord
100
AcDbBlockTableRecord
  2
block 72
340
0
102
{BLKREFS
331
26C
102
}
 70
     0
280
     1
281
     0
  0
BLOCK_RECORD
  5
273
330
1
100
AcDbSymbolTableRecord
100
AcDbBlockTableRecord
  2
block 73
340
0
102
{BLKREFS
331
274
102
}
 70
     0
280
     1
281
     0
  0
BLOCK_RECORD
  5
27B
330
1
100
AcDbSymbolTableRecord
100
AcDbBlockTableRecord
  2
block 74
340
0
102
{BLKREFS
331
27C
102
}
 70
     0
280
     1
281
     0
  0
BLOCK_RECORD
  5
283
330
1
100
AcDbSymbolTableRecord
100
AcDbBlockTableRecord
  2
block 75
340
0
102
{BLKREFS
331
284
102
}
 70
     0
280
     1
281
     0
  0
BLOCK_RECORD
  5
28B
330
1
100
AcDbSymbolTableRecord
100
AcDbBlockTableRecord
  2
block 76
340
0
102
{BLKREFS
331
28C
102
}
 70
     0
280
     1
281
     0
  0
BLOCK_RECORD
  5
293
330
1
100
AcDbSymbolTableRecord
100
AcDbBlockTableRecord
  2
block 77
340
0
102
{BLKREFS
331
294
102
}
 70
     0
280
     1
281
     0
  0
BLOCK_RECORD
  5
29B
330
1
100
AcDbSymbolTableRecord
100
AcDbBlockTableRecord
  2
block 78
340
0
102
{BLKREFS
331
29C
102
}
 70
     0
280
     1
281
     0
  0
BLOCK_RECORD
  5
2A3
330
1
100
AcDbSymbolTableRecord
100
AcDbBlockTableRecord
  2
block 79
340
0
102
{BLKREFS
331
2A4
102
}
 70
     0
280
     1
281
     0
  0
BLOCK_RECORD
  5
2AB
330
1
100
AcDbSymbolTableRecord
100
AcDbBlockTableRecord
  2
block 80
340
0
102
{BLKREFS
331
2AC
102
}
 70
     0
280
     1
281
     0
  0
BLOCK_RECORD
  5
2B3
330
1
100
AcDbSymbolTableRecord
100
AcDbBlockTableRecord
  2
block 81
340
0
102
{BLKREFS
331
2B4
102
}
 70
     0
280
     1
281
     0
  0
BLOCK_RECORD
  5
2BB
330
1
100
AcDbSymbolTableRecord
100
AcDbBlockTableRecord
  2
block 82
340
0
102
{BLKREFS
331
2BC
102
}
 70
     0
280
     1
281
     0
  0
BLOCK_RECORD
  5
2C3
330
1
100
AcDbSymbolTableRecord
100
AcDbBlockTableRecord
  2
block 83
340
0
102
{BLKREFS
331
2C4
102
}
 70
     0
280
     1
281
     0
  0
BLOCK_RECORD
  5
2CB
330
1
100
AcDbSymbolTableRecord
100
AcDbBlockTableRecord
  2
block 84
340
0
102
{BLKREFS
331
2CC
102
}
 70
     0
280
     1
281
     0
  0
BLOCK_RECORD
  5
2D3
330
1
100
AcDbSymbolTableRecord
100
AcDbBlockTableRecord
  2
block 85
340
0
102
{BLKREFS
331
2D4
102
}
 70
     0
280
     1
281
     0
  0
BLOCK_RECORD
  5
2DB
330
1
100
AcDbSymbolTableRecord
100
AcDbBlockTableRecord
  2
block 86
340
0
102
{BLKREFS
331
2DC
102
}
 70
     0
280
     1
281
     0
  0
BLOCK_RECORD
  5
2E3
330
1
100
AcDbSymbolTableRecord
100
AcDbBlockTableRecord
  2
block 87
340
0
102
{BLKREFS
331
2E4
102
}
 70
     0
280
     1
281
     0
  0
BLOCK_RECORD
  5
2EB
330
1
100
AcDbSymbolTableRecord
100
AcDbBlockTableRecord
  2
block 88
340
0
102
{BLKREFS
331
2EC
102
}
 70
     0
280
     1
281
     0
  0
BLOCK_RECORD
  5
2F3
330
1
100
AcDbSymbolTableRecord
100
AcDbBlockTableRecord
  2
block 89
340
0
102
{BLKREFS
331
2F4
102
}
 70
     0
280
     1
281
     0
  0
BLOCK_RECORD
  5
2FB
330
1
100
AcDbSymbolTableRecord
100
AcDbBlockTableRecord
  2
block 90
340
0
102
{BLKREFS
331
2FC
102
}
 70
     0
280
     1
281
     0
  0
BLOCK_RECORD
  5
303
330
1
100
AcDbSymbolTableRecord
100
AcDbBlockTableRecord
  2
block 91
340
0
102
{BLKREFS
331
304
102
}
 70
     0
280
     1
281
     0
  0
BLOCK_RECORD
  5
30B
330
1
100
AcDbSymbolTableRecord
100
AcDbBlockTableRecord
  2
block 92
340
0
102
{BLKREFS
331
30C
102
}
 70
     0
280
     1
281
     0
  0
BLOCK_RECORD
  5
313
330
1
100
AcDbSymbolTableRecord
100
AcDbBlockTableRecord
  2
block 93
340
0
102
{BLKREFS
331
314
102
}
 70
     0
280
     1
281
     0
  0
BLOCK_RECORD
  5
31B
330
1
100
AcDbSymbolTableRecord
100
AcDbBlockTableRecord
  2
block 94
340
0
102
{BLKREFS
331
31C
102
}
 70
     0
280
     1
281
     0
  0
BLOCK_RECORD
  5
323
330
1
100
AcDbSymbolTableRecord
100
AcDbBlockTableRecord
  2
block 95
340
0
102
{BLKREFS
331
324
102
}
 70
     0
280
     1
281
     0
  0
BLOCK_RECORD
  5
32B
330
1
100
AcDbSymbolTableRecord
100
AcDbBlockTableRecord
  2
block 96
340
0
102
{BLKREFS
331
32C
102
}
 70
     0
280
     1
281
     0
  0
BLOCK_RECORD
  5
333
330
1
100
AcDbSymbolTableRecord
100
AcDbBlockTableRecord
  2
block 97
340
0
102
{BLKREFS
331
334
102
}
 70
     0
280
     1
281
     0
  0
BLOCK_RECORD
  5
33B
330
1
100
AcDbSymbolTableRecord
100
AcDbBlockTableRecord
  2
block 98
340
0
102
{BLKREFS
331
33C
102
}
 70
     0
280
     1
281
     0
  0
BLOCK_RECORD
  5
343
330
1
100
AcDbSymbolTableRecord
100
AcDbBlockTableRecord
  2
block 99
340
0
102
{BLKREFS
331
344
102
}
 70
     0
280
     1
281
     0
  0
BLOCK_RECORD
  5
34B
330
1
100
AcDbSymbolTableRecord
100
AcDbBlockTableRecord
  2
block 100
340
0
102
{BLKREFS
331
34C
102
}
 70
     0
280
     1
281
     0
  0
BLOCK_RECORD
  5
353
330
1
100
AcDbSymbolTableRecord
100
AcDbBlockTableRecord
  2
block 101
340
0
102
{BLKREFS
331
354
102
}
 70
     0
280
     1
281
     0
  0
BLOCK_RECORD
  5
35B
330
1
100
AcDbSymbolTableRecord
100
AcDbBlockTableRecord
  2
block 102
340
0
102
{BLKREFS
331
35C
102
}
 70
     0
280
     1
281
     0
  0
BLOCK_RECORD
  5
363
330
1
100
AcDbSymbolTableRecord
100
AcDbBlockTableRecord
  2
block 103
340
0
102
{BLKREFS
331
364
102
}
 70
     0
280
     1
281
     0
  0
BLOCK_RECORD
  5
36B
330
1
100
AcDbSymbolTableRecord
100
AcDbBlockTableRecord
  2
block 104
340
0
102
{BLKREFS
331
36C
102
}
 70
     0
280
     1
281
     0
  0
BLOCK_RECORD
  5
373
330
1
100
AcDbSymbolTableRecord
100
AcDbBlockTableRecord
  2
block 105
340
0
102
{BLKREFS
331
374
102
}
 70
     0
280
     1
281
     0
  0
BLOCK_RECORD
  5
37B
330
1
100
AcDbSymbolTableRecord
100
AcDbBlockTableRecord
  2
block 106
340
0
102
{BLKREFS
331
37C
102
}
 70
     0
280
     1
281
     0
  0
BLOCK_RECORD
  5
383
330
1
100
AcDbSymbolTableRecord
100
AcDbBlockTableRecord
  2
block 107
340
0
102
{BLKREFS
331
384
102
}
 70
     0
280
     1
281
     0
  0
BLOCK_RECORD
  5
38B
330
1
100
AcDbSymbolTableRecord
100
AcDbBlockTableRecord
  2
block 108
340
0
102
{BLKREFS
331
38C
102
}
 70
     0
280
     1
281
     0
  0
BLOCK_RECORD
  5
393
330
1
100
AcDbSymbolTableRecord
100
AcDbBlockTableRecord
  2
block 109
340
0
102
{BLKREFS
331
394
102
}
 70
     0
280
     1
281
     0
  0
BLOCK_RECORD
  5
39B
330
1
100
AcDbSymbolTableRecord
100
AcDbBlockTableRecord
  2
block 110
340
0
102
{BLKREFS
331
39C
102
}
 70
     0
280
     1
281
     0
  0
BLOCK_RECORD
  5
3A3
330
1
100
AcDbSymbolTableRecord
100
AcDbBlockTableRecord
  2
block 111
340
0
102
{BLKREFS
331
3A4
102
}
 70
     0
280
     1
281
     0
  0
BLOCK_RECORD
  5
3AB
330
1
100
AcDbSymbolTableRecord
100
AcDbBlockTableRecord
  2
block 112
340
0
102
{BLKREFS
331
3AC
102
}
 70
     0
280
     1
281
     0
  0
BLOCK_RECORD
  5
3B3
330
1
100
AcDbSymbolTableRecord
100
AcDbBlockTableRecord
  2
block 113
340
0
102
{BLKREFS
331
3B4
102
}
 70
     0
280
     1
281
     0
  0
BLOCK_RECORD
  5
3BB
330
1
100
AcDbSymbolTableRecord
100
AcDbBlockTableRecord
  2
block 114
340
0
102
{BLKREFS
331
3BC
102
}
 70
     0
280
     1
281
     0
  0
BLOCK_RECORD
  5
3C3
330
1
100
AcDbSymbolTableRecord
100
AcDbBlockTableRecord
  2
block 115
340
0
102
{BLKREFS
331
3C4
102
}
 70
     0
280
     1
281
     0
  0
BLOCK_RECORD
  5
3CB
330
1
100
AcDbSymbolTableRecord
100
AcDbBlockTableRecord
  2
block 116
340
0
102
{BLKREFS
331
3CC
102
}
 70
     0
280
     1
281
     0
  0
BLOCK_RECORD
  5
3D3
330
1
100
AcDbSymbolTableRecord
100
AcDbBlockTableRecord
  2
block 117
340
0
102
{BLKREFS
331
3D4
102
}
 70
     0
280
     1
281
     0
  0
BLOCK_RECORD
  5
3DB
330
1
100
AcDbSymbolTableRecord
100
AcDbBlockTableRecord
  2
block 118
340
0
102
{BLKREFS
331
3DC
102
}
 70
     0
280
     1
281
     0
  0
BLOCK_RECORD
  5
3E3
330
1
100
AcDbSymbolTableRecord
100
AcDbBlockTableRecord
  2
block 119
340
0
102
{BLKREFS
331
3E4
102
}
 70
     0
280
     1
281
     0
  0
BLOCK_RECORD
  5
3EB
330
1
100
AcDbSymbolTableRecord
100
AcDbBlockTableRecord
  2
block 120
340
0
102
{BLKREFS
331
3EC
102
}
 70
     0
280
     1
281
     0
  0
BLOCK_RECORD
  5
3F3
330
1
100
AcDbSymbolTableRecord
100
AcDbBlockTableRecord
  2
block 121
340
0
102
{BLKREFS
331
3F4
102
}
 70
     0
280
     1
281
     0
  0
BLOCK_RECORD
  5
3FB
330
1
100
AcDbSymbolTableRecord
100
AcDbBlockTableRecord
  2
block 122
340
0
102
{BLKREFS
331
3FC
102
}
 70
     0
280
     1
281
     0
  0
BLOCK_RECORD
  5
403
330
1
100
AcDbSymbolTableRecord
100
AcDbBlockTableRecord
  2
block 123
340
0
102
{BLKREFS
331
404
102
}
 70
     0
280
     1
281
     0
  0
BLOCK_RECORD
  5
40B
330
1
100
AcDbSymbolTableRecord
100
AcDbBlockTableRecord
  2
block 124
340
0
102
{BLKREFS
331
40C
102
}
 70
     0
280
     1
281
     0
  0
BLOCK_RECORD
  5
413
330
1
100
AcDbSymbolTableRecord
100
AcDbBlockTableRecord
  2
block 125
340
0
102
{BLKREFS
331
414
102
}
 70
     0
280
     1
281
     0
  0
BLOCK_RECORD
  5
41B
330
1
100
AcDbSymbolTableRecord
100
AcDbBlockTableRecord
  2
block 126
340
0
102
{BLKREFS
331
41C
102
}
 70
     0
280
     1
281
     0
  0
BLOCK_RECORD
  5
423
330
1
100
AcDbSymbolTableRecord
100
AcDbBlockTableRecord
  2
block 127
340
0
102
{BLKREFS
331
424
102
}
 70
     0
280
     1
281
     0
  0
BLOCK_RECORD
  5
42B
330
1
100
AcDbSymbolTableRecord
100
AcDbBlockTableRecord
  2
block 128
340
0
102
{BLKREFS
331
42C
102
}
 70
     0
280
     1
281
     0
  0
BLOCK_RECORD
  5
433
330
1
100
AcDbSymbolTableRecord
100
AcDbBlockTableRecord
  2
block 129
340
0
102
{BLKREFS
331
434
102
}
 70
     0
280
     1
281
     0
  0
BLOCK_RECORD
  5
43B
330
1
100
AcDbSymbolTableRecord
100
AcDbBlockTableRecord
  2
block 130
340
0
102
{BLKREFS
331
43C
102
}
 70
     0
280
     1
281
     0
  0
BLOCK_RECORD
  5
443
330
1
100
AcDbSymbolTableRecord
100
AcDbBlockTableRecord
  2
block 131
340
0
102
{BLKREFS
331
444
102
}
 70
     0
280
     1
281
     0
  0
BLOCK_RECORD
  5
44B
330
1
100
AcDbSymbolTableRecord
100
AcDbBlockTableRecord
  2
block 132
340
0
102
{BLKREFS
331
44C
102
}
 70
     0
280
     1
281
     0
  0
BLOCK_RECORD
  5
453
330
1
100
AcDbSymbolTableRecord
100
AcDbBlockTableRecord
  2
block 133
340
0
102
{BLKREFS
331
454
102
}
 70
     0
280
     1
281
     0
  0
BLOCK_RECORD
  5
45B
330
1
100
AcDbSymbolTableRecord
100
AcDbBlockTableRecord
  2
block 134
340
0
102
{BLKREFS
331
45C
102
}
 70
     0
280
     1
281
     0
  0
BLOCK_RECORD
  5
463
330
1
100
AcDbSymbolTableRecord
100
AcDbBlockTableRecord
  2
block 135
340
0
102
{BLKREFS
331
464
102
}
 70
     0
280
     1
281
     0
  0
BLOCK_RECORD
  5
46B
330
1
100
AcDbSymbolTableRecord
100
AcDbBlockTableRecord
  2
block 136
340
0
102
{BLKREFS
331
46C
102
}
 70
     0
280
     1
281
     0
  0
BLOCK_RECORD
  5
473
330
1
100
AcDbSymbolTableRecord
100
AcDbBlockTableRecord
  2
block 137
340
0
102
{BLKREFS
331
474
102
}
 70
     0
280
     1
281
     0
  0
BLOCK_RECORD
  5
47B
330
1
100
AcDbSymbolTableRecord
100
AcDbBlockTableRecord
  2
block 138
340
0
102
{BLKREFS
331
47C
102
}
 70
     0
280
     1
281
     0
  0
BLOCK_RECORD
  5
483
330
1
100
AcDbSymbolTableRecord
100
AcDbBlockTableRecord
  2
block 139
340
0
102
{BLKREFS
331
484
102
}
 70
     0
280
     1
281
     0
  0
BLOCK_RECORD
  5
48B
330
1
100
AcDbSymbolTableRecord
100
AcDbBlockTableRecord
  2
block 140
340
0
102
{BLKREFS
331
48C
102
}
 70
     0
280
     1
281
     0
  0
BLOCK_RECORD
  5
493
330
1
100
AcDbSymbolTableRecord
100
AcDbBlockTableRecord
  2
block 141
340
0
102
{BLKREFS
331
494
102
}
 70
     0
280
     1
281
     0
  0
BLOCK_RECORD
  5
49B
330
1
100
AcDbSymbolTableRecord
100
AcDbBlockTableRecord
  2
block 142
340
0
102
{BLKREFS
331
49C
102
}
 70
     0
280
     1
281
     0
  0
BLOCK_RECORD
  5
4A3
330
1
100
AcDbSymbolTableRecord
100
AcDbBlockTableRecord
  2
block 143
340
0
102
{BLKREFS
331
4A4
102
}
 70
     0
280
     1
281
     0
  0
BLOCK_RECORD
  5
4AB
330
1
100
AcDbSymbolTableRecord
100
AcDbBlockTableRecord
  2
block 144
340
0
102
{BLKREFS
331
4AC
102
}
 70
     0
280
     1
281
     0
  0
BLOCK_RECORD
  5
4B3
330
1
100
AcDbSymbolTableRecord
100
AcDbBlockTableRecord
  2
block 145
340
0
102
{BLKREFS
331
4B4
102
}
 70
     0
280
     1
281
     0
  0
BLOCK_RECORD
  5
4BB
330
1
100
AcDbSymbolTableRecord
100
AcDbBlockTableRecord
  2
block 146
340
0
102
{BLKREFS
331
4BC
102
}
 70
     0
280
     1
281
     0
  0
BLOCK_RECORD
  5
4C3
330
1
100
AcDbSymbolTableRecord
100
AcDbBlockTableRecord
  2
block 147
340
0
102
{BLKREFS
331
4C4
102
}
 70
     0
280
     1
281
     0
  0
BLOCK_RECORD
  5
4CB
330
1
100
AcDbSymbolTableRecord
100
AcDbBlockTableRecord
  2
block 148
340
0
102
{BLKREFS
331
4CC
102
}
 70
     0
280
     1
281
     0
  0
BLOCK_RECORD
  5
4D3
330
1
100
AcDbSymbolTableRecord
100
AcDbBlockTableRecord
  2
block 149
340
0
102
{BLKREFS
331
4D4
102
}
 70
     0
280
     1
281
     0
  0
BLOCK_RECORD
  5
4DB
330
1
100
AcDbSymbolTableRecord
100
AcDbBlockTableRecord
  2
block 150
340
0
102
{BLKREFS
331
4DC
102
}
 70
     0
280
     1
281
     0
  0
BLOCK_RECORD
  5
4E3
330
1
100
AcDbSymbolTableRecord
100
AcDbBlockTableRecord
  2
block 151
340
0
102
{BLKREFS
331
4E4
102
}
 70
     0
280
     1
281
     0
  0
BLOCK_RECORD
  5
4EB
330
1
100
AcDbSymbolTableRecord
100
AcDbBlockTableRecord
  2
block 152
340
0
102
{BLKREFS
331
4EC
102
}
 70
     0
280
     1
281
     0
  0
BLOCK_RECORD
  5
545
330
1
100
AcDbSymbolTableRecord
100
AcDbBlockTableRecord
  2
_Oblique
340
0
102
{BLKREFS
331
56E
331
56F
331
577
331
578
102
}
 70
     0
280
     1
281
     0
  0
BLOCK_RECORD
  5
552
330
1
100
AcDbSymbolTableRecord
100
AcDbBlockTableRecord
  2
*D155
340
0
 70
     0
280
     1
281
     0
  0
BLOCK_RECORD
  5
55F
330
1
100
AcDbSymbolTableRecord
100
AcDbBlockTableRecord
  2
*D156
340
0
 70
     0
280
     1
281
     0
  0
ENDTAB
  0
ENDSEC
  0
SECTION
  2
BLOCKS
  0
BLOCK
  5
20
330
1F
100
AcDbEntity
  8
0
100
AcDbBlockBegin
  2
*Model_Space
 70
     0
 10
0.0
 20
0.0
 30
0.0
  3
*Model_Space
  1

  0
ENDBLK
  5
21
330
1F
100
AcDbEntity
  8
0
100
AcDbBlockEnd
  0
BLOCK
  5
1C
330
1B
100
AcDbEntity
 67
     1
  8
0
100
AcDbBlockBegin
  2
*Paper_Space
 70
     0
 10
0.0
 20
0.0
 30
0.0
  3
*Paper_Space
  1

  0
ENDBLK
  5
1D
330
1B
100
AcDbEntity
 67
     1
  8
0
100
AcDbBlockEnd
  0
BLOCK
  5
24
330
23
100
AcDbEntity
 67
     1
  8
0
100
AcDbBlockBegin
  2
*Paper_Space0
 70
     0
 10
0.0
 20
0.0
 30
0.0
  3
*Paper_Space0
  1

  0
ENDBLK
  5
25
330
23
100
AcDbEntity
 67
     1
  8
0
100
AcDbBlockEnd
  0
BLOCK
  5
3D
330
3B
100
AcDbEntity
  8
0
100
AcDbBlockBegin
  2
block 2
 70
     0
 10
0.0
 20
0.0
 30
0.0
  3
block 2
  1

  0
POLYLINE
  5
3F
330
3B
100
AcDbEntity
  8
0
 62
     7
370
     9
100
AcDb2dPolyline
 66
     1
 10
0.0
 20
0.0
 30
0.0
  0
VERTEX
  5
40
330
3F
100
AcDbEntity
  8
0
 62
     7
370
     9
100
AcDbVertex
100
AcDb2dVertex
 10
248.3557193323549
 20
126.7913108253672
 30
0.0
  0
VERTEX
  5
41
330
3F
100
AcDbEntity
  8
0
 62
     7
370
     9
100
AcDbVertex
100
AcDb2dVertex
 10
248.3557193323549
 20
173.4339726057468
 30
0.0
  0
SEQEND
  5
42
330
3F
100
AcDbEntity
  8
0
370
     9
  0
ENDBLK
  5
3E
330
3B
100
AcDbEntity
  8
0
100
AcDbBlockEnd
  0
BLOCK
  5
45
330
43
100
AcDbEntity
  8
0
100
AcDbBlockBegin
  2
block 3
 70
     0
 10
0.0
 20
0.0
 30
0.0
  3
block 3
  1

  0
POLYLINE
  5
47
330
43
100
AcDbEntity
  8
0
 62
     7
370
     9
100
AcDb2dPolyline
 66
     1
 10
0.0
 20
0.0
 30
0.0
  0
VERTEX
  5
48
330
47
100
AcDbEntity
  8
0
 62
     7
370
     9
100
AcDbVertex
100
AcDb2dVertex
 10
246.5580673222505
 20
126.7913108253672
 30
0.0
  0
VERTEX
  5
49
330
47
100
AcDbEntity
  8
0
 62
     7
370
     9
100
AcDbVertex
100
AcDb2dVertex
 10
248.3557193323549
 20
126.7913108253672
 30
0.0
  0
SEQEND
  5
4A
330
47
100
AcDbEntity
  8
0
370
     9
  0
ENDBLK
  5
46
330
43
100
AcDbEntity
  8
0
100
AcDbBlockEnd
  0
BLOCK
  5
4D
330
4B
100
AcDbEntity
  8
0
100
AcDbBlockBegin
  2
block 4
 70
     0
 10
0.0
 20
0.0
 30
0.0
  3
block 4
  1

  0
POLYLINE
  5
4F
330
4B
100
AcDbEntity
  8
0
 62
     7
370
     9
100
AcDb2dPolyline
 66
     1
 10
0.0
 20
0.0
 30
0.0
  0
VERTEX
  5
50
330
4F
100
AcDbEntity
  8
0
 62
     7
370
     9
100
AcDbVertex
100
AcDb2dVertex
 10
246.5580673222505
 20
173.4339726057468
 30
0.0
  0
VERTEX
  5
51
330
4F
100
AcDbEntity
  8
0
 62
     7
370
     9
100
AcDbVertex
100
AcDb2dVertex
 10
246.5580673222505
 20
171.6363205956424
 30
0.0
  0
SEQEND
  5
52
330
4F
100
AcDbEntity
  8
0
370
     9
  0
ENDBLK
  5
4E
330
4B
100
AcDbEntity
  8
0
100
AcDbBlockEnd
  0
BLOCK
  5
55
330
53
100
AcDbEntity
  8
0
100
AcDbBlockBegin
  2
block 5
 70
     0
 10
0.0
 20
0.0
 30
0.0
  3
block 5
  1

  0
POLYLINE
  5
57
330
53
100
AcDbEntity
  8
0
 62
     7
370
     9
100
AcDb2dPolyline
 66
     1
 10
0.0
 20
0.0
 30
0.0
  0
VERTEX
  5
58
330
57
100
AcDbEntity
  8
0
 62
     7
370
     9
100
AcDbVertex
100
AcDb2dVertex
 10
246.5580673222505
 20
171.6363205956424
 30
0.0
  0
VERTEX
  5
59
330
57
100
AcDbEntity
  8
0
 62
     7
370
     9
100
AcDbVertex
100
AcDb2dVertex
 10
246.5580673222505
 20
128.5889628354716
 30
0.0
  0
SEQEND
  5
5A
330
57
100
AcDbEntity
  8
0
370
     9
  0
ENDBLK
  5
56
330
53
100
AcDbEntity
  8
0
100
AcDbBlockEnd
  0
BLOCK
  5
5D
330
5B
100
AcDbEntity
  8
0
100
AcDbBlockBegin
  2
block 6
 70
     0
 10
0.0
 20
0.0
 30
0.0
  3
block 6
  1

  0
POLYLINE
  5
5F
330
5B
100
AcDbEntity
  8
0
 62
     7
370
     9
100
AcDb2dPolyline
 66
     1
 10
0.0
 20
0.0
 30
0.0
  0
VERTEX
  5
60
330
5F
100
AcDbEntity
  8
0
 62
     7
370
     9
100
AcDbVertex
100
AcDb2dVertex
 10
246.5580673222505
 20
128.5889628354716
 30
0.0
  0
VERTEX
  5
61
330
5F
100
AcDbEntity
  8
0
 62
     7
370
     9
100
AcDbVertex
100
AcDb2dVertex
 10
246.5580673222505
 20
126.7913108253672
 30
0.0
  0
SEQEND
  5
62
330
5F
100
AcDbEntity
  8
0
370
     9
  0
ENDBLK
  5
5E
330
5B
100
AcDbEntity
  8
0
100
AcDbBlockEnd
  0
BLOCK
  5
65
330
63
100
AcDbEntity
  8
0
100
AcDbBlockBegin
  2
block 7
 70
     0
 10
0.0
 20
0.0
 30
0.0
  3
block 7
  1

  0
POLYLINE
  5
67
330
63
100
AcDbEntity
  8
0
 62
     7
370
     9
100
AcDb2dPolyline
 66
     1
 10
0.0
 20
0.0
 30
0.0
  0
VERTEX
  5
68
330
67
100
AcDbEntity
  8
0
 62
     7
370
     9
100
AcDbVertex
100
AcDb2dVertex
 10
248.3557193323549
 20
173.4339726057468
 30
0.0
  0
VERTEX
  5
69
330
67
100
AcDbEntity
  8
0
 62
     7
370
     9
100
AcDbVertex
100
AcDb2dVertex
 10
246.5580673222505
 20
173.4339726057468
 30
0.0
  0
SEQEND
  5
6A
330
67
100
AcDbEntity
  8
0
370
     9
  0
ENDBLK
  5
66
330
63
100
AcDbEntity
  8
0
100
AcDbBlockEnd
  0
BLOCK
  5
6D
330
6B
100
AcDbEntity
  8
0
100
AcDbBlockBegin
  2
block 8
 70
     0
 10
0.0
 20
0.0
 30
0.0
  3
block 8
  1

  0
POLYLINE
  5
6F
330
6B
100
AcDbEntity
  8
0
 62
     7
370
     9
100
AcDb2dPolyline
 66
     1
 10
0.0
 20
0.0
 30
0.0
  0
VERTEX
  5
70
330
6F
100
AcDbEntity
  8
0
 62
     7
370
     9
100
AcDbVertex
100
AcDb2dVertex
 10
246.5580673222505
 20
171.6363205956424
 30
0.0
  0
VERTEX
  5
71
330
6F
100
AcDbEntity
  8
0
 62
     7
370
     9
100
AcDbVertex
100
AcDb2dVertex
 10
246.5580673222505
 20
170.2379554156857
 30
0.0
  0
SEQEND
  5
72
330
6F
100
AcDbEntity
  8
0
370
     9
  0
ENDBLK
  5
6E
330
6B
100
AcDbEntity
  8
0
100
AcDbBlockEnd
  0
BLOCK
  5
75
330
73
100
AcDbEntity
  8
0
100
AcDbBlockBegin
  2
block 9
 70
     0
 10
0.0
 20
0.0
 30
0.0
  3
block 9
  1

  0
POLYLINE
  5
77
330
73
100
AcDbEntity
  8
0
 62
     7
370
     9
100
AcDb2dPolyline
 66
     1
 10
0.0
 20
0.0
 30
0.0
  0
VERTEX
  5
78
330
77
100
AcDbEntity
  8
0
 62
     7
370
     9
100
AcDbVertex
100
AcDb2dVertex
 10
246.5580673222505
 20
168.4401311506934
 30
0.0
  0
VERTEX
  5
79
330
77
100
AcDbEntity
  8
0
 62
     7
370
     9
100
AcDbVertex
100
AcDb2dVertex
 10
246.5580673222505
 20
128.5889628354716
 30
0.0
  0
SEQEND
  5
7A
330
77
100
AcDbEntity
  8
0
370
     9
  0
ENDBLK
  5
76
330
73
100
AcDbEntity
  8
0
100
AcDbBlockEnd
  0
BLOCK
  5
7D
330
7B
100
AcDbEntity
  8
0
100
AcDbBlockBegin
  2
block 10
 70
     0
 10
0.0
 20
0.0
 30
0.0
  3
block 10
  1

  0
POLYLINE
  5
7F
330
7B
100
AcDbEntity
  8
0
 62
     7
370
     9
100
AcDb2dPolyline
 66
     1
 10
0.0
 20
0.0
 30
0.0
  0
VERTEX
  5
80
330
7F
100
AcDbEntity
  8
0
 62
     7
370
     9
100
AcDbVertex
100
AcDb2dVertex
 10
173.2479373268169
 20
128.5889628354716
 30
0.0
  0
VERTEX
  5
81
330
7F
100
AcDbEntity
  8
0
 62
     7
370
     9
100
AcDbVertex
100
AcDb2dVertex
 10
173.2479373268169
 20
168.4401311506934
 30
0.0
  0
SEQEND
  5
82
330
7F
100
AcDbEntity
  8
0
370
     9
  0
ENDBLK
  5
7E
330
7B
100
AcDbEntity
  8
0
100
AcDbBlockEnd
  0
BLOCK
  5
85
330
83
100
AcDbEntity
  8
0
100
AcDbBlockBegin
  2
block 11
 70
     0
 10
0.0
 20
0.0
 30
0.0
  3
block 11
  1

  0
POLYLINE
  5
87
330
83
100
AcDbEntity
  8
0
 62
     7
370
     9
100
AcDb2dPolyline
 66
     1
 10
0.0
 20
0.0
 30
0.0
  0
VERTEX
  5
88
330
87
100
AcDbEntity
  8
0
 62
     7
370
     9
100
AcDbVertex
100
AcDb2dVertex
 10
173.2479373268169
 20
170.2379554156857
 30
0.0
  0
VERTEX
  5
89
330
87
100
AcDbEntity
  8
0
 62
     7
370
     9
100
AcDbVertex
100
AcDb2dVertex
 10
173.2479373268169
 20
171.6363205956424
 30
0.0
  0
SEQEND
  5
8A
330
87
100
AcDbEntity
  8
0
370
     9
  0
ENDBLK
  5
86
330
83
100
AcDbEntity
  8
0
100
AcDbBlockEnd
  0
BLOCK
  5
8D
330
8B
100
AcDbEntity
  8
0
100
AcDbBlockBegin
  2
block 12
 70
     0
 10
0.0
 20
0.0
 30
0.0
  3
block 12
  1

  0
POLYLINE
  5
8F
330
8B
100
AcDbEntity
  8
0
 62
     7
370
     9
100
AcDb2dPolyline
 66
     1
 10
0.0
 20
0.0
 30
0.0
  0
VERTEX
  5
90
330
8F
100
AcDbEntity
  8
0
 62
     7
370
     9
100
AcDbVertex
100
AcDb2dVertex
 10
173.2479373268169
 20
168.4401311506934
 30
0.0
  0
VERTEX
  5
91
330
8F
100
AcDbEntity
  8
0
 62
     7
370
     9
100
AcDbVertex
100
AcDb2dVertex
 10
246.5580673222505
 20
168.4401311506934
 30
0.0
  0
SEQEND
  5
92
330
8F
100
AcDbEntity
  8
0
370
     9
  0
ENDBLK
  5
8E
330
8B
100
AcDbEntity
  8
0
100
AcDbBlockEnd
  0
BLOCK
  5
95
330
93
100
AcDbEntity
  8
0
100
AcDbBlockBegin
  2
block 13
 70
     0
 10
0.0
 20
0.0
 30
0.0
  3
block 13
  1

  0
POLYLINE
  5
97
330
93
100
AcDbEntity
  8
0
 62
     7
370
     9
100
AcDb2dPolyline
 66
     1
 10
0.0
 20
0.0
 30
0.0
  0
VERTEX
  5
98
330
97
100
AcDbEntity
  8
0
 62
     7
370
     9
100
AcDbVertex
100
AcDb2dVertex
 10
173.2479373268169
 20
170.2379554156857
 30
0.0
  0
VERTEX
  5
99
330
97
100
AcDbEntity
  8
0
 62
     7
370
     9
100
AcDbVertex
100
AcDb2dVertex
 10
173.2479373268169
 20
168.4401311506934
 30
0.0
  0
SEQEND
  5
9A
330
97
100
AcDbEntity
  8
0
370
     9
  0
ENDBLK
  5
96
330
93
100
AcDbEntity
  8
0
100
AcDbBlockEnd
  0
BLOCK
  5
9D
330
9B
100
AcDbEntity
  8
0
100
AcDbBlockBegin
  2
block 14
 70
     0
 10
0.0
 20
0.0
 30
0.0
  3
block 14
  1

  0
POLYLINE
  5
9F
330
9B
100
AcDbEntity
  8
0
 62
     7
370
     9
100
AcDb2dPolyline
 66
     1
 10
0.0
 20
0.0
 30
0.0
  0
VERTEX
  5
A0
330
9F
100
AcDbEntity
  8
0
 62
     7
370
     9
100
AcDbVertex
100
AcDb2dVertex
 10
246.5580673222505
 20
170.2379554156857
 30
0.0
  0
VERTEX
  5
A1
330
9F
100
AcDbEntity
  8
0
 62
     7
370
     9
100
AcDbVertex
100
AcDb2dVertex
 10
173.2479373268169
 20
170.2379554156857
 30
0.0
  0
SEQEND
  5
A2
330
9F
100
AcDbEntity
  8
0
370
     9
  0
ENDBLK
  5
9E
330
9B
100
AcDbEntity
  8
0
100
AcDbBlockEnd
  0
BLOCK
  5
A5
330
A3
100
AcDbEntity
  8
0
100
AcDbBlockBegin
  2
block 15
 70
     0
 10
0.0
 20
0.0
 30
0.0
  3
block 15
  1

  0
POLYLINE
  5
A7
330
A3
100
AcDbEntity
  8
0
 62
     7
370
     9
100
AcDb2dPolyline
 66
     1
 10
0.0
 20
0.0
 30
0.0
  0
VERTEX
  5
A8
330
A7
100
AcDbEntity
  8
0
 62
     7
370
     9
100
AcDbVertex
100
AcDb2dVertex
 10
173.2479373268169
 20
170.2379554156857
 30
0.0
  0
VERTEX
  5
A9
330
A7
100
AcDbEntity
  8
0
 62
     7
370
     9
100
AcDbVertex
100
AcDb2dVertex
 10
246.5580673222505
 20
170.2379554156857
 30
0.0
  0
SEQEND
  5
AA
330
A7
100
AcDbEntity
  8
0
370
     9
  0
ENDBLK
  5
A6
330
A3
100
AcDbEntity
  8
0
100
AcDbBlockEnd
  0
BLOCK
  5
AD
330
AB
100
AcDbEntity
  8
0
100
AcDbBlockBegin
  2
block 16
 70
     0
 10
0.0
 20
0.0
 30
0.0
  3
block 16
  1

  0
POLYLINE
  5
AF
330
AB
100
AcDbEntity
  8
0
 62
     7
370
     9
100
AcDb2dPolyline
 66
     1
 10
0.0
 20
0.0
 30
0.0
  0
VERTEX
  5
B0
330
AF
100
AcDbEntity
  8
0
 62
     7
370
     9
100
AcDbVertex
100
AcDb2dVertex
 10
246.5580673222505
 20
173.4339726057468
 30
0.0
  0
VERTEX
  5
B1
330
AF
100
AcDbEntity
  8
0
 62
     7
370
     9
100
AcDbVertex
100
AcDb2dVertex
 10
173.2479373268169
 20
173.4339726057468
 30
0.0
  0
SEQEND
  5
B2
330
AF
100
AcDbEntity
  8
0
370
     9
  0
ENDBLK
  5
AE
330
AB
100
AcDbEntity
  8
0
100
AcDbBlockEnd
  0
BLOCK
  5
B5
330
B3
100
AcDbEntity
  8
0
100
AcDbBlockBegin
  2
block 17
 70
     0
 10
0.0
 20
0.0
 30
0.0
  3
block 17
  1

  0
POLYLINE
  5
B7
330
B3
100
AcDbEntity
  8
0
 62
     7
370
     9
100
AcDb2dPolyline
 66
     1
 10
0.0
 20
0.0
 30
0.0
  0
VERTEX
  5
B8
330
B7
100
AcDbEntity
  8
0
 62
     7
370
     9
100
AcDbVertex
100
AcDb2dVertex
 10
246.5580673222505
 20
171.6363205956424
 30
0.0
  0
VERTEX
  5
B9
330
B7
100
AcDbEntity
  8
0
 62
     7
370
     9
100
AcDbVertex
100
AcDb2dVertex
 10
246.5580673222505
 20
173.4339726057468
 30
0.0
  0
SEQEND
  5
BA
330
B7
100
AcDbEntity
  8
0
370
     9
  0
ENDBLK
  5
B6
330
B3
100
AcDbEntity
  8
0
100
AcDbBlockEnd
  0
BLOCK
  5
BD
330
BB
100
AcDbEntity
  8
0
100
AcDbBlockBegin
  2
block 18
 70
     0
 10
0.0
 20
0.0
 30
0.0
  3
block 18
  1

  0
POLYLINE
  5
BF
330
BB
100
AcDbEntity
  8
0
 62
     7
370
     9
100
AcDb2dPolyline
 66
     1
 10
0.0
 20
0.0
 30
0.0
  0
VERTEX
  5
C0
330
BF
100
AcDbEntity
  8
0
 62
     7
370
     9
100
AcDbVertex
100
AcDb2dVertex
 10
173.2479373268169
 20
171.6363205956424
 30
0.0
  0
VERTEX
  5
C1
330
BF
100
AcDbEntity
  8
0
 62
     7
370
     9
100
AcDbVertex
100
AcDb2dVertex
 10
246.5580673222505
 20
171.6363205956424
 30
0.0
  0
SEQEND
  5
C2
330
BF
100
AcDbEntity
  8
0
370
     9
  0
ENDBLK
  5
BE
330
BB
100
AcDbEntity
  8
0
100
AcDbBlockEnd
  0
BLOCK
  5
C5
330
C3
100
AcDbEntity
  8
0
100
AcDbBlockBegin
  2
block 19
 70
     0
 10
0.0
 20
0.0
 30
0.0
  3
block 19
  1

  0
POLYLINE
  5
C7
330
C3
100
AcDbEntity
  8
0
 62
     7
370
     9
100
AcDb2dPolyline
 66
     1
 10
0.0
 20
0.0
 30
0.0
  0
VERTEX
  5
C8
330
C7
100
AcDbEntity
  8
0
 62
     7
370
     9
100
AcDbVertex
100
AcDb2dVertex
 10
173.2479373268169
 20
171.6363205956424
 30
0.0
  0
VERTEX
  5
C9
330
C7
100
AcDbEntity
  8
0
 62
     7
370
     9
100
AcDbVertex
100
AcDb2dVertex
 10
173.2479373268169
 20
173.4339726057468
 30
0.0
  0
SEQEND
  5
CA
330
C7
100
AcDbEntity
  8
0
370
     9
  0
ENDBLK
  5
C6
330
C3
100
AcDbEntity
  8
0
100
AcDbBlockEnd
  0
BLOCK
  5
CD
330
CB
100
AcDbEntity
  8
0
100
AcDbBlockBegin
  2
block 20
 70
     0
 10
0.0
 20
0.0
 30
0.0
  3
block 20
  1

  0
POLYLINE
  5
CF
330
CB
100
AcDbEntity
  8
0
 62
     7
370
     9
100
AcDb2dPolyline
 66
     1
 10
0.0
 20
0.0
 30
0.0
  0
VERTEX
  5
D0
330
CF
100
AcDbEntity
  8
0
 62
     7
370
     9
100
AcDbVertex
100
AcDb2dVertex
 10
246.5580673222505
 20
128.5889628354716
 30
0.0
  0
VERTEX
  5
D1
330
CF
100
AcDbEntity
  8
0
 62
     7
370
     9
100
AcDbVertex
100
AcDb2dVertex
 10
173.2479373268169
 20
128.5889628354716
 30
0.0
  0
SEQEND
  5
D2
330
CF
100
AcDbEntity
  8
0
370
     9
  0
ENDBLK
  5
CE
330
CB
100
AcDbEntity
  8
0
100
AcDbBlockEnd
  0
BLOCK
  5
D5
330
D3
100
AcDbEntity
  8
0
100
AcDbBlockBegin
  2
block 21
 70
     0
 10
0.0
 20
0.0
 30
0.0
  3
block 21
  1

  0
POLYLINE
  5
D7
330
D3
100
AcDbEntity
  8
0
 62
     7
370
     9
100
AcDb2dPolyline
 66
     1
 10
0.0
 20
0.0
 30
0.0
  0
VERTEX
  5
D8
330
D7
100
AcDbEntity
  8
0
 62
     7
370
     9
100
AcDbVertex
100
AcDb2dVertex
 10
246.5580673222505
 20
126.7913108253672
 30
0.0
  0
VERTEX
  5
D9
330
D7
100
AcDbEntity
  8
0
 62
     7
370
     9
100
AcDbVertex
100
AcDb2dVertex
 10
246.5580673222505
 20
128.5889628354716
 30
0.0
  0
SEQEND
  5
DA
330
D7
100
AcDbEntity
  8
0
370
     9
  0
ENDBLK
  5
D6
330
D3
100
AcDbEntity
  8
0
100
AcDbBlockEnd
  0
BLOCK
  5
DD
330
DB
100
AcDbEntity
  8
0
100
AcDbBlockBegin
  2
block 22
 70
     0
 10
0.0
 20
0.0
 30
0.0
  3
block 22
  1

  0
POLYLINE
  5
DF
330
DB
100
AcDbEntity
  8
0
 62
     7
370
     9
100
AcDb2dPolyline
 66
     1
 10
0.0
 20
0.0
 30
0.0
  0
VERTEX
  5
E0
330
DF
100
AcDbEntity
  8
0
 62
     7
370
     9
100
AcDbVertex
100
AcDb2dVertex
 10
173.2479373268169
 20
126.7913108253672
 30
0.0
  0
VERTEX
  5
E1
330
DF
100
AcDbEntity
  8
0
 62
     7
370
     9
100
AcDbVertex
100
AcDb2dVertex
 10
246.5580673222505
 20
126.7913108253672
 30
0.0
  0
SEQEND
  5
E2
330
DF
100
AcDbEntity
  8
0
370
     9
  0
ENDBLK
  5
DE
330
DB
100
AcDbEntity
  8
0
100
AcDbBlockEnd
  0
BLOCK
  5
E5
330
E3
100
AcDbEntity
  8
0
100
AcDbBlockBegin
  2
block 23
 70
     0
 10
0.0
 20
0.0
 30
0.0
  3
block 23
  1

  0
POLYLINE
  5
E7
330
E3
100
AcDbEntity
  8
0
 62
     7
370
     9
100
AcDb2dPolyline
 66
     1
 10
0.0
 20
0.0
 30
0.0
  0
VERTEX
  5
E8
330
E7
100
AcDbEntity
  8
0
 62
     7
370
     9
100
AcDbVertex
100
AcDb2dVertex
 10
173.2479373268169
 20
126.7913108253672
 30
0.0
  0
VERTEX
  5
E9
330
E7
100
AcDbEntity
  8
0
 62
     7
370
     9
100
AcDbVertex
100
AcDb2dVertex
 10
173.2479373268169
 20
128.5889628354716
 30
0.0
  0
SEQEND
  5
EA
330
E7
100
AcDbEntity
  8
0
370
     9
  0
ENDBLK
  5
E6
330
E3
100
AcDbEntity
  8
0
100
AcDbBlockEnd
  0
BLOCK
  5
ED
330
EB
100
AcDbEntity
  8
0
100
AcDbBlockBegin
  2
block 24
 70
     0
 10
0.0
 20
0.0
 30
0.0
  3
block 24
  1

  0
POLYLINE
  5
EF
330
EB
100
AcDbEntity
  8
0
 62
     7
370
     9
100
AcDb2dPolyline
 66
     1
 10
0.0
 20
0.0
 30
0.0
  0
VERTEX
  5
F0
330
EF
100
AcDbEntity
  8
0
 62
     7
370
     9
100
AcDbVertex
100
AcDb2dVertex
 10
171.4501130618246
 20
126.7913108253672
 30
0.0
  0
VERTEX
  5
F1
330
EF
100
AcDbEntity
  8
0
 62
     7
370
     9
100
AcDbVertex
100
AcDb2dVertex
 10
173.2479373268169
 20
126.7913108253672
 30
0.0
  0
SEQEND
  5
F2
330
EF
100
AcDbEntity
  8
0
370
     9
  0
ENDBLK
  5
EE
330
EB
100
AcDbEntity
  8
0
100
AcDbBlockEnd
  0
BLOCK
  5
F5
330
F3
100
AcDbEntity
  8
0
100
AcDbBlockBegin
  2
block 25
 70
     0
 10
0.0
 20
0.0
 30
0.0
  3
block 25
  1

  0
POLYLINE
  5
F7
330
F3
100
AcDbEntity
  8
0
 62
     7
370
     9
100
AcDb2dPolyline
 66
     1
 10
0.0
 20
0.0
 30
0.0
  0
VERTEX
  5
F8
330
F7
100
AcDbEntity
  8
0
 62
     7
370
     9
100
AcDbVertex
100
AcDb2dVertex
 10
171.4501130618246
 20
173.4339726057468
 30
0.0
  0
VERTEX
  5
F9
330
F7
100
AcDbEntity
  8
0
 62
     7
370
     9
100
AcDbVertex
100
AcDb2dVertex
 10
171.4501130618246
 20
126.7913108253672
 30
0.0
  0
SEQEND
  5
FA
330
F7
100
AcDbEntity
  8
0
370
     9
  0
ENDBLK
  5
F6
330
F3
100
AcDbEntity
  8
0
100
AcDbBlockEnd
  0
BLOCK
  5
FD
330
FB
100
AcDbEntity
  8
0
100
AcDbBlockBegin
  2
block 26
 70
     0
 10
0.0
 20
0.0
 30
0.0
  3
block 26
  1

  0
POLYLINE
  5
FF
330
FB
100
AcDbEntity
  8
0
 62
     7
370
     9
100
AcDb2dPolyline
 66
     1
 10
0.0
 20
0.0
 30
0.0
  0
VERTEX
  5
100
330
FF
100
AcDbEntity
  8
0
 62
     7
370
     9
100
AcDbVertex
100
AcDb2dVertex
 10
173.2479373268169
 20
173.4339726057468
 30
0.0
  0
VERTEX
  5
101
330
FF
100
AcDbEntity
  8
0
 62
     7
370
     9
100
AcDbVertex
100
AcDb2dVertex
 10
171.4501130618246
 20
173.4339726057468
 30
0.0
  0
SEQEND
  5
102
330
FF
100
AcDbEntity
  8
0
370
     9
  0
ENDBLK
  5
FE
330
FB
100
AcDbEntity
  8
0
100
AcDbBlockEnd
  0
BLOCK
  5
105
330
103
100
AcDbEntity
  8
0
100
AcDbBlockBegin
  2
block 27
 70
     0
 10
0.0
 20
0.0
 30
0.0
  3
block 27
  1

  0
POLYLINE
  5
107
330
103
100
AcDbEntity
  8
0
 62
     7
370
     9
100
AcDb2dPolyline
 66
     1
 10
0.0
 20
0.0
 30
0.0
  0
VERTEX
  5
108
330
107
100
AcDbEntity
  8
0
 62
     7
370
     9
100
AcDbVertex
100
AcDb2dVertex
 10
173.2479373268169
 20
126.7913108253672
 30
0.0
  0
VERTEX
  5
109
330
107
100
AcDbEntity
  8
0
 62
     7
370
     9
100
AcDbVertex
100
AcDb2dVertex
 10
173.2479373268169
 20
128.5889628354716
 30
0.0
  0
SEQEND
  5
10A
330
107
100
AcDbEntity
  8
0
370
     9
  0
ENDBLK
  5
106
330
103
100
AcDbEntity
  8
0
100
AcDbBlockEnd
  0
BLOCK
  5
10D
330
10B
100
AcDbEntity
  8
0
100
AcDbBlockBegin
  2
block 28
 70
     0
 10
0.0
 20
0.0
 30
0.0
  3
block 28
  1

  0
POLYLINE
  5
10F
330
10B
100
AcDbEntity
  8
0
 62
     7
370
     9
100
AcDb2dPolyline
 66
     1
 10
0.0
 20
0.0
 30
0.0
  0
VERTEX
  5
110
330
10F
100
AcDbEntity
  8
0
 62
     7
370
     9
100
AcDbVertex
100
AcDb2dVertex
 10
173.2479373268169
 20
128.5889628354716
 30
0.0
  0
VERTEX
  5
111
330
10F
100
AcDbEntity
  8
0
 62
     7
370
     9
100
AcDbVertex
100
AcDb2dVertex
 10
173.2479373268169
 20
171.6363205956424
 30
0.0
  0
SEQEND
  5
112
330
10F
100
AcDbEntity
  8
0
370
     9
  0
ENDBLK
  5
10E
330
10B
100
AcDbEntity
  8
0
100
AcDbBlockEnd
  0
BLOCK
  5
115
330
113
100
AcDbEntity
  8
0
100
AcDbBlockBegin
  2
block 29
 70
     0
 10
0.0
 20
0.0
 30
0.0
  3
block 29
  1

  0
POLYLINE
  5
117
330
113
100
AcDbEntity
  8
0
 62
     7
370
     9
100
AcDb2dPolyline
 66
     1
 10
0.0
 20
0.0
 30
0.0
  0
VERTEX
  5
118
330
117
100
AcDbEntity
  8
0
 62
     7
370
     9
100
AcDbVertex
100
AcDb2dVertex
 10
173.2479373268169
 20
171.6363205956424
 30
0.0
  0
VERTEX
  5
119
330
117
100
AcDbEntity
  8
0
 62
     7
370
     9
100
AcDbVertex
100
AcDb2dVertex
 10
173.2479373268169
 20
173.4339726057468
 30
0.0
  0
SEQEND
  5
11A
330
117
100
AcDbEntity
  8
0
370
     9
  0
ENDBLK
  5
116
330
113
100
AcDbEntity
  8
0
100
AcDbBlockEnd
  0
BLOCK
  5
11D
330
11B
100
AcDbEntity
  8
0
100
AcDbBlockBegin
  2
block 30
 70
     0
 10
0.0
 20
0.0
 30
0.0
  3
block 30
  1

  0
POLYLINE
  5
11F
330
11B
100
AcDbEntity
  8
0
 62
     7
370
     9
100
AcDb2dPolyline
 66
     1
 10
0.0
 20
0.0
 30
0.0
  0
VERTEX
  5
120
330
11F
100
AcDbEntity
  8
0
 62
     7
370
     9
100
AcDbVertex
100
AcDb2dVertex
 10
171.4501130618246
 20
126.7913108253672
 30
0.0
  0
VERTEX
  5
121
330
11F
100
AcDbEntity
  8
0
 62
     7
370
     9
100
AcDbVertex
100
AcDb2dVertex
 10
171.4501130618246
 20
173.4339726057468
 30
0.0
  0
SEQEND
  5
122
330
11F
100
AcDbEntity
  8
0
370
     9
  0
ENDBLK
  5
11E
330
11B
100
AcDbEntity
  8
0
100
AcDbBlockEnd
  0
BLOCK
  5
125
330
123
100
AcDbEntity
  8
0
100
AcDbBlockBegin
  2
block 31
 70
     0
 10
0.0
 20
0.0
 30
0.0
  3
block 31
  1

  0
POLYLINE
  5
127
330
123
100
AcDbEntity
  8
0
 62
     7
370
     9
100
AcDb2dPolyline
 66
     1
 10
0.0
 20
0.0
 30
0.0
  0
VERTEX
  5
128
330
127
100
AcDbEntity
  8
0
 62
     7
370
     9
100
AcDbVertex
100
AcDb2dVertex
 10
171.6340812820997
 20
123.696924019166
 30
0.0
  0
VERTEX
  5
129
330
127
100
AcDbEntity
  8
0
 62
     7
370
     9
100
AcDbVertex
100
AcDb2dVertex
 10
171.6340812820997
 20
123.6052844188042
 30
0.0
  0
SEQEND
  5
12A
330
127
100
AcDbEntity
  8
0
370
     9
  0
ENDBLK
  5
126
330
123
100
AcDbEntity
  8
0
100
AcDbBlockEnd
  0
BLOCK
  5
12D
330
12B
100
AcDbEntity
  8
0
100
AcDbBlockBegin
  2
block 32
 70
     0
 10
0.0
 20
0.0
 30
0.0
  3
block 32
  1

  0
POLYLINE
  5
12F
330
12B
100
AcDbEntity
  8
0
 62
     7
370
     9
100
AcDb2dPolyline
 66
     1
 10
0.0
 20
0.0
 30
0.0
  0
VERTEX
  5
130
330
12F
100
AcDbEntity
  8
0
 62
     7
370
     9
100
AcDbVertex
100
AcDb2dVertex
 10
171.6340812820997
 20
123.8450632227584
 30
0.0
  0
VERTEX
  5
131
330
12F
100
AcDbEntity
  8
0
 62
     7
370
     9
100
AcDbVertex
100
AcDb2dVertex
 10
171.6340812820997
 20
123.696924019166
 30
0.0
  0
SEQEND
  5
132
330
12F
100
AcDbEntity
  8
0
370
     9
  0
ENDBLK
  5
12E
330
12B
100
AcDbEntity
  8
0
100
AcDbBlockEnd
  0
BLOCK
  5
135
330
133
100
AcDbEntity
  8
0
100
AcDbBlockBegin
  2
block 33
 70
     0
 10
0.0
 20
0.0
 30
0.0
  3
block 33
  1

  0
POLYLINE
  5
137
330
133
100
AcDbEntity
  8
0
 62
     7
370
     9
100
AcDb2dPolyline
 66
     1
 10
0.0
 20
0.0
 30
0.0
  0
VERTEX
  5
138
330
137
100
AcDbEntity
  8
0
 62
     7
370
     9
100
AcDbVertex
100
AcDb2dVertex
 10
171.6340812820997
 20
123.9932024263507
 30
0.0
  0
VERTEX
  5
139
330
137
100
AcDbEntity
  8
0
 62
     7
370
     9
100
AcDbVertex
100
AcDb2dVertex
 10
171.6340812820997
 20
123.8450632227584
 30
0.0
  0
SEQEND
  5
13A
330
137
100
AcDbEntity
  8
0
370
     9
  0
ENDBLK
  5
136
330
133
100
AcDbEntity
  8
0
100
AcDbBlockEnd
  0
BLOCK
  5
13D
330
13B
100
AcDbEntity
  8
0
100
AcDbBlockBegin
  2
block 34
 70
     0
 10
0.0
 20
0.0
 30
0.0
  3
block 34
  1

  0
POLYLINE
  5
13F
330
13B
100
AcDbEntity
  8
0
 62
     7
370
     9
100
AcDb2dPolyline
 66
     1
 10
0.0
 20
0.0
 30
0.0
  0
VERTEX
  5
140
330
13F
100
AcDbEntity
  8
0
 62
     7
370
     9
100
AcDbVertex
100
AcDb2dVertex
 10
171.6340812820997
 20
124.1844053519176
 30
0.0
  0
VERTEX
  5
141
330
13F
100
AcDbEntity
  8
0
 62
     7
370
     9
100
AcDbVertex
100
AcDb2dVertex
 10
171.6340812820997
 20
123.9932024263507
 30
0.0
  0
SEQEND
  5
142
330
13F
100
AcDbEntity
  8
0
370
     9
  0
ENDBLK
  5
13E
330
13B
100
AcDbEntity
  8
0
100
AcDbBlockEnd
  0
BLOCK
  5
145
330
143
100
AcDbEntity
  8
0
100
AcDbBlockBegin
  2
block 35
 70
     0
 10
0.0
 20
0.0
 30
0.0
  3
block 35
  1

  0
POLYLINE
  5
147
330
143
100
AcDbEntity
  8
0
 62
     7
370
     9
100
AcDb2dPolyline
 66
     1
 10
0.0
 20
0.0
 30
0.0
  0
VERTEX
  5
148
330
147
100
AcDbEntity
  8
0
 62
     7
370
     9
100
AcDbVertex
100
AcDb2dVertex
 10
171.6340812820997
 20
125.0091617551736
 30
0.0
  0
VERTEX
  5
149
330
147
100
AcDbEntity
  8
0
 62
     7
370
     9
100
AcDbVertex
100
AcDb2dVertex
 10
171.6340812820997
 20
124.1844053519176
 30
0.0
  0
SEQEND
  5
14A
330
147
100
AcDbEntity
  8
0
370
     9
  0
ENDBLK
  5
146
330
143
100
AcDbEntity
  8
0
100
AcDbBlockEnd
  0
BLOCK
  5
14D
330
14B
100
AcDbEntity
  8
0
100
AcDbBlockBegin
  2
block 36
 70
     0
 10
0.0
 20
0.0
 30
0.0
  3
block 36
  1

  0
POLYLINE
  5
14F
330
14B
100
AcDbEntity
  8
0
 62
     7
370
     9
100
AcDb2dPolyline
 66
     1
 10
0.0
 20
0.0
 30
0.0
  0
VERTEX
  5
150
330
14F
100
AcDbEntity
  8
0
 62
     7
370
     9
100
AcDbVertex
100
AcDb2dVertex
 10
171.6340812820997
 20
123.8450632227584
 30
0.0
  0
VERTEX
  5
151
330
14F
100
AcDbEntity
  8
0
 62
     7
370
     9
100
AcDbVertex
100
AcDb2dVertex
 10
171.6340812820997
 20
125.0091617551736
 30
0.0
  0
SEQEND
  5
152
330
14F
100
AcDbEntity
  8
0
370
     9
  0
ENDBLK
  5
14E
330
14B
100
AcDbEntity
  8
0
100
AcDbBlockEnd
  0
BLOCK
  5
155
330
153
100
AcDbEntity
  8
0
100
AcDbBlockBegin
  2
block 37
 70
     0
 10
0.0
 20
0.0
 30
0.0
  3
block 37
  1

  0
POLYLINE
  5
157
330
153
100
AcDbEntity
  8
0
 62
     7
370
     9
100
AcDb2dPolyline
 66
     1
 10
0.0
 20
0.0
 30
0.0
  0
VERTEX
  5
158
330
157
100
AcDbEntity
  8
0
 62
     7
370
     9
100
AcDbVertex
100
AcDb2dVertex
 10
171.6340812820997
 20
123.696924019166
 30
0.0
  0
VERTEX
  5
159
330
157
100
AcDbEntity
  8
0
 62
     7
370
     9
100
AcDbVertex
100
AcDb2dVertex
 10
171.6340812820997
 20
123.8450632227584
 30
0.0
  0
SEQEND
  5
15A
330
157
100
AcDbEntity
  8
0
370
     9
  0
ENDBLK
  5
156
330
153
100
AcDbEntity
  8
0
100
AcDbBlockEnd
  0
BLOCK
  5
15D
330
15B
100
AcDbEntity
  8
0
100
AcDbBlockBegin
  2
block 38
 70
     0
 10
0.0
 20
0.0
 30
0.0
  3
block 38
  1

  0
POLYLINE
  5
15F
330
15B
100
AcDbEntity
  8
0
 62
     7
370
     9
100
AcDb2dPolyline
 66
     1
 10
0.0
 20
0.0
 30
0.0
  0
VERTEX
  5
160
330
15F
100
AcDbEntity
  8
0
 62
     7
370
     9
100
AcDbVertex
100
AcDb2dVertex
 10
171.6340812820997
 20
123.6052844188042
 30
0.0
  0
VERTEX
  5
161
330
15F
100
AcDbEntity
  8
0
 62
     7
370
     9
100
AcDbVertex
100
AcDb2dVertex
 10
171.6340812820997
 20
123.696924019166
 30
0.0
  0
SEQEND
  5
162
330
15F
100
AcDbEntity
  8
0
370
     9
  0
ENDBLK
  5
15E
330
15B
100
AcDbEntity
  8
0
100
AcDbBlockEnd
  0
BLOCK
  5
165
330
163
100
AcDbEntity
  8
0
100
AcDbBlockBegin
  2
block 39
 70
     0
 10
0.0
 20
0.0
 30
0.0
  3
block 39
  1

  0
POLYLINE
  5
167
330
163
100
AcDbEntity
  8
0
 62
     7
370
     9
100
AcDb2dPolyline
 66
     1
 10
0.0
 20
0.0
 30
0.0
  0
VERTEX
  5
168
330
167
100
AcDbEntity
  8
0
 62
     7
370
     9
100
AcDbVertex
100
AcDb2dVertex
 10
248.2558114973741
 20
125.0932221404679
 30
0.0
  0
VERTEX
  5
169
330
167
100
AcDbEntity
  8
0
 62
     7
370
     9
100
AcDbVertex
100
AcDb2dVertex
 10
248.2558114973741
 20
126.6914029903863
 30
0.0
  0
SEQEND
  5
16A
330
167
100
AcDbEntity
  8
0
370
     9
  0
ENDBLK
  5
166
330
163
100
AcDbEntity
  8
0
100
AcDbBlockEnd
  0
BLOCK
  5
16D
330
16B
100
AcDbEntity
  8
0
100
AcDbBlockBegin
  2
block 40
 70
     0
 10
0.0
 20
0.0
 30
0.0
  3
block 40
  1

  0
POLYLINE
  5
16F
330
16B
100
AcDbEntity
  8
0
 62
     7
370
     9
100
AcDb2dPolyline
 66
     1
 10
0.0
 20
0.0
 30
0.0
  0
VERTEX
  5
170
330
16F
100
AcDbEntity
  8
0
 62
     7
370
     9
100
AcDbVertex
100
AcDb2dVertex
 10
248.2558114973741
 20
126.6914029903863
 30
0.0
  0
VERTEX
  5
171
330
16F
100
AcDbEntity
  8
0
 62
     7
370
     9
100
AcDbVertex
100
AcDb2dVertex
 10
248.2558114973741
 20
125.0932221404679
 30
0.0
  0
SEQEND
  5
172
330
16F
100
AcDbEntity
  8
0
370
     9
  0
ENDBLK
  5
16E
330
16B
100
AcDbEntity
  8
0
100
AcDbBlockEnd
  0
BLOCK
  5
175
330
173
100
AcDbEntity
  8
0
100
AcDbBlockBegin
  2
block 41
 70
     0
 10
0.0
 20
0.0
 30
0.0
  3
block 41
  1

  0
POLYLINE
  5
177
330
173
100
AcDbEntity
  8
0
 62
     7
370
     9
100
AcDb2dPolyline
 66
     1
 10
0.0
 20
0.0
 30
0.0
  0
VERTEX
  5
178
330
177
100
AcDbEntity
  8
0
 62
     7
370
     9
100
AcDbVertex
100
AcDb2dVertex
 10
171.5500208968054
 20
125.0932221404679
 30
0.0
  0
VERTEX
  5
179
330
177
100
AcDbEntity
  8
0
 62
     7
370
     9
100
AcDbVertex
100
AcDb2dVertex
 10
171.5500208968054
 20
126.6914029903863
 30
0.0
  0
SEQEND
  5
17A
330
177
100
AcDbEntity
  8
0
370
     9
  0
ENDBLK
  5
176
330
173
100
AcDbEntity
  8
0
100
AcDbBlockEnd
  0
BLOCK
  5
17D
330
17B
100
AcDbEntity
  8
0
100
AcDbBlockBegin
  2
block 42
 70
     0
 10
0.0
 20
0.0
 30
0.0
  3
block 42
  1

  0
POLYLINE
  5
17F
330
17B
100
AcDbEntity
  8
0
 62
     7
370
     9
100
AcDb2dPolyline
 66
     1
 10
0.0
 20
0.0
 30
0.0
  0
VERTEX
  5
180
330
17F
100
AcDbEntity
  8
0
 62
     7
370
     9
100
AcDbVertex
100
AcDb2dVertex
 10
171.5500208968054
 20
126.6914029903863
 30
0.0
  0
VERTEX
  5
181
330
17F
100
AcDbEntity
  8
0
 62
     7
370
     9
100
AcDbVertex
100
AcDb2dVertex
 10
171.5500208968054
 20
125.0932221404679
 30
0.0
  0
SEQEND
  5
182
330
17F
100
AcDbEntity
  8
0
370
     9
  0
ENDBLK
  5
17E
330
17B
100
AcDbEntity
  8
0
100
AcDbBlockEnd
  0
BLOCK
  5
185
330
183
100
AcDbEntity
  8
0
100
AcDbBlockBegin
  2
block 43
 70
     0
 10
0.0
 20
0.0
 30
0.0
  3
block 43
  1

  0
POLYLINE
  5
187
330
183
100
AcDbEntity
  8
0
 62
     7
370
     9
100
AcDb2dPolyline
 66
     1
 10
0.0
 20
0.0
 30
0.0
  0
VERTEX
  5
188
330
187
100
AcDbEntity
  8
0
 62
     7
370
     9
100
AcDbVertex
100
AcDb2dVertex
 10
244.5464747413767
 20
167.4019509413317
 30
0.0
  0
VERTEX
  5
189
330
187
100
AcDbEntity
  8
0
 62
     7
370
     9
100
AcDbVertex
100
AcDb2dVertex
 10
244.5619776812875
 20
167.4019509413317
 30
0.0
  0
SEQEND
  5
18A
330
187
100
AcDbEntity
  8
0
370
     9
  0
ENDBLK
  5
186
330
183
100
AcDbEntity
  8
0
100
AcDbBlockEnd
  0
BLOCK
  5
18D
330
18B
100
AcDbEntity
  8
0
100
AcDbBlockBegin
  2
block 44
 70
     0
 10
0.0
 20
0.0
 30
0.0
  3
block 44
  1

  0
POLYLINE
  5
18F
330
18B
100
AcDbEntity
  8
0
 62
     7
370
     9
100
AcDb2dPolyline
 66
     1
 10
0.0
 20
0.0
 30
0.0
  0
VERTEX
  5
190
330
18F
100
AcDbEntity
  8
0
 62
     7
370
     9
100
AcDbVertex
100
AcDb2dVertex
 10
244.5619776812875
 20
167.4019509413317
 30
0.0
  0
VERTEX
  5
191
330
18F
100
AcDbEntity
  8
0
 62
     7
370
     9
100
AcDbVertex
100
AcDb2dVertex
 10
244.605041403262
 20
167.4019509413317
 30
0.0
  0
SEQEND
  5
192
330
18F
100
AcDbEntity
  8
0
370
     9
  0
ENDBLK
  5
18E
330
18B
100
AcDbEntity
  8
0
100
AcDbBlockEnd
  0
BLOCK
  5
195
330
193
100
AcDbEntity
  8
0
100
AcDbBlockBegin
  2
block 45
 70
     0
 10
0.0
 20
0.0
 30
0.0
  3
block 45
  1

  0
POLYLINE
  5
197
330
193
100
AcDbEntity
  8
0
 62
     7
370
     9
100
AcDb2dPolyline
 66
     1
 10
0.0
 20
0.0
 30
0.0
  0
VERTEX
  5
198
330
197
100
AcDbEntity
  8
0
 62
     7
370
     9
100
AcDbVertex
100
AcDb2dVertex
 10
244.605041403262
 20
167.4019509413317
 30
0.0
  0
VERTEX
  5
199
330
197
100
AcDbEntity
  8
0
 62
     7
370
     9
100
AcDbVertex
100
AcDb2dVertex
 10
244.6667086531296
 20
167.4019509413317
 30
0.0
  0
SEQEND
  5
19A
330
197
100
AcDbEntity
  8
0
370
     9
  0
ENDBLK
  5
196
330
193
100
AcDbEntity
  8
0
100
AcDbBlockEnd
  0
BLOCK
  5
19D
330
19B
100
AcDbEntity
  8
0
100
AcDbBlockBegin
  2
block 46
 70
     0
 10
0.0
 20
0.0
 30
0.0
  3
block 46
  1

  0
POLYLINE
  5
19F
330
19B
100
AcDbEntity
  8
0
 62
     7
370
     9
100
AcDb2dPolyline
 66
     1
 10
0.0
 20
0.0
 30
0.0
  0
VERTEX
  5
1A0
330
19F
100
AcDbEntity
  8
0
 62
     7
370
     9
100
AcDbVertex
100
AcDb2dVertex
 10
244.6667086531296
 20
167.4019509413317
 30
0.0
  0
VERTEX
  5
1A1
330
19F
100
AcDbEntity
  8
0
 62
     7
370
     9
100
AcDbVertex
100
AcDb2dVertex
 10
245.3023291894735
 20
167.4019509413317
 30
0.0
  0
SEQEND
  5
1A2
330
19F
100
AcDbEntity
  8
0
370
     9
  0
ENDBLK
  5
19E
330
19B
100
AcDbEntity
  8
0
100
AcDbBlockEnd
  0
BLOCK
  5
1A5
330
1A3
100
AcDbEntity
  8
0
100
AcDbBlockBegin
  2
block 47
 70
     0
 10
0.0
 20
0.0
 30
0.0
  3
block 47
  1

  0
POLYLINE
  5
1A7
330
1A3
100
AcDbEntity
  8
0
 62
     7
370
     9
100
AcDb2dPolyline
 66
     1
 10
0.0
 20
0.0
 30
0.0
  0
VERTEX
  5
1A8
330
1A7
100
AcDbEntity
  8
0
 62
     7
370
     9
100
AcDbVertex
100
AcDb2dVertex
 10
245.3023291894735
 20
167.4019509413317
 30
0.0
  0
VERTEX
  5
1A9
330
1A7
100
AcDbEntity
  8
0
 62
     7
370
     9
100
AcDbVertex
100
AcDb2dVertex
 10
245.3705421250811
 20
167.4019509413317
 30
0.0
  0
SEQEND
  5
1AA
330
1A7
100
AcDbEntity
  8
0
370
     9
  0
ENDBLK
  5
1A6
330
1A3
100
AcDbEntity
  8
0
100
AcDbBlockEnd
  0
BLOCK
  5
1AD
330
1AB
100
AcDbEntity
  8
0
100
AcDbBlockBegin
  2
block 48
 70
     0
 10
0.0
 20
0.0
 30
0.0
  3
block 48
  1

  0
POLYLINE
  5
1AF
330
1AB
100
AcDbEntity
  8
0
 62
     7
370
     9
100
AcDb2dPolyline
 66
     1
 10
0.0
 20
0.0
 30
0.0
  0
VERTEX
  5
1B0
330
1AF
100
AcDbEntity
  8
0
 62
     7
370
     9
100
AcDbVertex
100
AcDb2dVertex
 10
245.3705421250811
 20
167.4019509413317
 30
0.0
  0
VERTEX
  5
1B1
330
1AF
100
AcDbEntity
  8
0
 62
     7
370
     9
100
AcDbVertex
100
AcDb2dVertex
 10
245.4291087869665
 20
167.4019509413317
 30
0.0
  0
SEQEND
  5
1B2
330
1AF
100
AcDbEntity
  8
0
370
     9
  0
ENDBLK
  5
1AE
330
1AB
100
AcDbEntity
  8
0
100
AcDbBlockEnd
  0
BLOCK
  5
1B5
330
1B3
100
AcDbEntity
  8
0
100
AcDbBlockBegin
  2
block 49
 70
     0
 10
0.0
 20
0.0
 30
0.0
  3
block 49
  1

  0
POLYLINE
  5
1B7
330
1B3
100
AcDbEntity
  8
0
 62
     7
370
     9
100
AcDb2dPolyline
 66
     1
 10
0.0
 20
0.0
 30
0.0
  0
VERTEX
  5
1B8
330
1B7
100
AcDbEntity
  8
0
 62
     7
370
     9
100
AcDbVertex
100
AcDb2dVertex
 10
245.4291087869665
 20
167.4019509413317
 30
0.0
  0
VERTEX
  5
1B9
330
1B7
100
AcDbEntity
  8
0
 62
     7
370
     9
100
AcDbVertex
100
AcDb2dVertex
 10
245.4656268232009
 20
167.4019509413317
 30
0.0
  0
SEQEND
  5
1BA
330
1B7
100
AcDbEntity
  8
0
370
     9
  0
ENDBLK
  5
1B6
330
1B3
100
AcDbEntity
  8
0
100
AcDbBlockEnd
  0
BLOCK
  5
1BD
330
1BB
100
AcDbEntity
  8
0
100
AcDbBlockBegin
  2
block 50
 70
     0
 10
0.0
 20
0.0
 30
0.0
  3
block 50
  1

  0
POLYLINE
  5
1BF
330
1BB
100
AcDbEntity
  8
0
 62
     7
370
     9
100
AcDb2dPolyline
 66
     1
 10
0.0
 20
0.0
 30
0.0
  0
VERTEX
  5
1C0
330
1BF
100
AcDbEntity
  8
0
 62
     7
370
     9
100
AcDbVertex
100
AcDb2dVertex
 10
245.4656268232009
 20
167.4019509413317
 30
0.0
  0
VERTEX
  5
1C1
330
1BF
100
AcDbEntity
  8
0
 62
     7
370
     9
100
AcDbVertex
100
AcDb2dVertex
 10
245.7136738617741
 20
167.4019509413317
 30
0.0
  0
SEQEND
  5
1C2
330
1BF
100
AcDbEntity
  8
0
370
     9
  0
ENDBLK
  5
1BE
330
1BB
100
AcDbEntity
  8
0
100
AcDbBlockEnd
  0
BLOCK
  5
1C5
330
1C3
100
AcDbEntity
  8
0
100
AcDbBlockBegin
  2
block 51
 70
     0
 10
0.0
 20
0.0
 30
0.0
  3
block 51
  1

  0
POLYLINE
  5
1C7
330
1C3
100
AcDbEntity
  8
0
 62
     7
370
     9
100
AcDb2dPolyline
 66
     1
 10
0.0
 20
0.0
 30
0.0
  0
VERTEX
  5
1C8
330
1C7
100
AcDbEntity
  8
0
 62
     7
370
     9
100
AcDbVertex
100
AcDb2dVertex
 10
245.7136738617741
 20
167.4019509413317
 30
0.0
  0
VERTEX
  5
1C9
330
1C7
100
AcDbEntity
  8
0
 62
     7
370
     9
100
AcDbVertex
100
AcDb2dVertex
 10
245.8635356142454
 20
167.4019509413317
 30
0.0
  0
SEQEND
  5
1CA
330
1C7
100
AcDbEntity
  8
0
370
     9
  0
ENDBLK
  5
1C6
330
1C3
100
AcDbEntity
  8
0
100
AcDbBlockEnd
  0
BLOCK
  5
1CD
330
1CB
100
AcDbEntity
  8
0
100
AcDbBlockBegin
  2
block 52
 70
     0
 10
0.0
 20
0.0
 30
0.0
  3
block 52
  1

  0
POLYLINE
  5
1CF
330
1CB
100
AcDbEntity
  8
0
 62
     7
370
     9
100
AcDb2dPolyline
 66
     1
 10
0.0
 20
0.0
 30
0.0
  0
VERTEX
  5
1D0
330
1CF
100
AcDbEntity
  8
0
 62
     7
370
     9
100
AcDbVertex
100
AcDb2dVertex
 10
245.8635356142454
 20
167.4019509413317
 30
0.0
  0
VERTEX
  5
1D1
330
1CF
100
AcDbEntity
  8
0
 62
     7
370
     9
100
AcDbVertex
100
AcDb2dVertex
 10
245.9138340415117
 20
167.4019509413317
 30
0.0
  0
SEQEND
  5
1D2
330
1CF
100
AcDbEntity
  8
0
370
     9
  0
ENDBLK
  5
1CE
330
1CB
100
AcDbEntity
  8
0
100
AcDbBlockEnd
  0
BLOCK
  5
1D5
330
1D3
100
AcDbEntity
  8
0
100
AcDbBlockBegin
  2
block 53
 70
     0
 10
0.0
 20
0.0
 30
0.0
  3
block 53
  1

  0
POLYLINE
  5
1D7
330
1D3
100
AcDbEntity
  8
0
 62
     7
370
     9
100
AcDb2dPolyline
 66
     1
 10
0.0
 20
0.0
 30
0.0
  0
VERTEX
  5
1D8
330
1D7
100
AcDbEntity
  8
0
 62
     7
370
     9
100
AcDbVertex
100
AcDb2dVertex
 10
245.9138340415117
 20
167.4019509413317
 30
0.0
  0
VERTEX
  5
1D9
330
1D7
100
AcDbEntity
  8
0
 62
     7
370
     9
100
AcDbVertex
100
AcDb2dVertex
 10
244.5454412120493
 20
167.4019509413317
 30
0.0
  0
SEQEND
  5
1DA
330
1D7
100
AcDbEntity
  8
0
370
     9
  0
ENDBLK
  5
1D6
330
1D3
100
AcDbEntity
  8
0
100
AcDbBlockEnd
  0
BLOCK
  5
1DD
330
1DB
100
AcDbEntity
  8
0
100
AcDbBlockBegin
  2
block 54
 70
     0
 10
0.0
 20
0.0
 30
0.0
  3
block 54
  1

  0
POLYLINE
  5
1DF
330
1DB
100
AcDbEntity
  8
0
 62
     7
370
     9
100
AcDb2dPolyline
 66
     1
 10
0.0
 20
0.0
 30
0.0
  0
VERTEX
  5
1E0
330
1DF
100
AcDbEntity
  8
0
 62
     7
370
     9
100
AcDbVertex
100
AcDb2dVertex
 10
244.5454412120493
 20
167.4019509413317
 30
0.0
  0
VERTEX
  5
1E1
330
1DF
100
AcDbEntity
  8
0
 62
     7
370
     9
100
AcDbVertex
100
AcDb2dVertex
 10
244.5464747413767
 20
167.4019509413317
 30
0.0
  0
SEQEND
  5
1E2
330
1DF
100
AcDbEntity
  8
0
370
     9
  0
ENDBLK
  5
1DE
330
1DB
100
AcDbEntity
  8
0
100
AcDbBlockEnd
  0
BLOCK
  5
1E5
330
1E3
100
AcDbEntity
  8
0
100
AcDbBlockBegin
  2
block 55
 70
     0
 10
0.0
 20
0.0
 30
0.0
  3
block 55
  1

  0
POLYLINE
  5
1E7
330
1E3
100
AcDbEntity
  8
0
 62
     7
370
     9
100
AcDb2dPolyline
 66
     1
 10
0.0
 20
0.0
 30
0.0
  0
VERTEX
  5
1E8
330
1E7
100
AcDbEntity
  8
0
 62
     7
370
     9
100
AcDbVertex
100
AcDb2dVertex
 10
175.1928672660742
 20
167.4019509413317
 30
0.0
  0
VERTEX
  5
1E9
330
1E7
100
AcDbEntity
  8
0
 62
     7
370
     9
100
AcDbVertex
100
AcDb2dVertex
 10
175.208370205985
 20
167.4019509413317
 30
0.0
  0
SEQEND
  5
1EA
330
1E7
100
AcDbEntity
  8
0
370
     9
  0
ENDBLK
  5
1E6
330
1E3
100
AcDbEntity
  8
0
100
AcDbBlockEnd
  0
BLOCK
  5
1ED
330
1EB
100
AcDbEntity
  8
0
100
AcDbBlockBegin
  2
block 56
 70
     0
 10
0.0
 20
0.0
 30
0.0
  3
block 56
  1

  0
POLYLINE
  5
1EF
330
1EB
100
AcDbEntity
  8
0
 62
     7
370
     9
100
AcDb2dPolyline
 66
     1
 10
0.0
 20
0.0
 30
0.0
  0
VERTEX
  5
1F0
330
1EF
100
AcDbEntity
  8
0
 62
     7
370
     9
100
AcDbVertex
100
AcDb2dVertex
 10
175.1498035440995
 20
167.4019509413317
 30
0.0
  0
VERTEX
  5
1F1
330
1EF
100
AcDbEntity
  8
0
 62
     7
370
     9
100
AcDbVertex
100
AcDb2dVertex
 10
175.1928672660742
 20
167.4019509413317
 30
0.0
  0
SEQEND
  5
1F2
330
1EF
100
AcDbEntity
  8
0
370
     9
  0
ENDBLK
  5
1EE
330
1EB
100
AcDbEntity
  8
0
100
AcDbBlockEnd
  0
BLOCK
  5
1F5
330
1F3
100
AcDbEntity
  8
0
100
AcDbBlockBegin
  2
block 57
 70
     0
 10
0.0
 20
0.0
 30
0.0
  3
block 57
  1

  0
POLYLINE
  5
1F7
330
1F3
100
AcDbEntity
  8
0
 62
     7
370
     9
100
AcDb2dPolyline
 66
     1
 10
0.0
 20
0.0
 30
0.0
  0
VERTEX
  5
1F8
330
1F7
100
AcDbEntity
  8
0
 62
     7
370
     9
100
AcDbVertex
100
AcDb2dVertex
 10
175.0881362942321
 20
167.4019509413317
 30
0.0
  0
VERTEX
  5
1F9
330
1F7
100
AcDbEntity
  8
0
 62
     7
370
     9
100
AcDbVertex
100
AcDb2dVertex
 10
175.1498035440995
 20
167.4019509413317
 30
0.0
  0
SEQEND
  5
1FA
330
1F7
100
AcDbEntity
  8
0
370
     9
  0
ENDBLK
  5
1F6
330
1F3
100
AcDbEntity
  8
0
100
AcDbBlockEnd
  0
BLOCK
  5
1FD
330
1FB
100
AcDbEntity
  8
0
100
AcDbBlockBegin
  2
block 58
 70
     0
 10
0.0
 20
0.0
 30
0.0
  3
block 58
  1

  0
POLYLINE
  5
1FF
330
1FB
100
AcDbEntity
  8
0
 62
     7
370
     9
100
AcDb2dPolyline
 66
     1
 10
0.0
 20
0.0
 30
0.0
  0
VERTEX
  5
200
330
1FF
100
AcDbEntity
  8
0
 62
     7
370
     9
100
AcDbVertex
100
AcDb2dVertex
 10
174.4532047774398
 20
167.4019509413317
 30
0.0
  0
VERTEX
  5
201
330
1FF
100
AcDbEntity
  8
0
 62
     7
370
     9
100
AcDbVertex
100
AcDb2dVertex
 10
175.0881362942321
 20
167.4019509413317
 30
0.0
  0
SEQEND
  5
202
330
1FF
100
AcDbEntity
  8
0
370
     9
  0
ENDBLK
  5
1FE
330
1FB
100
AcDbEntity
  8
0
100
AcDbBlockEnd
  0
BLOCK
  5
205
330
203
100
AcDbEntity
  8
0
100
AcDbBlockBegin
  2
block 59
 70
     0
 10
0.0
 20
0.0
 30
0.0
  3
block 59
  1

  0
POLYLINE
  5
207
330
203
100
AcDbEntity
  8
0
 62
     7
370
     9
100
AcDb2dPolyline
 66
     1
 10
0.0
 20
0.0
 30
0.0
  0
VERTEX
  5
208
330
207
100
AcDbEntity
  8
0
 62
     7
370
     9
100
AcDbVertex
100
AcDb2dVertex
 10
174.3849918418321
 20
167.4019509413317
 30
0.0
  0
VERTEX
  5
209
330
207
100
AcDbEntity
  8
0
 62
     7
370
     9
100
AcDbVertex
100
AcDb2dVertex
 10
174.4532047774398
 20
167.4019509413317
 30
0.0
  0
SEQEND
  5
20A
330
207
100
AcDbEntity
  8
0
370
     9
  0
ENDBLK
  5
206
330
203
100
AcDbEntity
  8
0
100
AcDbBlockEnd
  0
BLOCK
  5
20D
330
20B
100
AcDbEntity
  8
0
100
AcDbBlockBegin
  2
block 60
 70
     0
 10
0.0
 20
0.0
 30
0.0
  3
block 60
  1

  0
POLYLINE
  5
20F
330
20B
100
AcDbEntity
  8
0
 62
     7
370
     9
100
AcDb2dPolyline
 66
     1
 10
0.0
 20
0.0
 30
0.0
  0
VERTEX
  5
210
330
20F
100
AcDbEntity
  8
0
 62
     7
370
     9
100
AcDbVertex
100
AcDb2dVertex
 10
174.3264251799468
 20
167.4019509413317
 30
0.0
  0
VERTEX
  5
211
330
20F
100
AcDbEntity
  8
0
 62
     7
370
     9
100
AcDbVertex
100
AcDb2dVertex
 10
174.3849918418321
 20
167.4019509413317
 30
0.0
  0
SEQEND
  5
212
330
20F
100
AcDbEntity
  8
0
370
     9
  0
ENDBLK
  5
20E
330
20B
100
AcDbEntity
  8
0
100
AcDbBlockEnd
  0
BLOCK
  5
215
330
213
100
AcDbEntity
  8
0
100
AcDbBlockBegin
  2
block 61
 70
     0
 10
0.0
 20
0.0
 30
0.0
  3
block 61
  1

  0
POLYLINE
  5
217
330
213
100
AcDbEntity
  8
0
 62
     7
370
     9
100
AcDb2dPolyline
 66
     1
 10
0.0
 20
0.0
 30
0.0
  0
VERTEX
  5
218
330
217
100
AcDbEntity
  8
0
 62
     7
370
     9
100
AcDbVertex
100
AcDb2dVertex
 10
174.2900793986003
 20
167.4019509413317
 30
0.0
  0
VERTEX
  5
219
330
217
100
AcDbEntity
  8
0
 62
     7
370
     9
100
AcDbVertex
100
AcDb2dVertex
 10
174.3264251799468
 20
167.4019509413317
 30
0.0
  0
SEQEND
  5
21A
330
217
100
AcDbEntity
  8
0
370
     9
  0
ENDBLK
  5
216
330
213
100
AcDbEntity
  8
0
100
AcDbBlockEnd
  0
BLOCK
  5
21D
330
21B
100
AcDbEntity
  8
0
100
AcDbBlockBegin
  2
block 62
 70
     0
 10
0.0
 20
0.0
 30
0.0
  3
block 62
  1

  0
POLYLINE
  5
21F
330
21B
100
AcDbEntity
  8
0
 62
     7
370
     9
100
AcDb2dPolyline
 66
     1
 10
0.0
 20
0.0
 30
0.0
  0
VERTEX
  5
220
330
21F
100
AcDbEntity
  8
0
 62
     7
370
     9
100
AcDbVertex
100
AcDb2dVertex
 10
174.0422046149149
 20
167.4019509413317
 30
0.0
  0
VERTEX
  5
221
330
21F
100
AcDbEntity
  8
0
 62
     7
370
     9
100
AcDbVertex
100
AcDb2dVertex
 10
174.2900793986003
 20
167.4019509413317
 30
0.0
  0
SEQEND
  5
222
330
21F
100
AcDbEntity
  8
0
370
     9
  0
ENDBLK
  5
21E
330
21B
100
AcDbEntity
  8
0
100
AcDbBlockEnd
  0
BLOCK
  5
225
330
223
100
AcDbEntity
  8
0
100
AcDbBlockBegin
  2
block 63
 70
     0
 10
0.0
 20
0.0
 30
0.0
  3
block 63
  1

  0
POLYLINE
  5
227
330
223
100
AcDbEntity
  8
0
 62
     7
370
     9
100
AcDb2dPolyline
 66
     1
 10
0.0
 20
0.0
 30
0.0
  0
VERTEX
  5
228
330
227
100
AcDbEntity
  8
0
 62
     7
370
     9
100
AcDbVertex
100
AcDb2dVertex
 10
173.8923428624435
 20
167.4019509413317
 30
0.0
  0
VERTEX
  5
229
330
227
100
AcDbEntity
  8
0
 62
     7
370
     9
100
AcDbVertex
100
AcDb2dVertex
 10
174.0422046149149
 20
167.4019509413317
 30
0.0
  0
SEQEND
  5
22A
330
227
100
AcDbEntity
  8
0
370
     9
  0
ENDBLK
  5
226
330
223
100
AcDbEntity
  8
0
100
AcDbBlockEnd
  0
BLOCK
  5
22D
330
22B
100
AcDbEntity
  8
0
100
AcDbBlockBegin
  2
block 64
 70
     0
 10
0.0
 20
0.0
 30
0.0
  3
block 64
  1

  0
POLYLINE
  5
22F
330
22B
100
AcDbEntity
  8
0
 62
     7
370
     9
100
AcDb2dPolyline
 66
     1
 10
0.0
 20
0.0
 30
0.0
  0
VERTEX
  5
230
330
22F
100
AcDbEntity
  8
0
 62
     7
370
     9
100
AcDbVertex
100
AcDb2dVertex
 10
173.8422166900653
 20
167.4019509413317
 30
0.0
  0
VERTEX
  5
231
330
22F
100
AcDbEntity
  8
0
 62
     7
370
     9
100
AcDbVertex
100
AcDb2dVertex
 10
173.8923428624435
 20
167.4019509413317
 30
0.0
  0
SEQEND
  5
232
330
22F
100
AcDbEntity
  8
0
370
     9
  0
ENDBLK
  5
22E
330
22B
100
AcDbEntity
  8
0
100
AcDbBlockEnd
  0
BLOCK
  5
235
330
233
100
AcDbEntity
  8
0
100
AcDbBlockBegin
  2
block 65
 70
     0
 10
0.0
 20
0.0
 30
0.0
  3
block 65
  1

  0
POLYLINE
  5
237
330
233
100
AcDbEntity
  8
0
 62
     7
370
     9
100
AcDb2dPolyline
 66
     1
 10
0.0
 20
0.0
 30
0.0
  0
VERTEX
  5
238
330
237
100
AcDbEntity
  8
0
 62
     7
370
     9
100
AcDbVertex
100
AcDb2dVertex
 10
175.2094037353124
 20
167.4019509413317
 30
0.0
  0
VERTEX
  5
239
330
237
100
AcDbEntity
  8
0
 62
     7
370
     9
100
AcDbVertex
100
AcDb2dVertex
 10
173.8422166900653
 20
167.4019509413317
 30
0.0
  0
SEQEND
  5
23A
330
237
100
AcDbEntity
  8
0
370
     9
  0
ENDBLK
  5
236
330
233
100
AcDbEntity
  8
0
100
AcDbBlockEnd
  0
BLOCK
  5
23D
330
23B
100
AcDbEntity
  8
0
100
AcDbBlockBegin
  2
block 66
 70
     0
 10
0.0
 20
0.0
 30
0.0
  3
block 66
  1

  0
POLYLINE
  5
23F
330
23B
100
AcDbEntity
  8
0
 62
     7
370
     9
100
AcDb2dPolyline
 66
     1
 10
0.0
 20
0.0
 30
0.0
  0
VERTEX
  5
240
330
23F
100
AcDbEntity
  8
0
 62
     7
370
     9
100
AcDbVertex
100
AcDb2dVertex
 10
175.208370205985
 20
167.4019509413317
 30
0.0
  0
VERTEX
  5
241
330
23F
100
AcDbEntity
  8
0
 62
     7
370
     9
100
AcDbVertex
100
AcDb2dVertex
 10
175.2094037353124
 20
167.4019509413317
 30
0.0
  0
SEQEND
  5
242
330
23F
100
AcDbEntity
  8
0
370
     9
  0
ENDBLK
  5
23E
330
23B
100
AcDbEntity
  8
0
100
AcDbBlockEnd
  0
BLOCK
  5
245
330
243
100
AcDbEntity
  8
0
100
AcDbBlockBegin
  2
block 67
 70
     0
 10
0.0
 20
0.0
 30
0.0
  3
block 67
  1

  0
POLYLINE
  5
247
330
243
100
AcDbEntity
  8
0
 62
     7
370
     9
100
AcDb2dPolyline
 66
     1
 10
0.0
 20
0.0
 30
0.0
  0
VERTEX
  5
248
330
247
100
AcDbEntity
  8
0
 62
     7
370
     9
100
AcDbVertex
100
AcDb2dVertex
 10
173.8422166900653
 20
167.4019509413317
 30
0.0
  0
VERTEX
  5
249
330
247
100
AcDbEntity
  8
0
 62
     7
370
     9
100
AcDbVertex
100
AcDb2dVertex
 10
245.9100444339779
 20
167.4019509413317
 30
0.0
  0
SEQEND
  5
24A
330
247
100
AcDbEntity
  8
0
370
     9
  0
ENDBLK
  5
246
330
243
100
AcDbEntity
  8
0
100
AcDbBlockEnd
  0
BLOCK
  5
24D
330
24B
100
AcDbEntity
  8
0
100
AcDbBlockBegin
  2
block 68
 70
     0
 10
0.0
 20
0.0
 30
0.0
  3
block 68
  1

  0
POLYLINE
  5
24F
330
24B
100
AcDbEntity
  8
0
 62
     7
370
     9
100
AcDb2dPolyline
 66
     1
 10
0.0
 20
0.0
 30
0.0
  0
VERTEX
  5
250
330
24F
100
AcDbEntity
  8
0
 62
     7
370
     9
100
AcDbVertex
100
AcDb2dVertex
 10
245.9100444339779
 20
167.4019509413317
 30
0.0
  0
VERTEX
  5
251
330
24F
100
AcDbEntity
  8
0
 62
     7
370
     9
100
AcDbVertex
100
AcDb2dVertex
 10
245.9138340415117
 20
167.4019509413317
 30
0.0
  0
SEQEND
  5
252
330
24F
100
AcDbEntity
  8
0
370
     9
  0
ENDBLK
  5
24E
330
24B
100
AcDbEntity
  8
0
100
AcDbBlockEnd
  0
BLOCK
  5
255
330
253
100
AcDbEntity
  8
0
100
AcDbBlockBegin
  2
block 69
 70
     0
 10
0.0
 20
0.0
 30
0.0
  3
block 69
  1

  0
POLYLINE
  5
257
330
253
100
AcDbEntity
  8
0
 62
     7
370
     9
100
AcDb2dPolyline
 66
     1
 10
0.0
 20
0.0
 30
0.0
  0
VERTEX
  5
258
330
257
100
AcDbEntity
  8
0
 62
     7
370
     9
100
AcDbVertex
100
AcDb2dVertex
 10
248.1400562127065
 20
123.6965795093902
 30
0.0
  0
VERTEX
  5
259
330
257
100
AcDbEntity
  8
0
 62
     7
370
     9
100
AcDbVertex
100
AcDb2dVertex
 10
171.6340812820997
 20
123.696924019166
 30
0.0
  0
SEQEND
  5
25A
330
257
100
AcDbEntity
  8
0
370
     9
  0
ENDBLK
  5
256
330
253
100
AcDbEntity
  8
0
100
AcDbBlockEnd
  0
BLOCK
  5
25D
330
25B
100
AcDbEntity
  8
0
100
AcDbBlockBegin
  2
block 70
 70
     0
 10
0.0
 20
0.0
 30
0.0
  3
block 70
  1

  0
POLYLINE
  5
25F
330
25B
100
AcDbEntity
  8
0
 62
     7
370
     9
100
AcDb2dPolyline
 66
     1
 10
0.0
 20
0.0
 30
0.0
  0
VERTEX
  5
260
330
25F
100
AcDbEntity
  8
0
 62
     7
370
     9
100
AcDbVertex
100
AcDb2dVertex
 10
248.1400562127065
 20
123.6049399090284
 30
0.0
  0
VERTEX
  5
261
330
25F
100
AcDbEntity
  8
0
 62
     7
370
     9
100
AcDbVertex
100
AcDb2dVertex
 10
171.6340812820997
 20
123.6052844188042
 30
0.0
  0
SEQEND
  5
262
330
25F
100
AcDbEntity
  8
0
370
     9
  0
ENDBLK
  5
25E
330
25B
100
AcDbEntity
  8
0
100
AcDbBlockEnd
  0
BLOCK
  5
265
330
263
100
AcDbEntity
  8
0
100
AcDbBlockBegin
  2
block 71
 70
     0
 10
0.0
 20
0.0
 30
0.0
  3
block 71
  1

  0
POLYLINE
  5
267
330
263
100
AcDbEntity
  8
0
 62
     7
370
     9
100
AcDb2dPolyline
 66
     1
 10
0.0
 20
0.0
 30
0.0
  0
VERTEX
  5
268
330
267
100
AcDbEntity
  8
0
 62
     7
370
     9
100
AcDbVertex
100
AcDb2dVertex
 10
171.6340812820997
 20
126.6914029903863
 30
0.0
  0
VERTEX
  5
269
330
267
100
AcDbEntity
  8
0
 62
     7
370
     9
100
AcDbVertex
100
AcDb2dVertex
 10
248.1400562127065
 20
126.691747500162
 30
0.0
  0
SEQEND
  5
26A
330
267
100
AcDbEntity
  8
0
370
     9
  0
ENDBLK
  5
266
330
263
100
AcDbEntity
  8
0
100
AcDbBlockEnd
  0
BLOCK
  5
26D
330
26B
100
AcDbEntity
  8
0
100
AcDbBlockBegin
  2
block 72
 70
     0
 10
0.0
 20
0.0
 30
0.0
  3
block 72
  1

  0
POLYLINE
  5
26F
330
26B
100
AcDbEntity
  8
0
 62
     7
370
     9
100
AcDb2dPolyline
 66
     1
 10
0.0
 20
0.0
 30
0.0
  0
VERTEX
  5
270
330
26F
100
AcDbEntity
  8
0
 62
     7
370
     9
100
AcDbVertex
100
AcDb2dVertex
 10
171.6340812820997
 20
123.696924019166
 30
0.0
  0
VERTEX
  5
271
330
26F
100
AcDbEntity
  8
0
 62
     7
370
     9
100
AcDbVertex
100
AcDb2dVertex
 10
171.6340812820997
 20
123.6052844188042
 30
0.0
  0
SEQEND
  5
272
330
26F
100
AcDbEntity
  8
0
370
     9
  0
ENDBLK
  5
26E
330
26B
100
AcDbEntity
  8
0
100
AcDbBlockEnd
  0
BLOCK
  5
275
330
273
100
AcDbEntity
  8
0
100
AcDbBlockBegin
  2
block 73
 70
     0
 10
0.0
 20
0.0
 30
0.0
  3
block 73
  1

  0
POLYLINE
  5
277
330
273
100
AcDbEntity
  8
0
 62
     7
370
     9
100
AcDb2dPolyline
 66
     1
 10
0.0
 20
0.0
 30
0.0
  0
VERTEX
  5
278
330
277
100
AcDbEntity
  8
0
 62
     7
370
     9
100
AcDbVertex
100
AcDb2dVertex
 10
171.6340812820997
 20
123.8450632227584
 30
0.0
  0
VERTEX
  5
279
330
277
100
AcDbEntity
  8
0
 62
     7
370
     9
100
AcDbVertex
100
AcDb2dVertex
 10
171.6340812820997
 20
123.696924019166
 30
0.0
  0
SEQEND
  5
27A
330
277
100
AcDbEntity
  8
0
370
     9
  0
ENDBLK
  5
276
330
273
100
AcDbEntity
  8
0
100
AcDbBlockEnd
  0
BLOCK
  5
27D
330
27B
100
AcDbEntity
  8
0
100
AcDbBlockBegin
  2
block 74
 70
     0
 10
0.0
 20
0.0
 30
0.0
  3
block 74
  1

  0
POLYLINE
  5
27F
330
27B
100
AcDbEntity
  8
0
 62
     7
370
     9
100
AcDb2dPolyline
 66
     1
 10
0.0
 20
0.0
 30
0.0
  0
VERTEX
  5
280
330
27F
100
AcDbEntity
  8
0
 62
     7
370
     9
100
AcDbVertex
100
AcDb2dVertex
 10
171.6340812820997
 20
123.9932024263507
 30
0.0
  0
VERTEX
  5
281
330
27F
100
AcDbEntity
  8
0
 62
     7
370
     9
100
AcDbVertex
100
AcDb2dVertex
 10
171.6340812820997
 20
123.8450632227584
 30
0.0
  0
SEQEND
  5
282
330
27F
100
AcDbEntity
  8
0
370
     9
  0
ENDBLK
  5
27E
330
27B
100
AcDbEntity
  8
0
100
AcDbBlockEnd
  0
BLOCK
  5
285
330
283
100
AcDbEntity
  8
0
100
AcDbBlockBegin
  2
block 75
 70
     0
 10
0.0
 20
0.0
 30
0.0
  3
block 75
  1

  0
POLYLINE
  5
287
330
283
100
AcDbEntity
  8
0
 62
     7
370
     9
100
AcDb2dPolyline
 66
     1
 10
0.0
 20
0.0
 30
0.0
  0
VERTEX
  5
288
330
287
100
AcDbEntity
  8
0
 62
     7
370
     9
100
AcDbVertex
100
AcDb2dVertex
 10
171.6340812820997
 20
124.1844053519176
 30
0.0
  0
VERTEX
  5
289
330
287
100
AcDbEntity
  8
0
 62
     7
370
     9
100
AcDbVertex
100
AcDb2dVertex
 10
171.6340812820997
 20
123.9932024263507
 30
0.0
  0
SEQEND
  5
28A
330
287
100
AcDbEntity
  8
0
370
     9
  0
ENDBLK
  5
286
330
283
100
AcDbEntity
  8
0
100
AcDbBlockEnd
  0
BLOCK
  5
28D
330
28B
100
AcDbEntity
  8
0
100
AcDbBlockBegin
  2
block 76
 70
     0
 10
0.0
 20
0.0
 30
0.0
  3
block 76
  1

  0
POLYLINE
  5
28F
330
28B
100
AcDbEntity
  8
0
 62
     7
370
     9
100
AcDb2dPolyline
 66
     1
 10
0.0
 20
0.0
 30
0.0
  0
VERTEX
  5
290
330
28F
100
AcDbEntity
  8
0
 62
     7
370
     9
100
AcDbVertex
100
AcDb2dVertex
 10
171.6340812820997
 20
126.6914029903863
 30
0.0
  0
VERTEX
  5
291
330
28F
100
AcDbEntity
  8
0
 62
     7
370
     9
100
AcDbVertex
100
AcDb2dVertex
 10
171.6340812820997
 20
124.1844053519176
 30
0.0
  0
SEQEND
  5
292
330
28F
100
AcDbEntity
  8
0
370
     9
  0
ENDBLK
  5
28E
330
28B
100
AcDbEntity
  8
0
100
AcDbBlockEnd
  0
BLOCK
  5
295
330
293
100
AcDbEntity
  8
0
100
AcDbBlockBegin
  2
block 77
 70
     0
 10
0.0
 20
0.0
 30
0.0
  3
block 77
  1

  0
POLYLINE
  5
297
330
293
100
AcDbEntity
  8
0
 62
     7
370
     9
100
AcDb2dPolyline
 66
     1
 10
0.0
 20
0.0
 30
0.0
  0
VERTEX
  5
298
330
297
100
AcDbEntity
  8
0
 62
     7
370
     9
100
AcDbVertex
100
AcDb2dVertex
 10
171.6340812820997
 20
123.8450632227584
 30
0.0
  0
VERTEX
  5
299
330
297
100
AcDbEntity
  8
0
 62
     7
370
     9
100
AcDbVertex
100
AcDb2dVertex
 10
171.6340812820997
 20
126.6914029903863
 30
0.0
  0
SEQEND
  5
29A
330
297
100
AcDbEntity
  8
0
370
     9
  0
ENDBLK
  5
296
330
293
100
AcDbEntity
  8
0
100
AcDbBlockEnd
  0
BLOCK
  5
29D
330
29B
100
AcDbEntity
  8
0
100
AcDbBlockBegin
  2
block 78
 70
     0
 10
0.0
 20
0.0
 30
0.0
  3
block 78
  1

  0
POLYLINE
  5
29F
330
29B
100
AcDbEntity
  8
0
 62
     7
370
     9
100
AcDb2dPolyline
 66
     1
 10
0.0
 20
0.0
 30
0.0
  0
VERTEX
  5
2A0
330
29F
100
AcDbEntity
  8
0
 62
     7
370
     9
100
AcDbVertex
100
AcDb2dVertex
 10
171.6340812820997
 20
123.696924019166
 30
0.0
  0
VERTEX
  5
2A1
330
29F
100
AcDbEntity
  8
0
 62
     7
370
     9
100
AcDbVertex
100
AcDb2dVertex
 10
171.6340812820997
 20
123.8450632227584
 30
0.0
  0
SEQEND
  5
2A2
330
29F
100
AcDbEntity
  8
0
370
     9
  0
ENDBLK
  5
29E
330
29B
100
AcDbEntity
  8
0
100
AcDbBlockEnd
  0
BLOCK
  5
2A5
330
2A3
100
AcDbEntity
  8
0
100
AcDbBlockBegin
  2
block 79
 70
     0
 10
0.0
 20
0.0
 30
0.0
  3
block 79
  1

  0
POLYLINE
  5
2A7
330
2A3
100
AcDbEntity
  8
0
 62
     7
370
     9
100
AcDb2dPolyline
 66
     1
 10
0.0
 20
0.0
 30
0.0
  0
VERTEX
  5
2A8
330
2A7
100
AcDbEntity
  8
0
 62
     7
370
     9
100
AcDbVertex
100
AcDb2dVertex
 10
171.6340812820997
 20
123.6052844188042
 30
0.0
  0
VERTEX
  5
2A9
330
2A7
100
AcDbEntity
  8
0
 62
     7
370
     9
100
AcDbVertex
100
AcDb2dVertex
 10
171.6340812820997
 20
123.696924019166
 30
0.0
  0
SEQEND
  5
2AA
330
2A7
100
AcDbEntity
  8
0
370
     9
  0
ENDBLK
  5
2A6
330
2A3
100
AcDbEntity
  8
0
100
AcDbBlockEnd
  0
BLOCK
  5
2AD
330
2AB
100
AcDbEntity
  8
0
100
AcDbBlockBegin
  2
block 80
 70
     0
 10
0.0
 20
0.0
 30
0.0
  3
block 80
  1

  0
POLYLINE
  5
2AF
330
2AB
100
AcDbEntity
  8
0
 62
     7
370
     9
100
AcDb2dPolyline
 66
     1
 10
0.0
 20
0.0
 30
0.0
  0
VERTEX
  5
2B0
330
2AF
100
AcDbEntity
  8
0
 62
     7
370
     9
100
AcDbVertex
100
AcDb2dVertex
 10
248.1400562127065
 20
123.6965795093902
 30
0.0
  0
VERTEX
  5
2B1
330
2AF
100
AcDbEntity
  8
0
 62
     7
370
     9
100
AcDbVertex
100
AcDb2dVertex
 10
248.1400562127065
 20
123.6049399090284
 30
0.0
  0
SEQEND
  5
2B2
330
2AF
100
AcDbEntity
  8
0
370
     9
  0
ENDBLK
  5
2AE
330
2AB
100
AcDbEntity
  8
0
100
AcDbBlockEnd
  0
BLOCK
  5
2B5
330
2B3
100
AcDbEntity
  8
0
100
AcDbBlockBegin
  2
block 81
 70
     0
 10
0.0
 20
0.0
 30
0.0
  3
block 81
  1

  0
POLYLINE
  5
2B7
330
2B3
100
AcDbEntity
  8
0
 62
     7
370
     9
100
AcDb2dPolyline
 66
     1
 10
0.0
 20
0.0
 30
0.0
  0
VERTEX
  5
2B8
330
2B7
100
AcDbEntity
  8
0
 62
     7
370
     9
100
AcDbVertex
100
AcDb2dVertex
 10
248.1400562127065
 20
123.8447187129826
 30
0.0
  0
VERTEX
  5
2B9
330
2B7
100
AcDbEntity
  8
0
 62
     7
370
     9
100
AcDbVertex
100
AcDb2dVertex
 10
248.1400562127065
 20
123.6965795093902
 30
0.0
  0
SEQEND
  5
2BA
330
2B7
100
AcDbEntity
  8
0
370
     9
  0
ENDBLK
  5
2B6
330
2B3
100
AcDbEntity
  8
0
100
AcDbBlockEnd
  0
BLOCK
  5
2BD
330
2BB
100
AcDbEntity
  8
0
100
AcDbBlockBegin
  2
block 82
 70
     0
 10
0.0
 20
0.0
 30
0.0
  3
block 82
  1

  0
POLYLINE
  5
2BF
330
2BB
100
AcDbEntity
  8
0
 62
     7
370
     9
100
AcDb2dPolyline
 66
     1
 10
0.0
 20
0.0
 30
0.0
  0
VERTEX
  5
2C0
330
2BF
100
AcDbEntity
  8
0
 62
     7
370
     9
100
AcDbVertex
100
AcDb2dVertex
 10
248.1400562127065
 20
126.691747500162
 30
0.0
  0
VERTEX
  5
2C1
330
2BF
100
AcDbEntity
  8
0
 62
     7
370
     9
100
AcDbVertex
100
AcDb2dVertex
 10
248.1400562127065
 20
123.8447187129826
 30
0.0
  0
SEQEND
  5
2C2
330
2BF
100
AcDbEntity
  8
0
370
     9
  0
ENDBLK
  5
2BE
330
2BB
100
AcDbEntity
  8
0
100
AcDbBlockEnd
  0
BLOCK
  5
2C5
330
2C3
100
AcDbEntity
  8
0
100
AcDbBlockBegin
  2
block 83
 70
     0
 10
0.0
 20
0.0
 30
0.0
  3
block 83
  1

  0
POLYLINE
  5
2C7
330
2C3
100
AcDbEntity
  8
0
 62
     7
370
     9
100
AcDb2dPolyline
 66
     1
 10
0.0
 20
0.0
 30
0.0
  0
VERTEX
  5
2C8
330
2C7
100
AcDbEntity
  8
0
 62
     7
370
     9
100
AcDbVertex
100
AcDb2dVertex
 10
171.5500208968054
 20
126.6914029903863
 30
0.0
  0
VERTEX
  5
2C9
330
2C7
100
AcDbEntity
  8
0
 62
     7
370
     9
100
AcDbVertex
100
AcDb2dVertex
 10
171.6499287317864
 20
126.7913108253672
 30
0.0
  0
SEQEND
  5
2CA
330
2C7
100
AcDbEntity
  8
0
370
     9
  0
ENDBLK
  5
2C6
330
2C3
100
AcDbEntity
  8
0
100
AcDbBlockEnd
  0
BLOCK
  5
2CD
330
2CB
100
AcDbEntity
  8
0
100
AcDbBlockBegin
  2
block 84
 70
     0
 10
0.0
 20
0.0
 30
0.0
  3
block 84
  1

  0
POLYLINE
  5
2CF
330
2CB
100
AcDbEntity
  8
0
 62
     7
370
     9
100
AcDb2dPolyline
 66
     1
 10
0.0
 20
0.0
 30
0.0
  0
VERTEX
  5
2D0
330
2CF
100
AcDbEntity
  8
0
 62
     7
370
     9
100
AcDbVertex
100
AcDb2dVertex
 10
171.6499287317864
 20
126.7913108253672
 30
0.0
  0
VERTEX
  5
2D1
330
2CF
100
AcDbEntity
  8
0
 62
     7
370
     9
100
AcDbVertex
100
AcDb2dVertex
 10
171.6499287317864
 20
126.6914029903863
 30
0.0
  0
SEQEND
  5
2D2
330
2CF
100
AcDbEntity
  8
0
370
     9
  0
ENDBLK
  5
2CE
330
2CB
100
AcDbEntity
  8
0
100
AcDbBlockEnd
  0
BLOCK
  5
2D5
330
2D3
100
AcDbEntity
  8
0
100
AcDbBlockBegin
  2
block 85
 70
     0
 10
0.0
 20
0.0
 30
0.0
  3
block 85
  1

  0
POLYLINE
  5
2D7
330
2D3
100
AcDbEntity
  8
0
 62
     7
370
     9
100
AcDb2dPolyline
 66
     1
 10
0.0
 20
0.0
 30
0.0
  0
VERTEX
  5
2D8
330
2D7
100
AcDbEntity
  8
0
 62
     7
370
     9
100
AcDbVertex
100
AcDb2dVertex
 10
248.1559036623932
 20
126.6914029903863
 30
0.0
  0
VERTEX
  5
2D9
330
2D7
100
AcDbEntity
  8
0
 62
     7
370
     9
100
AcDbVertex
100
AcDb2dVertex
 10
248.1559036623932
 20
126.7913108253672
 30
0.0
  0
SEQEND
  5
2DA
330
2D7
100
AcDbEntity
  8
0
370
     9
  0
ENDBLK
  5
2D6
330
2D3
100
AcDbEntity
  8
0
100
AcDbBlockEnd
  0
BLOCK
  5
2DD
330
2DB
100
AcDbEntity
  8
0
100
AcDbBlockBegin
  2
block 86
 70
     0
 10
0.0
 20
0.0
 30
0.0
  3
block 86
  1

  0
POLYLINE
  5
2DF
330
2DB
100
AcDbEntity
  8
0
 62
     7
370
     9
100
AcDb2dPolyline
 66
     1
 10
0.0
 20
0.0
 30
0.0
  0
VERTEX
  5
2E0
330
2DF
100
AcDbEntity
  8
0
 62
     7
370
     9
100
AcDbVertex
100
AcDb2dVertex
 10
248.1559036623932
 20
126.7913108253672
 30
0.0
  0
VERTEX
  5
2E1
330
2DF
100
AcDbEntity
  8
0
 62
     7
370
     9
100
AcDbVertex
100
AcDb2dVertex
 10
248.2558114973741
 20
126.6914029903863
 30
0.0
  0
SEQEND
  5
2E2
330
2DF
100
AcDbEntity
  8
0
370
     9
  0
ENDBLK
  5
2DE
330
2DB
100
AcDbEntity
  8
0
100
AcDbBlockEnd
  0
BLOCK
  5
2E5
330
2E3
100
AcDbEntity
  8
0
100
AcDbBlockBegin
  2
block 87
 70
     0
 10
0.0
 20
0.0
 30
0.0
  3
block 87
  1

  0
POLYLINE
  5
2E7
330
2E3
100
AcDbEntity
  8
0
 62
     7
370
     9
100
AcDb2dPolyline
 66
     1
 10
0.0
 20
0.0
 30
0.0
  0
VERTEX
  5
2E8
330
2E7
100
AcDbEntity
  8
0
 62
     7
370
     9
100
AcDbVertex
100
AcDb2dVertex
 10
248.2558114973741
 20
125.0932221404679
 30
0.0
  0
VERTEX
  5
2E9
330
2E7
100
AcDbEntity
  8
0
 62
     7
370
     9
100
AcDbVertex
100
AcDb2dVertex
 10
248.1559036623932
 20
124.9936588152628
 30
0.0
  0
SEQEND
  5
2EA
330
2E7
100
AcDbEntity
  8
0
370
     9
  0
ENDBLK
  5
2E6
330
2E3
100
AcDbEntity
  8
0
100
AcDbBlockEnd
  0
BLOCK
  5
2ED
330
2EB
100
AcDbEntity
  8
0
100
AcDbBlockBegin
  2
block 88
 70
     0
 10
0.0
 20
0.0
 30
0.0
  3
block 88
  1

  0
POLYLINE
  5
2EF
330
2EB
100
AcDbEntity
  8
0
 62
     7
370
     9
100
AcDb2dPolyline
 66
     1
 10
0.0
 20
0.0
 30
0.0
  0
VERTEX
  5
2F0
330
2EF
100
AcDbEntity
  8
0
 62
     7
370
     9
100
AcDbVertex
100
AcDb2dVertex
 10
248.1559036623932
 20
124.9936588152628
 30
0.0
  0
VERTEX
  5
2F1
330
2EF
100
AcDbEntity
  8
0
 62
     7
370
     9
100
AcDbVertex
100
AcDb2dVertex
 10
248.1559036623932
 20
125.0932221404679
 30
0.0
  0
SEQEND
  5
2F2
330
2EF
100
AcDbEntity
  8
0
370
     9
  0
ENDBLK
  5
2EE
330
2EB
100
AcDbEntity
  8
0
100
AcDbBlockEnd
  0
BLOCK
  5
2F5
330
2F3
100
AcDbEntity
  8
0
100
AcDbBlockBegin
  2
block 89
 70
     0
 10
0.0
 20
0.0
 30
0.0
  3
block 89
  1

  0
POLYLINE
  5
2F7
330
2F3
100
AcDbEntity
  8
0
 62
     7
370
     9
100
AcDb2dPolyline
 66
     1
 10
0.0
 20
0.0
 30
0.0
  0
VERTEX
  5
2F8
330
2F7
100
AcDbEntity
  8
0
 62
     7
370
     9
100
AcDbVertex
100
AcDb2dVertex
 10
171.6340812820997
 20
125.0091617551736
 30
0.0
  0
VERTEX
  5
2F9
330
2F7
100
AcDbEntity
  8
0
 62
     7
370
     9
100
AcDbVertex
100
AcDb2dVertex
 10
171.5500208968054
 20
125.0932221404679
 30
0.0
  0
SEQEND
  5
2FA
330
2F7
100
AcDbEntity
  8
0
370
     9
  0
ENDBLK
  5
2F6
330
2F3
100
AcDbEntity
  8
0
100
AcDbBlockEnd
  0
BLOCK
  5
2FD
330
2FB
100
AcDbEntity
  8
0
100
AcDbBlockBegin
  2
block 90
 70
     0
 10
0.0
 20
0.0
 30
0.0
  3
block 90
  1

  0
POLYLINE
  5
2FF
330
2FB
100
AcDbEntity
  8
0
 62
     7
370
     9
100
AcDb2dPolyline
 66
     1
 10
0.0
 20
0.0
 30
0.0
  0
VERTEX
  5
300
330
2FF
100
AcDbEntity
  8
0
 62
     7
370
     9
100
AcDbVertex
100
AcDb2dVertex
 10
248.2558114973741
 20
126.6914029903863
 30
0.0
  0
VERTEX
  5
301
330
2FF
100
AcDbEntity
  8
0
 62
     7
370
     9
100
AcDbVertex
100
AcDb2dVertex
 10
248.1559036623932
 20
126.6914029903863
 30
0.0
  0
SEQEND
  5
302
330
2FF
100
AcDbEntity
  8
0
370
     9
  0
ENDBLK
  5
2FE
330
2FB
100
AcDbEntity
  8
0
100
AcDbBlockEnd
  0
BLOCK
  5
305
330
303
100
AcDbEntity
  8
0
100
AcDbBlockBegin
  2
block 91
 70
     0
 10
0.0
 20
0.0
 30
0.0
  3
block 91
  1

  0
POLYLINE
  5
307
330
303
100
AcDbEntity
  8
0
 62
     7
370
     9
100
AcDb2dPolyline
 66
     1
 10
0.0
 20
0.0
 30
0.0
  0
VERTEX
  5
308
330
307
100
AcDbEntity
  8
0
 62
     7
370
     9
100
AcDbVertex
100
AcDb2dVertex
 10
248.1559036623932
 20
125.0932221404679
 30
0.0
  0
VERTEX
  5
309
330
307
100
AcDbEntity
  8
0
 62
     7
370
     9
100
AcDbVertex
100
AcDb2dVertex
 10
248.2558114973741
 20
125.0932221404679
 30
0.0
  0
SEQEND
  5
30A
330
307
100
AcDbEntity
  8
0
370
     9
  0
ENDBLK
  5
306
330
303
100
AcDbEntity
  8
0
100
AcDbBlockEnd
  0
BLOCK
  5
30D
330
30B
100
AcDbEntity
  8
0
100
AcDbBlockBegin
  2
block 92
 70
     0
 10
0.0
 20
0.0
 30
0.0
  3
block 92
  1

  0
POLYLINE
  5
30F
330
30B
100
AcDbEntity
  8
0
 62
     7
370
     9
100
AcDb2dPolyline
 66
     1
 10
0.0
 20
0.0
 30
0.0
  0
VERTEX
  5
310
330
30F
100
AcDbEntity
  8
0
 62
     7
370
     9
100
AcDbVertex
100
AcDb2dVertex
 10
171.6340812820997
 20
126.6914029903863
 30
0.0
  0
VERTEX
  5
311
330
30F
100
AcDbEntity
  8
0
 62
     7
370
     9
100
AcDbVertex
100
AcDb2dVertex
 10
171.5500208968054
 20
126.6914029903863
 30
0.0
  0
SEQEND
  5
312
330
30F
100
AcDbEntity
  8
0
370
     9
  0
ENDBLK
  5
30E
330
30B
100
AcDbEntity
  8
0
100
AcDbBlockEnd
  0
BLOCK
  5
315
330
313
100
AcDbEntity
  8
0
100
AcDbBlockBegin
  2
block 93
 70
     0
 10
0.0
 20
0.0
 30
0.0
  3
block 93
  1

  0
POLYLINE
  5
317
330
313
100
AcDbEntity
  8
0
 62
     7
370
     9
100
AcDb2dPolyline
 66
     1
 10
0.0
 20
0.0
 30
0.0
  0
VERTEX
  5
318
330
317
100
AcDbEntity
  8
0
 62
     7
370
     9
100
AcDbVertex
100
AcDb2dVertex
 10
171.5500208968054
 20
125.0932221404679
 30
0.0
  0
VERTEX
  5
319
330
317
100
AcDbEntity
  8
0
 62
     7
370
     9
100
AcDbVertex
100
AcDb2dVertex
 10
171.6340812820997
 20
125.0932221404679
 30
0.0
  0
SEQEND
  5
31A
330
317
100
AcDbEntity
  8
0
370
     9
  0
ENDBLK
  5
316
330
313
100
AcDbEntity
  8
0
100
AcDbBlockEnd
  0
BLOCK
  5
31D
330
31B
100
AcDbEntity
  8
0
100
AcDbBlockBegin
  2
block 94
 70
     0
 10
0.0
 20
0.0
 30
0.0
  3
block 94
  1

  0
POLYLINE
  5
31F
330
31B
100
AcDbEntity
  8
0
 62
     7
370
     9
100
AcDb2dPolyline
 66
     1
 10
0.0
 20
0.0
 30
0.0
  0
VERTEX
  5
320
330
31F
100
AcDbEntity
  8
0
 62
     7
370
     9
100
AcDbVertex
100
AcDb2dVertex
 10
248.1559036623932
 20
124.9936588152628
 30
0.0
  0
VERTEX
  5
321
330
31F
100
AcDbEntity
  8
0
 62
     7
370
     9
100
AcDbVertex
100
AcDb2dVertex
 10
248.1400562127065
 20
124.9936588152628
 30
0.0
  0
SEQEND
  5
322
330
31F
100
AcDbEntity
  8
0
370
     9
  0
ENDBLK
  5
31E
330
31B
100
AcDbEntity
  8
0
100
AcDbBlockEnd
  0
BLOCK
  5
325
330
323
100
AcDbEntity
  8
0
100
AcDbBlockBegin
  2
block 95
 70
     0
 10
0.0
 20
0.0
 30
0.0
  3
block 95
  1

  0
POLYLINE
  5
327
330
323
100
AcDbEntity
  8
0
 62
     7
370
     9
100
AcDb2dPolyline
 66
     1
 10
0.0
 20
0.0
 30
0.0
  0
VERTEX
  5
328
330
327
100
AcDbEntity
  8
0
 62
     7
370
     9
100
AcDbVertex
100
AcDb2dVertex
 10
248.2558114973741
 20
125.0932221404679
 30
0.0
  0
VERTEX
  5
329
330
327
100
AcDbEntity
  8
0
 62
     7
370
     9
100
AcDbVertex
100
AcDb2dVertex
 10
248.2558114973741
 20
126.6914029903863
 30
0.0
  0
SEQEND
  5
32A
330
327
100
AcDbEntity
  8
0
370
     9
  0
ENDBLK
  5
326
330
323
100
AcDbEntity
  8
0
100
AcDbBlockEnd
  0
BLOCK
  5
32D
330
32B
100
AcDbEntity
  8
0
100
AcDbBlockBegin
  2
block 96
 70
     0
 10
0.0
 20
0.0
 30
0.0
  3
block 96
  1

  0
POLYLINE
  5
32F
330
32B
100
AcDbEntity
  8
0
 62
     7
370
     9
100
AcDb2dPolyline
 66
     1
 10
0.0
 20
0.0
 30
0.0
  0
VERTEX
  5
330
330
32F
100
AcDbEntity
  8
0
 62
     7
370
     9
100
AcDbVertex
100
AcDb2dVertex
 10
248.2558114973741
 20
126.6914029903863
 30
0.0
  0
VERTEX
  5
331
330
32F
100
AcDbEntity
  8
0
 62
     7
370
     9
100
AcDbVertex
100
AcDb2dVertex
 10
248.2558114973741
 20
125.0932221404679
 30
0.0
  0
SEQEND
  5
332
330
32F
100
AcDbEntity
  8
0
370
     9
  0
ENDBLK
  5
32E
330
32B
100
AcDbEntity
  8
0
100
AcDbBlockEnd
  0
BLOCK
  5
335
330
333
100
AcDbEntity
  8
0
100
AcDbBlockBegin
  2
block 97
 70
     0
 10
0.0
 20
0.0
 30
0.0
  3
block 97
  1

  0
POLYLINE
  5
337
330
333
100
AcDbEntity
  8
0
 62
     7
370
     9
100
AcDb2dPolyline
 66
     1
 10
0.0
 20
0.0
 30
0.0
  0
VERTEX
  5
338
330
337
100
AcDbEntity
  8
0
 62
     7
370
     9
100
AcDbVertex
100
AcDb2dVertex
 10
248.1559036623932
 20
126.6914029903863
 30
0.0
  0
VERTEX
  5
339
330
337
100
AcDbEntity
  8
0
 62
     7
370
     9
100
AcDbVertex
100
AcDb2dVertex
 10
248.1400562127065
 20
126.6914029903863
 30
0.0
  0
SEQEND
  5
33A
330
337
100
AcDbEntity
  8
0
370
     9
  0
ENDBLK
  5
336
330
333
100
AcDbEntity
  8
0
100
AcDbBlockEnd
  0
BLOCK
  5
33D
330
33B
100
AcDbEntity
  8
0
100
AcDbBlockBegin
  2
block 98
 70
     0
 10
0.0
 20
0.0
 30
0.0
  3
block 98
  1

  0
POLYLINE
  5
33F
330
33B
100
AcDbEntity
  8
0
 62
     7
370
     9
100
AcDb2dPolyline
 66
     1
 10
0.0
 20
0.0
 30
0.0
  0
VERTEX
  5
340
330
33F
100
AcDbEntity
  8
0
 62
     7
370
     9
100
AcDbVertex
100
AcDb2dVertex
 10
248.1559036623932
 20
125.0932221404679
 30
0.0
  0
VERTEX
  5
341
330
33F
100
AcDbEntity
  8
0
 62
     7
370
     9
100
AcDbVertex
100
AcDb2dVertex
 10
248.1559036623932
 20
126.6914029903863
 30
0.0
  0
SEQEND
  5
342
330
33F
100
AcDbEntity
  8
0
370
     9
  0
ENDBLK
  5
33E
330
33B
100
AcDbEntity
  8
0
100
AcDbBlockEnd
  0
BLOCK
  5
345
330
343
100
AcDbEntity
  8
0
100
AcDbBlockBegin
  2
block 99
 70
     0
 10
0.0
 20
0.0
 30
0.0
  3
block 99
  1

  0
POLYLINE
  5
347
330
343
100
AcDbEntity
  8
0
 62
     7
370
     9
100
AcDb2dPolyline
 66
     1
 10
0.0
 20
0.0
 30
0.0
  0
VERTEX
  5
348
330
347
100
AcDbEntity
  8
0
 62
     7
370
     9
100
AcDbVertex
100
AcDb2dVertex
 10
248.1400562127065
 20
125.0932221404679
 30
0.0
  0
VERTEX
  5
349
330
347
100
AcDbEntity
  8
0
 62
     7
370
     9
100
AcDbVertex
100
AcDb2dVertex
 10
248.1559036623932
 20
125.0932221404679
 30
0.0
  0
SEQEND
  5
34A
330
347
100
AcDbEntity
  8
0
370
     9
  0
ENDBLK
  5
346
330
343
100
AcDbEntity
  8
0
100
AcDbBlockEnd
  0
BLOCK
  5
34D
330
34B
100
AcDbEntity
  8
0
100
AcDbBlockBegin
  2
block 100
 70
     0
 10
0.0
 20
0.0
 30
0.0
  3
block 100
  1

  0
POLYLINE
  5
34F
330
34B
100
AcDbEntity
  8
0
 62
     7
370
     9
100
AcDb2dPolyline
 66
     1
 10
0.0
 20
0.0
 30
0.0
  0
VERTEX
  5
350
330
34F
100
AcDbEntity
  8
0
 62
     7
370
     9
100
AcDbVertex
100
AcDb2dVertex
 10
171.5500208968054
 20
125.0932221404679
 30
0.0
  0
VERTEX
  5
351
330
34F
100
AcDbEntity
  8
0
 62
     7
370
     9
100
AcDbVertex
100
AcDb2dVertex
 10
171.5500208968054
 20
126.6914029903863
 30
0.0
  0
SEQEND
  5
352
330
34F
100
AcDbEntity
  8
0
370
     9
  0
ENDBLK
  5
34E
330
34B
100
AcDbEntity
  8
0
100
AcDbBlockEnd
  0
BLOCK
  5
355
330
353
100
AcDbEntity
  8
0
100
AcDbBlockBegin
  2
block 101
 70
     0
 10
0.0
 20
0.0
 30
0.0
  3
block 101
  1

  0
POLYLINE
  5
357
330
353
100
AcDbEntity
  8
0
 62
     7
370
     9
100
AcDb2dPolyline
 66
     1
 10
0.0
 20
0.0
 30
0.0
  0
VERTEX
  5
358
330
357
100
AcDbEntity
  8
0
 62
     7
370
     9
100
AcDbVertex
100
AcDb2dVertex
 10
171.5500208968054
 20
126.6914029903863
 30
0.0
  0
VERTEX
  5
359
330
357
100
AcDbEntity
  8
0
 62
     7
370
     9
100
AcDbVertex
100
AcDb2dVertex
 10
171.5500208968054
 20
125.0932221404679
 30
0.0
  0
SEQEND
  5
35A
330
357
100
AcDbEntity
  8
0
370
     9
  0
ENDBLK
  5
356
330
353
100
AcDbEntity
  8
0
100
AcDbBlockEnd
  0
BLOCK
  5
35D
330
35B
100
AcDbEntity
  8
0
100
AcDbBlockBegin
  2
block 102
 70
     0
 10
0.0
 20
0.0
 30
0.0
  3
block 102
  1

  0
POLYLINE
  5
35F
330
35B
100
AcDbEntity
  8
0
 62
     7
370
     9
100
AcDb2dPolyline
 66
     1
 10
0.0
 20
0.0
 30
0.0
  0
VERTEX
  5
360
330
35F
100
AcDbEntity
  8
0
 62
     7
370
     9
100
AcDbVertex
100
AcDb2dVertex
 10
244.5464747413767
 20
167.4019509413317
 30
0.0
  0
VERTEX
  5
361
330
35F
100
AcDbEntity
  8
0
 62
     7
370
     9
100
AcDbVertex
100
AcDb2dVertex
 10
244.5619776812875
 20
167.4019509413317
 30
0.0
  0
SEQEND
  5
362
330
35F
100
AcDbEntity
  8
0
370
     9
  0
ENDBLK
  5
35E
330
35B
100
AcDbEntity
  8
0
100
AcDbBlockEnd
  0
BLOCK
  5
365
330
363
100
AcDbEntity
  8
0
100
AcDbBlockBegin
  2
block 103
 70
     0
 10
0.0
 20
0.0
 30
0.0
  3
block 103
  1

  0
POLYLINE
  5
367
330
363
100
AcDbEntity
  8
0
 62
     7
370
     9
100
AcDb2dPolyline
 66
     1
 10
0.0
 20
0.0
 30
0.0
  0
VERTEX
  5
368
330
367
100
AcDbEntity
  8
0
 62
     7
370
     9
100
AcDbVertex
100
AcDb2dVertex
 10
244.5619776812875
 20
167.4019509413317
 30
0.0
  0
VERTEX
  5
369
330
367
100
AcDbEntity
  8
0
 62
     7
370
     9
100
AcDbVertex
100
AcDb2dVertex
 10
244.605041403262
 20
167.4019509413317
 30
0.0
  0
SEQEND
  5
36A
330
367
100
AcDbEntity
  8
0
370
     9
  0
ENDBLK
  5
366
330
363
100
AcDbEntity
  8
0
100
AcDbBlockEnd
  0
BLOCK
  5
36D
330
36B
100
AcDbEntity
  8
0
100
AcDbBlockBegin
  2
block 104
 70
     0
 10
0.0
 20
0.0
 30
0.0
  3
block 104
  1

  0
POLYLINE
  5
36F
330
36B
100
AcDbEntity
  8
0
 62
     7
370
     9
100
AcDb2dPolyline
 66
     1
 10
0.0
 20
0.0
 30
0.0
  0
VERTEX
  5
370
330
36F
100
AcDbEntity
  8
0
 62
     7
370
     9
100
AcDbVertex
100
AcDb2dVertex
 10
244.605041403262
 20
128.5889628354716
 30
0.0
  0
VERTEX
  5
371
330
36F
100
AcDbEntity
  8
0
 62
     7
370
     9
100
AcDbVertex
100
AcDb2dVertex
 10
244.605041403262
 20
167.4019509413317
 30
0.0
  0
SEQEND
  5
372
330
36F
100
AcDbEntity
  8
0
370
     9
  0
ENDBLK
  5
36E
330
36B
100
AcDbEntity
  8
0
100
AcDbBlockEnd
  0
BLOCK
  5
375
330
373
100
AcDbEntity
  8
0
100
AcDbBlockBegin
  2
block 105
 70
     0
 10
0.0
 20
0.0
 30
0.0
  3
block 105
  1

  0
POLYLINE
  5
377
330
373
100
AcDbEntity
  8
0
 62
     7
370
     9
100
AcDb2dPolyline
 66
     1
 10
0.0
 20
0.0
 30
0.0
  0
VERTEX
  5
378
330
377
100
AcDbEntity
  8
0
 62
     7
370
     9
100
AcDbVertex
100
AcDb2dVertex
 10
244.605041403262
 20
167.4019509413317
 30
0.0
  0
VERTEX
  5
379
330
377
100
AcDbEntity
  8
0
 62
     7
370
     9
100
AcDbVertex
100
AcDb2dVertex
 10
244.6667086531296
 20
167.4019509413317
 30
0.0
  0
SEQEND
  5
37A
330
377
100
AcDbEntity
  8
0
370
     9
  0
ENDBLK
  5
376
330
373
100
AcDbEntity
  8
0
100
AcDbBlockEnd
  0
BLOCK
  5
37D
330
37B
100
AcDbEntity
  8
0
100
AcDbBlockBegin
  2
block 106
 70
     0
 10
0.0
 20
0.0
 30
0.0
  3
block 106
  1

  0
POLYLINE
  5
37F
330
37B
100
AcDbEntity
  8
0
 62
     7
370
     9
100
AcDb2dPolyline
 66
     1
 10
0.0
 20
0.0
 30
0.0
  0
VERTEX
  5
380
330
37F
100
AcDbEntity
  8
0
 62
     7
370
     9
100
AcDbVertex
100
AcDb2dVertex
 10
244.6667086531296
 20
167.4019509413317
 30
0.0
  0
VERTEX
  5
381
330
37F
100
AcDbEntity
  8
0
 62
     7
370
     9
100
AcDbVertex
100
AcDb2dVertex
 10
245.3023291894735
 20
167.4019509413317
 30
0.0
  0
SEQEND
  5
382
330
37F
100
AcDbEntity
  8
0
370
     9
  0
ENDBLK
  5
37E
330
37B
100
AcDbEntity
  8
0
100
AcDbBlockEnd
  0
BLOCK
  5
385
330
383
100
AcDbEntity
  8
0
100
AcDbBlockBegin
  2
block 107
 70
     0
 10
0.0
 20
0.0
 30
0.0
  3
block 107
  1

  0
POLYLINE
  5
387
330
383
100
AcDbEntity
  8
0
 62
     7
370
     9
100
AcDb2dPolyline
 66
     1
 10
0.0
 20
0.0
 30
0.0
  0
VERTEX
  5
388
330
387
100
AcDbEntity
  8
0
 62
     7
370
     9
100
AcDbVertex
100
AcDb2dVertex
 10
245.3023291894735
 20
167.4019509413317
 30
0.0
  0
VERTEX
  5
389
330
387
100
AcDbEntity
  8
0
 62
     7
370
     9
100
AcDbVertex
100
AcDb2dVertex
 10
245.3705421250811
 20
167.4019509413317
 30
0.0
  0
SEQEND
  5
38A
330
387
100
AcDbEntity
  8
0
370
     9
  0
ENDBLK
  5
386
330
383
100
AcDbEntity
  8
0
100
AcDbBlockEnd
  0
BLOCK
  5
38D
330
38B
100
AcDbEntity
  8
0
100
AcDbBlockBegin
  2
block 108
 70
     0
 10
0.0
 20
0.0
 30
0.0
  3
block 108
  1

  0
POLYLINE
  5
38F
330
38B
100
AcDbEntity
  8
0
 62
     7
370
     9
100
AcDb2dPolyline
 66
     1
 10
0.0
 20
0.0
 30
0.0
  0
VERTEX
  5
390
330
38F
100
AcDbEntity
  8
0
 62
     7
370
     9
100
AcDbVertex
100
AcDb2dVertex
 10
245.3705421250811
 20
128.5889628354716
 30
0.0
  0
VERTEX
  5
391
330
38F
100
AcDbEntity
  8
0
 62
     7
370
     9
100
AcDbVertex
100
AcDb2dVertex
 10
245.3705421250811
 20
167.4019509413317
 30
0.0
  0
SEQEND
  5
392
330
38F
100
AcDbEntity
  8
0
370
     9
  0
ENDBLK
  5
38E
330
38B
100
AcDbEntity
  8
0
100
AcDbBlockEnd
  0
BLOCK
  5
395
330
393
100
AcDbEntity
  8
0
100
AcDbBlockBegin
  2
block 109
 70
     0
 10
0.0
 20
0.0
 30
0.0
  3
block 109
  1

  0
POLYLINE
  5
397
330
393
100
AcDbEntity
  8
0
 62
     7
370
     9
100
AcDb2dPolyline
 66
     1
 10
0.0
 20
0.0
 30
0.0
  0
VERTEX
  5
398
330
397
100
AcDbEntity
  8
0
 62
     7
370
     9
100
AcDbVertex
100
AcDb2dVertex
 10
245.3705421250811
 20
167.4019509413317
 30
0.0
  0
VERTEX
  5
399
330
397
100
AcDbEntity
  8
0
 62
     7
370
     9
100
AcDbVertex
100
AcDb2dVertex
 10
245.4291087869665
 20
167.4019509413317
 30
0.0
  0
SEQEND
  5
39A
330
397
100
AcDbEntity
  8
0
370
     9
  0
ENDBLK
  5
396
330
393
100
AcDbEntity
  8
0
100
AcDbBlockEnd
  0
BLOCK
  5
39D
330
39B
100
AcDbEntity
  8
0
100
AcDbBlockBegin
  2
block 110
 70
     0
 10
0.0
 20
0.0
 30
0.0
  3
block 110
  1

  0
POLYLINE
  5
39F
330
39B
100
AcDbEntity
  8
0
 62
     7
370
     9
100
AcDb2dPolyline
 66
     1
 10
0.0
 20
0.0
 30
0.0
  0
VERTEX
  5
3A0
330
39F
100
AcDbEntity
  8
0
 62
     7
370
     9
100
AcDbVertex
100
AcDb2dVertex
 10
245.4291087869665
 20
128.5889628354716
 30
0.0
  0
VERTEX
  5
3A1
330
39F
100
AcDbEntity
  8
0
 62
     7
370
     9
100
AcDbVertex
100
AcDb2dVertex
 10
245.4291087869665
 20
167.4019509413317
 30
0.0
  0
SEQEND
  5
3A2
330
39F
100
AcDbEntity
  8
0
370
     9
  0
ENDBLK
  5
39E
330
39B
100
AcDbEntity
  8
0
100
AcDbBlockEnd
  0
BLOCK
  5
3A5
330
3A3
100
AcDbEntity
  8
0
100
AcDbBlockBegin
  2
block 111
 70
     0
 10
0.0
 20
0.0
 30
0.0
  3
block 111
  1

  0
POLYLINE
  5
3A7
330
3A3
100
AcDbEntity
  8
0
 62
     7
370
     9
100
AcDb2dPolyline
 66
     1
 10
0.0
 20
0.0
 30
0.0
  0
VERTEX
  5
3A8
330
3A7
100
AcDbEntity
  8
0
 62
     7
370
     9
100
AcDbVertex
100
AcDb2dVertex
 10
245.4291087869665
 20
167.4019509413317
 30
0.0
  0
VERTEX
  5
3A9
330
3A7
100
AcDbEntity
  8
0
 62
     7
370
     9
100
AcDbVertex
100
AcDb2dVertex
 10
245.4656268232009
 20
167.4019509413317
 30
0.0
  0
SEQEND
  5
3AA
330
3A7
100
AcDbEntity
  8
0
370
     9
  0
ENDBLK
  5
3A6
330
3A3
100
AcDbEntity
  8
0
100
AcDbBlockEnd
  0
BLOCK
  5
3AD
330
3AB
100
AcDbEntity
  8
0
100
AcDbBlockBegin
  2
block 112
 70
     0
 10
0.0
 20
0.0
 30
0.0
  3
block 112
  1

  0
POLYLINE
  5
3AF
330
3AB
100
AcDbEntity
  8
0
 62
     7
370
     9
100
AcDb2dPolyline
 66
     1
 10
0.0
 20
0.0
 30
0.0
  0
VERTEX
  5
3B0
330
3AF
100
AcDbEntity
  8
0
 62
     7
370
     9
100
AcDbVertex
100
AcDb2dVertex
 10
245.4656268232009
 20
167.4019509413317
 30
0.0
  0
VERTEX
  5
3B1
330
3AF
100
AcDbEntity
  8
0
 62
     7
370
     9
100
AcDbVertex
100
AcDb2dVertex
 10
245.7136738617741
 20
167.4019509413317
 30
0.0
  0
SEQEND
  5
3B2
330
3AF
100
AcDbEntity
  8
0
370
     9
  0
ENDBLK
  5
3AE
330
3AB
100
AcDbEntity
  8
0
100
AcDbBlockEnd
  0
BLOCK
  5
3B5
330
3B3
100
AcDbEntity
  8
0
100
AcDbBlockBegin
  2
block 113
 70
     0
 10
0.0
 20
0.0
 30
0.0
  3
block 113
  1

  0
POLYLINE
  5
3B7
330
3B3
100
AcDbEntity
  8
0
 62
     7
370
     9
100
AcDb2dPolyline
 66
     1
 10
0.0
 20
0.0
 30
0.0
  0
VERTEX
  5
3B8
330
3B7
100
AcDbEntity
  8
0
 62
     7
370
     9
100
AcDbVertex
100
AcDb2dVertex
 10
245.7136738617741
 20
167.4019509413317
 30
0.0
  0
VERTEX
  5
3B9
330
3B7
100
AcDbEntity
  8
0
 62
     7
370
     9
100
AcDbVertex
100
AcDb2dVertex
 10
245.8635356142454
 20
167.4019509413317
 30
0.0
  0
SEQEND
  5
3BA
330
3B7
100
AcDbEntity
  8
0
370
     9
  0
ENDBLK
  5
3B6
330
3B3
100
AcDbEntity
  8
0
100
AcDbBlockEnd
  0
BLOCK
  5
3BD
330
3BB
100
AcDbEntity
  8
0
100
AcDbBlockBegin
  2
block 114
 70
     0
 10
0.0
 20
0.0
 30
0.0
  3
block 114
  1

  0
POLYLINE
  5
3BF
330
3BB
100
AcDbEntity
  8
0
 62
     7
370
     9
100
AcDb2dPolyline
 66
     1
 10
0.0
 20
0.0
 30
0.0
  0
VERTEX
  5
3C0
330
3BF
100
AcDbEntity
  8
0
 62
     7
370
     9
100
AcDbVertex
100
AcDb2dVertex
 10
245.8635356142454
 20
167.4019509413317
 30
0.0
  0
VERTEX
  5
3C1
330
3BF
100
AcDbEntity
  8
0
 62
     7
370
     9
100
AcDbVertex
100
AcDb2dVertex
 10
245.9138340415117
 20
167.4019509413317
 30
0.0
  0
SEQEND
  5
3C2
330
3BF
100
AcDbEntity
  8
0
370
     9
  0
ENDBLK
  5
3BE
330
3BB
100
AcDbEntity
  8
0
100
AcDbBlockEnd
  0
BLOCK
  5
3C5
330
3C3
100
AcDbEntity
  8
0
100
AcDbBlockBegin
  2
block 115
 70
     0
 10
0.0
 20
0.0
 30
0.0
  3
block 115
  1

  0
POLYLINE
  5
3C7
330
3C3
100
AcDbEntity
  8
0
 62
     7
370
     9
100
AcDb2dPolyline
 66
     1
 10
0.0
 20
0.0
 30
0.0
  0
VERTEX
  5
3C8
330
3C7
100
AcDbEntity
  8
0
 62
     7
370
     9
100
AcDbVertex
100
AcDb2dVertex
 10
245.9138340415117
 20
128.5889628354716
 30
0.0
  0
VERTEX
  5
3C9
330
3C7
100
AcDbEntity
  8
0
 62
     7
370
     9
100
AcDbVertex
100
AcDb2dVertex
 10
245.9138340415117
 20
167.4019509413317
 30
0.0
  0
SEQEND
  5
3CA
330
3C7
100
AcDbEntity
  8
0
370
     9
  0
ENDBLK
  5
3C6
330
3C3
100
AcDbEntity
  8
0
100
AcDbBlockEnd
  0
BLOCK
  5
3CD
330
3CB
100
AcDbEntity
  8
0
100
AcDbBlockBegin
  2
block 116
 70
     0
 10
0.0
 20
0.0
 30
0.0
  3
block 116
  1

  0
POLYLINE
  5
3CF
330
3CB
100
AcDbEntity
  8
0
 62
     7
370
     9
100
AcDb2dPolyline
 66
     1
 10
0.0
 20
0.0
 30
0.0
  0
VERTEX
  5
3D0
330
3CF
100
AcDbEntity
  8
0
 62
     7
370
     9
100
AcDbVertex
100
AcDb2dVertex
 10
245.9138340415117
 20
167.4019509413317
 30
0.0
  0
VERTEX
  5
3D1
330
3CF
100
AcDbEntity
  8
0
 62
     7
370
     9
100
AcDbVertex
100
AcDb2dVertex
 10
244.5454412120493
 20
167.4019509413317
 30
0.0
  0
SEQEND
  5
3D2
330
3CF
100
AcDbEntity
  8
0
370
     9
  0
ENDBLK
  5
3CE
330
3CB
100
AcDbEntity
  8
0
100
AcDbBlockEnd
  0
BLOCK
  5
3D5
330
3D3
100
AcDbEntity
  8
0
100
AcDbBlockBegin
  2
block 117
 70
     0
 10
0.0
 20
0.0
 30
0.0
  3
block 117
  1

  0
POLYLINE
  5
3D7
330
3D3
100
AcDbEntity
  8
0
 62
     7
370
     9
100
AcDb2dPolyline
 66
     1
 10
0.0
 20
0.0
 30
0.0
  0
VERTEX
  5
3D8
330
3D7
100
AcDbEntity
  8
0
 62
     7
370
     9
100
AcDbVertex
100
AcDb2dVertex
 10
244.5454412120493
 20
128.5889628354716
 30
0.0
  0
VERTEX
  5
3D9
330
3D7
100
AcDbEntity
  8
0
 62
     7
370
     9
100
AcDbVertex
100
AcDb2dVertex
 10
244.5454412120493
 20
165.7791376424438
 30
0.0
  0
SEQEND
  5
3DA
330
3D7
100
AcDbEntity
  8
0
370
     9
  0
ENDBLK
  5
3D6
330
3D3
100
AcDbEntity
  8
0
100
AcDbBlockEnd
  0
BLOCK
  5
3DD
330
3DB
100
AcDbEntity
  8
0
100
AcDbBlockBegin
  2
block 118
 70
     0
 10
0.0
 20
0.0
 30
0.0
  3
block 118
  1

  0
POLYLINE
  5
3DF
330
3DB
100
AcDbEntity
  8
0
 62
     7
370
     9
100
AcDb2dPolyline
 66
     1
 10
0.0
 20
0.0
 30
0.0
  0
VERTEX
  5
3E0
330
3DF
100
AcDbEntity
  8
0
 62
     7
370
     9
100
AcDbVertex
100
AcDb2dVertex
 10
244.5454412120493
 20
167.3773184923623
 30
0.0
  0
VERTEX
  5
3E1
330
3DF
100
AcDbEntity
  8
0
 62
     7
370
     9
100
AcDbVertex
100
AcDb2dVertex
 10
244.5454412120493
 20
167.4019509413317
 30
0.0
  0
SEQEND
  5
3E2
330
3DF
100
AcDbEntity
  8
0
370
     9
  0
ENDBLK
  5
3DE
330
3DB
100
AcDbEntity
  8
0
100
AcDbBlockEnd
  0
BLOCK
  5
3E5
330
3E3
100
AcDbEntity
  8
0
100
AcDbBlockBegin
  2
block 119
 70
     0
 10
0.0
 20
0.0
 30
0.0
  3
block 119
  1

  0
POLYLINE
  5
3E7
330
3E3
100
AcDbEntity
  8
0
 62
     7
370
     9
100
AcDb2dPolyline
 66
     1
 10
0.0
 20
0.0
 30
0.0
  0
VERTEX
  5
3E8
330
3E7
100
AcDbEntity
  8
0
 62
     7
370
     9
100
AcDbVertex
100
AcDb2dVertex
 10
244.5454412120493
 20
167.4019509413317
 30
0.0
  0
VERTEX
  5
3E9
330
3E7
100
AcDbEntity
  8
0
 62
     7
370
     9
100
AcDbVertex
100
AcDb2dVertex
 10
244.5464747413767
 20
167.4019509413317
 30
0.0
  0
SEQEND
  5
3EA
330
3E7
100
AcDbEntity
  8
0
370
     9
  0
ENDBLK
  5
3E6
330
3E3
100
AcDbEntity
  8
0
100
AcDbBlockEnd
  0
BLOCK
  5
3ED
330
3EB
100
AcDbEntity
  8
0
100
AcDbBlockBegin
  2
block 120
 70
     0
 10
0.0
 20
0.0
 30
0.0
  3
block 120
  1

  0
POLYLINE
  5
3EF
330
3EB
100
AcDbEntity
  8
0
 62
     7
370
     9
100
AcDb2dPolyline
 66
     1
 10
0.0
 20
0.0
 30
0.0
  0
VERTEX
  5
3F0
330
3EF
100
AcDbEntity
  8
0
 62
     7
370
     9
100
AcDbVertex
100
AcDb2dVertex
 10
175.1928672660742
 20
167.4019509413317
 30
0.0
  0
VERTEX
  5
3F1
330
3EF
100
AcDbEntity
  8
0
 62
     7
370
     9
100
AcDbVertex
100
AcDb2dVertex
 10
175.208370205985
 20
167.4019509413317
 30
0.0
  0
SEQEND
  5
3F2
330
3EF
100
AcDbEntity
  8
0
370
     9
  0
ENDBLK
  5
3EE
330
3EB
100
AcDbEntity
  8
0
100
AcDbBlockEnd
  0
BLOCK
  5
3F5
330
3F3
100
AcDbEntity
  8
0
100
AcDbBlockBegin
  2
block 121
 70
     0
 10
0.0
 20
0.0
 30
0.0
  3
block 121
  1

  0
POLYLINE
  5
3F7
330
3F3
100
AcDbEntity
  8
0
 62
     7
370
     9
100
AcDb2dPolyline
 66
     1
 10
0.0
 20
0.0
 30
0.0
  0
VERTEX
  5
3F8
330
3F7
100
AcDbEntity
  8
0
 62
     7
370
     9
100
AcDbVertex
100
AcDb2dVertex
 10
175.1498035440995
 20
167.4019509413317
 30
0.0
  0
VERTEX
  5
3F9
330
3F7
100
AcDbEntity
  8
0
 62
     7
370
     9
100
AcDbVertex
100
AcDb2dVertex
 10
175.1928672660742
 20
167.4019509413317
 30
0.0
  0
SEQEND
  5
3FA
330
3F7
100
AcDbEntity
  8
0
370
     9
  0
ENDBLK
  5
3F6
330
3F3
100
AcDbEntity
  8
0
100
AcDbBlockEnd
  0
BLOCK
  5
3FD
330
3FB
100
AcDbEntity
  8
0
100
AcDbBlockBegin
  2
block 122
 70
     0
 10
0.0
 20
0.0
 30
0.0
  3
block 122
  1

  0
POLYLINE
  5
3FF
330
3FB
100
AcDbEntity
  8
0
 62
     7
370
     9
100
AcDb2dPolyline
 66
     1
 10
0.0
 20
0.0
 30
0.0
  0
VERTEX
  5
400
330
3FF
100
AcDbEntity
  8
0
 62
     7
370
     9
100
AcDbVertex
100
AcDb2dVertex
 10
175.1498035440995
 20
167.4019509413317
 30
0.0
  0
VERTEX
  5
401
330
3FF
100
AcDbEntity
  8
0
 62
     7
370
     9
100
AcDbVertex
100
AcDb2dVertex
 10
175.1498035440995
 20
128.5889628354716
 30
0.0
  0
SEQEND
  5
402
330
3FF
100
AcDbEntity
  8
0
370
     9
  0
ENDBLK
  5
3FE
330
3FB
100
AcDbEntity
  8
0
100
AcDbBlockEnd
  0
BLOCK
  5
405
330
403
100
AcDbEntity
  8
0
100
AcDbBlockBegin
  2
block 123
 70
     0
 10
0.0
 20
0.0
 30
0.0
  3
block 123
  1

  0
POLYLINE
  5
407
330
403
100
AcDbEntity
  8
0
 62
     7
370
     9
100
AcDb2dPolyline
 66
     1
 10
0.0
 20
0.0
 30
0.0
  0
VERTEX
  5
408
330
407
100
AcDbEntity
  8
0
 62
     7
370
     9
100
AcDbVertex
100
AcDb2dVertex
 10
175.0881362942321
 20
167.4019509413317
 30
0.0
  0
VERTEX
  5
409
330
407
100
AcDbEntity
  8
0
 62
     7
370
     9
100
AcDbVertex
100
AcDb2dVertex
 10
175.1498035440995
 20
167.4019509413317
 30
0.0
  0
SEQEND
  5
40A
330
407
100
AcDbEntity
  8
0
370
     9
  0
ENDBLK
  5
406
330
403
100
AcDbEntity
  8
0
100
AcDbBlockEnd
  0
BLOCK
  5
40D
330
40B
100
AcDbEntity
  8
0
100
AcDbBlockBegin
  2
block 124
 70
     0
 10
0.0
 20
0.0
 30
0.0
  3
block 124
  1

  0
POLYLINE
  5
40F
330
40B
100
AcDbEntity
  8
0
 62
     7
370
     9
100
AcDb2dPolyline
 66
     1
 10
0.0
 20
0.0
 30
0.0
  0
VERTEX
  5
410
330
40F
100
AcDbEntity
  8
0
 62
     7
370
     9
100
AcDbVertex
100
AcDb2dVertex
 10
174.4532047774398
 20
167.4019509413317
 30
0.0
  0
VERTEX
  5
411
330
40F
100
AcDbEntity
  8
0
 62
     7
370
     9
100
AcDbVertex
100
AcDb2dVertex
 10
175.0881362942321
 20
167.4019509413317
 30
0.0
  0
SEQEND
  5
412
330
40F
100
AcDbEntity
  8
0
370
     9
  0
ENDBLK
  5
40E
330
40B
100
AcDbEntity
  8
0
100
AcDbBlockEnd
  0
BLOCK
  5
415
330
413
100
AcDbEntity
  8
0
100
AcDbBlockBegin
  2
block 125
 70
     0
 10
0.0
 20
0.0
 30
0.0
  3
block 125
  1

  0
POLYLINE
  5
417
330
413
100
AcDbEntity
  8
0
 62
     7
370
     9
100
AcDb2dPolyline
 66
     1
 10
0.0
 20
0.0
 30
0.0
  0
VERTEX
  5
418
330
417
100
AcDbEntity
  8
0
 62
     7
370
     9
100
AcDbVertex
100
AcDb2dVertex
 10
174.3849918418321
 20
167.4019509413317
 30
0.0
  0
VERTEX
  5
419
330
417
100
AcDbEntity
  8
0
 62
     7
370
     9
100
AcDbVertex
100
AcDb2dVertex
 10
174.4532047774398
 20
167.4019509413317
 30
0.0
  0
SEQEND
  5
41A
330
417
100
AcDbEntity
  8
0
370
     9
  0
ENDBLK
  5
416
330
413
100
AcDbEntity
  8
0
100
AcDbBlockEnd
  0
BLOCK
  5
41D
330
41B
100
AcDbEntity
  8
0
100
AcDbBlockBegin
  2
block 126
 70
     0
 10
0.0
 20
0.0
 30
0.0
  3
block 126
  1

  0
POLYLINE
  5
41F
330
41B
100
AcDbEntity
  8
0
 62
     7
370
     9
100
AcDb2dPolyline
 66
     1
 10
0.0
 20
0.0
 30
0.0
  0
VERTEX
  5
420
330
41F
100
AcDbEntity
  8
0
 62
     7
370
     9
100
AcDbVertex
100
AcDb2dVertex
 10
174.3849918418321
 20
167.4019509413317
 30
0.0
  0
VERTEX
  5
421
330
41F
100
AcDbEntity
  8
0
 62
     7
370
     9
100
AcDbVertex
100
AcDb2dVertex
 10
174.3849918418321
 20
128.5889628354716
 30
0.0
  0
SEQEND
  5
422
330
41F
100
AcDbEntity
  8
0
370
     9
  0
ENDBLK
  5
41E
330
41B
100
AcDbEntity
  8
0
100
AcDbBlockEnd
  0
BLOCK
  5
425
330
423
100
AcDbEntity
  8
0
100
AcDbBlockBegin
  2
block 127
 70
     0
 10
0.0
 20
0.0
 30
0.0
  3
block 127
  1

  0
POLYLINE
  5
427
330
423
100
AcDbEntity
  8
0
 62
     7
370
     9
100
AcDb2dPolyline
 66
     1
 10
0.0
 20
0.0
 30
0.0
  0
VERTEX
  5
428
330
427
100
AcDbEntity
  8
0
 62
     7
370
     9
100
AcDbVertex
100
AcDb2dVertex
 10
174.3264251799468
 20
167.4019509413317
 30
0.0
  0
VERTEX
  5
429
330
427
100
AcDbEntity
  8
0
 62
     7
370
     9
100
AcDbVertex
100
AcDb2dVertex
 10
174.3849918418321
 20
167.4019509413317
 30
0.0
  0
SEQEND
  5
42A
330
427
100
AcDbEntity
  8
0
370
     9
  0
ENDBLK
  5
426
330
423
100
AcDbEntity
  8
0
100
AcDbBlockEnd
  0
BLOCK
  5
42D
330
42B
100
AcDbEntity
  8
0
100
AcDbBlockBegin
  2
block 128
 70
     0
 10
0.0
 20
0.0
 30
0.0
  3
block 128
  1

  0
POLYLINE
  5
42F
330
42B
100
AcDbEntity
  8
0
 62
     7
370
     9
100
AcDb2dPolyline
 66
     1
 10
0.0
 20
0.0
 30
0.0
  0
VERTEX
  5
430
330
42F
100
AcDbEntity
  8
0
 62
     7
370
     9
100
AcDbVertex
100
AcDb2dVertex
 10
174.3264251799468
 20
167.4019509413317
 30
0.0
  0
VERTEX
  5
431
330
42F
100
AcDbEntity
  8
0
 62
     7
370
     9
100
AcDbVertex
100
AcDb2dVertex
 10
174.3264251799468
 20
128.5889628354716
 30
0.0
  0
SEQEND
  5
432
330
42F
100
AcDbEntity
  8
0
370
     9
  0
ENDBLK
  5
42E
330
42B
100
AcDbEntity
  8
0
100
AcDbBlockEnd
  0
BLOCK
  5
435
330
433
100
AcDbEntity
  8
0
100
AcDbBlockBegin
  2
block 129
 70
     0
 10
0.0
 20
0.0
 30
0.0
  3
block 129
  1

  0
POLYLINE
  5
437
330
433
100
AcDbEntity
  8
0
 62
     7
370
     9
100
AcDb2dPolyline
 66
     1
 10
0.0
 20
0.0
 30
0.0
  0
VERTEX
  5
438
330
437
100
AcDbEntity
  8
0
 62
     7
370
     9
100
AcDbVertex
100
AcDb2dVertex
 10
174.2900793986003
 20
167.4019509413317
 30
0.0
  0
VERTEX
  5
439
330
437
100
AcDbEntity
  8
0
 62
     7
370
     9
100
AcDbVertex
100
AcDb2dVertex
 10
174.3264251799468
 20
167.4019509413317
 30
0.0
  0
SEQEND
  5
43A
330
437
100
AcDbEntity
  8
0
370
     9
  0
ENDBLK
  5
436
330
433
100
AcDbEntity
  8
0
100
AcDbBlockEnd
  0
BLOCK
  5
43D
330
43B
100
AcDbEntity
  8
0
100
AcDbBlockBegin
  2
block 130
 70
     0
 10
0.0
 20
0.0
 30
0.0
  3
block 130
  1

  0
POLYLINE
  5
43F
330
43B
100
AcDbEntity
  8
0
 62
     7
370
     9
100
AcDb2dPolyline
 66
     1
 10
0.0
 20
0.0
 30
0.0
  0
VERTEX
  5
440
330
43F
100
AcDbEntity
  8
0
 62
     7
370
     9
100
AcDbVertex
100
AcDb2dVertex
 10
174.0422046149149
 20
167.4019509413317
 30
0.0
  0
VERTEX
  5
441
330
43F
100
AcDbEntity
  8
0
 62
     7
370
     9
100
AcDbVertex
100
AcDb2dVertex
 10
174.2900793986003
 20
167.4019509413317
 30
0.0
  0
SEQEND
  5
442
330
43F
100
AcDbEntity
  8
0
370
     9
  0
ENDBLK
  5
43E
330
43B
100
AcDbEntity
  8
0
100
AcDbBlockEnd
  0
BLOCK
  5
445
330
443
100
AcDbEntity
  8
0
100
AcDbBlockBegin
  2
block 131
 70
     0
 10
0.0
 20
0.0
 30
0.0
  3
block 131
  1

  0
POLYLINE
  5
447
330
443
100
AcDbEntity
  8
0
 62
     7
370
     9
100
AcDb2dPolyline
 66
     1
 10
0.0
 20
0.0
 30
0.0
  0
VERTEX
  5
448
330
447
100
AcDbEntity
  8
0
 62
     7
370
     9
100
AcDbVertex
100
AcDb2dVertex
 10
173.8923428624435
 20
167.4019509413317
 30
0.0
  0
VERTEX
  5
449
330
447
100
AcDbEntity
  8
0
 62
     7
370
     9
100
AcDbVertex
100
AcDb2dVertex
 10
174.0422046149149
 20
167.4019509413317
 30
0.0
  0
SEQEND
  5
44A
330
447
100
AcDbEntity
  8
0
370
     9
  0
ENDBLK
  5
446
330
443
100
AcDbEntity
  8
0
100
AcDbBlockEnd
  0
BLOCK
  5
44D
330
44B
100
AcDbEntity
  8
0
100
AcDbBlockBegin
  2
block 132
 70
     0
 10
0.0
 20
0.0
 30
0.0
  3
block 132
  1

  0
POLYLINE
  5
44F
330
44B
100
AcDbEntity
  8
0
 62
     7
370
     9
100
AcDb2dPolyline
 66
     1
 10
0.0
 20
0.0
 30
0.0
  0
VERTEX
  5
450
330
44F
100
AcDbEntity
  8
0
 62
     7
370
     9
100
AcDbVertex
100
AcDb2dVertex
 10
173.8422166900653
 20
167.4019509413317
 30
0.0
  0
VERTEX
  5
451
330
44F
100
AcDbEntity
  8
0
 62
     7
370
     9
100
AcDbVertex
100
AcDb2dVertex
 10
173.8923428624435
 20
167.4019509413317
 30
0.0
  0
SEQEND
  5
452
330
44F
100
AcDbEntity
  8
0
370
     9
  0
ENDBLK
  5
44E
330
44B
100
AcDbEntity
  8
0
100
AcDbBlockEnd
  0
BLOCK
  5
455
330
453
100
AcDbEntity
  8
0
100
AcDbBlockBegin
  2
block 133
 70
     0
 10
0.0
 20
0.0
 30
0.0
  3
block 133
  1

  0
POLYLINE
  5
457
330
453
100
AcDbEntity
  8
0
 62
     7
370
     9
100
AcDb2dPolyline
 66
     1
 10
0.0
 20
0.0
 30
0.0
  0
VERTEX
  5
458
330
457
100
AcDbEntity
  8
0
 62
     7
370
     9
100
AcDbVertex
100
AcDb2dVertex
 10
175.2094037353124
 20
167.4019509413317
 30
0.0
  0
VERTEX
  5
459
330
457
100
AcDbEntity
  8
0
 62
     7
370
     9
100
AcDbVertex
100
AcDb2dVertex
 10
173.8422166900653
 20
167.4019509413317
 30
0.0
  0
SEQEND
  5
45A
330
457
100
AcDbEntity
  8
0
370
     9
  0
ENDBLK
  5
456
330
453
100
AcDbEntity
  8
0
100
AcDbBlockEnd
  0
BLOCK
  5
45D
330
45B
100
AcDbEntity
  8
0
100
AcDbBlockBegin
  2
block 134
 70
     0
 10
0.0
 20
0.0
 30
0.0
  3
block 134
  1

  0
POLYLINE
  5
45F
330
45B
100
AcDbEntity
  8
0
 62
     7
370
     9
100
AcDb2dPolyline
 66
     1
 10
0.0
 20
0.0
 30
0.0
  0
VERTEX
  5
460
330
45F
100
AcDbEntity
  8
0
 62
     7
370
     9
100
AcDbVertex
100
AcDb2dVertex
 10
175.2094037353124
 20
167.4019509413317
 30
0.0
  0
VERTEX
  5
461
330
45F
100
AcDbEntity
  8
0
 62
     7
370
     9
100
AcDbVertex
100
AcDb2dVertex
 10
175.2094037353124
 20
167.3773184923623
 30
0.0
  0
SEQEND
  5
462
330
45F
100
AcDbEntity
  8
0
370
     9
  0
ENDBLK
  5
45E
330
45B
100
AcDbEntity
  8
0
100
AcDbBlockEnd
  0
BLOCK
  5
465
330
463
100
AcDbEntity
  8
0
100
AcDbBlockBegin
  2
block 135
 70
     0
 10
0.0
 20
0.0
 30
0.0
  3
block 135
  1

  0
POLYLINE
  5
467
330
463
100
AcDbEntity
  8
0
 62
     7
370
     9
100
AcDb2dPolyline
 66
     1
 10
0.0
 20
0.0
 30
0.0
  0
VERTEX
  5
468
330
467
100
AcDbEntity
  8
0
 62
     7
370
     9
100
AcDbVertex
100
AcDb2dVertex
 10
175.2094037353124
 20
167.3773184923623
 30
0.0
  0
VERTEX
  5
469
330
467
100
AcDbEntity
  8
0
 62
     7
370
     9
100
AcDbVertex
100
AcDb2dVertex
 10
175.2094037353124
 20
128.5889628354716
 30
0.0
  0
SEQEND
  5
46A
330
467
100
AcDbEntity
  8
0
370
     9
  0
ENDBLK
  5
466
330
463
100
AcDbEntity
  8
0
100
AcDbBlockEnd
  0
BLOCK
  5
46D
330
46B
100
AcDbEntity
  8
0
100
AcDbBlockBegin
  2
block 136
 70
     0
 10
0.0
 20
0.0
 30
0.0
  3
block 136
  1

  0
POLYLINE
  5
46F
330
46B
100
AcDbEntity
  8
0
 62
     7
370
     9
100
AcDb2dPolyline
 66
     1
 10
0.0
 20
0.0
 30
0.0
  0
VERTEX
  5
470
330
46F
100
AcDbEntity
  8
0
 62
     7
370
     9
100
AcDbVertex
100
AcDb2dVertex
 10
175.208370205985
 20
167.4019509413317
 30
0.0
  0
VERTEX
  5
471
330
46F
100
AcDbEntity
  8
0
 62
     7
370
     9
100
AcDbVertex
100
AcDb2dVertex
 10
175.2094037353124
 20
167.4019509413317
 30
0.0
  0
SEQEND
  5
472
330
46F
100
AcDbEntity
  8
0
370
     9
  0
ENDBLK
  5
46E
330
46B
100
AcDbEntity
  8
0
100
AcDbBlockEnd
  0
BLOCK
  5
475
330
473
100
AcDbEntity
  8
0
100
AcDbBlockBegin
  2
block 137
 70
     0
 10
0.0
 20
0.0
 30
0.0
  3
block 137
  1

  0
POLYLINE
  5
477
330
473
100
AcDbEntity
  8
0
 62
     7
370
     9
100
AcDb2dPolyline
 66
     1
 10
0.0
 20
0.0
 30
0.0
  0
VERTEX
  5
478
330
477
100
AcDbEntity
  8
0
 62
     7
370
     9
100
AcDbVertex
100
AcDb2dVertex
 10
175.2094037353124
 20
167.3773184923623
 30
0.0
  0
VERTEX
  5
479
330
477
100
AcDbEntity
  8
0
 62
     7
370
     9
100
AcDbVertex
100
AcDb2dVertex
 10
175.2097482450882
 20
167.3773184923623
 30
0.0
  0
SEQEND
  5
47A
330
477
100
AcDbEntity
  8
0
370
     9
  0
ENDBLK
  5
476
330
473
100
AcDbEntity
  8
0
100
AcDbBlockEnd
  0
BLOCK
  5
47D
330
47B
100
AcDbEntity
  8
0
100
AcDbBlockBegin
  2
block 138
 70
     0
 10
0.0
 20
0.0
 30
0.0
  3
block 138
  1

  0
POLYLINE
  5
47F
330
47B
100
AcDbEntity
  8
0
 62
     7
370
     9
100
AcDb2dPolyline
 66
     1
 10
0.0
 20
0.0
 30
0.0
  0
VERTEX
  5
480
330
47F
100
AcDbEntity
  8
0
 62
     7
370
     9
100
AcDbVertex
100
AcDb2dVertex
 10
173.8422166900653
 20
167.4019509413317
 30
0.0
  0
VERTEX
  5
481
330
47F
100
AcDbEntity
  8
0
 62
     7
370
     9
100
AcDbVertex
100
AcDb2dVertex
 10
245.9100444339779
 20
167.4019509413317
 30
0.0
  0
SEQEND
  5
482
330
47F
100
AcDbEntity
  8
0
370
     9
  0
ENDBLK
  5
47E
330
47B
100
AcDbEntity
  8
0
100
AcDbBlockEnd
  0
BLOCK
  5
485
330
483
100
AcDbEntity
  8
0
100
AcDbBlockBegin
  2
block 139
 70
     0
 10
0.0
 20
0.0
 30
0.0
  3
block 139
  1

  0
POLYLINE
  5
487
330
483
100
AcDbEntity
  8
0
 62
     7
370
     9
100
AcDb2dPolyline
 66
     1
 10
0.0
 20
0.0
 30
0.0
  0
VERTEX
  5
488
330
487
100
AcDbEntity
  8
0
 62
     7
370
     9
100
AcDbVertex
100
AcDb2dVertex
 10
245.9100444339779
 20
167.4019509413317
 30
0.0
  0
VERTEX
  5
489
330
487
100
AcDbEntity
  8
0
 62
     7
370
     9
100
AcDbVertex
100
AcDb2dVertex
 10
245.9138340415117
 20
167.4019509413317
 30
0.0
  0
SEQEND
  5
48A
330
487
100
AcDbEntity
  8
0
370
     9
  0
ENDBLK
  5
486
330
483
100
AcDbEntity
  8
0
100
AcDbBlockEnd
  0
BLOCK
  5
48D
330
48B
100
AcDbEntity
  8
0
100
AcDbBlockBegin
  2
block 140
 70
     0
 10
0.0
 20
0.0
 30
0.0
  3
block 140
  1

  0
POLYLINE
  5
48F
330
48B
100
AcDbEntity
  8
0
 62
     7
370
     9
100
AcDb2dPolyline
 66
     1
 10
0.0
 20
0.0
 30
0.0
  0
VERTEX
  5
490
330
48F
100
AcDbEntity
  8
0
 62
     7
370
     9
100
AcDbVertex
100
AcDb2dVertex
 10
244.5454412120493
 20
167.3773184923623
 30
0.0
  0
VERTEX
  5
491
330
48F
100
AcDbEntity
  8
0
 62
     7
370
     9
100
AcDbVertex
100
AcDb2dVertex
 10
244.515468861555
 20
167.3754236885954
 30
0.0
  0
SEQEND
  5
492
330
48F
100
AcDbEntity
  8
0
370
     9
  0
ENDBLK
  5
48E
330
48B
100
AcDbEntity
  8
0
100
AcDbBlockEnd
  0
BLOCK
  5
495
330
493
100
AcDbEntity
  8
0
100
AcDbBlockBegin
  2
block 141
 70
     0
 10
0.0
 20
0.0
 30
0.0
  3
block 141
  1

  0
POLYLINE
  5
497
330
493
100
AcDbEntity
  8
0
 62
     7
370
     9
100
AcDb2dPolyline
 66
     1
 10
0.0
 20
0.0
 30
0.0
  0
VERTEX
  5
498
330
497
100
AcDbEntity
  8
0
 62
     7
370
     9
100
AcDbVertex
100
AcDb2dVertex
 10
244.515468861555
 20
165.7774150935649
 30
0.0
  0
VERTEX
  5
499
330
497
100
AcDbEntity
  8
0
 62
     7
370
     9
100
AcDbVertex
100
AcDb2dVertex
 10
244.5454412120493
 20
165.7791376424438
 30
0.0
  0
SEQEND
  5
49A
330
497
100
AcDbEntity
  8
0
370
     9
  0
ENDBLK
  5
496
330
493
100
AcDbEntity
  8
0
100
AcDbBlockEnd
  0
BLOCK
  5
49D
330
49B
100
AcDbEntity
  8
0
100
AcDbBlockBegin
  2
block 142
 70
     0
 10
0.0
 20
0.0
 30
0.0
  3
block 142
  1

  0
POLYLINE
  5
49F
330
49B
100
AcDbEntity
  8
0
 62
     7
370
     9
100
AcDb2dPolyline
 66
     1
 10
0.0
 20
0.0
 30
0.0
  0
VERTEX
  5
4A0
330
49F
100
AcDbEntity
  8
0
 62
     7
370
     9
100
AcDbVertex
100
AcDb2dVertex
 10
175.2405818700219
 20
167.3754236885954
 30
0.0
  0
VERTEX
  5
4A1
330
49F
100
AcDbEntity
  8
0
 62
     7
370
     9
100
AcDbVertex
100
AcDb2dVertex
 10
175.2097482450882
 20
167.3773184923623
 30
0.0
  0
SEQEND
  5
4A2
330
49F
100
AcDbEntity
  8
0
370
     9
  0
ENDBLK
  5
49E
330
49B
100
AcDbEntity
  8
0
100
AcDbBlockEnd
  0
BLOCK
  5
4A5
330
4A3
100
AcDbEntity
  8
0
100
AcDbBlockBegin
  2
block 143
 70
     0
 10
0.0
 20
0.0
 30
0.0
  3
block 143
  1

  0
POLYLINE
  5
4A7
330
4A3
100
AcDbEntity
  8
0
 62
     7
370
     9
100
AcDb2dPolyline
 66
     1
 10
0.0
 20
0.0
 30
0.0
  0
VERTEX
  5
4A8
330
4A7
100
AcDbEntity
  8
0
 62
     7
370
     9
100
AcDbVertex
100
AcDb2dVertex
 10
175.2097482450882
 20
165.7791376424438
 30
0.0
  0
VERTEX
  5
4A9
330
4A7
100
AcDbEntity
  8
0
 62
     7
370
     9
100
AcDbVertex
100
AcDb2dVertex
 10
175.2405818700219
 20
165.7774150935649
 30
0.0
  0
SEQEND
  5
4AA
330
4A7
100
AcDbEntity
  8
0
370
     9
  0
ENDBLK
  5
4A6
330
4A3
100
AcDbEntity
  8
0
100
AcDbBlockEnd
  0
BLOCK
  5
4AD
330
4AB
100
AcDbEntity
  8
0
100
AcDbBlockBegin
  2
block 144
 70
     0
 10
0.0
 20
0.0
 30
0.0
  3
block 144
  1

  0
POLYLINE
  5
4AF
330
4AB
100
AcDbEntity
  8
0
 62
     7
370
     9
100
AcDb2dPolyline
 66
     1
 10
0.0
 20
0.0
 30
0.0
  0
VERTEX
  5
4B0
330
4AF
100
AcDbEntity
  8
0
 62
     7
370
     9
100
AcDbVertex
100
AcDb2dVertex
 10
245.9138340415117
 20
128.5889628354716
 30
0.0
  0
VERTEX
  5
4B1
330
4AF
100
AcDbEntity
  8
0
 62
     7
370
     9
100
AcDbVertex
100
AcDb2dVertex
 10
245.9138340415117
 20
167.4019509413317
 30
0.0
  0
SEQEND
  5
4B2
330
4AF
100
AcDbEntity
  8
0
370
     9
  0
ENDBLK
  5
4AE
330
4AB
100
AcDbEntity
  8
0
100
AcDbBlockEnd
  0
BLOCK
  5
4B5
330
4B3
100
AcDbEntity
  8
0
100
AcDbBlockBegin
  2
block 145
 70
     0
 10
0.0
 20
0.0
 30
0.0
  3
block 145
  1

  0
POLYLINE
  5
4B7
330
4B3
100
AcDbEntity
  8
0
 62
     7
370
     9
100
AcDb2dPolyline
 66
     1
 10
0.0
 20
0.0
 30
0.0
  0
VERTEX
  5
4B8
330
4B7
100
AcDbEntity
  8
0
 62
     7
370
     9
100
AcDbVertex
100
AcDb2dVertex
 10
175.2097482450882
 20
167.3773184923623
 30
0.0
  0
VERTEX
  5
4B9
330
4B7
100
AcDbEntity
  8
0
 62
     7
370
     9
100
AcDbVertex
100
AcDb2dVertex
 10
175.2094037353124
 20
167.3773184923623
 30
0.0
  0
SEQEND
  5
4BA
330
4B7
100
AcDbEntity
  8
0
370
     9
  0
ENDBLK
  5
4B6
330
4B3
100
AcDbEntity
  8
0
100
AcDbBlockEnd
  0
BLOCK
  5
4BD
330
4BB
100
AcDbEntity
  8
0
100
AcDbBlockBegin
  2
block 146
 70
     0
 10
0.0
 20
0.0
 30
0.0
  3
block 146
  1

  0
POLYLINE
  5
4BF
330
4BB
100
AcDbEntity
  8
0
 62
     7
370
     9
100
AcDb2dPolyline
 66
     1
 10
0.0
 20
0.0
 30
0.0
  0
VERTEX
  5
4C0
330
4BF
100
AcDbEntity
  8
0
 62
     7
370
     9
100
AcDbVertex
100
AcDb2dVertex
 10
175.2097482450882
 20
165.7791376424438
 30
0.0
  0
VERTEX
  5
4C1
330
4BF
100
AcDbEntity
  8
0
 62
     7
370
     9
100
AcDbVertex
100
AcDb2dVertex
 10
175.2097482450882
 20
167.3773184923623
 30
0.0
  0
SEQEND
  5
4C2
330
4BF
100
AcDbEntity
  8
0
370
     9
  0
ENDBLK
  5
4BE
330
4BB
100
AcDbEntity
  8
0
100
AcDbBlockEnd
  0
BLOCK
  5
4C5
330
4C3
100
AcDbEntity
  8
0
100
AcDbBlockBegin
  2
block 147
 70
     0
 10
0.0
 20
0.0
 30
0.0
  3
block 147
  1

  0
POLYLINE
  5
4C7
330
4C3
100
AcDbEntity
  8
0
 62
     7
370
     9
100
AcDb2dPolyline
 66
     1
 10
0.0
 20
0.0
 30
0.0
  0
VERTEX
  5
4C8
330
4C7
100
AcDbEntity
  8
0
 62
     7
370
     9
100
AcDbVertex
100
AcDb2dVertex
 10
244.515468861555
 20
165.7774150935649
 30
0.0
  0
VERTEX
  5
4C9
330
4C7
100
AcDbEntity
  8
0
 62
     7
370
     9
100
AcDbVertex
100
AcDb2dVertex
 10
244.515468861555
 20
167.3754236885954
 30
0.0
  0
SEQEND
  5
4CA
330
4C7
100
AcDbEntity
  8
0
370
     9
  0
ENDBLK
  5
4C6
330
4C3
100
AcDbEntity
  8
0
100
AcDbBlockEnd
  0
BLOCK
  5
4CD
330
4CB
100
AcDbEntity
  8
0
100
AcDbBlockBegin
  2
block 148
 70
     0
 10
0.0
 20
0.0
 30
0.0
  3
block 148
  1

  0
POLYLINE
  5
4CF
330
4CB
100
AcDbEntity
  8
0
 62
     7
370
     9
100
AcDb2dPolyline
 66
     1
 10
0.0
 20
0.0
 30
0.0
  0
VERTEX
  5
4D0
330
4CF
100
AcDbEntity
  8
0
 62
     7
370
     9
100
AcDbVertex
100
AcDb2dVertex
 10
175.2405818700219
 20
165.7774150935649
 30
0.0
  0
VERTEX
  5
4D1
330
4CF
100
AcDbEntity
  8
0
 62
     7
370
     9
100
AcDbVertex
100
AcDb2dVertex
 10
244.515468861555
 20
165.7774150935649
 30
0.0
  0
SEQEND
  5
4D2
330
4CF
100
AcDbEntity
  8
0
370
     9
  0
ENDBLK
  5
4CE
330
4CB
100
AcDbEntity
  8
0
100
AcDbBlockEnd
  0
BLOCK
  5
4D5
330
4D3
100
AcDbEntity
  8
0
100
AcDbBlockBegin
  2
block 149
 70
     0
 10
0.0
 20
0.0
 30
0.0
  3
block 149
  1

  0
POLYLINE
  5
4D7
330
4D3
100
AcDbEntity
  8
0
 62
     7
370
     9
100
AcDb2dPolyline
 66
     1
 10
0.0
 20
0.0
 30
0.0
  0
VERTEX
  5
4D8
330
4D7
100
AcDbEntity
  8
0
 62
     7
370
     9
100
AcDbVertex
100
AcDb2dVertex
 10
175.2405818700219
 20
167.3754236885954
 30
0.0
  0
VERTEX
  5
4D9
330
4D7
100
AcDbEntity
  8
0
 62
     7
370
     9
100
AcDbVertex
100
AcDb2dVertex
 10
175.2405818700219
 20
165.7774150935649
 30
0.0
  0
SEQEND
  5
4DA
330
4D7
100
AcDbEntity
  8
0
370
     9
  0
ENDBLK
  5
4D6
330
4D3
100
AcDbEntity
  8
0
100
AcDbBlockEnd
  0
BLOCK
  5
4DD
330
4DB
100
AcDbEntity
  8
0
100
AcDbBlockBegin
  2
block 150
 70
     0
 10
0.0
 20
0.0
 30
0.0
  3
block 150
  1

  0
POLYLINE
  5
4DF
330
4DB
100
AcDbEntity
  8
0
 62
     7
370
     9
100
AcDb2dPolyline
 66
     1
 10
0.0
 20
0.0
 30
0.0
  0
VERTEX
  5
4E0
330
4DF
100
AcDbEntity
  8
0
 62
     7
370
     9
100
AcDbVertex
100
AcDb2dVertex
 10
244.515468861555
 20
167.3754236885954
 30
0.0
  0
VERTEX
  5
4E1
330
4DF
100
AcDbEntity
  8
0
 62
     7
370
     9
100
AcDbVertex
100
AcDb2dVertex
 10
175.2405818700219
 20
167.3754236885954
 30
0.0
  0
SEQEND
  5
4E2
330
4DF
100
AcDbEntity
  8
0
370
     9
  0
ENDBLK
  5
4DE
330
4DB
100
AcDbEntity
  8
0
100
AcDbBlockEnd
  0
BLOCK
  5
4E5
330
4E3
100
AcDbEntity
  8
0
100
AcDbBlockBegin
  2
block 151
 70
     0
 10
0.0
 20
0.0
 30
0.0
  3
block 151
  1

  0
POLYLINE
  5
4E7
330
4E3
100
AcDbEntity
  8
0
 62
     7
370
     9
100
AcDb2dPolyline
 66
     1
 10
0.0
 20
0.0
 30
0.0
  0
VERTEX
  5
4E8
330
4E7
100
AcDbEntity
  8
0
 62
     7
370
     9
100
AcDbVertex
100
AcDb2dVertex
 10
244.5454412120493
 20
167.3773184923623
 30
0.0
  0
VERTEX
  5
4E9
330
4E7
100
AcDbEntity
  8
0
 62
     7
370
     9
100
AcDbVertex
100
AcDb2dVertex
 10
244.5454412120493
 20
167.3773184923623
 30
0.0
  0
SEQEND
  5
4EA
330
4E7
100
AcDbEntity
  8
0
370
     9
  0
ENDBLK
  5
4E6
330
4E3
100
AcDbEntity
  8
0
100
AcDbBlockEnd
  0
BLOCK
  5
4ED
330
4EB
100
AcDbEntity
  8
0
100
AcDbBlockBegin
  2
block 152
 70
     0
 10
0.0
 20
0.0
 30
0.0
  3
block 152
  1

  0
POLYLINE
  5
4EF
330
4EB
100
AcDbEntity
  8
0
 62
     7
370
     9
100
AcDb2dPolyline
 66
     1
 10
0.0
 20
0.0
 30
0.0
  0
VERTEX
  5
4F0
330
4EF
100
AcDbEntity
  8
0
 62
     7
370
     9
100
AcDbVertex
100
AcDb2dVertex
 10
244.5454412120493
 20
165.7791376424438
 30
0.0
  0
VERTEX
  5
4F1
330
4EF
100
AcDbEntity
  8
0
 62
     7
370
     9
100
AcDbVertex
100
AcDb2dVertex
 10
244.5454412120493
 20
167.3773184923623
 30
0.0
  0
SEQEND
  5
4F2
330
4EF
100
AcDbEntity
  8
0
370
     9
  0
ENDBLK
  5
4EE
330
4EB
100
AcDbEntity
  8
0
100
AcDbBlockEnd
  0
BLOCK
  5
546
330
545
100
AcDbEntity
  8
0
100
AcDbBlockBegin
  2
_Oblique
 70
     0
 10
0.0
 20
0.0
 30
0.0
  3
_Oblique
  1

  0
LINE
  5
547
330
545
100
AcDbEntity
  8
0
  6
ByBlock
 62
     0
370
    -2
380
     1
100
AcDbLine
 10
-0.5
 20
-0.5
 30
0.0
 11
0.5
 21
0.5
 31
0.0
  0
ENDBLK
  5
548
330
545
100
AcDbEntity
  8
0
100
AcDbBlockEnd
  0
BLOCK
  5
553
330
552
100
AcDbEntity
  8
0
100
AcDbBlockBegin
  2
*D155
 70
     1
 10
0.0
 20
0.0
 30
0.0
  3
*D155
  1

  0
LINE
  5
574
330
552
100
AcDbEntity
  8
Cotation-JacobDelafon
 62
     0
370
    -2
100
AcDbLine
 10
39.65242059457478
 20
81.24637020059367
 30
0.0
 11
39.65242059457478
 21
103.8053325702733
 31
0.0
  0
LINE
  5
575
330
552
100
AcDbEntity
  8
Cotation-JacobDelafon
 62
     0
370
    -2
100
AcDbLine
 10
116.558026865105
 20
81.24637020059367
 30
0.0
 11
116.558026865105
 21
103.8053325702733
 31
0.0
  0
LINE
  5
576
330
552
100
AcDbEntity
  8
Cotation-JacobDelafon
 62
     0
370
    -2
100
AcDbLine
 10
39.65242059457478
 20
102.0053325702733
 30
0.0
 11
116.558026865105
 21
102.0053325702733
 31
0.0
  0
INSERT
  5
577
330
552
100
AcDbEntity
  8
Cotation-JacobDelafon
 62
     0
370
    -2
100
AcDbBlockReference
  2
_Oblique
 10
39.65242059457478
 20
102.0053325702733
 30
0.0
 41
1.8
 42
1.8
 43
1.8
 50
180.0
  0
INSERT
  5
578
330
552
100
AcDbEntity
  8
Cotation-JacobDelafon
 62
     0
370
    -2
100
AcDbBlockReference
  2
_Oblique
 10
116.558026865105
 20
102.0053325702733
 30
0.0
 41
1.8
 42
1.8
 43
1.8
  0
MTEXT
  5
579
330
552
100
AcDbEntity
  8
Cotation-JacobDelafon
 62
     0
100
AcDbMText
 10
78.10522372983992
 20
104.4053325702734
 30
0.0
 40
3.0
 41
0.0
 46
0.0
 71
     5
 72
     1
  1
\A1;77
  7
Jacob-Delafon
 73
     1
 44
1.0
  0
POINT
  5
57A
330
552
100
AcDbEntity
  8
Defpoints
 62
     0
100
AcDbPoint
 10
39.65242059457478
 20
80.62137020059367
 30
0.0
  0
POINT
  5
57B
330
552
100
AcDbEntity
  8
Defpoints
 62
     0
100
AcDbPoint
 10
116.558026865105
 20
80.62137020059367
 30
0.0
  0
POINT
  5
57C
330
552
100
AcDbEntity
  8
Defpoints
 62
     0
100
AcDbPoint
 10
116.558026865105
 20
102.0053325702733
 30
0.0
  0
ENDBLK
  5
554
330
552
100
AcDbEntity
  8
0
100
AcDbBlockEnd
  0
BLOCK
  5
560
330
55F
100
AcDbEntity
  8
0
100
AcDbBlockBegin
  2
*D156
 70
     1
 10
0.0
 20
0.0
 30
0.0
  3
*D156
  1

  0
LINE
  5
56B
330
55F
100
AcDbEntity
  8
Cotation-JacobDelafon
 62
     0
370
    -2
100
AcDbLine
 10
39.02742059457478
 20
80.62137020059367
 30
0.0
 11
18.39093980761682
 21
80.62137020059369
 31
0.0
  0
LINE
  5
56C
330
55F
100
AcDbEntity
  8
Cotation-JacobDelafon
 62
     0
370
    -2
100
AcDbLine
 10
39.21138881484987
 20
32.19655935002045
 30
0.0
 11
18.39093980761681
 21
32.19655935002045
 31
0.0
  0
LINE
  5
56D
330
55F
100
AcDbEntity
  8
Cotation-JacobDelafon
 62
     0
370
    -2
100
AcDbLine
 10
20.19093980761682
 20
80.62137020059369
 30
0.0
 11
20.19093980761681
 21
32.19655935002045
 31
0.0
  0
INSERT
  5
56E
330
55F
100
AcDbEntity
  8
Cotation-JacobDelafon
 62
     0
370
    -2
100
AcDbBlockReference
  2
_Oblique
 10
20.19093980761682
 20
80.62137020059369
 30
0.0
 41
1.8
 42
1.8
 43
1.8
 50
90.0
  0
INSERT
  5
56F
330
55F
100
AcDbEntity
  8
Cotation-JacobDelafon
 62
     0
370
    -2
100
AcDbBlockReference
  2
_Oblique
 10
20.19093980761681
 20
32.19655935002045
 30
0.0
 41
1.8
 42
1.8
 43
1.8
 50
270.0
  0
MTEXT
  5
570
330
55F
100
AcDbEntity
  8
Cotation-JacobDelafon
 62
     0
100
AcDbMText
 10
17.75922084445173
 20
56.40896477530707
 30
0.0
 40
3.0
 41
0.0
 46
0.0
 71
     5
 72
     1
  1
\A1;48.5
  7
Jacob-Delafon
 11
0.0000000000000001
 21
1.0
 31
0.0
 73
     1
 44
1.0
  0
POINT
  5
571
330
55F
100
AcDbEntity
  8
Defpoints
 62
     0
100
AcDbPoint
 10
39.65242059457478
 20
80.62137020059367
 30
0.0
  0
POINT
  5
572
330
55F
100
AcDbEntity
  8
Defpoints
 62
     0
100
AcDbPoint
 10
39.83638881484987
 20
32.19655935002045
 30
0.0
  0
POINT
  5
573
330
55F
100
AcDbEntity
  8
Defpoints
 62
     0
100
AcDbPoint
 10
20.19093980761681
 20
32.19655935002045
 30
0.0
  0
ENDBLK
  5
561
330
55F
100
AcDbEntity
  8
0
100
AcDbBlockEnd
  0
ENDSEC
  0
SECTION
  2
ENTITIES
  0
INSERT
  5
3C
330
1F
100
AcDbEntity
  8
0
100
AcDbBlockReference
  2
block 2
 10
-131.7976924672498
 20
-92.81260240515313
 30
0.0
  0
INSERT
  5
44
330
1F
100
AcDbEntity
  8
0
100
AcDbBlockReference
  2
block 3
 10
-131.7976924672498
 20
-92.81260240515313
 30
0.0
  0
INSERT
  5
4C
330
1F
100
AcDbEntity
  8
0
100
AcDbBlockReference
  2
block 4
 10
-131.7976924672498
 20
-92.81260240515313
 30
0.0
  0
INSERT
  5
54
330
1F
100
AcDbEntity
  8
0
100
AcDbBlockReference
  2
block 5
 10
-131.7976924672498
 20
-92.81260240515313
 30
0.0
  0
INSERT
  5
5C
330
1F
100
AcDbEntity
  8
0
100
AcDbBlockReference
  2
block 6
 10
-131.7976924672498
 20
-92.81260240515313
 30
0.0
  0
INSERT
  5
64
330
1F
100
AcDbEntity
  8
0
100
AcDbBlockReference
  2
block 7
 10
-131.7976924672498
 20
-92.81260240515313
 30
0.0
  0
INSERT
  5
6C
330
1F
100
AcDbEntity
  8
0
100
AcDbBlockReference
  2
block 8
 10
-131.7976924672498
 20
-92.81260240515313
 30
0.0
  0
INSERT
  5
74
330
1F
100
AcDbEntity
  8
0
100
AcDbBlockReference
  2
block 9
 10
-131.7976924672498
 20
-92.81260240515313
 30
0.0
  0
INSERT
  5
7C
330
1F
100
AcDbEntity
  8
0
100
AcDbBlockReference
  2
block 10
 10
-131.7976924672498
 20
-92.81260240515313
 30
0.0
  0
INSERT
  5
84
330
1F
100
AcDbEntity
  8
0
100
AcDbBlockReference
  2
block 11
 10
-131.7976924672498
 20
-92.81260240515313
 30
0.0
  0
INSERT
  5
8C
330
1F
100
AcDbEntity
  8
0
100
AcDbBlockReference
  2
block 12
 10
-131.7976924672498
 20
-92.81260240515313
 30
0.0
  0
INSERT
  5
94
330
1F
100
AcDbEntity
  8
0
100
AcDbBlockReference
  2
block 13
 10
-131.7976924672498
 20
-92.81260240515313
 30
0.0
  0
INSERT
  5
9C
330
1F
100
AcDbEntity
  8
0
100
AcDbBlockReference
  2
block 14
 10
-131.7976924672498
 20
-92.81260240515313
 30
0.0
  0
INSERT
  5
A4
330
1F
100
AcDbEntity
  8
0
100
AcDbBlockReference
  2
block 15
 10
-131.7976924672498
 20
-92.81260240515313
 30
0.0
  0
INSERT
  5
AC
330
1F
100
AcDbEntity
  8
0
100
AcDbBlockReference
  2
block 16
 10
-131.7976924672498
 20
-92.81260240515313
 30
0.0
  0
INSERT
  5
B4
330
1F
100
AcDbEntity
  8
0
100
AcDbBlockReference
  2
block 17
 10
-131.7976924672498
 20
-92.81260240515313
 30
0.0
  0
INSERT
  5
BC
330
1F
100
AcDbEntity
  8
0
100
AcDbBlockReference
  2
block 18
 10
-131.7976924672498
 20
-92.81260240515313
 30
0.0
  0
INSERT
  5
C4
330
1F
100
AcDbEntity
  8
0
100
AcDbBlockReference
  2
block 19
 10
-131.7976924672498
 20
-92.81260240515313
 30
0.0
  0
INSERT
  5
CC
330
1F
100
AcDbEntity
  8
0
100
AcDbBlockReference
  2
block 20
 10
-131.7976924672498
 20
-92.81260240515313
 30
0.0
  0
INSERT
  5
D4
330
1F
100
AcDbEntity
  8
0
100
AcDbBlockReference
  2
block 21
 10
-131.7976924672498
 20
-92.81260240515313
 30
0.0
  0
INSERT
  5
DC
330
1F
100
AcDbEntity
  8
0
100
AcDbBlockReference
  2
block 22
 10
-131.7976924672498
 20
-92.81260240515313
 30
0.0
  0
INSERT
  5
E4
330
1F
100
AcDbEntity
  8
0
100
AcDbBlockReference
  2
block 23
 10
-131.7976924672498
 20
-92.81260240515313
 30
0.0
  0
INSERT
  5
EC
330
1F
100
AcDbEntity
  8
0
100
AcDbBlockReference
  2
block 24
 10
-131.7976924672498
 20
-92.81260240515313
 30
0.0
  0
INSERT
  5
F4
330
1F
100
AcDbEntity
  8
0
100
AcDbBlockReference
  2
block 25
 10
-131.7976924672498
 20
-92.81260240515313
 30
0.0
  0
INSERT
  5
FC
330
1F
100
AcDbEntity
  8
0
100
AcDbBlockReference
  2
block 26
 10
-131.7976924672498
 20
-92.81260240515313
 30
0.0
  0
INSERT
  5
104
330
1F
100
AcDbEntity
  8
0
100
AcDbBlockReference
  2
block 27
 10
-131.7976924672498
 20
-92.81260240515313
 30
0.0
  0
INSERT
  5
10C
330
1F
100
AcDbEntity
  8
0
100
AcDbBlockReference
  2
block 28
 10
-131.7976924672498
 20
-92.81260240515313
 30
0.0
  0
INSERT
  5
114
330
1F
100
AcDbEntity
  8
0
100
AcDbBlockReference
  2
block 29
 10
-131.7976924672498
 20
-92.81260240515313
 30
0.0
  0
INSERT
  5
11C
330
1F
100
AcDbEntity
  8
0
100
AcDbBlockReference
  2
block 30
 10
-131.7976924672498
 20
-92.81260240515313
 30
0.0
  0
INSERT
  5
124
330
1F
100
AcDbEntity
  8
0
100
AcDbBlockReference
  2
block 31
 10
-131.7976924672498
 20
-92.81260240515313
 30
0.0
  0
INSERT
  5
12C
330
1F
100
AcDbEntity
  8
0
100
AcDbBlockReference
  2
block 32
 10
-131.7976924672498
 20
-92.81260240515313
 30
0.0
  0
INSERT
  5
134
330
1F
100
AcDbEntity
  8
0
100
AcDbBlockReference
  2
block 33
 10
-131.7976924672498
 20
-92.81260240515313
 30
0.0
  0
INSERT
  5
13C
330
1F
100
AcDbEntity
  8
0
100
AcDbBlockReference
  2
block 34
 10
-131.7976924672498
 20
-92.81260240515313
 30
0.0
  0
INSERT
  5
144
330
1F
100
AcDbEntity
  8
0
100
AcDbBlockReference
  2
block 35
 10
-131.7976924672498
 20
-92.81260240515313
 30
0.0
  0
INSERT
  5
14C
330
1F
100
AcDbEntity
  8
0
100
AcDbBlockReference
  2
block 36
 10
-131.7976924672498
 20
-92.81260240515313
 30
0.0
  0
INSERT
  5
154
330
1F
100
AcDbEntity
  8
0
100
AcDbBlockReference
  2
block 37
 10
-131.7976924672498
 20
-92.81260240515313
 30
0.0
  0
INSERT
  5
15C
330
1F
100
AcDbEntity
  8
0
100
AcDbBlockReference
  2
block 38
 10
-131.7976924672498
 20
-92.81260240515313
 30
0.0
  0
INSERT
  5
164
330
1F
100
AcDbEntity
  8
0
100
AcDbBlockReference
  2
block 39
 10
-131.7976924672498
 20
-92.81260240515313
 30
0.0
  0
INSERT
  5
16C
330
1F
100
AcDbEntity
  8
0
100
AcDbBlockReference
  2
block 40
 10
-131.7976924672498
 20
-92.81260240515313
 30
0.0
  0
INSERT
  5
174
330
1F
100
AcDbEntity
  8
0
100
AcDbBlockReference
  2
block 41
 10
-131.7976924672498
 20
-92.81260240515313
 30
0.0
  0
INSERT
  5
17C
330
1F
100
AcDbEntity
  8
0
100
AcDbBlockReference
  2
block 42
 10
-131.7976924672498
 20
-92.81260240515313
 30
0.0
  0
INSERT
  5
184
330
1F
100
AcDbEntity
  8
0
100
AcDbBlockReference
  2
block 43
 10
-131.7976924672498
 20
-92.81260240515313
 30
0.0
  0
INSERT
  5
18C
330
1F
100
AcDbEntity
  8
0
100
AcDbBlockReference
  2
block 44
 10
-131.7976924672498
 20
-92.81260240515313
 30
0.0
  0
INSERT
  5
194
330
1F
100
AcDbEntity
  8
0
100
AcDbBlockReference
  2
block 45
 10
-131.7976924672498
 20
-92.81260240515313
 30
0.0
  0
INSERT
  5
19C
330
1F
100
AcDbEntity
  8
0
100
AcDbBlockReference
  2
block 46
 10
-131.7976924672498
 20
-92.81260240515313
 30
0.0
  0
INSERT
  5
1A4
330
1F
100
AcDbEntity
  8
0
100
AcDbBlockReference
  2
block 47
 10
-131.7976924672498
 20
-92.81260240515313
 30
0.0
  0
INSERT
  5
1AC
330
1F
100
AcDbEntity
  8
0
100
AcDbBlockReference
  2
block 48
 10
-131.7976924672498
 20
-92.81260240515313
 30
0.0
  0
INSERT
  5
1B4
330
1F
100
AcDbEntity
  8
0
100
AcDbBlockReference
  2
block 49
 10
-131.7976924672498
 20
-92.81260240515313
 30
0.0
  0
INSERT
  5
1BC
330
1F
100
AcDbEntity
  8
0
100
AcDbBlockReference
  2
block 50
 10
-131.7976924672498
 20
-92.81260240515313
 30
0.0
  0
INSERT
  5
1C4
330
1F
100
AcDbEntity
  8
0
100
AcDbBlockReference
  2
block 51
 10
-131.7976924672498
 20
-92.81260240515313
 30
0.0
  0
INSERT
  5
1CC
330
1F
100
AcDbEntity
  8
0
100
AcDbBlockReference
  2
block 52
 10
-131.7976924672498
 20
-92.81260240515313
 30
0.0
  0
INSERT
  5
1D4
330
1F
100
AcDbEntity
  8
0
100
AcDbBlockReference
  2
block 53
 10
-131.7976924672498
 20
-92.81260240515313
 30
0.0
  0
INSERT
  5
1DC
330
1F
100
AcDbEntity
  8
0
100
AcDbBlockReference
  2
block 54
 10
-131.7976924672498
 20
-92.81260240515313
 30
0.0
  0
INSERT
  5
1E4
330
1F
100
AcDbEntity
  8
0
100
AcDbBlockReference
  2
block 55
 10
-131.7976924672498
 20
-92.81260240515313
 30
0.0
  0
INSERT
  5
1EC
330
1F
100
AcDbEntity
  8
0
100
AcDbBlockReference
  2
block 56
 10
-131.7976924672498
 20
-92.81260240515313
 30
0.0
  0
INSERT
  5
1F4
330
1F
100
AcDbEntity
  8
0
100
AcDbBlockReference
  2
block 57
 10
-131.7976924672498
 20
-92.81260240515313
 30
0.0
  0
INSERT
  5
1FC
330
1F
100
AcDbEntity
  8
0
100
AcDbBlockReference
  2
block 58
 10
-131.7976924672498
 20
-92.81260240515313
 30
0.0
  0
INSERT
  5
204
330
1F
100
AcDbEntity
  8
0
100
AcDbBlockReference
  2
block 59
 10
-131.7976924672498
 20
-92.81260240515313
 30
0.0
  0
INSERT
  5
20C
330
1F
100
AcDbEntity
  8
0
100
AcDbBlockReference
  2
block 60
 10
-131.7976924672498
 20
-92.81260240515313
 30
0.0
  0
INSERT
  5
214
330
1F
100
AcDbEntity
  8
0
100
AcDbBlockReference
  2
block 61
 10
-131.7976924672498
 20
-92.81260240515313
 30
0.0
  0
INSERT
  5
21C
330
1F
100
AcDbEntity
  8
0
100
AcDbBlockReference
  2
block 62
 10
-131.7976924672498
 20
-92.81260240515313
 30
0.0
  0
INSERT
  5
224
330
1F
100
AcDbEntity
  8
0
100
AcDbBlockReference
  2
block 63
 10
-131.7976924672498
 20
-92.81260240515313
 30
0.0
  0
INSERT
  5
22C
330
1F
100
AcDbEntity
  8
0
100
AcDbBlockReference
  2
block 64
 10
-131.7976924672498
 20
-92.81260240515313
 30
0.0
  0
INSERT
  5
234
330
1F
100
AcDbEntity
  8
0
100
AcDbBlockReference
  2
block 65
 10
-131.7976924672498
 20
-92.81260240515313
 30
0.0
  0
INSERT
  5
23C
330
1F
100
AcDbEntity
  8
0
100
AcDbBlockReference
  2
block 66
 10
-131.7976924672498
 20
-92.81260240515313
 30
0.0
  0
INSERT
  5
244
330
1F
100
AcDbEntity
  8
0
100
AcDbBlockReference
  2
block 67
 10
-131.7976924672498
 20
-92.81260240515313
 30
0.0
  0
INSERT
  5
24C
330
1F
100
AcDbEntity
  8
0
100
AcDbBlockReference
  2
block 68
 10
-131.7976924672498
 20
-92.81260240515313
 30
0.0
  0
INSERT
  5
254
330
1F
100
AcDbEntity
  8
0
100
AcDbBlockReference
  2
block 69
 10
-131.7976924672498
 20
-92.81260240515313
 30
0.0
  0
INSERT
  5
25C
330
1F
100
AcDbEntity
  8
0
100
AcDbBlockReference
  2
block 70
 10
-131.7976924672498
 20
-92.81260240515313
 30
0.0
  0
INSERT
  5
264
330
1F
100
AcDbEntity
  8
0
100
AcDbBlockReference
  2
block 71
 10
-131.7976924672498
 20
-92.81260240515313
 30
0.0
  0
INSERT
  5
26C
330
1F
100
AcDbEntity
  8
0
100
AcDbBlockReference
  2
block 72
 10
-131.7976924672498
 20
-92.81260240515313
 30
0.0
  0
INSERT
  5
274
330
1F
100
AcDbEntity
  8
0
100
AcDbBlockReference
  2
block 73
 10
-131.7976924672498
 20
-92.81260240515313
 30
0.0
  0
INSERT
  5
27C
330
1F
100
AcDbEntity
  8
0
100
AcDbBlockReference
  2
block 74
 10
-131.7976924672498
 20
-92.81260240515313
 30
0.0
  0
INSERT
  5
284
330
1F
100
AcDbEntity
  8
0
100
AcDbBlockReference
  2
block 75
 10
-131.7976924672498
 20
-92.81260240515313
 30
0.0
  0
INSERT
  5
28C
330
1F
100
AcDbEntity
  8
0
100
AcDbBlockReference
  2
block 76
 10
-131.7976924672498
 20
-92.81260240515313
 30
0.0
  0
INSERT
  5
294
330
1F
100
AcDbEntity
  8
0
100
AcDbBlockReference
  2
block 77
 10
-131.7976924672498
 20
-92.81260240515313
 30
0.0
  0
INSERT
  5
29C
330
1F
100
AcDbEntity
  8
0
100
AcDbBlockReference
  2
block 78
 10
-131.7976924672498
 20
-92.81260240515313
 30
0.0
  0
INSERT
  5
2A4
330
1F
100
AcDbEntity
  8
0
100
AcDbBlockReference
  2
block 79
 10
-131.7976924672498
 20
-92.81260240515313
 30
0.0
  0
INSERT
  5
2AC
330
1F
100
AcDbEntity
  8
0
100
AcDbBlockReference
  2
block 80
 10
-131.7976924672498
 20
-92.81260240515313
 30
0.0
  0
INSERT
  5
2B4
330
1F
100
AcDbEntity
  8
0
100
AcDbBlockReference
  2
block 81
 10
-131.7976924672498
 20
-92.81260240515313
 30
0.0
  0
INSERT
  5
2BC
330
1F
100
AcDbEntity
  8
0
100
AcDbBlockReference
  2
block 82
 10
-131.7976924672498
 20
-92.81260240515313
 30
0.0
  0
INSERT
  5
2C4
330
1F
100
AcDbEntity
  8
0
100
AcDbBlockReference
  2
block 83
 10
-131.7976924672498
 20
-92.81260240515313
 30
0.0
  0
INSERT
  5
2CC
330
1F
100
AcDbEntity
  8
0
100
AcDbBlockReference
  2
block 84
 10
-131.7976924672498
 20
-92.81260240515313
 30
0.0
  0
INSERT
  5
2D4
330
1F
100
AcDbEntity
  8
0
100
AcDbBlockReference
  2
block 85
 10
-131.7976924672498
 20
-92.81260240515313
 30
0.0
  0
INSERT
  5
2DC
330
1F
100
AcDbEntity
  8
0
100
AcDbBlockReference
  2
block 86
 10
-131.7976924672498
 20
-92.81260240515313
 30
0.0
  0
INSERT
  5
2E4
330
1F
100
AcDbEntity
  8
0
100
AcDbBlockReference
  2
block 87
 10
-131.7976924672498
 20
-92.81260240515313
 30
0.0
  0
INSERT
  5
2EC
330
1F
100
AcDbEntity
  8
0
100
AcDbBlockReference
  2
block 88
 10
-131.7976924672498
 20
-92.81260240515313
 30
0.0
  0
INSERT
  5
2F4
330
1F
100
AcDbEntity
  8
0
100
AcDbBlockReference
  2
block 89
 10
-131.7976924672498
 20
-92.81260240515313
 30
0.0
  0
INSERT
  5
2FC
330
1F
100
AcDbEntity
  8
0
100
AcDbBlockReference
  2
block 90
 10
-131.7976924672498
 20
-92.81260240515313
 30
0.0
  0
INSERT
  5
304
330
1F
100
AcDbEntity
  8
0
100
AcDbBlockReference
  2
block 91
 10
-131.7976924672498
 20
-92.81260240515313
 30
0.0
  0
INSERT
  5
30C
330
1F
100
AcDbEntity
  8
0
100
AcDbBlockReference
  2
block 92
 10
-131.7976924672498
 20
-92.81260240515313
 30
0.0
  0
INSERT
  5
314
330
1F
100
AcDbEntity
  8
0
100
AcDbBlockReference
  2
block 93
 10
-131.7976924672498
 20
-92.81260240515313
 30
0.0
  0
INSERT
  5
31C
330
1F
100
AcDbEntity
  8
0
100
AcDbBlockReference
  2
block 94
 10
-131.7976924672498
 20
-92.81260240515313
 30
0.0
  0
INSERT
  5
324
330
1F
100
AcDbEntity
  8
0
100
AcDbBlockReference
  2
block 95
 10
-131.7976924672498
 20
-92.81260240515313
 30
0.0
  0
INSERT
  5
32C
330
1F
100
AcDbEntity
  8
0
100
AcDbBlockReference
  2
block 96
 10
-131.7976924672498
 20
-92.81260240515313
 30
0.0
  0
INSERT
  5
334
330
1F
100
AcDbEntity
  8
0
100
AcDbBlockReference
  2
block 97
 10
-131.7976924672498
 20
-92.81260240515313
 30
0.0
  0
INSERT
  5
33C
330
1F
100
AcDbEntity
  8
0
100
AcDbBlockReference
  2
block 98
 10
-131.7976924672498
 20
-92.81260240515313
 30
0.0
  0
INSERT
  5
344
330
1F
100
AcDbEntity
  8
0
100
AcDbBlockReference
  2
block 99
 10
-131.7976924672498
 20
-92.81260240515313
 30
0.0
  0
INSERT
  5
34C
330
1F
100
AcDbEntity
  8
0
100
AcDbBlockReference
  2
block 100
 10
-131.7976924672498
 20
-92.81260240515313
 30
0.0
  0
INSERT
  5
354
330
1F
100
AcDbEntity
  8
0
100
AcDbBlockReference
  2
block 101
 10
-131.7976924672498
 20
-92.81260240515313
 30
0.0
  0
INSERT
  5
35C
330
1F
100
AcDbEntity
  8
0
100
AcDbBlockReference
  2
block 102
 10
-131.7976924672498
 20
-92.81260240515313
 30
0.0
  0
INSERT
  5
364
330
1F
100
AcDbEntity
  8
0
100
AcDbBlockReference
  2
block 103
 10
-131.7976924672498
 20
-92.81260240515313
 30
0.0
  0
INSERT
  5
36C
330
1F
100
AcDbEntity
  8
0
100
AcDbBlockReference
  2
block 104
 10
-131.7976924672498
 20
-92.81260240515313
 30
0.0
  0
INSERT
  5
374
330
1F
100
AcDbEntity
  8
0
100
AcDbBlockReference
  2
block 105
 10
-131.7976924672498
 20
-92.81260240515313
 30
0.0
  0
INSERT
  5
37C
330
1F
100
AcDbEntity
  8
0
100
AcDbBlockReference
  2
block 106
 10
-131.7976924672498
 20
-92.81260240515313
 30
0.0
  0
INSERT
  5
384
330
1F
100
AcDbEntity
  8
0
100
AcDbBlockReference
  2
block 107
 10
-131.7976924672498
 20
-92.81260240515313
 30
0.0
  0
INSERT
  5
38C
330
1F
100
AcDbEntity
  8
0
100
AcDbBlockReference
  2
block 108
 10
-131.7976924672498
 20
-92.81260240515313
 30
0.0
  0
INSERT
  5
394
330
1F
100
AcDbEntity
  8
0
100
AcDbBlockReference
  2
block 109
 10
-131.7976924672498
 20
-92.81260240515313
 30
0.0
  0
INSERT
  5
39C
330
1F
100
AcDbEntity
  8
0
100
AcDbBlockReference
  2
block 110
 10
-131.7976924672498
 20
-92.81260240515313
 30
0.0
  0
INSERT
  5
3A4
330
1F
100
AcDbEntity
  8
0
100
AcDbBlockReference
  2
block 111
 10
-131.7976924672498
 20
-92.81260240515313
 30
0.0
  0
INSERT
  5
3AC
330
1F
100
AcDbEntity
  8
0
100
AcDbBlockReference
  2
block 112
 10
-131.7976924672498
 20
-92.81260240515313
 30
0.0
  0
INSERT
  5
3B4
330
1F
100
AcDbEntity
  8
0
100
AcDbBlockReference
  2
block 113
 10
-131.7976924672498
 20
-92.81260240515313
 30
0.0
  0
INSERT
  5
3BC
330
1F
100
AcDbEntity
  8
0
100
AcDbBlockReference
  2
block 114
 10
-131.7976924672498
 20
-92.81260240515313
 30
0.0
  0
INSERT
  5
3C4
330
1F
100
AcDbEntity
  8
0
100
AcDbBlockReference
  2
block 115
 10
-131.7976924672498
 20
-92.81260240515313
 30
0.0
  0
INSERT
  5
3CC
330
1F
100
AcDbEntity
  8
0
100
AcDbBlockReference
  2
block 116
 10
-131.7976924672498
 20
-92.81260240515313
 30
0.0
  0
INSERT
  5
3D4
330
1F
100
AcDbEntity
  8
0
100
AcDbBlockReference
  2
block 117
 10
-131.7976924672498
 20
-92.81260240515313
 30
0.0
  0
INSERT
  5
3DC
330
1F
100
AcDbEntity
  8
0
100
AcDbBlockReference
  2
block 118
 10
-131.7976924672498
 20
-92.81260240515313
 30
0.0
  0
INSERT
  5
3E4
330
1F
100
AcDbEntity
  8
0
100
AcDbBlockReference
  2
block 119
 10
-131.7976924672498
 20
-92.81260240515313
 30
0.0
  0
INSERT
  5
3EC
330
1F
100
AcDbEntity
  8
0
100
AcDbBlockReference
  2
block 120
 10
-131.7976924672498
 20
-92.81260240515313
 30
0.0
  0
INSERT
  5
3F4
330
1F
100
AcDbEntity
  8
0
100
AcDbBlockReference
  2
block 121
 10
-131.7976924672498
 20
-92.81260240515313
 30
0.0
  0
INSERT
  5
3FC
330
1F
100
AcDbEntity
  8
0
100
AcDbBlockReference
  2
block 122
 10
-131.7976924672498
 20
-92.81260240515313
 30
0.0
  0
INSERT
  5
404
330
1F
100
AcDbEntity
  8
0
100
AcDbBlockReference
  2
block 123
 10
-131.7976924672498
 20
-92.81260240515313
 30
0.0
  0
INSERT
  5
40C
330
1F
100
AcDbEntity
  8
0
100
AcDbBlockReference
  2
block 124
 10
-131.7976924672498
 20
-92.81260240515313
 30
0.0
  0
INSERT
  5
414
330
1F
100
AcDbEntity
  8
0
100
AcDbBlockReference
  2
block 125
 10
-131.7976924672498
 20
-92.81260240515313
 30
0.0
  0
INSERT
  5
41C
330
1F
100
AcDbEntity
  8
0
100
AcDbBlockReference
  2
block 126
 10
-131.7976924672498
 20
-92.81260240515313
 30
0.0
  0
INSERT
  5
424
330
1F
100
AcDbEntity
  8
0
100
AcDbBlockReference
  2
block 127
 10
-131.7976924672498
 20
-92.81260240515313
 30
0.0
  0
INSERT
  5
42C
330
1F
100
AcDbEntity
  8
0
100
AcDbBlockReference
  2
block 128
 10
-131.7976924672498
 20
-92.81260240515313
 30
0.0
  0
INSERT
  5
434
330
1F
100
AcDbEntity
  8
0
100
AcDbBlockReference
  2
block 129
 10
-131.7976924672498
 20
-92.81260240515313
 30
0.0
  0
INSERT
  5
43C
330
1F
100
AcDbEntity
  8
0
100
AcDbBlockReference
  2
block 130
 10
-131.7976924672498
 20
-92.81260240515313
 30
0.0
  0
INSERT
  5
444
330
1F
100
AcDbEntity
  8
0
100
AcDbBlockReference
  2
block 131
 10
-131.7976924672498
 20
-92.81260240515313
 30
0.0
  0
INSERT
  5
44C
330
1F
100
AcDbEntity
  8
0
100
AcDbBlockReference
  2
block 132
 10
-131.7976924672498
 20
-92.81260240515313
 30
0.0
  0
INSERT
  5
454
330
1F
100
AcDbEntity
  8
0
100
AcDbBlockReference
  2
block 133
 10
-131.7976924672498
 20
-92.81260240515313
 30
0.0
  0
INSERT
  5
45C
330
1F
100
AcDbEntity
  8
0
100
AcDbBlockReference
  2
block 134
 10
-131.7976924672498
 20
-92.81260240515313
 30
0.0
  0
INSERT
  5
464
330
1F
100
AcDbEntity
  8
0
100
AcDbBlockReference
  2
block 135
 10
-131.7976924672498
 20
-92.81260240515313
 30
0.0
  0
INSERT
  5
46C
330
1F
100
AcDbEntity
  8
0
100
AcDbBlockReference
  2
block 136
 10
-131.7976924672498
 20
-92.81260240515313
 30
0.0
  0
INSERT
  5
474
330
1F
100
AcDbEntity
  8
0
100
AcDbBlockReference
  2
block 137
 10
-131.7976924672498
 20
-92.81260240515313
 30
0.0
  0
INSERT
  5
47C
330
1F
100
AcDbEntity
  8
0
100
AcDbBlockReference
  2
block 138
 10
-131.7976924672498
 20
-92.81260240515313
 30
0.0
  0
INSERT
  5
484
330
1F
100
AcDbEntity
  8
0
100
AcDbBlockReference
  2
block 139
 10
-131.7976924672498
 20
-92.81260240515313
 30
0.0
  0
INSERT
  5
48C
330
1F
100
AcDbEntity
  8
0
100
AcDbBlockReference
  2
block 140
 10
-131.7976924672498
 20
-92.81260240515313
 30
0.0
  0
INSERT
  5
494
330
1F
100
AcDbEntity
  8
0
100
AcDbBlockReference
  2
block 141
 10
-131.7976924672498
 20
-92.81260240515313
 30
0.0
  0
INSERT
  5
49C
330
1F
100
AcDbEntity
  8
0
100
AcDbBlockReference
  2
block 142
 10
-131.7976924672498
 20
-92.81260240515313
 30
0.0
  0
INSERT
  5
4A4
330
1F
100
AcDbEntity
  8
0
100
AcDbBlockReference
  2
block 143
 10
-131.7976924672498
 20
-92.81260240515313
 30
0.0
  0
INSERT
  5
4AC
330
1F
100
AcDbEntity
  8
0
100
AcDbBlockReference
  2
block 144
 10
-131.7976924672498
 20
-92.81260240515313
 30
0.0
  0
INSERT
  5
4B4
330
1F
100
AcDbEntity
  8
0
100
AcDbBlockReference
  2
block 145
 10
-131.7976924672498
 20
-92.81260240515313
 30
0.0
  0
INSERT
  5
4BC
330
1F
100
AcDbEntity
  8
0
100
AcDbBlockReference
  2
block 146
 10
-131.7976924672498
 20
-92.81260240515313
 30
0.0
  0
INSERT
  5
4C4
330
1F
100
AcDbEntity
  8
0
100
AcDbBlockReference
  2
block 147
 10
-131.7976924672498
 20
-92.81260240515313
 30
0.0
  0
INSERT
  5
4CC
330
1F
100
AcDbEntity
  8
0
100
AcDbBlockReference
  2
block 148
 10
-131.7976924672498
 20
-92.81260240515313
 30
0.0
  0
INSERT
  5
4D4
330
1F
100
AcDbEntity
  8
0
100
AcDbBlockReference
  2
block 149
 10
-131.7976924672498
 20
-92.81260240515313
 30
0.0
  0
INSERT
  5
4DC
330
1F
100
AcDbEntity
  8
0
100
AcDbBlockReference
  2
block 150
 10
-131.7976924672498
 20
-92.81260240515313
 30
0.0
  0
INSERT
  5
4E4
330
1F
100
AcDbEntity
  8
0
100
AcDbBlockReference
  2
block 151
 10
-131.7976924672498
 20
-92.81260240515313
 30
0.0
  0
INSERT
  5
4EC
330
1F
100
AcDbEntity
  8
0
100
AcDbBlockReference
  2
block 152
 10
-131.7976924672498
 20
-92.81260240515313
 30
0.0
  0
DIMENSION
  5
551
330
1F
100
AcDbEntity
  8
Cotation-JacobDelafon
100
AcDbDimension
  2
*D155
 10
116.558026865105
 20
102.0053325702733
 30
0.0
 11
78.10522372983992
 21
104.4053325702734
 31
0.0
 70
    32
  1
77
 71
     5
 42
76.90560627053028
 73
     0
 74
     0
 75
     0
  3
Cotation-Jacob-Delafon
100
AcDbAlignedDimension
 13
39.65242059457478
 23
80.62137020059367
 33
0.0
 14
116.558026865105
 24
80.62137020059367
 34
0.0
100
AcDbRotatedDimension
  0
DIMENSION
  5
55E
330
1F
100
AcDbEntity
  8
Cotation-JacobDelafon
100
AcDbDimension
  2
*D156
 10
20.19093980761681
 20
32.19655935002045
 30
0.0
 11
17.75922084445173
 21
56.40896477530707
 31
0.0
 70
    32
  1
48.5
 71
     5
 42
48.42481085057323
 73
     0
 74
     0
 75
     0
  3
Cotation-Jacob-Delafon
100
AcDbAlignedDimension
 13
39.65242059457478
 23
80.62137020059367
 33
0.0
 14
39.83638881484987
 24
32.19655935002045
 34
0.0
 50
90.0
100
AcDbRotatedDimension
  0
ENDSEC
  0
SECTION
  2
OBJECTS
  0
DICTIONARY
  5
C
330
0
100
AcDbDictionary
281
     1
  3
ACAD_COLOR
350
50F
  3
ACAD_GROUP
350
D
  3
ACAD_LAYOUT
350
1A
  3
ACAD_MATERIAL
350
4F6
  3
ACAD_MLEADERSTYLE
350
533
  3
ACAD_MLINESTYLE
350
17
  3
ACAD_PLOTSETTINGS
350
19
  3
ACAD_PLOTSTYLENAME
350
E
  3
ACAD_SCALELIST
350
511
  3
ACAD_TABLESTYLE
350
4F3
  3
ACAD_VISUALSTYLE
350
2A
  3
ACDB_RECOMPOSE_DATA
350
58A
  3
AcDbVariableDictionary
350
580
  3
AEC_PROPERTY_SET_DEFS
350
541
  0
DICTIONARY
  5
57D
330
10
100
AcDbDictionary
280
     1
281
     1
  3
ADSK_XREC_LAYER_RECONCILED
360
57E
  0
DICTIONARY
  5
53A
330
539
100
AcDbDictionary
280
     1
281
     1
  3
ADSK_XREC_LAYER_RECONCILED
360
57F
  0
DICTIONARY
  5
50F
102
{ACAD_REACTORS
330
C
102
}
330
C
100
AcDbDictionary
281
     1
  0
DICTIONARY
  5
D
102
{ACAD_REACTORS
330
C
102
}
330
C
100
AcDbDictionary
281
     1
  0
DICTIONARY
  5
1A
102
{ACAD_REACTORS
330
C
102
}
330
C
100
AcDbDictionary
281
     1
  3
Layout1
350
1E
  3
Layout2
350
26
  3
Model
350
22
  0
DICTIONARY
  5
4F6
102
{ACAD_REACTORS
330
C
102
}
330
C
100
AcDbDictionary
281
     1
  3
ByBlock
350
4FF
  3
ByLayer
350
4F7
  3
Global
350
507
  0
DICTIONARY
  5
533
102
{ACAD_REACTORS
330
C
102
}
330
C
100
AcDbDictionary
281
     1
  3
Standard
350
534
  0
DICTIONARY
  5
17
102
{ACAD_REACTORS
330
C
102
}
330
C
100
AcDbDictionary
281
     1
  3
Standard
350
18
  0
DICTIONARY
  5
19
102
{ACAD_REACTORS
330
C
102
}
330
C
100
AcDbDictionary
281
     1
  0
ACDBDICTIONARYWDFLT
  5
E
102
{ACAD_REACTORS
330
C
102
}
330
C
100
AcDbDictionary
281
     1
  3
Normal
350
F
100
AcDbDictionaryWithDefault
340
F
  0
DICTIONARY
  5
511
102
{ACAD_REACTORS
330
C
102
}
330
C
100
AcDbDictionary
281
     1
  3
A0
350
512
  3
A1
350
513
  3
A2
350
514
  3
A3
350
515
  3
A4
350
516
  3
A5
350
517
  3
A6
350
518
  3
A7
350
519
  3
A8
350
51A
  3
A9
350
51B
  3
B0
350
51C
  3
B1
350
51D
  3
B2
350
51E
  3
B3
350
51F
  3
B4
350
520
  3
B5
350
521
  3
B6
350
522
  3
B7
350
523
  3
B8
350
524
  3
B9
350
525
  3
C0
350
526
  3
C1
350
527
  3
C2
350
528
  3
C3
350
529
  3
C4
350
52A
  3
C5
350
52B
  3
C6
350
52C
  3
C7
350
52D
  3
C8
350
52E
  3
C9
350
52F
  3
D0
350
530
  3
D1
350
531
  3
D2
350
532
  0
DICTIONARY
  5
4F3
102
{ACAD_REACTORS
330
C
102
}
330
C
100
AcDbDictionary
281
     1
  3
Standard
350
510
  0
DICTIONARY
  5
2A
102
{ACAD_REACTORS
330
C
102
}
330
C
100
AcDbDictionary
281
     1
  3
2dWireframe
350
2F
  3
3D Hidden
350
31
  3
3dWireframe
350
30
  3
Basic
350
32
  3
Brighten
350
36
  3
ColorChange
350
3A
  3
Conceptual
350
34
  3
Dim
350
35
  3
Facepattern
350
39
  3
Flat
350
2B
  3
FlatWithEdges
350
2C
  3
Gouraud
350
2D
  3
GouraudWithEdges
350
2E
  3
Linepattern
350
38
  3
Realistic
350
33
  3
Thicken
350
37
  0
XRECORD
  5
58A
102
{ACAD_REACTORS
330
C
102
}
330
C
100
AcDbXrecord
280
     1
 90
        1
330
510
  0
DICTIONARY
  5
580
102
{ACAD_REACTORS
330
C
102
}
330
C
100
AcDbDictionary
281
     1
  3
CANNOSCALE
350
584
  3
CMLEADERSTYLE
350
582
  3
CTABLESTYLE
350
581
  3
LAYEREVAL
350
586
  3
LAYERNOTIFY
350
587
  3
LIGHTINGUNITS
350
585
  3
MSLTSCALE
350
583
  0
DICTIONARY
  5
541
102
{ACAD_REACTORS
330
C
102
}
330
C
100
AcDbDictionary
281
     1
  0
XRECORD
  5
57E
102
{ACAD_REACTORS
330
57D
102
}
330
57D
100
AcDbXrecord
280
     1
290
     1
  0
XRECORD
  5
57F
102
{ACAD_REACTORS
330
53A
102
}
330
53A
100
AcDbXrecord
280
     1
290
     1
  0
LAYOUT
  5
1E
102
{ACAD_REACTORS
330
1A
102
}
330
1A
100
AcDbPlotSettings
  1

  2
none_device
  4

  6

 40
0.0
 41
0.0
 42
0.0
 43
0.0
 44
0.0
 45
0.0
 46
0.0
 47
0.0
 48
0.0
 49
0.0
140
0.0
141
0.0
142
1.0
143
1.0
 70
   688
 72
     0
 73
     0
 74
     5
  7

 75
    16
147
1.0
 76
     0
 77
     2
 78
   300
148
0.0
149
0.0
100
AcDbLayout
  1
Layout1
 70
     1
 71
     1
 10
0.0
 20
0.0
 11
12.0
 21
9.0
 12
0.0
 22
0.0
 32
0.0
 14
1.000000000000000E+20
 24
1.000000000000000E+20
 34
1.000000000000000E+20
 15
-1.000000000000000E+20
 25
-1.000000000000000E+20
 35
-1.000000000000000E+20
146
0.0
 13
0.0
 23
0.0
 33
0.0
 16
1.0
 26
0.0
 36
0.0
 17
0.0
 27
1.0
 37
0.0
 76
     0
330
1B
  0
LAYOUT
  5
26
102
{ACAD_REACTORS
330
1A
102
}
330
1A
100
AcDbPlotSettings
  1

  2
none_device
  4

  6

 40
0.0
 41
0.0
 42
0.0
 43
0.0
 44
0.0
 45
0.0
 46
0.0
 47
0.0
 48
0.0
 49
0.0
140
0.0
141
0.0
142
1.0
143
1.0
 70
   688
 72
     0
 73
     0
 74
     5
  7

 75
    16
147
1.0
 76
     0
 77
     2
 78
   300
148
0.0
149
0.0
100
AcDbLayout
  1
Layout2
 70
     1
 71
     2
 10
0.0
 20
0.0
 11
0.0
 21
0.0
 12
0.0
 22
0.0
 32
0.0
 14
0.0
 24
0.0
 34
0.0
 15
0.0
 25
0.0
 35
0.0
146
0.0
 13
0.0
 23
0.0
 33
0.0
 16
1.0
 26
0.0
 36
0.0
 17
0.0
 27
1.0
 37
0.0
 76
     0
330
23
  0
LAYOUT
  5
22
102
{ACAD_REACTORS
330
1A
102
}
330
1A
100
AcDbPlotSettings
  1

  2
none_device
  4

  6

 40
0.0
 41
0.0
 42
0.0
 43
0.0
 44
0.0
 45
0.0
 46
0.0
 47
0.0
 48
0.0
 49
0.0
140
0.0
141
0.0
142
1.0
143
1.0
 70
  1712
 72
     0
 73
     0
 74
     0
  7

 75
     0
147
1.0
 76
     0
 77
     2
 78
   300
148
0.0
149
0.0
100
AcDbLayout
  1
Model
 70
     1
 71
     0
 10
0.0
 20
0.0
 11
12.0
 21
9.0
 12
0.0
 22
0.0
 32
0.0
 14
1.000000000000000E+20
 24
1.000000000000000E+20
 34
1.000000000000000E+20
 15
-1.000000000000000E+20
 25
-1.000000000000000E+20
 35
-1.000000000000000E+20
146
0.0
 13
0.0
 23
0.0
 33
0.0
 16
1.0
 26
0.0
 36
0.0
 17
0.0
 27
1.0
 37
0.0
 76
     0
330
1F
331
29
  0
MATERIAL
  5
4FF
102
{ACAD_XDICTIONARY
360
500
102
}
102
{ACAD_REACTORS
330
4F6
102
}
330
4F6
100
AcDbMaterial
  1
ByBlock
 72
     0
 43
0.0208333333333333
 43
0.0
 43
0.0
 43
0.0
 43
0.0
 43
0.0208333333333333
 43
0.0
 43
0.0
 43
0.0
 43
0.0
 43
1.0
 43
0.0
 43
0.0
 43
0.0
 43
0.0
 43
1.0
 77
     0
 47
0.0208333333333333
 47
0.0
 47
0.0
 47
0.0
 47
0.0
 47
0.0208333333333333
 47
0.0
 47
0.0
 47
0.0
 47
0.0
 47
1.0
 47
0.0
 47
0.0
 47
0.0
 47
0.0
 47
1.0
171
     0
 49
0.0208333333333333
 49
0.0
 49
0.0
 49
0.0
 49
0.0
 49
0.0208333333333333
 49
0.0
 49
0.0
 49
0.0
 49
0.0
 49
1.0
 49
0.0
 49
0.0
 49
0.0
 49
0.0
 49
1.0
175
     0
142
0.0208333333333333
142
0.0
142
0.0
142
0.0
142
0.0
142
0.0208333333333333
142
0.0
142
0.0
142
0.0
142
0.0
142
1.0
142
0.0
142
0.0
142
0.0
142
0.0
142
1.0
179
     0
144
0.0208333333333333
144
0.0
144
0.0
144
0.0
144
0.0
144
0.0208333333333333
144
0.0
144
0.0
144
0.0
144
0.0
144
1.0
144
0.0
144
0.0
144
0.0
144
0.0
144
1.0
147
0.0208333333333333
147
0.0
147
0.0
147
0.0
147
0.0
147
0.0208333333333333
147
0.0
147
0.0
147
0.0
147
0.0
147
1.0
147
0.0
147
0.0
147
0.0
147
0.0
147
1.0
  0
MATERIAL
  5
4F7
102
{ACAD_XDICTIONARY
360
4F8
102
}
102
{ACAD_REACTORS
330
4F6
102
}
330
4F6
100
AcDbMaterial
  1
ByLayer
 72
     0
 43
0.0208333333333333
 43
0.0
 43
0.0
 43
0.0
 43
0.0
 43
0.0208333333333333
 43
0.0
 43
0.0
 43
0.0
 43
0.0
 43
1.0
 43
0.0
 43
0.0
 43
0.0
 43
0.0
 43
1.0
 77
     0
 47
0.0208333333333333
 47
0.0
 47
0.0
 47
0.0
 47
0.0
 47
0.0208333333333333
 47
0.0
 47
0.0
 47
0.0
 47
0.0
 47
1.0
 47
0.0
 47
0.0
 47
0.0
 47
0.0
 47
1.0
171
     0
 49
0.0208333333333333
 49
0.0
 49
0.0
 49
0.0
 49
0.0
 49
0.0208333333333333
 49
0.0
 49
0.0
 49
0.0
 49
0.0
 49
1.0
 49
0.0
 49
0.0
 49
0.0
 49
0.0
 49
1.0
175
     0
142
0.0208333333333333
142
0.0
142
0.0
142
0.0
142
0.0
142
0.0208333333333333
142
0.0
142
0.0
142
0.0
142
0.0
142
1.0
142
0.0
142
0.0
142
0.0
142
0.0
142
1.0
179
     0
144
0.0208333333333333
144
0.0
144
0.0
144
0.0
144
0.0
144
0.0208333333333333
144
0.0
144
0.0
144
0.0
144
0.0
144
1.0
144
0.0
144
0.0
144
0.0
144
0.0
144
1.0
147
0.0208333333333333
147
0.0
147
0.0
147
0.0
147
0.0
147
0.0208333333333333
147
0.0
147
0.0
147
0.0
147
0.0
147
1.0
147
0.0
147
0.0
147
0.0
147
0.0
147
1.0
  0
MATERIAL
  5
507
102
{ACAD_XDICTIONARY
360
508
102
}
102
{ACAD_REACTORS
330
4F6
102
}
330
4F6
100
AcDbMaterial
  1
Global
 72
     0
 43
0.0208333333333333
 43
0.0
 43
0.0
 43
0.0
 43
0.0
 43
0.0208333333333333
 43
0.0
 43
0.0
 43
0.0
 43
0.0
 43
1.0
 43
0.0
 43
0.0
 43
0.0
 43
0.0
 43
1.0
 77
     0
 47
0.0208333333333333
 47
0.0
 47
0.0
 47
0.0
 47
0.0
 47
0.0208333333333333
 47
0.0
 47
0.0
 47
0.0
 47
0.0
 47
1.0
 47
0.0
 47
0.0
 47
0.0
 47
0.0
 47
1.0
171
     0
 49
0.0208333333333333
 49
0.0
 49
0.0
 49
0.0
 49
0.0
 49
0.0208333333333333
 49
0.0
 49
0.0
 49
0.0
 49
0.0
 49
1.0
 49
0.0
 49
0.0
 49
0.0
 49
0.0
 49
1.0
175
     0
142
0.0208333333333333
142
0.0
142
0.0
142
0.0
142
0.0
142
0.0208333333333333
142
0.0
142
0.0
142
0.0
142
0.0
142
1.0
142
0.0
142
0.0
142
0.0
142
0.0
142
1.0
179
     0
144
0.0208333333333333
144
0.0
144
0.0
144
0.0
144
0.0
144
0.0208333333333333
144
0.0
144
0.0
144
0.0
144
0.0
144
1.0
144
0.0
144
0.0
144
0.0
144
0.0
144
1.0
147
0.0208333333333333
147
0.0
147
0.0
147
0.0
147
0.0
147
0.0208333333333333
147
0.0
147
0.0
147
0.0
147
0.0
147
1.0
147
0.0
147
0.0
147
0.0
147
0.0
147
1.0
  0
MLEADERSTYLE
  5
534
102
{ACAD_REACTORS
330
533
102
}
330
533
100
AcDbMLeaderStyle
170
     2
171
     1
172
     0
 90
        2
 40
0.0
 41
0.0
173
     1
 91
-1056964608
340
14
 92
       -2
290
     1
 42
0.09
291
     1
 43
0.36
  3
Standard
 44
0.18
300

342
11
174
     1
178
     6
175
     1
176
     0
 93
-1056964608
 45
0.18
292
     0
297
     0
 46
0.18
 94
-1056964608
 47
1.0
 49
1.0
140
1.0
293
     1
141
0.0
294
     1
177
     0
142
1.0
295
     0
296
     0
143
0.125
1001
ACAD_MLEADERVER
1070
     2
  0
MLINESTYLE
  5
18
102
{ACAD_REACTORS
330
17
102
}
330
17
100
AcDbMlineStyle
  2
STANDARD
 70
     0
  3

 62
   256
 51
90.0
 52
90.0
 71
     2
 49
0.5
 62
   256
  6
BYLAYER
 49
-0.5
 62
   256
  6
BYLAYER
  0
ACDBPLACEHOLDER
  5
F
102
{ACAD_REACTORS
330
E
102
}
330
E
  0
SCALE
  5
512
102
{ACAD_REACTORS
330
511
102
}
330
511
100
AcDbScale
 70
     0
300
1:1
140
1.0
141
1.0
290
     1
  0
SCALE
  5
513
102
{ACAD_REACTORS
330
511
102
}
330
511
100
AcDbScale
 70
     0
300
1:2
140
1.0
141
2.0
290
     0
  0
SCALE
  5
514
102
{ACAD_REACTORS
330
511
102
}
330
511
100
AcDbScale
 70
     0
300
1:4
140
1.0
141
4.0
290
     0
  0
SCALE
  5
515
102
{ACAD_REACTORS
330
511
102
}
330
511
100
AcDbScale
 70
     0
300
1:5
140
1.0
141
5.0
290
     0
  0
SCALE
  5
516
102
{ACAD_REACTORS
330
511
102
}
330
511
100
AcDbScale
 70
     0
300
1:8
140
1.0
141
8.0
290
     0
  0
SCALE
  5
517
102
{ACAD_REACTORS
330
511
102
}
330
511
100
AcDbScale
 70
     0
300
1:10
140
1.0
141
10.0
290
     0
  0
SCALE
  5
518
102
{ACAD_REACTORS
330
511
102
}
330
511
100
AcDbScale
 70
     0
300
1:16
140
1.0
141
16.0
290
     0
  0
SCALE
  5
519
102
{ACAD_REACTORS
330
511
102
}
330
511
100
AcDbScale
 70
     0
300
1:20
140
1.0
141
20.0
290
     0
  0
SCALE
  5
51A
102
{ACAD_REACTORS
330
511
102
}
330
511
100
AcDbScale
 70
     0
300
1:30
140
1.0
141
30.0
290
     0
  0
SCALE
  5
51B
102
{ACAD_REACTORS
330
511
102
}
330
511
100
AcDbScale
 70
     0
300
1:40
140
1.0
141
40.0
290
     0
  0
SCALE
  5
51C
102
{ACAD_REACTORS
330
511
102
}
330
511
100
AcDbScale
 70
     0
300
1:50
140
1.0
141
50.0
290
     0
  0
SCALE
  5
51D
102
{ACAD_REACTORS
330
511
102
}
330
511
100
AcDbScale
 70
     0
300
1:100
140
1.0
141
100.0
290
     0
  0
SCALE
  5
51E
102
{ACAD_REACTORS
330
511
102
}
330
511
100
AcDbScale
 70
     0
300
2:1
140
2.0
141
1.0
290
     0
  0
SCALE
  5
51F
102
{ACAD_REACTORS
330
511
102
}
330
511
100
AcDbScale
 70
     0
300
4:1
140
4.0
141
1.0
290
     0
  0
SCALE
  5
520
102
{ACAD_REACTORS
330
511
102
}
330
511
100
AcDbScale
 70
     0
300
8:1
140
8.0
141
1.0
290
     0
  0
SCALE
  5
521
102
{ACAD_REACTORS
330
511
102
}
330
511
100
AcDbScale
 70
     0
300
10:1
140
10.0
141
1.0
290
     0
  0
SCALE
  5
522
102
{ACAD_REACTORS
330
511
102
}
330
511
100
AcDbScale
 70
     0
300
100:1
140
100.0
141
1.0
290
     0
  0
SCALE
  5
523
102
{ACAD_REACTORS
330
511
102
}
330
511
100
AcDbScale
 70
     0
300
1/128" = 1'-0"
140
0.0078125
141
12.0
290
     0
  0
SCALE
  5
524
102
{ACAD_REACTORS
330
511
102
}
330
511
100
AcDbScale
 70
     0
300
1/64" = 1'-0"
140
0.015625
141
12.0
290
     0
  0
SCALE
  5
525
102
{ACAD_REACTORS
330
511
102
}
330
511
100
AcDbScale
 70
     0
300
1/32" = 1'-0"
140
0.03125
141
12.0
290
     0
  0
SCALE
  5
526
102
{ACAD_REACTORS
330
511
102
}
330
511
100
AcDbScale
 70
     0
300
1/16" = 1'-0"
140
0.0625
141
12.0
290
     0
  0
SCALE
  5
527
102
{ACAD_REACTORS
330
511
102
}
330
511
100
AcDbScale
 70
     0
300
3/32" = 1'-0"
140
0.09375
141
12.0
290
     0
  0
SCALE
  5
528
102
{ACAD_REACTORS
330
511
102
}
330
511
100
AcDbScale
 70
     0
300
1/8" = 1'-0"
140
0.125
141
12.0
290
     0
  0
SCALE
  5
529
102
{ACAD_REACTORS
330
511
102
}
330
511
100
AcDbScale
 70
     0
300
3/16" = 1'-0"
140
0.1875
141
12.0
290
     0
  0
SCALE
  5
52A
102
{ACAD_REACTORS
330
511
102
}
330
511
100
AcDbScale
 70
     0
300
1/4" = 1'-0"
140
0.25
141
12.0
290
     0
  0
SCALE
  5
52B
102
{ACAD_REACTORS
330
511
102
}
330
511
100
AcDbScale
 70
     0
300
3/8" = 1'-0"
140
0.375
141
12.0
290
     0
  0
SCALE
  5
52C
102
{ACAD_REACTORS
330
511
102
}
330
511
100
AcDbScale
 70
     0
300
1/2" = 1'-0"
140
0.5
141
12.0
290
     0
  0
SCALE
  5
52D
102
{ACAD_REACTORS
330
511
102
}
330
511
100
AcDbScale
 70
     0
300
3/4" = 1'-0"
140
0.75
141
12.0
290
     0
  0
SCALE
  5
52E
102
{ACAD_REACTORS
330
511
102
}
330
511
100
AcDbScale
 70
     0
300
1" = 1'-0"
140
1.0
141
12.0
290
     0
  0
SCALE
  5
52F
102
{ACAD_REACTORS
330
511
102
}
330
511
100
AcDbScale
 70
     0
300
1-1/2" = 1'-0"
140
1.5
141
12.0
290
     0
  0
SCALE
  5
530
102
{ACAD_REACTORS
330
511
102
}
330
511
100
AcDbScale
 70
     0
300
3" = 1'-0"
140
3.0
141
12.0
290
     0
  0
SCALE
  5
531
102
{ACAD_REACTORS
330
511
102
}
330
511
100
AcDbScale
 70
     0
300
6" = 1'-0"
140
6.0
141
12.0
290
     0
  0
SCALE
  5
532
102
{ACAD_REACTORS
330
511
102
}
330
511
100
AcDbScale
 70
     0
300
1'-0" = 1'-0"
140
12.0
141
12.0
290
     0
  0
TABLESTYLE
  5
510
102
{ACAD_XDICTIONARY
360
588
102
}
102
{ACAD_REACTORS
330
4F3
102
}
330
4F3
100
AcDbTableStyle
  3
Standard
 70
     0
 71
     0
 40
0.06
 41
0.06
280
     0
281
     0
  7
Standard
140
0.18
170
     2
 62
     0
 63
     7
283
     0
 90
      512
 91
        0
  1

274
    -2
284
     1
 64
     0
275
    -2
285
     1
 65
     0
276
    -2
286
     1
 66
     0
277
    -2
287
     1
 67
     0
278
    -2
288
     1
 68
     0
279
    -2
289
     1
 69
     0
  7
Standard
140
0.25
170
     5
 62
     0
 63
     7
283
     0
 90
      512
 91
        0
  1

274
    -2
284
     1
 64
     0
275
    -2
285
     1
 65
     0
276
    -2
286
     1
 66
     0
277
    -2
287
     1
 67
     0
278
    -2
288
     1
 68
     0
279
    -2
289
     1
 69
     0
  7
Standard
140
0.18
170
     5
 62
     0
 63
     7
283
     0
 90
      512
 91
        0
  1

274
    -2
284
     1
 64
     0
275
    -2
285
     1
 65
     0
276
    -2
286
     1
 66
     0
277
    -2
287
     1
 67
     0
278
    -2
288
     1
 68
     0
279
    -2
289
     1
 69
     0
  0
VISUALSTYLE
  5
2F
102
{ACAD_REACTORS
330
2A
102
}
330
2A
100
AcDbVisualStyle
  2
2dWireframe
 70
     4
 71
     0
 72
     2
 73
     0
 90
        0
 40
-0.6
 41
-30.0
 62
     5
 63
     7
 74
     1
 91
        4
 64
     7
 65
   257
 75
     1
175
     1
 42
1.0
 92
        0
 66
   257
 43
1.0
 76
     1
 77
     6
 78
     2
 67
     7
 79
     5
170
     0
171
     0
290
     0
174
     0
 93
        1
 44
0.0
173
     0
291
     0
 45
0.0
1001
ACAD
1000
AcDbSavedByObjectVersion
1070
     0
  0
VISUALSTYLE
  5
31
102
{ACAD_REACTORS
330
2A
102
}
330
2A
100
AcDbVisualStyle
  2
3D Hidden
 70
     6
 71
     1
 72
     2
 73
     2
 90
        0
 40
-0.6
 41
-30.0
 62
     5
 63
     7
 74
     2
 91
        2
 64
     7
 65
   257
 75
     2
175
     1
 42
40.0
 92
        0
 66
   257
 43
1.0
 76
     1
 77
     6
 78
     2
 67
     7
 79
     3
170
     0
171
     0
290
     0
174
     0
 93
        1
 44
0.0
173
     0
291
     0
 45
0.0
1001
ACAD
1000
AcDbSavedByObjectVersion
1070
     0
  0
VISUALSTYLE
  5
30
102
{ACAD_REACTORS
330
2A
102
}
330
2A
100
AcDbVisualStyle
  2
3dWireframe
 70
     5
 71
     0
 72
     2
 73
     0
 90
        0
 40
-0.6
 41
-30.0
 62
     5
 63
     7
 74
     1
 91
        4
 64
     7
 65
   257
 75
     1
175
     1
 42
1.0
 92
        0
 66
   257
 43
1.0
 76
     1
 77
     6
 78
     2
 67
     7
 79
     5
170
     0
171
     0
290
     0
174
     0
 93
        1
 44
0.0
173
     0
291
     0
 45
0.0
1001
ACAD
1000
AcDbSavedByObjectVersion
1070
     0
  0
VISUALSTYLE
  5
32
102
{ACAD_REACTORS
330
2A
102
}
330
2A
100
AcDbVisualStyle
  2
Basic
 70
     7
 71
     1
 72
     0
 73
     1
 90
        0
 40
-0.6
 41
-30.0
 62
     5
 63
     7
 74
     0
 91
        4
 64
     7
 65
   257
 75
     1
175
     1
 42
1.0
 92
        8
 66
     7
 43
1.0
 76
     1
 77
     6
 78
     2
 67
     7
 79
     5
170
     0
171
     0
290
     0
174
     0
 93
        1
 44
0.0
173
     0
291
     1
 45
0.0
1001
ACAD
1000
AcDbSavedByObjectVersion
1070
     0
  0
VISUALSTYLE
  5
36
102
{ACAD_REACTORS
330
2A
102
}
330
2A
100
AcDbVisualStyle
  2
Brighten
 70
    12
 71
     2
 72
     2
 73
     0
 90
        0
 40
-0.6
 41
-30.0
 62
     5
 63
     7
 74
     1
 91
        4
 64
     7
 65
   257
 75
     1
175
     1
 42
1.0
 92
        8
 66
     7
 43
1.0
 76
     1
 77
     6
 78
     2
 67
     7
 79
     5
170
     0
171
     0
290
     0
174
     0
 93
        1
 44
50.0
173
     0
291
     1
 45
0.0
1001
ACAD
1000
AcDbSavedByObjectVersion
1070
     0
  0
VISUALSTYLE
  5
3A
102
{ACAD_REACTORS
330
2A
102
}
330
2A
100
AcDbVisualStyle
  2
ColorChange
 70
    16
 71
     2
 72
     2
 73
     3
 90
        0
 40
-0.6
 41
-30.0
 62
     5
 63
     8
 74
     1
 91
        4
 64
     7
 65
   257
 75
     1
175
     1
 42
1.0
 92
        8
 66
     8
 43
1.0
 76
     1
 77
     6
 78
     2
 67
     7
 79
     5
170
     0
171
     0
290
     0
174
     0
 93
        1
 44
0.0
173
     0
291
     1
 45
0.0
1001
ACAD
1000
AcDbSavedByObjectVersion
1070
     0
  0
VISUALSTYLE
  5
34
102
{ACAD_REACTORS
330
2A
102
}
330
2A
100
AcDbVisualStyle
  2
Conceptual
 70
     9
 71
     3
 72
     2
 73
     0
 90
        0
 40
-0.6
 41
-30.0
 62
     5
 63
     7
 74
     2
 91
        2
 64
     7
 65
   257
 75
     1
175
     1
 42
40.0
 92
        8
 66
     7
 43
1.0
 76
     1
 77
     6
 78
     2
 67
     7
 79
     3
170
     0
171
     0
290
     0
174
     0
 93
        1
 44
0.0
173
     0
291
     0
 45
0.0
1001
ACAD
1000
AcDbSavedByObjectVersion
1070
     0
  0
VISUALSTYLE
  5
35
102
{ACAD_REACTORS
330
2A
102
}
330
2A
100
AcDbVisualStyle
  2
Dim
 70
    11
 71
     2
 72
     2
 73
     0
 90
        0
 40
-0.6
 41
-30.0
 62
     5
 63
     7
 74
     1
 91
        4
 64
     7
 65
   257
 75
     1
175
     1
 42
1.0
 92
        8
 66
     7
 43
1.0
 76
     1
 77
     6
 78
     2
 67
     7
 79
     5
170
     0
171
     0
290
     0
174
     0
 93
        1
 44
-50.0
173
     0
291
     1
 45
0.0
1001
ACAD
1000
AcDbSavedByObjectVersion
1070
     0
  0
VISUALSTYLE
  5
39
102
{ACAD_REACTORS
330
2A
102
}
330
2A
100
AcDbVisualStyle
  2
Facepattern
 70
    15
 71
     2
 72
     2
 73
     0
 90
        0
 40
-0.6
 41
-30.0
 62
     5
 63
     7
 74
     1
 91
        4
 64
     7
 65
   257
 75
     1
175
     1
 42
1.0
 92
        8
 66
     7
 43
1.0
 76
     1
 77
     6
 78
     2
 67
     7
 79
     5
170
     0
171
     0
290
     0
174
     0
 93
        1
 44
0.0
173
     0
291
     1
 45
0.0
1001
ACAD
1000
AcDbSavedByObjectVersion
1070
     0
  0
VISUALSTYLE
  5
2B
102
{ACAD_REACTORS
330
2A
102
}
330
2A
100
AcDbVisualStyle
  2
Flat
 70
     0
 71
     2
 72
     1
 73
     1
 90
        2
 40
-0.6
 41
30.0
 62
     5
 63
     7
 74
     0
 91
        4
 64
     7
 65
   257
 75
     1
175
     1
 42
1.0
 92
        8
 66
     7
 43
1.0
 76
     1
 77
     6
 78
     2
 67
     7
 79
     5
170
     0
171
     0
290
     0
174
     0
 93
       13
 44
0.0
173
     0
291
     1
 45
0.0
1001
ACAD
1000
AcDbSavedByObjectVersion
1070
     0
  0
VISUALSTYLE
  5
2C
102
{ACAD_REACTORS
330
2A
102
}
330
2A
100
AcDbVisualStyle
  2
FlatWithEdges
 70
     1
 71
     2
 72
     1
 73
     1
 90
        2
 40
-0.6
 41
30.0
 62
     5
 63
     7
 74
     1
 91
        4
 64
     7
 65
   257
 75
     1
175
     1
 42
1.0
 92
        0
 66
   257
 43
1.0
 76
     1
 77
     6
 78
     2
 67
     7
 79
     5
170
     0
171
     0
290
     0
174
     0
 93
       13
 44
0.0
173
     0
291
     1
 45
0.0
1001
ACAD
1000
AcDbSavedByObjectVersion
1070
     0
  0
VISUALSTYLE
  5
2D
102
{ACAD_REACTORS
330
2A
102
}
330
2A
100
AcDbVisualStyle
  2
Gouraud
 70
     2
 71
     2
 72
     2
 73
     1
 90
        2
 40
-0.6
 41
30.0
 62
     5
 63
     7
 74
     0
 91
        4
 64
     7
 65
   257
 75
     1
175
     1
 42
1.0
 92
        0
 66
     7
 43
1.0
 76
     1
 77
     6
 78
     2
 67
     7
 79
     5
170
     0
171
     0
290
     0
174
     0
 93
       13
 44
0.0
173
     0
291
     1
 45
0.0
1001
ACAD
1000
AcDbSavedByObjectVersion
1070
     0
  0
VISUALSTYLE
  5
2E
102
{ACAD_REACTORS
330
2A
102
}
330
2A
100
AcDbVisualStyle
  2
GouraudWithEdges
 70
     3
 71
     2
 72
     2
 73
     1
 90
        2
 40
-0.6
 41
30.0
 62
     5
 63
     7
 74
     1
 91
        4
 64
     7
 65
   257
 75
     1
175
     1
 42
1.0
 92
        0
 66
   257
 43
1.0
 76
     1
 77
     6
 78
     2
 67
     7
 79
     5
170
     0
171
     0
290
     0
174
     0
 93
       13
 44
0.0
173
     0
291
     1
 45
0.0
1001
ACAD
1000
AcDbSavedByObjectVersion
1070
     0
  0
VISUALSTYLE
  5
38
102
{ACAD_REACTORS
330
2A
102
}
330
2A
100
AcDbVisualStyle
  2
Linepattern
 70
    14
 71
     2
 72
     2
 73
     0
 90
        0
 40
-0.6
 41
-30.0
 62
     5
 63
     7
 74
     1
 91
        4
 64
     7
 65
   257
 75
     7
175
     7
 42
1.0
 92
        8
 66
     7
 43
1.0
 76
     1
 77
     6
 78
     2
 67
     7
 79
     5
170
     0
171
     0
290
     0
174
     0
 93
        1
 44
0.0
173
     0
291
     1
 45
0.0
1001
ACAD
1000
AcDbSavedByObjectVersion
1070
     0
  0
VISUALSTYLE
  5
33
102
{ACAD_REACTORS
330
2A
102
}
330
2A
100
AcDbVisualStyle
  2
Realistic
 70
     8
 71
     2
 72
     2
 73
     0
 90
        0
 40
-0.6
 41
-30.0
 62
     5
 63
     7
 74
     1
 91
        0
 64
     7
 65
   257
 75
     1
175
     1
 42
1.0
 92
        8
 66
     8
 43
1.0
 76
     1
 77
     6
 78
     2
 67
     7
 79
     5
170
     0
171
     0
290
     0
174
     0
 93
       13
 44
0.0
173
     0
291
     0
 45
0.0
1001
ACAD
1000
AcDbSavedByObjectVersion
1070
     0
  0
VISUALSTYLE
  5
37
102
{ACAD_REACTORS
330
2A
102
}
330
2A
100
AcDbVisualStyle
  2
Thicken
 70
    13
 71
     2
 72
     2
 73
     0
 90
        0
 40
-0.6
 41
-30.0
 62
     5
 63
     7
 74
     1
 91
        4
 64
     7
 65
   257
 75
     1
175
     1
 42
1.0
 92
       12
 66
     7
 43
1.0
 76
     1
 77
     6
 78
     2
 67
     7
 79
     5
170
     0
171
     0
290
     0
174
     0
 93
        1
 44
0.0
173
     0
291
     1
 45
0.0
1001
ACAD
1000
AcDbSavedByObjectVersion
1070
     0
  0
DICTIONARYVAR
  5
584
102
{ACAD_REACTORS
330
580
102
}
330
580
100
DictionaryVariables
280
     0
  1
1:1
  0
DICTIONARYVAR
  5
582
102
{ACAD_REACTORS
330
580
102
}
330
580
100
DictionaryVariables
280
     0
  1
STANDARD
  0
DICTIONARYVAR
  5
581
102
{ACAD_REACTORS
330
580
102
}
330
580
100
DictionaryVariables
280
     0
  1
STANDARD
  0
DICTIONARYVAR
  5
586
102
{ACAD_REACTORS
330
580
102
}
330
580
100
DictionaryVariables
280
     0
  1
1
  0
DICTIONARYVAR
  5
587
102
{ACAD_REACTORS
330
580
102
}
330
580
100
DictionaryVariables
280
     0
  1
15
  0
DICTIONARYVAR
  5
585
102
{ACAD_REACTORS
330
580
102
}
330
580
100
DictionaryVariables
280
     0
  1
0
  0
DICTIONARYVAR
  5
583
102
{ACAD_REACTORS
330
580
102
}
330
580
100
DictionaryVariables
280
     0
  1
0
  0
DICTIONARY
  5
500
330
4FF
100
AcDbDictionary
280
     1
281
     1
  3
BUMPTILE
360
502
  3
DIFFUSETILE
360
501
  3
OPACITYTILE
360
505
  3
REFLECTIONTILE
360
504
  3
REFRACTIONTILE
360
506
  3
SPECULARTILE
360
503
  0
DICTIONARY
  5
4F8
330
4F7
100
AcDbDictionary
280
     1
281
     1
  3
BUMPTILE
360
4FA
  3
DIFFUSETILE
360
4F9
  3
OPACITYTILE
360
4FD
  3
REFLECTIONTILE
360
4FC
  3
REFRACTIONTILE
360
4FE
  3
SPECULARTILE
360
4FB
  0
DICTIONARY
  5
508
330
507
100
AcDbDictionary
280
     1
281
     1
  3
BUMPTILE
360
50A
  3
DIFFUSETILE
360
509
  3
OPACITYTILE
360
50D
  3
REFLECTIONTILE
360
50C
  3
REFRACTIONTILE
360
50E
  3
SPECULARTILE
360
50B
  0
DICTIONARY
  5
588
330
510
100
AcDbDictionary
280
     1
281
     1
  3
ACAD_ROUNDTRIP_2008_TABLESTYLE_CELLSTYLEMAP
360
589
  0
XRECORD
  5
502
102
{ACAD_REACTORS
330
500
102
}
330
500
100
AcDbXrecord
280
     1
270
     1
271
     1
  0
XRECORD
  5
501
102
{ACAD_REACTORS
330
500
102
}
330
500
100
AcDbXrecord
280
     1
270
     1
271
     1
  0
XRECORD
  5
505
102
{ACAD_REACTORS
330
500
102
}
330
500
100
AcDbXrecord
280
     1
270
     1
271
     1
  0
XRECORD
  5
504
102
{ACAD_REACTORS
330
500
102
}
330
500
100
AcDbXrecord
280
     1
270
     1
271
     1
  0
XRECORD
  5
506
102
{ACAD_REACTORS
330
500
102
}
330
500
100
AcDbXrecord
280
     1
270
     1
271
     1
  0
XRECORD
  5
503
102
{ACAD_REACTORS
330
500
102
}
330
500
100
AcDbXrecord
280
     1
270
     1
271
     1
  0
XRECORD
  5
4FA
102
{ACAD_REACTORS
330
4F8
102
}
330
4F8
100
AcDbXrecord
280
     1
270
     1
271
     1
  0
XRECORD
  5
4F9
102
{ACAD_REACTORS
330
4F8
102
}
330
4F8
100
AcDbXrecord
280
     1
270
     1
271
     1
  0
XRECORD
  5
4FD
102
{ACAD_REACTORS
330
4F8
102
}
330
4F8
100
AcDbXrecord
280
     1
270
     1
271
     1
  0
XRECORD
  5
4FC
102
{ACAD_REACTORS
330
4F8
102
}
330
4F8
100
AcDbXrecord
280
     1
270
     1
271
     1
  0
XRECORD
  5
4FE
102
{ACAD_REACTORS
330
4F8
102
}
330
4F8
100
AcDbXrecord
280
     1
270
     1
271
     1
  0
XRECORD
  5
4FB
102
{ACAD_REACTORS
330
4F8
102
}
330
4F8
100
AcDbXrecord
280
     1
270
     1
271
     1
  0
XRECORD
  5
50A
102
{ACAD_REACTORS
330
508
102
}
330
508
100
AcDbXrecord
280
     1
270
     1
271
     1
  0
XRECORD
  5
509
102
{ACAD_REACTORS
330
508
102
}
330
508
100
AcDbXrecord
280
     1
270
     1
271
     1
  0
XRECORD
  5
50D
102
{ACAD_REACTORS
330
508
102
}
330
508
100
AcDbXrecord
280
     1
270
     1
271
     1
  0
XRECORD
  5
50C
102
{ACAD_REACTORS
330
508
102
}
330
508
100
AcDbXrecord
280
     1
270
     1
271
     1
  0
XRECORD
  5
50E
102
{ACAD_REACTORS
330
508
102
}
330
508
100
AcDbXrecord
280
     1
270
     1
271
     1
  0
XRECORD
  5
50B
102
{ACAD_REACTORS
330
508
102
}
330
508
100
AcDbXrecord
280
     1
270
     1
271
     1
  0
CELLSTYLEMAP
  5
589
102
{ACAD_REACTORS
330
588
102
}
330
588
100
AcDbCellStyleMap
 90
        3
300
CELLSTYLE
  1
TABLEFORMAT_BEGIN
 90
        5
170
     1
 91
        0
 92
    32768
 62
   257
 93
        1
300
CONTENTFORMAT
  1
CONTENTFORMAT_BEGIN
 90
        0
 91
        0
 92
      512
 93
        0
300

 40
0.0
140
1.0
 94
        5
 62
     0
340
11
144
0.25
309
CONTENTFORMAT_END
171
     0
 94
        0
309
TABLEFORMAT_END
  1
CELLSTYLE_BEGIN
 90
        1
 91
        1
300
_TITLE
309
CELLSTYLE_END
300
CELLSTYLE
  1
TABLEFORMAT_BEGIN
 90
        5
170
     1
 91
        0
 92
        0
 62
   257
 93
        1
300
CONTENTFORMAT
  1
CONTENTFORMAT_BEGIN
 90
        0
 91
        0
 92
      512
 93
        0
300

 40
0.0
140
1.0
 94
        5
 62
     0
340
11
144
0.18
309
CONTENTFORMAT_END
171
     0
 94
        0
309
TABLEFORMAT_END
  1
CELLSTYLE_BEGIN
 90
        2
 91
        1
300
_HEADER
309
CELLSTYLE_END
300
CELLSTYLE
  1
TABLEFORMAT_BEGIN
 90
        5
170
     1
 91
        0
 92
        0
 62
   257
 93
        1
300
CONTENTFORMAT
  1
CONTENTFORMAT_BEGIN
 90
        0
 91
        0
 92
      512
 93
        0
300

 40
0.0
140
1.0
 94
        2
 62
     0
340
11
144
0.18
309
CONTENTFORMAT_END
171
     0
 94
        0
309
TABLEFORMAT_END
  1
CELLSTYLE_BEGIN
 90
        3
 91
        2
300
_DATA
309
CELLSTYLE_END
  0
ENDSEC
  0
EOF
