  0
SECTION
  2
HEADER
  9
$ACADVER
  1
AC1021
  9
$ACADMAINTVER
 70
    50
  9
$DWGCODEPAGE
  3
ANSI_1252
  9
$LASTSAVEDBY
  1
François
  9
$INSBASE
 10
203.2564995
 20
147.20583
 30
0.0
  9
$EXTMIN
 10
164.0762793103237
 20
144.947773
 30
-0.0015258207003583
  9
$EXTMAX
 10
214.954118
 20
173.7824585195357
 30
0.0000000349246037
  9
$LIMMIN
 10
185.933698
 20
145.786106
  9
$LIMMAX
 10
214.06652
 20
154.214187
  9
$ORTHOMODE
 70
     0
  9
$REGENMODE
 70
     1
  9
$FILLMODE
 70
     1
  9
$QTEXTMODE
 70
     0
  9
$MIRRTEXT
 70
     1
  9
$LTSCALE
 40
1.0
  9
$ATTMODE
 70
     1
  9
$TEXTSIZE
 40
0.0
  9
$TRACEWID
 40
0.05
  9
$TEXTSTYLE
  7
Standard
  9
$CLAYER
  8
Cotation-JacobDelafon
  9
$CELTYPE
  6
Continuous
  9
$CECOLOR
 62
   256
  9
$CELTSCALE
 40
1.0
  9
$DISPSILH
 70
     0
  9
$DIMSCALE
 40
1.0
  9
$DIMASZ
 40
1.8
  9
$DIMEXO
 40
0.625
  9
$DIMDLI
 40
3.799999999999998
  9
$DIMRND
 40
0.0
  9
$DIMDLE
 40
0.0
  9
$DIMEXE
 40
1.8
  9
$DIMTP
 40
0.0
  9
$DIMTM
 40
0.0
  9
$DIMTXT
 40
3.0
  9
$DIMCEN
 40
0.9
  9
$DIMTSZ
 40
0.0
  9
$DIMTOL
 70
     0
  9
$DIMLIM
 70
     0
  9
$DIMTIH
 70
     0
  9
$DIMTOH
 70
     0
  9
$DIMSE1
 70
     0
  9
$DIMSE2
 70
     0
  9
$DIMTAD
 70
     1
  9
$DIMZIN
 70
    12
  9
$DIMBLK
  1
Oblique
  9
$DIMASO
 70
     1
  9
$DIMSHO
 70
     1
  9
$DIMPOST
  1

  9
$DIMAPOST
  1

  9
$DIMALT
 70
     0
  9
$DIMALTD
 70
     2
  9
$DIMALTF
 40
25.4
  9
$DIMLFAC
 40
1.0
  9
$DIMTOFL
 70
     0
  9
$DIMTVP
 40
0.0
  9
$DIMTIX
 70
     0
  9
$DIMSOXD
 70
     0
  9
$DIMSAH
 70
     0
  9
$DIMBLK1
  1

  9
$DIMBLK2
  1

  9
$DIMSTYLE
  2
Cotation-Jacob-Delafon
  9
$DIMCLRD
 70
     0
  9
$DIMCLRE
 70
     0
  9
$DIMCLRT
 70
     0
  9
$DIMTFAC
 40
1.0
  9
$DIMGAP
 40
0.9
  9
$DIMJUST
 70
     0
  9
$DIMSD1
 70
     0
  9
$DIMSD2
 70
     0
  9
$DIMTOLJ
 70
     1
  9
$DIMTZIN
 70
     0
  9
$DIMALTZ
 70
     0
  9
$DIMALTTZ
 70
     0
  9
$DIMUPT
 70
     0
  9
$DIMDEC
 70
     2
  9
$DIMTDEC
 70
     2
  9
$DIMALTU
 70
     2
  9
$DIMALTTD
 70
     2
  9
$DIMTXSTY
  7
Jacob-Delafon
  9
$DIMAUNIT
 70
     0
  9
$DIMADEC
 70
     0
  9
$DIMALTRND
 40
0.0
  9
$DIMAZIN
 70
     3
  9
$DIMDSEP
 70
    46
  9
$DIMATFIT
 70
     3
  9
$DIMFRAC
 70
     0
  9
$DIMLDRBLK
  1
Oblique
  9
$DIMLUNIT
 70
     2
  9
$DIMLWD
 70
    -2
  9
$DIMLWE
 70
    -2
  9
$DIMTMOVE
 70
     2
  9
$DIMFXL
 40
1.0
  9
$DIMFXLON
 70
     0
  9
$DIMJOGANG
 40
0.7853981633974483
  9
$DIMTFILL
 70
     0
  9
$DIMTFILLCLR
 70
     0
  9
$DIMARCSYM
 70
     0
  9
$DIMLTYPE
  6

  9
$DIMLTEX1
  6

  9
$DIMLTEX2
  6

  9
$LUNITS
 70
     2
  9
$LUPREC
 70
     4
  9
$SKETCHINC
 40
0.1
  9
$FILLETRAD
 40
0.0
  9
$AUNITS
 70
     0
  9
$AUPREC
 70
     0
  9
$MENU
  1
acad
  9
$ELEVATION
 40
0.0
  9
$PELEVATION
 40
0.0
  9
$THICKNESS
 40
0.0
  9
$LIMCHECK
 70
     0
  9
$CHAMFERA
 40
0.0
  9
$CHAMFERB
 40
0.0
  9
$CHAMFERC
 40
0.0
  9
$CHAMFERD
 40
0.0
  9
$SKPOLY
 70
     0
  9
$TDCREATE
 40
2455576.760404005
  9
$TDUCREATE
 40
2455576.718737338
  9
$TDUPDATE
 40
2455576.784731979
  9
$TDUUPDATE
 40
2455576.743065313
  9
$TDINDWG
 40
0.0243294213
  9
$TDUSRTIMER
 40
0.0243294213
  9
$USRTIMER
 70
     1
  9
$ANGBASE
 50
0.0
  9
$ANGDIR
 70
     0
  9
$PDMODE
 70
     0
  9
$PDSIZE
 40
0.0
  9
$PLINEWID
 40
0.0
  9
$SPLFRAME
 70
     0
  9
$SPLINETYPE
 70
     6
  9
$SPLINESEGS
 70
     8
  9
$HANDSEED
  5
269
  9
$SURFTAB1
 70
     6
  9
$SURFTAB2
 70
     6
  9
$SURFTYPE
 70
     6
  9
$SURFU
 70
     6
  9
$SURFV
 70
     6
  9
$UCSBASE
  2

  9
$UCSNAME
  2

  9
$UCSORG
 10
0.0
 20
0.0
 30
0.0
  9
$UCSXDIR
 10
1.0
 20
0.0
 30
0.0
  9
$UCSYDIR
 10
0.0
 20
1.0
 30
0.0
  9
$UCSORTHOREF
  2

  9
$UCSORTHOVIEW
 70
     0
  9
$UCSORGTOP
 10
0.0
 20
0.0
 30
0.0
  9
$UCSORGBOTTOM
 10
0.0
 20
0.0
 30
0.0
  9
$UCSORGLEFT
 10
0.0
 20
0.0
 30
0.0
  9
$UCSORGRIGHT
 10
0.0
 20
0.0
 30
0.0
  9
$UCSORGFRONT
 10
0.0
 20
0.0
 30
0.0
  9
$UCSORGBACK
 10
0.0
 20
0.0
 30
0.0
  9
$PUCSBASE
  2

  9
$PUCSNAME
  2

  9
$PUCSORG
 10
0.0
 20
0.0
 30
0.0
  9
$PUCSXDIR
 10
1.0
 20
0.0
 30
0.0
  9
$PUCSYDIR
 10
0.0
 20
1.0
 30
0.0
  9
$PUCSORTHOREF
  2

  9
$PUCSORTHOVIEW
 70
     0
  9
$PUCSORGTOP
 10
0.0
 20
0.0
 30
0.0
  9
$PUCSORGBOTTOM
 10
0.0
 20
0.0
 30
0.0
  9
$PUCSORGLEFT
 10
0.0
 20
0.0
 30
0.0
  9
$PUCSORGRIGHT
 10
0.0
 20
0.0
 30
0.0
  9
$PUCSORGFRONT
 10
0.0
 20
0.0
 30
0.0
  9
$PUCSORGBACK
 10
0.0
 20
0.0
 30
0.0
  9
$USERI1
 70
     0
  9
$USERI2
 70
     0
  9
$USERI3
 70
     0
  9
$USERI4
 70
     0
  9
$USERI5
 70
     0
  9
$USERR1
 40
0.0
  9
$USERR2
 40
0.0
  9
$USERR3
 40
0.0
  9
$USERR4
 40
0.0
  9
$USERR5
 40
0.0
  9
$WORLDVIEW
 70
     1
  9
$SHADEDGE
 70
     3
  9
$SHADEDIF
 70
    70
  9
$TILEMODE
 70
     1
  9
$MAXACTVP
 70
    16
  9
$PINSBASE
 10
0.0
 20
0.0
 30
0.0
  9
$PLIMCHECK
 70
     0
  9
$PEXTMIN
 10
1.000000000000000E+20
 20
1.000000000000000E+20
 30
1.000000000000000E+20
  9
$PEXTMAX
 10
-1.000000000000000E+20
 20
-1.000000000000000E+20
 30
-1.000000000000000E+20
  9
$PLIMMIN
 10
0.0
 20
0.0
  9
$PLIMMAX
 10
12.0
 20
9.0
  9
$UNITMODE
 70
     0
  9
$VISRETAIN
 70
     0
  9
$PLINEGEN
 70
     1
  9
$PSLTSCALE
 70
     0
  9
$TREEDEPTH
 70
  3020
  9
$CMLSTYLE
  2
Standard
  9
$CMLJUST
 70
     0
  9
$CMLSCALE
 40
1.0
  9
$PROXYGRAPHICS
 70
     0
  9
$MEASUREMENT
 70
     1
  9
$CELWEIGHT
370
     0
  9
$ENDCAPS
280
     0
  9
$JOINSTYLE
280
     0
  9
$LWDISPLAY
290
     0
  9
$INSUNITS
 70
     0
  9
$HYPERLINKBASE
  1

  9
$STYLESHEET
  1

  9
$XEDIT
290
     1
  9
$CEPSNTYPE
380
     0
  9
$PSTYLEMODE
290
     1
  9
$FINGERPRINTGUID
  2

  9
$VERSIONGUID
  2
{AD18F9CE-DB14-4EED-BA45-E24250D2FD08}
  9
$EXTNAMES
290
     1
  9
$PSVPSCALE
 40
0.0
  9
$OLESTARTUP
290
     0
  9
$SORTENTS
280
   127
  9
$INDEXCTL
280
     0
  9
$HIDETEXT
280
     0
  9
$XCLIPFRAME
290
     0
  9
$HALOGAP
280
     0
  9
$OBSCOLOR
 70
   257
  9
$OBSLTYPE
280
     0
  9
$INTERSECTIONDISPLAY
280
     0
  9
$INTERSECTIONCOLOR
 70
   257
  9
$DIMASSOC
280
     1
  9
$PROJECTNAME
  1

  9
$CAMERADISPLAY
290
     0
  9
$LENSLENGTH
 40
50.0
  9
$CAMERAHEIGHT
 40
0.0
  9
$STEPSPERSEC
 40
2.0
  9
$STEPSIZE
 40
6.0
  9
$3DDWFPREC
 40
2.0
  9
$PSOLWIDTH
 40
0.25
  9
$PSOLHEIGHT
 40
4.0
  9
$LOFTANG1
 40
1.570796326794896
  9
$LOFTANG2
 40
1.570796326794896
  9
$LOFTMAG1
 40
0.0
  9
$LOFTMAG2
 40
0.0
  9
$LOFTPARAM
 70
     7
  9
$LOFTNORMALS
280
     1
  9
$LATITUDE
 40
37.795
  9
$LONGITUDE
 40
-122.394
  9
$NORTHDIRECTION
 40
0.0
  9
$TIMEZONE
 70
 -8000
  9
$LIGHTGLYPHDISPLAY
280
     1
  9
$TILEMODELIGHTSYNCH
280
     1
  9
$CMATERIAL
347
1BE
  9
$SOLIDHIST
280
     1
  9
$SHOWHIST
280
     1
  9
$DWFFRAME
280
     2
  9
$DGNFRAME
280
     0
  9
$REALWORLDSCALE
290
     1
  9
$INTERFERECOLOR
 62
     1
  9
$INTERFEREOBJVS
345
1E0
  9
$INTERFEREVPVS
346
1DD
  9
$CSHADOW
280
     0
  9
$SHADOWPLANELOCATION
 40
0.0
  0
ENDSEC
  0
SECTION
  2
CLASSES
  0
CLASS
  1
IMAGE
  2
AcDbRasterImage
  3
ISM
 90
     2175
 91
        0
280
     0
281
     1
  0
CLASS
  1
DICTIONARYVAR
  2
AcDbDictionaryVar
  3
ObjectDBX Classes
 90
        0
 91
       14
280
     0
281
     0
  0
CLASS
  1
RASTERVARIABLES
  2
AcDbRasterVariables
  3
ISM
 90
        0
 91
        0
280
     0
281
     0
  0
CLASS
  1
IMAGEDEF
  2
AcDbRasterImageDef
  3
ISM
 90
        0
 91
        0
280
     0
281
     0
  0
CLASS
  1
IMAGEDEF_REACTOR
  2
AcDbRasterImageDefReactor
  3
ISM
 90
        1
 91
        0
280
     0
281
     0
  0
CLASS
  1
IDBUFFER
  2
AcDbIdBuffer
  3
ObjectDBX Classes
 90
        0
 91
        0
280
     0
281
     0
  0
CLASS
  1
SPATIAL_FILTER
  2
AcDbSpatialFilter
  3
ObjectDBX Classes
 90
        0
 91
        0
280
     0
281
     0
  0
CLASS
  1
SORTENTSTABLE
  2
AcDbSortentsTable
  3
ObjectDBX Classes
 90
        0
 91
        0
280
     0
281
     0
  0
CLASS
  1
LAYER_INDEX
  2
AcDbLayerIndex
  3
ObjectDBX Classes
 90
        0
 91
        0
280
     0
281
     0
  0
CLASS
  1
SPATIAL_INDEX
  2
AcDbSpatialIndex
  3
ObjectDBX Classes
 90
        0
 91
        0
280
     0
281
     0
  0
CLASS
  1
OBJECT_PTR
  2
CAseDLPNTableRecord
  3
"ASE-LPNTableRecord"
 90
        1
 91
        0
280
     0
281
     0
  0
CLASS
  1
PLOTSETTINGS
  2
AcDbPlotSettings
  3
ObjectDBX Classes
 90
        0
 91
        0
280
     0
281
     0
  0
CLASS
  1
ACDBDICTIONARYWDFLT
  2
AcDbDictionaryWithDefault
  3
ObjectDBX Classes
 90
        0
 91
        1
280
     0
281
     0
  0
CLASS
  1
WIPEOUT
  2
AcDbWipeout
  3
"WipeOut|Product Desc: Object Enabler for WipeOut entity                        |Company: Autodesk, Inc.                        |WEB Address: www.autodesk.com"
 90
     2175
 91
        0
280
     0
281
     1
  0
CLASS
  1
WIPEOUTVARIABLES
  2
AcDbWipeoutVariables
  3
"WipeOut|Product Desc:     WipeOut Dbx Application|Company:          Autodesk, Inc.|WEB Address:      www.autodesk.com"
 90
        0
 91
        1
280
     0
281
     0
  0
CLASS
  1
RTEXT
  2
RText
  3
RText|AutoCAD Express Tool|expresstools@autodesk.com
 90
        0
 91
        0
280
     0
281
     1
  0
CLASS
  1
ARCALIGNEDTEXT
  2
AcDbArcAlignedText
  3
ATEXT|AutoCAD Express Tool|expresstools@autodesk.com
 90
        0
 91
        0
280
     0
281
     1
  0
CLASS
  1
MATERIAL
  2
AcDbMaterial
  3
ObjectDBX Classes
 90
     1153
 91
        3
280
     0
281
     0
  0
CLASS
  1
VISUALSTYLE
  2
AcDbVisualStyle
  3
ObjectDBX Classes
 90
     4095
 91
       16
280
     0
281
     0
  0
CLASS
  1
TABLESTYLE
  2
AcDbTableStyle
  3
ObjectDBX Classes
 90
     4095
 91
        1
280
     0
281
     0
  0
CLASS
  1
SCALE
  2
AcDbScale
  3
ObjectDBX Classes
 90
     1153
 91
       17
280
     0
281
     0
  0
CLASS
  1
MLEADERSTYLE
  2
AcDbMLeaderStyle
  3
ACDB_MLEADERSTYLE_CLASS
 90
     4095
 91
        1
280
     0
281
     0
  0
CLASS
  1
AEC_REFEDIT_STATUS_TRACKER
  2
AecDbRefEditStatusTracker
  3
AecArchBase50|Product Desc: Autodesk Architectural Desktop 2007 |Company: Autodesk,Inc. |WEB Address: www.autodesk.com
 90
      129
 91
        1
280
     0
281
     0
  0
CLASS
  1
NPOCOLLECTION
  2
AcDbImpNonPersistentObjectsCollection
  3
ObjectDBX Classes
 90
     1153
 91
        1
280
     0
281
     0
  0
CLASS
  1
CELLSTYLEMAP
  2
AcDbCellStyleMap
  3
ObjectDBX Classes
 90
     1152
 91
        2
280
     0
281
     0
  0
ENDSEC
  0
SECTION
  2
TABLES
  0
TABLE
  2
VPORT
  5
7
330
0
100
AcDbSymbolTable
 70
     1
  0
VPORT
  5
15
330
7
100
AcDbSymbolTableRecord
100
AcDbViewportTableRecord
  2
*ACTIVE
 70
     0
 10
0.0
 20
0.0
 11
1.0
 21
1.0
 12
187.4489093609587
 22
158.6569878640766
 13
0.0
 23
0.0
 14
1.0
 24
1.0
 15
0.0
 25
0.0
 16
0.0
 26
0.0
 36
1.0
 17
0.0
 27
0.0
 37
0.0
 40
55.27673394336273
 41
1.31063829787234
 42
50.0
 43
0.0
 44
0.0
 50
0.0
 51
0.0
 71
     0
 72
   100
 73
     1
 74
     1
 75
     0
 76
     0
 77
     0
 78
     0
281
     0
 65
     0
110
0.0
120
0.0
130
0.0
111
1.0
121
0.0
131
0.0
112
0.0
122
1.0
132
0.0
 79
     0
146
0.0
348
1DC
 60
     3
 61
     5
292
     1
282
     1
141
0.0
142
0.0
 63
   250
421
  3355443
  0
ENDTAB
  0
TABLE
  2
LTYPE
  5
4
330
0
100
AcDbSymbolTable
 70
     1
  0
LTYPE
  5
11
330
4
100
AcDbSymbolTableRecord
100
AcDbLinetypeTableRecord
  2
ByBlock
 70
     0
  3

 72
    65
 73
     0
 40
0.0
  0
LTYPE
  5
12
330
4
100
AcDbSymbolTableRecord
100
AcDbLinetypeTableRecord
  2
ByLayer
 70
     0
  3

 72
    65
 73
     0
 40
0.0
  0
LTYPE
  5
13
330
4
100
AcDbSymbolTableRecord
100
AcDbLinetypeTableRecord
  2
Continuous
 70
     0
  3
Solid line
 72
    65
 73
     0
 40
0.0
  0
ENDTAB
  0
TABLE
  2
LAYER
  5
2
330
0
100
AcDbSymbolTable
 70
     3
  0
LAYER
  5
14
102
{ACAD_XDICTIONARY
360
25B
102
}
330
2
100
AcDbSymbolTableRecord
100
AcDbLayerTableRecord
  2
0
 70
     0
 62
     7
  6
Continuous
370
    -3
390
1D
347
1CE
  0
LAYER
  5
206
330
2
100
AcDbSymbolTableRecord
100
AcDbLayerTableRecord
  2
Defpoints
 70
     0
 62
     7
  6
Continuous
290
     0
370
    -3
390
1D
347
1CE
  0
LAYER
  5
214
102
{ACAD_XDICTIONARY
360
215
102
}
330
2
100
AcDbSymbolTableRecord
100
AcDbLayerTableRecord
  2
Cotation-JacobDelafon
 70
     0
 62
     8
  6
Continuous
370
    -3
390
1D
347
1CE
  0
ENDTAB
  0
TABLE
  2
STYLE
  5
3
330
0
100
AcDbSymbolTable
 70
     7
  0
STYLE
  5
17
330
3
100
AcDbSymbolTableRecord
100
AcDbTextStyleTableRecord
  2
Standard
 70
     0
 40
0.0
 41
1.0
 50
0.0
 71
     0
 42
0.0
  3
txt
  4

  0
STYLE
  5
24
330
3
100
AcDbSymbolTableRecord
100
AcDbTextStyleTableRecord
  2
STD
 70
     0
 40
0.0
 41
1.0
 50
0.0
 71
     0
 42
0.0
  3
txt
  4

  0
STYLE
  5
25
330
3
100
AcDbSymbolTableRecord
100
AcDbTextStyleTableRecord
  2
TATESTD
 70
     4
 40
0.0
 41
1.0
 50
0.0
 71
     0
 42
0.0
  3
txt
  4

  0
STYLE
  5
26
330
3
100
AcDbSymbolTableRecord
100
AcDbTextStyleTableRecord
  2
KANJISTD
 70
     0
 40
0.0
 41
1.0
 50
0.0
 71
     0
 42
0.0
  3
txt
  4
extfont
  0
STYLE
  5
27
330
3
100
AcDbSymbolTableRecord
100
AcDbTextStyleTableRecord
  2
KANJITATE
 70
     4
 40
0.0
 41
1.0
 50
0.0
 71
     0
 42
0.0
  3
txt
  4
extfont
  0
STYLE
  5
207
330
3
100
AcDbSymbolTableRecord
100
AcDbTextStyleTableRecord
  2
Annotative
 70
     0
 40
0.0
 41
1.0
 50
0.0
 71
     0
 42
0.2
  3
txt
  4

1001
AcadAnnotative
1000
AnnotativeData
1002
{
1070
     1
1070
     1
1002
}
  0
STYLE
  5
208
330
3
100
AcDbSymbolTableRecord
100
AcDbTextStyleTableRecord
  2
Jacob-Delafon
 70
     0
 40
0.0
 41
1.0
 50
0.0
 71
     0
 42
2.5
  3
ARIAL.TTF
  4

1001
ACAD
1000
Arial
1071
       34
  0
ENDTAB
  0
TABLE
  2
VIEW
  5
5
330
0
100
AcDbSymbolTable
 70
     0
  0
ENDTAB
  0
TABLE
  2
UCS
  5
6
330
0
100
AcDbSymbolTable
 70
     0
  0
ENDTAB
  0
TABLE
  2
APPID
  5
8
330
0
100
AcDbSymbolTable
 70
     3
  0
APPID
  5
16
330
8
100
AcDbSymbolTableRecord
100
AcDbRegAppTableRecord
  2
ACAD
 70
     0
  0
APPID
  5
1FE
330
8
100
AcDbSymbolTableRecord
100
AcDbRegAppTableRecord
  2
ACAD_MLEADERVER
 70
     0
  0
APPID
  5
20B
330
8
100
AcDbSymbolTableRecord
100
AcDbRegAppTableRecord
  2
AcadAnnotative
 70
     0
  0
ENDTAB
  0
TABLE
  2
DIMSTYLE
  5
9
330
0
100
AcDbSymbolTable
 70
     3
100
AcDbDimStyleTable
 71
     1
340
20A
  0
DIMSTYLE
105
18
330
9
100
AcDbSymbolTableRecord
100
AcDbDimStyleTableRecord
  2
Standard
 70
     0
340
17
  0
DIMSTYLE
105
209
330
9
100
AcDbSymbolTableRecord
100
AcDbDimStyleTableRecord
  2
Annotative
 70
     0
340
17
1001
AcadAnnotative
1000
AnnotativeData
1002
{
1070
     1
1070
     1
1002
}
  0
DIMSTYLE
105
20A
102
{ACAD_REACTORS
330
21B
330
228
102
}
330
9
100
AcDbSymbolTableRecord
100
AcDbDimStyleTableRecord
  2
Cotation-Jacob-Delafon
 70
     0
 41
1.8
 42
0.625
 43
3.799999999999998
 44
1.8
 73
     0
 74
     0
 77
     1
 78
    12
 79
     3
140
3.0
141
0.9
147
0.9
271
     2
272
     2
279
     2
340
208
341
202
342
202
  0
ENDTAB
  0
TABLE
  2
BLOCK_RECORD
  5
1
330
0
100
AcDbSymbolTable
 70
     5
  0
BLOCK_RECORD
  5
A
330
1
100
AcDbSymbolTableRecord
100
AcDbBlockTableRecord
  2
*MODEL_SPACE
340
20
 70
     0
280
     1
281
     0
  0
BLOCK_RECORD
  5
B
330
1
100
AcDbSymbolTableRecord
100
AcDbBlockTableRecord
  2
*PAPER_SPACE
340
21
 70
     0
280
     1
281
     0
  0
BLOCK_RECORD
  5
202
330
1
100
AcDbSymbolTableRecord
100
AcDbBlockTableRecord
  2
_Oblique
340
0
102
{BLKREFS
331
24C
331
24D
331
255
331
256
102
}
 70
     0
280
     1
281
     0
  0
BLOCK_RECORD
  5
21C
330
1
100
AcDbSymbolTableRecord
100
AcDbBlockTableRecord
  2
*D3
340
0
 70
     0
280
     1
281
     0
  0
BLOCK_RECORD
  5
229
330
1
100
AcDbSymbolTableRecord
100
AcDbBlockTableRecord
  2
*D4
340
0
 70
     0
280
     1
281
     0
  0
ENDTAB
  0
ENDSEC
  0
SECTION
  2
BLOCKS
  0
BLOCK
  5
D
330
A
100
AcDbEntity
  8
0
100
AcDbBlockBegin
  2
*MODEL_SPACE
 70
     0
 10
0.0
 20
0.0
 30
0.0
  3
*MODEL_SPACE
  1

  0
ENDBLK
  5
E
330
A
100
AcDbEntity
  8
0
100
AcDbBlockEnd
  0
BLOCK
  5
F
330
B
100
AcDbEntity
 67
     1
  8
0
100
AcDbBlockBegin
  2
*PAPER_SPACE
 70
     0
 10
0.0
 20
0.0
 30
0.0
  3
*PAPER_SPACE
  1

  0
ENDBLK
  5
10
330
B
100
AcDbEntity
 67
     1
  8
0
100
AcDbBlockEnd
  0
BLOCK
  5
203
330
202
100
AcDbEntity
  8
0
100
AcDbBlockBegin
  2
_Oblique
 70
     0
 10
0.0
 20
0.0
 30
0.0
  3
_Oblique
  1

  0
LINE
  5
204
330
202
100
AcDbEntity
  8
0
  6
ByBlock
 62
     0
370
    -2
380
     1
100
AcDbLine
 10
-0.5
 20
-0.5
 30
0.0
 11
0.5
 21
0.5
 31
0.0
  0
ENDBLK
  5
205
330
202
100
AcDbEntity
  8
0
100
AcDbBlockEnd
  0
BLOCK
  5
21D
330
21C
100
AcDbEntity
  8
0
370
     0
100
AcDbBlockBegin
  2
*D3
 70
     1
 10
0.0
 20
0.0
 30
0.0
  3
*D3
  1

  0
LINE
  5
249
330
21C
100
AcDbEntity
  8
Cotation-JacobDelafon
  6
Continuous
 62
     0
370
    -2
100
AcDbLine
 10
185.946273
 20
149.912356
 30
0.0
 11
185.946273
 21
170.8311624758795
 31
0.0
  0
LINE
  5
24A
330
21C
100
AcDbEntity
  8
Cotation-JacobDelafon
  6
Continuous
 62
     0
370
    -2
100
AcDbLine
 10
214.054118
 20
150.831508
 30
0.0
 11
214.054118
 21
170.8311624758795
 31
0.0
  0
LINE
  5
24B
330
21C
100
AcDbEntity
  8
Cotation-JacobDelafon
  6
Continuous
 62
     0
370
    -2
100
AcDbLine
 10
185.946273
 20
169.0311624758795
 30
0.0
 11
214.054118
 21
169.0311624758795
 31
0.0
  0
INSERT
  5
24C
330
21C
100
AcDbEntity
  8
Cotation-JacobDelafon
  6
Continuous
 62
     0
370
    -2
100
AcDbBlockReference
  2
_Oblique
 10
185.946273
 20
169.0311624758795
 30
0.0
 41
1.8
 42
1.8
 43
1.8
 50
180.0
  0
INSERT
  5
24D
330
21C
100
AcDbEntity
  8
Cotation-JacobDelafon
  6
Continuous
 62
     0
370
    -2
100
AcDbBlockReference
  2
_Oblique
 10
214.054118
 20
169.0311624758795
 30
0.0
 41
1.8
 42
1.8
 43
1.8
  0
MTEXT
  5
24E
330
21C
100
AcDbEntity
  8
Cotation-JacobDelafon
  6
Continuous
 62
     0
370
     0
100
AcDbMText
 10
200.0001955
 20
171.4628814390446
 30
0.0
 40
3.0
 41
0.0
 46
0.0
 71
     5
 72
     1
  1
\A1;28.1
  7
Jacob-Delafon
 73
     1
 44
1.0
  0
POINT
  5
24F
330
21C
100
AcDbEntity
  8
Defpoints
  6
Continuous
 62
     0
370
     0
100
AcDbPoint
 10
185.946273
 20
149.287356
 30
0.0
  0
POINT
  5
250
330
21C
100
AcDbEntity
  8
Defpoints
  6
Continuous
 62
     0
370
     0
100
AcDbPoint
 10
214.054118
 20
150.206508
 30
0.0
  0
POINT
  5
251
330
21C
100
AcDbEntity
  8
Defpoints
  6
Continuous
 62
     0
370
     0
100
AcDbPoint
 10
214.054118
 20
169.0311624758795
 30
0.0
  0
ENDBLK
  5
21E
330
21C
100
AcDbEntity
  8
0
370
     0
100
AcDbBlockEnd
  0
BLOCK
  5
22A
330
229
100
AcDbEntity
  8
0
370
     0
100
AcDbBlockBegin
  2
*D4
 70
     1
 10
0.0
 20
0.0
 30
0.0
  3
*D4
  1

  0
LINE
  5
252
330
229
100
AcDbEntity
  8
Cotation-JacobDelafon
  6
Continuous
 62
     0
370
    -2
100
AcDbLine
 10
185.321273
 20
154.17543
 30
0.0
 11
169.2796217387002
 21
154.17543
 31
0.0
  0
LINE
  5
253
330
229
100
AcDbEntity
  8
Cotation-JacobDelafon
  6
Continuous
 62
     0
370
    -2
100
AcDbLine
 10
194.395138
 20
145.847773
 30
0.0
 11
169.2796217387002
 21
145.847773
 31
0.0
  0
LINE
  5
254
330
229
100
AcDbEntity
  8
Cotation-JacobDelafon
  6
Continuous
 62
     0
370
    -2
100
AcDbLine
 10
171.0796217387003
 20
154.17543
 30
0.0
 11
171.0796217387003
 21
145.847773
 31
0.0
  0
INSERT
  5
255
330
229
100
AcDbEntity
  8
Cotation-JacobDelafon
  6
Continuous
 62
     0
370
    -2
100
AcDbBlockReference
  2
_Oblique
 10
171.0796217387003
 20
154.17543
 30
0.0
 41
1.8
 42
1.8
 43
1.8
 50
90.0
  0
INSERT
  5
256
330
229
100
AcDbEntity
  8
Cotation-JacobDelafon
  6
Continuous
 62
     0
370
    -2
100
AcDbBlockReference
  2
_Oblique
 10
171.0796217387003
 20
145.847773
 30
0.0
 41
1.8
 42
1.8
 43
1.8
 50
270.0
  0
MTEXT
  5
257
330
229
100
AcDbEntity
  8
Cotation-JacobDelafon
  6
Continuous
 62
     0
370
     0
100
AcDbMText
 10
168.6479027755351
 20
150.0116015
 30
0.0
 40
3.0
 41
0.0
 46
0.0
 71
     5
 72
     1
  1
\A1;8.4
  7
Jacob-Delafon
 11
0.0000000000000001
 21
1.0
 31
0.0
 73
     1
 44
1.0
  0
POINT
  5
258
330
229
100
AcDbEntity
  8
Defpoints
  6
Continuous
 62
     0
370
     0
100
AcDbPoint
 10
185.946273
 20
154.17543
 30
0.0
  0
POINT
  5
259
330
229
100
AcDbEntity
  8
Defpoints
  6
Continuous
 62
     0
370
     0
100
AcDbPoint
 10
195.020138
 20
145.847773
 30
0.0
  0
POINT
  5
25A
330
229
100
AcDbEntity
  8
Defpoints
  6
Continuous
 62
     0
370
     0
100
AcDbPoint
 10
171.0796217387003
 20
145.847773
 30
0.0
  0
ENDBLK
  5
22B
330
229
100
AcDbEntity
  8
0
370
     0
100
AcDbBlockEnd
  0
ENDSEC
  0
SECTION
  2
ENTITIES
  0
LINE
  5
1BA
330
A
100
AcDbEntity
  8
0
 62
     7
100
AcDbLine
 10
191.6940699999999
 20
151.388175
 30
0.0
 11
191.41674
 21
151.368022
 31
0.0
  0
LINE
  5
1B9
330
A
100
AcDbEntity
  8
0
 62
     7
100
AcDbLine
 10
191.6940699999999
 20
151.294986
 30
0.0
 11
191.6940699999999
 21
151.388175
 31
0.0
  0
LINE
  5
1B8
330
A
100
AcDbEntity
  8
0
 62
     7
100
AcDbLine
 10
191.6940699999999
 20
151.024201
 30
0.0
 11
191.6940699999999
 21
151.294986
 31
0.0
  0
LINE
  5
1B7
330
A
100
AcDbEntity
  8
0
 62
     7
100
AcDbLine
 10
191.6940699999999
 20
150.602521
 30
0.0
 11
191.6940699999999
 21
151.024201
 31
0.0
  0
LINE
  5
1B6
330
A
100
AcDbEntity
  8
0
 62
     7
100
AcDbLine
 10
191.6940699999999
 20
150.071115
 30
0.0
 11
191.6940699999999
 21
150.602521
 31
0.0
  0
LINE
  5
1B5
330
A
100
AcDbEntity
  8
0
 62
     7
100
AcDbLine
 10
191.6940699999999
 20
149.482004
 30
0.0
 11
191.6940699999999
 21
150.071115
 31
0.0
  0
LINE
  5
1B4
330
A
100
AcDbEntity
  8
0
 62
     7
100
AcDbLine
 10
191.6940699999999
 20
148.892893
 30
0.0
 11
191.6940699999999
 21
149.482004
 31
0.0
  0
LINE
  5
1B3
330
A
100
AcDbEntity
  8
0
 62
     7
100
AcDbLine
 10
191.6940699999999
 20
148.361659
 30
0.0
 11
191.6940699999999
 21
148.892893
 31
0.0
  0
LINE
  5
1B2
330
A
100
AcDbEntity
  8
0
 62
     7
100
AcDbLine
 10
191.6940699999999
 20
147.939979
 30
0.0
 11
191.6940699999999
 21
148.361659
 31
0.0
  0
LINE
  5
1B1
330
A
100
AcDbEntity
  8
0
 62
     7
100
AcDbLine
 10
191.6940699999999
 20
147.669195
 30
0.0
 11
191.6940699999999
 21
147.939979
 31
0.0
  0
LINE
  5
1B0
330
A
100
AcDbEntity
  8
0
 62
     7
100
AcDbLine
 10
191.6940699999999
 20
147.575833
 30
0.0
 11
191.6940699999999
 21
147.669195
 31
0.0
  0
LINE
  5
1AF
330
A
100
AcDbEntity
  8
0
 62
     7
100
AcDbLine
 10
191.6940699999999
 20
147.575833
 30
0.0
 11
191.41674
 21
147.596159
 31
0.0
  0
LINE
  5
1AE
330
A
100
AcDbEntity
  8
0
 62
     7
100
AcDbLine
 10
186.101474
 20
147.287823
 30
0.0
 11
186.066679
 21
147.340188
 31
0.0
  0
LINE
  5
1AD
330
A
100
AcDbEntity
  8
0
 62
     7
100
AcDbLine
 10
186.101474
 20
151.573005
 30
0.0
 11
186.066679
 21
151.520812
 31
0.0
  0
LINE
  5
1AC
330
A
100
AcDbEntity
  8
0
 62
     7
100
AcDbLine
 10
186.005528
 20
147.913108
 30
0.0
 11
185.946273
 21
148.967996
 31
0.0
  0
LINE
  5
1AB
330
A
100
AcDbEntity
  8
0
 62
     7
100
AcDbLine
 10
186.005528
 20
150.94772
 30
0.0
 11
185.946273
 21
149.892832
 31
0.0
  0
LINE
  5
1AA
330
A
100
AcDbEntity
  8
0
 62
     7
100
AcDbLine
 10
185.946273
 20
149.287356
 30
0.0
 11
185.946273
 21
149.4305
 31
0.0
  0
LINE
  5
1A9
330
A
100
AcDbEntity
  8
0
 62
     7
100
AcDbLine
 10
185.946273
 20
149.15851
 30
0.0
 11
185.946273
 21
149.287356
 31
0.0
  0
LINE
  5
1A8
330
A
100
AcDbEntity
  8
0
 62
     7
100
AcDbLine
 10
185.946273
 20
149.05619
 30
0.0
 11
185.946273
 21
149.15851
 31
0.0
  0
LINE
  5
1A7
330
A
100
AcDbEntity
  8
0
 62
     7
100
AcDbLine
 10
185.946273
 20
148.990734
 30
0.0
 11
185.946273
 21
149.05619
 31
0.0
  0
LINE
  5
1A6
330
A
100
AcDbEntity
  8
0
 62
     7
100
AcDbLine
 10
185.946273
 20
148.967996
 30
0.0
 11
185.946273
 21
148.990734
 31
0.0
  0
LINE
  5
1A5
330
A
100
AcDbEntity
  8
0
 62
     7
100
AcDbLine
 10
185.946273
 20
149.870266
 30
0.0
 11
185.946273
 21
149.892832
 31
0.0
  0
LINE
  5
1A4
330
A
100
AcDbEntity
  8
0
 62
     7
100
AcDbLine
 10
185.946273
 20
149.573299
 30
0.0
 11
185.946273
 21
149.702318
 31
0.0
  0
LINE
  5
1A3
330
A
100
AcDbEntity
  8
0
 62
     7
100
AcDbLine
 10
185.946273
 20
149.4305
 30
0.0
 11
185.946273
 21
149.573299
 31
0.0
  0
LINE
  5
1A2
330
A
100
AcDbEntity
  8
0
 62
     7
100
AcDbLine
 10
185.946273
 20
149.804637
 30
0.0
 11
185.946273
 21
149.702318
 31
0.0
  0
LINE
  5
1A1
330
A
100
AcDbEntity
  8
0
 62
     7
100
AcDbLine
 10
185.946273
 20
149.870266
 30
0.0
 11
185.946273
 21
149.804637
 31
0.0
  0
LINE
  5
1A0
330
A
100
AcDbEntity
  8
0
 62
     7
100
AcDbLine
 10
186.005528
 20
150.94772
 30
0.0
 11
186.066679
 21
151.520812
 31
0.0
  0
LINE
  5
19F
330
A
100
AcDbEntity
  8
0
 62
     7
100
AcDbLine
 10
186.005528
 20
147.913108
 30
0.0
 11
186.066679
 21
147.340188
 31
0.0
  0
LINE
  5
19E
330
A
100
AcDbEntity
  8
0
 62
     7
100
AcDbLine
 10
186.101474
 20
151.573005
 30
0.0
 11
186.148155
 21
151.607456
 31
0.0
  0
LINE
  5
19D
330
A
100
AcDbEntity
  8
0
 62
     7
100
AcDbLine
 10
186.101474
 20
147.287823
 30
0.0
 11
186.148155
 21
147.253372
 31
0.0
  0
LINE
  5
19C
330
A
100
AcDbEntity
  8
0
 62
     7
100
AcDbLine
 10
191.41674
 20
149.4305
 30
0.0
 11
191.41674
 21
150.103155
 31
0.0
  0
LINE
  5
19B
330
A
100
AcDbEntity
  8
0
 62
     7
100
AcDbLine
 10
191.41674
 20
148.757845
 30
0.0
 11
191.41674
 21
149.4305
 31
0.0
  0
LINE
  5
19A
330
A
100
AcDbEntity
  8
0
 62
     7
100
AcDbLine
 10
191.41674
 20
148.150819
 30
0.0
 11
191.41674
 21
148.757845
 31
0.0
  0
LINE
  5
199
330
A
100
AcDbEntity
  8
0
 62
     7
100
AcDbLine
 10
191.41674
 20
150.103155
 30
0.0
 11
191.41674
 21
150.710008
 31
0.0
  0
LINE
  5
198
330
A
100
AcDbEntity
  8
0
 62
     7
100
AcDbLine
 10
191.41674
 20
147.669195
 30
0.0
 11
191.41674
 21
148.150819
 31
0.0
  0
LINE
  5
197
330
A
100
AcDbEntity
  8
0
 62
     7
100
AcDbLine
 10
191.41674
 20
150.710008
 30
0.0
 11
191.41674
 21
151.191633
 31
0.0
  0
LINE
  5
196
330
A
100
AcDbEntity
  8
0
 62
     7
100
AcDbLine
 10
191.41674
 20
147.36017
 30
0.0
 11
191.41674
 21
147.669195
 31
0.0
  0
LINE
  5
195
330
A
100
AcDbEntity
  8
0
 62
     7
100
AcDbLine
 10
191.41674
 20
151.191633
 30
0.0
 11
191.41674
 21
151.50083
 31
0.0
  0
LINE
  5
194
330
A
100
AcDbEntity
  8
0
 62
     7
100
AcDbLine
 10
191.41674
 20
151.50083
 30
0.0
 11
191.41674
 21
151.607456
 31
0.0
  0
LINE
  5
193
330
A
100
AcDbEntity
  8
0
 62
     7
100
AcDbLine
 10
191.41674
 20
147.253372
 30
0.0
 11
191.41674
 21
147.36017
 31
0.0
  0
LINE
  5
192
330
A
100
AcDbEntity
  8
0
 62
     7
100
AcDbLine
 10
186.148155
 20
151.607456
 30
0.0
 11
191.41674
 21
151.607456
 31
0.0
  0
LINE
  5
191
330
A
100
AcDbEntity
  8
0
 62
     7
100
AcDbLine
 10
191.41674
 20
147.253372
 30
0.0
 11
186.148155
 21
147.253372
 31
0.0
  0
LINE
  5
190
330
A
100
AcDbEntity
  8
0
 62
     7
100
AcDbLine
 10
209.502802
 20
152.350735
 30
0.0
 11
210.689293
 21
152.586724
 31
0.0
  0
LINE
  5
18F
330
A
100
AcDbEntity
  8
0
 62
     7
100
AcDbLine
 10
208.497179
 20
151.678769
 30
0.0
 11
209.502802
 21
152.350735
 31
0.0
  0
LINE
  5
18E
330
A
100
AcDbEntity
  8
0
 62
     7
100
AcDbLine
 10
208.445158
 20
151.600566
 30
0.0
 11
208.497179
 21
151.678769
 31
0.0
  0
LINE
  5
18D
330
A
100
AcDbEntity
  8
0
 62
     7
100
AcDbLine
 10
209.502802
 20
146.622575
 30
0.0
 11
208.630849
 21
147.205485
 31
0.0
  0
LINE
  5
18C
330
A
100
AcDbEntity
  8
0
 62
     7
100
AcDbLine
 10
210.689293
 20
146.386586
 30
0.0
 11
209.502802
 21
146.622575
 31
0.0
  0
LINE
  5
18B
330
A
100
AcDbEntity
  8
0
 62
     7
100
AcDbLine
 10
211.875439
 20
146.622575
 30
0.0
 11
210.689293
 21
146.386586
 31
0.0
  0
LINE
  5
18A
330
A
100
AcDbEntity
  8
0
 62
     7
100
AcDbLine
 10
212.744982
 20
147.203418
 30
0.0
 11
211.875439
 21
146.622575
 31
0.0
  0
LINE
  5
189
330
A
100
AcDbEntity
  8
0
 62
     7
100
AcDbLine
 10
212.881407
 20
151.678769
 30
0.0
 11
212.93205
 21
151.602633
 31
0.0
  0
LINE
  5
188
330
A
100
AcDbEntity
  8
0
 62
     7
100
AcDbLine
 10
211.875439
 20
152.350735
 30
0.0
 11
212.881407
 21
151.678769
 31
0.0
  0
LINE
  5
187
330
A
100
AcDbEntity
  8
0
 62
     7
100
AcDbLine
 10
210.689293
 20
152.586724
 30
0.0
 11
211.875439
 21
152.350735
 31
0.0
  0
LINE
  5
186
330
A
100
AcDbEntity
  8
0
 62
     7
100
AcDbLine
 10
211.875439
 20
146.622575
 30
0.0
 11
210.689293
 21
146.386586
 31
0.0
  0
LINE
  5
185
330
A
100
AcDbEntity
  8
0
 62
     7
100
AcDbLine
 10
194.502856
 20
152.350735
 30
0.0
 11
194.992577
 21
152.448059
 31
0.0
  0
LINE
  5
184
330
A
100
AcDbEntity
  8
0
 62
     7
100
AcDbLine
 10
193.497233
 20
151.678769
 30
0.0
 11
194.502856
 21
152.350735
 31
0.0
  0
LINE
  5
183
330
A
100
AcDbEntity
  8
0
 62
     7
100
AcDbLine
 10
193.446418
 20
151.602633
 30
0.0
 11
193.497233
 21
151.678769
 31
0.0
  0
LINE
  5
182
330
A
100
AcDbEntity
  8
0
 62
     7
100
AcDbLine
 10
194.502856
 20
146.622575
 30
0.0
 11
193.633659
 21
147.203418
 31
0.0
  0
LINE
  5
181
330
A
100
AcDbEntity
  8
0
 62
     7
100
AcDbLine
 10
194.792933
 20
146.565042
 30
0.0
 11
194.502856
 21
146.622575
 31
0.0
  0
LINE
  5
180
330
A
100
AcDbEntity
  8
0
 62
     7
100
AcDbLine
 10
196.875494
 20
146.622575
 30
0.0
 11
196.583005
 21
146.564353
 31
0.0
  0
LINE
  5
17F
330
A
100
AcDbEntity
  8
0
 62
     7
100
AcDbLine
 10
197.746414
 20
147.204451
 30
0.0
 11
196.875494
 21
146.622575
 31
0.0
  0
LINE
  5
17E
330
A
100
AcDbEntity
  8
0
 62
     7
100
AcDbLine
 10
197.881289
 20
151.678769
 30
0.0
 11
197.9331379999999
 21
151.60091
 31
0.0
  0
LINE
  5
17D
330
A
100
AcDbEntity
  8
0
 62
     7
100
AcDbLine
 10
196.875494
 20
152.350735
 30
0.0
 11
197.881289
 21
151.678769
 31
0.0
  0
LINE
  5
17C
330
A
100
AcDbEntity
  8
0
 62
     7
100
AcDbLine
 10
196.374921
 20
152.450298
 30
0.0
 11
196.875494
 21
152.350735
 31
0.0
  0
LINE
  5
17B
330
A
100
AcDbEntity
  8
0
 62
     7
100
AcDbLine
 10
194.009519
 20
150.10126
 30
0.0
 11
194.007107
 21
150.095748
 31
0.0
  0
LINE
  5
17A
330
A
100
AcDbEntity
  8
0
 62
     7
100
AcDbLine
 10
194.004351
 20
150.082484
 30
0.0
 11
194.015031
 21
150.109701
 31
0.0
  0
LINE
  5
179
330
A
100
AcDbEntity
  8
0
 62
     7
100
AcDbLine
 10
196.288277
 20
150.932217
 30
0.0
 11
196.806592
 21
150.580473
 31
0.0
  0
LINE
  5
178
330
A
100
AcDbEntity
  8
0
 62
     7
100
AcDbLine
 10
195.682113
 20
151.05314
 30
0.0
 11
196.288277
 21
150.932217
 31
0.0
  0
LINE
  5
177
330
A
100
AcDbEntity
  8
0
 62
     7
100
AcDbLine
 10
195.075948
 20
150.932217
 30
0.0
 11
195.682113
 21
151.05314
 31
0.0
  0
LINE
  5
176
330
A
100
AcDbEntity
  8
0
 62
     7
100
AcDbLine
 10
194.557633
 20
150.580473
 30
0.0
 11
195.075948
 21
150.932217
 31
0.0
  0
LINE
  5
175
330
A
100
AcDbEntity
  8
0
 62
     7
100
AcDbLine
 10
194.198482
 20
150.034253
 30
0.0
 11
194.557633
 21
150.580473
 31
0.0
  0
LINE
  5
174
330
A
100
AcDbEntity
  8
0
 62
     7
100
AcDbLine
 10
194.062918
 20
149.403111
 30
0.0
 11
194.198482
 21
150.034253
 31
0.0
  0
LINE
  5
173
330
A
100
AcDbEntity
  8
0
 62
     7
100
AcDbLine
 10
194.198482
 20
148.771625
 30
0.0
 11
194.062918
 21
149.403111
 31
0.0
  0
LINE
  5
172
330
A
100
AcDbEntity
  8
0
 62
     7
100
AcDbLine
 10
194.557633
 20
148.225578
 30
0.0
 11
194.198482
 21
148.771625
 31
0.0
  0
LINE
  5
171
330
A
100
AcDbEntity
  8
0
 62
     7
100
AcDbLine
 10
195.075948
 20
147.873834
 30
0.0
 11
194.557633
 21
148.225578
 31
0.0
  0
LINE
  5
170
330
A
100
AcDbEntity
  8
0
 62
     7
100
AcDbLine
 10
195.682113
 20
147.752911
 30
0.0
 11
195.075948
 21
147.873834
 31
0.0
  0
LINE
  5
16F
330
A
100
AcDbEntity
  8
0
 62
     7
100
AcDbLine
 10
196.288277
 20
147.873834
 30
0.0
 11
195.682113
 21
147.752911
 31
0.0
  0
LINE
  5
16E
330
A
100
AcDbEntity
  8
0
 62
     7
100
AcDbLine
 10
196.806592
 20
148.225578
 30
0.0
 11
196.288277
 21
147.873834
 31
0.0
  0
LINE
  5
16D
330
A
100
AcDbEntity
  8
0
 62
     7
100
AcDbLine
 10
197.1659149999999
 20
148.771625
 30
0.0
 11
196.806592
 21
148.225578
 31
0.0
  0
LINE
  5
16C
330
A
100
AcDbEntity
  8
0
 62
     7
100
AcDbLine
 10
197.301308
 20
149.403111
 30
0.0
 11
197.1659149999999
 21
148.771625
 31
0.0
  0
LINE
  5
16B
330
A
100
AcDbEntity
  8
0
 62
     7
100
AcDbLine
 10
197.1659149999999
 20
150.034253
 30
0.0
 11
197.301308
 21
149.403111
 31
0.0
  0
LINE
  5
16A
330
A
100
AcDbEntity
  8
0
 62
     7
100
AcDbLine
 10
196.806592
 20
150.580473
 30
0.0
 11
197.1659149999999
 21
150.034253
 31
0.0
  0
LINE
  5
169
330
A
100
AcDbEntity
  8
0
 62
     7
100
AcDbLine
 10
195.682113
 20
151.008698
 30
0.0
 11
195.096963
 21
150.891909
 31
0.0
  0
LINE
  5
168
330
A
100
AcDbEntity
  8
0
 62
     7
100
AcDbLine
 10
196.267262
 20
150.891909
 30
0.0
 11
195.682113
 21
151.008698
 31
0.0
  0
LINE
  5
167
330
A
100
AcDbEntity
  8
0
 62
     7
100
AcDbLine
 10
196.769385
 20
150.5508449999999
 30
0.0
 11
196.267262
 21
150.891909
 31
0.0
  0
LINE
  5
166
330
A
100
AcDbEntity
  8
0
 62
     7
100
AcDbLine
 10
197.119062
 20
150.018578
 30
0.0
 11
196.769385
 21
150.5508449999999
 31
0.0
  0
LINE
  5
165
330
A
100
AcDbEntity
  8
0
 62
     7
100
AcDbLine
 10
197.251354
 20
149.403111
 30
0.0
 11
197.119062
 21
150.018578
 31
0.0
  0
LINE
  5
164
330
A
100
AcDbEntity
  8
0
 62
     7
100
AcDbLine
 10
197.119062
 20
148.787473
 30
0.0
 11
197.251354
 21
149.403111
 31
0.0
  0
LINE
  5
163
330
A
100
AcDbEntity
  8
0
 62
     7
100
AcDbLine
 10
196.769213
 20
148.25555
 30
0.0
 11
197.119062
 21
148.787473
 31
0.0
  0
LINE
  5
162
330
A
100
AcDbEntity
  8
0
 62
     7
100
AcDbLine
 10
196.267262
 20
147.914486
 30
0.0
 11
196.769213
 21
148.25555
 31
0.0
  0
LINE
  5
161
330
A
100
AcDbEntity
  8
0
 62
     7
100
AcDbLine
 10
195.682113
 20
147.797697
 30
0.0
 11
196.267262
 21
147.914486
 31
0.0
  0
LINE
  5
160
330
A
100
AcDbEntity
  8
0
 62
     7
100
AcDbLine
 10
195.096963
 20
147.914486
 30
0.0
 11
195.682113
 21
147.797697
 31
0.0
  0
LINE
  5
15F
330
A
100
AcDbEntity
  8
0
 62
     7
100
AcDbLine
 10
194.595013
 20
148.25555
 30
0.0
 11
195.096963
 21
147.914486
 31
0.0
  0
LINE
  5
15E
330
A
100
AcDbEntity
  8
0
 62
     7
100
AcDbLine
 10
194.245163
 20
148.787473
 30
0.0
 11
194.595013
 21
148.25555
 31
0.0
  0
LINE
  5
15D
330
A
100
AcDbEntity
  8
0
 62
     7
100
AcDbLine
 10
194.112872
 20
149.403111
 30
0.0
 11
194.245163
 21
148.787473
 31
0.0
  0
LINE
  5
15C
330
A
100
AcDbEntity
  8
0
 62
     7
100
AcDbLine
 10
194.245163
 20
150.018578
 30
0.0
 11
194.112872
 21
149.403111
 31
0.0
  0
LINE
  5
15B
330
A
100
AcDbEntity
  8
0
 62
     7
100
AcDbLine
 10
194.595013
 20
150.5508449999999
 30
0.0
 11
194.245163
 21
150.018578
 31
0.0
  0
LINE
  5
15A
330
A
100
AcDbEntity
  8
0
 62
     7
100
AcDbLine
 10
195.096963
 20
150.891909
 30
0.0
 11
194.595013
 21
150.5508449999999
 31
0.0
  0
LINE
  5
159
330
A
100
AcDbEntity
  8
0
 62
     7
100
AcDbLine
 10
195.096791
 20
147.91483
 30
0.0
 11
195.682113
 21
147.797697
 31
0.0
  0
LINE
  5
158
330
A
100
AcDbEntity
  8
0
 62
     7
100
AcDbLine
 10
194.594496
 20
148.256584
 30
0.0
 11
195.096791
 21
147.91483
 31
0.0
  0
LINE
  5
157
330
A
100
AcDbEntity
  8
0
 62
     7
100
AcDbLine
 10
194.244474
 20
148.790573
 30
0.0
 11
194.594496
 21
148.256584
 31
0.0
  0
LINE
  5
156
330
A
100
AcDbEntity
  8
0
 62
     7
100
AcDbLine
 10
194.113044
 20
149.403456
 30
0.0
 11
194.244474
 21
148.790573
 31
0.0
  0
LINE
  5
155
330
A
100
AcDbEntity
  8
0
 62
     7
100
AcDbLine
 10
197.119923
 20
148.790573
 30
0.0
 11
197.251181
 21
149.403456
 31
0.0
  0
LINE
  5
154
330
A
100
AcDbEntity
  8
0
 62
     7
100
AcDbLine
 10
196.769902
 20
148.256584
 30
0.0
 11
197.119923
 21
148.790573
 31
0.0
  0
LINE
  5
153
330
A
100
AcDbEntity
  8
0
 62
     7
100
AcDbLine
 10
196.267607
 20
147.91483
 30
0.0
 11
196.769902
 21
148.256584
 31
0.0
  0
LINE
  5
152
330
A
100
AcDbEntity
  8
0
 62
     7
100
AcDbLine
 10
195.682113
 20
147.797697
 30
0.0
 11
196.267607
 21
147.91483
 31
0.0
  0
LINE
  5
151
330
A
100
AcDbEntity
  8
0
 62
     7
100
AcDbLine
 10
211.591564
 20
151.596431
 30
0.0
 11
211.596042
 21
151.596776
 31
0.0
  0
LINE
  5
150
330
A
100
AcDbEntity
  8
0
 62
     7
100
AcDbLine
 10
209.898644
 20
150.433195
 30
0.0
 11
209.599609
 21
150.95461
 31
0.0
  0
LINE
  5
14F
330
A
100
AcDbEntity
  8
0
 62
     7
100
AcDbLine
 10
209.898644
 20
150.242337
 30
0.0
 11
209.898644
 21
150.433195
 31
0.0
  0
LINE
  5
14E
330
A
100
AcDbEntity
  8
0
 62
     7
100
AcDbLine
 10
209.898644
 20
148.563886
 30
0.0
 11
209.898644
 21
149.402939
 31
0.0
  0
LINE
  5
14D
330
A
100
AcDbEntity
  8
0
 62
     7
100
AcDbLine
 10
211.797925
 20
151.544238
 30
0.0
 11
211.924704
 21
151.48326
 31
0.0
  0
LINE
  5
14C
330
A
100
AcDbEntity
  8
0
 62
     7
100
AcDbLine
 10
211.596042
 20
151.596776
 30
0.0
 11
211.797925
 21
151.544238
 31
0.0
  0
LINE
  5
14B
330
A
100
AcDbEntity
  8
0
 62
     7
100
AcDbLine
 10
212.360509
 20
151.60246
 30
0.0
 11
211.596042
 21
151.596776
 31
0.0
  0
LINE
  5
14A
330
A
100
AcDbEntity
  8
0
 62
     7
100
AcDbLine
 10
213.955588
 20
151.602977
 30
0.0
 11
213.859814
 21
151.602977
 31
0.0
  0
LINE
  5
149
330
A
100
AcDbEntity
  8
0
 62
     7
100
AcDbLine
 10
211.596042
 20
150.558769
 30
0.0
 11
211.498546
 21
150.432678
 31
0.0
  0
LINE
  5
148
330
A
100
AcDbEntity
  8
0
 62
     7
100
AcDbLine
 10
211.498546
 20
150.432678
 30
0.0
 11
211.498546
 21
150.24337
 31
0.0
  0
LINE
  5
147
330
A
100
AcDbEntity
  8
0
 62
     7
100
AcDbLine
 10
211.798614
 20
150.95461
 30
0.0
 11
211.596042
 21
150.558769
 31
0.0
  0
LINE
  5
146
330
A
100
AcDbEntity
  8
0
 62
     7
100
AcDbLine
 10
211.498546
 20
150.24337
 30
0.0
 11
211.498546
 21
149.402939
 31
0.0
  0
LINE
  5
145
330
A
100
AcDbEntity
  8
0
 62
     7
100
AcDbLine
 10
211.498546
 20
149.402939
 30
0.0
 11
211.498546
 21
148.562508
 31
0.0
  0
LINE
  5
144
330
A
100
AcDbEntity
  8
0
 62
     7
100
AcDbLine
 10
211.498546
 20
148.373372
 30
0.0
 11
211.596042
 21
148.247282
 31
0.0
  0
LINE
  5
143
330
A
100
AcDbEntity
  8
0
 62
     7
100
AcDbLine
 10
211.498546
 20
148.562508
 30
0.0
 11
211.498546
 21
148.373372
 31
0.0
  0
LINE
  5
142
330
A
100
AcDbEntity
  8
0
 62
     7
100
AcDbLine
 10
211.596042
 20
148.247282
 30
0.0
 11
211.798614
 21
147.85144
 31
0.0
  0
LINE
  5
141
330
A
100
AcDbEntity
  8
0
 62
     7
100
AcDbLine
 10
211.798614
 20
147.85144
 30
0.0
 11
211.924704
 21
147.645768
 31
0.0
  0
LINE
  5
140
330
A
100
AcDbEntity
  8
0
 62
     7
100
AcDbLine
 10
211.968113
 20
147.425971
 30
0.0
 11
211.957433
 21
147.372228
 31
0.0
  0
LINE
  5
13F
330
A
100
AcDbEntity
  8
0
 62
     7
100
AcDbLine
 10
211.924704
 20
147.645768
 30
0.0
 11
211.968113
 21
147.425971
 31
0.0
  0
LINE
  5
13E
330
A
100
AcDbEntity
  8
0
 62
     7
100
AcDbLine
 10
211.797925
 20
147.26164
 30
0.0
 11
211.579506
 21
147.206519
 31
0.0
  0
LINE
  5
13D
330
A
100
AcDbEntity
  8
0
 62
     7
100
AcDbLine
 10
211.924704
 20
147.322963
 30
0.0
 11
211.797925
 21
147.26164
 31
0.0
  0
LINE
  5
13C
330
A
100
AcDbEntity
  8
0
 62
     7
100
AcDbLine
 10
211.957433
 20
147.372228
 30
0.0
 11
211.924704
 21
147.322963
 31
0.0
  0
LINE
  5
13B
330
A
100
AcDbEntity
  8
0
 62
     7
100
AcDbLine
 10
198.730333
 20
151.600566
 30
0.0
 11
197.353673
 21
151.601255
 31
0.0
  0
LINE
  5
13A
330
A
100
AcDbEntity
  8
0
 62
     7
100
AcDbLine
 10
191.744885
 20
151.573522
 30
0.0
 11
191.814476
 21
151.602977
 31
0.0
  0
LINE
  5
139
330
A
100
AcDbEntity
  8
0
 62
     7
100
AcDbLine
 10
192.653185
 20
147.203073
 30
0.0
 11
194.029845
 21
147.203762
 31
0.0
  0
LINE
  5
138
330
A
100
AcDbEntity
  8
0
 62
     7
100
AcDbLine
 10
191.744885
 20
147.232357
 30
0.0
 11
191.814476
 21
147.203073
 31
0.0
  0
LINE
  5
137
330
A
100
AcDbEntity
  8
0
 62
     7
100
AcDbLine
 10
191.715946
 20
150.206508
 30
0.0
 11
191.715946
 21
150.887603
 31
0.0
  0
LINE
  5
136
330
A
100
AcDbEntity
  8
0
 62
     7
100
AcDbLine
 10
191.715946
 20
150.206508
 30
0.0
 11
191.709918
 21
149.403111
 31
0.0
  0
LINE
  5
135
330
A
100
AcDbEntity
  8
0
 62
     7
100
AcDbLine
 10
191.738856
 20
149.403111
 30
0.0
 11
191.744885
 21
150.233724
 31
0.0
  0
LINE
  5
134
330
A
100
AcDbEntity
  8
0
 62
     7
100
AcDbLine
 10
191.709918
 20
149.403111
 30
0.0
 11
191.715946
 21
148.599715
 31
0.0
  0
LINE
  5
133
330
A
100
AcDbEntity
  8
0
 62
     7
100
AcDbLine
 10
191.744885
 20
148.572499
 30
0.0
 11
191.738856
 21
149.403111
 31
0.0
  0
LINE
  5
132
330
A
100
AcDbEntity
  8
0
 62
     7
100
AcDbLine
 10
191.715946
 20
148.599715
 30
0.0
 11
191.715946
 21
147.918275
 31
0.0
  0
LINE
  5
131
330
A
100
AcDbEntity
  8
0
 62
     7
100
AcDbLine
 10
191.744885
 20
147.868321
 30
0.0
 11
191.744885
 21
148.572499
 31
0.0
  0
LINE
  5
130
330
A
100
AcDbEntity
  8
0
 62
     7
100
AcDbLine
 10
191.715946
 20
147.918275
 30
0.0
 11
191.715946
 21
147.463178
 31
0.0
  0
LINE
  5
12F
330
A
100
AcDbEntity
  8
0
 62
     7
100
AcDbLine
 10
191.744885
 20
147.397721
 30
0.0
 11
191.744885
 21
147.868321
 31
0.0
  0
LINE
  5
12E
330
A
100
AcDbEntity
  8
0
 62
     7
100
AcDbLine
 10
191.715946
 20
147.463178
 30
0.0
 11
191.715946
 21
147.303326
 31
0.0
  0
LINE
  5
12D
330
A
100
AcDbEntity
  8
0
 62
     7
100
AcDbLine
 10
191.744885
 20
147.232357
 30
0.0
 11
191.744885
 21
147.397721
 31
0.0
  0
LINE
  5
12C
330
A
100
AcDbEntity
  8
0
 62
     7
100
AcDbLine
 10
191.744885
 20
147.397721
 30
0.0
 11
191.744885
 21
147.232357
 31
0.0
  0
LINE
  5
12B
330
A
100
AcDbEntity
  8
0
 62
     7
100
AcDbLine
 10
191.744885
 20
147.232357
 30
0.0
 11
191.715946
 21
147.303326
 31
0.0
  0
LINE
  5
12A
330
A
100
AcDbEntity
  8
0
 62
     7
100
AcDbLine
 10
191.744885
 20
151.573522
 30
0.0
 11
191.744885
 21
151.408329
 31
0.0
  0
LINE
  5
129
330
A
100
AcDbEntity
  8
0
 62
     7
100
AcDbLine
 10
191.744885
 20
151.408329
 30
0.0
 11
191.744885
 21
151.573522
 31
0.0
  0
LINE
  5
128
330
A
100
AcDbEntity
  8
0
 62
     7
100
AcDbLine
 10
191.715946
 20
151.502553
 30
0.0
 11
191.715946
 21
151.3427
 31
0.0
  0
LINE
  5
127
330
A
100
AcDbEntity
  8
0
 62
     7
100
AcDbLine
 10
191.744885
 20
151.573522
 30
0.0
 11
191.715946
 21
151.502553
 31
0.0
  0
LINE
  5
126
330
A
100
AcDbEntity
  8
0
 62
     7
100
AcDbLine
 10
191.715946
 20
151.3427
 30
0.0
 11
191.715946
 21
150.887603
 31
0.0
  0
LINE
  5
125
330
A
100
AcDbEntity
  8
0
 62
     7
100
AcDbLine
 10
191.744885
 20
151.408329
 30
0.0
 11
191.744885
 21
150.937901
 31
0.0
  0
LINE
  5
124
330
A
100
AcDbEntity
  8
0
 62
     7
100
AcDbLine
 10
191.744885
 20
150.937901
 30
0.0
 11
191.744885
 21
150.233724
 31
0.0
  0
LINE
  5
123
330
A
100
AcDbEntity
  8
0
 62
     7
100
AcDbLine
 10
196.452264
 20
151.249338
 30
0.0
 11
195.682113
 21
151.402989
 31
0.0
  0
LINE
  5
122
330
A
100
AcDbEntity
  8
0
 62
     7
100
AcDbLine
 10
195.682113
 20
151.402989
 30
0.0
 11
194.911962
 21
151.249338
 31
0.0
  0
LINE
  5
121
330
A
100
AcDbEntity
  8
0
 62
     7
100
AcDbLine
 10
193.836919
 20
150.156554
 30
0.0
 11
193.675
 21
149.403111
 31
0.0
  0
LINE
  5
120
330
A
100
AcDbEntity
  8
0
 62
     7
100
AcDbLine
 10
197.527306
 20
150.156554
 30
0.0
 11
197.096669
 21
150.811639
 31
0.0
  0
LINE
  5
11F
330
A
100
AcDbEntity
  8
0
 62
     7
100
AcDbLine
 10
197.689225
 20
149.403111
 30
0.0
 11
197.527306
 21
150.156554
 31
0.0
  0
LINE
  5
11E
330
A
100
AcDbEntity
  8
0
 62
     7
100
AcDbLine
 10
197.527306
 20
148.649325
 30
0.0
 11
197.689225
 21
149.403111
 31
0.0
  0
LINE
  5
11D
330
A
100
AcDbEntity
  8
0
 62
     7
100
AcDbLine
 10
197.096669
 20
147.994412
 30
0.0
 11
197.527306
 21
148.649325
 31
0.0
  0
LINE
  5
11C
330
A
100
AcDbEntity
  8
0
 62
     7
100
AcDbLine
 10
196.452264
 20
147.556885
 30
0.0
 11
197.096669
 21
147.994412
 31
0.0
  0
LINE
  5
11B
330
A
100
AcDbEntity
  8
0
 62
     7
100
AcDbLine
 10
195.682113
 20
147.402889
 30
0.0
 11
196.452264
 21
147.556885
 31
0.0
  0
LINE
  5
11A
330
A
100
AcDbEntity
  8
0
 62
     7
100
AcDbLine
 10
194.911962
 20
147.556885
 30
0.0
 11
195.682113
 21
147.402889
 31
0.0
  0
LINE
  5
119
330
A
100
AcDbEntity
  8
0
 62
     7
100
AcDbLine
 10
194.267556
 20
147.994412
 30
0.0
 11
194.911962
 21
147.556885
 31
0.0
  0
LINE
  5
118
330
A
100
AcDbEntity
  8
0
 62
     7
100
AcDbLine
 10
194.267556
 20
147.994412
 30
0.0
 11
193.836919
 21
148.649325
 31
0.0
  0
LINE
  5
117
330
A
100
AcDbEntity
  8
0
 62
     7
100
AcDbLine
 10
193.836919
 20
148.649325
 30
0.0
 11
193.675
 21
149.403111
 31
0.0
  0
LINE
  5
116
330
A
100
AcDbEntity
  8
0
 62
     7
100
AcDbLine
 10
193.836919
 20
150.156554
 30
0.0
 11
194.267556
 21
150.811639
 31
0.0
  0
LINE
  5
115
330
A
100
AcDbEntity
  8
0
 62
     7
100
AcDbLine
 10
194.267556
 20
150.811639
 30
0.0
 11
194.911962
 21
151.249338
 31
0.0
  0
LINE
  5
114
330
A
100
AcDbEntity
  8
0
 62
     7
100
AcDbLine
 10
196.452264
 20
151.249338
 30
0.0
 11
197.096669
 21
150.811639
 31
0.0
  0
LINE
  5
113
330
A
100
AcDbEntity
  8
0
 62
     7
100
AcDbLine
 10
197.353673
 20
147.204107
 30
0.0
 11
198.730333
 21
147.205141
 31
0.0
  0
LINE
  5
112
330
A
100
AcDbEntity
  8
0
 62
     7
100
AcDbLine
 10
196.88135
 20
147.222021
 30
0.0
 11
197.353673
 21
147.204107
 31
0.0
  0
LINE
  5
111
330
A
100
AcDbEntity
  8
0
 62
     7
100
AcDbLine
 10
192.653185
 20
147.203073
 30
0.0
 11
191.814476
 21
147.203073
 31
0.0
  0
LINE
  5
110
330
A
100
AcDbEntity
  8
0
 62
     7
100
AcDbLine
 10
194.494416
 20
147.221677
 30
0.0
 11
194.029845
 21
147.203762
 31
0.0
  0
LINE
  5
10F
330
A
100
AcDbEntity
  8
0
 62
     7
100
AcDbLine
 10
192.653185
 20
151.602977
 30
0.0
 11
191.814476
 21
151.602977
 31
0.0
  0
LINE
  5
10E
330
A
100
AcDbEntity
  8
0
 62
     7
100
AcDbLine
 10
194.029845
 20
151.60246
 30
0.0
 11
192.653185
 21
151.602977
 31
0.0
  0
LINE
  5
10D
330
A
100
AcDbEntity
  8
0
 62
     7
100
AcDbLine
 10
194.676662
 20
151.577139
 30
0.0
 11
194.029845
 21
151.60246
 31
0.0
  0
LINE
  5
10C
330
A
100
AcDbEntity
  8
0
 62
     7
100
AcDbLine
 10
196.706856
 20
151.577483
 30
0.0
 11
195.876588
 21
151.577311
 31
0.0
  0
LINE
  5
10B
330
A
100
AcDbEntity
  8
0
 62
     7
100
AcDbLine
 10
195.49091
 20
151.577311
 30
0.0
 11
194.676662
 21
151.577139
 31
0.0
  0
LINE
  5
10A
330
A
100
AcDbEntity
  8
0
 62
     7
100
AcDbLine
 10
197.353673
 20
151.601255
 30
0.0
 11
196.706856
 21
151.577483
 31
0.0
  0
LINE
  5
109
330
A
100
AcDbEntity
  8
0
 62
     7
100
AcDbLine
 10
209.801147
 20
148.245904
 30
0.0
 11
209.898644
 21
148.563886
 31
0.0
  0
LINE
  5
108
330
A
100
AcDbEntity
  8
0
 62
     7
100
AcDbLine
 10
209.599954
 20
147.851785
 30
0.0
 11
209.801147
 21
148.245904
 31
0.0
  0
LINE
  5
107
330
A
100
AcDbEntity
  8
0
 62
     7
100
AcDbLine
 10
209.439068
 20
147.374984
 30
0.0
 11
209.429422
 21
147.424249
 31
0.0
  0
LINE
  5
106
330
A
100
AcDbEntity
  8
0
 62
     7
100
AcDbLine
 10
209.429422
 20
147.424249
 30
0.0
 11
209.472485
 21
147.645424
 31
0.0
  0
LINE
  5
105
330
A
100
AcDbEntity
  8
0
 62
     7
100
AcDbLine
 10
209.472485
 20
147.645424
 30
0.0
 11
209.599954
 21
147.851785
 31
0.0
  0
LINE
  5
104
330
A
100
AcDbEntity
  8
0
 62
     7
100
AcDbLine
 10
209.83112
 20
147.204796
 30
0.0
 11
209.801147
 21
147.209619
 31
0.0
  0
LINE
  5
103
330
A
100
AcDbEntity
  8
0
 62
     7
100
AcDbLine
 10
198.730333
 20
147.20583
 30
0.0
 11
207.782666
 21
147.20583
 31
0.0
  0
LINE
  5
102
330
A
100
AcDbEntity
  8
0
 62
     7
100
AcDbLine
 10
209.472485
 20
147.323996
 30
0.0
 11
209.439068
 21
147.374984
 31
0.0
  0
LINE
  5
101
330
A
100
AcDbEntity
  8
0
 62
     7
100
AcDbLine
 10
209.599265
 20
147.262329
 30
0.0
 11
209.472485
 21
147.323996
 31
0.0
  0
LINE
  5
100
330
A
100
AcDbEntity
  8
0
 62
     7
100
AcDbLine
 10
209.801147
 20
147.209619
 30
0.0
 11
209.599265
 21
147.262329
 31
0.0
  0
LINE
  5
FF
330
A
100
AcDbEntity
  8
0
 62
     7
100
AcDbLine
 10
209.036681
 20
147.205141
 30
0.0
 11
207.782666
 21
147.20583
 31
0.0
  0
LINE
  5
FE
330
A
100
AcDbEntity
  8
0
 62
     7
100
AcDbLine
 10
214.025179
 20
147.232357
 30
0.0
 11
214.054118
 21
147.303326
 31
0.0
  0
LINE
  5
FD
330
A
100
AcDbEntity
  8
0
 62
     7
100
AcDbLine
 10
213.955588
 20
147.203073
 30
0.0
 11
214.025179
 21
147.232357
 31
0.0
  0
LINE
  5
FC
330
A
100
AcDbEntity
  8
0
 62
     7
100
AcDbLine
 10
214.025179
 20
151.573522
 30
0.0
 11
213.955588
 21
151.602977
 31
0.0
  0
LINE
  5
FB
330
A
100
AcDbEntity
  8
0
 62
     7
100
AcDbLine
 10
214.054118
 20
151.502553
 30
0.0
 11
214.025179
 21
151.573522
 31
0.0
  0
LINE
  5
FA
330
A
100
AcDbEntity
  8
0
 62
     7
100
AcDbLine
 10
214.054118
 20
150.206508
 30
0.0
 11
214.054118
 21
149.402939
 31
0.0
  0
LINE
  5
F9
330
A
100
AcDbEntity
  8
0
 62
     7
100
AcDbLine
 10
214.054118
 20
150.887603
 30
0.0
 11
214.054118
 21
150.206508
 31
0.0
  0
LINE
  5
F8
330
A
100
AcDbEntity
  8
0
 62
     7
100
AcDbLine
 10
214.054118
 20
151.3427
 30
0.0
 11
214.054118
 21
150.887603
 31
0.0
  0
LINE
  5
F7
330
A
100
AcDbEntity
  8
0
 62
     7
100
AcDbLine
 10
214.054118
 20
151.502553
 30
0.0
 11
214.054118
 21
151.3427
 31
0.0
  0
LINE
  5
F6
330
A
100
AcDbEntity
  8
0
 62
     7
100
AcDbLine
 10
214.054118
 20
147.463178
 30
0.0
 11
214.054118
 21
147.303326
 31
0.0
  0
LINE
  5
F5
330
A
100
AcDbEntity
  8
0
 62
     7
100
AcDbLine
 10
214.054118
 20
147.918275
 30
0.0
 11
214.054118
 21
147.463178
 31
0.0
  0
LINE
  5
F4
330
A
100
AcDbEntity
  8
0
 62
     7
100
AcDbLine
 10
214.054118
 20
148.599715
 30
0.0
 11
214.054118
 21
147.918275
 31
0.0
  0
LINE
  5
F3
330
A
100
AcDbEntity
  8
0
 62
     7
100
AcDbLine
 10
214.054118
 20
149.402939
 30
0.0
 11
214.054118
 21
148.599715
 31
0.0
  0
LINE
  5
F2
330
A
100
AcDbEntity
  8
0
 62
     7
100
AcDbLine
 10
213.955588
 20
147.203073
 30
0.0
 11
213.859814
 21
147.203073
 31
0.0
  0
LINE
  5
F1
330
A
100
AcDbEntity
  8
0
 62
     7
100
AcDbLine
 10
213.859814
 20
147.203073
 30
0.0
 11
212.360509
 21
147.203762
 31
0.0
  0
LINE
  5
F0
330
A
100
AcDbEntity
  8
0
 62
     7
100
AcDbLine
 10
212.360509
 20
151.60246
 30
0.0
 11
213.859814
 21
151.602977
 31
0.0
  0
LINE
  5
EF
330
A
100
AcDbEntity
  8
0
 62
     7
100
AcDbLine
 10
209.439068
 20
151.431067
 30
0.0
 11
209.472485
 21
151.482054
 31
0.0
  0
LINE
  5
EE
330
A
100
AcDbEntity
  8
0
 62
     7
100
AcDbLine
 10
207.782666
 20
151.600221
 30
0.0
 11
198.730333
 21
151.600566
 31
0.0
  0
LINE
  5
ED
330
A
100
AcDbEntity
  8
0
 62
     7
100
AcDbLine
 10
209.036681
 20
151.60091
 30
0.0
 11
207.782666
 21
151.600221
 31
0.0
  0
LINE
  5
EC
330
A
100
AcDbEntity
  8
0
 62
     7
100
AcDbLine
 10
209.599265
 20
151.543722
 30
0.0
 11
209.816306
 21
151.598843
 31
0.0
  0
LINE
  5
EB
330
A
100
AcDbEntity
  8
0
 62
     7
100
AcDbLine
 10
209.472485
 20
151.482054
 30
0.0
 11
209.599265
 21
151.543722
 31
0.0
  0
LINE
  5
EA
330
A
100
AcDbEntity
  8
0
 62
     7
100
AcDbLine
 10
209.429422
 20
151.38163
 30
0.0
 11
209.439068
 21
151.431067
 31
0.0
  0
LINE
  5
E9
330
A
100
AcDbEntity
  8
0
 62
     7
100
AcDbLine
 10
209.472485
 20
151.160799
 30
0.0
 11
209.429422
 21
151.38163
 31
0.0
  0
LINE
  5
E8
330
A
100
AcDbEntity
  8
0
 62
     7
100
AcDbLine
 10
209.599609
 20
150.95461
 30
0.0
 11
209.472485
 21
151.160799
 31
0.0
  0
LINE
  5
E7
330
A
100
AcDbEntity
  8
0
 62
     7
100
AcDbLine
 10
209.898644
 20
149.402939
 30
0.0
 11
209.898644
 21
150.242337
 31
0.0
  0
LINE
  5
E6
330
A
100
AcDbEntity
  8
0
 62
     7
100
AcDbLine
 10
209.036681
 20
151.60091
 30
0.0
 11
209.816306
 21
151.598843
 31
0.0
  0
LINE
  5
E5
330
A
100
AcDbEntity
  8
0
 62
     7
100
AcDbLine
 10
212.360509
 20
147.203762
 30
0.0
 11
211.579506
 21
147.206519
 31
0.0
  0
LINE
  5
E4
330
A
100
AcDbEntity
  8
0
 62
     7
100
AcDbLine
 10
209.848345
 20
147.207208
 30
0.0
 11
209.83112
 21
147.204796
 31
0.0
  0
LINE
  5
E3
330
A
100
AcDbEntity
  8
0
 62
     7
100
AcDbLine
 10
209.83112
 20
147.204796
 30
0.0
 11
209.036681
 21
147.205141
 31
0.0
  0
LINE
  5
E2
330
A
100
AcDbEntity
  8
0
 62
     7
100
AcDbLine
 10
196.374921
 20
151.099649
 30
0.0
 11
196.959726
 21
150.702429
 31
0.0
  0
LINE
  5
E1
330
A
100
AcDbEntity
  8
0
 62
     7
100
AcDbLine
 10
195.682113
 20
151.237797
 30
0.0
 11
196.374921
 21
151.099649
 31
0.0
  0
LINE
  5
E0
330
A
100
AcDbEntity
  8
0
 62
     7
100
AcDbLine
 10
194.989476
 20
151.099649
 30
0.0
 11
195.682113
 21
151.237797
 31
0.0
  0
LINE
  5
DF
330
A
100
AcDbEntity
  8
0
 62
     7
100
AcDbLine
 10
194.404671
 20
150.702429
 30
0.0
 11
194.989476
 21
151.099649
 31
0.0
  0
LINE
  5
DE
330
A
100
AcDbEntity
  8
0
 62
     7
100
AcDbLine
 10
194.007796
 20
150.098676
 30
0.0
 11
194.404671
 21
150.702429
 31
0.0
  0
LINE
  5
DD
330
A
100
AcDbEntity
  8
0
 62
     7
100
AcDbLine
 10
193.858451
 20
149.403111
 30
0.0
 11
194.007796
 21
150.098676
 31
0.0
  0
LINE
  5
DC
330
A
100
AcDbEntity
  8
0
 62
     7
100
AcDbLine
 10
194.007796
 20
148.707202
 30
0.0
 11
193.858451
 21
149.403111
 31
0.0
  0
LINE
  5
DB
330
A
100
AcDbEntity
  8
0
 62
     7
100
AcDbLine
 10
194.404671
 20
148.103621
 30
0.0
 11
194.007796
 21
148.707202
 31
0.0
  0
LINE
  5
DA
330
A
100
AcDbEntity
  8
0
 62
     7
100
AcDbLine
 10
194.989476
 20
147.706402
 30
0.0
 11
194.404671
 21
148.103621
 31
0.0
  0
LINE
  5
D9
330
A
100
AcDbEntity
  8
0
 62
     7
100
AcDbLine
 10
195.682113
 20
147.568254
 30
0.0
 11
194.989476
 21
147.706402
 31
0.0
  0
LINE
  5
D8
330
A
100
AcDbEntity
  8
0
 62
     7
100
AcDbLine
 10
196.374921
 20
147.706402
 30
0.0
 11
195.682113
 21
147.568254
 31
0.0
  0
LINE
  5
D7
330
A
100
AcDbEntity
  8
0
 62
     7
100
AcDbLine
 10
196.959726
 20
148.103621
 30
0.0
 11
196.374921
 21
147.706402
 31
0.0
  0
LINE
  5
D6
330
A
100
AcDbEntity
  8
0
 62
     7
100
AcDbLine
 10
197.356429
 20
148.707202
 30
0.0
 11
196.959726
 21
148.103621
 31
0.0
  0
LINE
  5
D5
330
A
100
AcDbEntity
  8
0
 62
     7
100
AcDbLine
 10
197.505946
 20
149.403111
 30
0.0
 11
197.356429
 21
148.707202
 31
0.0
  0
LINE
  5
D4
330
A
100
AcDbEntity
  8
0
 62
     7
100
AcDbLine
 10
197.356429
 20
150.098676
 30
0.0
 11
197.505946
 21
149.403111
 31
0.0
  0
LINE
  5
D3
330
A
100
AcDbEntity
  8
0
 62
     7
100
AcDbLine
 10
196.959726
 20
150.702429
 30
0.0
 11
197.356429
 21
150.098676
 31
0.0
  0
LINE
  5
D2
330
A
100
AcDbEntity
  8
0
 62
     7
100
AcDbLine
 10
211.258767
 20
148.403345
 30
0.0
 11
211.285984
 21
148.373372
 31
0.0
  0
LINE
  5
D1
330
A
100
AcDbEntity
  8
0
 62
     7
100
AcDbLine
 10
211.285984
 20
150.432678
 30
0.0
 11
211.258767
 21
150.402706
 31
0.0
  0
LINE
  5
D0
330
A
100
AcDbEntity
  8
0
 62
     7
100
AcDbLine
 10
211.258767
 20
148.59248
 30
0.0
 11
211.28874
 21
149.402939
 31
0.0
  0
LINE
  5
CF
330
A
100
AcDbEntity
  8
0
 62
     7
100
AcDbLine
 10
211.28874
 20
149.402939
 30
0.0
 11
211.258767
 21
150.213398
 31
0.0
  0
LINE
  5
CE
330
A
100
AcDbEntity
  8
0
 62
     7
100
AcDbLine
 10
210.10845
 20
149.402939
 30
0.0
 11
210.136355
 21
148.591447
 31
0.0
  0
LINE
  5
CD
330
A
100
AcDbEntity
  8
0
 62
     7
100
AcDbLine
 10
210.138767
 20
150.210125
 30
0.0
 11
210.10845
 21
149.402939
 31
0.0
  0
LINE
  5
CC
330
A
100
AcDbEntity
  8
0
 62
     7
100
AcDbLine
 10
209.808038
 20
147.881068
 30
0.0
 11
209.706407
 21
147.675396
 31
0.0
  0
LINE
  5
CB
330
A
100
AcDbEntity
  8
0
 62
     7
100
AcDbLine
 10
211.616024
 20
147.853163
 30
0.0
 11
211.414486
 21
148.245215
 31
0.0
  0
LINE
  5
CA
330
A
100
AcDbEntity
  8
0
 62
     7
100
AcDbLine
 10
211.258767
 20
150.213398
 30
0.0
 11
211.258767
 21
150.402706
 31
0.0
  0
LINE
  5
C9
330
A
100
AcDbEntity
  8
0
 62
     7
100
AcDbLine
 10
211.258767
 20
148.403345
 30
0.0
 11
211.258767
 21
148.59248
 31
0.0
  0
LINE
  5
C8
330
A
100
AcDbEntity
  8
0
 62
     7
100
AcDbLine
 10
210.015088
 20
148.27312
 30
0.0
 11
209.808038
 21
147.881068
 31
0.0
  0
LINE
  5
C7
330
A
100
AcDbEntity
  8
0
 62
     7
100
AcDbLine
 10
210.110173
 20
150.400467
 30
0.0
 11
210.138767
 21
150.210125
 31
0.0
  0
LINE
  5
C6
330
A
100
AcDbEntity
  8
0
 62
     7
100
AcDbLine
 10
210.136355
 20
148.591447
 30
0.0
 11
210.015088
 21
148.27312
 31
0.0
  0
LINE
  5
C5
330
A
100
AcDbEntity
  8
0
 62
     7
100
AcDbLine
 10
209.472485
 20
151.160799
 30
0.0
 11
209.599609
 21
150.95461
 31
0.0
  0
LINE
  5
C4
330
A
100
AcDbEntity
  8
0
 62
     7
100
AcDbLine
 10
209.779788
 20
150.954093
 30
0.0
 11
209.677469
 21
151.160799
 31
0.0
  0
LINE
  5
C3
330
A
100
AcDbEntity
  8
0
 62
     7
100
AcDbLine
 10
209.599954
 20
147.851785
 30
0.0
 11
209.472485
 21
147.645424
 31
0.0
  0
LINE
  5
C2
330
A
100
AcDbEntity
  8
0
 62
     7
100
AcDbLine
 10
209.641295
 20
147.424249
 30
0.0
 11
209.706407
 21
147.675396
 31
0.0
  0
LINE
  5
C1
330
A
100
AcDbEntity
  8
0
 62
     7
100
AcDbLine
 10
209.429422
 20
151.38163
 30
0.0
 11
209.472485
 21
151.160799
 31
0.0
  0
LINE
  5
C0
330
A
100
AcDbEntity
  8
0
 62
     7
100
AcDbLine
 10
209.677469
 20
151.160799
 30
0.0
 11
209.641295
 21
151.38163
 31
0.0
  0
LINE
  5
BF
330
A
100
AcDbEntity
  8
0
 62
     7
100
AcDbLine
 10
209.429422
 20
147.424249
 30
0.0
 11
209.439068
 21
147.374984
 31
0.0
  0
LINE
  5
BE
330
A
100
AcDbEntity
  8
0
 62
     7
100
AcDbLine
 10
209.647152
 20
147.374984
 30
0.0
 11
209.641295
 21
147.424249
 31
0.0
  0
LINE
  5
BD
330
A
100
AcDbEntity
  8
0
 62
     7
100
AcDbLine
 10
209.439068
 20
151.431067
 30
0.0
 11
209.429422
 21
151.38163
 31
0.0
  0
LINE
  5
BC
330
A
100
AcDbEntity
  8
0
 62
     7
100
AcDbLine
 10
209.641295
 20
151.38163
 30
0.0
 11
209.647152
 21
151.431067
 31
0.0
  0
LINE
  5
BB
330
A
100
AcDbEntity
  8
0
 62
     7
100
AcDbLine
 10
209.439068
 20
147.374984
 30
0.0
 11
209.472485
 21
147.323996
 31
0.0
  0
LINE
  5
BA
330
A
100
AcDbEntity
  8
0
 62
     7
100
AcDbLine
 10
209.472485
 20
151.482054
 30
0.0
 11
209.439068
 21
151.431067
 31
0.0
  0
LINE
  5
B9
330
A
100
AcDbEntity
  8
0
 62
     7
100
AcDbLine
 10
209.599265
 20
151.543722
 30
0.0
 11
209.472485
 21
151.482054
 31
0.0
  0
LINE
  5
B8
330
A
100
AcDbEntity
  8
0
 62
     7
100
AcDbLine
 10
209.647152
 20
151.431067
 30
0.0
 11
209.677469
 21
151.482054
 31
0.0
  0
LINE
  5
B7
330
A
100
AcDbEntity
  8
0
 62
     7
100
AcDbLine
 10
209.677469
 20
151.482054
 30
0.0
 11
209.782888
 21
151.543722
 31
0.0
  0
LINE
  5
B6
330
A
100
AcDbEntity
  8
0
 62
     7
100
AcDbLine
 10
209.472485
 20
147.323996
 30
0.0
 11
209.599265
 21
147.262329
 31
0.0
  0
LINE
  5
B5
330
A
100
AcDbEntity
  8
0
 62
     7
100
AcDbLine
 10
209.677469
 20
147.323996
 30
0.0
 11
209.647152
 21
147.374984
 31
0.0
  0
LINE
  5
B4
330
A
100
AcDbEntity
  8
0
 62
     7
100
AcDbLine
 10
209.782888
 20
147.262329
 30
0.0
 11
209.677469
 21
147.323996
 31
0.0
  0
LINE
  5
B3
330
A
100
AcDbEntity
  8
0
 62
     7
100
AcDbLine
 10
209.599265
 20
147.262329
 30
0.0
 11
209.816306
 21
147.207208
 31
0.0
  0
LINE
  5
B2
330
A
100
AcDbEntity
  8
0
 62
     7
100
AcDbLine
 10
209.955143
 20
147.207208
 30
0.0
 11
209.782888
 21
147.262329
 31
0.0
  0
LINE
  5
B1
330
A
100
AcDbEntity
  8
0
 62
     7
100
AcDbLine
 10
209.816306
 20
151.598843
 30
0.0
 11
209.599265
 21
151.543722
 31
0.0
  0
LINE
  5
B0
330
A
100
AcDbEntity
  8
0
 62
     7
100
AcDbLine
 10
209.782888
 20
151.543722
 30
0.0
 11
209.955143
 21
151.598843
 31
0.0
  0
LINE
  5
AF
330
A
100
AcDbEntity
  8
0
 62
     7
100
AcDbLine
 10
209.955143
 20
147.207208
 30
0.0
 11
209.816306
 21
147.207208
 31
0.0
  0
LINE
  5
AE
330
A
100
AcDbEntity
  8
0
 62
     7
100
AcDbLine
 10
210.152547
 20
147.233046
 30
0.0
 11
209.955143
 21
147.207208
 31
0.0
  0
LINE
  5
AD
330
A
100
AcDbEntity
  8
0
 62
     7
100
AcDbLine
 10
209.816306
 20
151.598843
 30
0.0
 11
209.955143
 21
151.598843
 31
0.0
  0
LINE
  5
AC
330
A
100
AcDbEntity
  8
0
 62
     7
100
AcDbLine
 10
209.955143
 20
151.598843
 30
0.0
 11
210.152547
 21
151.573005
 31
0.0
  0
LINE
  5
AB
330
A
100
AcDbEntity
  8
0
 62
     7
100
AcDbLine
 10
210.425054
 20
147.26164
 30
0.0
 11
210.152547
 21
147.233046
 31
0.0
  0
LINE
  5
AA
330
A
100
AcDbEntity
  8
0
 62
     7
100
AcDbLine
 10
210.152547
 20
151.573005
 30
0.0
 11
210.425054
 21
151.544583
 31
0.0
  0
LINE
  5
A9
330
A
100
AcDbEntity
  8
0
 62
     7
100
AcDbLine
 10
210.698595
 20
147.269908
 30
0.0
 11
210.425054
 21
147.26164
 31
0.0
  0
LINE
  5
A8
330
A
100
AcDbEntity
  8
0
 62
     7
100
AcDbLine
 10
210.425054
 20
151.544583
 30
0.0
 11
210.698595
 21
151.536315
 31
0.0
  0
LINE
  5
A7
330
A
100
AcDbEntity
  8
0
 62
     7
100
AcDbLine
 10
210.698595
 20
151.536315
 30
0.0
 11
210.972135
 21
151.544583
 31
0.0
  0
LINE
  5
A6
330
A
100
AcDbEntity
  8
0
 62
     7
100
AcDbLine
 10
210.972135
 20
147.26164
 30
0.0
 11
210.698595
 21
147.269908
 31
0.0
  0
LINE
  5
A5
330
A
100
AcDbEntity
  8
0
 62
     7
100
AcDbLine
 10
211.244642
 20
147.233046
 30
0.0
 11
210.972135
 21
147.26164
 31
0.0
  0
LINE
  5
A4
330
A
100
AcDbEntity
  8
0
 62
     7
100
AcDbLine
 10
210.972135
 20
151.544583
 30
0.0
 11
211.244642
 21
151.573005
 31
0.0
  0
LINE
  5
A3
330
A
100
AcDbEntity
  8
0
 62
     7
100
AcDbLine
 10
211.440668
 20
147.206519
 30
0.0
 11
211.244642
 21
147.233046
 31
0.0
  0
LINE
  5
A2
330
A
100
AcDbEntity
  8
0
 62
     7
100
AcDbLine
 10
211.244642
 20
151.573005
 30
0.0
 11
211.440668
 21
151.59936
 31
0.0
  0
LINE
  5
A1
330
A
100
AcDbEntity
  8
0
 62
     7
100
AcDbLine
 10
211.579506
 20
151.59936
 30
0.0
 11
211.440668
 21
151.59936
 31
0.0
  0
LINE
  5
A0
330
A
100
AcDbEntity
  8
0
 62
     7
100
AcDbLine
 10
211.797925
 20
151.544238
 30
0.0
 11
211.579506
 21
151.59936
 31
0.0
  0
LINE
  5
9F
330
A
100
AcDbEntity
  8
0
 62
     7
100
AcDbLine
 10
211.440668
 20
151.59936
 30
0.0
 11
211.614301
 21
151.544238
 31
0.0
  0
LINE
  5
9E
330
A
100
AcDbEntity
  8
0
 62
     7
100
AcDbLine
 10
211.440668
 20
147.206519
 30
0.0
 11
211.579506
 21
147.206519
 31
0.0
  0
LINE
  5
9D
330
A
100
AcDbEntity
  8
0
 62
     7
100
AcDbLine
 10
211.579506
 20
147.206519
 30
0.0
 11
211.797925
 21
147.26164
 31
0.0
  0
LINE
  5
9C
330
A
100
AcDbEntity
  8
0
 62
     7
100
AcDbLine
 10
211.614301
 20
147.26164
 30
0.0
 11
211.440668
 21
147.206519
 31
0.0
  0
LINE
  5
9B
330
A
100
AcDbEntity
  8
0
 62
     7
100
AcDbLine
 10
211.924704
 20
151.48326
 30
0.0
 11
211.797925
 21
151.544238
 31
0.0
  0
LINE
  5
9A
330
A
100
AcDbEntity
  8
0
 62
     7
100
AcDbLine
 10
211.720066
 20
147.322963
 30
0.0
 11
211.614301
 21
147.26164
 31
0.0
  0
LINE
  5
99
330
A
100
AcDbEntity
  8
0
 62
     7
100
AcDbLine
 10
211.797925
 20
147.26164
 30
0.0
 11
211.924704
 21
147.322963
 31
0.0
  0
LINE
  5
98
330
A
100
AcDbEntity
  8
0
 62
     7
100
AcDbLine
 10
211.957433
 20
151.433651
 30
0.0
 11
211.924704
 21
151.48326
 31
0.0
  0
LINE
  5
97
330
A
100
AcDbEntity
  8
0
 62
     7
100
AcDbLine
 10
211.614301
 20
151.544238
 30
0.0
 11
211.719721
 21
151.48326
 31
0.0
  0
LINE
  5
96
330
A
100
AcDbEntity
  8
0
 62
     7
100
AcDbLine
 10
211.719721
 20
151.48326
 30
0.0
 11
211.749349
 21
151.433651
 31
0.0
  0
LINE
  5
95
330
A
100
AcDbEntity
  8
0
 62
     7
100
AcDbLine
 10
211.749349
 20
147.372228
 30
0.0
 11
211.720066
 21
147.322963
 31
0.0
  0
LINE
  5
94
330
A
100
AcDbEntity
  8
0
 62
     7
100
AcDbLine
 10
211.924704
 20
147.322963
 30
0.0
 11
211.957433
 21
147.372228
 31
0.0
  0
LINE
  5
93
330
A
100
AcDbEntity
  8
0
 62
     7
100
AcDbLine
 10
211.968113
 20
151.380079
 30
0.0
 11
211.957433
 21
151.433651
 31
0.0
  0
LINE
  5
92
330
A
100
AcDbEntity
  8
0
 62
     7
100
AcDbLine
 10
211.749349
 20
151.433651
 30
0.0
 11
211.755895
 21
151.380079
 31
0.0
  0
LINE
  5
91
330
A
100
AcDbEntity
  8
0
 62
     7
100
AcDbLine
 10
211.957433
 20
147.372228
 30
0.0
 11
211.968113
 21
147.425971
 31
0.0
  0
LINE
  5
90
330
A
100
AcDbEntity
  8
0
 62
     7
100
AcDbLine
 10
211.755895
 20
147.425971
 30
0.0
 11
211.749349
 21
147.372228
 31
0.0
  0
LINE
  5
8F
330
A
100
AcDbEntity
  8
0
 62
     7
100
AcDbLine
 10
211.924704
 20
151.16011
 30
0.0
 11
211.968113
 21
151.380079
 31
0.0
  0
LINE
  5
8E
330
A
100
AcDbEntity
  8
0
 62
     7
100
AcDbLine
 10
211.755895
 20
151.380079
 30
0.0
 11
211.719721
 21
151.16011
 31
0.0
  0
LINE
  5
8D
330
A
100
AcDbEntity
  8
0
 62
     7
100
AcDbLine
 10
211.968113
 20
147.425971
 30
0.0
 11
211.924704
 21
147.645768
 31
0.0
  0
LINE
  5
8C
330
A
100
AcDbEntity
  8
0
 62
     7
100
AcDbLine
 10
211.719721
 20
147.645768
 30
0.0
 11
211.755895
 21
147.425971
 31
0.0
  0
LINE
  5
8B
330
A
100
AcDbEntity
  8
0
 62
     7
100
AcDbLine
 10
211.798958
 20
150.956677
 30
0.0
 11
211.924704
 21
151.16011
 31
0.0
  0
LINE
  5
8A
330
A
100
AcDbEntity
  8
0
 62
     7
100
AcDbLine
 10
211.719721
 20
151.16011
 30
0.0
 11
211.615335
 21
150.956677
 31
0.0
  0
LINE
  5
89
330
A
100
AcDbEntity
  8
0
 62
     7
100
AcDbLine
 10
211.616024
 20
147.853163
 30
0.0
 11
211.719721
 21
147.645768
 31
0.0
  0
LINE
  5
88
330
A
100
AcDbEntity
  8
0
 62
     7
100
AcDbLine
 10
211.596042
 20
150.558769
 30
0.0
 11
211.798958
 21
150.956677
 31
0.0
  0
LINE
  5
87
330
A
100
AcDbEntity
  8
0
 62
     7
100
AcDbLine
 10
211.615335
 20
150.956677
 30
0.0
 11
211.443424
 21
150.558769
 31
0.0
  0
LINE
  5
86
330
A
100
AcDbEntity
  8
0
 62
     7
100
AcDbLine
 10
211.498546
 20
150.432678
 30
0.0
 11
211.596042
 21
150.558769
 31
0.0
  0
LINE
  5
85
330
A
100
AcDbEntity
  8
0
 62
     7
100
AcDbLine
 10
211.443424
 20
150.558769
 30
0.0
 11
211.285984
 21
150.432678
 31
0.0
  0
LINE
  5
84
330
A
100
AcDbEntity
  8
0
 62
     7
100
AcDbLine
 10
211.596042
 20
148.247282
 30
0.0
 11
211.498546
 21
148.373372
 31
0.0
  0
LINE
  5
83
330
A
100
AcDbEntity
  8
0
 62
     7
100
AcDbLine
 10
211.285984
 20
148.373372
 30
0.0
 11
211.416208
 21
148.242114
 31
0.0
  0
LINE
  5
82
330
A
100
AcDbEntity
  8
0
 62
     7
100
AcDbLine
 10
211.498546
 20
148.373372
 30
0.0
 11
211.498546
 21
148.562508
 31
0.0
  0
LINE
  5
81
330
A
100
AcDbEntity
  8
0
 62
     7
100
AcDbLine
 10
211.498546
 20
150.24337
 30
0.0
 11
211.498546
 21
150.432678
 31
0.0
  0
LINE
  5
80
330
A
100
AcDbEntity
  8
0
 62
     7
100
AcDbLine
 10
209.801147
 20
148.245904
 30
0.0
 11
209.599954
 21
147.851785
 31
0.0
  0
LINE
  5
7F
330
A
100
AcDbEntity
  8
0
 62
     7
100
AcDbLine
 10
209.599609
 20
150.95461
 30
0.0
 11
209.898644
 21
150.433195
 31
0.0
  0
LINE
  5
7E
330
A
100
AcDbEntity
  8
0
 62
     7
100
AcDbLine
 10
210.084679
 20
150.430783
 30
0.0
 11
209.779788
 21
150.954093
 31
0.0
  0
LINE
  5
7D
330
A
100
AcDbEntity
  8
0
 62
     7
100
AcDbLine
 10
209.898644
 20
150.433195
 30
0.0
 11
209.898644
 21
150.242337
 31
0.0
  0
LINE
  5
7C
330
A
100
AcDbEntity
  8
0
 62
     7
100
AcDbLine
 10
209.898644
 20
148.563886
 30
0.0
 11
209.801147
 21
148.245904
 31
0.0
  0
LINE
  5
7B
330
A
100
AcDbEntity
  8
0
 62
     7
100
AcDbLine
 10
209.898644
 20
149.402939
 30
0.0
 11
209.898644
 21
148.563886
 31
0.0
  0
LINE
  5
7A
330
A
100
AcDbEntity
  8
0
 62
     7
100
AcDbLine
 10
209.898644
 20
150.242337
 30
0.0
 11
209.898644
 21
149.402939
 31
0.0
  0
LINE
  5
79
330
A
100
AcDbEntity
  8
0
 62
     7
100
AcDbLine
 10
195.810787
 20
154.201613
 30
0.0
 11
196.078815
 21
154.192655
 31
0.0
  0
LINE
  5
78
330
A
100
AcDbEntity
  8
0
 62
     7
100
AcDbLine
 10
195.556711
 20
154.201613
 30
0.0
 11
195.288683
 21
154.192655
 31
0.0
  0
LINE
  5
77
330
A
100
AcDbEntity
  8
0
 62
     7
100
AcDbLine
 10
196.078815
 20
154.192655
 30
0.0
 11
196.337198
 21
154.17543
 31
0.0
  0
LINE
  5
76
330
A
100
AcDbEntity
  8
0
 62
     7
100
AcDbLine
 10
195.288683
 20
154.192655
 30
0.0
 11
195.030301
 21
154.17543
 31
0.0
  0
LINE
  5
75
330
A
100
AcDbEntity
  8
0
 62
     7
100
AcDbLine
 10
196.337198
 20
154.17543
 30
0.0
 11
196.363725
 21
154.162855
 31
0.0
  0
LINE
  5
74
330
A
100
AcDbEntity
  8
0
 62
     7
100
AcDbLine
 10
195.030301
 20
154.17543
 30
0.0
 11
195.003773
 21
154.162855
 31
0.0
  0
LINE
  5
73
330
A
100
AcDbEntity
  8
0
 62
     7
100
AcDbLine
 10
196.363725
 20
154.162855
 30
0.0
 11
196.374577
 21
154.135467
 31
0.0
  0
LINE
  5
72
330
A
100
AcDbEntity
  8
0
 62
     7
100
AcDbLine
 10
195.003773
 20
154.162855
 30
0.0
 11
194.992921
 21
154.135467
 31
0.0
  0
LINE
  5
71
330
A
100
AcDbEntity
  8
0
 62
     7
100
AcDbLine
 10
196.374577
 20
154.135467
 30
0.0
 11
196.374921
 21
152.419982
 31
0.0
  0
LINE
  5
70
330
A
100
AcDbEntity
  8
0
 62
     7
100
AcDbLine
 10
194.992921
 20
154.135467
 30
0.0
 11
194.992577
 21
152.419982
 31
0.0
  0
LINE
  5
6F
330
A
100
AcDbEntity
  8
0
 62
     7
100
AcDbLine
 10
196.374921
 20
152.419982
 30
0.0
 11
196.363208
 21
152.39156
 31
0.0
  0
LINE
  5
6E
330
A
100
AcDbEntity
  8
0
 62
     7
100
AcDbLine
 10
194.992577
 20
152.419982
 30
0.0
 11
195.00429
 21
152.39156
 31
0.0
  0
LINE
  5
6D
330
A
100
AcDbEntity
  8
0
 62
     7
100
AcDbLine
 10
196.363208
 20
152.39156
 30
0.0
 11
196.334786
 21
152.379846
 31
0.0
  0
LINE
  5
6C
330
A
100
AcDbEntity
  8
0
 62
     7
100
AcDbLine
 10
195.00429
 20
152.39156
 30
0.0
 11
195.032712
 21
152.379846
 31
0.0
  0
LINE
  5
6B
330
A
100
AcDbEntity
  8
0
 62
     7
100
AcDbLine
 10
195.119873
 20
152.379846
 30
0.0
 11
195.032712
 21
152.379846
 31
0.0
  0
LINE
  5
6A
330
A
100
AcDbEntity
  8
0
 62
     7
100
AcDbLine
 10
195.358274
 20
152.379846
 30
0.0
 11
195.119873
 21
152.379846
 31
0.0
  0
LINE
  5
69
330
A
100
AcDbEntity
  8
0
 62
     7
100
AcDbLine
 10
195.683663
 20
152.379846
 30
0.0
 11
195.358274
 21
152.379846
 31
0.0
  0
LINE
  5
68
330
A
100
AcDbEntity
  8
0
 62
     7
100
AcDbLine
 10
196.009224
 20
152.379846
 30
0.0
 11
195.683663
 21
152.379846
 31
0.0
  0
LINE
  5
67
330
A
100
AcDbEntity
  8
0
 62
     7
100
AcDbLine
 10
196.247625
 20
152.379846
 30
0.0
 11
196.009224
 21
152.379846
 31
0.0
  0
LINE
  5
66
330
A
100
AcDbEntity
  8
0
 62
     7
100
AcDbLine
 10
196.334786
 20
152.379846
 30
0.0
 11
196.247625
 21
152.379846
 31
0.0
  0
LINE
  5
65
330
A
100
AcDbEntity
  8
0
 62
     7
100
AcDbLine
 10
196.174934
 20
152.379846
 30
0.0
 11
196.174589
 21
151.733202
 31
0.0
  0
LINE
  5
64
330
A
100
AcDbEntity
  8
0
 62
     7
100
AcDbLine
 10
195.192565
 20
152.379846
 30
0.0
 11
195.192909
 21
151.733202
 31
0.0
  0
LINE
  5
63
330
A
100
AcDbEntity
  8
0
 62
     7
100
AcDbLine
 10
195.25871
 20
151.733202
 30
0.0
 11
195.192909
 21
151.733202
 31
0.0
  0
LINE
  5
62
330
A
100
AcDbEntity
  8
0
 62
     7
100
AcDbLine
 10
195.438372
 20
151.733202
 30
0.0
 11
195.25871
 21
151.733202
 31
0.0
  0
LINE
  5
61
330
A
100
AcDbEntity
  8
0
 62
     7
100
AcDbLine
 10
195.683663
 20
151.733202
 30
0.0
 11
195.438372
 21
151.733202
 31
0.0
  0
LINE
  5
60
330
A
100
AcDbEntity
  8
0
 62
     7
100
AcDbLine
 10
195.929126
 20
151.733202
 30
0.0
 11
195.683663
 21
151.733202
 31
0.0
  0
LINE
  5
5F
330
A
100
AcDbEntity
  8
0
 62
     7
100
AcDbLine
 10
196.108788
 20
151.733202
 30
0.0
 11
195.929126
 21
151.733202
 31
0.0
  0
LINE
  5
5E
330
A
100
AcDbEntity
  8
0
 62
     7
100
AcDbLine
 10
196.174589
 20
151.733202
 30
0.0
 11
196.108788
 21
151.733202
 31
0.0
  0
LINE
  5
5D
330
A
100
AcDbEntity
  8
0
 62
     7
100
AcDbLine
 10
195.876588
 20
151.733202
 30
0.0
 11
195.876588
 21
151.364232
 31
0.0
  0
LINE
  5
5C
330
A
100
AcDbEntity
  8
0
 62
     7
100
AcDbLine
 10
195.49091
 20
151.733202
 30
0.0
 11
195.49091
 21
151.364921
 31
0.0
  0
LINE
  5
5B
330
A
100
AcDbEntity
  8
0
 62
     7
100
AcDbLine
 10
195.683663
 20
154.201613
 30
0.0
 11
195.747225
 21
154.201613
 31
0.0
  0
LINE
  5
5A
330
A
100
AcDbEntity
  8
0
 62
     7
100
AcDbLine
 10
195.620273
 20
154.201613
 30
0.0
 11
195.683663
 21
154.201613
 31
0.0
  0
LINE
  5
59
330
A
100
AcDbEntity
  8
0
 62
     7
100
AcDbLine
 10
195.573592
 20
154.201613
 30
0.0
 11
195.620273
 21
154.201613
 31
0.0
  0
LINE
  5
58
330
A
100
AcDbEntity
  8
0
 62
     7
100
AcDbLine
 10
195.556711
 20
154.201613
 30
0.0
 11
195.573592
 21
154.201613
 31
0.0
  0
LINE
  5
57
330
A
100
AcDbEntity
  8
0
 62
     7
100
AcDbLine
 10
195.793906
 20
154.201613
 30
0.0
 11
195.810787
 21
154.201613
 31
0.0
  0
LINE
  5
56
330
A
100
AcDbEntity
  8
0
 62
     7
100
AcDbLine
 10
195.747225
 20
154.201613
 30
0.0
 11
195.793906
 21
154.201613
 31
0.0
  0
LINE
  5
55
330
A
100
AcDbEntity
  8
0
 62
     7
100
AcDbLine
 10
194.792933
 20
145.798508
 30
0.0
 11
194.743496
 21
145.847773
 31
0.0
  0
LINE
  5
54
330
A
100
AcDbEntity
  8
0
 62
     7
100
AcDbLine
 10
196.583005
 20
145.798508
 30
0.0
 11
196.63227
 21
145.847773
 31
0.0
  0
LINE
  5
53
330
A
100
AcDbEntity
  8
0
 62
     7
100
AcDbLine
 10
195.326579
 20
145.847773
 30
0.0
 11
195.687969
 21
145.847773
 31
0.0
  0
LINE
  5
52
330
A
100
AcDbEntity
  8
0
 62
     7
100
AcDbLine
 10
195.020138
 20
145.847773
 30
0.0
 11
195.326579
 21
145.847773
 31
0.0
  0
LINE
  5
51
330
A
100
AcDbEntity
  8
0
 62
     7
100
AcDbLine
 10
194.815499
 20
145.847773
 30
0.0
 11
195.020138
 21
145.847773
 31
0.0
  0
LINE
  5
50
330
A
100
AcDbEntity
  8
0
 62
     7
100
AcDbLine
 10
194.743496
 20
145.847773
 30
0.0
 11
194.815499
 21
145.847773
 31
0.0
  0
LINE
  5
4F
330
A
100
AcDbEntity
  8
0
 62
     7
100
AcDbLine
 10
194.743496
 20
145.847773
 30
0.0
 11
194.743496
 21
146.54506
 31
0.0
  0
LINE
  5
4E
330
A
100
AcDbEntity
  8
0
 62
     7
100
AcDbLine
 10
196.63227
 20
145.847773
 30
0.0
 11
196.63227
 21
146.54506
 31
0.0
  0
LINE
  5
4D
330
A
100
AcDbEntity
  8
0
 62
     7
100
AcDbLine
 10
196.56044
 20
145.847773
 30
0.0
 11
196.63227
 21
145.847773
 31
0.0
  0
LINE
  5
4C
330
A
100
AcDbEntity
  8
0
 62
     7
100
AcDbLine
 10
196.355801
 20
145.847773
 30
0.0
 11
196.56044
 21
145.847773
 31
0.0
  0
LINE
  5
4B
330
A
100
AcDbEntity
  8
0
 62
     7
100
AcDbLine
 10
196.04936
 20
145.847773
 30
0.0
 11
196.355801
 21
145.847773
 31
0.0
  0
LINE
  5
4A
330
A
100
AcDbEntity
  8
0
 62
     7
100
AcDbLine
 10
195.687969
 20
145.847773
 30
0.0
 11
196.04936
 21
145.847773
 31
0.0
  0
LINE
  5
49
330
A
100
AcDbEntity
  8
0
 62
     7
100
AcDbLine
 10
196.56044
 20
146.54506
 30
0.0
 11
196.63227
 21
146.54506
 31
0.0
  0
LINE
  5
48
330
A
100
AcDbEntity
  8
0
 62
     7
100
AcDbLine
 10
194.795345
 20
146.54506
 30
0.0
 11
196.56044
 21
146.54506
 31
0.0
  0
LINE
  5
47
330
A
100
AcDbEntity
  8
0
 62
     7
100
AcDbLine
 10
194.792933
 20
146.54506
 30
0.0
 11
194.743496
 21
146.54506
 31
0.0
  0
LINE
  5
46
330
A
100
AcDbEntity
  8
0
 62
     7
100
AcDbLine
 10
194.792933
 20
146.54506
 30
0.0
 11
194.792933
 21
146.794485
 31
0.0
  0
LINE
  5
45
330
A
100
AcDbEntity
  8
0
 62
     7
100
AcDbLine
 10
196.583005
 20
146.54506
 30
0.0
 11
196.583005
 21
146.794485
 31
0.0
  0
LINE
  5
44
330
A
100
AcDbEntity
  8
0
 62
     7
100
AcDbLine
 10
195.25027
 20
146.794485
 30
0.0
 11
195.687969
 21
146.794485
 31
0.0
  0
LINE
  5
43
330
A
100
AcDbEntity
  8
0
 62
     7
100
AcDbLine
 10
194.879233
 20
146.794485
 30
0.0
 11
195.25027
 21
146.794485
 31
0.0
  0
LINE
  5
42
330
A
100
AcDbEntity
  8
0
 62
     7
100
AcDbLine
 10
194.631359
 20
146.794485
 30
0.0
 11
194.879233
 21
146.794485
 31
0.0
  0
LINE
  5
41
330
A
100
AcDbEntity
  8
0
 62
     7
100
AcDbLine
 10
194.54437
 20
146.794485
 30
0.0
 11
194.631359
 21
146.794485
 31
0.0
  0
LINE
  5
40
330
A
100
AcDbEntity
  8
0
 62
     7
100
AcDbLine
 10
194.54437
 20
146.794485
 30
0.0
 11
194.494416
 21
146.8440949999999
 31
0.0
  0
LINE
  5
3F
330
A
100
AcDbEntity
  8
0
 62
     7
100
AcDbLine
 10
196.831569
 20
146.794485
 30
0.0
 11
196.88135
 21
146.8440949999999
 31
0.0
  0
LINE
  5
3E
330
A
100
AcDbEntity
  8
0
 62
     7
100
AcDbLine
 10
196.74458
 20
146.794485
 30
0.0
 11
196.831569
 21
146.794485
 31
0.0
  0
LINE
  5
3D
330
A
100
AcDbEntity
  8
0
 62
     7
100
AcDbLine
 10
196.496533
 20
146.794485
 30
0.0
 11
196.74458
 21
146.794485
 31
0.0
  0
LINE
  5
3C
330
A
100
AcDbEntity
  8
0
 62
     7
100
AcDbLine
 10
196.125669
 20
146.794485
 30
0.0
 11
196.496533
 21
146.794485
 31
0.0
  0
LINE
  5
3B
330
A
100
AcDbEntity
  8
0
 62
     7
100
AcDbLine
 10
195.687969
 20
146.794485
 30
0.0
 11
196.125669
 21
146.794485
 31
0.0
  0
LINE
  5
3A
330
A
100
AcDbEntity
  8
0
 62
     7
100
AcDbLine
 10
195.23115
 20
146.8440949999999
 30
0.0
 11
195.687969
 21
146.8440949999999
 31
0.0
  0
LINE
  5
39
330
A
100
AcDbEntity
  8
0
 62
     7
100
AcDbLine
 10
194.844093
 20
146.8440949999999
 30
0.0
 11
195.23115
 21
146.8440949999999
 31
0.0
  0
LINE
  5
38
330
A
100
AcDbEntity
  8
0
 62
     7
100
AcDbLine
 10
194.585366
 20
146.8440949999999
 30
0.0
 11
194.844093
 21
146.8440949999999
 31
0.0
  0
LINE
  5
37
330
A
100
AcDbEntity
  8
0
 62
     7
100
AcDbLine
 10
194.494416
 20
146.8440949999999
 30
0.0
 11
194.585366
 21
146.8440949999999
 31
0.0
  0
LINE
  5
36
330
A
100
AcDbEntity
  8
0
 62
     7
100
AcDbLine
 10
194.494416
 20
146.8440949999999
 30
0.0
 11
194.494416
 21
147.840416
 31
0.0
  0
LINE
  5
35
330
A
100
AcDbEntity
  8
0
 62
     7
100
AcDbLine
 10
196.88135
 20
146.8440949999999
 30
0.0
 11
196.88135
 21
147.847995
 31
0.0
  0
LINE
  5
34
330
A
100
AcDbEntity
  8
0
 62
     7
100
AcDbLine
 10
196.790572
 20
146.8440949999999
 30
0.0
 11
196.88135
 21
146.8440949999999
 31
0.0
  0
LINE
  5
33
330
A
100
AcDbEntity
  8
0
 62
     7
100
AcDbLine
 10
196.531845
 20
146.8440949999999
 30
0.0
 11
196.790572
 21
146.8440949999999
 31
0.0
  0
LINE
  5
32
330
A
100
AcDbEntity
  8
0
 62
     7
100
AcDbLine
 10
196.144617
 20
146.8440949999999
 30
0.0
 11
196.531845
 21
146.8440949999999
 31
0.0
  0
LINE
  5
31
330
A
100
AcDbEntity
  8
0
 62
     7
100
AcDbLine
 10
195.687969
 20
146.8440949999999
 30
0.0
 11
196.144617
 21
146.8440949999999
 31
0.0
  0
LINE
  5
30
330
A
100
AcDbEntity
  8
0
 62
     7
100
AcDbLine
 10
195.687969
 20
145.798508
 30
0.0
 11
195.345527
 21
145.798508
 31
0.0
  0
LINE
  5
2F
330
A
100
AcDbEntity
  8
0
 62
     7
100
AcDbLine
 10
196.030412
 20
145.798508
 30
0.0
 11
195.687969
 21
145.798508
 31
0.0
  0
LINE
  5
2E
330
A
100
AcDbEntity
  8
0
 62
     7
100
AcDbLine
 10
196.320833
 20
145.798508
 30
0.0
 11
196.030412
 21
145.798508
 31
0.0
  0
LINE
  5
2D
330
A
100
AcDbEntity
  8
0
 62
     7
100
AcDbLine
 10
196.514792
 20
145.798508
 30
0.0
 11
196.320833
 21
145.798508
 31
0.0
  0
LINE
  5
2C
330
A
100
AcDbEntity
  8
0
 62
     7
100
AcDbLine
 10
196.583005
 20
145.798508
 30
0.0
 11
196.514792
 21
145.798508
 31
0.0
  0
LINE
  5
2B
330
A
100
AcDbEntity
  8
0
 62
     7
100
AcDbLine
 10
194.861146
 20
145.798508
 30
0.0
 11
194.792933
 21
145.798508
 31
0.0
  0
LINE
  5
2A
330
A
100
AcDbEntity
  8
0
 62
     7
100
AcDbLine
 10
195.055105
 20
145.798508
 30
0.0
 11
194.861146
 21
145.798508
 31
0.0
  0
LINE
  5
29
330
A
100
AcDbEntity
  8
0
 62
     7
100
AcDbLine
 10
195.345527
 20
145.798508
 30
0.0
 11
195.055105
 21
145.798508
 31
0.0
  0
DIMENSION
  5
21B
330
A
100
AcDbEntity
  8
Cotation-JacobDelafon
  6
Continuous
370
     0
100
AcDbDimension
  2
*D3
 10
214.054118
 20
169.0311624758795
 30
0.0
 11
200.0001955
 21
171.4628814390446
 31
0.0
 70
    32
  1
28.1
 71
     5
 42
28.10784500000003
 73
     0
 74
     0
 75
     0
  3
Cotation-Jacob-Delafon
100
AcDbAlignedDimension
 13
185.946273
 23
149.287356
 33
0.0
 14
214.054118
 24
150.206508
 34
0.0
100
AcDbRotatedDimension
  0
DIMENSION
  5
228
330
A
100
AcDbEntity
  8
Cotation-JacobDelafon
  6
Continuous
370
     0
100
AcDbDimension
  2
*D4
 10
171.0796217387003
 20
145.847773
 30
0.0
 11
168.6479027755351
 21
150.0116015
 31
0.0
 70
    32
  1
8.4
 71
     5
 42
8.327656999999987
 73
     0
 74
     0
 75
     0
  3
Cotation-Jacob-Delafon
100
AcDbAlignedDimension
 13
185.946273
 23
154.17543
 33
0.0
 14
195.020138
 24
145.847773
 34
0.0
 50
90.0
100
AcDbRotatedDimension
  0
ENDSEC
  0
SECTION
  2
OBJECTS
  0
DICTIONARY
  5
19
330
0
100
AcDbDictionary
281
     1
  3
ACAD_COLOR
350
1E7
  3
ACAD_GROUP
350
1A
  3
ACAD_LAYOUT
350
1E
  3
ACAD_MATERIAL
350
1BD
  3
ACAD_MLEADERSTYLE
350
1FC
  3
ACAD_MLINESTYLE
350
1B
  3
ACAD_PLOTSETTINGS
350
22
  3
ACAD_PLOTSTYLENAME
350
1F
  3
ACAD_SCALELIST
350
1EA
  3
ACAD_TABLESTYLE
350
1E8
  3
ACAD_VISUALSTYLE
350
1D6
  3
ACAD_WIPEOUT_VARS
350
23
  3
ACDB_RECOMPOSE_DATA
350
268
  3
AcDbVariableDictionary
350
25E
  3
AEC_PROPERTY_SET_DEFS
350
20F
  0
DICTIONARY
  5
25B
330
14
100
AcDbDictionary
280
     1
281
     1
  3
ADSK_XREC_LAYER_RECONCILED
360
25C
  0
DICTIONARY
  5
215
330
214
100
AcDbDictionary
280
     1
281
     1
  3
ADSK_XREC_LAYER_RECONCILED
360
25D
  0
DICTIONARY
  5
1E7
102
{ACAD_REACTORS
330
19
102
}
330
19
100
AcDbDictionary
281
     1
  0
DICTIONARY
  5
1A
102
{ACAD_REACTORS
330
19
102
}
330
19
100
AcDbDictionary
281
     1
  0
DICTIONARY
  5
1E
102
{ACAD_REACTORS
330
19
102
}
330
19
100
AcDbDictionary
281
     1
  3
Layout1
350
21
  3
Model
350
20
  0
DICTIONARY
  5
1BD
102
{ACAD_REACTORS
330
19
102
}
330
19
100
AcDbDictionary
281
     1
  3
ByBlock
350
1C6
  3
ByLayer
350
1BE
  3
Global
350
1CE
  0
DICTIONARY
  5
1FC
102
{ACAD_REACTORS
330
19
102
}
330
19
100
AcDbDictionary
281
     1
  3
Standard
350
1FD
  0
DICTIONARY
  5
1B
102
{ACAD_REACTORS
330
19
102
}
330
19
100
AcDbDictionary
281
     1
  3
Standard
350
1C
  0
DICTIONARY
  5
22
102
{ACAD_REACTORS
330
19
102
}
330
19
100
AcDbDictionary
281
     1
  0
ACDBDICTIONARYWDFLT
  5
1F
102
{ACAD_REACTORS
330
19
102
}
330
19
100
AcDbDictionary
281
     1
  3
Normal
350
1D
100
AcDbDictionaryWithDefault
340
1D
  0
DICTIONARY
  5
1EA
102
{ACAD_REACTORS
330
19
102
}
330
19
100
AcDbDictionary
281
     1
  3
A0
350
1EB
  3
A1
350
1EC
  3
A2
350
1ED
  3
A3
350
1EE
  3
A4
350
1EF
  3
A5
350
1F0
  3
A6
350
1F1
  3
A7
350
1F2
  3
A8
350
1F3
  3
A9
350
1F4
  3
B0
350
1F5
  3
B1
350
1F6
  3
B2
350
1F7
  3
B3
350
1F8
  3
B4
350
1F9
  3
B5
350
1FA
  3
B6
350
1FB
  0
DICTIONARY
  5
1E8
102
{ACAD_REACTORS
330
19
102
}
330
19
100
AcDbDictionary
281
     1
  3
Standard
350
1E9
  0
DICTIONARY
  5
1D6
102
{ACAD_REACTORS
330
19
102
}
330
19
100
AcDbDictionary
281
     1
  3
2dWireframe
350
1DC
  3
3D Hidden
350
1DE
  3
3dWireframe
350
1DD
  3
Basic
350
1DB
  3
Brighten
350
1E2
  3
ColorChange
350
1E6
  3
Conceptual
350
1DF
  3
Dim
350
1E1
  3
Facepattern
350
1E5
  3
Flat
350
1D7
  3
FlatWithEdges
350
1D8
  3
Gouraud
350
1D9
  3
GouraudWithEdges
350
1DA
  3
Linepattern
350
1E4
  3
Realistic
350
1E0
  3
Thicken
350
1E3
  0
WIPEOUTVARIABLES
  5
23
330
19
100
AcDbWipeoutVariables
 70
     1
  0
XRECORD
  5
268
102
{ACAD_REACTORS
330
19
102
}
330
19
100
AcDbXrecord
280
     1
 90
        1
330
1E9
  0
DICTIONARY
  5
25E
102
{ACAD_REACTORS
330
19
102
}
330
19
100
AcDbDictionary
281
     1
  3
CANNOSCALE
350
262
  3
CMLEADERSTYLE
350
260
  3
CTABLESTYLE
350
25F
  3
LAYEREVAL
350
264
  3
LAYERNOTIFY
350
265
  3
LIGHTINGUNITS
350
263
  3
MSLTSCALE
350
261
  0
DICTIONARY
  5
20F
102
{ACAD_REACTORS
330
19
102
}
330
19
100
AcDbDictionary
281
     1
  0
XRECORD
  5
25C
102
{ACAD_REACTORS
330
25B
102
}
330
25B
100
AcDbXrecord
280
     1
290
     1
  0
XRECORD
  5
25D
102
{ACAD_REACTORS
330
215
102
}
330
215
100
AcDbXrecord
280
     1
290
     1
  0
LAYOUT
  5
21
102
{ACAD_REACTORS
330
1E
102
}
330
1E
100
AcDbPlotSettings
  1

  2

  4

  6

 40
0.0
 41
0.0
 42
0.0
 43
0.0
 44
0.0
 45
0.0
 46
0.0
 47
0.0
 48
0.0
 49
0.0
140
0.0
141
0.0
142
1.0
143
1.0
 70
     0
 72
     0
 73
     0
 74
     0
  7

 75
     0
147
1.0
 76
     0
 77
     2
 78
   300
148
0.0
149
0.0
100
AcDbLayout
  1
Layout1
 70
     0
 71
     1
 10
0.0
 20
0.0
 11
12.0
 21
9.0
 12
0.0
 22
0.0
 32
0.0
 14
1.000000000000000E+20
 24
1.000000000000000E+20
 34
1.000000000000000E+20
 15
-1.000000000000000E+20
 25
-1.000000000000000E+20
 35
-1.000000000000000E+20
146
0.0
 13
0.0
 23
0.0
 33
0.0
 16
1.0
 26
0.0
 36
0.0
 17
0.0
 27
1.0
 37
0.0
 76
     0
330
B
  0
LAYOUT
  5
20
102
{ACAD_REACTORS
330
1E
102
}
330
1E
100
AcDbPlotSettings
  1

  2

  4

  6

 40
0.0
 41
0.0
 42
0.0
 43
0.0
 44
0.0
 45
0.0
 46
0.0
 47
0.0
 48
0.0
 49
0.0
140
0.0
141
0.0
142
1.0
143
1.0
 70
  1024
 72
     0
 73
     0
 74
     0
  7

 75
     0
147
1.0
 76
     0
 77
     2
 78
   300
148
0.0
149
0.0
100
AcDbLayout
  1
Model
 70
     0
 71
     0
 10
0.0
 20
0.0
 11
0.0
 21
0.0
 12
0.0
 22
0.0
 32
0.0
 14
0.0
 24
0.0
 34
0.0
 15
0.0
 25
0.0
 35
0.0
146
0.0
 13
0.0
 23
0.0
 33
0.0
 16
0.0
 26
0.0
 36
0.0
 17
0.0
 27
0.0
 37
0.0
 76
     0
330
A
331
15
  0
MATERIAL
  5
1C6
102
{ACAD_XDICTIONARY
360
1C7
102
}
102
{ACAD_REACTORS
330
1BD
102
}
330
1BD
100
AcDbMaterial
  1
ByBlock
 72
     0
 43
0.0208333333333333
 43
0.0
 43
0.0
 43
0.0
 43
0.0
 43
0.0208333333333333
 43
0.0
 43
0.0
 43
0.0
 43
0.0
 43
1.0
 43
0.0
 43
0.0
 43
0.0
 43
0.0
 43
1.0
 77
     0
 47
0.0208333333333333
 47
0.0
 47
0.0
 47
0.0
 47
0.0
 47
0.0208333333333333
 47
0.0
 47
0.0
 47
0.0
 47
0.0
 47
1.0
 47
0.0
 47
0.0
 47
0.0
 47
0.0
 47
1.0
171
     0
 49
0.0208333333333333
 49
0.0
 49
0.0
 49
0.0
 49
0.0
 49
0.0208333333333333
 49
0.0
 49
0.0
 49
0.0
 49
0.0
 49
1.0
 49
0.0
 49
0.0
 49
0.0
 49
0.0
 49
1.0
175
     0
142
0.0208333333333333
142
0.0
142
0.0
142
0.0
142
0.0
142
0.0208333333333333
142
0.0
142
0.0
142
0.0
142
0.0
142
1.0
142
0.0
142
0.0
142
0.0
142
0.0
142
1.0
179
     0
144
0.0208333333333333
144
0.0
144
0.0
144
0.0
144
0.0
144
0.0208333333333333
144
0.0
144
0.0
144
0.0
144
0.0
144
1.0
144
0.0
144
0.0
144
0.0
144
0.0
144
1.0
147
0.0208333333333333
147
0.0
147
0.0
147
0.0
147
0.0
147
0.0208333333333333
147
0.0
147
0.0
147
0.0
147
0.0
147
1.0
147
0.0
147
0.0
147
0.0
147
0.0
147
1.0
  0
MATERIAL
  5
1BE
102
{ACAD_XDICTIONARY
360
1BF
102
}
102
{ACAD_REACTORS
330
1BD
102
}
330
1BD
100
AcDbMaterial
  1
ByLayer
 72
     0
 43
0.0208333333333333
 43
0.0
 43
0.0
 43
0.0
 43
0.0
 43
0.0208333333333333
 43
0.0
 43
0.0
 43
0.0
 43
0.0
 43
1.0
 43
0.0
 43
0.0
 43
0.0
 43
0.0
 43
1.0
 77
     0
 47
0.0208333333333333
 47
0.0
 47
0.0
 47
0.0
 47
0.0
 47
0.0208333333333333
 47
0.0
 47
0.0
 47
0.0
 47
0.0
 47
1.0
 47
0.0
 47
0.0
 47
0.0
 47
0.0
 47
1.0
171
     0
 49
0.0208333333333333
 49
0.0
 49
0.0
 49
0.0
 49
0.0
 49
0.0208333333333333
 49
0.0
 49
0.0
 49
0.0
 49
0.0
 49
1.0
 49
0.0
 49
0.0
 49
0.0
 49
0.0
 49
1.0
175
     0
142
0.0208333333333333
142
0.0
142
0.0
142
0.0
142
0.0
142
0.0208333333333333
142
0.0
142
0.0
142
0.0
142
0.0
142
1.0
142
0.0
142
0.0
142
0.0
142
0.0
142
1.0
179
     0
144
0.0208333333333333
144
0.0
144
0.0
144
0.0
144
0.0
144
0.0208333333333333
144
0.0
144
0.0
144
0.0
144
0.0
144
1.0
144
0.0
144
0.0
144
0.0
144
0.0
144
1.0
147
0.0208333333333333
147
0.0
147
0.0
147
0.0
147
0.0
147
0.0208333333333333
147
0.0
147
0.0
147
0.0
147
0.0
147
1.0
147
0.0
147
0.0
147
0.0
147
0.0
147
1.0
  0
MATERIAL
  5
1CE
102
{ACAD_XDICTIONARY
360
1CF
102
}
102
{ACAD_REACTORS
330
1BD
102
}
330
1BD
100
AcDbMaterial
  1
Global
 72
     0
 43
0.0208333333333333
 43
0.0
 43
0.0
 43
0.0
 43
0.0
 43
0.0208333333333333
 43
0.0
 43
0.0
 43
0.0
 43
0.0
 43
1.0
 43
0.0
 43
0.0
 43
0.0
 43
0.0
 43
1.0
 77
     0
 47
0.0208333333333333
 47
0.0
 47
0.0
 47
0.0
 47
0.0
 47
0.0208333333333333
 47
0.0
 47
0.0
 47
0.0
 47
0.0
 47
1.0
 47
0.0
 47
0.0
 47
0.0
 47
0.0
 47
1.0
171
     0
 49
0.0208333333333333
 49
0.0
 49
0.0
 49
0.0
 49
0.0
 49
0.0208333333333333
 49
0.0
 49
0.0
 49
0.0
 49
0.0
 49
1.0
 49
0.0
 49
0.0
 49
0.0
 49
0.0
 49
1.0
175
     0
142
0.0208333333333333
142
0.0
142
0.0
142
0.0
142
0.0
142
0.0208333333333333
142
0.0
142
0.0
142
0.0
142
0.0
142
1.0
142
0.0
142
0.0
142
0.0
142
0.0
142
1.0
179
     0
144
0.0208333333333333
144
0.0
144
0.0
144
0.0
144
0.0
144
0.0208333333333333
144
0.0
144
0.0
144
0.0
144
0.0
144
1.0
144
0.0
144
0.0
144
0.0
144
0.0
144
1.0
147
0.0208333333333333
147
0.0
147
0.0
147
0.0
147
0.0
147
0.0208333333333333
147
0.0
147
0.0
147
0.0
147
0.0
147
1.0
147
0.0
147
0.0
147
0.0
147
0.0
147
1.0
  0
MLEADERSTYLE
  5
1FD
102
{ACAD_REACTORS
330
1FC
102
}
330
1FC
100
AcDbMLeaderStyle
170
     2
171
     1
172
     0
 90
        2
 40
0.0
 41
0.0
173
     1
 91
-1056964608
340
11
 92
       -2
290
     1
 42
2.0
291
     1
 43
0.36
  3
Standard
 44
4.0
300

342
17
174
     1
178
     6
175
     1
176
     0
 93
-1056964608
 45
4.0
292
     0
297
     0
 46
4.0
 94
-1056964608
 47
1.0
 49
1.0
140
1.0
293
     1
141
0.0
294
     1
177
     0
142
1.0
295
     0
296
     0
143
0.125
1001
ACAD_MLEADERVER
1070
     2
  0
MLINESTYLE
  5
1C
102
{ACAD_REACTORS
330
1B
102
}
330
1B
100
AcDbMlineStyle
  2
STANDARD
 70
     0
  3

 62
     0
 51
90.0
 52
90.0
 71
     2
 49
0.5
 62
   256
  6
BYLAYER
 49
-0.5
 62
   256
  6
BYLAYER
  0
ACDBPLACEHOLDER
  5
1D
102
{ACAD_REACTORS
330
1F
102
}
330
1F
  0
SCALE
  5
1EB
102
{ACAD_REACTORS
330
1EA
102
}
330
1EA
100
AcDbScale
 70
     0
300
1:1
140
1.0
141
1.0
290
     1
  0
SCALE
  5
1EC
102
{ACAD_REACTORS
330
1EA
102
}
330
1EA
100
AcDbScale
 70
     0
300
1:2
140
1.0
141
2.0
290
     0
  0
SCALE
  5
1ED
102
{ACAD_REACTORS
330
1EA
102
}
330
1EA
100
AcDbScale
 70
     0
300
1:4
140
1.0
141
4.0
290
     0
  0
SCALE
  5
1EE
102
{ACAD_REACTORS
330
1EA
102
}
330
1EA
100
AcDbScale
 70
     0
300
1:5
140
1.0
141
5.0
290
     0
  0
SCALE
  5
1EF
102
{ACAD_REACTORS
330
1EA
102
}
330
1EA
100
AcDbScale
 70
     0
300
1:8
140
1.0
141
8.0
290
     0
  0
SCALE
  5
1F0
102
{ACAD_REACTORS
330
1EA
102
}
330
1EA
100
AcDbScale
 70
     0
300
1:10
140
1.0
141
10.0
290
     0
  0
SCALE
  5
1F1
102
{ACAD_REACTORS
330
1EA
102
}
330
1EA
100
AcDbScale
 70
     0
300
1:16
140
1.0
141
16.0
290
     0
  0
SCALE
  5
1F2
102
{ACAD_REACTORS
330
1EA
102
}
330
1EA
100
AcDbScale
 70
     0
300
1:20
140
1.0
141
20.0
290
     0
  0
SCALE
  5
1F3
102
{ACAD_REACTORS
330
1EA
102
}
330
1EA
100
AcDbScale
 70
     0
300
1:30
140
1.0
141
30.0
290
     0
  0
SCALE
  5
1F4
102
{ACAD_REACTORS
330
1EA
102
}
330
1EA
100
AcDbScale
 70
     0
300
1:40
140
1.0
141
40.0
290
     0
  0
SCALE
  5
1F5
102
{ACAD_REACTORS
330
1EA
102
}
330
1EA
100
AcDbScale
 70
     0
300
1:50
140
1.0
141
50.0
290
     0
  0
SCALE
  5
1F6
102
{ACAD_REACTORS
330
1EA
102
}
330
1EA
100
AcDbScale
 70
     0
300
1:100
140
1.0
141
100.0
290
     0
  0
SCALE
  5
1F7
102
{ACAD_REACTORS
330
1EA
102
}
330
1EA
100
AcDbScale
 70
     0
300
2:1
140
2.0
141
1.0
290
     0
  0
SCALE
  5
1F8
102
{ACAD_REACTORS
330
1EA
102
}
330
1EA
100
AcDbScale
 70
     0
300
4:1
140
4.0
141
1.0
290
     0
  0
SCALE
  5
1F9
102
{ACAD_REACTORS
330
1EA
102
}
330
1EA
100
AcDbScale
 70
     0
300
8:1
140
8.0
141
1.0
290
     0
  0
SCALE
  5
1FA
102
{ACAD_REACTORS
330
1EA
102
}
330
1EA
100
AcDbScale
 70
     0
300
10:1
140
10.0
141
1.0
290
     0
  0
SCALE
  5
1FB
102
{ACAD_REACTORS
330
1EA
102
}
330
1EA
100
AcDbScale
 70
     0
300
100:1
140
100.0
141
1.0
290
     0
  0
TABLESTYLE
  5
1E9
102
{ACAD_XDICTIONARY
360
266
102
}
102
{ACAD_REACTORS
330
1E8
102
}
330
1E8
100
AcDbTableStyle
  3
Standard
 70
     0
 71
     0
 40
1.5
 41
1.5
280
     0
281
     0
  7
Standard
140
4.5
170
     2
 62
     0
 63
     7
283
     0
 90
      512
 91
        0
  1

274
    -2
284
     1
 64
     0
275
    -2
285
     1
 65
     0
276
    -2
286
     1
 66
     0
277
    -2
287
     1
 67
     0
278
    -2
288
     1
 68
     0
279
    -2
289
     1
 69
     0
  7
Standard
140
6.0
170
     5
 62
     0
 63
     7
283
     0
 90
      512
 91
        0
  1

274
    -2
284
     1
 64
     0
275
    -2
285
     1
 65
     0
276
    -2
286
     1
 66
     0
277
    -2
287
     1
 67
     0
278
    -2
288
     1
 68
     0
279
    -2
289
     1
 69
     0
  7
Standard
140
4.5
170
     5
 62
     0
 63
     7
283
     0
 90
      512
 91
        0
  1

274
    -2
284
     1
 64
     0
275
    -2
285
     1
 65
     0
276
    -2
286
     1
 66
     0
277
    -2
287
     1
 67
     0
278
    -2
288
     1
 68
     0
279
    -2
289
     1
 69
     0
  0
VISUALSTYLE
  5
1DC
102
{ACAD_REACTORS
330
1D6
102
}
330
1D6
100
AcDbVisualStyle
  2
2dWireframe
 70
     4
 71
     0
 72
     2
 73
     0
 90
        0
 40
-0.6
 41
-30.0
 62
     5
 63
     7
421
 16777215
 74
     1
 91
        4
 64
     7
 65
   257
 75
     1
175
     1
 42
1.0
 92
        0
 66
   257
 43
1.0
 76
     1
 77
     6
 78
     2
 67
     7
 79
     5
170
     0
171
     0
290
     0
174
     0
 93
        1
 44
0.0
173
     0
291
     0
 45
0.0
  0
VISUALSTYLE
  5
1DE
102
{ACAD_REACTORS
330
1D6
102
}
330
1D6
100
AcDbVisualStyle
  2
3D Hidden
 70
     6
 71
     1
 72
     2
 73
     2
 90
        0
 40
-0.6
 41
-30.0
 62
     5
 63
     7
421
 16777215
 74
     2
 91
        2
 64
     7
 65
   257
 75
     2
175
     1
 42
40.0
 92
        0
 66
   257
 43
1.0
 76
     1
 77
     6
 78
     2
 67
     7
 79
     3
170
     0
171
     0
290
     0
174
     0
 93
        1
 44
0.0
173
     0
291
     0
 45
0.0
  0
VISUALSTYLE
  5
1DD
102
{ACAD_REACTORS
330
1D6
102
}
330
1D6
100
AcDbVisualStyle
  2
3dWireframe
 70
     5
 71
     0
 72
     2
 73
     0
 90
        0
 40
-0.6
 41
-30.0
 62
     5
 63
     7
421
 16777215
 74
     1
 91
        4
 64
     7
 65
   257
 75
     1
175
     1
 42
1.0
 92
        0
 66
   257
 43
1.0
 76
     1
 77
     6
 78
     2
 67
     7
 79
     5
170
     0
171
     0
290
     0
174
     0
 93
        1
 44
0.0
173
     0
291
     0
 45
0.0
  0
VISUALSTYLE
  5
1DB
102
{ACAD_REACTORS
330
1D6
102
}
330
1D6
100
AcDbVisualStyle
  2
Basic
 70
     7
 71
     1
 72
     0
 73
     1
 90
        0
 40
-0.6
 41
-30.0
 62
     5
 63
     7
421
 16777215
 74
     0
 91
        4
 64
     7
 65
   257
 75
     1
175
     1
 42
1.0
 92
        8
 66
     7
 43
1.0
 76
     1
 77
     6
 78
     2
 67
     7
 79
     5
170
     0
171
     0
290
     0
174
     0
 93
        1
 44
0.0
173
     0
291
     1
 45
0.0
  0
VISUALSTYLE
  5
1E2
102
{ACAD_REACTORS
330
1D6
102
}
330
1D6
100
AcDbVisualStyle
  2
Brighten
 70
    12
 71
     2
 72
     2
 73
     0
 90
        0
 40
-0.6
 41
-30.0
 62
     5
 63
     7
421
 16777215
 74
     1
 91
        4
 64
     7
 65
   257
 75
     1
175
     1
 42
1.0
 92
        8
 66
     7
 43
1.0
 76
     1
 77
     6
 78
     2
 67
     7
 79
     5
170
     0
171
     0
290
     0
174
     0
 93
        1
 44
50.0
173
     0
291
     1
 45
0.0
  0
VISUALSTYLE
  5
1E6
102
{ACAD_REACTORS
330
1D6
102
}
330
1D6
100
AcDbVisualStyle
  2
ColorChange
 70
    16
 71
     2
 72
     2
 73
     3
 90
        0
 40
-0.6
 41
-30.0
 62
     5
 63
     8
421
  8421504
 74
     1
 91
        4
 64
     7
 65
   257
 75
     1
175
     1
 42
1.0
 92
        8
 66
     8
424
  8421504
 43
1.0
 76
     1
 77
     6
 78
     2
 67
     7
 79
     5
170
     0
171
     0
290
     0
174
     0
 93
        1
 44
0.0
173
     0
291
     1
 45
0.0
  0
VISUALSTYLE
  5
1DF
102
{ACAD_REACTORS
330
1D6
102
}
330
1D6
100
AcDbVisualStyle
  2
Conceptual
 70
     9
 71
     3
 72
     2
 73
     0
 90
        0
 40
-0.6
 41
-30.0
 62
     5
 63
     7
421
 16777215
 74
     2
 91
        2
 64
     7
 65
   257
 75
     1
175
     1
 42
40.0
 92
        8
 66
     7
 43
1.0
 76
     1
 77
     6
 78
     2
 67
     7
 79
     3
170
     0
171
     0
290
     0
174
     0
 93
        1
 44
0.0
173
     0
291
     0
 45
0.0
  0
VISUALSTYLE
  5
1E1
102
{ACAD_REACTORS
330
1D6
102
}
330
1D6
100
AcDbVisualStyle
  2
Dim
 70
    11
 71
     2
 72
     2
 73
     0
 90
        0
 40
-0.6
 41
-30.0
 62
     5
 63
     7
421
 16777215
 74
     1
 91
        4
 64
     7
 65
   257
 75
     1
175
     1
 42
1.0
 92
        8
 66
     7
 43
1.0
 76
     1
 77
     6
 78
     2
 67
     7
 79
     5
170
     0
171
     0
290
     0
174
     0
 93
        1
 44
-50.0
173
     0
291
     1
 45
0.0
  0
VISUALSTYLE
  5
1E5
102
{ACAD_REACTORS
330
1D6
102
}
330
1D6
100
AcDbVisualStyle
  2
Facepattern
 70
    15
 71
     2
 72
     2
 73
     0
 90
        0
 40
-0.6
 41
-30.0
 62
     5
 63
     7
421
 16777215
 74
     1
 91
        4
 64
     7
 65
   257
 75
     1
175
     1
 42
1.0
 92
        8
 66
     7
 43
1.0
 76
     1
 77
     6
 78
     2
 67
     7
 79
     5
170
     0
171
     0
290
     0
174
     0
 93
        1
 44
0.0
173
     0
291
     1
 45
0.0
  0
VISUALSTYLE
  5
1D7
102
{ACAD_REACTORS
330
1D6
102
}
330
1D6
100
AcDbVisualStyle
  2
Flat
 70
     0
 71
     2
 72
     1
 73
     1
 90
        2
 40
-0.6
 41
30.0
 62
     5
 63
     7
421
 16777215
 74
     0
 91
        4
 64
     7
 65
   257
 75
     1
175
     1
 42
1.0
 92
        8
 66
     7
 43
1.0
 76
     1
 77
     6
 78
     2
 67
     7
 79
     5
170
     0
171
     0
290
     0
174
     0
 93
       13
 44
0.0
173
     0
291
     1
 45
0.0
  0
VISUALSTYLE
  5
1D8
102
{ACAD_REACTORS
330
1D6
102
}
330
1D6
100
AcDbVisualStyle
  2
FlatWithEdges
 70
     1
 71
     2
 72
     1
 73
     1
 90
        2
 40
-0.6
 41
30.0
 62
     5
 63
     7
421
 16777215
 74
     1
 91
        4
 64
     7
 65
   257
 75
     1
175
     1
 42
1.0
 92
        0
 66
   257
 43
1.0
 76
     1
 77
     6
 78
     2
 67
     7
 79
     5
170
     0
171
     0
290
     0
174
     0
 93
       13
 44
0.0
173
     0
291
     1
 45
0.0
  0
VISUALSTYLE
  5
1D9
102
{ACAD_REACTORS
330
1D6
102
}
330
1D6
100
AcDbVisualStyle
  2
Gouraud
 70
     2
 71
     2
 72
     2
 73
     1
 90
        2
 40
-0.6
 41
30.0
 62
     5
 63
     7
421
 16777215
 74
     0
 91
        4
 64
     7
 65
   257
 75
     1
175
     1
 42
1.0
 92
        0
 66
     7
 43
1.0
 76
     1
 77
     6
 78
     2
 67
     7
 79
     5
170
     0
171
     0
290
     0
174
     0
 93
       13
 44
0.0
173
     0
291
     1
 45
0.0
  0
VISUALSTYLE
  5
1DA
102
{ACAD_REACTORS
330
1D6
102
}
330
1D6
100
AcDbVisualStyle
  2
GouraudWithEdges
 70
     3
 71
     2
 72
     2
 73
     1
 90
        2
 40
-0.6
 41
30.0
 62
     5
 63
     7
421
 16777215
 74
     1
 91
        4
 64
     7
 65
   257
 75
     1
175
     1
 42
1.0
 92
        0
 66
   257
 43
1.0
 76
     1
 77
     6
 78
     2
 67
     7
 79
     5
170
     0
171
     0
290
     0
174
     0
 93
       13
 44
0.0
173
     0
291
     1
 45
0.0
  0
VISUALSTYLE
  5
1E4
102
{ACAD_REACTORS
330
1D6
102
}
330
1D6
100
AcDbVisualStyle
  2
Linepattern
 70
    14
 71
     2
 72
     2
 73
     0
 90
        0
 40
-0.6
 41
-30.0
 62
     5
 63
     7
421
 16777215
 74
     1
 91
        4
 64
     7
 65
   257
 75
     7
175
     7
 42
1.0
 92
        8
 66
     7
 43
1.0
 76
     1
 77
     6
 78
     2
 67
     7
 79
     5
170
     0
171
     0
290
     0
174
     0
 93
        1
 44
0.0
173
     0
291
     1
 45
0.0
  0
VISUALSTYLE
  5
1E0
102
{ACAD_REACTORS
330
1D6
102
}
330
1D6
100
AcDbVisualStyle
  2
Realistic
 70
     8
 71
     2
 72
     2
 73
     0
 90
        0
 40
-0.6
 41
-30.0
 62
     5
 63
     7
421
 16777215
 74
     1
 91
        0
 64
     7
 65
   257
 75
     1
175
     1
 42
1.0
 92
        8
 66
     8
424
  7895160
 43
1.0
 76
     1
 77
     6
 78
     2
 67
     7
 79
     5
170
     0
171
     0
290
     0
174
     0
 93
       13
 44
0.0
173
     0
291
     0
 45
0.0
  0
VISUALSTYLE
  5
1E3
102
{ACAD_REACTORS
330
1D6
102
}
330
1D6
100
AcDbVisualStyle
  2
Thicken
 70
    13
 71
     2
 72
     2
 73
     0
 90
        0
 40
-0.6
 41
-30.0
 62
     5
 63
     7
421
 16777215
 74
     1
 91
        4
 64
     7
 65
   257
 75
     1
175
     1
 42
1.0
 92
       12
 66
     7
 43
1.0
 76
     1
 77
     6
 78
     2
 67
     7
 79
     5
170
     0
171
     0
290
     0
174
     0
 93
        1
 44
0.0
173
     0
291
     1
 45
0.0
  0
DICTIONARYVAR
  5
262
102
{ACAD_REACTORS
330
25E
102
}
330
25E
100
DictionaryVariables
280
     0
  1
1:1
  0
DICTIONARYVAR
  5
260
102
{ACAD_REACTORS
330
25E
102
}
330
25E
100
DictionaryVariables
280
     0
  1
STANDARD
  0
DICTIONARYVAR
  5
25F
102
{ACAD_REACTORS
330
25E
102
}
330
25E
100
DictionaryVariables
280
     0
  1
STANDARD
  0
DICTIONARYVAR
  5
264
102
{ACAD_REACTORS
330
25E
102
}
330
25E
100
DictionaryVariables
280
     0
  1
1
  0
DICTIONARYVAR
  5
265
102
{ACAD_REACTORS
330
25E
102
}
330
25E
100
DictionaryVariables
280
     0
  1
15
  0
DICTIONARYVAR
  5
263
102
{ACAD_REACTORS
330
25E
102
}
330
25E
100
DictionaryVariables
280
     0
  1
0
  0
DICTIONARYVAR
  5
261
102
{ACAD_REACTORS
330
25E
102
}
330
25E
100
DictionaryVariables
280
     0
  1
0
  0
DICTIONARY
  5
1C7
330
1C6
100
AcDbDictionary
280
     1
281
     1
  3
BUMPTILE
360
1C9
  3
DIFFUSETILE
360
1C8
  3
OPACITYTILE
360
1CC
  3
REFLECTIONTILE
360
1CB
  3
REFRACTIONTILE
360
1CD
  3
SPECULARTILE
360
1CA
  0
DICTIONARY
  5
1BF
330
1BE
100
AcDbDictionary
280
     1
281
     1
  3
BUMPTILE
360
1C1
  3
DIFFUSETILE
360
1C0
  3
OPACITYTILE
360
1C4
  3
REFLECTIONTILE
360
1C3
  3
REFRACTIONTILE
360
1C5
  3
SPECULARTILE
360
1C2
  0
DICTIONARY
  5
1CF
330
1CE
100
AcDbDictionary
280
     1
281
     1
  3
BUMPTILE
360
1D1
  3
DIFFUSETILE
360
1D0
  3
OPACITYTILE
360
1D4
  3
REFLECTIONTILE
360
1D3
  3
REFRACTIONTILE
360
1D5
  3
SPECULARTILE
360
1D2
  0
DICTIONARY
  5
266
330
1E9
100
AcDbDictionary
280
     1
281
     1
  3
ACAD_ROUNDTRIP_2008_TABLESTYLE_CELLSTYLEMAP
360
267
  0
XRECORD
  5
1C9
102
{ACAD_REACTORS
330
1C7
102
}
330
1C7
100
AcDbXrecord
280
     1
270
     1
271
     1
  0
XRECORD
  5
1C8
102
{ACAD_REACTORS
330
1C7
102
}
330
1C7
100
AcDbXrecord
280
     1
270
     1
271
     1
  0
XRECORD
  5
1CC
102
{ACAD_REACTORS
330
1C7
102
}
330
1C7
100
AcDbXrecord
280
     1
270
     1
271
     1
  0
XRECORD
  5
1CB
102
{ACAD_REACTORS
330
1C7
102
}
330
1C7
100
AcDbXrecord
280
     1
270
     1
271
     1
  0
XRECORD
  5
1CD
102
{ACAD_REACTORS
330
1C7
102
}
330
1C7
100
AcDbXrecord
280
     1
270
     1
271
     1
  0
XRECORD
  5
1CA
102
{ACAD_REACTORS
330
1C7
102
}
330
1C7
100
AcDbXrecord
280
     1
270
     1
271
     1
  0
XRECORD
  5
1C1
102
{ACAD_REACTORS
330
1BF
102
}
330
1BF
100
AcDbXrecord
280
     1
270
     1
271
     1
  0
XRECORD
  5
1C0
102
{ACAD_REACTORS
330
1BF
102
}
330
1BF
100
AcDbXrecord
280
     1
270
     1
271
     1
  0
XRECORD
  5
1C4
102
{ACAD_REACTORS
330
1BF
102
}
330
1BF
100
AcDbXrecord
280
     1
270
     1
271
     1
  0
XRECORD
  5
1C3
102
{ACAD_REACTORS
330
1BF
102
}
330
1BF
100
AcDbXrecord
280
     1
270
     1
271
     1
  0
XRECORD
  5
1C5
102
{ACAD_REACTORS
330
1BF
102
}
330
1BF
100
AcDbXrecord
280
     1
270
     1
271
     1
  0
XRECORD
  5
1C2
102
{ACAD_REACTORS
330
1BF
102
}
330
1BF
100
AcDbXrecord
280
     1
270
     1
271
     1
  0
XRECORD
  5
1D1
102
{ACAD_REACTORS
330
1CF
102
}
330
1CF
100
AcDbXrecord
280
     1
270
     1
271
     1
  0
XRECORD
  5
1D0
102
{ACAD_REACTORS
330
1CF
102
}
330
1CF
100
AcDbXrecord
280
     1
270
     1
271
     1
  0
XRECORD
  5
1D4
102
{ACAD_REACTORS
330
1CF
102
}
330
1CF
100
AcDbXrecord
280
     1
270
     1
271
     1
  0
XRECORD
  5
1D3
102
{ACAD_REACTORS
330
1CF
102
}
330
1CF
100
AcDbXrecord
280
     1
270
     1
271
     1
  0
XRECORD
  5
1D5
102
{ACAD_REACTORS
330
1CF
102
}
330
1CF
100
AcDbXrecord
280
     1
270
     1
271
     1
  0
XRECORD
  5
1D2
102
{ACAD_REACTORS
330
1CF
102
}
330
1CF
100
AcDbXrecord
280
     1
270
     1
271
     1
  0
CELLSTYLEMAP
  5
267
102
{ACAD_REACTORS
330
266
102
}
330
266
100
AcDbCellStyleMap
 90
        3
300
CELLSTYLE
  1
TABLEFORMAT_BEGIN
 90
        5
170
     1
 91
        0
 92
    32768
 62
   257
 93
        1
300
CONTENTFORMAT
  1
CONTENTFORMAT_BEGIN
 90
        0
 91
        0
 92
      512
 93
        0
300

 40
0.0
140
1.0
 94
        5
 62
     0
340
17
144
6.0
309
CONTENTFORMAT_END
171
     1
301
MARGIN
  1
CELLMARGIN_BEGIN
 40
1.5
 40
1.5
 40
1.5
 40
1.5
 40
4.5
 40
4.5
309
CELLMARGIN_END
 94
        6
 95
        1
302
GRIDFORMAT
  1
GRIDFORMAT_BEGIN
 90
        0
 91
        1
 62
     0
 92
       -2
340
0
 93
        0
 40
1.125
309
GRIDFORMAT_END
 95
        2
302
GRIDFORMAT
  1
GRIDFORMAT_BEGIN
 90
        0
 91
        1
 62
     0
 92
       -2
340
0
 93
        0
 40
1.125
309
GRIDFORMAT_END
 95
        4
302
GRIDFORMAT
  1
GRIDFORMAT_BEGIN
 90
        0
 91
        1
 62
     0
 92
       -2
340
0
 93
        0
 40
1.125
309
GRIDFORMAT_END
 95
        8
302
GRIDFORMAT
  1
GRIDFORMAT_BEGIN
 90
        0
 91
        1
 62
     0
 92
       -2
340
0
 93
        0
 40
1.125
309
GRIDFORMAT_END
 95
       16
302
GRIDFORMAT
  1
GRIDFORMAT_BEGIN
 90
        0
 91
        1
 62
     0
 92
       -2
340
0
 93
        0
 40
1.125
309
GRIDFORMAT_END
 95
       32
302
GRIDFORMAT
  1
GRIDFORMAT_BEGIN
 90
        0
 91
        1
 62
     0
 92
       -2
340
0
 93
        0
 40
1.125
309
GRIDFORMAT_END
309
TABLEFORMAT_END
  1
CELLSTYLE_BEGIN
 90
        1
 91
        1
300
_TITLE
309
CELLSTYLE_END
300
CELLSTYLE
  1
TABLEFORMAT_BEGIN
 90
        5
170
     1
 91
        0
 92
        0
 62
   257
 93
        1
300
CONTENTFORMAT
  1
CONTENTFORMAT_BEGIN
 90
        0
 91
        0
 92
      512
 93
        0
300

 40
0.0
140
1.0
 94
        5
 62
     0
340
17
144
4.5
309
CONTENTFORMAT_END
171
     1
301
MARGIN
  1
CELLMARGIN_BEGIN
 40
1.5
 40
1.5
 40
1.5
 40
1.5
 40
4.5
 40
4.5
309
CELLMARGIN_END
 94
        6
 95
        1
302
GRIDFORMAT
  1
GRIDFORMAT_BEGIN
 90
        0
 91
        1
 62
     0
 92
       -2
340
0
 93
        0
 40
1.125
309
GRIDFORMAT_END
 95
        2
302
GRIDFORMAT
  1
GRIDFORMAT_BEGIN
 90
        0
 91
        1
 62
     0
 92
       -2
340
0
 93
        0
 40
1.125
309
GRIDFORMAT_END
 95
        4
302
GRIDFORMAT
  1
GRIDFORMAT_BEGIN
 90
        0
 91
        1
 62
     0
 92
       -2
340
0
 93
        0
 40
1.125
309
GRIDFORMAT_END
 95
        8
302
GRIDFORMAT
  1
GRIDFORMAT_BEGIN
 90
        0
 91
        1
 62
     0
 92
       -2
340
0
 93
        0
 40
1.125
309
GRIDFORMAT_END
 95
       16
302
GRIDFORMAT
  1
GRIDFORMAT_BEGIN
 90
        0
 91
        1
 62
     0
 92
       -2
340
0
 93
        0
 40
1.125
309
GRIDFORMAT_END
 95
       32
302
GRIDFORMAT
  1
GRIDFORMAT_BEGIN
 90
        0
 91
        1
 62
     0
 92
       -2
340
0
 93
        0
 40
1.125
309
GRIDFORMAT_END
309
TABLEFORMAT_END
  1
CELLSTYLE_BEGIN
 90
        2
 91
        1
300
_HEADER
309
CELLSTYLE_END
300
CELLSTYLE
  1
TABLEFORMAT_BEGIN
 90
        5
170
     1
 91
        0
 92
        0
 62
   257
 93
        1
300
CONTENTFORMAT
  1
CONTENTFORMAT_BEGIN
 90
        0
 91
        0
 92
      512
 93
        0
300

 40
0.0
140
1.0
 94
        2
 62
     0
340
17
144
4.5
309
CONTENTFORMAT_END
171
     1
301
MARGIN
  1
CELLMARGIN_BEGIN
 40
1.5
 40
1.5
 40
1.5
 40
1.5
 40
4.5
 40
4.5
309
CELLMARGIN_END
 94
        6
 95
        1
302
GRIDFORMAT
  1
GRIDFORMAT_BEGIN
 90
        0
 91
        1
 62
     0
 92
       -2
340
0
 93
        0
 40
1.125
309
GRIDFORMAT_END
 95
        2
302
GRIDFORMAT
  1
GRIDFORMAT_BEGIN
 90
        0
 91
        1
 62
     0
 92
       -2
340
0
 93
        0
 40
1.125
309
GRIDFORMAT_END
 95
        4
302
GRIDFORMAT
  1
GRIDFORMAT_BEGIN
 90
        0
 91
        1
 62
     0
 92
       -2
340
0
 93
        0
 40
1.125
309
GRIDFORMAT_END
 95
        8
302
GRIDFORMAT
  1
GRIDFORMAT_BEGIN
 90
        0
 91
        1
 62
     0
 92
       -2
340
0
 93
        0
 40
1.125
309
GRIDFORMAT_END
 95
       16
302
GRIDFORMAT
  1
GRIDFORMAT_BEGIN
 90
        0
 91
        1
 62
     0
 92
       -2
340
0
 93
        0
 40
1.125
309
GRIDFORMAT_END
 95
       32
302
GRIDFORMAT
  1
GRIDFORMAT_BEGIN
 90
        0
 91
        1
 62
     0
 92
       -2
340
0
 93
        0
 40
1.125
309
GRIDFORMAT_END
309
TABLEFORMAT_END
  1
CELLSTYLE_BEGIN
 90
        3
 91
        2
300
_DATA
309
CELLSTYLE_END
  0
ENDSEC
  0
EOF
