  0
SECTION
  2
HEADER
  9
$ACADVER
  1
AC1009
  9
$INSBASE
 10
0.0
 20
-0.0000000000000009
 30
0.0
  9
$EXTMIN
 10
-22.461392247907519
 20
-50.573231003969617
 30
-0.0000000349181948
  9
$EXTMAX
 10
24.340750042493429
 20
19.64130851919986
 30
0.0000000814935746
  9
$LIMMIN
 10
0.0
 20
0.0
  9
$LIMMAX
 10
12.0
 20
9.0
  9
$ORTHOMODE
 70
     1
  9
$REGENMODE
 70
     1
  9
$FILLMODE
 70
     1
  9
$QTEXTMODE
 70
     0
  9
$MIRRTEXT
 70
     1
  9
$DRAGMODE
 70
     2
  9
$LTSCALE
 40
1.0
  9
$OSMODE
 70
    35
  9
$ATTMODE
 70
     1
  9
$TEXTSIZE
 40
0.2
  9
$TRACEWID
 40
0.05
  9
$TEXTSTYLE
  7
STANDARD
  9
$CLAYER
  8
0
  9
$CELTYPE
  6
CONTINUOUS
  9
$CECOLOR
 62
   256
  9
$DIMSCALE
 40
96.0
  9
$DIMASZ
 40
0.18
  9
$DIMEXO
 40
0.0625
  9
$DIMDLI
 40
0.38
  9
$DIMRND
 40
0.0
  9
$DIMDLE
 40
0.0
  9
$DIMEXE
 40
0.18
  9
$DIMTP
 40
0.0
  9
$DIMTM
 40
0.0
  9
$DIMTXT
 40
0.18
  9
$DIMCEN
 40
0.09
  9
$DIMTSZ
 40
0.0
  9
$DIMTOL
 70
     0
  9
$DIMLIM
 70
     0
  9
$DIMTIH
 70
     1
  9
$DIMTOH
 70
     1
  9
$DIMSE1
 70
     0
  9
$DIMSE2
 70
     0
  9
$DIMTAD
 70
     0
  9
$DIMZIN
 70
     0
  9
$DIMBLK
  1

  9
$DIMASO
 70
     1
  9
$DIMSHO
 70
     1
  9
$DIMPOST
  1

  9
$DIMAPOST
  1

  9
$DIMALT
 70
     0
  9
$DIMALTD
 70
     2
  9
$DIMALTF
 40
25.399999999999999
  9
$DIMLFAC
 40
1.0
  9
$DIMTOFL
 70
     0
  9
$DIMTVP
 40
0.0
  9
$DIMTIX
 70
     0
  9
$DIMSOXD
 70
     0
  9
$DIMSAH
 70
     0
  9
$DIMBLK1
  1

  9
$DIMBLK2
  1

  9
$DIMSTYLE
  2
STANDARD
  9
$DIMCLRD
 70
     0
  9
$DIMCLRE
 70
     0
  9
$DIMCLRT
 70
     0
  9
$DIMTFAC
 40
1.0
  9
$DIMGAP
 40
0.09
  9
$LUNITS
 70
     2
  9
$LUPREC
 70
     4
  9
$SKETCHINC
 40
0.1
  9
$FILLETRAD
 40
0.0
  9
$AUNITS
 70
     0
  9
$AUPREC
 70
     2
  9
$MENU
  1
.
  9
$ELEVATION
 40
0.0
  9
$PELEVATION
 40
0.0
  9
$THICKNESS
 40
0.0
  9
$LIMCHECK
 70
     0
  9
$BLIPMODE
 70
     0
  9
$CHAMFERA
 40
0.0
  9
$CHAMFERB
 40
0.0
  9
$SKPOLY
 70
     0
  9
$TDCREATE
 40
2453081.5264707869
  9
$TDUPDATE
 40
2453081.6751590269
  9
$TDINDWG
 40
0.0461166088
  9
$TDUSRTIMER
 40
0.0461166088
  9
$USRTIMER
 70
     1
  9
$ANGBASE
 50
0.0
  9
$ANGDIR
 70
     0
  9
$PDMODE
 70
     0
  9
$PDSIZE
 40
0.0
  9
$PLINEWID
 40
0.0
  9
$COORDS
 70
     0
  9
$SPLFRAME
 70
     0
  9
$SPLINETYPE
 70
     6
  9
$SPLINESEGS
 70
     8
  9
$ATTDIA
 70
     1
  9
$ATTREQ
 70
     1
  9
$HANDLING
 70
 22529
  9
$HANDSEED
  5
332
  9
$SURFTAB1
 70
     6
  9
$SURFTAB2
 70
     6
  9
$SURFTYPE
 70
     6
  9
$SURFU
 70
     6
  9
$SURFV
 70
     6
  9
$UCSNAME
  2

  9
$UCSORG
 10
0.0
 20
0.0
 30
0.0
  9
$UCSXDIR
 10
1.0
 20
0.0
 30
0.0
  9
$UCSYDIR
 10
0.0
 20
1.0
 30
0.0
  9
$PUCSNAME
  2

  9
$PUCSORG
 10
0.0
 20
0.0
 30
0.0
  9
$PUCSXDIR
 10
1.0
 20
0.0
 30
0.0
  9
$PUCSYDIR
 10
0.0
 20
1.0
 30
0.0
  9
$USERI1
 70
     0
  9
$USERI2
 70
     0
  9
$USERI3
 70
     0
  9
$USERI4
 70
     0
  9
$USERI5
 70
     0
  9
$USERR1
 40
0.0
  9
$USERR2
 40
0.0
  9
$USERR3
 40
0.0
  9
$USERR4
 40
0.0
  9
$USERR5
 40
0.0
  9
$WORLDVIEW
 70
     1
  9
$SHADEDGE
 70
     3
  9
$SHADEDIF
 70
    70
  9
$TILEMODE
 70
     1
  9
$MAXACTVP
 70
    64
  9
$PLIMCHECK
 70
     0
  9
$PEXTMIN
 10
1.1294166947912989
 20
-10.0625572617461
 30
0.0
  9
$PEXTMAX
 10
49.498098681720649
 20
18.89727540596131
 30
0.0
  9
$PLIMMIN
 10
-0.1979161059762549
 20
-0.2679166643638311
  9
$PLIMMAX
 10
11.493750144177531
 20
7.9987497780266699
  9
$UNITMODE
 70
     0
  9
$VISRETAIN
 70
     1
  9
$PLINEGEN
 70
     0
  9
$PSLTSCALE
 70
     1
  0
ENDSEC
  0
SECTION
  2
TABLES
  0
TABLE
  2
VPORT
 70
     2
  0
VPORT
  2
*ACTIVE
 70
     0
 10
0.0
 20
0.0
 11
1.0
 21
1.0
 12
0.939678897292957
 22
-15.46596124238488
 13
0.0
 23
0.0
 14
1.0
 24
1.0
 15
0.0
 25
0.0
 16
0.0
 26
0.0
 36
1.0
 17
0.0
 27
0.0
 37
0.0
 40
71.024707286898376
 41
1.828516377649325
 42
50.0
 43
0.0
 44
0.0
 50
0.0
 51
0.0
 71
     0
 72
   100
 73
     1
 74
     1
 75
     0
 76
     0
 77
     0
 78
     0
  0
ENDTAB
  0
TABLE
  2
LTYPE
 70
     1
  0
LTYPE
  2
CONTINUOUS
 70
     0
  3
Solid line
 72
    65
 73
     0
 40
0.0
  0
ENDTAB
  0
TABLE
  2
LAYER
 70
     3
  0
LAYER
  2
0
 70
     0
 62
     7
  6
CONTINUOUS
  0
LAYER
  2
DEFPOINTS
 70
     0
 62
     7
  6
CONTINUOUS
  0
LAYER
  2
COTATION-JACOBDELAFON
 70
     0
 62
     8
  6
CONTINUOUS
  0
ENDTAB
  0
TABLE
  2
STYLE
 70
     2
  0
STYLE
  2
STANDARD
 70
     0
 40
0.0
 41
1.0
 50
0.0
 71
     0
 42
0.2
  3
txt
  4

  0
STYLE
  2
JACOB-DELAFON
 70
     0
 40
0.0
 41
1.0
 50
0.0
 71
     0
 42
2.5
  3
txt
  4

  0
ENDTAB
  0
TABLE
  2
VIEW
 70
     0
  0
ENDTAB
  0
TABLE
  2
UCS
 70
     0
  0
ENDTAB
  0
TABLE
  2
APPID
 70
     5
  0
APPID
  2
ACAD
 70
     0
  0
APPID
  2
ADCADD_ZZ
 70
     0
  0
APPID
  2
SDSK_PMN
 70
     0
  0
APPID
  2
AEC_DWGVARSSETUP_DATA
 70
     0
  0
APPID
  2
AEC_DISPREPSET_DATA
 70
     0
  0
ENDTAB
  0
TABLE
  2
DIMSTYLE
 70
     2
  0
DIMSTYLE
  2
STANDARD
 70
     0
  3

  4

  5

  6

  7

 40
1.0
 41
0.18
 42
0.0625
 43
0.38
 44
0.18
 45
0.0
 46
0.0
 47
0.0
 48
0.0
140
0.18
141
0.09
142
0.0
143
25.399999999999999
144
1.0
145
0.0
146
1.0
147
0.09
 71
     0
 72
     0
 73
     1
 74
     1
 75
     0
 76
     0
 77
     0
 78
     0
170
     0
171
     2
172
     0
173
     0
174
     0
175
     0
176
     0
177
     0
178
     0
  0
DIMSTYLE
  2
COTATION-JACOB-DELAFON
 70
     0
  3

  4

  5
OBLIQUE
  6

  7

 40
1.0
 41
1.8
 42
0.625
 43
3.7999999999999989
 44
1.8
 45
0.0
 46
0.0
 47
0.0
 48
0.0
140
3.0
141
0.9
142
0.0
143
25.399999999999999
144
1.0
145
0.0
146
1.0
147
0.9
 71
     0
 72
     0
 73
     0
 74
     0
 75
     0
 76
     0
 77
     1
 78
    12
170
     0
171
     2
172
     0
173
     0
174
     0
175
     0
176
     0
177
     0
178
     0
  0
ENDTAB
  0
ENDSEC
  0
SECTION
  2
BLOCKS
  0
BLOCK
  8
0
  2
$MODEL_SPACE
 70
     0
 10
0.0
 20
0.0
 30
0.0
  3
$MODEL_SPACE
  1

  0
ENDBLK
  5
9
  8
0
  0
BLOCK
 67
     1
  8
0
  2
$PAPER_SPACE
 70
     0
 10
0.0
 20
0.0
 30
0.0
  3
$PAPER_SPACE
  1

  0
ENDBLK
  5
E
 67
     1
  8
0
  0
BLOCK
  8
0
  2
_OBLIQUE
 70
     0
 10
0.0
 20
0.0
 30
0.0
  3
_OBLIQUE
  1

  0
LINE
  5
22
  8
0
  6
BYBLOCK
 62
     0
 10
-0.5
 20
-0.5
 30
0.0
 11
0.5
 21
0.5
 31
0.0
  0
ENDBLK
  5
24
  8
0
  0
BLOCK
  8
0
  2
*D1
 70
     1
 10
0.0
 20
0.0
 30
0.0
  3
*D1
  1

  0
LINE
  5
25D
  8
COTATION-JACOBDELAFON
 62
     0
 10
-21.561313435418999
 20
0.6259190664340509
 30
0.0
 11
-21.561313435418999
 21
15.98787073183914
 31
0.0
  0
LINE
  5
25E
  8
COTATION-JACOBDELAFON
 62
     0
 10
23.438686564580909
 20
0.6401731650236365
 30
0.0
 11
23.438686564580909
 21
15.98787073183914
 31
0.0
  0
LINE
  5
25F
  8
COTATION-JACOBDELAFON
 62
     0
 10
-21.561313435418999
 20
14.187870731839141
 30
0.0
 11
23.438686564580909
 21
14.187870731839141
 31
0.0
  0
TEXT
  5
260
  8
0
  6
CONTINUOUS
 62
     0
 10
-1.3348468597028449
 20
15.844085000794649
 30
0.0
 40
3.0
  1
45
  7
JACOB-DELAFON
  0
INSERT
  5
261
  8
COTATION-JACOBDELAFON
 62
     0
  2
_OBLIQUE
 10
-21.561313435418999
 20
14.187870731839141
 30
0.0
 41
1.8
 42
1.8
 43
1.8
 50
180.0
  0
INSERT
  5
262
  8
COTATION-JACOBDELAFON
 62
     0
  2
_OBLIQUE
 10
23.438686564580909
 20
14.187870731839141
 30
0.0
 41
1.8
 42
1.8
 43
1.8
  0
POINT
  5
263
  8
DEFPOINTS
 62
     0
 10
-21.561313435418999
 20
0.0009190664340508
 30
0.0
  0
POINT
  5
264
  8
DEFPOINTS
 62
     0
 10
23.438686564580909
 20
0.0151731650236364
 30
0.0
  0
POINT
  5
265
  8
DEFPOINTS
 62
     0
 10
23.438686564580909
 20
14.187870731839141
 30
0.0
  0
ENDBLK
  5
51
  8
0
  0
BLOCK
  8
0
  2
ADCADD_ZZ
 70
     0
 10
0.0
 20
0.0
 30
0.0
  3
ADCADD_ZZ
  1

  0
ENDBLK
  5
AC
  8
0
  0
ENDSEC
  0
SECTION
  2
ENTITIES
  0
POLYLINE
  5
2A
  8
0
  6
CONTINUOUS
 66
     1
 10
0.0
 20
0.0
 30
0.0
  0
VERTEX
  5
270
  8
0
  6
CONTINUOUS
 10
-18.37681549406134
 20
-47.504032507812667
 30
0.0
  0
VERTEX
  5
271
  8
0
  6
CONTINUOUS
 10
-18.37681304091987
 20
0.029463930568383
 30
0.0
  0
SEQEND
  5
272
  8
0
  6
CONTINUOUS
  0
POLYLINE
  5
2B
  8
0
  6
CONTINUOUS
 66
     1
 10
0.0
 20
0.0
 30
0.0
  0
VERTEX
  5
273
  8
0
  6
CONTINUOUS
 10
-18.37681304091987
 20
0.029463930568383
 30
0.0
  0
VERTEX
  5
274
  8
0
  6
CONTINUOUS
 10
-17.915379856351372
 20
1.4496101790253839
 30
0.0
  0
VERTEX
  5
275
  8
0
  6
CONTINUOUS
 10
-16.707336273457109
 20
2.3273149649011589
 30
0.0
  0
VERTEX
  5
276
  8
0
  6
CONTINUOUS
 10
-15.214105704290899
 20
2.3273149649011589
 30
0.0
  0
VERTEX
  5
277
  8
0
  6
CONTINUOUS
 10
-14.00605966825516
 20
1.4496101790253839
 30
0.0
  0
VERTEX
  5
278
  8
0
  6
CONTINUOUS
 10
-13.544624040558009
 20
0.029463930568383
 30
0.0
  0
VERTEX
  5
279
  8
0
  6
CONTINUOUS
 10
-13.544628926815321
 20
-46.289845798120297
 30
0.0
  0
VERTEX
  5
27A
  8
0
  6
CONTINUOUS
 10
-13.544628926815321
 20
-47.504032507812667
 30
0.0
  0
SEQEND
  5
27B
  8
0
  6
CONTINUOUS
  0
POLYLINE
  5
2C
  8
0
  6
CONTINUOUS
 66
     1
 10
0.0
 20
0.0
 30
0.0
  0
VERTEX
  5
27C
  8
0
  6
CONTINUOUS
 10
-13.544628926815321
 20
-46.691514181891982
 30
0.0
  0
VERTEX
  5
27D
  8
0
  6
CONTINUOUS
 10
-13.277211275693469
 20
-47.504032507812667
 30
0.0
  0
VERTEX
  5
27E
  8
0
  6
CONTINUOUS
 10
-13.280914758319041
 20
-48.051256705093749
 30
0.0
  0
VERTEX
  5
27F
  8
0
  6
CONTINUOUS
 10
-13.792710286165571
 20
-49.606309613040231
 30
0.0
  0
VERTEX
  5
280
  8
0
  6
CONTINUOUS
 10
-15.132614628013879
 20
-50.567384100933658
 30
0.0
  0
VERTEX
  5
281
  8
0
  6
CONTINUOUS
 10
-16.788827349734198
 20
-50.567384100933658
 30
0.0
  0
VERTEX
  5
282
  8
0
  6
CONTINUOUS
 10
-18.128731681569541
 20
-49.606309613040231
 30
0.0
  0
VERTEX
  5
283
  8
0
  6
CONTINUOUS
 10
-18.640527219429039
 20
-48.051256705093749
 30
0.0
  0
VERTEX
  5
284
  8
0
  6
CONTINUOUS
 10
-18.644230692041781
 20
-47.504032507812667
 30
0.0
  0
VERTEX
  5
285
  8
0
  6
CONTINUOUS
 10
-18.376815452128518
 20
-46.691517634805578
 30
0.0
  0
SEQEND
  5
286
  8
0
  6
CONTINUOUS
  0
POLYLINE
  5
2D
  8
0
  6
CONTINUOUS
 66
     1
 10
0.0
 20
0.0
 30
0.0
  0
VERTEX
  5
287
  8
0
  6
CONTINUOUS
 10
-18.37681549406134
 20
-47.504032507812667
 30
0.0
  0
VERTEX
  5
288
  8
0
  6
CONTINUOUS
 10
-17.915379856351372
 20
-48.906057410339812
 30
0.0
  0
VERTEX
  5
289
  8
0
  6
CONTINUOUS
 10
-16.707336273457109
 20
-49.772552771590817
 30
0.0
  0
VERTEX
  5
28A
  8
0
  6
CONTINUOUS
 10
-15.214105704290899
 20
-49.772552771590817
 30
0.0
  0
VERTEX
  5
28B
  8
0
  6
CONTINUOUS
 10
-14.00605966825516
 20
-48.906057410339812
 30
0.0
  0
VERTEX
  5
28C
  8
0
  6
CONTINUOUS
 10
-13.544628926815321
 20
-47.504032507812667
 30
0.0
  0
SEQEND
  5
28D
  8
0
  6
CONTINUOUS
  0
POLYLINE
  5
2E
  8
0
  6
CONTINUOUS
 66
     1
 10
0.0
 20
0.0
 30
0.0
 70
     1
  0
VERTEX
  5
28E
  8
0
  6
CONTINUOUS
 10
12.50934759339145
 20
6.1189881559784531
 30
0.0
  0
VERTEX
  5
28F
  8
0
  6
CONTINUOUS
 10
15.294889317268449
 20
5.8570316082654896
 30
0.0
  0
VERTEX
  5
290
  8
0
  6
CONTINUOUS
 10
18.079945269072859
 20
5.595075050539684
 30
0.0
  0
VERTEX
  5
291
  8
0
  6
CONTINUOUS
 10
20.660434866203719
 20
5.3373927763987608
 30
0.0
  0
VERTEX
  5
292
  8
0
  6
CONTINUOUS
 10
21.126864389009651
 20
5.2350852428718389
 30
0.0
  0
VERTEX
  5
293
  8
0
  6
CONTINUOUS
 10
21.682308342389831
 20
5.1290876939653174
 30
0.0
  0
VERTEX
  5
294
  8
0
  6
CONTINUOUS
 10
22.213722503570629
 20
4.9708613916832611
 30
0.0
  0
VERTEX
  5
295
  8
0
  6
CONTINUOUS
 10
22.54907749425314
 20
4.9143045858672521
 30
0.0
  0
VERTEX
  5
296
  8
0
  6
CONTINUOUS
 10
22.651983934731479
 20
4.9346822411937898
 30
0.0
  0
VERTEX
  5
297
  8
0
  6
CONTINUOUS
 10
22.66245449317509
 20
4.9349841478109902
 30
0.0
  0
VERTEX
  5
298
  8
0
  6
CONTINUOUS
 10
22.802731179442109
 20
4.898016637759798
 30
0.0
  0
VERTEX
  5
299
  8
0
  6
CONTINUOUS
 10
22.85288146115732
 20
4.8386547297710791
 30
0.0
  0
VERTEX
  5
29A
  8
0
  6
CONTINUOUS
 10
23.048325834355119
 20
4.4470265064121151
 30
0.0
  0
VERTEX
  5
29B
  8
0
  6
CONTINUOUS
 10
23.18539894817426
 20
3.821342454592056
 30
0.0
  0
VERTEX
  5
29C
  8
0
  6
CONTINUOUS
 10
23.362260574579061
 20
2.6621663807130949
 30
0.0
  0
VERTEX
  5
29D
  8
0
  6
CONTINUOUS
 10
23.438693893966871
 20
1.3684723451052601
 30
0.0
  0
VERTEX
  5
29E
  8
0
  6
CONTINUOUS
 10
23.438679235195028
 20
-1.338126015057987
 30
0.0
  0
VERTEX
  5
29F
  8
0
  6
CONTINUOUS
 10
23.362263017707711
 20
-2.631822493794437
 30
0.0
  0
VERTEX
  5
2A0
  8
0
  6
CONTINUOUS
 10
23.232279052147849
 20
-3.625497329214777
 30
0.0
  0
VERTEX
  5
2A1
  8
0
  6
CONTINUOUS
 10
23.048331331394529
 20
-4.4166826295062833
 30
0.0
  0
VERTEX
  5
2A2
  8
0
  6
CONTINUOUS
 10
22.852883293503861
 20
-4.8083096212880783
 30
0.0
  0
VERTEX
  5
2A3
  8
0
  6
CONTINUOUS
 10
22.80273423335295
 20
-4.8676727508411233
 30
0.0
  0
VERTEX
  5
2A4
  8
0
  6
CONTINUOUS
 10
22.681929512599329
 20
-4.9023313941914806
 30
0.0
  0
VERTEX
  5
2A5
  8
0
  6
CONTINUOUS
 10
22.651988820988791
 20
-4.9043383642879581
 30
0.0
  0
VERTEX
  5
2A6
  8
0
  6
CONTINUOUS
 10
22.549061603904121
 20
-4.8839582558199801
 30
0.0
  0
VERTEX
  5
2A7
  8
0
  6
CONTINUOUS
 10
21.68230040222177
 20
-5.0987401423537193
 30
0.0
  0
VERTEX
  5
2A8
  8
0
  6
CONTINUOUS
 10
20.660434866203719
 20
-5.3070488894801029
 30
0.0
  0
VERTEX
  5
2A9
  8
0
  6
CONTINUOUS
 10
18.079950165342851
 20
-5.5647348383267916
 30
0.0
  0
VERTEX
  5
2AA
  8
0
  6
CONTINUOUS
 10
15.294891770409929
 20
-5.8266889429111401
 30
0.0
  0
VERTEX
  5
2AB
  8
0
  6
CONTINUOUS
 10
12.50935034691757
 20
-6.0886454906241196
 30
0.0
  0
SEQEND
  5
2AC
  8
0
  6
CONTINUOUS
  0
POLYLINE
  5
30
  8
0
  6
CONTINUOUS
 66
     1
 10
0.0
 20
0.0
 30
0.0
  0
VERTEX
  5
2AD
  8
0
  6
CONTINUOUS
 10
-18.37681332743157
 20
-5.5221538335405942
 30
0.0
  0
VERTEX
  5
2AE
  8
0
  6
CONTINUOUS
 10
-20.948851876128948
 20
-5.3116177302706014
 30
0.0
  0
VERTEX
  5
2AF
  8
0
  6
CONTINUOUS
 10
-21.059107818271411
 20
-5.2356219712161511
 30
0.0
  0
VERTEX
  5
2B0
  8
0
  6
CONTINUOUS
 10
-21.393909119907871
 20
-3.4916357179987569
 30
0.0
  0
VERTEX
  5
2B1
  8
0
  6
CONTINUOUS
 10
-21.561313435418999
 20
-1.126501251489582
 30
0.0
  0
VERTEX
  5
2B2
  8
0
  6
CONTINUOUS
 10
-21.561313435418999
 20
-0.5627923140920821
 30
0.0
  0
VERTEX
  5
2B3
  8
0
  6
CONTINUOUS
 10
-21.561313435418999
 20
0.0009190664340508
 30
0.0
  0
VERTEX
  5
2B4
  8
0
  6
CONTINUOUS
 10
-21.561313435418999
 20
1.1283393943705271
 30
0.0
  0
VERTEX
  5
2B5
  8
0
  6
CONTINUOUS
 10
-21.393909119907871
 20
3.4934726393153781
 30
0.0
  0
VERTEX
  5
2B6
  8
0
  6
CONTINUOUS
 10
-21.059107818271411
 20
5.237460114097078
 30
0.0
  0
VERTEX
  5
2B7
  8
0
  6
CONTINUOUS
 10
-20.948851876128948
 20
5.3134558731515291
 30
0.0
  0
VERTEX
  5
2B8
  8
0
  6
CONTINUOUS
 10
-11.282065991905119
 20
6.1047377270882199
 30
0.0
  0
VERTEX
  5
2B9
  8
0
  6
CONTINUOUS
 10
-11.049663891183521
 20
6.0337899423956989
 30
0.0
  0
VERTEX
  5
2BA
  8
0
  6
CONTINUOUS
 10
-10.81725934733327
 20
6.1047377270882199
 30
0.0
  0
VERTEX
  5
2BB
  8
0
  6
CONTINUOUS
 10
-8.0227945667206768
 20
6.2827281089607112
 30
0.0
  0
VERTEX
  5
2BC
  8
0
  6
CONTINUOUS
 10
-6.2461297458088429
 20
6.4301587264471571
 30
0.0
  0
VERTEX
  5
2BD
  8
0
  6
CONTINUOUS
 10
-4.1117033106208822
 20
6.5617786970510741
 30
0.0
  0
VERTEX
  5
2BE
  8
0
  6
CONTINUOUS
 10
-2.0915589734113378
 20
6.6169683921651758
 30
0.0
  0
VERTEX
  5
2BF
  8
0
  6
CONTINUOUS
 10
0.3730718066176308
 20
6.5116589744694231
 30
0.0
  0
VERTEX
  5
2C0
  8
0
  6
CONTINUOUS
 10
2.360830921786671
 20
6.606381715021711
 30
0.0
  0
VERTEX
  5
2C1
  8
0
  6
CONTINUOUS
 10
2.837700143517949
 20
6.6169683921651758
 30
0.0
  0
VERTEX
  5
2C2
  8
0
  6
CONTINUOUS
 10
4.8578457022917121
 20
6.5617786970510741
 30
0.0
  0
VERTEX
  5
2C3
  8
0
  6
CONTINUOUS
 10
6.9922709159153831
 20
6.4301587264471571
 30
0.0
  0
VERTEX
  5
2C4
  8
0
  6
CONTINUOUS
 10
11.56340203938881
 20
6.1047377270882199
 30
0.0
  0
VERTEX
  5
2C5
  8
0
  6
CONTINUOUS
 10
11.56340234978628
 20
-6.1028995842072753
 30
0.0
  0
VERTEX
  5
2C6
  8
0
  6
CONTINUOUS
 10
8.7689400123024086
 20
-6.2808887445154751
 30
0.0
  0
VERTEX
  5
2C7
  8
0
  6
CONTINUOUS
 10
4.8578457022917121
 20
-6.5599399433879837
 30
0.0
  0
VERTEX
  5
2C8
  8
0
  6
CONTINUOUS
 10
2.837700143517949
 20
-6.6151302492842659
 30
0.0
  0
VERTEX
  5
2C9
  8
0
  6
CONTINUOUS
 10
2.360830921786671
 20
-6.6045429613586206
 30
0.0
  0
VERTEX
  5
2CA
  8
0
  6
CONTINUOUS
 10
0.3730718066176308
 20
-6.5098220531528384
 30
0.0
  0
VERTEX
  5
2CB
  8
0
  6
CONTINUOUS
 10
-1.61468975168006
 20
-6.6045429613586206
 30
0.0
  0
VERTEX
  5
2CC
  8
0
  6
CONTINUOUS
 10
-2.0915589734113378
 20
-6.6151302492842659
 30
0.0
  0
VERTEX
  5
2CD
  8
0
  6
CONTINUOUS
 10
-4.1117033106208822
 20
-6.5599399433879837
 30
0.0
  0
VERTEX
  5
2CE
  8
0
  6
CONTINUOUS
 10
-6.2461297458088429
 20
-6.4283212043612004
 30
0.0
  0
VERTEX
  5
2CF
  8
0
  6
CONTINUOUS
 10
-10.81725934733327
 20
-6.1028995842072753
 30
0.0
  0
VERTEX
  5
2D0
  8
0
  6
CONTINUOUS
 10
-11.049663891183521
 20
-6.0319517995147889
 30
0.0
  0
VERTEX
  5
2D1
  8
0
  6
CONTINUOUS
 10
-11.282065991905119
 20
-6.1028995842072753
 30
0.0
  0
VERTEX
  5
2D2
  8
0
  6
CONTINUOUS
 10
-13.54462466792822
 20
-5.917696183072068
 30
0.0
  0
SEQEND
  5
2D3
  8
0
  6
CONTINUOUS
  0
POLYLINE
  5
31
  8
0
  6
CONTINUOUS
 66
     1
 10
0.0
 20
0.0
 30
0.0
  0
VERTEX
  5
2D4
  8
0
  6
CONTINUOUS
 10
-20.948851876128948
 20
5.3134558731515291
 30
0.0
  0
VERTEX
  5
2D5
  8
0
  6
CONTINUOUS
 10
-20.948851876128948
 20
5.132434259528118
 30
0.0
  0
VERTEX
  5
2D6
  8
0
  6
CONTINUOUS
 10
-20.948851876128948
 20
4.6017106826995748
 30
0.0
  0
VERTEX
  5
2D7
  8
0
  6
CONTINUOUS
 10
-20.948851876128948
 20
2.6571844108755718
 30
0.0
  0
VERTEX
  5
2D8
  8
0
  6
CONTINUOUS
 10
-20.948851876128948
 20
1.375906174758494
 30
0.0
  0
VERTEX
  5
2D9
  8
0
  6
CONTINUOUS
 10
-20.948851876128948
 20
0.0009190664340508
 30
0.0
  0
VERTEX
  5
2DA
  8
0
  6
CONTINUOUS
 10
-20.948851876128948
 20
-1.3740668103132589
 30
0.0
  0
VERTEX
  5
2DB
  8
0
  6
CONTINUOUS
 10
-20.948851876128948
 20
-2.6553487211361029
 30
0.0
  0
VERTEX
  5
2DC
  8
0
  6
CONTINUOUS
 10
-20.948851876128948
 20
-3.755612683028513
 30
0.0
  0
VERTEX
  5
2DD
  8
0
  6
CONTINUOUS
 10
-20.948851876128948
 20
-4.5998713182543218
 30
0.0
  0
VERTEX
  5
2DE
  8
0
  6
CONTINUOUS
 10
-20.948851876128948
 20
-5.1305973382114969
 30
0.0
  0
VERTEX
  5
2DF
  8
0
  6
CONTINUOUS
 10
-20.948851876128948
 20
-5.3116177302706014
 30
0.0
  0
SEQEND
  5
2E0
  8
0
  6
CONTINUOUS
  0
POLYLINE
  5
32
  8
0
  6
CONTINUOUS
 66
     1
 10
0.0
 20
0.0
 30
0.0
  0
VERTEX
  5
2E1
  8
0
  6
CONTINUOUS
 10
-10.81725934733327
 20
6.1047377270882199
 30
0.0
  0
VERTEX
  5
2E2
  8
0
  6
CONTINUOUS
 10
-10.81725934733327
 20
-6.1028995842072753
 30
0.0
  0
SEQEND
  5
2E3
  8
0
  6
CONTINUOUS
  0
POLYLINE
  5
33
  8
0
  6
CONTINUOUS
 66
     1
 10
0.0
 20
0.0
 30
0.0
  0
VERTEX
  5
2E4
  8
0
  6
CONTINUOUS
 10
-11.049663891183521
 20
-6.0319517995147889
 30
0.0
  0
VERTEX
  5
2E5
  8
0
  6
CONTINUOUS
 10
-11.049663891183521
 20
6.0337899423956989
 30
0.0
  0
SEQEND
  5
2E6
  8
0
  6
CONTINUOUS
  0
POLYLINE
  5
34
  8
0
  6
CONTINUOUS
 66
     1
 10
0.0
 20
0.0
 30
0.0
  0
VERTEX
  5
2E7
  8
0
  6
CONTINUOUS
 10
-11.282065991905119
 20
6.1047377270882199
 30
0.0
  0
VERTEX
  5
2E8
  8
0
  6
CONTINUOUS
 10
-11.282065991905119
 20
-6.1028995842072753
 30
0.0
  0
SEQEND
  5
2E9
  8
0
  6
CONTINUOUS
  0
POLYLINE
  5
35
  8
0
  6
CONTINUOUS
 66
     1
 10
0.0
 20
0.0
 30
0.0
  0
VERTEX
  5
2EA
  8
0
  6
CONTINUOUS
 10
-18.376813128950641
 20
-1.6762717649903709
 30
0.0
  0
VERTEX
  5
2EB
  8
0
  6
CONTINUOUS
 10
-18.733358497802609
 20
-1.142663308382587
 30
0.0
  0
VERTEX
  5
2EC
  8
0
  6
CONTINUOUS
 10
-18.960827531310681
 20
0.0009190664340508
 30
0.0
  0
VERTEX
  5
2ED
  8
0
  6
CONTINUOUS
 10
-18.733358497802609
 20
1.14450267282784
 30
0.0
  0
VERTEX
  5
2EE
  8
0
  6
CONTINUOUS
 10
-18.085570940557641
 20
2.1139863594177828
 30
0.0
  0
VERTEX
  5
2EF
  8
0
  6
CONTINUOUS
 10
-17.11608725396772
 20
2.7617714735340821
 30
0.0
  0
VERTEX
  5
2F0
  8
0
  6
CONTINUOUS
 10
-15.972503657586749
 20
2.9892453932994369
 30
0.0
  0
VERTEX
  5
2F1
  8
0
  6
CONTINUOUS
 10
-14.828917608064311
 20
2.7617714735340821
 30
0.0
  0
VERTEX
  5
2F2
  8
0
  6
CONTINUOUS
 10
-13.859433921474389
 20
2.1139863594177828
 30
0.0
  0
VERTEX
  5
2F3
  8
0
  6
CONTINUOUS
 10
-13.21164636422942
 20
1.14450267282784
 30
0.0
  0
VERTEX
  5
2F4
  8
0
  6
CONTINUOUS
 10
-12.98417733072135
 20
0.0009190664340508
 30
0.0
  0
VERTEX
  5
2F5
  8
0
  6
CONTINUOUS
 10
-13.21164636422942
 20
-1.142663308382587
 30
0.0
  0
VERTEX
  5
2F6
  8
0
  6
CONTINUOUS
 10
-13.544624216776519
 20
-1.64100044442323
 30
0.0
  0
SEQEND
  5
2F7
  8
0
  6
CONTINUOUS
  0
POLYLINE
  5
37
  8
0
  6
CONTINUOUS
 66
     1
 10
0.0
 20
0.0
 30
0.0
  0
VERTEX
  5
2F8
  8
0
  6
CONTINUOUS
 10
18.079945269072859
 20
5.595075050539684
 30
0.0
  0
VERTEX
  5
2F9
  8
0
  6
CONTINUOUS
 10
18.498438345168179
 20
4.8359046280310913
 30
0.0
  0
VERTEX
  5
2FA
  8
0
  6
CONTINUOUS
 10
18.83669530206603
 20
3.9414278742191828
 30
0.0
  0
VERTEX
  5
2FB
  8
0
  6
CONTINUOUS
 10
19.105702508749541
 20
2.7824864808686551
 30
0.0
  0
VERTEX
  5
2FC
  8
0
  6
CONTINUOUS
 10
19.276738184527382
 20
1.4418658918047449
 30
0.0
  0
VERTEX
  5
2FD
  8
0
  6
CONTINUOUS
 10
19.312716257519959
 20
0.0151707168886084
 30
0.0
  0
VERTEX
  5
2FE
  8
0
  6
CONTINUOUS
 10
19.276740928040681
 20
-1.411523226450395
 30
0.0
  0
VERTEX
  5
2FF
  8
0
  6
CONTINUOUS
 10
19.105702508749541
 20
-2.7521438155143052
 30
0.0
  0
VERTEX
  5
300
  8
0
  6
CONTINUOUS
 10
18.836693159322159
 20
-3.911085208864832
 30
0.0
  0
VERTEX
  5
301
  8
0
  6
CONTINUOUS
 10
18.498438345168179
 20
-4.8055595195481429
 30
0.0
  0
VERTEX
  5
302
  8
0
  6
CONTINUOUS
 10
18.079950165342851
 20
-5.5647348383267916
 30
0.0
  0
SEQEND
  5
303
  8
0
  6
CONTINUOUS
  0
POLYLINE
  5
38
  8
0
  6
CONTINUOUS
 66
     1
 10
0.0
 20
0.0
 30
0.0
  0
VERTEX
  5
304
  8
0
  6
CONTINUOUS
 10
12.50830530865691
 20
-5.686426314646571
 30
0.0
  0
VERTEX
  5
305
  8
0
  6
CONTINUOUS
 10
13.065279241306049
 20
-5.1993572711731586
 30
0.0
  0
VERTEX
  5
306
  8
0
  6
CONTINUOUS
 10
13.389389051575471
 20
-4.7335630218891991
 30
0.0
  0
VERTEX
  5
307
  8
0
  6
CONTINUOUS
 10
13.67641936838943
 20
-4.0604207357502977
 30
0.0
  0
VERTEX
  5
308
  8
0
  6
CONTINUOUS
 10
13.913810007360039
 20
-3.2093736273052711
 30
0.0
  0
VERTEX
  5
309
  8
0
  6
CONTINUOUS
 10
14.09119887894725
 20
-2.2176165377221042
 30
0.0
  0
VERTEX
  5
30A
  8
0
  6
CONTINUOUS
 10
14.20083055165939
 20
-1.128469101489439
 30
0.0
  0
VERTEX
  5
30B
  8
0
  6
CONTINUOUS
 10
14.23791997783453
 20
0.0104539867131237
 30
0.0
  0
VERTEX
  5
30C
  8
0
  6
CONTINUOUS
 10
14.20083055165939
 20
1.149378296479977
 30
0.0
  0
VERTEX
  5
30D
  8
0
  6
CONTINUOUS
 10
14.09120361501223
 20
2.2385257327126591
 30
0.0
  0
VERTEX
  5
30E
  8
0
  6
CONTINUOUS
 10
13.913810007360039
 20
3.2303097067236131
 30
0.0
  0
VERTEX
  5
30F
  8
0
  6
CONTINUOUS
 10
13.67641936838943
 20
4.0813580467458079
 30
0.0
  0
VERTEX
  5
310
  8
0
  6
CONTINUOUS
 10
13.38938675863921
 20
4.7544758915855034
 30
0.0
  0
VERTEX
  5
311
  8
0
  6
CONTINUOUS
 10
12.809667789029289
 20
5.4583838958517807
 30
0.0
  0
VERTEX
  5
312
  8
0
  6
CONTINUOUS
 10
12.50830530865691
 20
5.7073636256420626
 30
0.0
  0
SEQEND
  5
313
  8
0
  6
CONTINUOUS
  0
POLYLINE
  5
39
  8
0
  6
CONTINUOUS
 66
     1
 10
0.0
 20
0.0
 30
0.0
  0
VERTEX
  5
314
  8
0
  6
CONTINUOUS
 10
12.50934759339145
 20
6.1189881559784531
 30
0.0
  0
VERTEX
  5
315
  8
0
  6
CONTINUOUS
 10
12.98204429185062
 20
5.9110057567684207
 30
0.0
  0
VERTEX
  5
316
  8
0
  6
CONTINUOUS
 10
13.422791966858931
 20
5.3012307378225278
 30
0.0
  0
VERTEX
  5
317
  8
0
  6
CONTINUOUS
 10
13.801334733173499
 20
4.331219025049986
 30
0.0
  0
VERTEX
  5
318
  8
0
  6
CONTINUOUS
 10
14.091824530147001
 20
3.0670806579978378
 30
0.0
  0
VERTEX
  5
319
  8
0
  6
CONTINUOUS
 10
14.27440315765956
 20
1.5949549954655851
 30
0.0
  0
VERTEX
  5
31A
  8
0
  6
CONTINUOUS
 10
14.316300220423621
 20
0.0151707168886084
 30
0.0
  0
VERTEX
  5
31B
  8
0
  6
CONTINUOUS
 10
14.274400714530911
 20
-1.5646123401240599
 30
0.0
  0
VERTEX
  5
31C
  8
0
  6
CONTINUOUS
 10
14.091819794082021
 20
-3.0367380026563309
 30
0.0
  0
VERTEX
  5
31D
  8
0
  6
CONTINUOUS
 10
13.80133946923848
 20
-4.3008800344014189
 30
0.0
  0
VERTEX
  5
31E
  8
0
  6
CONTINUOUS
 10
13.422796853116161
 20
-5.2708893040453111
 30
0.0
  0
VERTEX
  5
31F
  8
0
  6
CONTINUOUS
 10
12.98204429185062
 20
-5.8806618698497806
 30
0.0
  0
VERTEX
  5
320
  8
0
  6
CONTINUOUS
 10
12.50935034691757
 20
-6.0886454906241196
 30
0.0
  0
SEQEND
  5
321
  8
0
  6
CONTINUOUS
  0
POLYLINE
  5
3B
  8
0
  6
CONTINUOUS
 66
     1
 10
0.0
 20
0.0
 30
0.0
  0
VERTEX
  5
322
  8
0
  6
CONTINUOUS
 10
22.54907749425314
 20
4.9143045858672521
 30
0.0
  0
VERTEX
  5
323
  8
0
  6
CONTINUOUS
 10
22.40288258920188
 20
4.8969838251551323
 30
0.0
  0
VERTEX
  5
324
  8
0
  6
CONTINUOUS
 10
22.278707462355658
 20
4.8211115141864971
 30
0.0
  0
VERTEX
  5
325
  8
0
  6
CONTINUOUS
 10
22.036269920395242
 20
4.3480985507230052
 30
0.0
  0
VERTEX
  5
326
  8
0
  6
CONTINUOUS
 10
21.839470051369361
 20
3.5918383550081852
 30
0.0
  0
VERTEX
  5
327
  8
0
  6
CONTINUOUS
 10
21.6892104911804
 20
2.565827190158636
 30
0.0
  0
VERTEX
  5
328
  8
0
  6
CONTINUOUS
 10
21.5942359681992
 20
1.3385194378515479
 30
0.0
  0
VERTEX
  5
329
  8
0
  6
CONTINUOUS
 10
21.548955202314481
 20
0.0151719384529159
 30
0.0
  0
VERTEX
  5
32A
  8
0
  6
CONTINUOUS
 10
21.59422618567184
 20
-1.3081767724972151
 30
0.0
  0
VERTEX
  5
32B
  8
0
  6
CONTINUOUS
 10
21.689227603093642
 20
-2.535483303239995
 30
0.0
  0
VERTEX
  5
32C
  8
0
  6
CONTINUOUS
 10
21.83946760824071
 20
-3.5614944680895269
 30
0.0
  0
VERTEX
  5
32D
  8
0
  6
CONTINUOUS
 10
22.036266866484478
 20
-4.3177522206757137
 30
0.0
  0
VERTEX
  5
32E
  8
0
  6
CONTINUOUS
 10
22.278709905484309
 20
-4.7907651841392074
 30
0.0
  0
VERTEX
  5
32F
  8
0
  6
CONTINUOUS
 10
22.402885032330531
 20
-4.8666387166721314
 30
0.0
  0
VERTEX
  5
330
  8
0
  6
CONTINUOUS
 10
22.549061603904121
 20
-4.8839582558199801
 30
0.0
  0
SEQEND
  5
331
  8
0
  6
CONTINUOUS
  0
DIMENSION
  5
43
  8
COTATION-JACOBDELAFON
  2
*D1
 10
23.438686564580909
 20
14.187870731839141
 30
0.0
 11
0.9386865645809194
 21
17.31850519179056
 31
0.0
 70
   128
 13
-21.561313435418999
 23
0.0009190664340508
 33
0.0
 14
23.438686564580909
 24
0.0151731650236364
 34
0.0
  0
INSERT
  5
AD
 67
     1
  8
0
  6
CONTINUOUS
  2
ADCADD_ZZ
 10
0.0
 20
0.0
 30
0.0
1001
ADCADD_ZZ
1070
   205
1070
    14
1070
   209
1070
     1
1070
   231
1070
     0
1070
   235
1070
     0
1070
   236
1070
     4
1070
   237
1070
     2
1070
   238
1070
     4
1070
   239
1070
     2
1070
   240
1070
     0
1070
   241
1070
  4096
1070
   242
1070
     2
1070
   244
1070
     0
1070
   245
1070
     1
1070
   303
1040
0.1
1070
   304
1040
4.0
1070
   305
1040
96.0
1070
   306
1040
0.125
1070
   337
1040
0.0
1070
   338
1040
0.3048
1070
   339
1040
0.0625
1070
   340
1040
96.0
1070
   341
1040
4.0
1070
   342
1040
96.0
1070
   530
1010
0.0
1020
0.0
1030
0.0
1070
   531
1010
0.0
1020
0.0
1030
0.0
1070
   107
1000

1070
   108
1000
AIA (256 Color)
1070
   135
1000
L120
1070
   136
1000
'
1070
   137
1000
m
1001
SDSK_PMN
1070
   100
1000
ACADARCH
1070
   300
1040
2453081.6752046868
  0
ENDSEC
  0
EOF
