  0
SECTION
  2
HEADER
  9
$ACADVER
  1
AC1009
  9
$INSBASE
 10
0.0
 20
0.0
 30
0.0
  9
$EXTMIN
 10
-99.93074835143959
 20
-0.8999999999999987
 30
0.0
  9
$EXTMAX
 10
90.900002235174185
 20
70.85864162650789
 30
0.0
  9
$LIMMIN
 10
0.0
 20
0.0
  9
$LIMMAX
 10
12.0
 20
9.0
  9
$ORTHOMODE
 70
     1
  9
$REGENMODE
 70
     1
  9
$FILLMODE
 70
     1
  9
$QTEXTMODE
 70
     0
  9
$MIRRTEXT
 70
     1
  9
$DRAGMODE
 70
     2
  9
$LTSCALE
 40
1.0
  9
$OSMODE
 70
    35
  9
$ATTMODE
 70
     1
  9
$TEXTSIZE
 40
0.2
  9
$TRACEWID
 40
0.05
  9
$TEXTSTYLE
  7
STANDARD
  9
$CLAYER
  8
0
  9
$CELTYPE
  6
CONTINUOUS
  9
$CECOLOR
 62
   256
  9
$DIMSCALE
 40
96.0
  9
$DIMASZ
 40
0.18
  9
$DIMEXO
 40
0.0625
  9
$DIMDLI
 40
0.38
  9
$DIMRND
 40
0.0
  9
$DIMDLE
 40
0.0
  9
$DIMEXE
 40
0.18
  9
$DIMTP
 40
0.0
  9
$DIMTM
 40
0.0
  9
$DIMTXT
 40
0.18
  9
$DIMCEN
 40
0.09
  9
$DIMTSZ
 40
0.0
  9
$DIMTOL
 70
     0
  9
$DIMLIM
 70
     0
  9
$DIMTIH
 70
     1
  9
$DIMTOH
 70
     1
  9
$DIMSE1
 70
     0
  9
$DIMSE2
 70
     0
  9
$DIMTAD
 70
     0
  9
$DIMZIN
 70
     0
  9
$DIMBLK
  1

  9
$DIMASO
 70
     1
  9
$DIMSHO
 70
     1
  9
$DIMPOST
  1

  9
$DIMAPOST
  1

  9
$DIMALT
 70
     0
  9
$DIMALTD
 70
     2
  9
$DIMALTF
 40
25.399999999999999
  9
$DIMLFAC
 40
1.0
  9
$DIMTOFL
 70
     0
  9
$DIMTVP
 40
0.0
  9
$DIMTIX
 70
     0
  9
$DIMSOXD
 70
     0
  9
$DIMSAH
 70
     0
  9
$DIMBLK1
  1

  9
$DIMBLK2
  1

  9
$DIMSTYLE
  2
STANDARD
  9
$DIMCLRD
 70
     0
  9
$DIMCLRE
 70
     0
  9
$DIMCLRT
 70
     0
  9
$DIMTFAC
 40
1.0
  9
$DIMGAP
 40
0.09
  9
$LUNITS
 70
     2
  9
$LUPREC
 70
     4
  9
$SKETCHINC
 40
0.1
  9
$FILLETRAD
 40
0.0
  9
$AUNITS
 70
     0
  9
$AUPREC
 70
     2
  9
$MENU
  1
.
  9
$ELEVATION
 40
0.0
  9
$PELEVATION
 40
0.0
  9
$THICKNESS
 40
0.0
  9
$LIMCHECK
 70
     0
  9
$BLIPMODE
 70
     0
  9
$CHAMFERA
 40
0.0
  9
$CHAMFERB
 40
0.0
  9
$SKPOLY
 70
     0
  9
$TDCREATE
 40
2453059.6565766088
  9
$TDUPDATE
 40
2453087.4974696869
  9
$TDINDWG
 40
0.0309662731
  9
$TDUSRTIMER
 40
0.0309662731
  9
$USRTIMER
 70
     1
  9
$ANGBASE
 50
0.0
  9
$ANGDIR
 70
     0
  9
$PDMODE
 70
     0
  9
$PDSIZE
 40
0.0
  9
$PLINEWID
 40
0.0
  9
$COORDS
 70
     0
  9
$SPLFRAME
 70
     0
  9
$SPLINETYPE
 70
     6
  9
$SPLINESEGS
 70
     8
  9
$ATTDIA
 70
     1
  9
$ATTREQ
 70
     1
  9
$HANDLING
 70
 22529
  9
$HANDSEED
  5
1EA
  9
$SURFTAB1
 70
     6
  9
$SURFTAB2
 70
     6
  9
$SURFTYPE
 70
     6
  9
$SURFU
 70
     6
  9
$SURFV
 70
     6
  9
$UCSNAME
  2

  9
$UCSORG
 10
0.0
 20
0.0
 30
0.0
  9
$UCSXDIR
 10
1.0
 20
0.0
 30
0.0
  9
$UCSYDIR
 10
0.0
 20
1.0
 30
0.0
  9
$PUCSNAME
  2

  9
$PUCSORG
 10
0.0
 20
0.0
 30
0.0
  9
$PUCSXDIR
 10
1.0
 20
0.0
 30
0.0
  9
$PUCSYDIR
 10
0.0
 20
1.0
 30
0.0
  9
$USERI1
 70
     0
  9
$USERI2
 70
     0
  9
$USERI3
 70
     0
  9
$USERI4
 70
     0
  9
$USERI5
 70
     0
  9
$USERR1
 40
0.0
  9
$USERR2
 40
0.0
  9
$USERR3
 40
0.0
  9
$USERR4
 40
0.0
  9
$USERR5
 40
0.0
  9
$WORLDVIEW
 70
     1
  9
$SHADEDGE
 70
     3
  9
$SHADEDIF
 70
    70
  9
$TILEMODE
 70
     1
  9
$MAXACTVP
 70
    64
  9
$PLIMCHECK
 70
     0
  9
$PEXTMIN
 10
-2.2851421075465619
 20
-1.3233560152103929
 30
0.0
  9
$PEXTMAX
 10
294.71485789245338
 20
383.81102117464093
 30
0.0
  9
$PLIMMIN
 10
-0.1979161059762549
 20
-0.2679166643638311
  9
$PLIMMAX
 10
11.493750144177531
 20
7.9987497780266699
  9
$UNITMODE
 70
     0
  9
$VISRETAIN
 70
     1
  9
$PLINEGEN
 70
     0
  9
$PSLTSCALE
 70
     1
  0
ENDSEC
  0
SECTION
  2
TABLES
  0
TABLE
  2
VPORT
 70
     2
  0
VPORT
  2
*ACTIVE
 70
     0
 10
0.0
 20
0.0
 11
1.0
 21
1.0
 12
2.3729603303648039
 22
34.978397049622203
 13
0.0
 23
0.0
 14
1.0
 24
1.0
 15
0.0
 25
0.0
 16
0.0
 26
0.0
 36
1.0
 17
0.0
 27
0.0
 37
0.0
 40
112.5074062974803
 41
1.828516377649325
 42
50.0
 43
0.0
 44
0.0
 50
0.0
 51
0.0
 71
     0
 72
   100
 73
     1
 74
     1
 75
     0
 76
     0
 77
     0
 78
     0
  0
ENDTAB
  0
TABLE
  2
LTYPE
 70
     1
  0
LTYPE
  2
CONTINUOUS
 70
     0
  3
Solid line
 72
    65
 73
     0
 40
0.0
  0
ENDTAB
  0
TABLE
  2
LAYER
 70
     3
  0
LAYER
  2
0
 70
     0
 62
     7
  6
CONTINUOUS
  0
LAYER
  2
DEFPOINTS
 70
     0
 62
     7
  6
CONTINUOUS
  0
LAYER
  2
COTATION-JACOBDELAFON
 70
     0
 62
     8
  6
CONTINUOUS
  0
ENDTAB
  0
TABLE
  2
STYLE
 70
     2
  0
STYLE
  2
STANDARD
 70
     0
 40
0.0
 41
1.0
 50
0.0
 71
     0
 42
0.2
  3
txt
  4

  0
STYLE
  2
JACOB-DELAFON
 70
     0
 40
0.0
 41
1.0
 50
0.0
 71
     0
 42
2.5
  3
txt
  4

  0
ENDTAB
  0
TABLE
  2
VIEW
 70
     0
  0
ENDTAB
  0
TABLE
  2
UCS
 70
     0
  0
ENDTAB
  0
TABLE
  2
APPID
 70
     9
  0
APPID
  2
ACAD
 70
     0
  0
APPID
  2
ADCADD_ZZ
 70
     0
  0
APPID
  2
SDSK_PMN
 70
     0
  0
APPID
  2
ACAECLAYERSTANDARD
 70
     0
  0
APPID
  2
AECBASE
 70
     0
  0
APPID
  2
AEC_DWGVARSSETUP_DATA
 70
     0
  0
APPID
  2
AEC_DISPREPCONFIG_DATA
 70
     0
  0
APPID
  2
AEC_DISPREPSET_DATA
 70
     0
  0
APPID
  2
DCO15
 70
     0
  0
ENDTAB
  0
TABLE
  2
DIMSTYLE
 70
     2
  0
DIMSTYLE
  2
STANDARD
 70
     0
  3

  4

  5

  6

  7

 40
1.0
 41
0.18
 42
0.0625
 43
0.38
 44
0.18
 45
0.0
 46
0.0
 47
0.0
 48
0.0
140
0.18
141
0.09
142
0.0
143
25.399999999999999
144
1.0
145
0.0
146
1.0
147
0.09
 71
     0
 72
     0
 73
     1
 74
     1
 75
     0
 76
     0
 77
     0
 78
     0
170
     0
171
     2
172
     0
173
     0
174
     0
175
     0
176
     0
177
     0
178
     0
  0
DIMSTYLE
  2
COTATION-JACOB-DELAFON
 70
     0
  3

  4

  5
OBLIQUE
  6

  7

 40
1.0
 41
1.8
 42
0.625
 43
3.7999999999999989
 44
1.8
 45
0.0
 46
0.0
 47
0.0
 48
0.0
140
3.0
141
0.9
142
0.0
143
25.399999999999999
144
1.0
145
0.0
146
1.0
147
0.9
 71
     0
 72
     0
 73
     0
 74
     0
 75
     0
 76
     0
 77
     1
 78
    12
170
     0
171
     2
172
     0
173
     0
174
     0
175
     0
176
     0
177
     0
178
     0
  0
ENDTAB
  0
ENDSEC
  0
SECTION
  2
BLOCKS
  0
BLOCK
  8
0
  2
$MODEL_SPACE
 70
     0
 10
0.0
 20
0.0
 30
0.0
  3
$MODEL_SPACE
  1

  0
ENDBLK
  5
2E
  8
0
  0
BLOCK
 67
     1
  8
0
  2
$PAPER_SPACE
 70
     0
 10
0.0
 20
0.0
 30
0.0
  3
$PAPER_SPACE
  1

  0
ENDBLK
  5
33
 67
     1
  8
0
  0
BLOCK
  8
0
  2
_OBLIQUE
 70
     0
 10
0.0
 20
0.0
 30
0.0
  3
_OBLIQUE
  1

  0
LINE
  5
12
  8
0
  6
BYBLOCK
 62
     0
 10
-0.5
 20
-0.5
 30
0.0
 11
0.5
 21
0.5
 31
0.0
  0
ENDBLK
  5
13
  8
0
  0
BLOCK
  8
0
  2
*D1
 70
     1
 10
0.0
 20
0.0
 30
0.0
  3
*D1
  1

  0
LINE
  5
16
  8
COTATION-JACOBDELAFON
 62
     0
 10
-89.999997764825821
 20
60.374603370410853
 30
0.0
 11
-89.999997764825821
 21
67.907345582851676
 31
0.0
  0
LINE
  5
17
  8
COTATION-JACOBDELAFON
 62
     0
 10
90.000002235174165
 20
60.374603370410853
 30
0.0
 11
90.000002235174165
 21
67.907345582851676
 31
0.0
  0
LINE
  5
18
  8
COTATION-JACOBDELAFON
 62
     0
 10
-89.999997764825821
 20
66.107345582851679
 30
0.0
 11
90.000002235174165
 21
66.107345582851679
 31
0.0
  0
INSERT
  5
19
  8
COTATION-JACOBDELAFON
 62
     0
  2
_OBLIQUE
 10
-89.999997764825821
 20
66.107345582851679
 30
0.0
 41
1.8
 42
1.8
 43
1.8
 50
180.0
  0
INSERT
  5
1A
  8
COTATION-JACOBDELAFON
 62
     0
  2
_OBLIQUE
 10
90.000002235174165
 20
66.107345582851679
 30
0.0
 41
1.8
 42
1.8
 43
1.8
  0
TEXT
  5
1B
  8
0
  6
CONTINUOUS
 62
     0
 10
-3.6241451045256841
 20
67.064644355020846
 30
0.0
 40
3.0
  1
180
  7
JACOB-DELAFON
  0
POINT
  5
1C
  8
DEFPOINTS
 62
     0
 10
-89.999997764825821
 20
59.749603370410853
 30
0.0
  0
POINT
  5
1E
  8
DEFPOINTS
 62
     0
 10
90.000002235174165
 20
59.749603370410853
 30
0.0
  0
POINT
  5
1F
  8
DEFPOINTS
 62
     0
 10
90.000002235174165
 20
66.107345582851679
 30
0.0
  0
ENDBLK
  5
20
  8
0
  0
BLOCK
  8
0
  2
*D2
 70
     1
 10
0.0
 20
0.0
 30
0.0
  3
*D2
  1

  0
LINE
  5
24
  8
COTATION-JACOBDELAFON
 62
     0
 10
-90.374996512714347
 20
59.999847511450177
 30
0.0
 11
-96.979452307783376
 21
59.999847511450177
 31
0.0
  0
LINE
  5
25
  8
COTATION-JACOBDELAFON
 62
     0
 10
-90.374996512714347
 20
0.0000000000000002
 30
0.0
 11
-96.979452307783376
 21
0.000000000000002
 31
0.0
  0
LINE
  5
26
  8
COTATION-JACOBDELAFON
 62
     0
 10
-95.179452307783365
 20
59.999847511450177
 30
0.0
 11
-95.179452307783365
 21
0.0000000000000015
 31
0.0
  0
INSERT
  5
27
  8
COTATION-JACOBDELAFON
 62
     0
  2
_OBLIQUE
 10
-95.179452307783365
 20
59.999847511450177
 30
0.0
 41
1.8
 42
1.8
 43
1.8
 50
90.0
  0
INSERT
  5
28
  8
COTATION-JACOBDELAFON
 62
     0
  2
_OBLIQUE
 10
-95.179452307783365
 20
0.0000000000000015
 30
0.0
 41
1.8
 42
1.8
 43
1.8
 50
270.0
  0
TEXT
  5
29
  8
0
  6
CONTINUOUS
 62
     0
 10
-96.13675107995256
 20
27.690578598835579
 30
0.0
 40
3.0
  1
60
 50
90.0
  7
JACOB-DELAFON
  0
POINT
  5
2A
  8
DEFPOINTS
 62
     0
 10
-89.749996512714347
 20
59.999847511450177
 30
0.0
  0
POINT
  5
2B
  8
DEFPOINTS
 62
     0
 10
-89.749996512714347
 20
0.0
 30
0.0
  0
POINT
  5
2C
  8
DEFPOINTS
 62
     0
 10
-95.179452307783365
 20
0.0000000000000015
 30
0.0
  0
ENDBLK
  5
2D
  8
0
  0
BLOCK
  8
0
  2
ADCADD_ZZ
 70
     0
 10
0.0
 20
0.0
 30
0.0
  3
ADCADD_ZZ
  1

  0
ENDBLK
  5
6F
  8
0
  0
ENDSEC
  0
SECTION
  2
ENTITIES
  0
POLYLINE
  5
9
  8
0
  6
CONTINUOUS
 66
     1
 10
0.0
 20
0.0
 30
0.0
 70
     1
  0
VERTEX
  5
1D6
  8
0
  6
CONTINUOUS
 10
-89.749996512714347
 20
0.2494812015849561
 30
0.0
  0
VERTEX
  5
1D7
  8
0
  6
CONTINUOUS
 10
89.749996512714347
 20
0.2494812015849561
 30
0.0
  0
VERTEX
  5
1D8
  8
0
  6
CONTINUOUS
 10
89.749996512714347
 20
59.749603370410853
 30
0.0
  0
VERTEX
  5
1D9
  8
0
  6
CONTINUOUS
 10
-89.749996512714347
 20
59.749603370410853
 30
0.0
  0
SEQEND
  5
1DA
  8
0
  6
CONTINUOUS
  0
POLYLINE
  5
A
  8
0
  6
CONTINUOUS
 66
     1
 10
0.0
 20
0.0
 30
0.0
 70
     1
  0
VERTEX
  5
1DB
  8
0
  6
CONTINUOUS
 10
-89.999997764825821
 20
59.749603370410853
 30
0.0
  0
VERTEX
  5
1DC
  8
0
  6
CONTINUOUS
 10
-89.926797300455974
 20
59.926605323828937
 30
0.0
  0
VERTEX
  5
1DD
  8
0
  6
CONTINUOUS
 10
-89.749996512714347
 20
59.999847511450177
 30
0.0
  0
VERTEX
  5
1DE
  8
0
  6
CONTINUOUS
 10
89.749996512714347
 20
59.999847511450177
 30
0.0
  0
VERTEX
  5
1DF
  8
0
  6
CONTINUOUS
 10
89.926712363836984
 20
59.926605323828937
 30
0.0
  0
VERTEX
  5
1E0
  8
0
  6
CONTINUOUS
 10
90.000002235174165
 20
59.749603370410853
 30
0.0
  0
VERTEX
  5
1E1
  8
0
  6
CONTINUOUS
 10
90.000002235174165
 20
0.2494812015849561
 30
0.0
  0
VERTEX
  5
1E2
  8
0
  6
CONTINUOUS
 10
89.926712363836984
 20
0.0732421876213039
 30
0.0
  0
VERTEX
  5
1E3
  8
0
  6
CONTINUOUS
 10
89.749996512714347
 20
0.0
 30
0.0
  0
VERTEX
  5
1E4
  8
0
  6
CONTINUOUS
 10
-89.749996512714347
 20
0.0
 30
0.0
  0
VERTEX
  5
1E5
  8
0
  6
CONTINUOUS
 10
-89.926797300455974
 20
0.0732421876213039
 30
0.0
  0
VERTEX
  5
1E6
  8
0
  6
CONTINUOUS
 10
-89.999997764825821
 20
0.2494812015849561
 30
0.0
  0
SEQEND
  5
1E7
  8
0
  6
CONTINUOUS
  0
DIMENSION
  5
B
  8
COTATION-JACOBDELAFON
  2
*D1
 10
90.000002235174165
 20
66.107345582851679
 30
0.0
 11
0.0000022351741792
 21
68.53906454601676
 31
0.0
 13
-89.999997764825821
 23
59.749603370410853
 33
0.0
 14
90.000002235174165
 24
59.749603370410853
 34
0.0
  0
DIMENSION
  5
21
  8
COTATION-JACOBDELAFON
  2
*D2
 10
-95.179452307783365
 20
0.0000000000000015
 30
0.0
 11
-97.611171270948475
 21
29.999923755725071
 31
0.0
 13
-89.749996512714347
 23
59.999847511450177
 33
0.0
 14
-89.749996512714347
 24
0.0
 34
0.0
 50
90.0
  0
INSERT
  5
70
 67
     1
  8
0
  6
CONTINUOUS
  2
ADCADD_ZZ
 10
0.0
 20
0.0
 30
0.0
1001
ADCADD_ZZ
1070
   205
1070
    14
1070
   209
1070
     1
1070
   231
1070
     0
1070
   235
1070
     0
1070
   236
1070
     4
1070
   237
1070
     2
1070
   238
1070
     4
1070
   239
1070
     2
1070
   240
1070
     0
1070
   241
1070
  4096
1070
   242
1070
     2
1070
   244
1070
     0
1070
   245
1070
     1
1070
   303
1040
0.1
1070
   304
1040
4.0
1070
   305
1040
96.0
1070
   306
1040
0.125
1070
   337
1040
0.0
1070
   338
1040
0.3048
1070
   339
1040
0.0625
1070
   340
1040
96.0
1070
   341
1040
4.0
1070
   342
1040
96.0
1070
   530
1010
0.0
1020
0.0
1030
0.0
1070
   531
1010
0.0
1020
0.0
1030
0.0
1070
   107
1000

1070
   108
1000
Architectural Desktop
1070
   135
1000
L120
1070
   136
1000
'
1070
   137
1000
m
1001
SDSK_PMN
1070
   100
1000
ACADARCH
1070
   300
1040
2453087.4975218512
  0
ENDSEC
  0
EOF
