999
DXF file: e62466-f-p_dxf.dxf
999
Pro/ENGINEER 2016130 by Parametric Technology Corporation
  0
SECTION
  2
HEADER
  9
$ACADVER
  1
AC1027
  9
$DWGCODEPAGE
  3
ANSI_1252
  9
$EXTMAX
 10
138.1431603847
 20
109.5085135993
 30
0.0
  9
$EXTMIN
 10
0.0
 20
0.0
 30
0.0
  9
$LIMMIN
 10
0.0
 20
0.0
  9
$LIMMAX
 10
138.1431603847
 20
109.5085135993
  9
$VIEWCTR
 10
69.0715801923
 20
54.7542567997
  9
$VIEWSIZE
 40
109.5085135993
  9
$CLAYER
  8
0
  9
$LTSCALE
 40
7.5978738212
  9
$CELTYPE
  6
BYLAYER
  9
$DIMSCALE
 40
1.0
  9
$DIMASZ
 40
3.5
  9
$DIMEXO
 40
1.0
  9
$DIMDLI
 40
5.2494400946
  9
$DIMEXE
 40
1.5
  9
$DIMCEN
 40
1.2432884435
  9
$DIMLFAC
 40
1.0
  9
$DIMBLK
  1
_FILLED
  9
$DIMALT
 70
0
  9
$DIMALTF
 40
0.0393700787
  9
$DIMTXT
 40
3.5
  9
$DIMTOL
 70
1
  9
$DIMLIM
 70
0
  9
$DIMTFAC
 40
1.0
  9
$DIMTP
 40
0.1
  9
$DIMTM
 40
0.1
  9
$DIMGAP
 40
0.625
  9
$DIMDSEP
 70
46
  9
$AUNITS
 70
0
  9
$PDMODE
 70
0
  9
$PDSIZE
 40
0.3125
  9
$HANDSEED
  5
29D
  9
$TILEMODE
 70
1
  9
$MEASUREMENT
 70
1
  9
$INSUNITS
 70
4
  0
ENDSEC
  0
SECTION
  2
CLASSES
  0
CLASS
  1
ACDBDICTIONARYWDFLT
  2
AcDbDictionaryWithDefault
  3
AutoCAD 2000
 90
0
 91
1
280
0
281
0
  0
CLASS
  1
ACDBPLACEHOLDER
  2
AcDbPlaceHolder
  3
AutoCAD 2000
 90
0
 91
1
280
0
281
0
  0
CLASS
  1
LAYOUT
  2
AcDbLayout
  3
AutoCAD 2000
 90
0
 91
0
280
0
281
0
  0
ENDSEC
  0
SECTION
  2
TABLES
  0
TABLE
  2
VPORT
  5
8
100
AcDbSymbolTable
 70
2
  0
VPORT
  5
1F4
100
AcDbSymbolTableRecord
100
AcDbViewportTableRecord
  2
*ACTIVE
 70
0
 10
0.0
 20
0.0
 11
1.0
 21
1.0
 12
69.0715801923
 22
54.7542567997
 13
0.0
 23
0.0
 14
1.0
 24
1.0
 15
0.0
 25
0.0
 16
0.0
 26
0.0
 36
1.0
 17
0.0
 27
0.0
 37
0.0
 40
109.5085135993
 41
1.2614832933
 42
50.0
 43
0.0
 44
0.0
 50
0.0
 51
0.0
 71
0
 72
100
 73
1
 74
1
 75
0
 76
0
 77
0
 78
0
  0
ENDTAB
  0
TABLE
  2
LTYPE
  5
5
100
AcDbSymbolTable
 70
6
  0
LTYPE
  5
14
100
AcDbSymbolTableRecord
100
AcDbLinetypeTableRecord
  2
BYBLOCK
 70
0
  3

 72
65
 73
0
 40
0.0
  0
LTYPE
  5
15
100
AcDbSymbolTableRecord
100
AcDbLinetypeTableRecord
  2
BYLAYER
 70
0
  3

 72
65
 73
0
 40
0.0
  0
LTYPE
  5
16
100
AcDbSymbolTableRecord
100
AcDbLinetypeTableRecord
  2
CONTINUOUS
 70
64
  3
Solid line
 72
65
 73
0
 40
0.0
  0
LTYPE
  5
1F5
100
AcDbSymbolTableRecord
100
AcDbLinetypeTableRecord
  2
CENTER
 70
64
  3
____ _ ____ _ ____ _ ____ _ ____ _ ____ _ ____
 72
65
 73
4
 40
0.6
 49
0.375
 74
0
 49
-0.075
 74
0
 49
0.075
 74
0
 49
-0.075
 74
0
  0
LTYPE
  5
1F6
100
AcDbSymbolTableRecord
100
AcDbLinetypeTableRecord
  2
HIDDEN
 70
64
  3
- - - - - - - - - - - - - - - - - - - -
 72
65
 73
2
 40
0.2
 49
0.1
 74
0
 49
-0.1
 74
0
  0
LTYPE
  5
1F7
100
AcDbSymbolTableRecord
100
AcDbLinetypeTableRecord
  2
PHANTOM
 70
64
  3
_____ _ _ _____ _ _ _____ _ _ _____
 72
65
 73
6
 40
0.8
 49
0.45
 74
0
 49
-0.05
 74
0
 49
0.1
 74
0
 49
-0.05
 74
0
 49
0.1
 74
0
 49
-0.05
 74
0
  0
LTYPE
  5
1F8
100
AcDbSymbolTableRecord
100
AcDbLinetypeTableRecord
  2
DOT
 70
64
  3
. . . . . . . . . . . . . . . . . . . .
 72
65
 73
2
 40
0.2
 49
0.1
 74
0
 49
-0.1
 74
0
  0
LTYPE
  5
1F9
100
AcDbSymbolTableRecord
100
AcDbLinetypeTableRecord
  2
DASHED
 70
64
  3
- - - - - - - - - - - - - - - - - - - -
 72
65
 73
2
 40
0.2
 49
0.1
 74
0
 49
-0.1
 74
0
  0
ENDTAB
  0
TABLE
  2
LAYER
  5
2
100
AcDbSymbolTable
 70
36
  0
LAYER
  5
10
100
AcDbSymbolTableRecord
100
AcDbLayerTableRecord
  2
0
 70
0
 62
7
  6
CONTINUOUS
370
-3
390
F
  0
LAYER
  5
1FA
100
AcDbSymbolTableRecord
100
AcDbLayerTableRecord
  2
DEFAULT_1
 70
0
 62
7
  6
CENTER
370
-3
390
F
  0
LAYER
  5
1FB
100
AcDbSymbolTableRecord
100
AcDbLayerTableRecord
  2
DEFAULT_2
 70
0
 62
8
  6
HIDDEN
370
-3
390
F
  0
LAYER
  5
1FC
100
AcDbSymbolTableRecord
100
AcDbLayerTableRecord
  2
DEFAULT_3
 70
0
 62
7
  6
PHANTOM
370
-3
390
F
  0
LAYER
  5
1FD
100
AcDbSymbolTableRecord
100
AcDbLayerTableRecord
  2
Cotation-JacobDelafon
 70
0
 62
7
  6
CONTINUOUS
370
-3
390
F
  0
LAYER
  5
1FE
100
AcDbSymbolTableRecord
100
AcDbLayerTableRecord
  2
Defpoints
 70
0
 62
7
  6
CONTINUOUS
290
0
370
-3
390
F
  0
ENDTAB
  0
TABLE
  2
STYLE
  5
3
100
AcDbSymbolTable
 70
1
  0
STYLE
  5
11
100
AcDbSymbolTableRecord
100
AcDbTextStyleTableRecord
  2
STANDARD
 70
0
 40
0.0
 41
0.85
 50
0.0
 71
0
 42
0.2
  3
txt
  4

  0
STYLE
  5
1FF
100
AcDbSymbolTableRecord
100
AcDbTextStyleTableRecord
  2
TEXTSTYLE_1
 70
0
 40
0.0
 41
0.8
 50
0.0
 71
0
 42
0.2
  3
gdt
  4

  0
STYLE
  5
200
100
AcDbSymbolTableRecord
100
AcDbTextStyleTableRecord
  2
TEXTSTYLE_2
 70
0
 40
0.0
 41
1.0
 50
0.0
 71
0
 42
0.2
  3
txt
  4

  0
ENDTAB
  0
TABLE
  2
VIEW
  5
6
100
AcDbSymbolTable
 70
0
  0
ENDTAB
  0
TABLE
  2
UCS
  5
7
100
AcDbSymbolTable
 70
0
  0
ENDTAB
  0
TABLE
  2
APPID
  5
9
100
AcDbSymbolTable
 70
1
  0
APPID
  5
201
100
AcDbSymbolTableRecord
100
AcDbRegAppTableRecord
  2
ACAD
 70
0
  0
ENDTAB
  0
TABLE
  2
BLOCK_RECORD
  5
1
100
AcDbSymbolTable
 70
0
  0
BLOCK_RECORD
  5
202
100
AcDbSymbolTableRecord
100
AcDbBlockTableRecord
  2
*Model_Space
  0
BLOCK_RECORD
  5
203
100
AcDbSymbolTableRecord
100
AcDbBlockTableRecord
  2
*Paper_Space
  0
BLOCK_RECORD
  5
204
100
AcDbSymbolTableRecord
100
AcDbBlockTableRecord
  2
_FILLED
  0
BLOCK_RECORD
  5
205
100
AcDbSymbolTableRecord
100
AcDbBlockTableRecord
  2
*D0
  0
BLOCK_RECORD
  5
206
100
AcDbSymbolTableRecord
100
AcDbBlockTableRecord
  2
*D1
  0
ENDTAB
  0
TABLE
  2
DIMSTYLE
  5
A
100
AcDbSymbolTable
 70
1
100
AcDbDimStyleTable
 71
0
  0
DIMSTYLE
105
207
100
AcDbSymbolTableRecord
100
AcDbDimStyleTableRecord
  2
STANDARD
 70
0
  3

  4

 40
1.0
 41
3.5
 42
1.0
 43
0.38
 44
1.5
 45
0.0
 46
0.0
 47
0.1
 48
0.1
140
3.5
141
0.09
142
0.0
143
25.4
144
1.0
145
0.0
146
1.0
147
0.625
 71
1.0
 72
0.0
 73
0
 74
0
 75
0
 76
0
 77
1
 78
8
170
0
171
2
172
0
173
0
174
0
175
0
176
0
177
0
178
0
270
2
271
1
272
1
273
2
274
2
275
0
280
0
281
0
282
0
283
1
284
8
285
0
286
0
287
3
288
0
340
11
278
46
341
204
342
204
343
204
344
204
  0
DIMSTYLE
105
208
100
AcDbSymbolTableRecord
100
AcDbDimStyleTableRecord
  2
DIMSTYLE_1
 70
0
  3

  4

 40
1.0
 41
3.5
 42
1.0
 43
0.38
 44
1.5
 45
0.0
 46
0.0
 47
0.1
 48
0.1
140
3.0
141
0.09
142
0.0
143
25.4
144
1.0
145
0.0
146
1.0
147
0.75
 71
0.0
 72
0.0
 73
0
 74
0
 75
0
 76
0
 77
1
 78
8
170
0
171
2
172
0
173
0
174
0
175
0
176
0
177
0
178
0
270
2
271
1
272
1
273
2
274
2
275
0
280
0
281
0
282
0
283
1
284
8
285
0
286
0
287
3
288
0
340
200
278
46
341
204
342
204
343
204
344
204
  0
ENDTAB
  0
ENDSEC
  0
SECTION
  2
BLOCKS
  0
BLOCK
  5
20
100
AcDbEntity
  8
0
100
AcDbBlockBegin
  2
*Model_Space
 70
0
 10
0.0
 20
0.0
 30
0.0
  3
*Model_Space
  1

  0
ENDBLK
  5
21
100
AcDbEntity
  8
0
100
AcDbBlockEnd
  0
BLOCK
  5
1C
100
AcDbEntity
  8
0
100
AcDbBlockBegin
  2
*Paper_Space
 70
0
 10
0.0
 20
0.0
 30
0.0
  3
*Paper_Space
  1

  0
ENDBLK
  5
1D
100
AcDbEntity
  8
0
100
AcDbBlockEnd
  0
BLOCK
  5
209
100
AcDbEntity
  8
0
100
AcDbBlockBegin
  2
_FILLED
 70
64
 10
0.0
 20
0.0
  3
_FILLED
  1

  0
SOLID
  5
20A
100
AcDbEntity
  8
0
  6
BYBLOCK
 62
0
100
AcDbTrace
 10
0.0
 20
0.0
 11
-1.0
 21
0.2142857143
 12
-1.0
 22
-0.2142857143
 13
-1.0
 23
-0.2142857143
  0
ENDBLK
  5
20B
100
AcDbEntity
  8
0
  6
BYBLOCK
 62
0
100
AcDbBlockEnd
  0
BLOCK
  5
20C
100
AcDbEntity
  8
Cotation-JacobDelafon
100
AcDbBlockBegin
 62
8
  6
CONTINUOUS
  2
*D0
 70
65
 10
0.0
 20
0.0
  3
*D0
  1

  0
LINE
  5
20D
100
AcDbEntity
  8
Cotation-JacobDelafon
100
AcDbLine
 62
8
  6
CONTINUOUS
 10
18.1430773847
 20
90.499964
 11
18.1430773847
 21
106.5085135993
  0
LINE
  5
20E
100
AcDbEntity
  8
Cotation-JacobDelafon
100
AcDbLine
 62
8
  6
CONTINUOUS
 10
18.1430773847
 20
106.5085135993
 11
18.1430773847
 21
107.2585135993
  0
LINE
  5
20F
100
AcDbEntity
  8
Cotation-JacobDelafon
100
AcDbLine
 62
8
  6
CONTINUOUS
 10
138.1431603847
 20
90.499964
 11
138.1431603847
 21
106.5085135993
  0
LINE
  5
210
100
AcDbEntity
  8
Cotation-JacobDelafon
100
AcDbLine
 62
8
  6
CONTINUOUS
 10
138.1431603847
 20
106.5085135993
 11
138.1431603847
 21
107.2585135993
  0
LINE
  5
211
100
AcDbEntity
  8
Cotation-JacobDelafon
100
AcDbLine
 62
8
  6
CONTINUOUS
 10
18.1430773847
 20
105.7585135993
 11
78.1431188847
 21
105.7585135993
  0
LINE
  5
212
100
AcDbEntity
  8
Cotation-JacobDelafon
100
AcDbLine
 62
8
  6
CONTINUOUS
 10
138.1431603847
 20
105.7585135993
 11
78.1431188847
 21
105.7585135993
  0
INSERT
  5
213
100
AcDbEntity
  8
Cotation-JacobDelafon
100
AcDbBlockReference
 62
8
  6
CONTINUOUS
  2
_FILLED
 10
18.1430773847
 20
105.7585135993
 41
3.5
 42
3.5
 43
3.5
 50
180.0
  0
INSERT
  5
214
100
AcDbEntity
  8
Cotation-JacobDelafon
100
AcDbBlockReference
 62
8
  6
CONTINUOUS
  2
_FILLED
 10
138.1431603847
 20
105.7585135993
 41
3.5
 42
3.5
 43
3.5
  0
ENDBLK
  5
215
100
AcDbEntity
  8
0
  6
BYBLOCK
 62
0
100
AcDbBlockEnd
  0
BLOCK
  5
216
100
AcDbEntity
  8
Cotation-JacobDelafon
100
AcDbBlockBegin
 62
8
  6
CONTINUOUS
  2
*D1
 70
65
 10
0.0
 20
0.0
  3
*D1
  1

  0
LINE
  5
217
100
AcDbEntity
  8
Cotation-JacobDelafon
100
AcDbLine
 62
8
  6
CONTINUOUS
 10
17.6429613847
 20
90.000019
 11
0.75
 21
90.000019
  0
LINE
  5
218
100
AcDbEntity
  8
Cotation-JacobDelafon
100
AcDbLine
 62
8
  6
CONTINUOUS
 10
0.75
 20
90.000019
 11
0.0
 21
90.000019
  0
LINE
  5
219
100
AcDbEntity
  8
Cotation-JacobDelafon
100
AcDbLine
 62
8
  6
CONTINUOUS
 10
17.6429613847
 20
0.0
 11
0.75
 21
0.0
  0
LINE
  5
21A
100
AcDbEntity
  8
Cotation-JacobDelafon
100
AcDbLine
 62
8
  6
CONTINUOUS
 10
0.75
 20
0.0
 11
0.0
 21
0.0
  0
LINE
  5
21B
100
AcDbEntity
  8
Cotation-JacobDelafon
100
AcDbLine
 62
8
  6
CONTINUOUS
 10
1.5
 20
90.000019
 11
1.5
 21
45.0000095
  0
LINE
  5
21C
100
AcDbEntity
  8
Cotation-JacobDelafon
100
AcDbLine
 62
8
  6
CONTINUOUS
 10
1.5
 20
0.0
 11
1.5
 21
45.0000095
  0
INSERT
  5
21D
100
AcDbEntity
  8
Cotation-JacobDelafon
100
AcDbBlockReference
 62
8
  6
CONTINUOUS
  2
_FILLED
 10
1.5
 20
90.000019
 41
3.5
 42
3.5
 43
3.5
 50
90.0
  0
INSERT
  5
21E
100
AcDbEntity
  8
Cotation-JacobDelafon
100
AcDbBlockReference
 62
8
  6
CONTINUOUS
  2
_FILLED
 10
1.5
 20
0.0
 41
3.5
 42
3.5
 43
3.5
 50
270.0
  0
ENDBLK
  5
21F
100
AcDbEntity
  8
0
  6
BYBLOCK
 62
0
100
AcDbBlockEnd
  0
ENDSEC
  0
SECTION
  2
ENTITIES
  0
DIMENSION
  5
220
100
AcDbEntity
  8
Cotation-JacobDelafon
100
AcDbDimension
 62
8
  6
CONTINUOUS
  2
*D0
 10
138.1431603847
 20
105.7585135993
 11
73.6431188847
 21
105.7585135993
 70
160
 71
2
  1
120
  3
DIMSTYLE_1
100
AcDbAlignedDimension
 13
18.1430773847
 23
89.499964
 14
138.1431603847
 24
89.499964
100
AcDbRotatedDimension
  0
DIMENSION
  5
221
100
AcDbEntity
  8
Cotation-JacobDelafon
100
AcDbDimension
 62
8
  6
CONTINUOUS
  2
*D1
 10
1.5
 20
0.0
 11
1.5
 21
42.0000095
 70
160
 71
2
  1
90
  3
DIMSTYLE_1
100
AcDbAlignedDimension
 13
18.6429613847
 23
90.000019
 14
18.6429613847
 24
0.0
 50
270.0
100
AcDbRotatedDimension
  0
LINE
  5
222
100
AcDbEntity
  8
0
100
AcDbLine
 62
7
  6
CONTINUOUS
 10
0.0
 20
0.0
 11
0.0
 21
109.5085135993
  0
LINE
  5
223
100
AcDbEntity
  8
0
100
AcDbLine
 62
7
  6
CONTINUOUS
 10
18.2894943847
 20
0.146417
 11
18.6429613847
 21
0.0
  0
LINE
  5
224
100
AcDbEntity
  8
0
100
AcDbLine
 62
7
  6
CONTINUOUS
 10
18.1430773847
 20
0.499884
 11
18.2894943847
 21
0.146417
  0
LINE
  5
225
100
AcDbEntity
  8
0
100
AcDbLine
 62
7
  6
CONTINUOUS
 10
26.2175203847
 20
8.074615
 11
28.2968073847
 21
6.75032
  0
LINE
  5
226
100
AcDbEntity
  8
0
100
AcDbLine
 62
7
  6
CONTINUOUS
 10
18.2894943847
 20
89.853603
 11
18.1430773847
 21
89.499964
  0
LINE
  5
227
100
AcDbEntity
  8
0
100
AcDbLine
 62
7
  6
CONTINUOUS
 10
92.0643193847
 20
0.720025
 11
100.5271963847
 21
2.803963
  0
LINE
  5
228
100
AcDbEntity
  8
0
100
AcDbLine
 62
7
  6
CONTINUOUS
 10
28.8096103847
 20
7.630542
 11
27.0141983847
 21
8.84735
  0
LINE
  5
229
100
AcDbEntity
  8
0
100
AcDbLine
 62
7
  6
CONTINUOUS
 10
27.0141983847
 20
8.84735
 11
25.8041093847
 21
10.648101
  0
LINE
  5
22A
100
AcDbEntity
  8
0
100
AcDbLine
 62
7
  6
CONTINUOUS
 10
24.8933983847
 20
10.15373
 11
26.2175203847
 21
8.074615
  0
LINE
  5
22B
100
AcDbEntity
  8
0
100
AcDbLine
 62
7
  6
CONTINUOUS
 10
83.1429003847
 20
0.0
 11
92.0643193847
 21
0.720025
  0
LINE
  5
22C
100
AcDbEntity
  8
0
100
AcDbLine
 62
7
  6
CONTINUOUS
 10
0.0
 20
0.0
 11
138.1431603847
 21
0.0
  0
LINE
  5
22D
100
AcDbEntity
  8
0
100
AcDbLine
 62
7
  6
CONTINUOUS
 10
18.6429613847
 20
0.0
 11
83.1429003847
 21
0.0
  0
LINE
  5
22E
100
AcDbEntity
  8
0
100
AcDbLine
 62
7
  6
CONTINUOUS
 10
28.2968073847
 20
6.75032
 11
30.7452373847
 21
6.255949
  0
LINE
  5
22F
100
AcDbEntity
  8
0
100
AcDbLine
 62
7
  6
CONTINUOUS
 10
31.0370363847
 20
7.174756
 11
28.8096103847
 21
7.630542
  0
LINE
  5
230
100
AcDbEntity
  8
0
100
AcDbLine
 62
7
  6
CONTINUOUS
 10
18.1430773847
 20
89.499964
 11
18.1430773847
 21
0.499884
  0
LINE
  5
231
100
AcDbEntity
  8
0
100
AcDbLine
 62
7
  6
CONTINUOUS
 10
24.8933983847
 20
79.846289
 11
24.3990263847
 21
77.397688
  0
LINE
  5
232
100
AcDbEntity
  8
0
100
AcDbLine
 62
7
  6
CONTINUOUS
 10
26.2175203847
 20
81.925577
 11
24.8933983847
 21
79.846289
  0
LWPOLYLINE
  5
233
100
AcDbEntity
  8
Cotation-JacobDelafon
100
AcDbPolyline
 62
8
  6
CONTINUOUS
 90
15
 70
0
 43
0.349999985
 10
0.7500000195
 20
46.5000090401
 10
0.500000002
 20
46.1250098867
 10
0.250000001
 20
45.9375082021
 10
-0.250000001
 20
45.7500107333
 10
-1.2499999886
 20
45.7500107333
 10
-1.7499999577
 20
45.9375082021
 10
-2.0000000081
 20
46.1250098867
 10
-2.2499999268
 20
46.5000090401
 10
-2.0000000081
 20
46.8750081935
 10
-1.7499999577
 20
47.0625098781
 10
-1.2499999886
 20
47.2500115628
 10
-0.250000001
 20
47.2500115628
 10
0.250000001
 20
47.0625098781
 10
0.500000002
 20
46.8750081935
 10
0.7500000195
 20
46.5000090401
  0
LINE
  5
234
100
AcDbEntity
  8
0
100
AcDbLine
 62
7
  6
CONTINUOUS
 10
27.0141983847
 20
81.152669
 11
25.8041093847
 21
79.351918
  0
LINE
  5
235
100
AcDbEntity
  8
0
100
AcDbLine
 62
7
  6
CONTINUOUS
 10
18.6429613847
 20
90.000019
 11
18.2894943847
 21
89.853603
  0
LINE
  5
236
100
AcDbEntity
  8
0
100
AcDbLine
 62
7
  6
CONTINUOUS
 10
91.0779883847
 20
6.914651
 11
98.5655593847
 21
8.758466
  0
LINE
  5
237
100
AcDbEntity
  8
0
100
AcDbLine
 62
7
  6
CONTINUOUS
 10
98.3743563847
 20
9.550149
 11
91.0311353847
 21
7.756977
  0
LINE
  5
238
100
AcDbEntity
  8
0
100
AcDbLine
 62
7
  6
CONTINUOUS
 10
82.8934753847
 20
6.200483
 11
91.0779883847
 21
6.914651
  0
LINE
  5
239
100
AcDbEntity
  8
0
100
AcDbLine
 62
7
  6
CONTINUOUS
 10
91.0311353847
 20
7.756977
 11
83.0023403847
 21
7.12618
  0
LINE
  5
23A
100
AcDbEntity
  8
0
100
AcDbLine
 62
7
  6
CONTINUOUS
 10
30.7452373847
 20
6.255949
 11
82.8934753847
 21
6.200483
  0
LINE
  5
23B
100
AcDbEntity
  8
0
100
AcDbLine
 62
7
  6
CONTINUOUS
 10
83.0023403847
 20
7.12618
 11
31.0370363847
 21
7.174756
  0
LINE
  5
23C
100
AcDbEntity
  8
0
100
AcDbLine
 62
7
  6
CONTINUOUS
 10
24.3990263847
 20
12.602159
 11
24.8933983847
 21
10.15373
  0
LINE
  5
23D
100
AcDbEntity
  8
0
100
AcDbLine
 62
7
  6
CONTINUOUS
 10
25.8041093847
 20
10.648101
 11
25.3546963847
 21
12.87949
  0
LINE
  5
23E
100
AcDbEntity
  8
0
100
AcDbLine
 62
7
  6
CONTINUOUS
 10
24.3990263847
 20
77.397688
 11
24.3990263847
 21
12.602159
  0
LINE
  5
23F
100
AcDbEntity
  8
0
100
AcDbLine
 62
7
  6
CONTINUOUS
 10
25.3546963847
 20
77.12053
 11
25.3546963847
 21
12.87949
  0
LINE
  5
240
100
AcDbEntity
  8
0
100
AcDbLine
 62
7
  6
CONTINUOUS
 10
25.8041093847
 20
79.351918
 11
25.3546963847
 21
77.12053
  0
LINE
  5
241
100
AcDbEntity
  8
0
100
AcDbLine
 62
7
  6
CONTINUOUS
 10
28.8096103847
 20
82.369477
 11
27.0141983847
 21
81.152669
  0
LINE
  5
242
100
AcDbEntity
  8
0
100
AcDbLine
 62
7
  6
CONTINUOUS
 10
28.2968073847
 20
83.249699
 11
26.2175203847
 21
81.925577
  0
LWPOLYLINE
  5
243
100
AcDbEntity
  8
Cotation-JacobDelafon
100
AcDbPolyline
 62
8
  6
CONTINUOUS
 90
17
 70
0
 43
0.349999985
 10
-1.2499999886
 20
44.2500099038
 10
-0.7500000195
 20
44.0625082192
 10
-0.500000002
 20
43.5000115969
 10
-0.7500000195
 20
42.9375107589
 10
-1.2499999886
 20
42.7500090743
 10
-1.7499999577
 20
42.9375107589
 10
-2.0000000081
 20
43.1250082277
 10
-2.2499999268
 20
43.5000115969
 10
-2.0000000081
 20
43.8750107504
 10
-1.7499999577
 20
44.0625082192
 10
-1.2499999886
 20
44.2500099038
 10
-0.250000001
 20
44.2500099038
 10
0.250000001
 20
44.0625082192
 10
0.500000002
 20
43.8750107504
 10
0.7500000195
 20
43.5000115969
 10
0.500000002
 20
43.1250082277
 10
0.250000001
 20
42.9375107589
  0
LWPOLYLINE
  5
244
100
AcDbEntity
  8
Cotation-JacobDelafon
100
AcDbPolyline
 62
8
  6
CONTINUOUS
 90
13
 70
0
 43
0.349999985
 10
77.3931204667
 20
109.0085159442
 10
77.5806221513
 20
109.2585125693
 10
77.955617089
 20
109.508517626
 10
78.3306204582
 20
109.508517626
 10
78.7056153958
 20
109.2585125693
 10
78.8931170804
 20
109.0085159442
 10
78.8931170804
 20
108.5085142624
 10
78.7056153958
 20
108.2585176373
 10
78.3306204582
 20
108.0085125807
 10
77.955617089
 20
107.7585159556
 10
77.5806221513
 20
107.2585142738
 10
77.3931204667
 20
106.508515967
 10
78.8931170804
 20
106.508515967
  0
LINE
  5
245
100
AcDbEntity
  8
0
100
AcDbLine
 62
7
  6
CONTINUOUS
 10
119.9482333847
 20
78.45292
 11
118.4961253847
 21
77.713086
  0
LINE
  5
246
100
AcDbEntity
  8
0
100
AcDbLine
 62
7
  6
CONTINUOUS
 10
120.1421923847
 20
77.68897
 11
118.9054033847
 21
77.058862
  0
LINE
  5
247
100
AcDbEntity
  8
0
100
AcDbLine
 62
7
  6
CONTINUOUS
 10
121.5577823847
 20
68.290405
 11
123.1673303847
 21
68.545342
  0
LWPOLYLINE
  5
248
100
AcDbEntity
  8
Cotation-JacobDelafon
100
AcDbPolyline
 62
8
  6
CONTINUOUS
 90
2
 70
0
 43
0.349999985
 10
75.1431171146
 20
109.508517626
 10
75.1431171146
 20
106.508515967
  0
LINE
  5
249
100
AcDbEntity
  8
0
100
AcDbLine
 62
7
  6
CONTINUOUS
 10
121.5129953847
 20
69.033685
 11
122.8837993847
 21
69.250898
  0
LINE
  5
24A
100
AcDbEntity
  8
0
100
AcDbLine
 62
7
  6
CONTINUOUS
 10
122.8837993847
 20
69.250898
 11
124.1205883847
 21
69.881006
  0
LINE
  5
24B
100
AcDbEntity
  8
0
100
AcDbLine
 62
7
  6
CONTINUOUS
 10
123.1673303847
 20
68.545342
 11
124.6194383847
 21
69.285177
  0
LINE
  5
24C
100
AcDbEntity
  8
0
100
AcDbLine
 62
7
  6
CONTINUOUS
 10
121.5129953847
 20
77.906011
 11
120.1421923847
 21
77.68897
  0
LINE
  5
24D
100
AcDbEntity
  8
0
100
AcDbLine
 62
7
  6
CONTINUOUS
 10
118.4961253847
 20
77.713086
 11
117.3440853847
 21
76.560702
  0
LINE
  5
24E
100
AcDbEntity
  8
0
100
AcDbLine
 62
7
  6
CONTINUOUS
 10
118.9054033847
 20
77.058862
 11
117.9238953847
 21
76.077355
  0
LINE
  5
24F
100
AcDbEntity
  8
0
100
AcDbLine
 62
7
  6
CONTINUOUS
 10
121.5577823847
 20
78.707857
 11
119.9482333847
 21
78.45292
  0
LINE
  5
250
100
AcDbEntity
  8
0
100
AcDbLine
 62
7
  6
CONTINUOUS
 10
119.9482333847
 20
68.545342
 11
121.5577823847
 21
68.290405
  0
LINE
  5
251
100
AcDbEntity
  8
0
100
AcDbLine
 62
7
  6
CONTINUOUS
 10
120.1421923847
 20
69.250898
 11
121.5129953847
 21
69.033685
  0
LINE
  5
252
100
AcDbEntity
  8
0
100
AcDbLine
 62
7
  6
CONTINUOUS
 10
124.1205883847
 20
69.881006
 11
125.1017513847
 21
70.862341
  0
LINE
  5
253
100
AcDbEntity
  8
0
100
AcDbLine
 62
7
  6
CONTINUOUS
 10
124.6194383847
 20
69.285177
 11
125.7718223847
 21
70.437389
  0
LINE
  5
254
100
AcDbEntity
  8
0
100
AcDbLine
 62
7
  6
CONTINUOUS
 10
125.4155993847
 20
82.967546
 11
31.0370363847
 21
82.825091
  0
LINE
  5
255
100
AcDbEntity
  8
0
100
AcDbLine
 62
7
  6
CONTINUOUS
 10
125.5406563847
 20
83.74407
 11
30.7452373847
 21
83.74407
  0
LINE
  5
256
100
AcDbEntity
  8
0
100
AcDbLine
 62
7
  6
CONTINUOUS
 10
117.9238953847
 20
76.077355
 11
117.2937873847
 21
74.840738
  0
LINE
  5
257
100
AcDbEntity
  8
0
100
AcDbLine
 62
7
  6
CONTINUOUS
 10
117.3440853847
 20
76.560702
 11
116.6040793847
 21
75.108594
  0
LINE
  5
258
100
AcDbEntity
  8
0
100
AcDbLine
 62
7
  6
CONTINUOUS
 10
122.8837993847
 20
77.68897
 11
121.5129953847
 21
77.906011
  0
LINE
  5
259
100
AcDbEntity
  8
0
100
AcDbLine
 62
7
  6
CONTINUOUS
 10
123.1673303847
 20
78.45292
 11
121.5577823847
 21
78.707857
  0
LINE
  5
25A
100
AcDbEntity
  8
0
100
AcDbLine
 62
7
  6
CONTINUOUS
 10
31.0370363847
 20
82.825091
 11
28.8096103847
 21
82.369477
  0
LINE
  5
25B
100
AcDbEntity
  8
0
100
AcDbLine
 62
7
  6
CONTINUOUS
 10
30.7452373847
 20
83.74407
 11
28.2968073847
 21
83.249699
  0
LINE
  5
25C
100
AcDbEntity
  8
0
100
AcDbLine
 62
7
  6
CONTINUOUS
 10
137.6429323847
 20
90.000019
 11
18.6429613847
 21
90.000019
  0
LINE
  5
25D
100
AcDbEntity
  8
0
100
AcDbLine
 62
7
  6
CONTINUOUS
 10
127.6611133847
 20
82.519683
 11
125.4155993847
 21
82.967546
  0
LINE
  5
25E
100
AcDbEntity
  8
0
100
AcDbLine
 62
7
  6
CONTINUOUS
 10
118.4961253847
 20
69.285177
 11
119.9482333847
 21
68.545342
  0
LINE
  5
25F
100
AcDbEntity
  8
0
100
AcDbLine
 62
7
  6
CONTINUOUS
 10
118.9054033847
 20
69.881006
 11
120.1421923847
 21
69.250898
  0
LINE
  5
260
100
AcDbEntity
  8
0
100
AcDbLine
 62
7
  6
CONTINUOUS
 10
116.6040793847
 20
75.108594
 11
116.3491423847
 21
73.499045
  0
LINE
  5
261
100
AcDbEntity
  8
0
100
AcDbLine
 62
7
  6
CONTINUOUS
 10
125.1017513847
 20
70.862341
 11
125.7318593847
 21
72.099131
  0
LINE
  5
262
100
AcDbEntity
  8
0
100
AcDbLine
 62
7
  6
CONTINUOUS
 10
125.7718223847
 20
70.437389
 11
126.5114843847
 21
71.889497
  0
LINE
  5
263
100
AcDbEntity
  8
0
100
AcDbLine
 62
7
  6
CONTINUOUS
 10
127.9890863847
 20
83.249699
 11
125.5406563847
 21
83.74407
  0
LINE
  5
264
100
AcDbEntity
  8
0
100
AcDbLine
 62
7
  6
CONTINUOUS
 10
117.2937873847
 20
74.840738
 11
117.0767463847
 21
73.469934
  0
LINE
  5
265
100
AcDbEntity
  8
0
100
AcDbLine
 62
7
  6
CONTINUOUS
 10
124.1205883847
 20
77.058862
 11
122.8837993847
 21
77.68897
  0
LINE
  5
266
100
AcDbEntity
  8
0
100
AcDbLine
 62
7
  6
CONTINUOUS
 10
124.6194383847
 20
77.713086
 11
123.1673303847
 21
78.45292
  0
LINE
  5
267
100
AcDbEntity
  8
0
100
AcDbLine
 62
7
  6
CONTINUOUS
 10
117.9238953847
 20
70.862341
 11
118.9054033847
 21
69.881006
  0
LINE
  5
268
100
AcDbEntity
  8
0
100
AcDbLine
 62
7
  6
CONTINUOUS
 10
117.3440853847
 20
70.437389
 11
118.4961253847
 21
69.285177
  0
LINE
  5
269
100
AcDbEntity
  8
0
100
AcDbLine
 62
7
  6
CONTINUOUS
 10
125.7318593847
 20
72.099131
 11
125.9492453847
 21
73.469934
  0
LINE
  5
26A
100
AcDbEntity
  8
0
100
AcDbLine
 62
7
  6
CONTINUOUS
 10
105.2283733847
 20
12.432661
 11
98.3743563847
 21
9.550149
  0
LWPOLYLINE
  5
26B
100
AcDbEntity
  8
Cotation-JacobDelafon
100
AcDbPolyline
 62
8
  6
CONTINUOUS
 90
15
 70
0
 43
0.349999985
 10
81.1431204325
 20
106.508515967
 10
80.7681170633
 20
106.7585125921
 10
80.5806153787
 20
107.0085176487
 10
80.3931221257
 20
107.5085108989
 10
80.3931221257
 20
108.5085142624
 10
80.5806153787
 20
109.0085159442
 10
80.7681170633
 20
109.2585125693
 10
81.1431204325
 20
109.508517626
 10
81.5181153702
 20
109.2585125693
 10
81.7056170548
 20
109.0085159442
 10
81.8931187394
 20
108.5085142624
 10
81.8931187394
 20
107.5085108989
 10
81.7056170548
 20
107.0085176487
 10
81.5181153702
 20
106.7585125921
 10
81.1431204325
 20
106.508515967
  0
LINE
  5
26C
100
AcDbEntity
  8
0
100
AcDbLine
 62
7
  6
CONTINUOUS
 10
116.6040793847
 20
71.889497
 11
117.3440853847
 21
70.437389
  0
LINE
  5
26D
100
AcDbEntity
  8
0
100
AcDbLine
 62
7
  6
CONTINUOUS
 10
117.2937873847
 20
72.099131
 11
117.9238953847
 21
70.862341
  0
LINE
  5
26E
100
AcDbEntity
  8
0
100
AcDbLine
 62
7
  6
CONTINUOUS
 10
116.3491423847
 20
73.499045
 11
116.6040793847
 21
71.889497
  0
LINE
  5
26F
100
AcDbEntity
  8
0
100
AcDbLine
 62
7
  6
CONTINUOUS
 10
117.0767463847
 20
73.469934
 11
117.2937873847
 21
72.099131
  0
LINE
  5
270
100
AcDbEntity
  8
0
100
AcDbLine
 62
7
  6
CONTINUOUS
 10
126.5114843847
 20
71.889497
 11
126.7664213847
 21
73.499045
  0
LINE
  5
271
100
AcDbEntity
  8
0
100
AcDbLine
 62
7
  6
CONTINUOUS
 10
121.8747303847
 20
26.660905
 11
117.0819133847
 21
21.086741
  0
LINE
  5
272
100
AcDbEntity
  8
0
100
AcDbLine
 62
7
  6
CONTINUOUS
 10
111.9273623847
 20
15.668983
 11
117.6041903847
 21
20.538626
  0
LINE
  5
273
100
AcDbEntity
  8
0
100
AcDbLine
 62
7
  6
CONTINUOUS
 10
117.0819133847
 20
21.086741
 11
111.4981033847
 21
16.31046
  0
LINE
  5
274
100
AcDbEntity
  8
0
100
AcDbLine
 62
7
  6
CONTINUOUS
 10
105.5470453847
 20
11.708846
 11
111.9273623847
 21
15.668983
  0
LINE
  5
275
100
AcDbEntity
  8
0
100
AcDbLine
 62
7
  6
CONTINUOUS
 10
111.4981033847
 20
16.31046
 11
105.2283733847
 21
12.432661
  0
LINE
  5
276
100
AcDbEntity
  8
0
100
AcDbLine
 62
7
  6
CONTINUOUS
 10
98.5655593847
 20
8.758466
 11
105.5470453847
 21
11.708846
  0
LINE
  5
277
100
AcDbEntity
  8
0
100
AcDbLine
 62
7
  6
CONTINUOUS
 10
0.0
 20
109.5085135993
 11
138.1431603847
 21
109.5085135993
  0
LINE
  5
278
100
AcDbEntity
  8
0
100
AcDbLine
 62
7
  6
CONTINUOUS
 10
130.0685453847
 20
81.925577
 11
127.9890863847
 21
83.249699
  0
LINE
  5
279
100
AcDbEntity
  8
0
100
AcDbLine
 62
7
  6
CONTINUOUS
 10
129.4721993847
 20
81.304254
 11
127.6611133847
 21
82.519683
  0
LINE
  5
27A
100
AcDbEntity
  8
0
100
AcDbLine
 62
7
  6
CONTINUOUS
 10
125.7718223847
 20
76.560702
 11
124.6194383847
 21
77.713086
  0
LINE
  5
27B
100
AcDbEntity
  8
0
100
AcDbLine
 62
7
  6
CONTINUOUS
 10
125.1017513847
 20
76.077355
 11
124.1205883847
 21
77.058862
  0
LINE
  5
27C
100
AcDbEntity
  8
0
100
AcDbLine
 62
7
  6
CONTINUOUS
 10
131.9426773847
 20
55.249685
 11
131.8868673847
 21
77.397688
  0
LINE
  5
27D
100
AcDbEntity
  8
0
100
AcDbLine
 62
7
  6
CONTINUOUS
 10
131.1485833847
 20
77.256955
 11
131.1489273847
 21
55.213684
  0
LINE
  5
27E
100
AcDbEntity
  8
0
100
AcDbLine
 62
7
  6
CONTINUOUS
 10
131.1489273847
 20
55.213684
 11
130.4974603847
 21
47.155434
  0
LINE
  5
27F
100
AcDbEntity
  8
0
100
AcDbLine
 62
7
  6
CONTINUOUS
 10
131.2285093847
 20
47.065172
 11
131.9426773847
 21
55.249685
  0
LINE
  5
280
100
AcDbEntity
  8
0
100
AcDbLine
 62
7
  6
CONTINUOUS
 10
129.3846943847
 20
39.577602
 11
131.2285093847
 21
47.065172
  0
LINE
  5
281
100
AcDbEntity
  8
0
100
AcDbLine
 62
7
  6
CONTINUOUS
 10
130.4974603847
 20
47.155434
 11
128.6805163847
 21
39.79292
  0
LINE
  5
282
100
AcDbEntity
  8
0
100
AcDbLine
 62
7
  6
CONTINUOUS
 10
126.4339703847
 20
32.596116
 11
129.3846943847
 21
39.577602
  0
LINE
  5
283
100
AcDbEntity
  8
0
100
AcDbLine
 62
7
  6
CONTINUOUS
 10
128.6805163847
 20
39.79292
 11
125.7742343847
 21
32.93029
  0
LINE
  5
284
100
AcDbEntity
  8
0
100
AcDbLine
 62
7
  6
CONTINUOUS
 10
122.5137963847
 20
26.193061
 11
126.4339703847
 21
32.596116
  0
LINE
  5
285
100
AcDbEntity
  8
0
100
AcDbLine
 62
7
  6
CONTINUOUS
 10
125.7742343847
 20
32.93029
 11
121.8747303847
 21
26.660905
  0
LINE
  5
286
100
AcDbEntity
  8
0
100
AcDbLine
 62
7
  6
CONTINUOUS
 10
117.6041903847
 20
20.538626
 11
122.5137963847
 21
26.193061
  0
LINE
  5
287
100
AcDbEntity
  8
0
100
AcDbLine
 62
7
  6
CONTINUOUS
 10
108.4188763847
 20
6.13916
 11
115.6253273847
 21
10.611928
  0
LINE
  5
288
100
AcDbEntity
  8
0
100
AcDbLine
 62
7
  6
CONTINUOUS
 10
100.5271963847
 20
2.803963
 11
108.4188763847
 21
6.13916
  0
LINE
  5
289
100
AcDbEntity
  8
0
100
AcDbLine
 62
7
  6
CONTINUOUS
 10
137.9967443847
 20
89.853603
 11
137.6429323847
 21
90.000019
  0
LINE
  5
28A
100
AcDbEntity
  8
0
100
AcDbLine
 62
7
  6
CONTINUOUS
 10
125.7318593847
 20
74.840738
 11
125.1017513847
 21
76.077355
  0
LINE
  5
28B
100
AcDbEntity
  8
0
100
AcDbLine
 62
7
  6
CONTINUOUS
 10
126.5114843847
 20
75.108594
 11
125.7718223847
 21
76.560702
  0
LINE
  5
28C
100
AcDbEntity
  8
0
100
AcDbLine
 62
7
  6
CONTINUOUS
 10
125.9492453847
 20
73.469934
 11
125.7318593847
 21
74.840738
  0
LINE
  5
28D
100
AcDbEntity
  8
0
100
AcDbLine
 62
7
  6
CONTINUOUS
 10
126.7664213847
 20
73.499045
 11
126.5114843847
 21
75.108594
  0
LINE
  5
28E
100
AcDbEntity
  8
0
100
AcDbLine
 62
7
  6
CONTINUOUS
 10
138.1431603847
 20
89.499964
 11
138.1431603847
 21
55.000088
  0
LINE
  5
28F
100
AcDbEntity
  8
0
100
AcDbLine
 62
7
  6
CONTINUOUS
 10
138.1431603847
 20
0.0
 11
138.1431603847
 21
109.5085135993
  0
LINE
  5
290
100
AcDbEntity
  8
0
100
AcDbLine
 62
7
  6
CONTINUOUS
 10
137.4231353847
 20
46.078669
 11
138.1431603847
 21
55.000088
  0
LINE
  5
291
100
AcDbEntity
  8
0
100
AcDbLine
 62
7
  6
CONTINUOUS
 10
135.3391973847
 20
37.61562
 11
137.4231353847
 21
46.078669
  0
LINE
  5
292
100
AcDbEntity
  8
0
100
AcDbLine
 62
7
  6
CONTINUOUS
 10
132.0040003847
 20
29.724284
 11
135.3391973847
 21
37.61562
  0
LINE
  5
293
100
AcDbEntity
  8
0
100
AcDbLine
 62
7
  6
CONTINUOUS
 10
127.5312333847
 20
22.517833
 11
132.0040003847
 21
29.724284
  0
LINE
  5
294
100
AcDbEntity
  8
0
100
AcDbLine
 62
7
  6
CONTINUOUS
 10
122.0338943847
 20
16.109267
 11
127.5312333847
 21
22.517833
  0
LINE
  5
295
100
AcDbEntity
  8
0
100
AcDbLine
 62
7
  6
CONTINUOUS
 10
115.6253273847
 20
10.611928
 11
122.0338943847
 21
16.109267
  0
LINE
  5
296
100
AcDbEntity
  8
0
100
AcDbLine
 62
7
  6
CONTINUOUS
 10
130.6945193847
 20
79.498679
 11
129.4721993847
 21
81.304254
  0
LINE
  5
297
100
AcDbEntity
  8
0
100
AcDbLine
 62
7
  6
CONTINUOUS
 10
131.3928403847
 20
79.846289
 11
130.0685453847
 21
81.925577
  0
LINE
  5
298
100
AcDbEntity
  8
0
100
AcDbLine
 62
7
  6
CONTINUOUS
 10
138.1431603847
 20
89.499964
 11
137.9967443847
 21
89.853603
  0
LINE
  5
299
100
AcDbEntity
  8
0
100
AcDbLine
 62
7
  6
CONTINUOUS
 10
131.1485833847
 20
77.256955
 11
130.6945193847
 21
79.498679
  0
LINE
  5
29A
100
AcDbEntity
  8
0
100
AcDbLine
 62
7
  6
CONTINUOUS
 10
131.8868673847
 20
77.397688
 11
131.3928403847
 21
79.846289
  0
ENDSEC
  0
SECTION
  2
OBJECTS
  0
DICTIONARY
  5
C
100
AcDbDictionary
280
0
281
1
  3
ACAD_GROUP
350
D
  3
ACAD_MLINESTYLE
350
17
  3
ACAD_LAYOUT
350
1A
  3
ACAD_PLOTSETTINGS
350
19
  3
ACAD_PLOTSTYLENAME
350
E
  0
DICTIONARY
  5
D
102
{ACAD_REACTORS
330
C
102
}
100
AcDbDictionary
280
0
281
1
  0
ACDBDICTIONARYWDFLT
  5
E
102
{ACAD_REACTORS
330
C
102
}
100
AcDbDictionary
281
1
  3
Normal
350
F
100
AcDbDictionaryWithDefault
340
F
  0
DICTIONARY
  5
17
102
{ACAD_REACTORS
330
C
102
}
100
AcDbDictionary
280
0
281
1
  3
Standard
350
18
  0
DICTIONARY
  5
19
102
{ACAD_REACTORS
330
C
102
}
100
AcDbDictionary
281
1
  0
DICTIONARY
  5
1A
102
{ACAD_REACTORS
330
C
102
}
100
AcDbDictionary
281
1
  3
Model
350
29B
  3
Layout1
350
29C
  0
ACDBPLACEHOLDER
  5
F
102
{ACAD_REACTORS
330
E
102
}
  0
MLINESTYLE
  5
18
102
{ACAD_REACTORS
330
17
102
}
100
AcDbMlineStyle
  2
STANDARD
 70
0
  3

 62
256
 51
90.0
 52
90.0
 71
2
 49
0.5
 62
256
  6
BYLAYER
 49
-0.5
 62
256
  6
BYLAYER
  0
LAYOUT
  5
29B
102
{ACAD_REACTORS
330
1A
102
}
100
AcDbPlotSettings
  1

  2
none_device
  4

  6

 40
0.0
 41
0.0
 42
0.0
 43
0.0
 44
138.1431603847
 45
109.5085135993
 46
0.0
 47
0.0
 48
0.0
 49
0.0
140
0.0
141
0.0
142
1.0
143
1.0
 70
1024
 72
1
 73
0
 74
0
  7

 75
0
147
1.0
148
0.0
149
0.0
100
AcDbLayout
  1
Model
 70
0
 71
0
 10
0.0
 20
0.0
 11
138.1431603847
 21
109.5085135993
 12
0.0
 22
0.0
 32
0.0
 14
0.0
 24
0.0
 34
0.0
 15
0.0
 25
0.0
 35
0.0
146
0.0
 13
0.0
 23
0.0
 33
0.0
 16
1.0
 26
0.0
 36
0.0
 17
0.0
 27
1.0
 37
0.0
 76
0
330
202
345
0
346
0
  0
LAYOUT
  5
29C
102
{ACAD_REACTORS
330
1A
102
}
100
AcDbPlotSettings
  1

  2
none_device
  4

  6

 40
0.0
 41
0.0
 42
0.0
 43
0.0
 44
138.1431603847
 45
109.5085135993
 46
0.0
 47
0.0
 48
0.0
 49
0.0
140
0.0
141
0.0
142
1.0
143
1.0
 70
0
 72
1
 73
0
 74
0
  7

 75
0
147
1.0
148
0.0
149
0.0
100
AcDbLayout
  1
Layout1
 70
0
 71
1
 10
0.0
 20
0.0
 11
138.1431603847
 21
109.5085135993
 12
0.0
 22
0.0
 32
0.0
 14
0.0
 24
0.0
 34
0.0
 15
0.0
 25
0.0
 35
0.0
146
0.0
 13
0.0
 23
0.0
 33
0.0
 16
1.0
 26
0.0
 36
0.0
 17
0.0
 27
1.0
 37
0.0
 76
0
330
203
345
0
346
0
  0
ENDSEC
  0
EOF
