999
DXF file: e62445-f-f_dwg.dxf
999
Pro/ENGINEER 2016130 by Parametric Technology Corporation
  0
SECTION
  2
HEADER
  9
$ACADVER
  1
AC1027
  9
$DWGCODEPAGE
  3
ANSI_1252
  9
$EXTMAX
 10
113.748742908
 20
25.4136378518
 30
0.0
  9
$EXTMIN
 10
0.0
 20
0.0
 30
0.0
  9
$LIMMIN
 10
0.0
 20
0.0
  9
$LIMMAX
 10
113.748742908
 20
25.4136378518
  9
$VIEWCTR
 10
56.874371454
 20
12.7068189259
  9
$VIEWSIZE
 40
25.4136378518
  9
$CLAYER
  8
0
  9
$LTSCALE
 40
6.2561808599
  9
$CELTYPE
  6
BYLAYER
  9
$DIMSCALE
 40
1.0
  9
$DIMASZ
 40
3.5
  9
$DIMEXO
 40
1.0
  9
$DIMDLI
 40
4.3224522305
  9
$DIMEXE
 40
1.5
  9
$DIMCEN
 40
1.0237386862
  9
$DIMLFAC
 40
1.0
  9
$DIMBLK
  1
_FILLED
  9
$DIMALT
 70
0
  9
$DIMALTF
 40
0.0393700787
  9
$DIMTXT
 40
3.5
  9
$DIMTOL
 70
1
  9
$DIMLIM
 70
0
  9
$DIMTFAC
 40
1.0
  9
$DIMTP
 40
0.1
  9
$DIMTM
 40
0.1
  9
$DIMGAP
 40
0.625
  9
$DIMDSEP
 70
46
  9
$AUNITS
 70
0
  9
$PDMODE
 70
0
  9
$PDSIZE
 40
0.3125
  9
$HANDSEED
  5
233
  9
$TILEMODE
 70
1
  9
$MEASUREMENT
 70
1
  9
$INSUNITS
 70
4
  0
ENDSEC
  0
SECTION
  2
CLASSES
  0
CLASS
  1
ACDBDICTIONARYWDFLT
  2
AcDbDictionaryWithDefault
  3
AutoCAD 2000
 90
0
 91
1
280
0
281
0
  0
CLASS
  1
ACDBPLACEHOLDER
  2
AcDbPlaceHolder
  3
AutoCAD 2000
 90
0
 91
1
280
0
281
0
  0
CLASS
  1
LAYOUT
  2
AcDbLayout
  3
AutoCAD 2000
 90
0
 91
0
280
0
281
0
  0
ENDSEC
  0
SECTION
  2
TABLES
  0
TABLE
  2
VPORT
  5
8
100
AcDbSymbolTable
 70
2
  0
VPORT
  5
1F4
100
AcDbSymbolTableRecord
100
AcDbViewportTableRecord
  2
*ACTIVE
 70
0
 10
0.0
 20
0.0
 11
1.0
 21
1.0
 12
56.874371454
 22
12.7068189259
 13
0.0
 23
0.0
 14
1.0
 24
1.0
 15
0.0
 25
0.0
 16
0.0
 26
0.0
 36
1.0
 17
0.0
 27
0.0
 37
0.0
 40
25.4136378518
 41
4.4758937532
 42
50.0
 43
0.0
 44
0.0
 50
0.0
 51
0.0
 71
0
 72
100
 73
1
 74
1
 75
0
 76
0
 77
0
 78
0
  0
ENDTAB
  0
TABLE
  2
LTYPE
  5
5
100
AcDbSymbolTable
 70
6
  0
LTYPE
  5
14
100
AcDbSymbolTableRecord
100
AcDbLinetypeTableRecord
  2
BYBLOCK
 70
0
  3

 72
65
 73
0
 40
0.0
  0
LTYPE
  5
15
100
AcDbSymbolTableRecord
100
AcDbLinetypeTableRecord
  2
BYLAYER
 70
0
  3

 72
65
 73
0
 40
0.0
  0
LTYPE
  5
16
100
AcDbSymbolTableRecord
100
AcDbLinetypeTableRecord
  2
CONTINUOUS
 70
64
  3
Solid line
 72
65
 73
0
 40
0.0
  0
LTYPE
  5
1F5
100
AcDbSymbolTableRecord
100
AcDbLinetypeTableRecord
  2
CENTER
 70
64
  3
____ _ ____ _ ____ _ ____ _ ____ _ ____ _ ____
 72
65
 73
4
 40
0.6
 49
0.375
 74
0
 49
-0.075
 74
0
 49
0.075
 74
0
 49
-0.075
 74
0
  0
LTYPE
  5
1F6
100
AcDbSymbolTableRecord
100
AcDbLinetypeTableRecord
  2
HIDDEN
 70
64
  3
- - - - - - - - - - - - - - - - - - - -
 72
65
 73
2
 40
0.2
 49
0.1
 74
0
 49
-0.1
 74
0
  0
LTYPE
  5
1F7
100
AcDbSymbolTableRecord
100
AcDbLinetypeTableRecord
  2
PHANTOM
 70
64
  3
_____ _ _ _____ _ _ _____ _ _ _____
 72
65
 73
6
 40
0.8
 49
0.45
 74
0
 49
-0.05
 74
0
 49
0.1
 74
0
 49
-0.05
 74
0
 49
0.1
 74
0
 49
-0.05
 74
0
  0
LTYPE
  5
1F8
100
AcDbSymbolTableRecord
100
AcDbLinetypeTableRecord
  2
DOT
 70
64
  3
. . . . . . . . . . . . . . . . . . . .
 72
65
 73
2
 40
0.2
 49
0.1
 74
0
 49
-0.1
 74
0
  0
LTYPE
  5
1F9
100
AcDbSymbolTableRecord
100
AcDbLinetypeTableRecord
  2
DASHED
 70
64
  3
- - - - - - - - - - - - - - - - - - - -
 72
65
 73
2
 40
0.2
 49
0.1
 74
0
 49
-0.1
 74
0
  0
ENDTAB
  0
TABLE
  2
LAYER
  5
2
100
AcDbSymbolTable
 70
36
  0
LAYER
  5
10
100
AcDbSymbolTableRecord
100
AcDbLayerTableRecord
  2
0
 70
0
 62
7
  6
CONTINUOUS
370
-3
390
F
  0
LAYER
  5
1FA
100
AcDbSymbolTableRecord
100
AcDbLayerTableRecord
  2
DEFAULT_1
 70
0
 62
7
  6
CENTER
370
-3
390
F
  0
LAYER
  5
1FB
100
AcDbSymbolTableRecord
100
AcDbLayerTableRecord
  2
DEFAULT_2
 70
0
 62
8
  6
HIDDEN
370
-3
390
F
  0
LAYER
  5
1FC
100
AcDbSymbolTableRecord
100
AcDbLayerTableRecord
  2
DEFAULT_3
 70
0
 62
7
  6
PHANTOM
370
-3
390
F
  0
LAYER
  5
1FD
100
AcDbSymbolTableRecord
100
AcDbLayerTableRecord
  2
Cotation-JacobDelafon
 70
0
 62
7
  6
CONTINUOUS
370
-3
390
F
  0
LAYER
  5
1FE
100
AcDbSymbolTableRecord
100
AcDbLayerTableRecord
  2
Defpoints
 70
0
 62
7
  6
CONTINUOUS
290
0
370
-3
390
F
  0
ENDTAB
  0
TABLE
  2
STYLE
  5
3
100
AcDbSymbolTable
 70
1
  0
STYLE
  5
11
100
AcDbSymbolTableRecord
100
AcDbTextStyleTableRecord
  2
STANDARD
 70
0
 40
0.0
 41
0.85
 50
0.0
 71
0
 42
0.2
  3
txt
  4

  0
STYLE
  5
1FF
100
AcDbSymbolTableRecord
100
AcDbTextStyleTableRecord
  2
TEXTSTYLE_1
 70
0
 40
0.0
 41
0.8
 50
0.0
 71
0
 42
0.2
  3
gdt
  4

  0
STYLE
  5
200
100
AcDbSymbolTableRecord
100
AcDbTextStyleTableRecord
  2
TEXTSTYLE_2
 70
0
 40
0.0
 41
1.0
 50
0.0
 71
0
 42
0.2
  3
txt
  4

  0
ENDTAB
  0
TABLE
  2
VIEW
  5
6
100
AcDbSymbolTable
 70
0
  0
ENDTAB
  0
TABLE
  2
UCS
  5
7
100
AcDbSymbolTable
 70
0
  0
ENDTAB
  0
TABLE
  2
APPID
  5
9
100
AcDbSymbolTable
 70
1
  0
APPID
  5
201
100
AcDbSymbolTableRecord
100
AcDbRegAppTableRecord
  2
ACAD
 70
0
  0
ENDTAB
  0
TABLE
  2
BLOCK_RECORD
  5
1
100
AcDbSymbolTable
 70
0
  0
BLOCK_RECORD
  5
202
100
AcDbSymbolTableRecord
100
AcDbBlockTableRecord
  2
*Model_Space
  0
BLOCK_RECORD
  5
203
100
AcDbSymbolTableRecord
100
AcDbBlockTableRecord
  2
*Paper_Space
  0
BLOCK_RECORD
  5
204
100
AcDbSymbolTableRecord
100
AcDbBlockTableRecord
  2
_FILLED
  0
BLOCK_RECORD
  5
205
100
AcDbSymbolTableRecord
100
AcDbBlockTableRecord
  2
*D0
  0
BLOCK_RECORD
  5
206
100
AcDbSymbolTableRecord
100
AcDbBlockTableRecord
  2
*D1
  0
ENDTAB
  0
TABLE
  2
DIMSTYLE
  5
A
100
AcDbSymbolTable
 70
1
100
AcDbDimStyleTable
 71
0
  0
DIMSTYLE
105
207
100
AcDbSymbolTableRecord
100
AcDbDimStyleTableRecord
  2
STANDARD
 70
0
  3

  4

 40
1.0
 41
3.5
 42
1.0
 43
0.38
 44
1.5
 45
0.0
 46
0.0
 47
0.1
 48
0.1
140
3.5
141
0.09
142
0.0
143
25.4
144
1.0
145
0.0
146
1.0
147
0.625
 71
1.0
 72
0.0
 73
0
 74
0
 75
0
 76
0
 77
1
 78
8
170
0
171
2
172
0
173
0
174
0
175
0
176
0
177
0
178
0
270
2
271
1
272
1
273
2
274
2
275
0
280
0
281
0
282
0
283
1
284
8
285
0
286
0
287
3
288
0
340
11
278
46
341
204
342
204
343
204
344
204
  0
DIMSTYLE
105
208
100
AcDbSymbolTableRecord
100
AcDbDimStyleTableRecord
  2
DIMSTYLE_1
 70
0
  3

  4

 40
1.0
 41
3.5
 42
1.0
 43
0.38
 44
1.5
 45
0.0
 46
0.0
 47
0.1
 48
0.1
140
3.0
141
0.09
142
0.0
143
25.4
144
1.0
145
0.0
146
1.0
147
0.75
 71
0.0
 72
0.0
 73
0
 74
0
 75
0
 76
0
 77
1
 78
8
170
0
171
2
172
0
173
0
174
0
175
0
176
0
177
0
178
0
270
2
271
1
272
1
273
2
274
2
275
0
280
0
281
0
282
0
283
1
284
8
285
0
286
0
287
3
288
0
340
200
278
46
341
204
342
204
343
204
344
204
  0
ENDTAB
  0
ENDSEC
  0
SECTION
  2
BLOCKS
  0
BLOCK
  5
20
100
AcDbEntity
  8
0
100
AcDbBlockBegin
  2
*Model_Space
 70
0
 10
0.0
 20
0.0
 30
0.0
  3
*Model_Space
  1

  0
ENDBLK
  5
21
100
AcDbEntity
  8
0
100
AcDbBlockEnd
  0
BLOCK
  5
1C
100
AcDbEntity
  8
0
100
AcDbBlockBegin
  2
*Paper_Space
 70
0
 10
0.0
 20
0.0
 30
0.0
  3
*Paper_Space
  1

  0
ENDBLK
  5
1D
100
AcDbEntity
  8
0
100
AcDbBlockEnd
  0
BLOCK
  5
209
100
AcDbEntity
  8
0
100
AcDbBlockBegin
  2
_FILLED
 70
64
 10
0.0
 20
0.0
  3
_FILLED
  1

  0
SOLID
  5
20A
100
AcDbEntity
  8
0
  6
BYBLOCK
 62
0
100
AcDbTrace
 10
0.0
 20
0.0
 11
-1.0
 21
0.2142857143
 12
-1.0
 22
-0.2142857143
 13
-1.0
 23
-0.2142857143
  0
ENDBLK
  5
20B
100
AcDbEntity
  8
0
  6
BYBLOCK
 62
0
100
AcDbBlockEnd
  0
BLOCK
  5
20C
100
AcDbEntity
  8
Cotation-JacobDelafon
100
AcDbBlockBegin
 62
8
  6
CONTINUOUS
  2
*D0
 70
65
 10
0.0
 20
0.0
  3
*D0
  1

  0
LINE
  5
20D
100
AcDbEntity
  8
Cotation-JacobDelafon
100
AcDbLine
 62
8
  6
CONTINUOUS
 10
23.727880908
 20
4.738962
 11
23.727880908
 21
22.4136378518
  0
LINE
  5
20E
100
AcDbEntity
  8
Cotation-JacobDelafon
100
AcDbLine
 62
8
  6
CONTINUOUS
 10
23.727880908
 20
22.4136378518
 11
23.727880908
 21
23.1636378518
  0
LINE
  5
20F
100
AcDbEntity
  8
Cotation-JacobDelafon
100
AcDbLine
 62
8
  6
CONTINUOUS
 10
113.748742908
 20
4.727938
 11
113.748742908
 21
22.4136378518
  0
LINE
  5
210
100
AcDbEntity
  8
Cotation-JacobDelafon
100
AcDbLine
 62
8
  6
CONTINUOUS
 10
113.748742908
 20
22.4136378518
 11
113.748742908
 21
23.1636378518
  0
LINE
  5
211
100
AcDbEntity
  8
Cotation-JacobDelafon
100
AcDbLine
 62
8
  6
CONTINUOUS
 10
23.727880908
 20
21.6636378518
 11
68.738311908
 21
21.6636378518
  0
LINE
  5
212
100
AcDbEntity
  8
Cotation-JacobDelafon
100
AcDbLine
 62
8
  6
CONTINUOUS
 10
113.748742908
 20
21.6636378518
 11
68.738311908
 21
21.6636378518
  0
INSERT
  5
213
100
AcDbEntity
  8
Cotation-JacobDelafon
100
AcDbBlockReference
 62
8
  6
CONTINUOUS
  2
_FILLED
 10
23.727880908
 20
21.6636378518
 41
3.5
 42
3.5
 43
3.5
 50
180.0
  0
INSERT
  5
214
100
AcDbEntity
  8
Cotation-JacobDelafon
100
AcDbBlockReference
 62
8
  6
CONTINUOUS
  2
_FILLED
 10
113.748742908
 20
21.6636378518
 41
3.5
 42
3.5
 43
3.5
  0
ENDBLK
  5
215
100
AcDbEntity
  8
0
  6
BYBLOCK
 62
0
100
AcDbBlockEnd
  0
BLOCK
  5
216
100
AcDbEntity
  8
Cotation-JacobDelafon
100
AcDbBlockBegin
 62
8
  6
CONTINUOUS
  2
*D1
 70
65
 10
0.0
 20
0.0
  3
*D1
  1

  0
LINE
  5
217
100
AcDbEntity
  8
Cotation-JacobDelafon
100
AcDbLine
 62
8
  6
CONTINUOUS
 10
22.996769908
 20
4.001823
 11
0.75
 21
4.001823
  0
LINE
  5
218
100
AcDbEntity
  8
Cotation-JacobDelafon
100
AcDbLine
 62
8
  6
CONTINUOUS
 10
0.75
 20
4.001823
 11
0.0
 21
4.001823
  0
LINE
  5
219
100
AcDbEntity
  8
Cotation-JacobDelafon
100
AcDbLine
 62
8
  6
CONTINUOUS
 10
22.727880908
 20
0.011024
 11
0.75
 21
0.011024
  0
LINE
  5
21A
100
AcDbEntity
  8
Cotation-JacobDelafon
100
AcDbLine
 62
8
  6
CONTINUOUS
 10
0.75
 20
0.011024
 11
-0.0
 21
0.011024
  0
LINE
  5
21B
100
AcDbEntity
  8
Cotation-JacobDelafon
100
AcDbLine
 62
8
  6
CONTINUOUS
 10
1.5
 20
4.001823
 11
1.5
 21
2.0064235
  0
LINE
  5
21C
100
AcDbEntity
  8
Cotation-JacobDelafon
100
AcDbLine
 62
8
  6
CONTINUOUS
 10
1.5
 20
0.011024
 11
1.5
 21
2.0064235
  0
INSERT
  5
21D
100
AcDbEntity
  8
Cotation-JacobDelafon
100
AcDbBlockReference
 62
8
  6
CONTINUOUS
  2
_FILLED
 10
1.5
 20
4.001823
 41
3.5
 42
3.5
 43
3.5
 50
90.0
  0
INSERT
  5
21E
100
AcDbEntity
  8
Cotation-JacobDelafon
100
AcDbBlockReference
 62
8
  6
CONTINUOUS
  2
_FILLED
 10
1.5
 20
0.011024
 41
3.5
 42
3.5
 43
3.5
 50
270.0
  0
ENDBLK
  5
21F
100
AcDbEntity
  8
0
  6
BYBLOCK
 62
0
100
AcDbBlockEnd
  0
ENDSEC
  0
SECTION
  2
ENTITIES
  0
DIMENSION
  5
220
100
AcDbEntity
  8
Cotation-JacobDelafon
100
AcDbDimension
 62
8
  6
CONTINUOUS
  2
*D0
 10
113.748742908
 20
21.6636378518
 11
65.738311908
 21
21.6636378518
 70
160
 71
2
  1
90
  3
DIMSTYLE_1
100
AcDbAlignedDimension
 13
23.727880908
 23
3.738962
 14
113.748742908
 24
3.727938
100
AcDbRotatedDimension
  0
DIMENSION
  5
221
100
AcDbEntity
  8
Cotation-JacobDelafon
100
AcDbDimension
 62
8
  6
CONTINUOUS
  2
*D1
 10
1.5
 20
0.011024
 11
1.5
 21
0.5064235
 70
160
 71
2
  1
4
  3
DIMSTYLE_1
100
AcDbAlignedDimension
 13
23.996769908
 23
4.001823
 14
23.727880908
 24
0.011024
 50
270.0
100
AcDbRotatedDimension
  0
LINE
  5
222
100
AcDbEntity
  8
0
100
AcDbLine
 62
7
  6
CONTINUOUS
 10
0.0
 20
0.0
 11
0.0
 21
25.4136378518
  0
LINE
  5
223
100
AcDbEntity
  8
0
100
AcDbLine
 62
7
  6
CONTINUOUS
 10
23.727880908
 20
3.738962
 11
23.727880908
 21
0.011024
  0
LINE
  5
224
100
AcDbEntity
  8
0
100
AcDbLine
 62
7
  6
CONTINUOUS
 10
23.727880908
 20
3.738962
 11
23.802638908
 21
3.927064
  0
LINE
  5
225
100
AcDbEntity
  8
0
100
AcDbLine
 62
7
  6
CONTINUOUS
 10
0.0
 20
0.0
 11
113.748742908
 21
0.0
  0
LINE
  5
226
100
AcDbEntity
  8
0
100
AcDbLine
 62
7
  6
CONTINUOUS
 10
113.746674908
 20
0.001722
 11
23.746483908
 21
0.001722
  0
LWPOLYLINE
  5
227
100
AcDbEntity
  8
Cotation-JacobDelafon
100
AcDbPolyline
 62
8
  6
CONTINUOUS
 90
4
 70
0
 43
0.3499999893
 10
0.7500000197
 20
2.5689240295
 10
-2.2499998963
 20
2.5689240295
 10
0.0
 20
1.2564222459
 10
0.0
 20
2.9439220596
  0
LINE
  5
228
100
AcDbEntity
  8
0
100
AcDbLine
 62
7
  6
CONTINUOUS
 10
23.996769908
 20
4.001823
 11
113.493460908
 21
4.001823
  0
LINE
  5
229
100
AcDbEntity
  8
0
100
AcDbLine
 62
7
  6
CONTINUOUS
 10
23.982989908
 20
4.005096
 11
23.802638908
 21
3.927064
  0
LWPOLYLINE
  5
22A
100
AcDbEntity
  8
Cotation-JacobDelafon
100
AcDbPolyline
 62
8
  6
CONTINUOUS
 90
17
 70
0
 43
0.3499999893
 10
67.9883123492
 20
24.4136362646
 10
67.8008115985
 20
23.9136388911
 10
67.2383093464
 20
23.6636402044
 10
66.6758140369
 20
23.9136388911
 10
66.4883132862
 20
24.4136362646
 10
66.6758140369
 20
24.9136405807
 10
66.8633147876
 20
25.1636392674
 10
67.2383093464
 20
25.4136379542
 10
67.6133108478
 20
25.1636392674
 10
67.8008115985
 20
24.9136405807
 10
67.9883123492
 20
24.4136362646
 10
67.9883123492
 20
23.413634575
 10
67.8008115985
 20
22.9136372015
 10
67.6133108478
 20
22.6636385148
 10
67.2383093464
 20
22.4136363567
 10
66.8633147876
 20
22.6636385148
 10
66.6758140369
 20
22.9136372015
  0
LINE
  5
22B
100
AcDbEntity
  8
0
100
AcDbLine
 62
7
  6
CONTINUOUS
 10
0.0
 20
25.4136378518
 11
113.748742908
 21
25.4136378518
  0
LINE
  5
22C
100
AcDbEntity
  8
0
100
AcDbLine
 62
7
  6
CONTINUOUS
 10
113.493460908
 20
3.994071
 11
113.673638908
 21
3.91604
  0
LWPOLYLINE
  5
22D
100
AcDbEntity
  8
Cotation-JacobDelafon
100
AcDbPolyline
 62
8
  6
CONTINUOUS
 90
15
 70
0
 43
0.3499999893
 10
70.2383144151
 20
22.4136363567
 10
69.8633129137
 20
22.6636385148
 10
69.675812163
 20
22.9136372015
 10
69.4883114123
 20
23.413634575
 10
69.4883114123
 20
24.4136362646
 10
69.675812163
 20
24.9136405807
 10
69.8633129137
 20
25.1636392674
 10
70.2383144151
 20
25.4136379542
 10
70.6133089739
 20
25.1636392674
 10
70.8008097246
 20
24.9136405807
 10
70.9883104753
 20
24.4136362646
 10
70.9883104753
 20
23.413634575
 10
70.8008097246
 20
22.9136372015
 10
70.6133089739
 20
22.6636385148
 10
70.2383144151
 20
22.4136363567
  0
LINE
  5
22E
100
AcDbEntity
  8
0
100
AcDbLine
 62
7
  6
CONTINUOUS
 10
113.748742908
 20
3.727938
 11
113.673638908
 21
3.91604
  0
LINE
  5
22F
100
AcDbEntity
  8
0
100
AcDbLine
 62
7
  6
CONTINUOUS
 10
113.748742908
 20
3.727938
 11
113.748742908
 21
0.0
  0
LINE
  5
230
100
AcDbEntity
  8
0
100
AcDbLine
 62
7
  6
CONTINUOUS
 10
113.748742908
 20
0.0
 11
113.748742908
 21
25.4136378518
  0
ENDSEC
  0
SECTION
  2
OBJECTS
  0
DICTIONARY
  5
C
100
AcDbDictionary
280
0
281
1
  3
ACAD_GROUP
350
D
  3
ACAD_MLINESTYLE
350
17
  3
ACAD_LAYOUT
350
1A
  3
ACAD_PLOTSETTINGS
350
19
  3
ACAD_PLOTSTYLENAME
350
E
  0
DICTIONARY
  5
D
102
{ACAD_REACTORS
330
C
102
}
100
AcDbDictionary
280
0
281
1
  0
ACDBDICTIONARYWDFLT
  5
E
102
{ACAD_REACTORS
330
C
102
}
100
AcDbDictionary
281
1
  3
Normal
350
F
100
AcDbDictionaryWithDefault
340
F
  0
DICTIONARY
  5
17
102
{ACAD_REACTORS
330
C
102
}
100
AcDbDictionary
280
0
281
1
  3
Standard
350
18
  0
DICTIONARY
  5
19
102
{ACAD_REACTORS
330
C
102
}
100
AcDbDictionary
281
1
  0
DICTIONARY
  5
1A
102
{ACAD_REACTORS
330
C
102
}
100
AcDbDictionary
281
1
  3
Model
350
231
  3
Layout1
350
232
  0
ACDBPLACEHOLDER
  5
F
102
{ACAD_REACTORS
330
E
102
}
  0
MLINESTYLE
  5
18
102
{ACAD_REACTORS
330
17
102
}
100
AcDbMlineStyle
  2
STANDARD
 70
0
  3

 62
256
 51
90.0
 52
90.0
 71
2
 49
0.5
 62
256
  6
BYLAYER
 49
-0.5
 62
256
  6
BYLAYER
  0
LAYOUT
  5
231
102
{ACAD_REACTORS
330
1A
102
}
100
AcDbPlotSettings
  1

  2
none_device
  4

  6

 40
0.0
 41
0.0
 42
0.0
 43
0.0
 44
113.748742908
 45
25.4136378518
 46
0.0
 47
0.0
 48
0.0
 49
0.0
140
0.0
141
0.0
142
1.0
143
1.0
 70
1024
 72
1
 73
0
 74
0
  7

 75
0
147
1.0
148
0.0
149
0.0
100
AcDbLayout
  1
Model
 70
0
 71
0
 10
0.0
 20
0.0
 11
113.748742908
 21
25.4136378518
 12
0.0
 22
0.0
 32
0.0
 14
0.0
 24
0.0
 34
0.0
 15
0.0
 25
0.0
 35
0.0
146
0.0
 13
0.0
 23
0.0
 33
0.0
 16
1.0
 26
0.0
 36
0.0
 17
0.0
 27
1.0
 37
0.0
 76
0
330
202
345
0
346
0
  0
LAYOUT
  5
232
102
{ACAD_REACTORS
330
1A
102
}
100
AcDbPlotSettings
  1

  2
none_device
  4

  6

 40
0.0
 41
0.0
 42
0.0
 43
0.0
 44
113.748742908
 45
25.4136378518
 46
0.0
 47
0.0
 48
0.0
 49
0.0
140
0.0
141
0.0
142
1.0
143
1.0
 70
0
 72
1
 73
0
 74
0
  7

 75
0
147
1.0
148
0.0
149
0.0
100
AcDbLayout
  1
Layout1
 70
0
 71
1
 10
0.0
 20
0.0
 11
113.748742908
 21
25.4136378518
 12
0.0
 22
0.0
 32
0.0
 14
0.0
 24
0.0
 34
0.0
 15
0.0
 25
0.0
 35
0.0
146
0.0
 13
0.0
 23
0.0
 33
0.0
 16
1.0
 26
0.0
 36
0.0
 17
0.0
 27
1.0
 37
0.0
 76
0
330
203
345
0
346
0
  0
ENDSEC
  0
EOF
