  0
SECTION
  2
HEADER
  9
$ACADVER
  1
AC1009
  9
$INSBASE
 10
0.0
 20
0.0
 30
0.0
  9
$EXTMIN
 10
-18.690763373387089
 20
-44.154636568648222
 30
0.0
  9
$EXTMAX
 10
145.857022891318
 20
11.36831052142805
 30
0.0
  9
$LIMMIN
 10
0.0
 20
0.0
  9
$LIMMAX
 10
12.0
 20
9.0
  9
$ORTHOMODE
 70
     1
  9
$REGENMODE
 70
     1
  9
$FILLMODE
 70
     1
  9
$QTEXTMODE
 70
     0
  9
$MIRRTEXT
 70
     1
  9
$DRAGMODE
 70
     2
  9
$LTSCALE
 40
1.0
  9
$OSMODE
 70
     1
  9
$ATTMODE
 70
     1
  9
$TEXTSIZE
 40
0.2
  9
$TRACEWID
 40
0.05
  9
$TEXTSTYLE
  7
STANDARD
  9
$CLAYER
  8
0
  9
$CELTYPE
  6
CONTINUOUS
  9
$CECOLOR
 62
   256
  9
$DIMSCALE
 40
1.0
  9
$DIMASZ
 40
0.18
  9
$DIMEXO
 40
0.0625
  9
$DIMDLI
 40
0.38
  9
$DIMRND
 40
0.0
  9
$DIMDLE
 40
0.0
  9
$DIMEXE
 40
0.18
  9
$DIMTP
 40
0.0
  9
$DIMTM
 40
0.0
  9
$DIMTXT
 40
0.18
  9
$DIMCEN
 40
0.09
  9
$DIMTSZ
 40
0.0
  9
$DIMTOL
 70
     0
  9
$DIMLIM
 70
     0
  9
$DIMTIH
 70
     1
  9
$DIMTOH
 70
     1
  9
$DIMSE1
 70
     0
  9
$DIMSE2
 70
     0
  9
$DIMTAD
 70
     0
  9
$DIMZIN
 70
     0
  9
$DIMBLK
  1

  9
$DIMASO
 70
     1
  9
$DIMSHO
 70
     1
  9
$DIMPOST
  1

  9
$DIMAPOST
  1

  9
$DIMALT
 70
     0
  9
$DIMALTD
 70
     2
  9
$DIMALTF
 40
25.399999999999999
  9
$DIMLFAC
 40
1.0
  9
$DIMTOFL
 70
     0
  9
$DIMTVP
 40
0.0
  9
$DIMTIX
 70
     0
  9
$DIMSOXD
 70
     0
  9
$DIMSAH
 70
     0
  9
$DIMBLK1
  1

  9
$DIMBLK2
  1

  9
$DIMSTYLE
  2
STANDARD
  9
$DIMCLRD
 70
     0
  9
$DIMCLRE
 70
     0
  9
$DIMCLRT
 70
     0
  9
$DIMTFAC
 40
1.0
  9
$DIMGAP
 40
0.09
  9
$LUNITS
 70
     2
  9
$LUPREC
 70
     4
  9
$SKETCHINC
 40
0.1
  9
$FILLETRAD
 40
0.0
  9
$AUNITS
 70
     0
  9
$AUPREC
 70
     2
  9
$MENU
  1
.
  9
$ELEVATION
 40
0.0
  9
$PELEVATION
 40
0.0
  9
$THICKNESS
 40
0.0
  9
$LIMCHECK
 70
     0
  9
$BLIPMODE
 70
     0
  9
$CHAMFERA
 40
0.0
  9
$CHAMFERB
 40
0.0
  9
$SKPOLY
 70
     0
  9
$TDCREATE
 40
2453070.689044293
  9
$TDUPDATE
 40
2453076.5790560641
  9
$TDINDWG
 40
0.0412191319
  9
$TDUSRTIMER
 40
0.0412191319
  9
$USRTIMER
 70
     1
  9
$ANGBASE
 50
0.0
  9
$ANGDIR
 70
     0
  9
$PDMODE
 70
     0
  9
$PDSIZE
 40
0.0
  9
$PLINEWID
 40
0.0
  9
$COORDS
 70
     1
  9
$SPLFRAME
 70
     0
  9
$SPLINETYPE
 70
     6
  9
$SPLINESEGS
 70
     8
  9
$ATTDIA
 70
     1
  9
$ATTREQ
 70
     1
  9
$HANDLING
 70
 22529
  9
$HANDSEED
  5
2D3
  9
$SURFTAB1
 70
     6
  9
$SURFTAB2
 70
     6
  9
$SURFTYPE
 70
     6
  9
$SURFU
 70
     6
  9
$SURFV
 70
     6
  9
$UCSNAME
  2

  9
$UCSORG
 10
0.0
 20
0.0
 30
0.0
  9
$UCSXDIR
 10
1.0
 20
0.0
 30
0.0
  9
$UCSYDIR
 10
0.0
 20
1.0
 30
0.0
  9
$PUCSNAME
  2

  9
$PUCSORG
 10
0.0
 20
0.0
 30
0.0
  9
$PUCSXDIR
 10
1.0
 20
0.0
 30
0.0
  9
$PUCSYDIR
 10
0.0
 20
1.0
 30
0.0
  9
$USERI1
 70
     0
  9
$USERI2
 70
     0
  9
$USERI3
 70
     0
  9
$USERI4
 70
     0
  9
$USERI5
 70
     0
  9
$USERR1
 40
0.0
  9
$USERR2
 40
0.0
  9
$USERR3
 40
0.0
  9
$USERR4
 40
0.0
  9
$USERR5
 40
0.0
  9
$WORLDVIEW
 70
     1
  9
$SHADEDGE
 70
     3
  9
$SHADEDIF
 70
    70
  9
$TILEMODE
 70
     1
  9
$MAXACTVP
 70
    64
  9
$PLIMCHECK
 70
     0
  9
$PEXTMIN
 10
-4.5410487806561832
 20
-2.659570856866992
 30
0.0
  9
$PEXTMAX
 10
293.38278625913642
 20
440.48537887804167
 30
0.0
  9
$PLIMMIN
 10
-0.1979161059762549
 20
-0.2679166643638311
  9
$PLIMMAX
 10
11.493750144177531
 20
7.9987497780266699
  9
$UNITMODE
 70
     0
  9
$VISRETAIN
 70
     1
  9
$PLINEGEN
 70
     0
  9
$PSLTSCALE
 70
     1
  0
ENDSEC
  0
SECTION
  2
TABLES
  0
TABLE
  2
VPORT
 70
     2
  0
VPORT
  2
*ACTIVE
 70
     0
 10
0.0
 20
0.0
 11
1.0
 21
1.0
 12
70.314768632732395
 22
-16.39256604274118
 13
0.0
 23
0.0
 14
1.0
 24
1.0
 15
0.0
 25
0.0
 16
0.0
 26
0.0
 36
1.0
 17
0.0
 27
0.0
 37
0.0
 40
92.937119198782355
 41
1.928853754940711
 42
50.0
 43
0.0
 44
0.0
 50
0.0
 51
0.0
 71
     0
 72
   100
 73
     1
 74
     1
 75
     0
 76
     0
 77
     0
 78
     0
  0
ENDTAB
  0
TABLE
  2
LTYPE
 70
     1
  0
LTYPE
  2
CONTINUOUS
 70
     0
  3
Solid line
 72
    65
 73
     0
 40
0.0
  0
ENDTAB
  0
TABLE
  2
LAYER
 70
     3
  0
LAYER
  2
0
 70
     0
 62
     7
  6
CONTINUOUS
  0
LAYER
  2
DEFPOINTS
 70
     0
 62
     7
  6
CONTINUOUS
  0
LAYER
  2
COTATION-JACOBDELAFON
 70
     0
 62
     8
  6
CONTINUOUS
  0
ENDTAB
  0
TABLE
  2
STYLE
 70
     2
  0
STYLE
  2
STANDARD
 70
     0
 40
0.0
 41
1.0
 50
0.0
 71
     0
 42
0.2
  3
txt
  4

  0
STYLE
  2
JACOB-DELAFON
 70
     0
 40
0.0
 41
1.0
 50
0.0
 71
     0
 42
2.5
  3
txt
  4

  0
ENDTAB
  0
TABLE
  2
VIEW
 70
     0
  0
ENDTAB
  0
TABLE
  2
UCS
 70
     0
  0
ENDTAB
  0
TABLE
  2
APPID
 70
     8
  0
APPID
  2
ACAD
 70
     0
  0
APPID
  2
ACAECLAYERSTANDARD
 70
     0
  0
APPID
  2
ADCADD_ZZ
 70
     0
  0
APPID
  2
SDSK_PMN
 70
     0
  0
APPID
  2
AECBASE
 70
     0
  0
APPID
  2
AEC_DWGVARSSETUP_DATA
 70
     0
  0
APPID
  2
AEC_DISPREPCONFIG_DATA
 70
     0
  0
APPID
  2
AEC_DISPREPSET_DATA
 70
     0
  0
ENDTAB
  0
TABLE
  2
DIMSTYLE
 70
     2
  0
DIMSTYLE
  2
STANDARD
 70
     0
  3

  4

  5

  6

  7

 40
1.0
 41
0.18
 42
0.0625
 43
0.38
 44
0.18
 45
0.0
 46
0.0
 47
0.0
 48
0.0
140
0.18
141
0.09
142
0.0
143
25.399999999999999
144
1.0
145
0.0
146
1.0
147
0.09
 71
     0
 72
     0
 73
     1
 74
     1
 75
     0
 76
     0
 77
     0
 78
     0
170
     0
171
     2
172
     0
173
     0
174
     0
175
     0
176
     0
177
     0
178
     0
  0
DIMSTYLE
  2
COTATION-JACOB-DELAFON
 70
     0
  3

  4

  5
OBLIQUE
  6

  7

 40
1.0
 41
1.8
 42
0.625
 43
3.7999999999999989
 44
1.8
 45
0.0
 46
0.0
 47
0.0
 48
0.0
140
3.0
141
0.9
142
0.0
143
25.399999999999999
144
1.0
145
0.0
146
1.0
147
0.9
 71
     0
 72
     0
 73
     0
 74
     0
 75
     0
 76
     0
 77
     1
 78
    12
170
     0
171
     2
172
     0
173
     0
174
     0
175
     0
176
     0
177
     0
178
     0
  0
ENDTAB
  0
ENDSEC
  0
SECTION
  2
BLOCKS
  0
BLOCK
  8
0
  2
$MODEL_SPACE
 70
     0
 10
0.0
 20
0.0
 30
0.0
  3
$MODEL_SPACE
  1

  0
ENDBLK
  5
9
  8
0
  0
BLOCK
 67
     1
  8
0
  2
$PAPER_SPACE
 70
     0
 10
0.0
 20
0.0
 30
0.0
  3
$PAPER_SPACE
  1

  0
ENDBLK
  5
E
 67
     1
  8
0
  0
BLOCK
  8
0
  2
_OBLIQUE
 70
     0
 10
0.0
 20
0.0
 30
0.0
  3
_OBLIQUE
  1

  0
LINE
  5
34
  8
0
  6
BYBLOCK
 62
     0
 10
-0.5
 20
-0.5
 30
0.0
 11
0.5
 21
0.5
 31
0.0
  0
ENDBLK
  5
36
  8
0
  0
BLOCK
  8
0
  2
*D1
 70
     1
 10
0.0
 20
0.0
 30
0.0
  3
*D1
  1

  0
LINE
  5
DB
  8
COTATION-JACOBDELAFON
 62
     0
 10
13.15756392202916
 20
-43.25463656864823
 30
0.0
 11
-15.737420945010561
 21
-43.25463656864823
 31
0.0
  0
LINE
  5
DC
  8
COTATION-JACOBDELAFON
 62
     0
 10
0.0794531952740207
 20
0.0429709498018699
 30
0.0
 11
-15.737420945010561
 21
0.0429709498018744
 31
0.0
  0
LINE
  5
DD
  8
COTATION-JACOBDELAFON
 62
     0
 10
-13.93742094501056
 20
-43.25463656864823
 30
0.0
 11
-13.937420945010549
 21
0.0429709498018739
 31
0.0
  0
INSERT
  5
DE
  8
COTATION-JACOBDELAFON
 62
     0
  2
_OBLIQUE
 10
-13.93742094501056
 20
-43.25463656864823
 30
0.0
 41
1.8
 42
1.8
 43
1.8
 50
270.0
  0
INSERT
  5
DF
  8
COTATION-JACOBDELAFON
 62
     0
  2
_OBLIQUE
 10
-13.937420945010549
 20
0.0429709498018739
 30
0.0
 41
1.8
 42
1.8
 43
1.8
 50
90.0
  0
TEXT
  5
E0
  8
0
  6
CONTINUOUS
 62
     0
 10
-14.896766101900051
 20
-25.61572366890476
 30
0.0
 40
3.0
  1
43.3
 50
90.0
  7
JACOB-DELAFON
  0
POINT
  5
E1
  8
DEFPOINTS
 62
     0
 10
13.78256392202916
 20
-43.25463656864823
 30
0.0
  0
POINT
  5
E2
  8
DEFPOINTS
 62
     0
 10
0.7044531952740208
 20
0.0429709498018698
 30
0.0
  0
POINT
  5
E3
  8
DEFPOINTS
 62
     0
 10
-13.937420945010549
 20
0.0429709498018739
 30
0.0
  0
ENDBLK
  5
6B
  8
0
  0
BLOCK
  8
0
  2
*D2
 70
     1
 10
0.0
 20
0.0
 30
0.0
  3
*D2
  1

  0
LINE
  5
AE
  8
COTATION-JACOBDELAFON
 62
     0
 10
-0.0429694456381213
 20
-0.07945169111031
 30
0.0
 11
-0.0429694456381208
 21
8.4170144777718452
 31
0.0
  0
LINE
  5
AF
  8
COTATION-JACOBDELAFON
 62
     0
 10
144.95702289131799
 20
-0.0794516911103109
 30
0.0
 11
144.95702289131799
 21
8.4170144777718487
 31
0.0
  0
LINE
  5
B0
  8
COTATION-JACOBDELAFON
 62
     0
 10
-0.0429694456381209
 20
6.617014477771848
 30
0.0
 11
144.95702289131799
 21
6.617014477771848
 31
0.0
  0
INSERT
  5
B1
  8
COTATION-JACOBDELAFON
 62
     0
  2
_OBLIQUE
 10
-0.0429694456381209
 20
6.617014477771848
 30
0.0
 41
1.8
 42
1.8
 43
1.8
 50
180.0
  0
INSERT
  5
B2
  8
COTATION-JACOBDELAFON
 62
     0
  2
_OBLIQUE
 10
144.95702289131799
 20
6.617014477771848
 30
0.0
 41
1.8
 42
1.8
 43
1.8
  0
TEXT
  5
B3
  8
0
  6
CONTINUOUS
 62
     0
 10
68.816508305377482
 20
7.5743132499410146
 30
0.0
 40
3.0
  1
145
  7
JACOB-DELAFON
  0
POINT
  5
B4
  8
DEFPOINTS
 62
     0
 10
-0.0429694456381213
 20
-0.7044516911103101
 30
0.0
  0
POINT
  5
B5
  8
DEFPOINTS
 62
     0
 10
144.95702289131799
 20
-0.704451691110311
 30
0.0
  0
POINT
  5
B6
  8
DEFPOINTS
 62
     0
 10
144.95702289131799
 20
6.617014477771848
 30
0.0
  0
ENDBLK
  5
77
  8
0
  0
BLOCK
  8
0
  2
ADCADD_ZZ
 70
     0
 10
0.0
 20
0.0
 30
0.0
  3
ADCADD_ZZ
  1

  0
ENDBLK
  5
FA
  8
0
  0
ENDSEC
  0
SECTION
  2
ENTITIES
  0
POLYLINE
  5
24
  8
0
  6
CONTINUOUS
 66
     1
 10
0.0
 20
0.0
 30
0.0
 70
     1
  0
VERTEX
  5
262
  8
0
  6
CONTINUOUS
 10
-0.0429771086819347
 20
-2.9467196138467062
 30
0.0
  0
VERTEX
  5
263
  8
0
  6
CONTINUOUS
 10
-0.042969445638126
 20
-0.7044516911103103
 30
0.0
  0
VERTEX
  5
264
  8
0
  6
CONTINUOUS
 10
0.1759407268411355
 20
-0.1759468857212028
 30
0.0
  0
VERTEX
  5
265
  8
0
  6
CONTINUOUS
 10
0.7044531952740191
 20
0.042970949801869
 30
0.0
  0
VERTEX
  5
266
  8
0
  6
CONTINUOUS
 10
144.20961557649349
 20
0.042970949801869
 30
0.0
  0
VERTEX
  5
267
  8
0
  6
CONTINUOUS
 10
144.7381050557949
 20
-0.1759468857212028
 30
0.0
  0
VERTEX
  5
268
  8
0
  6
CONTINUOUS
 10
144.95702289131799
 20
-0.7044516911103103
 30
0.0
  0
VERTEX
  5
269
  8
0
  6
CONTINUOUS
 10
144.95702289131799
 20
-2.9467196138467062
 30
0.0
  0
SEQEND
  5
26A
  8
0
  6
CONTINUOUS
  0
POLYLINE
  5
25
  8
0
  6
CONTINUOUS
 66
     1
 10
0.0
 20
0.0
 30
0.0
  0
VERTEX
  5
26B
  8
0
  6
CONTINUOUS
 10
7.7431658356233264
 20
-2.9467196138467062
 30
0.0
  0
VERTEX
  5
26C
  8
0
  6
CONTINUOUS
 10
7.7602237711411899
 20
-3.1069078816209639
 30
0.0
  0
VERTEX
  5
26D
  8
0
  6
CONTINUOUS
 10
7.8025544251397001
 20
-3.5446209439661072
 30
0.0
  0
VERTEX
  5
26E
  8
0
  6
CONTINUOUS
 10
7.8564332861577171
 20
-4.1425835784360787
 30
0.0
  0
VERTEX
  5
26F
  8
0
  6
CONTINUOUS
 10
8.2876404243094495
 20
-18.47866723984896
 30
0.0
  0
VERTEX
  5
270
  8
0
  6
CONTINUOUS
 10
8.3688916778116589
 20
-19.29842901431396
 30
0.0
  0
VERTEX
  5
271
  8
0
  6
CONTINUOUS
 10
8.3826774936232642
 20
-19.63474468098423
 30
0.0
  0
VERTEX
  5
272
  8
0
  6
CONTINUOUS
 10
8.4133679840765652
 20
-20.232707315454071
 30
0.0
  0
VERTEX
  5
273
  8
0
  6
CONTINUOUS
 10
8.4424722244614951
 20
-20.83066994992404
 30
0.0
  0
VERTEX
  5
274
  8
0
  6
CONTINUOUS
 10
9.3366728064828841
 20
-38.988589428245149
 30
0.0
  0
VERTEX
  5
275
  8
0
  6
CONTINUOUS
 10
10.10919957891188
 20
-41.155759521657608
 30
0.0
  0
VERTEX
  5
276
  8
0
  6
CONTINUOUS
 10
11.71259187628449
 20
-42.678375674244208
 30
0.0
  0
VERTEX
  5
277
  8
0
  6
CONTINUOUS
 10
13.78256392202916
 20
-43.25463656864823
 30
0.0
  0
VERTEX
  5
278
  8
0
  6
CONTINUOUS
 10
122.2774937615782
 20
-43.25463656864823
 30
0.0
  0
VERTEX
  5
279
  8
0
  6
CONTINUOUS
 10
124.50137037917411
 20
-42.67905002209929
 30
0.0
  0
VERTEX
  5
27A
  8
0
  6
CONTINUOUS
 10
126.1795463210745
 20
-41.156004739059469
 30
0.0
  0
VERTEX
  5
27B
  8
0
  6
CONTINUOUS
 10
126.9861736384516
 20
-38.988650732595573
 30
0.0
  0
VERTEX
  5
27C
  8
0
  6
CONTINUOUS
 10
131.5845210105692
 20
-20.830547341223038
 30
0.0
  0
VERTEX
  5
27D
  8
0
  6
CONTINUOUS
 10
131.75844145284839
 20
-20.232584706753201
 30
0.0
  0
VERTEX
  5
27E
  8
0
  6
CONTINUOUS
 10
131.93036950373741
 20
-19.634683376633731
 30
0.0
  0
VERTEX
  5
27F
  8
0
  6
CONTINUOUS
 10
132.02864037753841
 20
-19.298367709963461
 30
0.0
  0
VERTEX
  5
280
  8
0
  6
CONTINUOUS
 10
132.27496125772089
 20
-18.47866723984896
 30
0.0
  0
VERTEX
  5
281
  8
0
  6
CONTINUOUS
 10
135.86149565144331
 20
-4.1425835784360787
 30
0.0
  0
VERTEX
  5
282
  8
0
  6
CONTINUOUS
 10
136.0289025064852
 20
-3.5446822483166072
 30
0.0
  0
VERTEX
  5
283
  8
0
  6
CONTINUOUS
 10
136.15080620739189
 20
-3.1069078816209639
 30
0.0
  0
VERTEX
  5
284
  8
0
  6
CONTINUOUS
 10
136.1960488180377
 20
-2.9467196138467062
 30
0.0
  0
SEQEND
  5
285
  8
0
  6
CONTINUOUS
  0
POLYLINE
  5
26
  8
0
  6
CONTINUOUS
 66
     1
 10
0.0
 20
0.0
 30
0.0
  0
VERTEX
  5
286
  8
0
  6
CONTINUOUS
 10
8.2876404243094495
 20
-18.47866723984896
 30
0.0
  0
VERTEX
  5
287
  8
0
  6
CONTINUOUS
 10
8.8435865895769936
 20
-18.47866723984896
 30
0.0
  0
VERTEX
  5
288
  8
0
  6
CONTINUOUS
 10
10.523295140239091
 20
-18.47866723984896
 30
0.0
  0
VERTEX
  5
289
  8
0
  6
CONTINUOUS
 10
13.167443732471879
 20
-18.47866723984896
 30
0.0
  0
VERTEX
  5
28A
  8
0
  6
CONTINUOUS
 10
16.640319860425691
 20
-18.47866723984896
 30
0.0
  0
VERTEX
  5
28B
  8
0
  6
CONTINUOUS
 10
21.012224288000279
 20
-18.47866723984896
 30
0.0
  0
VERTEX
  5
28C
  8
0
  6
CONTINUOUS
 10
25.916357760254911
 20
-18.47866723984896
 30
0.0
  0
VERTEX
  5
28D
  8
0
  6
CONTINUOUS
 10
31.43522060683258
 20
-18.47866723984896
 30
0.0
  0
VERTEX
  5
28E
  8
0
  6
CONTINUOUS
 10
36.993839324689077
 20
-18.47866723984896
 30
0.0
  0
VERTEX
  5
28F
  8
0
  6
CONTINUOUS
 10
42.537683694082659
 20
-18.47866723984896
 30
0.0
  0
VERTEX
  5
290
  8
0
  6
CONTINUOUS
 10
47.875683380690603
 20
-18.47866723984896
 30
0.0
  0
VERTEX
  5
291
  8
0
  6
CONTINUOUS
 10
52.845427834034147
 20
-18.47866723984896
 30
0.0
  0
VERTEX
  5
292
  8
0
  6
CONTINUOUS
 10
57.466365859299479
 20
-18.47866723984896
 30
0.0
  0
VERTEX
  5
293
  8
0
  6
CONTINUOUS
 10
123.7217936064412
 20
-18.47866723984896
 30
0.0
  0
VERTEX
  5
294
  8
0
  6
CONTINUOUS
 10
127.5331310533317
 20
-18.47866723984896
 30
0.0
  0
VERTEX
  5
295
  8
0
  6
CONTINUOUS
 10
130.15277323146469
 20
-18.47866723984896
 30
0.0
  0
VERTEX
  5
296
  8
0
  6
CONTINUOUS
 10
131.73663243016921
 20
-18.47866723984896
 30
0.0
  0
VERTEX
  5
297
  8
0
  6
CONTINUOUS
 10
132.27496125772089
 20
-18.47866723984896
 30
0.0
  0
SEQEND
  5
298
  8
0
  6
CONTINUOUS
  0
POLYLINE
  5
27
  8
0
  6
CONTINUOUS
 66
     1
 10
0.0
 20
0.0
 30
0.0
  0
VERTEX
  5
299
  8
0
  6
CONTINUOUS
 10
131.5845210105692
 20
-20.830547341223038
 30
0.0
  0
VERTEX
  5
29A
  8
0
  6
CONTINUOUS
 10
131.05463685729461
 20
-20.830547341223038
 30
0.0
  0
VERTEX
  5
29B
  8
0
  6
CONTINUOUS
 10
129.49620363794691
 20
-20.830547341223038
 30
0.0
  0
VERTEX
  5
29C
  8
0
  6
CONTINUOUS
 10
126.91893809207519
 20
-20.830547341223038
 30
0.0
  0
VERTEX
  5
29D
  8
0
  6
CONTINUOUS
 10
123.1517857557849
 20
-20.830547341223038
 30
0.0
  0
VERTEX
  5
29E
  8
0
  6
CONTINUOUS
 10
57.135950736361792
 20
-20.830547341223038
 30
0.0
  0
VERTEX
  5
29F
  8
0
  6
CONTINUOUS
 10
52.571090865687538
 20
-20.830547341223038
 30
0.0
  0
VERTEX
  5
2A0
  8
0
  6
CONTINUOUS
 10
47.683340981095633
 20
-20.830547341223038
 30
0.0
  0
VERTEX
  5
2A1
  8
0
  6
CONTINUOUS
 10
42.433052493920542
 20
-20.830547341223038
 30
0.0
  0
VERTEX
  5
2A2
  8
0
  6
CONTINUOUS
 10
36.979616715380381
 20
-20.830547341223038
 30
0.0
  0
VERTEX
  5
2A3
  8
0
  6
CONTINUOUS
 10
31.513782131957981
 20
-20.830547341223038
 30
0.0
  0
VERTEX
  5
2A4
  8
0
  6
CONTINUOUS
 10
26.085894941475591
 20
-20.830547341223038
 30
0.0
  0
VERTEX
  5
2A5
  8
0
  6
CONTINUOUS
 10
21.27710506028712
 20
-20.830547341223038
 30
0.0
  0
VERTEX
  5
2A6
  8
0
  6
CONTINUOUS
 10
16.9859691144548
 20
-20.830547341223038
 30
0.0
  0
VERTEX
  5
2A7
  8
0
  6
CONTINUOUS
 10
13.56108662987403
 20
-20.830547341223038
 30
0.0
  0
VERTEX
  5
2A8
  8
0
  6
CONTINUOUS
 10
10.952264669598719
 20
-20.830547341223038
 30
0.0
  0
VERTEX
  5
2A9
  8
0
  6
CONTINUOUS
 10
9.2937444350673051
 20
-20.830547341223038
 30
0.0
  0
VERTEX
  5
2AA
  8
0
  6
CONTINUOUS
 10
8.7443195200808486
 20
-20.830547341223038
 30
0.0
  0
VERTEX
  5
2AB
  8
0
  6
CONTINUOUS
 10
8.4424722244614951
 20
-20.83066994992404
 30
0.0
  0
SEQEND
  5
2AC
  8
0
  6
CONTINUOUS
  0
POLYLINE
  5
28
  8
0
  6
CONTINUOUS
 66
     1
 10
0.0
 20
0.0
 30
0.0
  0
VERTEX
  5
2AD
  8
0
  6
CONTINUOUS
 10
9.3366728064828841
 20
-38.988589428245149
 30
0.0
  0
VERTEX
  5
2AE
  8
0
  6
CONTINUOUS
 10
10.170726157650851
 20
-38.988466819544207
 30
0.0
  0
VERTEX
  5
2AF
  8
0
  6
CONTINUOUS
 10
11.78710731427897
 20
-38.98852812389471
 30
0.0
  0
VERTEX
  5
2B0
  8
0
  6
CONTINUOUS
 10
14.326601717218191
 20
-38.98852812389471
 30
0.0
  0
VERTEX
  5
2B1
  8
0
  6
CONTINUOUS
 10
17.654217186736851
 20
-38.988589428245149
 30
0.0
  0
VERTEX
  5
2B2
  8
0
  6
CONTINUOUS
 10
21.486198873647609
 20
-38.988589428245149
 30
0.0
  0
VERTEX
  5
2B3
  8
0
  6
CONTINUOUS
 10
25.838102756881849
 20
-38.988650732595573
 30
0.0
  0
VERTEX
  5
2B4
  8
0
  6
CONTINUOUS
 10
30.82680558060779
 20
-38.988650732595573
 30
0.0
  0
VERTEX
  5
2B5
  8
0
  6
CONTINUOUS
 10
35.887786233536112
 20
-38.988650732595573
 30
0.0
  0
VERTEX
  5
2B6
  8
0
  6
CONTINUOUS
 10
40.979311779085371
 20
-38.988712036946069
 30
0.0
  0
VERTEX
  5
2B7
  8
0
  6
CONTINUOUS
 10
45.91822014414327
 20
-38.988712036946069
 30
0.0
  0
VERTEX
  5
2B8
  8
0
  6
CONTINUOUS
 10
50.555557083158931
 20
-38.988712036946069
 30
0.0
  0
VERTEX
  5
2B9
  8
0
  6
CONTINUOUS
 10
54.984382600143519
 20
-38.988712036946069
 30
0.0
  0
VERTEX
  5
2BA
  8
0
  6
CONTINUOUS
 10
118.92094263863839
 20
-38.988712036946069
 30
0.0
  0
VERTEX
  5
2BB
  8
0
  6
CONTINUOUS
 10
122.5417155120975
 20
-38.988712036946069
 30
0.0
  0
VERTEX
  5
2BC
  8
0
  6
CONTINUOUS
 10
124.9951922482856
 20
-38.988712036946069
 30
0.0
  0
VERTEX
  5
2BD
  8
0
  6
CONTINUOUS
 10
126.47886481223701
 20
-38.988712036946069
 30
0.0
  0
VERTEX
  5
2BE
  8
0
  6
CONTINUOUS
 10
126.9861736384516
 20
-38.988650732595573
 30
0.0
  0
SEQEND
  5
2BF
  8
0
  6
CONTINUOUS
  0
POLYLINE
  5
2B
  8
0
  6
CONTINUOUS
 66
     1
 10
0.0
 20
0.0
 30
0.0
  0
VERTEX
  5
2C0
  8
0
  6
CONTINUOUS
 10
60.334827069896569
 20
-2.9467196138467062
 30
0.0
  0
VERTEX
  5
2C1
  8
0
  6
CONTINUOUS
 10
60.314627286417178
 20
-3.1069078816209639
 30
0.0
  0
VERTEX
  5
2C2
  8
0
  6
CONTINUOUS
 10
60.260679458004887
 20
-3.5446209439661072
 30
0.0
  0
VERTEX
  5
2C3
  8
0
  6
CONTINUOUS
 10
60.186608476551307
 20
-4.1425835784360787
 30
0.0
  0
VERTEX
  5
2C4
  8
0
  6
CONTINUOUS
 10
57.466365859299479
 20
-18.47866723984896
 30
0.0
  0
VERTEX
  5
2C5
  8
0
  6
CONTINUOUS
 10
57.347527375916258
 20
-19.298367709963461
 30
0.0
  0
VERTEX
  5
2C6
  8
0
  6
CONTINUOUS
 10
57.300660199983071
 20
-19.634683376633731
 30
0.0
  0
VERTEX
  5
2C7
  8
0
  6
CONTINUOUS
 10
57.219094761684708
 20
-20.232584706753201
 30
0.0
  0
VERTEX
  5
2C8
  8
0
  6
CONTINUOUS
 10
57.135950736361792
 20
-20.830547341223038
 30
0.0
  0
VERTEX
  5
2C9
  8
0
  6
CONTINUOUS
 10
54.984382600143519
 20
-38.988712036946069
 30
0.0
  0
VERTEX
  5
2CA
  8
0
  6
CONTINUOUS
 10
54.532339645876313
 20
-41.156066043409972
 30
0.0
  0
VERTEX
  5
2CB
  8
0
  6
CONTINUOUS
 10
53.471912317559529
 20
-42.679111326449799
 30
0.0
  0
VERTEX
  5
2CC
  8
0
  6
CONTINUOUS
 10
52.009512363220708
 20
-43.25463656864823
 30
0.0
  0
SEQEND
  5
2CD
  8
0
  6
CONTINUOUS
  0
POLYLINE
  5
2C
  8
0
  6
CONTINUOUS
 66
     1
 10
0.0
 20
0.0
 30
0.0
  0
VERTEX
  5
2CE
  8
0
  6
CONTINUOUS
 10
54.458437251386513
 20
0.042970949801869
 30
0.0
  0
VERTEX
  5
2CF
  8
0
  6
CONTINUOUS
 10
54.832148571842581
 20
-0.1759468857212028
 30
0.0
  0
VERTEX
  5
2D0
  8
0
  6
CONTINUOUS
 10
54.986942056775582
 20
-0.7044516911103103
 30
0.0
  0
VERTEX
  5
2D1
  8
0
  6
CONTINUOUS
 10
54.986942056775582
 20
-2.9467196138467062
 30
0.0
  0
SEQEND
  5
2D2
  8
0
  6
CONTINUOUS
  0
DIMENSION
  5
5E
  8
COTATION-JACOBDELAFON
  2
*D1
 10
-13.937420945010549
 20
0.0429709498018739
 30
0.0
 11
-16.370163100535791
 21
-21.60583280942318
 31
0.0
 70
     0
 13
13.78256392202916
 23
-43.25463656864823
 33
0.0
 14
0.7044531952740208
 24
0.0429709498018698
 34
0.0
 50
270.0
1001
ACAD
1000
DSTYLE
1002
{
1070
   271
1070
     2
1002
}
  0
DIMENSION
  5
5F
  8
COTATION-JACOBDELAFON
  2
*D2
 10
144.95702289131799
 20
6.617014477771848
 30
0.0
 11
72.45702672283997
 21
9.0487334409369211
 31
0.0
 70
     0
 13
-0.0429694456381213
 23
-0.7044516911103101
 33
0.0
 14
144.95702289131799
 24
-0.704451691110311
 34
0.0
 50
180.0
1001
ACAD
1000
DSTYLE
1002
{
1070
   271
1070
     0
1002
}
  0
INSERT
  5
FB
 67
     1
  8
0
  6
CONTINUOUS
  2
ADCADD_ZZ
 10
0.0
 20
0.0
 30
0.0
1001
ADCADD_ZZ
1070
   205
1070
    14
1070
   209
1070
     1
1070
   231
1070
     0
1070
   235
1070
     0
1070
   236
1070
     4
1070
   237
1070
     2
1070
   238
1070
     4
1070
   239
1070
     2
1070
   240
1070
     0
1070
   241
1070
  4096
1070
   242
1070
     2
1070
   244
1070
     0
1070
   245
1070
     1
1070
   303
1040
0.1
1070
   304
1040
4.0
1070
   305
1040
1.0
1070
   306
1040
1.0
1070
   337
1040
0.0
1070
   338
1040
0.3048
1070
   339
1040
0.0625
1070
   340
1040
96.0
1070
   341
1040
4.0
1070
   342
1040
1.0
1070
   530
1010
0.0
1020
0.0
1030
0.0
1070
   531
1010
0.0
1020
0.0
1030
0.0
1070
   107
1000

1070
   108
1000
Architectural Desktop
1070
   135
1000
L120
1070
   136
1000
'
1070
   137
1000
m
1001
SDSK_PMN
1070
   100
1000
ACADARCH
1070
   300
1040
2453076.5790841081
  0
ENDSEC
  0
EOF
