  0
SECTION
  2
HEADER
  9
$ACADVER
  1
AC1009
  9
$INSBASE
 10
0.0
 20
0.0
 30
0.0
  9
$EXTMIN
 10
-16.304482721653589
 20
-11.60534918709517
 30
0.0
  9
$EXTMAX
 10
135.89999999999989
 20
135.89999999999989
 30
0.0
  9
$LIMMIN
 10
0.0
 20
0.0
  9
$LIMMAX
 10
12.0
 20
9.0
  9
$ORTHOMODE
 70
     1
  9
$REGENMODE
 70
     1
  9
$FILLMODE
 70
     1
  9
$QTEXTMODE
 70
     0
  9
$MIRRTEXT
 70
     1
  9
$DRAGMODE
 70
     2
  9
$LTSCALE
 40
1.0
  9
$OSMODE
 70
     1
  9
$ATTMODE
 70
     1
  9
$TEXTSIZE
 40
0.2
  9
$TRACEWID
 40
0.05
  9
$TEXTSTYLE
  7
STANDARD
  9
$CLAYER
  8
0
  9
$CELTYPE
  6
CONTINUOUS
  9
$CECOLOR
 62
   256
  9
$DIMSCALE
 40
96.0
  9
$DIMASZ
 40
1.8
  9
$DIMEXO
 40
0.625
  9
$DIMDLI
 40
3.7999999999999989
  9
$DIMRND
 40
0.0
  9
$DIMDLE
 40
0.0
  9
$DIMEXE
 40
1.8
  9
$DIMTP
 40
0.0
  9
$DIMTM
 40
0.0
  9
$DIMTXT
 40
3.0
  9
$DIMCEN
 40
0.9
  9
$DIMTSZ
 40
0.0
  9
$DIMTOL
 70
     0
  9
$DIMLIM
 70
     0
  9
$DIMTIH
 70
     0
  9
$DIMTOH
 70
     0
  9
$DIMSE1
 70
     0
  9
$DIMSE2
 70
     0
  9
$DIMTAD
 70
     1
  9
$DIMZIN
 70
    12
  9
$DIMBLK
  1
OBLIQUE
  9
$DIMASO
 70
     1
  9
$DIMSHO
 70
     1
  9
$DIMPOST
  1

  9
$DIMAPOST
  1

  9
$DIMALT
 70
     0
  9
$DIMALTD
 70
     2
  9
$DIMALTF
 40
25.399999999999999
  9
$DIMLFAC
 40
1.0
  9
$DIMTOFL
 70
     0
  9
$DIMTVP
 40
0.0
  9
$DIMTIX
 70
     0
  9
$DIMSOXD
 70
     0
  9
$DIMSAH
 70
     0
  9
$DIMBLK1
  1

  9
$DIMBLK2
  1

  9
$DIMSTYLE
  2
COTATION-JACOB-DELAFON
  9
$DIMCLRD
 70
     0
  9
$DIMCLRE
 70
     0
  9
$DIMCLRT
 70
     0
  9
$DIMTFAC
 40
1.0
  9
$DIMGAP
 40
0.9
  9
$LUNITS
 70
     2
  9
$LUPREC
 70
     4
  9
$SKETCHINC
 40
0.1
  9
$FILLETRAD
 40
0.0
  9
$AUNITS
 70
     0
  9
$AUPREC
 70
     2
  9
$MENU
  1
.
  9
$ELEVATION
 40
0.0
  9
$PELEVATION
 40
0.0
  9
$THICKNESS
 40
0.0
  9
$LIMCHECK
 70
     0
  9
$BLIPMODE
 70
     0
  9
$CHAMFERA
 40
0.0
  9
$CHAMFERB
 40
0.0
  9
$SKPOLY
 70
     0
  9
$TDCREATE
 40
2453040.4524793061
  9
$TDUPDATE
 40
2453076.5797576969
  9
$TDINDWG
 40
0.0661891088
  9
$TDUSRTIMER
 40
0.0661891088
  9
$USRTIMER
 70
     1
  9
$ANGBASE
 50
0.0
  9
$ANGDIR
 70
     0
  9
$PDMODE
 70
     0
  9
$PDSIZE
 40
0.0
  9
$PLINEWID
 40
0.0
  9
$COORDS
 70
     1
  9
$SPLFRAME
 70
     0
  9
$SPLINETYPE
 70
     6
  9
$SPLINESEGS
 70
     8
  9
$ATTDIA
 70
     1
  9
$ATTREQ
 70
     1
  9
$HANDLING
 70
 22529
  9
$HANDSEED
  5
3A4
  9
$SURFTAB1
 70
     6
  9
$SURFTAB2
 70
     6
  9
$SURFTYPE
 70
     6
  9
$SURFU
 70
     6
  9
$SURFV
 70
     6
  9
$UCSNAME
  2

  9
$UCSORG
 10
0.0
 20
0.0
 30
0.0
  9
$UCSXDIR
 10
1.0
 20
0.0
 30
0.0
  9
$UCSYDIR
 10
0.0
 20
1.0
 30
0.0
  9
$PUCSNAME
  2

  9
$PUCSORG
 10
0.0
 20
0.0
 30
0.0
  9
$PUCSXDIR
 10
1.0
 20
0.0
 30
0.0
  9
$PUCSYDIR
 10
0.0
 20
1.0
 30
0.0
  9
$USERI1
 70
     0
  9
$USERI2
 70
     0
  9
$USERI3
 70
     0
  9
$USERI4
 70
     0
  9
$USERI5
 70
     0
  9
$USERR1
 40
0.0
  9
$USERR2
 40
0.0
  9
$USERR3
 40
0.0
  9
$USERR4
 40
0.0
  9
$USERR5
 40
0.0
  9
$WORLDVIEW
 70
     1
  9
$SHADEDGE
 70
     3
  9
$SHADEDIF
 70
    70
  9
$TILEMODE
 70
     1
  9
$MAXACTVP
 70
    64
  9
$PLIMCHECK
 70
     0
  9
$PEXTMIN
 10
-0.8187279627505859
 20
-0.8221314904020644
 30
0.0
  9
$PEXTMAX
 10
1043.155851236734
 20
316.7296924349256
 30
0.0
  9
$PLIMMIN
 10
-0.1979161059762549
 20
-0.2679166643638311
  9
$PLIMMAX
 10
11.493750144177531
 20
7.9987497780266699
  9
$UNITMODE
 70
     0
  9
$VISRETAIN
 70
     1
  9
$PLINEGEN
 70
     0
  9
$PSLTSCALE
 70
     1
  0
ENDSEC
  0
SECTION
  2
TABLES
  0
TABLE
  2
VPORT
 70
     2
  0
VPORT
  2
*ACTIVE
 70
     0
 10
0.0
 20
0.0
 11
1.0
 21
1.0
 12
67.285896236594454
 22
62.147325749890101
 13
0.0
 23
0.0
 14
1.0
 24
1.0
 15
0.0
 25
0.0
 16
0.0
 26
0.0
 36
1.0
 17
0.0
 27
0.0
 37
0.0
 40
149.27438857445239
 41
1.928853754940711
 42
50.0
 43
0.0
 44
0.0
 50
0.0
 51
0.0
 71
     0
 72
   100
 73
     1
 74
     1
 75
     0
 76
     0
 77
     0
 78
     0
  0
ENDTAB
  0
TABLE
  2
LTYPE
 70
     1
  0
LTYPE
  2
CONTINUOUS
 70
     0
  3
Solid line
 72
    65
 73
     0
 40
0.0
  0
ENDTAB
  0
TABLE
  2
LAYER
 70
     3
  0
LAYER
  2
0
 70
     0
 62
     7
  6
CONTINUOUS
  0
LAYER
  2
DEFPOINTS
 70
     0
 62
     7
  6
CONTINUOUS
  0
LAYER
  2
COTATION-JACOBDELAFON
 70
     0
 62
     8
  6
CONTINUOUS
  0
ENDTAB
  0
TABLE
  2
STYLE
 70
     2
  0
STYLE
  2
STANDARD
 70
     0
 40
0.0
 41
1.0
 50
0.0
 71
     0
 42
0.2
  3
txt
  4

  0
STYLE
  2
JACOB-DELAFON
 70
     0
 40
0.0
 41
1.0
 50
0.0
 71
     0
 42
2.5
  3
txt
  4

  0
ENDTAB
  0
TABLE
  2
VIEW
 70
     0
  0
ENDTAB
  0
TABLE
  2
UCS
 70
     0
  0
ENDTAB
  0
TABLE
  2
APPID
 70
     5
  0
APPID
  2
ACAD
 70
     0
  0
APPID
  2
ADCADD_ZZ
 70
     0
  0
APPID
  2
SDSK_PMN
 70
     0
  0
APPID
  2
AEC_DWGVARSSETUP_DATA
 70
     0
  0
APPID
  2
AEC_DISPREPSET_DATA
 70
     0
  0
ENDTAB
  0
TABLE
  2
DIMSTYLE
 70
     2
  0
DIMSTYLE
  2
STANDARD
 70
     0
  3

  4

  5

  6

  7

 40
1.0
 41
0.18
 42
0.0625
 43
0.38
 44
0.18
 45
0.0
 46
0.0
 47
0.0
 48
0.0
140
0.18
141
0.09
142
0.0
143
25.399999999999999
144
1.0
145
0.0
146
1.0
147
0.09
 71
     0
 72
     0
 73
     1
 74
     1
 75
     0
 76
     0
 77
     0
 78
     0
170
     0
171
     2
172
     0
173
     0
174
     0
175
     0
176
     0
177
     0
178
     0
  0
DIMSTYLE
  2
COTATION-JACOB-DELAFON
 70
     0
  3

  4

  5
OBLIQUE
  6

  7

 40
1.0
 41
1.8
 42
0.625
 43
3.7999999999999989
 44
1.8
 45
0.0
 46
0.0
 47
0.0
 48
0.0
140
3.0
141
0.9
142
0.0
143
25.399999999999999
144
1.0
145
0.0
146
1.0
147
0.9
 71
     0
 72
     0
 73
     0
 74
     0
 75
     0
 76
     0
 77
     1
 78
    12
170
     0
171
     2
172
     0
173
     0
174
     0
175
     0
176
     0
177
     0
178
     0
  0
ENDTAB
  0
ENDSEC
  0
SECTION
  2
BLOCKS
  0
BLOCK
  8
0
  2
$MODEL_SPACE
 70
     0
 10
0.0
 20
0.0
 30
0.0
  3
$MODEL_SPACE
  1

  0
ENDBLK
  5
9
  8
0
  0
BLOCK
 67
     1
  8
0
  2
$PAPER_SPACE
 70
     0
 10
0.0
 20
0.0
 30
0.0
  3
$PAPER_SPACE
  1

  0
ENDBLK
  5
E
 67
     1
  8
0
  0
BLOCK
  8
0
  2
*D0
 70
     1
 10
0.0
 20
0.0
 30
0.0
  3
*D0
  1

  0
LINE
  5
E8
  8
COTATION-JACOBDELAFON
 62
     0
 10
135.0
 20
0.2249999999999777
 30
0.0
 11
135.0
 21
-11.60534918709517
 31
0.0
  0
LINE
  5
E9
  8
COTATION-JACOBDELAFON
 62
     0
 10
0.0
 20
0.2249999999999941
 30
0.0
 11
-0.0000000000000008
 21
-11.60534918709517
 31
0.0
  0
LINE
  5
EA
  8
COTATION-JACOBDELAFON
 62
     0
 10
135.0
 20
-9.8053491870951746
 30
0.0
 11
-0.0000000000000007
 21
-9.8053491870951746
 31
0.0
  0
INSERT
  5
EB
  8
COTATION-JACOBDELAFON
 62
     0
  2
_OBLIQUE
 10
135.0
 20
-9.8053491870951746
 30
0.0
 41
1.8
 42
1.8
 43
1.8
  0
INSERT
  5
EC
  8
COTATION-JACOBDELAFON
 62
     0
  2
_OBLIQUE
 10
-0.0000000000000007
 20
-9.8053491870951746
 30
0.0
 41
1.8
 42
1.8
 43
1.8
 50
180.0
  0
TEXT
  5
ED
  8
0
  6
CONTINUOUS
 62
     0
 10
63.859481582537519
 20
-8.8460040302056804
 30
0.0
 40
3.0
  1
135
  7
JACOB-DELAFON
  0
POINT
  5
EE
  8
DEFPOINTS
 62
     0
 10
135.0
 20
0.8499999999999776
 30
0.0
  0
POINT
  5
EF
  8
DEFPOINTS
 62
     0
 10
0.0
 20
0.8499999999999941
 30
0.0
  0
POINT
  5
F0
  8
DEFPOINTS
 62
     0
 10
-0.0000000000000007
 20
-9.8053491870951746
 30
0.0
  0
ENDBLK
  5
43
  8
0
  0
BLOCK
  8
0
  2
*D1
 70
     1
 10
0.0
 20
0.0
 30
0.0
  3
*D1
  1

  0
LINE
  5
F1
  8
COTATION-JACOBDELAFON
 62
     0
 10
0.2249999999999256
 20
135.0
 30
0.0
 11
-13.35114029327702
 21
135.0
 31
0.0
  0
LINE
  5
F2
  8
COTATION-JACOBDELAFON
 62
     0
 10
0.224999999999909
 20
0.0
 30
0.0
 11
-13.35114029327705
 21
0.0000000000000038
 31
0.0
  0
LINE
  5
F3
  8
COTATION-JACOBDELAFON
 62
     0
 10
-11.551140293277021
 20
135.0
 30
0.0
 11
-11.551140293277051
 21
0.0000000000000033
 31
0.0
  0
INSERT
  5
F4
  8
COTATION-JACOBDELAFON
 62
     0
  2
_OBLIQUE
 10
-11.551140293277021
 20
135.0
 30
0.0
 41
1.8
 42
1.8
 43
1.8
 50
90.0
  0
INSERT
  5
F5
  8
COTATION-JACOBDELAFON
 62
     0
  2
_OBLIQUE
 10
-11.551140293277051
 20
0.0000000000000033
 30
0.0
 41
1.8
 42
1.8
 43
1.8
 50
270.0
  0
TEXT
  5
F6
  8
0
  6
CONTINUOUS
 62
     0
 10
-12.51048545016654
 20
63.859481582537519
 30
0.0
 40
3.0
  1
135
 50
90.0
  7
JACOB-DELAFON
  0
POINT
  5
F7
  8
DEFPOINTS
 62
     0
 10
0.8499999999999255
 20
135.0
 30
0.0
  0
POINT
  5
F8
  8
DEFPOINTS
 62
     0
 10
0.8499999999999091
 20
-0.0000000000000002
 30
0.0
  0
POINT
  5
F9
  8
DEFPOINTS
 62
     0
 10
-11.551140293277051
 20
0.0000000000000033
 30
0.0
  0
ENDBLK
  5
51
  8
0
  0
BLOCK
  8
0
  2
_OBLIQUE
 70
     0
 10
0.0
 20
0.0
 30
0.0
  3
_OBLIQUE
  1

  0
LINE
  5
53
  8
0
  6
BYBLOCK
 62
     0
 10
-0.5
 20
-0.5
 30
0.0
 11
0.5
 21
0.5
 31
0.0
  0
ENDBLK
  5
55
  8
0
  0
BLOCK
  8
0
  2
ADCADD_ZZ
 70
     0
 10
0.0
 20
0.0
 30
0.0
  3
ADCADD_ZZ
  1

  0
ENDBLK
  5
115
  8
0
  0
ENDSEC
  0
SECTION
  2
ENTITIES
  0
POLYLINE
  5
24
  8
0
  6
CONTINUOUS
 66
     1
 10
0.0
 20
0.0
 30
0.0
 70
     1
  0
VERTEX
  5
26B
  8
0
  6
CONTINUOUS
 10
114.9833000000001
 20
63.635899999999978
 30
0.0
  0
VERTEX
  5
26C
  8
0
  6
CONTINUOUS
 10
121.0637999999999
 20
58.496799999999958
 30
0.0
  0
VERTEX
  5
26D
  8
0
  6
CONTINUOUS
 10
125.9498
 20
52.303999999999931
 30
0.0
  0
VERTEX
  5
26E
  8
0
  6
CONTINUOUS
 10
128.39889999999991
 20
47.28799999999994
 30
0.0
  0
VERTEX
  5
26F
  8
0
  6
CONTINUOUS
 10
129.6560999999999
 20
41.853099999999998
 30
0.0
  0
VERTEX
  5
270
  8
0
  6
CONTINUOUS
 10
129.65409999999989
 20
36.270899999999969
 30
0.0
  0
VERTEX
  5
271
  8
0
  6
CONTINUOUS
 10
128.3947
 20
30.832299999999961
 30
0.0
  0
VERTEX
  5
272
  8
0
  6
CONTINUOUS
 10
125.9471999999998
 20
25.825799999999941
 30
0.0
  0
VERTEX
  5
273
  8
0
  6
CONTINUOUS
 10
121.8660999999999
 20
20.493099999999981
 30
0.0
  0
VERTEX
  5
274
  8
0
  6
CONTINUOUS
 10
116.92399999999989
 20
15.91899999999997
 30
0.0
  0
VERTEX
  5
275
  8
0
  6
CONTINUOUS
 10
111.2885999999998
 20
12.25959999999996
 30
0.0
  0
VERTEX
  5
276
  8
0
  6
CONTINUOUS
 10
100.9841999999998
 20
7.8445999999999438
 30
0.0
  0
VERTEX
  5
277
  8
0
  6
CONTINUOUS
 10
90.061999999999898
 20
5.2766999999999662
 30
0.0
  0
VERTEX
  5
278
  8
0
  6
CONTINUOUS
 10
78.861100000000079
 20
4.6114999999999684
 30
0.0
  0
VERTEX
  5
279
  8
0
  6
CONTINUOUS
 10
67.636199999999917
 20
5.9078999999999748
 30
0.0
  0
VERTEX
  5
27A
  8
0
  6
CONTINUOUS
 10
59.069600000000037
 20
8.7043999999999286
 30
0.0
  0
VERTEX
  5
27B
  8
0
  6
CONTINUOUS
 10
50.4695999999999
 20
12.88699999999996
 30
0.0
  0
VERTEX
  5
27C
  8
0
  6
CONTINUOUS
 10
43.292400000000043
 20
18.17899999999997
 30
0.0
  0
VERTEX
  5
27D
  8
0
  6
CONTINUOUS
 10
40.564000000000071
 20
20.937999999999949
 30
0.0
  0
VERTEX
  5
27E
  8
0
  6
CONTINUOUS
 10
36.300699999999999
 20
26.51239999999995
 30
0.0
  0
VERTEX
  5
27F
  8
0
  6
CONTINUOUS
 10
34.272500000000043
 20
30.51879999999997
 30
0.0
  0
VERTEX
  5
280
  8
0
  6
CONTINUOUS
 10
33.061199999999872
 20
34.769199999999941
 30
0.0
  0
VERTEX
  5
281
  8
0
  6
CONTINUOUS
 10
32.67489999999998
 20
39.176399999999987
 30
0.0
  0
VERTEX
  5
282
  8
0
  6
CONTINUOUS
 10
32.809899999999971
 20
41.529499999999949
 30
0.0
  0
VERTEX
  5
283
  8
0
  6
CONTINUOUS
 10
32.746100000000077
 20
48.501499999999993
 30
0.0
  0
VERTEX
  5
284
  8
0
  6
CONTINUOUS
 10
31.883399999999941
 20
53.387899999999959
 30
0.0
  0
VERTEX
  5
285
  8
0
  6
CONTINUOUS
 10
29.891699999999901
 20
58.441399999999952
 30
0.0
  0
VERTEX
  5
286
  8
0
  6
CONTINUOUS
 10
28.376299999999901
 20
61.331899999999962
 30
0.0
  0
VERTEX
  5
287
  8
0
  6
CONTINUOUS
 10
26.27800000000002
 20
64.383099999999985
 30
0.0
  0
VERTEX
  5
288
  8
0
  6
CONTINUOUS
 10
24.23250000000008
 20
66.774799999999999
 30
0.0
  0
VERTEX
  5
289
  8
0
  6
CONTINUOUS
 10
22.774099999999859
 20
68.197399999999945
 30
0.0
  0
VERTEX
  5
28A
  8
0
  6
CONTINUOUS
 10
20.66069999999991
 20
70.013199999999983
 30
0.0
  0
VERTEX
  5
28B
  8
0
  6
CONTINUOUS
 10
19.42009999999982
 20
70.868799999999993
 30
0.0
  0
VERTEX
  5
28C
  8
0
  6
CONTINUOUS
 10
18.0139999999999
 20
71.700699999999955
 30
0.0
  0
VERTEX
  5
28D
  8
0
  6
CONTINUOUS
 10
16.335499999999911
 20
72.612499999999983
 30
0.0
  0
VERTEX
  5
28E
  8
0
  6
CONTINUOUS
 10
16.023199999999861
 20
72.959399999999974
 30
0.0
  0
VERTEX
  5
28F
  8
0
  6
CONTINUOUS
 10
11.388500000000031
 20
78.335199999999986
 30
0.0
  0
VERTEX
  5
290
  8
0
  6
CONTINUOUS
 10
8.1469999999999452
 20
85.209699999999998
 30
0.0
  0
VERTEX
  5
291
  8
0
  6
CONTINUOUS
 10
6.4948999999999266
 20
92.355299999999971
 30
0.0
  0
VERTEX
  5
292
  8
0
  6
CONTINUOUS
 10
6.4779999999998497
 20
99.685299999999984
 30
0.0
  0
VERTEX
  5
293
  8
0
  6
CONTINUOUS
 10
8.0962999999999425
 20
106.8355999999999
 30
0.0
  0
VERTEX
  5
294
  8
0
  6
CONTINUOUS
 10
11.27119999999992
 20
113.446
 30
0.0
  0
VERTEX
  5
295
  8
0
  6
CONTINUOUS
 10
15.90529999999991
 20
119.26299999999991
 30
0.0
  0
VERTEX
  5
296
  8
0
  6
CONTINUOUS
 10
21.999900000000039
 20
124.0936999999999
 30
0.0
  0
VERTEX
  5
297
  8
0
  6
CONTINUOUS
 10
29.202599999999858
 20
127.33319999999991
 30
0.0
  0
VERTEX
  5
298
  8
0
  6
CONTINUOUS
 10
36.220399999999941
 20
128.69929999999999
 30
0.0
  0
VERTEX
  5
299
  8
0
  6
CONTINUOUS
 10
43.386800000000001
 20
128.5036999999999
 30
0.0
  0
VERTEX
  5
29A
  8
0
  6
CONTINUOUS
 10
50.335299999999982
 20
126.75239999999989
 30
0.0
  0
VERTEX
  5
29B
  8
0
  6
CONTINUOUS
 10
53.961199999999977
 20
124.9655999999999
 30
0.0
  0
VERTEX
  5
29C
  8
0
  6
CONTINUOUS
 10
57.186199999999879
 20
122.4692999999999
 30
0.0
  0
VERTEX
  5
29D
  8
0
  6
CONTINUOUS
 10
59.838099999999947
 20
119.3553999999999
 30
0.0
  0
VERTEX
  5
29E
  8
0
  6
CONTINUOUS
 10
68.191999999999794
 20
108.07469999999989
 30
0.0
  0
VERTEX
  5
29F
  8
0
  6
CONTINUOUS
 10
75.296599999999913
 20
99.346199999999968
 30
0.0
  0
VERTEX
  5
2A0
  8
0
  6
CONTINUOUS
 10
86.952700000000064
 20
86.947799999999958
 30
0.0
  0
VERTEX
  5
2A1
  8
0
  6
CONTINUOUS
 10
100.4559999999999
 20
74.629599999999968
 30
0.0
  0
SEQEND
  5
2A2
  8
0
  6
CONTINUOUS
  0
POLYLINE
  5
25
  8
0
  6
CONTINUOUS
 66
     1
 10
0.0
 20
0.0
 30
0.0
 70
     1
  0
VERTEX
  5
2A3
  8
0
  6
CONTINUOUS
 10
97.056499999999929
 20
64.860199999999978
 30
0.0
  0
VERTEX
  5
2A4
  8
0
  6
CONTINUOUS
 10
88.178300000000064
 20
66.712199999999982
 30
0.0
  0
VERTEX
  5
2A5
  8
0
  6
CONTINUOUS
 10
79.113499999999945
 20
67.174099999999967
 30
0.0
  0
VERTEX
  5
2A6
  8
0
  6
CONTINUOUS
 10
70.093799999999888
 20
66.234699999999961
 30
0.0
  0
VERTEX
  5
2A7
  8
0
  6
CONTINUOUS
 10
61.335499999999918
 20
63.920299999999969
 30
0.0
  0
VERTEX
  5
2A8
  8
0
  6
CONTINUOUS
 10
53.020399999999889
 20
60.276399999999981
 30
0.0
  0
VERTEX
  5
2A9
  8
0
  6
CONTINUOUS
 10
48.278299999999952
 20
57.196599999999947
 30
0.0
  0
VERTEX
  5
2AA
  8
0
  6
CONTINUOUS
 10
44.138899999999929
 20
53.364699999999992
 30
0.0
  0
VERTEX
  5
2AB
  8
0
  6
CONTINUOUS
 10
40.703099999999949
 20
48.873999999999953
 30
0.0
  0
VERTEX
  5
2AC
  8
0
  6
CONTINUOUS
 10
37.700599999999902
 20
43.578599999999959
 30
0.0
  0
VERTEX
  5
2AD
  8
0
  6
CONTINUOUS
 10
38.138699999999972
 20
48.473699999999972
 30
0.0
  0
VERTEX
  5
2AE
  8
0
  6
CONTINUOUS
 10
37.093200000000031
 20
54.426599999999937
 30
0.0
  0
VERTEX
  5
2AF
  8
0
  6
CONTINUOUS
 10
34.581400000000031
 20
60.810999999999972
 30
0.0
  0
VERTEX
  5
2B0
  8
0
  6
CONTINUOUS
 10
32.61629999999991
 20
64.563499999999976
 30
0.0
  0
VERTEX
  5
2B1
  8
0
  6
CONTINUOUS
 10
29.973299999999892
 20
68.073799999999977
 30
0.0
  0
VERTEX
  5
2B2
  8
0
  6
CONTINUOUS
 10
28.34249999999998
 20
70.067299999999989
 30
0.0
  0
VERTEX
  5
2B3
  8
0
  6
CONTINUOUS
 10
27.564399999999981
 20
70.961799999999982
 30
0.0
  0
VERTEX
  5
2B4
  8
0
  6
CONTINUOUS
 10
26.316100000000009
 20
72.353599999999972
 30
0.0
  0
VERTEX
  5
2B5
  8
0
  6
CONTINUOUS
 10
25.11259999999994
 20
73.72369999999998
 30
0.0
  0
VERTEX
  5
2B6
  8
0
  6
CONTINUOUS
 10
23.925799999999992
 20
75.10329999999999
 30
0.0
  0
VERTEX
  5
2B7
  8
0
  6
CONTINUOUS
 10
22.756200000000039
 20
76.49199999999999
 30
0.0
  0
VERTEX
  5
2B8
  8
0
  6
CONTINUOUS
 10
22.20920000000002
 20
77.147399999999976
 30
0.0
  0
VERTEX
  5
2B9
  8
0
  6
CONTINUOUS
 10
20.962399999999899
 20
79.722599999999971
 30
0.0
  0
VERTEX
  5
2BA
  8
0
  6
CONTINUOUS
 10
20.344399999999961
 20
83.105999999999966
 30
0.0
  0
VERTEX
  5
2BB
  8
0
  6
CONTINUOUS
 10
20.69619999999987
 20
86.946899999999971
 30
0.0
  0
VERTEX
  5
2BC
  8
0
  6
CONTINUOUS
 10
22.025300000000019
 20
91.193299999999965
 30
0.0
  0
VERTEX
  5
2BD
  8
0
  6
CONTINUOUS
 10
24.194800000000001
 20
95.7089
 30
0.0
  0
VERTEX
  5
2BE
  8
0
  6
CONTINUOUS
 10
27.127899999999961
 20
100.2358999999999
 30
0.0
  0
VERTEX
  5
2BF
  8
0
  6
CONTINUOUS
 10
30.824099999999831
 20
104.51009999999999
 30
0.0
  0
VERTEX
  5
2C0
  8
0
  6
CONTINUOUS
 10
34.823399999999999
 20
107.88809999999989
 30
0.0
  0
VERTEX
  5
2C1
  8
0
  6
CONTINUOUS
 10
39.257799999999868
 20
110.5068999999999
 30
0.0
  0
VERTEX
  5
2C2
  8
0
  6
CONTINUOUS
 10
43.272099999999917
 20
112.1464999999999
 30
0.0
  0
VERTEX
  5
2C3
  8
0
  6
CONTINUOUS
 10
47.083699999999922
 20
113.0411999999999
 30
0.0
  0
VERTEX
  5
2C4
  8
0
  6
CONTINUOUS
 10
50.564399999999992
 20
113.0721999999999
 30
0.0
  0
VERTEX
  5
2C5
  8
0
  6
CONTINUOUS
 10
53.06649999999992
 20
112.3776999999999
 30
0.0
  0
VERTEX
  5
2C6
  8
0
  6
CONTINUOUS
 10
55.629699999999971
 20
110.4105999999999
 30
0.0
  0
VERTEX
  5
2C7
  8
0
  6
CONTINUOUS
 10
59.535400000000003
 20
105.9702999999999
 30
0.0
  0
VERTEX
  5
2C8
  8
0
  6
CONTINUOUS
 10
65.891300000000015
 20
97.825099999999978
 30
0.0
  0
VERTEX
  5
2C9
  8
0
  6
CONTINUOUS
 10
71.595499999999916
 20
90.816899999999961
 30
0.0
  0
VERTEX
  5
2CA
  8
0
  6
CONTINUOUS
 10
80.915700000000015
 20
80.901299999999978
 30
0.0
  0
SEQEND
  5
2CB
  8
0
  6
CONTINUOUS
  0
POLYLINE
  5
26
  8
0
  6
CONTINUOUS
 66
     1
 10
0.0
 20
0.0
 30
0.0
 70
     1
  0
VERTEX
  5
2CC
  8
0
  6
CONTINUOUS
 10
113.4683
 20
60.94639999999994
 30
0.0
  0
VERTEX
  5
2CD
  8
0
  6
CONTINUOUS
 10
119.7372
 20
57.05199999999995
 30
0.0
  0
VERTEX
  5
2CE
  8
0
  6
CONTINUOUS
 10
124.33019999999981
 20
52.009499999999932
 30
0.0
  0
VERTEX
  5
2CF
  8
0
  6
CONTINUOUS
 10
126.3892
 20
47.532299999999942
 30
0.0
  0
VERTEX
  5
2D0
  8
0
  6
CONTINUOUS
 10
127.45999999999999
 20
41.686799999999963
 30
0.0
  0
VERTEX
  5
2D1
  8
0
  6
CONTINUOUS
 10
126.9240999999999
 20
36.69699999999996
 30
0.0
  0
VERTEX
  5
2D2
  8
0
  6
CONTINUOUS
 10
125.28440000000001
 20
31.833899999999929
 30
0.0
  0
VERTEX
  5
2D3
  8
0
  6
CONTINUOUS
 10
122.6322
 20
27.330499999999979
 30
0.0
  0
VERTEX
  5
2D4
  8
0
  6
CONTINUOUS
 10
118.4901999999999
 20
22.397899999999922
 30
0.0
  0
VERTEX
  5
2D5
  8
0
  6
CONTINUOUS
 10
113.6232999999999
 20
18.111099999999951
 30
0.0
  0
VERTEX
  5
2D6
  8
0
  6
CONTINUOUS
 10
108.2058999999999
 20
14.637099999999959
 30
0.0
  0
VERTEX
  5
2D7
  8
0
  6
CONTINUOUS
 10
98.357500000000073
 20
10.22479999999994
 30
0.0
  0
VERTEX
  5
2D8
  8
0
  6
CONTINUOUS
 10
88.068599999999833
 20
7.4796999999999398
 30
0.0
  0
VERTEX
  5
2D9
  8
0
  6
CONTINUOUS
 10
77.652799999999843
 20
6.505499999999973
 30
0.0
  0
VERTEX
  5
2DA
  8
0
  6
CONTINUOUS
 10
67.370400000000018
 20
7.3558999999999539
 30
0.0
  0
VERTEX
  5
2DB
  8
0
  6
CONTINUOUS
 10
59.533999999999871
 20
9.8457999999999881
 30
0.0
  0
VERTEX
  5
2DC
  8
0
  6
CONTINUOUS
 10
51.232199999999921
 20
14.09849999999993
 30
0.0
  0
VERTEX
  5
2DD
  8
0
  6
CONTINUOUS
 10
44.51689999999985
 20
19.403999999999979
 30
0.0
  0
VERTEX
  5
2DE
  8
0
  6
CONTINUOUS
 10
41.59539999999992
 20
22.32929999999995
 30
0.0
  0
VERTEX
  5
2DF
  8
0
  6
CONTINUOUS
 10
37.525100000000059
 20
27.737399999999969
 30
0.0
  0
VERTEX
  5
2E0
  8
0
  6
CONTINUOUS
 10
35.314200000000028
 20
31.446199999999969
 30
0.0
  0
VERTEX
  5
2E1
  8
0
  6
CONTINUOUS
 10
34.061400000000049
 20
35.490699999999961
 30
0.0
  0
VERTEX
  5
2E2
  8
0
  6
CONTINUOUS
 10
33.641100000000051
 20
39.662199999999977
 30
0.0
  0
VERTEX
  5
2E3
  8
0
  6
CONTINUOUS
 10
33.758299999999963
 20
41.96949999999994
 30
0.0
  0
VERTEX
  5
2E4
  8
0
  6
CONTINUOUS
 10
33.877899999999961
 20
48.494599999999963
 30
0.0
  0
VERTEX
  5
2E5
  8
0
  6
CONTINUOUS
 10
32.984099999999899
 20
53.521399999999957
 30
0.0
  0
VERTEX
  5
2E6
  8
0
  6
CONTINUOUS
 10
30.866199999999939
 20
58.886799999999987
 30
0.0
  0
VERTEX
  5
2E7
  8
0
  6
CONTINUOUS
 10
29.231800000000021
 20
62.039699999999982
 30
0.0
  0
VERTEX
  5
2E8
  8
0
  6
CONTINUOUS
 10
27.07850000000008
 20
65.181499999999971
 30
0.0
  0
VERTEX
  5
2E9
  8
0
  6
CONTINUOUS
 10
25.184899999999981
 20
67.511200000000002
 30
0.0
  0
VERTEX
  5
2EA
  8
0
  6
CONTINUOUS
 10
23.985500000000009
 20
69.05019999999999
 30
0.0
  0
VERTEX
  5
2EB
  8
0
  6
CONTINUOUS
 10
22.300199999999911
 20
70.988799999999998
 30
0.0
  0
VERTEX
  5
2EC
  8
0
  6
CONTINUOUS
 10
21.326599999999878
 20
71.971799999999973
 30
0.0
  0
VERTEX
  5
2ED
  8
0
  6
CONTINUOUS
 10
20.273799999999952
 20
73.054799999999972
 30
0.0
  0
VERTEX
  5
2EE
  8
0
  6
CONTINUOUS
 10
19.1069
 20
74.229199999999992
 30
0.0
  0
VERTEX
  5
2EF
  8
0
  6
CONTINUOUS
 10
18.738799999999859
 20
74.6404
 30
0.0
  0
VERTEX
  5
2F0
  8
0
  6
CONTINUOUS
 10
14.944700000000021
 20
79.310299999999984
 30
0.0
  0
VERTEX
  5
2F1
  8
0
  6
CONTINUOUS
 10
13.08289999999989
 20
84.203399999999988
 30
0.0
  0
VERTEX
  5
2F2
  8
0
  6
CONTINUOUS
 10
13.20709999999986
 20
88.684899999999985
 30
0.0
  0
VERTEX
  5
2F3
  8
0
  6
CONTINUOUS
 10
14.609300000000079
 20
94.352899999999977
 30
0.0
  0
VERTEX
  5
2F4
  8
0
  6
CONTINUOUS
 10
16.87699999999996
 20
99.982999999999976
 30
0.0
  0
VERTEX
  5
2F5
  8
0
  6
CONTINUOUS
 10
20.47399999999994
 20
105.4565999999999
 30
0.0
  0
VERTEX
  5
2F6
  8
0
  6
CONTINUOUS
 10
24.676999999999921
 20
110.1576
 30
0.0
  0
VERTEX
  5
2F7
  8
0
  6
CONTINUOUS
 10
29.325900000000061
 20
114.12899999999991
 30
0.0
  0
VERTEX
  5
2F8
  8
0
  6
CONTINUOUS
 10
35.240299999999941
 20
116.7272999999999
 30
0.0
  0
VERTEX
  5
2F9
  8
0
  6
CONTINUOUS
 10
41.02959999999986
 20
118.5379999999999
 30
0.0
  0
VERTEX
  5
2FA
  8
0
  6
CONTINUOUS
 10
46.07259999999998
 20
118.9441999999999
 30
0.0
  0
VERTEX
  5
2FB
  8
0
  6
CONTINUOUS
 10
50.751800000000017
 20
118.3185999999999
 30
0.0
  0
VERTEX
  5
2FC
  8
0
  6
CONTINUOUS
 10
53.448799999999899
 20
117.1872
 30
0.0
  0
VERTEX
  5
2FD
  8
0
  6
CONTINUOUS
 10
56.082300000000053
 20
114.9107999999999
 30
0.0
  0
VERTEX
  5
2FE
  8
0
  6
CONTINUOUS
 10
58.851699999999951
 20
112.1802999999999
 30
0.0
  0
VERTEX
  5
2FF
  8
0
  6
CONTINUOUS
 10
66.542300000000083
 20
102.9532999999999
 30
0.0
  0
VERTEX
  5
300
  8
0
  6
CONTINUOUS
 10
72.784499999999994
 20
95.721999999999966
 30
0.0
  0
VERTEX
  5
301
  8
0
  6
CONTINUOUS
 10
84.016499999999965
 20
84.193599999999989
 30
0.0
  0
VERTEX
  5
302
  8
0
  6
CONTINUOUS
 10
98.704199999999915
 20
70.081399999999988
 30
0.0
  0
SEQEND
  5
303
  8
0
  6
CONTINUOUS
  0
POLYLINE
  5
27
  8
0
  6
CONTINUOUS
 66
     1
 10
0.0
 20
0.0
 30
0.0
 70
     1
  0
VERTEX
  5
304
  8
0
  6
CONTINUOUS
 10
115.5561999999999
 20
64.352499999999978
 30
0.0
  0
VERTEX
  5
305
  8
0
  6
CONTINUOUS
 10
121.72319999999991
 20
59.134699999999938
 30
0.0
  0
VERTEX
  5
306
  8
0
  6
CONTINUOUS
 10
126.72619999999981
 20
52.79249999999994
 30
0.0
  0
VERTEX
  5
307
  8
0
  6
CONTINUOUS
 10
129.26319999999981
 20
47.594899999999953
 30
0.0
  0
VERTEX
  5
308
  8
0
  6
CONTINUOUS
 10
130.5652
 20
41.953999999999937
 30
0.0
  0
VERTEX
  5
309
  8
0
  6
CONTINUOUS
 10
130.5642
 20
36.16639999999996
 30
0.0
  0
VERTEX
  5
30A
  8
0
  6
CONTINUOUS
 10
129.25799999999981
 20
30.525699999999951
 30
0.0
  0
VERTEX
  5
30B
  8
0
  6
CONTINUOUS
 10
126.72669999999989
 20
25.343999999999951
 30
0.0
  0
VERTEX
  5
30C
  8
0
  6
CONTINUOUS
 10
122.5442
 20
19.876399999999968
 30
0.0
  0
VERTEX
  5
30D
  8
0
  6
CONTINUOUS
 10
117.4871999999998
 20
15.19589999999995
 30
0.0
  0
VERTEX
  5
30E
  8
0
  6
CONTINUOUS
 10
111.72019999999991
 20
11.451099999999951
 30
0.0
  0
VERTEX
  5
30F
  8
0
  6
CONTINUOUS
 10
101.2691999999999
 20
6.9804999999999646
 30
0.0
  0
VERTEX
  5
310
  8
0
  6
CONTINUOUS
 10
90.194600000000037
 20
4.3697999999999579
 30
0.0
  0
VERTEX
  5
311
  8
0
  6
CONTINUOUS
 10
78.835799999999836
 20
3.702099999999934
 30
0.0
  0
VERTEX
  5
312
  8
0
  6
CONTINUOUS
 10
67.531799999999976
 20
4.9972999999999592
 30
0.0
  0
VERTEX
  5
313
  8
0
  6
CONTINUOUS
 10
58.598500000000051
 20
7.3974999999999724
 30
0.0
  0
VERTEX
  5
314
  8
0
  6
CONTINUOUS
 10
47.647199999999877
 20
10.99719999999995
 30
0.0
  0
VERTEX
  5
315
  8
0
  6
CONTINUOUS
 10
38.462199999999932
 20
14.654799999999961
 30
0.0
  0
VERTEX
  5
316
  8
0
  6
CONTINUOUS
 10
29.501599999999819
 20
18.832299999999972
 30
0.0
  0
VERTEX
  5
317
  8
0
  6
CONTINUOUS
 10
18.416500000000038
 20
25.176599999999969
 30
0.0
  0
VERTEX
  5
318
  8
0
  6
CONTINUOUS
 10
13.836800000000039
 20
28.912499999999991
 30
0.0
  0
VERTEX
  5
319
  8
0
  6
CONTINUOUS
 10
10.19129999999995
 20
33.564199999999971
 30
0.0
  0
VERTEX
  5
31A
  8
0
  6
CONTINUOUS
 10
7.658199999999856
 20
38.904299999999978
 30
0.0
  0
VERTEX
  5
31B
  8
0
  6
CONTINUOUS
 10
6.362099999999832
 20
44.670499999999969
 30
0.0
  0
VERTEX
  5
31C
  8
0
  6
CONTINUOUS
 10
6.3662999999999164
 20
50.580599999999968
 30
0.0
  0
VERTEX
  5
31D
  8
0
  6
CONTINUOUS
 10
7.6706999999999042
 20
56.345299999999952
 30
0.0
  0
VERTEX
  5
31E
  8
0
  6
CONTINUOUS
 10
10.211099999999989
 20
61.681399999999968
 30
0.0
  0
VERTEX
  5
31F
  8
0
  6
CONTINUOUS
 10
14.63979999999993
 20
67.31159999999997
 30
0.0
  0
VERTEX
  5
320
  8
0
  6
CONTINUOUS
 10
15.17349999999988
 20
68.350299999999976
 30
0.0
  0
VERTEX
  5
321
  8
0
  6
CONTINUOUS
 10
15.49839999999995
 20
69.516699999999986
 30
0.0
  0
VERTEX
  5
322
  8
0
  6
CONTINUOUS
 10
15.636299999999901
 20
70.735199999999992
 30
0.0
  0
VERTEX
  5
323
  8
0
  6
CONTINUOUS
 10
15.49299999999994
 20
71.956299999999999
 30
0.0
  0
VERTEX
  5
324
  8
0
  6
CONTINUOUS
 10
15.32790000000001
 20
72.361899999999963
 30
0.0
  0
VERTEX
  5
325
  8
0
  6
CONTINUOUS
 10
10.619200000000101
 20
77.836399999999969
 30
0.0
  0
VERTEX
  5
326
  8
0
  6
CONTINUOUS
 10
7.2806000000000601
 20
84.909499999999966
 30
0.0
  0
VERTEX
  5
327
  8
0
  6
CONTINUOUS
 10
5.5837999999998944
 20
92.250799999999956
 30
0.0
  0
VERTEX
  5
328
  8
0
  6
CONTINUOUS
 10
5.5663999999999421
 20
99.786599999999993
 30
0.0
  0
VERTEX
  5
329
  8
0
  6
CONTINUOUS
 10
7.2301999999999813
 20
107.1377999999999
 30
0.0
  0
VERTEX
  5
32A
  8
0
  6
CONTINUOUS
 10
10.49419999999987
 20
113.93379999999991
 30
0.0
  0
VERTEX
  5
32B
  8
0
  6
CONTINUOUS
 10
15.25759999999992
 20
119.9127999999999
 30
0.0
  0
VERTEX
  5
32C
  8
0
  6
CONTINUOUS
 10
21.523199999999871
 20
124.87779999999989
 30
0.0
  0
VERTEX
  5
32D
  8
0
  6
CONTINUOUS
 10
28.924800000000019
 20
128.20779999999999
 30
0.0
  0
VERTEX
  5
32E
  8
0
  6
CONTINUOUS
 10
36.144599999999862
 20
129.6138
 30
0.0
  0
VERTEX
  5
32F
  8
0
  6
CONTINUOUS
 10
43.511899999999983
 20
129.41279999999989
 30
0.0
  0
VERTEX
  5
330
  8
0
  6
CONTINUOUS
 10
50.651599999999931
 20
127.6137999999999
 30
0.0
  0
VERTEX
  5
331
  8
0
  6
CONTINUOUS
 10
54.447299999999821
 20
125.74379999999999
 30
0.0
  0
VERTEX
  5
332
  8
0
  6
CONTINUOUS
 10
57.797299999999971
 20
123.1438
 30
0.0
  0
VERTEX
  5
333
  8
0
  6
CONTINUOUS
 10
60.555000000000078
 20
119.92779999999991
 30
0.0
  0
VERTEX
  5
334
  8
0
  6
CONTINUOUS
 10
68.916199999999904
 20
108.6377999999999
 30
0.0
  0
VERTEX
  5
335
  8
0
  6
CONTINUOUS
 10
75.986599999999967
 20
99.950799999999973
 30
0.0
  0
VERTEX
  5
336
  8
0
  6
CONTINUOUS
 10
87.596100000000007
 20
87.60169999999998
 30
0.0
  0
VERTEX
  5
337
  8
0
  6
CONTINUOUS
 10
101.0421999999998
 20
75.33539999999995
 30
0.0
  0
SEQEND
  5
338
  8
0
  6
CONTINUOUS
  0
POLYLINE
  5
28
  8
0
  6
CONTINUOUS
 66
     1
 10
0.0
 20
0.0
 30
0.0
 70
     1
  0
VERTEX
  5
339
  8
0
  6
CONTINUOUS
 10
135.0
 20
0.8499999999999776
 30
0.0
  0
VERTEX
  5
33A
  8
0
  6
CONTINUOUS
 10
134.75099999999989
 20
0.2488999999999469
 30
0.0
  0
VERTEX
  5
33B
  8
0
  6
CONTINUOUS
 10
134.14999999999981
 20
-0.0000000000000165
 30
0.0
  0
VERTEX
  5
33C
  8
0
  6
CONTINUOUS
 10
0.8499999999999091
 20
-0.0000000000000002
 30
0.0
  0
VERTEX
  5
33D
  8
0
  6
CONTINUOUS
 10
0.2489000000000487
 20
0.2488999999999633
 30
0.0
  0
VERTEX
  5
33E
  8
0
  6
CONTINUOUS
 10
0.0
 20
0.8499999999999941
 30
0.0
  0
VERTEX
  5
33F
  8
0
  6
CONTINUOUS
 10
0.0000000000000164
 20
134.14999999999989
 30
0.0
  0
VERTEX
  5
340
  8
0
  6
CONTINUOUS
 10
0.2489000000000652
 20
134.75099999999989
 30
0.0
  0
VERTEX
  5
341
  8
0
  6
CONTINUOUS
 10
0.8499999999999255
 20
135.0
 30
0.0
  0
VERTEX
  5
342
  8
0
  6
CONTINUOUS
 10
54.64789999999995
 20
135.0
 30
0.0
  0
VERTEX
  5
343
  8
0
  6
CONTINUOUS
 10
54.97319999999992
 20
134.9351999999999
 30
0.0
  0
VERTEX
  5
344
  8
0
  6
CONTINUOUS
 10
55.248900000000063
 20
134.75099999999989
 30
0.0
  0
VERTEX
  5
345
  8
0
  6
CONTINUOUS
 10
134.75099999999989
 20
55.248899999999949
 30
0.0
  0
VERTEX
  5
346
  8
0
  6
CONTINUOUS
 10
134.93529999999981
 20
54.973199999999942
 30
0.0
  0
VERTEX
  5
347
  8
0
  6
CONTINUOUS
 10
135.0
 20
54.647899999999979
 30
0.0
  0
SEQEND
  5
348
  8
0
  6
CONTINUOUS
  0
POLYLINE
  5
29
  8
0
  6
CONTINUOUS
 66
     1
 10
0.0
 20
0.0
 30
0.0
 70
     1
  0
VERTEX
  5
349
  8
0
  6
CONTINUOUS
 10
110.6268
 20
57.013399999999983
 30
0.0
  0
VERTEX
  5
34A
  8
0
  6
CONTINUOUS
 10
116.4678999999998
 20
53.476699999999951
 30
0.0
  0
VERTEX
  5
34B
  8
0
  6
CONTINUOUS
 10
120.2611999999999
 20
49.387299999999961
 30
0.0
  0
VERTEX
  5
34C
  8
0
  6
CONTINUOUS
 10
121.8322
 20
46.020299999999942
 30
0.0
  0
VERTEX
  5
34D
  8
0
  6
CONTINUOUS
 10
122.69969999999989
 20
41.50939999999995
 30
0.0
  0
VERTEX
  5
34E
  8
0
  6
CONTINUOUS
 10
122.2825
 20
37.856599999999972
 30
0.0
  0
VERTEX
  5
34F
  8
0
  6
CONTINUOUS
 10
121.0578
 20
34.32789999999995
 30
0.0
  0
VERTEX
  5
350
  8
0
  6
CONTINUOUS
 10
118.6269999999999
 20
30.16679999999992
 30
0.0
  0
VERTEX
  5
351
  8
0
  6
CONTINUOUS
 10
114.9814999999998
 20
25.829599999999949
 30
0.0
  0
VERTEX
  5
352
  8
0
  6
CONTINUOUS
 10
110.67059999999989
 20
22.031599999999951
 30
0.0
  0
VERTEX
  5
353
  8
0
  6
CONTINUOUS
 10
105.8738
 20
18.955599999999961
 30
0.0
  0
VERTEX
  5
354
  8
0
  6
CONTINUOUS
 10
96.718499999999949
 20
14.85069999999997
 30
0.0
  0
VERTEX
  5
355
  8
0
  6
CONTINUOUS
 10
87.207200000000043
 20
12.311499999999951
 30
0.0
  0
VERTEX
  5
356
  8
0
  6
CONTINUOUS
 10
77.627899999999954
 20
11.41219999999997
 30
0.0
  0
VERTEX
  5
357
  8
0
  6
CONTINUOUS
 10
68.322999999999865
 20
12.16879999999996
 30
0.0
  0
VERTEX
  5
358
  8
0
  6
CONTINUOUS
 10
61.40319999999997
 20
14.381599999999979
 30
0.0
  0
VERTEX
  5
359
  8
0
  6
CONTINUOUS
 10
53.885299999999923
 20
18.22459999999997
 30
0.0
  0
VERTEX
  5
35A
  8
0
  6
CONTINUOUS
 10
47.771999999999927
 20
23.062599999999961
 30
0.0
  0
VERTEX
  5
35B
  8
0
  6
CONTINUOUS
 10
44.516100000000037
 20
26.270599999999959
 30
0.0
  0
VERTEX
  5
35C
  8
0
  6
CONTINUOUS
 10
40.958000000000091
 20
31.227299999999978
 30
0.0
  0
VERTEX
  5
35D
  8
0
  6
CONTINUOUS
 10
38.86889999999994
 20
35.402099999999947
 30
0.0
  0
VERTEX
  5
35E
  8
0
  6
CONTINUOUS
 10
38.157999999999902
 20
38.882199999999948
 30
0.0
  0
VERTEX
  5
35F
  8
0
  6
CONTINUOUS
 10
38.404899999999998
 20
41.660399999999939
 30
0.0
  0
VERTEX
  5
360
  8
0
  6
CONTINUOUS
 10
38.987499999999962
 20
43.664999999999949
 30
0.0
  0
VERTEX
  5
361
  8
0
  6
CONTINUOUS
 10
41.673199999999952
 20
48.13029999999997
 30
0.0
  0
VERTEX
  5
362
  8
0
  6
CONTINUOUS
 10
45.04340000000002
 20
52.538099999999972
 30
0.0
  0
VERTEX
  5
363
  8
0
  6
CONTINUOUS
 10
49.031899999999951
 20
56.221999999999973
 30
0.0
  0
VERTEX
  5
364
  8
0
  6
CONTINUOUS
 10
53.604499999999931
 20
59.18389999999998
 30
0.0
  0
VERTEX
  5
365
  8
0
  6
CONTINUOUS
 10
61.742700000000021
 20
62.742999999999959
 30
0.0
  0
VERTEX
  5
366
  8
0
  6
CONTINUOUS
 10
70.318299999999923
 20
65.002499999999955
 30
0.0
  0
VERTEX
  5
367
  8
0
  6
CONTINUOUS
 10
79.149299999999826
 20
65.915699999999973
 30
0.0
  0
VERTEX
  5
368
  8
0
  6
CONTINUOUS
 10
88.024099999999876
 20
65.456999999999979
 30
0.0
  0
VERTEX
  5
369
  8
0
  6
CONTINUOUS
 10
96.810899999999975
 20
63.618299999999962
 30
0.0
  0
SEQEND
  5
36A
  8
0
  6
CONTINUOUS
  0
CIRCLE
  5
2A
  8
0
  6
CONTINUOUS
 10
107.9408792893033
 20
40.942613120093213
 30
0.0
 40
4.0026868799603683
  0
CIRCLE
  5
2B
  8
0
  6
CONTINUOUS
 10
107.94090893305319
 20
40.942591066946662
 30
0.0
 40
1.996786207399551
  0
POLYLINE
  5
2C
  8
0
  6
CONTINUOUS
 66
     1
 10
0.0
 20
0.0
 30
0.0
 70
     1
  0
VERTEX
  5
36B
  8
0
  6
CONTINUOUS
 10
40.278700000000072
 20
20.655499999999961
 30
0.0
  0
VERTEX
  5
36C
  8
0
  6
CONTINUOUS
 10
32.824599999999911
 20
25.103999999999981
 30
0.0
  0
VERTEX
  5
36D
  8
0
  6
CONTINUOUS
 10
22.61830000000009
 20
31.815899999999971
 30
0.0
  0
VERTEX
  5
36E
  8
0
  6
CONTINUOUS
 10
19.459799999999859
 20
34.36809999999997
 30
0.0
  0
VERTEX
  5
36F
  8
0
  6
CONTINUOUS
 10
16.958499999999962
 20
37.56859999999994
 30
0.0
  0
VERTEX
  5
370
  8
0
  6
CONTINUOUS
 10
15.2451000000001
 20
41.249899999999961
 30
0.0
  0
VERTEX
  5
371
  8
0
  6
CONTINUOUS
 10
14.406999999999931
 20
45.220699999999958
 30
0.0
  0
VERTEX
  5
372
  8
0
  6
CONTINUOUS
 10
14.48540000000003
 20
49.274399999999979
 30
0.0
  0
VERTEX
  5
373
  8
0
  6
CONTINUOUS
 10
15.47280000000001
 20
53.201499999999982
 30
0.0
  0
VERTEX
  5
374
  8
0
  6
CONTINUOUS
 10
17.31430000000001
 20
56.800399999999989
 30
0.0
  0
VERTEX
  5
375
  8
0
  6
CONTINUOUS
 10
21.706400000000031
 20
61.964899999999943
 30
0.0
  0
VERTEX
  5
376
  8
0
  6
CONTINUOUS
 10
28.070699999999992
 20
61.054499999999962
 30
0.0
  0
VERTEX
  5
377
  8
0
  6
CONTINUOUS
 10
29.57569999999988
 20
58.168199999999977
 30
0.0
  0
VERTEX
  5
378
  8
0
  6
CONTINUOUS
 10
31.553899999999889
 20
53.121899999999968
 30
0.0
  0
VERTEX
  5
379
  8
0
  6
CONTINUOUS
 10
32.400799999999897
 20
48.246799999999944
 30
0.0
  0
VERTEX
  5
37A
  8
0
  6
CONTINUOUS
 10
32.421499999999931
 20
41.457799999999978
 30
0.0
  0
VERTEX
  5
37B
  8
0
  6
CONTINUOUS
 10
32.290299999999888
 20
39.06429999999996
 30
0.0
  0
VERTEX
  5
37C
  8
0
  6
CONTINUOUS
 10
32.701099999999997
 20
34.576099999999961
 30
0.0
  0
VERTEX
  5
37D
  8
0
  6
CONTINUOUS
 10
33.95209999999998
 20
30.24769999999997
 30
0.0
  0
VERTEX
  5
37E
  8
0
  6
CONTINUOUS
 10
35.99779999999987
 20
26.23409999999998
 30
0.0
  0
SEQEND
  5
37F
  8
0
  6
CONTINUOUS
  0
POLYLINE
  5
2D
  8
0
  6
CONTINUOUS
 66
     1
 10
0.0
 20
0.0
 30
0.0
  0
VERTEX
  5
380
  8
0
  6
CONTINUOUS
 10
28.070699999999992
 20
61.054499999999962
 30
0.0
  0
VERTEX
  5
381
  8
0
  6
CONTINUOUS
 10
25.982800000000001
 20
64.102599999999995
 30
0.0
  0
VERTEX
  5
382
  8
0
  6
CONTINUOUS
 10
23.94419999999991
 20
66.492799999999988
 30
0.0
  0
VERTEX
  5
383
  8
0
  6
CONTINUOUS
 10
22.484600000000011
 20
67.915599999999984
 30
0.0
  0
VERTEX
  5
384
  8
0
  6
CONTINUOUS
 10
20.368199999999892
 20
69.732100000000003
 30
0.0
  0
VERTEX
  5
385
  8
0
  6
CONTINUOUS
 10
19.121499999999969
 20
70.589199999999977
 30
0.0
  0
VERTEX
  5
386
  8
0
  6
CONTINUOUS
 10
17.699499999999951
 20
71.426800000000014
 30
0.0
  0
VERTEX
  5
387
  8
0
  6
CONTINUOUS
 10
16.026100000000039
 20
72.32069999999996
 30
0.0
  0
VERTEX
  5
388
  8
0
  6
CONTINUOUS
 10
16.22540000000004
 20
70.881299999999982
 30
0.0
  0
VERTEX
  5
389
  8
0
  6
CONTINUOUS
 10
16.125099999999978
 20
69.451799999999992
 30
0.0
  0
VERTEX
  5
38A
  8
0
  6
CONTINUOUS
 10
15.793599999999969
 20
68.090199999999982
 30
0.0
  0
VERTEX
  5
38B
  8
0
  6
CONTINUOUS
 10
15.20910000000004
 20
66.892199999999974
 30
0.0
  0
VERTEX
  5
38C
  8
0
  6
CONTINUOUS
 10
10.84529999999995
 20
61.245999999999981
 30
0.0
  0
VERTEX
  5
38D
  8
0
  6
CONTINUOUS
 10
8.3734999999999271
 20
55.986699999999978
 30
0.0
  0
VERTEX
  5
38E
  8
0
  6
CONTINUOUS
 10
7.7812999999998791
 20
50.025999999999982
 30
0.0
  0
VERTEX
  5
38F
  8
0
  6
CONTINUOUS
 10
7.7046000000000321
 20
44.457099999999969
 30
0.0
  0
VERTEX
  5
390
  8
0
  6
CONTINUOUS
 10
8.8725999999999257
 20
39.068299999999958
 30
0.0
  0
VERTEX
  5
391
  8
0
  6
CONTINUOUS
 10
11.240000000000011
 20
34.091399999999993
 30
0.0
  0
VERTEX
  5
392
  8
0
  6
CONTINUOUS
 10
14.70180000000005
 20
29.738699999999959
 30
0.0
  0
VERTEX
  5
393
  8
0
  6
CONTINUOUS
 10
19.100500000000011
 20
26.189099999999961
 30
0.0
  0
VERTEX
  5
394
  8
0
  6
CONTINUOUS
 10
30.04509999999982
 20
19.799599999999959
 30
0.0
  0
VERTEX
  5
395
  8
0
  6
CONTINUOUS
 10
38.826499999999889
 20
15.64259999999995
 30
0.0
  0
VERTEX
  5
396
  8
0
  6
CONTINUOUS
 10
48.304099999999828
 20
11.68729999999996
 30
0.0
  0
VERTEX
  5
397
  8
0
  6
CONTINUOUS
 10
58.755899999999883
 20
8.0287999999999826
 30
0.0
  0
VERTEX
  5
398
  8
0
  6
CONTINUOUS
 10
50.219100000000019
 20
12.605099999999929
 30
0.0
  0
VERTEX
  5
399
  8
0
  6
CONTINUOUS
 10
43.024400000000007
 20
17.89529999999996
 30
0.0
  0
VERTEX
  5
39A
  8
0
  6
CONTINUOUS
 10
40.278700000000072
 20
20.655499999999961
 30
0.0
  0
SEQEND
  5
39B
  8
0
  6
CONTINUOUS
  0
POLYLINE
  5
2E
  8
0
  6
CONTINUOUS
 66
     1
 10
0.0
 20
0.0
 30
0.0
  0
VERTEX
  5
39C
  8
0
  6
CONTINUOUS
 10
21.706400000000031
 20
61.964899999999943
 30
0.0
  0
VERTEX
  5
39D
  8
0
  6
CONTINUOUS
 10
20.124499999999902
 20
63.101599999999962
 30
0.0
  0
VERTEX
  5
39E
  8
0
  6
CONTINUOUS
 10
18.538499999999889
 20
64.324399999999983
 30
0.0
  0
VERTEX
  5
39F
  8
0
  6
CONTINUOUS
 10
17.159999999999862
 20
65.404999999999973
 30
0.0
  0
VERTEX
  5
3A0
  8
0
  6
CONTINUOUS
 10
15.979000000000051
 20
66.338099999999955
 30
0.0
  0
VERTEX
  5
3A1
  8
0
  6
CONTINUOUS
 10
15.20910000000004
 20
66.892199999999974
 30
0.0
  0
VERTEX
  5
3A2
  8
0
  6
CONTINUOUS
 10
14.63979999999993
 20
67.31159999999997
 30
0.0
  0
SEQEND
  5
3A3
  8
0
  6
CONTINUOUS
  0
DIMENSION
  5
35
  8
COTATION-JACOBDELAFON
  2
*D0
 10
-0.0000000000000007
 20
-9.8053491870951746
 30
0.0
 11
67.5
 21
-7.3726070315699364
 31
0.0
 70
     0
 13
135.0
 23
0.8499999999999776
 33
0.0
 14
0.0
 24
0.8499999999999941
 34
0.0
 50
180.0
  0
DIMENSION
  5
44
  8
COTATION-JACOBDELAFON
  2
*D1
 10
-11.551140293277051
 20
0.0000000000000033
 30
0.0
 11
-13.983882448802291
 21
67.5
 31
0.0
 70
     0
 13
0.8499999999999255
 23
135.0
 33
0.0
 14
0.8499999999999091
 24
-0.0000000000000002
 34
0.0
 50
270.0
  0
INSERT
  5
116
 67
     1
  8
0
  6
CONTINUOUS
  2
ADCADD_ZZ
 10
0.0
 20
0.0
 30
0.0
1001
ADCADD_ZZ
1070
   205
1070
    14
1070
   209
1070
     1
1070
   231
1070
     0
1070
   235
1070
     0
1070
   236
1070
     4
1070
   237
1070
     2
1070
   238
1070
     4
1070
   239
1070
     2
1070
   240
1070
     0
1070
   241
1070
  4096
1070
   242
1070
     2
1070
   244
1070
     0
1070
   245
1070
     1
1070
   303
1040
0.1
1070
   304
1040
4.0
1070
   305
1040
96.0
1070
   306
1040
0.125
1070
   337
1040
0.0
1070
   338
1040
0.3048
1070
   339
1040
0.0625
1070
   340
1040
96.0
1070
   341
1040
4.0
1070
   342
1040
96.0
1070
   530
1010
0.0
1020
0.0
1030
0.0
1070
   531
1010
0.0
1020
0.0
1030
0.0
1070
   107
1000

1070
   108
1000
AIA (256 Color)
1070
   135
1000
L120
1070
   136
1000
'
1070
   137
1000
m
1001
SDSK_PMN
1070
   100
1000
ACADARCH
1070
   300
1040
2453076.579785856
  0
ENDSEC
  0
EOF
