  0
SECTION
  2
HEADER
  9
$ACADVER
  1
AC1009
  9
$INSBASE
 10
0.0
 20
0.0
 30
0.0
  9
$EXTMIN
 10
-9.6044072148306672
 20
-18.331512451171871
 30
0.0
  9
$EXTMAX
 10
135.89999642372109
 20
50.586562864449547
 30
0.0
  9
$LIMMIN
 10
0.0
 20
0.0
  9
$LIMMAX
 10
12.0
 20
9.0
  9
$ORTHOMODE
 70
     1
  9
$REGENMODE
 70
     1
  9
$FILLMODE
 70
     1
  9
$QTEXTMODE
 70
     0
  9
$MIRRTEXT
 70
     1
  9
$DRAGMODE
 70
     2
  9
$LTSCALE
 40
1.0
  9
$OSMODE
 70
     1
  9
$ATTMODE
 70
     1
  9
$TEXTSIZE
 40
0.2
  9
$TRACEWID
 40
0.05
  9
$TEXTSTYLE
  7
STANDARD
  9
$CLAYER
  8
0
  9
$CELTYPE
  6
CONTINUOUS
  9
$CECOLOR
 62
   256
  9
$DIMSCALE
 40
96.0
  9
$DIMASZ
 40
1.8
  9
$DIMEXO
 40
0.625
  9
$DIMDLI
 40
3.7999999999999989
  9
$DIMRND
 40
0.0
  9
$DIMDLE
 40
0.0
  9
$DIMEXE
 40
1.8
  9
$DIMTP
 40
0.0
  9
$DIMTM
 40
0.0
  9
$DIMTXT
 40
3.0
  9
$DIMCEN
 40
0.9
  9
$DIMTSZ
 40
0.0
  9
$DIMTOL
 70
     0
  9
$DIMLIM
 70
     0
  9
$DIMTIH
 70
     0
  9
$DIMTOH
 70
     0
  9
$DIMSE1
 70
     0
  9
$DIMSE2
 70
     0
  9
$DIMTAD
 70
     1
  9
$DIMZIN
 70
    12
  9
$DIMBLK
  1
OBLIQUE
  9
$DIMASO
 70
     1
  9
$DIMSHO
 70
     1
  9
$DIMPOST
  1

  9
$DIMAPOST
  1

  9
$DIMALT
 70
     0
  9
$DIMALTD
 70
     2
  9
$DIMALTF
 40
25.399999999999999
  9
$DIMLFAC
 40
1.0
  9
$DIMTOFL
 70
     0
  9
$DIMTVP
 40
0.0
  9
$DIMTIX
 70
     0
  9
$DIMSOXD
 70
     0
  9
$DIMSAH
 70
     0
  9
$DIMBLK1
  1

  9
$DIMBLK2
  1

  9
$DIMSTYLE
  2
COTATION-JACOB-DELAFON
  9
$DIMCLRD
 70
     0
  9
$DIMCLRE
 70
     0
  9
$DIMCLRT
 70
     0
  9
$DIMTFAC
 40
1.0
  9
$DIMGAP
 40
0.9
  9
$LUNITS
 70
     2
  9
$LUPREC
 70
     4
  9
$SKETCHINC
 40
0.1
  9
$FILLETRAD
 40
0.0
  9
$AUNITS
 70
     0
  9
$AUPREC
 70
     2
  9
$MENU
  1
.
  9
$ELEVATION
 40
0.0
  9
$PELEVATION
 40
0.0
  9
$THICKNESS
 40
0.0
  9
$LIMCHECK
 70
     0
  9
$BLIPMODE
 70
     0
  9
$CHAMFERA
 40
0.0
  9
$CHAMFERB
 40
0.0
  9
$SKPOLY
 70
     0
  9
$TDCREATE
 40
2453040.4524793061
  9
$TDUPDATE
 40
2453076.5800575232
  9
$TDINDWG
 40
0.0757531597
  9
$TDUSRTIMER
 40
0.0757531597
  9
$USRTIMER
 70
     1
  9
$ANGBASE
 50
0.0
  9
$ANGDIR
 70
     0
  9
$PDMODE
 70
     0
  9
$PDSIZE
 40
0.0
  9
$PLINEWID
 40
0.0
  9
$COORDS
 70
     1
  9
$SPLFRAME
 70
     0
  9
$SPLINETYPE
 70
     6
  9
$SPLINESEGS
 70
     8
  9
$ATTDIA
 70
     1
  9
$ATTREQ
 70
     1
  9
$HANDLING
 70
 22529
  9
$HANDSEED
  5
2C9
  9
$SURFTAB1
 70
     6
  9
$SURFTAB2
 70
     6
  9
$SURFTYPE
 70
     6
  9
$SURFU
 70
     6
  9
$SURFV
 70
     6
  9
$UCSNAME
  2

  9
$UCSORG
 10
0.0
 20
0.0
 30
0.0
  9
$UCSXDIR
 10
1.0
 20
0.0
 30
0.0
  9
$UCSYDIR
 10
0.0
 20
1.0
 30
0.0
  9
$PUCSNAME
  2

  9
$PUCSORG
 10
0.0
 20
0.0
 30
0.0
  9
$PUCSXDIR
 10
1.0
 20
0.0
 30
0.0
  9
$PUCSYDIR
 10
0.0
 20
1.0
 30
0.0
  9
$USERI1
 70
     0
  9
$USERI2
 70
     0
  9
$USERI3
 70
     0
  9
$USERI4
 70
     0
  9
$USERI5
 70
     0
  9
$USERR1
 40
0.0
  9
$USERR2
 40
0.0
  9
$USERR3
 40
0.0
  9
$USERR4
 40
0.0
  9
$USERR5
 40
0.0
  9
$WORLDVIEW
 70
     1
  9
$SHADEDGE
 70
     3
  9
$SHADEDIF
 70
    70
  9
$TILEMODE
 70
     1
  9
$MAXACTVP
 70
    64
  9
$PLIMCHECK
 70
     0
  9
$PEXTMIN
 10
-0.8187279627505859
 20
-0.8221314904020644
 30
0.0
  9
$PEXTMAX
 10
1043.155851236734
 20
316.7296924349256
 30
0.0
  9
$PLIMMIN
 10
-0.1979161059762549
 20
-0.2679166643638311
  9
$PLIMMAX
 10
11.493750144177531
 20
7.9987497780266699
  9
$UNITMODE
 70
     0
  9
$VISRETAIN
 70
     1
  9
$PLINEGEN
 70
     0
  9
$PSLTSCALE
 70
     1
  0
ENDSEC
  0
SECTION
  2
TABLES
  0
TABLE
  2
VPORT
 70
     2
  0
VPORT
  2
*ACTIVE
 70
     0
 10
0.0
 20
0.0
 11
1.0
 21
1.0
 12
67.164988598872299
 22
16.127019567568961
 13
0.0
 23
0.0
 14
1.0
 24
1.0
 15
0.0
 25
0.0
 16
0.0
 26
0.0
 36
1.0
 17
0.0
 27
0.0
 37
0.0
 40
80.099315799488068
 41
1.928853754940711
 42
50.0
 43
0.0
 44
0.0
 50
0.0
 51
0.0
 71
     0
 72
   100
 73
     1
 74
     1
 75
     0
 76
     0
 77
     0
 78
     0
  0
ENDTAB
  0
TABLE
  2
LTYPE
 70
     1
  0
LTYPE
  2
CONTINUOUS
 70
     0
  3
Solid line
 72
    65
 73
     0
 40
0.0
  0
ENDTAB
  0
TABLE
  2
LAYER
 70
     3
  0
LAYER
  2
0
 70
     0
 62
     7
  6
CONTINUOUS
  0
LAYER
  2
DEFPOINTS
 70
     0
 62
     7
  6
CONTINUOUS
  0
LAYER
  2
COTATION-JACOBDELAFON
 70
     0
 62
     8
  6
CONTINUOUS
  0
ENDTAB
  0
TABLE
  2
STYLE
 70
     2
  0
STYLE
  2
STANDARD
 70
     0
 40
0.0
 41
1.0
 50
0.0
 71
     0
 42
0.2
  3
txt
  4

  0
STYLE
  2
JACOB-DELAFON
 70
     0
 40
0.0
 41
1.0
 50
0.0
 71
     0
 42
2.5
  3
txt
  4

  0
ENDTAB
  0
TABLE
  2
VIEW
 70
     0
  0
ENDTAB
  0
TABLE
  2
UCS
 70
     0
  0
ENDTAB
  0
TABLE
  2
APPID
 70
     5
  0
APPID
  2
ACAD
 70
     0
  0
APPID
  2
ADCADD_ZZ
 70
     0
  0
APPID
  2
SDSK_PMN
 70
     0
  0
APPID
  2
AEC_DWGVARSSETUP_DATA
 70
     0
  0
APPID
  2
AEC_DISPREPSET_DATA
 70
     0
  0
ENDTAB
  0
TABLE
  2
DIMSTYLE
 70
     2
  0
DIMSTYLE
  2
STANDARD
 70
     0
  3

  4

  5

  6

  7

 40
1.0
 41
0.18
 42
0.0625
 43
0.38
 44
0.18
 45
0.0
 46
0.0
 47
0.0
 48
0.0
140
0.18
141
0.09
142
0.0
143
25.399999999999999
144
1.0
145
0.0
146
1.0
147
0.09
 71
     0
 72
     0
 73
     1
 74
     1
 75
     0
 76
     0
 77
     0
 78
     0
170
     0
171
     2
172
     0
173
     0
174
     0
175
     0
176
     0
177
     0
178
     0
  0
DIMSTYLE
  2
COTATION-JACOB-DELAFON
 70
     0
  3

  4

  5
OBLIQUE
  6

  7

 40
1.0
 41
1.8
 42
0.625
 43
3.7999999999999989
 44
1.8
 45
0.0
 46
0.0
 47
0.0
 48
0.0
140
3.0
141
0.9
142
0.0
143
25.399999999999999
144
1.0
145
0.0
146
1.0
147
0.9
 71
     0
 72
     0
 73
     0
 74
     0
 75
     0
 76
     0
 77
     1
 78
    12
170
     0
171
     2
172
     0
173
     0
174
     0
175
     0
176
     0
177
     0
178
     0
  0
ENDTAB
  0
ENDSEC
  0
SECTION
  2
BLOCKS
  0
BLOCK
  8
0
  2
$MODEL_SPACE
 70
     0
 10
0.0
 20
0.0
 30
0.0
  3
$MODEL_SPACE
  1

  0
ENDBLK
  5
9
  8
0
  0
BLOCK
 67
     1
  8
0
  2
$PAPER_SPACE
 70
     0
 10
0.0
 20
0.0
 30
0.0
  3
$PAPER_SPACE
  1

  0
ENDBLK
  5
E
 67
     1
  8
0
  0
BLOCK
  8
0
  2
*D0
 70
     1
 10
0.0
 20
0.0
 30
0.0
  3
*D0
  1

  0
LINE
  5
D3
  8
COTATION-JACOBDELAFON
 62
     0
 10
-0.794823010087498
 20
40.668487548828118
 30
0.0
 11
-6.7042707891826367
 21
40.668487548828118
 31
0.0
  0
LINE
  5
D4
  8
COTATION-JACOBDELAFON
 62
     0
 10
9.7673763440843686
 20
-1.331512451171875
 30
0.0
 11
-6.7042707891826474
 21
-1.3315124511718699
 31
0.0
  0
LINE
  5
D5
  8
COTATION-JACOBDELAFON
 62
     0
 10
-4.9042707891826369
 20
40.668487548828118
 30
0.0
 11
-4.9042707891826458
 21
-1.3315124511718699
 31
0.0
  0
INSERT
  5
D6
  8
COTATION-JACOBDELAFON
 62
     0
  2
_OBLIQUE
 10
-4.9042707891826369
 20
40.668487548828118
 30
0.0
 41
1.8
 42
1.8
 43
1.8
 50
90.0
  0
INSERT
  5
D7
  8
COTATION-JACOBDELAFON
 62
     0
  2
_OBLIQUE
 10
-4.9042707891826458
 20
-1.3315124511718699
 30
0.0
 41
1.8
 42
1.8
 43
1.8
 50
270.0
  0
TEXT
  5
D8
  8
0
  6
CONTINUOUS
 62
     0
 10
-5.8104099433436271
 20
17.42155712590861
 30
0.0
 40
3.0
  1
42
 50
90.0
  7
JACOB-DELAFON
  0
POINT
  5
D9
  8
DEFPOINTS
 62
     0
 10
-0.169823010087498
 20
40.668487548828118
 30
0.0
  0
POINT
  5
DA
  8
DEFPOINTS
 62
     0
 10
10.39237634408436
 20
-1.331512451171875
 30
0.0
  0
POINT
  5
DB
  8
DEFPOINTS
 62
     0
 10
-4.9042707891826458
 20
-1.3315124511718699
 30
0.0
  0
ENDBLK
  5
50
  8
0
  0
BLOCK
  8
0
  2
_OBLIQUE
 70
     0
 10
0.0
 20
0.0
 30
0.0
  3
_OBLIQUE
  1

  0
LINE
  5
52
  8
0
  6
BYBLOCK
 62
     0
 10
-0.5
 20
-0.5
 30
0.0
 11
0.5
 21
0.5
 31
0.0
  0
ENDBLK
  5
54
  8
0
  0
BLOCK
  8
0
  2
*D2
 70
     1
 10
0.0
 20
0.0
 30
0.0
  3
*D2
  1

  0
LINE
  5
CA
  8
COTATION-JACOBDELAFON
 62
     0
 10
0.0
 20
38.295135498046868
 30
0.0
 11
0.0000000000000006
 21
47.633220436073017
 31
0.0
  0
LINE
  5
CB
  8
COTATION-JACOBDELAFON
 62
     0
 10
134.999996423721
 20
38.295135498046868
 30
0.0
 11
134.999996423721
 21
47.633220436073017
 31
0.0
  0
LINE
  5
CC
  8
COTATION-JACOBDELAFON
 62
     0
 10
0.0000000000000005
 20
45.83322043607302
 30
0.0
 11
134.999996423721
 21
45.83322043607302
 31
0.0
  0
INSERT
  5
CD
  8
COTATION-JACOBDELAFON
 62
     0
  2
_OBLIQUE
 10
0.0000000000000005
 20
45.83322043607302
 30
0.0
 41
1.8
 42
1.8
 43
1.8
 50
180.0
  0
INSERT
  5
CE
  8
COTATION-JACOBDELAFON
 62
     0
  2
_OBLIQUE
 10
134.999996423721
 20
45.83322043607302
 30
0.0
 41
1.8
 42
1.8
 43
1.8
  0
TEXT
  5
CF
  8
0
  6
CONTINUOUS
 62
     0
 10
63.859479794398062
 20
46.792565592962511
 30
0.0
 40
3.0
  1
135
  7
JACOB-DELAFON
  0
POINT
  5
D0
  8
DEFPOINTS
 62
     0
 10
0.0
 20
37.670135498046868
 30
0.0
  0
POINT
  5
D1
  8
DEFPOINTS
 62
     0
 10
134.999996423721
 20
37.670135498046868
 30
0.0
  0
POINT
  5
D2
  8
DEFPOINTS
 62
     0
 10
134.999996423721
 20
45.83322043607302
 30
0.0
  0
ENDBLK
  5
B2
  8
0
  0
BLOCK
  8
0
  2
ADCADD_ZZ
 70
     0
 10
0.0
 20
0.0
 30
0.0
  3
ADCADD_ZZ
  1

  0
ENDBLK
  5
116
  8
0
  0
ENDSEC
  0
SECTION
  2
ENTITIES
  0
POLYLINE
  5
24
  8
0
  6
CONTINUOUS
 66
     1
 10
0.0
 20
0.0
 30
0.0
  0
VERTEX
  5
26C
  8
0
  6
CONTINUOUS
 10
6.5055012702941886
 20
3.178985595703125
 30
0.0
  0
VERTEX
  5
26D
  8
0
  6
CONTINUOUS
 10
118.9441978931427
 20
2.82879638671875
 30
0.0
  0
SEQEND
  5
26E
  8
0
  6
CONTINUOUS
  0
POLYLINE
  5
25
  8
0
  6
CONTINUOUS
 66
     1
 10
0.0
 20
0.0
 30
0.0
  0
VERTEX
  5
26F
  8
0
  6
CONTINUOUS
 10
4.7398342139179022
 20
37.670135498046868
 30
0.0
  0
VERTEX
  5
270
  8
0
  6
CONTINUOUS
 10
6.5055012702941886
 20
3.178985595703125
 30
0.0
  0
VERTEX
  5
271
  8
0
  6
CONTINUOUS
 10
7.0509016513824463
 20
1.33343505859375
 30
0.0
  0
VERTEX
  5
272
  8
0
  6
CONTINUOUS
 10
7.9024016857147208
 20
0.14019775390625
 30
0.0
  0
VERTEX
  5
273
  8
0
  6
CONTINUOUS
 10
8.9258015155792236
 20
-0.5723876953125
 30
0.0
  0
VERTEX
  5
274
  8
0
  6
CONTINUOUS
 10
10.001301765441889
 20
-1.014892578125
 30
0.0
  0
VERTEX
  5
275
  8
0
  6
CONTINUOUS
 10
10.56080162525177
 20
-1.15069580078125
 30
0.0
  0
VERTEX
  5
276
  8
0
  6
CONTINUOUS
 10
11.115899682044979
 20
-1.27734375
 30
0.0
  0
VERTEX
  5
277
  8
0
  6
CONTINUOUS
 10
11.41220033168792
 20
-1.331512451171875
 30
0.0
  0
VERTEX
  5
278
  8
0
  6
CONTINUOUS
 10
65.915703773498535
 20
-1.331512451171875
 30
0.0
  0
VERTEX
  5
279
  8
0
  6
CONTINUOUS
 10
66.222798824310303
 20
-1.165191650390625
 30
0.0
  0
VERTEX
  5
27A
  8
0
  6
CONTINUOUS
 10
66.862499713897705
 20
-0.225250244140625
 30
0.0
  0
VERTEX
  5
27B
  8
0
  6
CONTINUOUS
 10
67.174100875854492
 20
-0.0352783203125
 30
0.0
  0
VERTEX
  5
27C
  8
0
  6
CONTINUOUS
 10
113.0721986293792
 20
-0.036041259765625
 30
0.0
  0
VERTEX
  5
27D
  8
0
  6
CONTINUOUS
 10
114.3914043903348
 20
0.163848876953125
 30
0.0
  0
VERTEX
  5
27E
  8
0
  6
CONTINUOUS
 10
116.01720452308651
 20
0.738342285156307
 30
0.0
  0
VERTEX
  5
27F
  8
0
  6
CONTINUOUS
 10
117.6899015903472
 20
1.642425537109431
 30
0.0
  0
VERTEX
  5
280
  8
0
  6
CONTINUOUS
 10
118.9441978931427
 20
2.82879638671875
 30
0.0
  0
VERTEX
  5
281
  8
0
  6
CONTINUOUS
 10
128.12450836538071
 20
37.670135498046868
 30
0.0
  0
SEQEND
  5
282
  8
0
  6
CONTINUOUS
  0
POLYLINE
  5
26
  8
0
  6
CONTINUOUS
 66
     1
 10
0.0
 20
0.0
 30
0.0
 70
     1
  0
VERTEX
  5
283
  8
0
  6
CONTINUOUS
 10
0.0
 20
37.670135498046868
 30
0.0
  0
VERTEX
  5
284
  8
0
  6
CONTINUOUS
 10
0.0
 20
39.8193359375
 30
0.0
  0
VERTEX
  5
285
  8
0
  6
CONTINUOUS
 10
0.2489000558852012
 20
40.419769287109368
 30
0.0
  0
VERTEX
  5
286
  8
0
  6
CONTINUOUS
 10
0.8500009775160606
 20
40.668487548828118
 30
0.0
  0
VERTEX
  5
287
  8
0
  6
CONTINUOUS
 10
134.14990305900571
 20
40.668487548828118
 30
0.0
  0
VERTEX
  5
288
  8
0
  6
CONTINUOUS
 10
134.75100398063651
 20
40.419769287109368
 30
0.0
  0
VERTEX
  5
289
  8
0
  6
CONTINUOUS
 10
134.999996423721
 20
39.8193359375
 30
0.0
  0
VERTEX
  5
28A
  8
0
  6
CONTINUOUS
 10
134.999996423721
 20
37.670135498046868
 30
0.0
  0
SEQEND
  5
28B
  8
0
  6
CONTINUOUS
  0
POLYLINE
  5
27
  8
0
  6
CONTINUOUS
 66
     1
 10
0.0
 20
0.0
 30
0.0
  0
VERTEX
  5
28C
  8
0
  6
CONTINUOUS
 10
13.757162336135019
 20
37.670135498046868
 30
0.0
  0
VERTEX
  5
28D
  8
0
  6
CONTINUOUS
 10
18.179002404212952
 20
36.530303955078118
 30
0.0
  0
VERTEX
  5
28E
  8
0
  6
CONTINUOUS
 10
20.938000082969431
 20
36.134338378906193
 30
0.0
  0
VERTEX
  5
28F
  8
0
  6
CONTINUOUS
 10
26.512402296066281
 20
35.35614013671875
 30
0.0
  0
VERTEX
  5
290
  8
0
  6
CONTINUOUS
 10
30.518800020217888
 20
35.36224365234375
 30
0.0
  0
VERTEX
  5
291
  8
0
  6
CONTINUOUS
 10
34.769201278686523
 20
35.35919189453125
 30
0.0
  0
VERTEX
  5
292
  8
0
  6
CONTINUOUS
 10
39.176398515701287
 20
35.35919189453125
 30
0.0
  0
VERTEX
  5
293
  8
0
  6
CONTINUOUS
 10
41.529500484466332
 20
35.35614013671875
 30
0.0
  0
VERTEX
  5
294
  8
0
  6
CONTINUOUS
 10
48.501503467559807
 20
35.3607177734375
 30
0.0
  0
VERTEX
  5
295
  8
0
  6
CONTINUOUS
 10
53.387898206710808
 20
35.36224365234375
 30
0.0
  0
VERTEX
  5
296
  8
0
  6
CONTINUOUS
 10
58.441400527954102
 20
35.31341552734375
 30
0.0
  0
VERTEX
  5
297
  8
0
  6
CONTINUOUS
 10
61.331903934478753
 20
35.265350341796818
 30
0.0
  0
VERTEX
  5
298
  8
0
  6
CONTINUOUS
 10
64.383101463317871
 20
35.242462158203118
 30
0.0
  0
VERTEX
  5
299
  8
0
  6
CONTINUOUS
 10
66.774803400039673
 20
35.2203369140625
 30
0.0
  0
VERTEX
  5
29A
  8
0
  6
CONTINUOUS
 10
68.197399377822649
 20
35.378265380859368
 30
0.0
  0
VERTEX
  5
29B
  8
0
  6
CONTINUOUS
 10
70.013201236724626
 20
36.149597167968693
 30
0.0
  0
VERTEX
  5
29C
  8
0
  6
CONTINUOUS
 10
70.868802070617448
 20
36.797332763671868
 30
0.0
  0
VERTEX
  5
29D
  8
0
  6
CONTINUOUS
 10
71.472665712918115
 20
37.670135498046868
 30
0.0
  0
SEQEND
  5
29E
  8
0
  6
CONTINUOUS
  0
POLYLINE
  5
28
  8
0
  6
CONTINUOUS
 66
     1
 10
0.0
 20
0.0
 30
0.0
  0
VERTEX
  5
29F
  8
0
  6
CONTINUOUS
 10
67.174100875854492
 20
-0.0352783203125
 30
0.0
  0
VERTEX
  5
2A0
  8
0
  6
CONTINUOUS
 10
66.71220064163208
 20
-0.0352783203125
 30
0.0
  0
VERTEX
  5
2A1
  8
0
  6
CONTINUOUS
 10
66.234701871871934
 20
-0.0352783203125
 30
0.0
  0
VERTEX
  5
2A2
  8
0
  6
CONTINUOUS
 10
63.920301198959351
 20
-0.0352783203125
 30
0.0
  0
VERTEX
  5
2A3
  8
0
  6
CONTINUOUS
 10
60.276401042938232
 20
-0.0352783203125
 30
0.0
  0
VERTEX
  5
2A4
  8
0
  6
CONTINUOUS
 10
58.121299743652337
 20
-0.0352783203125
 30
0.0
  0
SEQEND
  5
2A5
  8
0
  6
CONTINUOUS
  0
POLYLINE
  5
29
  8
0
  6
CONTINUOUS
 66
     1
 10
0.0
 20
0.0
 30
0.0
  0
VERTEX
  5
2A6
  8
0
  6
CONTINUOUS
 10
53.476703166961663
 20
-1.331512451171875
 30
0.0
  0
VERTEX
  5
2A7
  8
0
  6
CONTINUOUS
 10
54.097300767898332
 20
-1.15069580078125
 30
0.0
  0
VERTEX
  5
2A8
  8
0
  6
CONTINUOUS
 10
57.678598165512078
 20
-0.225250244140625
 30
0.0
  0
VERTEX
  5
2A9
  8
0
  6
CONTINUOUS
 10
58.121299743652337
 20
-0.0352783203125
 30
0.0
  0
SEQEND
  5
2AA
  8
0
  6
CONTINUOUS
  0
DIMENSION
  5
43
  8
COTATION-JACOBDELAFON
  2
*D0
 10
-4.9042707891826458
 20
-1.3315124511718699
 30
0.0
 11
-7.310409943343628
 21
19.668487548828121
 31
0.0
 70
     0
 13
-0.169823010087498
 23
40.668487548828118
 33
0.0
 14
10.39237634408436
 24
-1.331512451171875
 34
0.0
 50
90.0
  0
DIMENSION
  5
A5
  8
COTATION-JACOBDELAFON
  2
*D2
 10
134.999996423721
 20
45.83322043607302
 30
0.0
 11
67.499998211860543
 21
48.26596259159826
 31
0.0
 70
     0
 13
0.0
 23
37.670135498046868
 33
0.0
 14
134.999996423721
 24
37.670135498046868
 34
0.0
  0
LINE
  5
EA
  8
0
 10
21.499998211860529
 20
-5.6428264786874527
 30
0.0
 11
21.499998211860529
 21
-14.83151245117187
 31
0.0
  0
LINE
  5
EB
  8
0
 10
23.499998211860529
 20
-5.6428264786874527
 30
0.0
 11
23.499998211860522
 21
-14.83151245117187
 31
0.0
  0
POLYLINE
  5
EC
  8
0
 66
     1
 10
0.0
 20
0.0
 30
0.0
 70
     1
  0
VERTEX
  5
2AB
  8
0
 10
20.999998211860529
 20
-5.6428264786874527
 30
0.0
  0
VERTEX
  5
2AC
  8
0
 10
23.999998211860539
 20
-5.6428264786874527
 30
0.0
  0
VERTEX
  5
2AD
  8
0
 10
23.999998211860539
 20
-0.6428264786874554
 30
0.0
  0
VERTEX
  5
2AE
  8
0
 10
20.999998211860529
 20
-0.6428264786874554
 30
0.0
  0
SEQEND
  5
2AF
  8
0
  0
POLYLINE
  5
ED
  8
0
 66
     1
 10
0.0
 20
0.0
 30
0.0
 70
     1
  0
VERTEX
  5
2B0
  8
0
 10
20.999998211860522
 20
-17.831512451171871
 30
0.0
  0
VERTEX
  5
2B1
  8
0
 10
23.999998211860529
 20
-17.831512451171871
 30
0.0
  0
VERTEX
  5
2B2
  8
0
 10
23.999998211860529
 20
-14.83151245117187
 30
0.0
  0
VERTEX
  5
2B3
  8
0
 10
20.999998211860522
 20
-14.83151245117187
 30
0.0
  0
SEQEND
  5
2B4
  8
0
  0
POLYLINE
  5
EE
  8
0
 66
     1
 10
0.0
 20
0.0
 30
0.0
 70
     1
  0
VERTEX
  5
2B5
  8
0
 10
19.999998211860529
 20
-18.331512451171871
 30
0.0
  0
VERTEX
  5
2B6
  8
0
 10
24.999998211860529
 20
-18.331512451171871
 30
0.0
  0
VERTEX
  5
2B7
  8
0
 10
24.999998211860529
 20
-17.831512451171871
 30
0.0
  0
VERTEX
  5
2B8
  8
0
 10
19.999998211860529
 20
-17.831512451171871
 30
0.0
  0
SEQEND
  5
2B9
  8
0
  0
POLYLINE
  5
F6
  8
0
 66
     1
 10
0.0
 20
0.0
 30
0.0
 70
     1
  0
VERTEX
  5
2BA
  8
0
 10
100.9999982118605
 20
-4.3787181470841281
 30
0.0
  0
VERTEX
  5
2BB
  8
0
 10
103.9999982118605
 20
-4.3787181470841281
 30
0.0
  0
VERTEX
  5
2BC
  8
0
 10
103.9999982118605
 20
0.6212818529158694
 30
0.0
  0
VERTEX
  5
2BD
  8
0
 10
100.9999982118605
 20
0.6212818529158694
 30
0.0
  0
SEQEND
  5
2BE
  8
0
  0
POLYLINE
  5
F7
  8
0
 66
     1
 10
0.0
 20
0.0
 30
0.0
 70
     1
  0
VERTEX
  5
2BF
  8
0
 10
99.999998211860543
 20
-18.331512451171871
 30
0.0
  0
VERTEX
  5
2C0
  8
0
 10
104.9999982118605
 20
-18.331512451171871
 30
0.0
  0
VERTEX
  5
2C1
  8
0
 10
104.9999982118605
 20
-17.831512451171871
 30
0.0
  0
VERTEX
  5
2C2
  8
0
 10
99.999998211860543
 20
-17.831512451171871
 30
0.0
  0
SEQEND
  5
2C3
  8
0
  0
LINE
  5
F8
  8
0
 10
103.4999982118605
 20
-4.3787181470841281
 30
0.0
 11
103.4999982118605
 21
-14.83151245117187
 31
0.0
  0
LINE
  5
F9
  8
0
 10
101.4999982118605
 20
-4.3787181470841281
 30
0.0
 11
101.4999982118605
 21
-14.83151245117187
 31
0.0
  0
POLYLINE
  5
FA
  8
0
 66
     1
 10
0.0
 20
0.0
 30
0.0
 70
     1
  0
VERTEX
  5
2C4
  8
0
 10
100.9999982118605
 20
-17.831512451171871
 30
0.0
  0
VERTEX
  5
2C5
  8
0
 10
103.9999982118605
 20
-17.831512451171871
 30
0.0
  0
VERTEX
  5
2C6
  8
0
 10
103.9999982118605
 20
-14.83151245117187
 30
0.0
  0
VERTEX
  5
2C7
  8
0
 10
100.9999982118605
 20
-14.83151245117187
 30
0.0
  0
SEQEND
  5
2C8
  8
0
  0
INSERT
  5
117
 67
     1
  8
0
  6
CONTINUOUS
  2
ADCADD_ZZ
 10
0.0
 20
0.0
 30
0.0
1001
ADCADD_ZZ
1070
   205
1070
    14
1070
   209
1070
     1
1070
   231
1070
     0
1070
   235
1070
     0
1070
   236
1070
     4
1070
   237
1070
     2
1070
   238
1070
     4
1070
   239
1070
     2
1070
   240
1070
     0
1070
   241
1070
  4096
1070
   242
1070
     2
1070
   244
1070
     0
1070
   245
1070
     1
1070
   303
1040
0.1
1070
   304
1040
4.0
1070
   305
1040
96.0
1070
   306
1040
0.125
1070
   337
1040
0.0
1070
   338
1040
0.3048
1070
   339
1040
0.0625
1070
   340
1040
96.0
1070
   341
1040
4.0
1070
   342
1040
96.0
1070
   530
1010
0.0
1020
0.0
1030
0.0
1070
   531
1010
0.0
1020
0.0
1030
0.0
1070
   107
1000

1070
   108
1000
AIA (256 Color)
1070
   135
1000
L120
1070
   136
1000
'
1070
   137
1000
m
1001
SDSK_PMN
1070
   100
1000
ACADARCH
1070
   300
1040
2453076.5800840622
  0
ENDSEC
  0
EOF
